  0
SECTION
  2
HEADER
  9
$ACADVER
  1
AC1015
  9
$ACADMAINTVER
 70
     6
  9
$DWGCODEPAGE
  3
ANSI_1252
  9
$INSBASE
 10
0.0
 20
0.0
 30
0.0
  9
$EXTMIN
 10
0.0
 20
0.0
 30
0.0
  9
$EXTMAX
 10
594.0
 20
841.0
 30
0.0
  9
$LIMMIN
 10
0.0
 20
0.0
  9
$LIMMAX
 10
594.0
 20
841.0
  9
$ORTHOMODE
 70
     0
  9
$REGENMODE
 70
     1
  9
$FILLMODE
 70
     1
  9
$QTEXTMODE
 70
     0
  9
$MIRRTEXT
 70
     1
  9
$LTSCALE
 40
1.0
  9
$ATTMODE
 70
     1
  9
$TEXTSIZE
 40
10.0
  9
$TRACEWID
 40
1.0
  9
$TEXTSTYLE
  7
Standard
  9
$CLAYER
  8
0
  9
$CELTYPE
  6
ByLayer
  9
$CECOLOR
 62
   256
  9
$CELTSCALE
 40
1.0
  9
$DISPSILH
 70
     0
  9
$DIMSCALE
 40
1.0
  9
$DIMASZ
 40
2.5
  9
$DIMEXO
 40
0.0
  9
$DIMDLI
 40
3.75
  9
$DIMRND
 40
0.0
  9
$DIMDLE
 40
0.0
  9
$DIMEXE
 40
1.0
  9
$DIMTP
 40
0.0
  9
$DIMTM
 40
0.0
  9
$DIMTXT
 40
3.5
  9
$DIMCEN
 40
2.5
  9
$DIMTSZ
 40
0.0
  9
$DIMTOL
 70
     0
  9
$DIMLIM
 70
     0
  9
$DIMTIH
 70
     1
  9
$DIMTOH
 70
     1
  9
$DIMSE1
 70
     0
  9
$DIMSE2
 70
     0
  9
$DIMTAD
 70
     1
  9
$DIMZIN
 70
     0
  9
$DIMBLK
  1

  9
$DIMASO
 70
     1
  9
$DIMSHO
 70
     1
  9
$DIMPOST
  1

  9
$DIMAPOST
  1

  9
$DIMALT
 70
     0
  9
$DIMALTD
 70
     3
  9
$DIMALTF
 40
0.0393700787
  9
$DIMLFAC
 40
1.0
  9
$DIMTOFL
 70
     1
  9
$DIMTVP
 40
0.0
  9
$DIMTIX
 70
     0
  9
$DIMSOXD
 70
     0
  9
$DIMSAH
 70
     0
  9
$DIMBLK1
  1

  9
$DIMBLK2
  1

  9
$DIMSTYLE
  2
ISO-25
  9
$DIMCLRD
 70
     0
  9
$DIMCLRE
 70
     0
  9
$DIMCLRT
 70
     0
  9
$DIMTFAC
 40
1.0
  9
$DIMGAP
 40
1.5
  9
$DIMJUST
 70
     0
  9
$DIMSD1
 70
     0
  9
$DIMSD2
 70
     0
  9
$DIMTOLJ
 70
     0
  9
$DIMTZIN
 70
     0
  9
$DIMALTZ
 70
     0
  9
$DIMALTTZ
 70
     0
  9
$DIMUPT
 70
     0
  9
$DIMDEC
 70
     2
  9
$DIMTDEC
 70
     2
  9
$DIMALTU
 70
     2
  9
$DIMALTTD
 70
     3
  9
$DIMTXSTY
  7
Standard
  9
$DIMAUNIT
 70
     0
  9
$DIMADEC
 70
     2
  9
$DIMALTRND
 40
0.0
  9
$DIMAZIN
 70
     0
  9
$DIMDSEP
 70
    44
  9
$DIMATFIT
 70
     3
  9
$DIMFRAC
 70
     0
  9
$DIMLDRBLK
  1

  9
$DIMLUNIT
 70
     2
  9
$DIMLWD
 70
    -2
  9
$DIMLWE
 70
    -2
  9
$DIMTMOVE
 70
     0
  9
$LUNITS
 70
     2
  9
$LUPREC
 70
     2
  9
$SKETCHINC
 40
1.0
  9
$FILLETRAD
 40
10.0
  9
$AUNITS
 70
     0
  9
$AUPREC
 70
     2
  9
$MENU
  1
.
  9
$ELEVATION
 40
0.0
  9
$PELEVATION
 40
0.0
  9
$THICKNESS
 40
0.0
  9
$LIMCHECK
 70
     0
  9
$CHAMFERA
 40
0.0
  9
$CHAMFERB
 40
0.0
  9
$CHAMFERC
 40
0.0
  9
$CHAMFERD
 40
0.0
  9
$SKPOLY
 70
     0
  9
$TDCREATE
 40
2457660.616762049
  9
$TDUCREATE
 40
2457660.533428715
  9
$TDUPDATE
 40
2457660.616766204
  9
$TDUUPDATE
 40
2457660.53343287
  9
$TDINDWG
 40
0.0000000116
  9
$TDUSRTIMER
 40
0.0000000116
  9
$USRTIMER
 70
     1
  9
$ANGBASE
 50
0.0
  9
$ANGDIR
 70
     0
  9
$PDMODE
 70
     0
  9
$PDSIZE
 40
-1.0
  9
$PLINEWID
 40
0.0
  9
$SPLFRAME
 70
     0
  9
$SPLINETYPE
 70
     6
  9
$SPLINESEGS
 70
     8
  9
$HANDSEED
  5
1C9
  9
$SURFTAB1
 70
     6
  9
$SURFTAB2
 70
     6
  9
$SURFTYPE
 70
     6
  9
$SURFU
 70
     6
  9
$SURFV
 70
     6
  9
$UCSBASE
  2

  9
$UCSNAME
  2

  9
$UCSORG
 10
0.0
 20
0.0
 30
0.0
  9
$UCSXDIR
 10
1.0
 20
0.0
 30
0.0
  9
$UCSYDIR
 10
0.0
 20
1.0
 30
0.0
  9
$UCSORTHOREF
  2

  9
$UCSORTHOVIEW
 70
     0
  9
$UCSORGTOP
 10
0.0
 20
0.0
 30
0.0
  9
$UCSORGBOTTOM
 10
0.0
 20
0.0
 30
0.0
  9
$UCSORGLEFT
 10
0.0
 20
0.0
 30
0.0
  9
$UCSORGRIGHT
 10
0.0
 20
0.0
 30
0.0
  9
$UCSORGFRONT
 10
0.0
 20
0.0
 30
0.0
  9
$UCSORGBACK
 10
0.0
 20
0.0
 30
0.0
  9
$PUCSBASE
  2

  9
$PUCSNAME
  2

  9
$PUCSORG
 10
0.0
 20
0.0
 30
0.0
  9
$PUCSXDIR
 10
1.0
 20
0.0
 30
0.0
  9
$PUCSYDIR
 10
0.0
 20
1.0
 30
0.0
  9
$PUCSORTHOREF
  2

  9
$PUCSORTHOVIEW
 70
     0
  9
$PUCSORGTOP
 10
0.0
 20
0.0
 30
0.0
  9
$PUCSORGBOTTOM
 10
0.0
 20
0.0
 30
0.0
  9
$PUCSORGLEFT
 10
0.0
 20
0.0
 30
0.0
  9
$PUCSORGRIGHT
 10
0.0
 20
0.0
 30
0.0
  9
$PUCSORGFRONT
 10
0.0
 20
0.0
 30
0.0
  9
$PUCSORGBACK
 10
0.0
 20
0.0
 30
0.0
  9
$USERI1
 70
     0
  9
$USERI2
 70
     0
  9
$USERI3
 70
     0
  9
$USERI4
 70
     0
  9
$USERI5
 70
     0
  9
$USERR1
 40
0.0
  9
$USERR2
 40
0.0
  9
$USERR3
 40
0.0
  9
$USERR4
 40
0.0
  9
$USERR5
 40
0.0
  9
$WORLDVIEW
 70
     1
  9
$SHADEDGE
 70
     3
  9
$SHADEDIF
 70
    70
  9
$TILEMODE
 70
     1
  9
$MAXACTVP
 70
    64
  9
$PINSBASE
 10
0.0
 20
0.0
 30
0.0
  9
$PLIMCHECK
 70
     0
  9
$PEXTMIN
 10
1.0000000000E+20
 20
1.0000000000E+20
 30
1.0000000000E+20
  9
$PEXTMAX
 10
-1.0000000000E+20
 20
-1.0000000000E+20
 30
-1.0000000000E+20
  9
$PLIMMIN
 10
0.0
 20
0.0
  9
$PLIMMAX
 10
420.0
 20
297.0
  9
$UNITMODE
 70
     0
  9
$VISRETAIN
 70
     1
  9
$PLINEGEN
 70
     0
  9
$PSLTSCALE
 70
     1
  9
$TREEDEPTH
 70
  3020
  9
$CMLSTYLE
  2
Standard
  9
$CMLJUST
 70
     0
  9
$CMLSCALE
 40
20.0
  9
$PROXYGRAPHICS
 70
     1
  9
$MEASUREMENT
 70
     1
  9
$CELWEIGHT
370
    -1
  9
$ENDCAPS
280
     0
  9
$JOINSTYLE
280
     0
  9
$LWDISPLAY
290
     1
  9
$INSUNITS
 70
     4
  9
$HYPERLINKBASE
  1

  9
$STYLESHEET
  1

  9
$XEDIT
290
     1
  9
$CEPSNTYPE
380
     0
  9
$PSTYLEMODE
290
     1
  9
$FINGERPRINTGUID
  2
{BF5413F6-3009-406F-85EC-C823A0C62E94}
  9
$VERSIONGUID
  2
{FAEB1C32-E019-11D5-929B-00C0DF256EC4}
  9
$EXTNAMES
290
     1
  9
$PSVPSCALE
 40
0.0
  9
$OLESTARTUP
290
     0
  0
ENDSEC
  0
SECTION
  2
CLASSES
  0
CLASS
  1
ACDBDICTIONARYWDFLT
  2
AcDbDictionaryWithDefault
  3
ObjectDBX Classes
 90
        0
280
     0
281
     0
  0
CLASS
  1
VISUALSTYLE
  2
AcDbVisualStyle
  3
ObjectDBX Classes
 90
     4095
280
     0
281
     0
  0
CLASS
  1
MATERIAL
  2
AcDbMaterial
  3
ObjectDBX Classes
 90
     1153
280
     0
281
     0
  0
CLASS
  1
SCALE
  2
AcDbScale
  3
ObjectDBX Classes
 90
     1153
280
     0
281
     0
  0
CLASS
  1
SUN
  2
AcDbSun
  3
SCENEOE
 90
     1153
280
     0
281
     0
  0
CLASS
  1
ACDBPLACEHOLDER
  2
AcDbPlaceHolder
  3
ObjectDBX Classes
 90
        0
280
     0
281
     0
  0
CLASS
  1
LAYOUT
  2
AcDbLayout
  3
ObjectDBX Classes
 90
        0
280
     0
281
     0
  0
ENDSEC
  0
SECTION
  2
TABLES
  0
TABLE
  2
VPORT
  5
8
330
0
100
AcDbSymbolTable
 70
     1
  0
VPORT
  5
29
330
8
100
AcDbSymbolTableRecord
100
AcDbViewportTableRecord
  2
*Active
 70
     0
 10
0.0
 20
0.0
 11
1.0
 21
1.0
 12
297.0
 22
420.5
 13
0.0
 23
0.0
 14
10.0
 24
10.0
 15
10.0
 25
10.0
 16
0.0
 26
0.0
 36
1.0
 17
0.0
 27
0.0
 37
0.0
 40
841.0
 41
0.7063020214
 42
50.0
 43
0.0
 44
0.0
 50
0.0
 51
0.0
 71
     0
 72
  2000
 73
     1
 74
     3
 75
     0
 76
     0
 77
     0
 78
     0
281
     0
 65
     1
110
0.0
120
0.0
130
0.0
111
1.0
121
0.0
131
0.0
112
0.0
122
1.0
132
0.0
 79
     0
146
0.0
  0
ENDTAB
  0
TABLE
  2
LTYPE
  5
5
330
0
100
AcDbSymbolTable
 70
     6
  0
LTYPE
  5
14
330
5
100
AcDbSymbolTableRecord
100
AcDbLinetypeTableRecord
  2
ByBlock
 70
     0
  3

 72
    65
 73
     0
 40
0.0
  0
LTYPE
  5
15
330
5
100
AcDbSymbolTableRecord
100
AcDbLinetypeTableRecord
  2
ByLayer
 70
     0
  3

 72
    65
 73
     0
 40
0.0
  0
LTYPE
  5
16
330
5
100
AcDbSymbolTableRecord
100
AcDbLinetypeTableRecord
  2
Continuous
 70
     0
  3
Solid line
 72
    65
 73
     0
 40
0.0
  0
LTYPE
  5
6A
330
5
100
AcDbSymbolTableRecord
100
AcDbLinetypeTableRecord
  2
HIDDEN
 70
     0
  3
Hidden __ __ __ __ __ __ __ __ __ __ __ __ __ __
 72
    65
 73
     2
 40
1.905
 49
1.27
 74
     0
 49
-0.635
 74
     0
  0
LTYPE
  5
6B
330
5
100
AcDbSymbolTableRecord
100
AcDbLinetypeTableRecord
  2
PHANTOM
 70
     0
  3
Phantom ______  __  __  ______  __  __  ______
 72
    65
 73
     6
 40
12.7
 49
6.35
 74
     0
 49
-1.27
 74
     0
 49
1.27
 74
     0
 49
-1.27
 74
     0
 49
1.27
 74
     0
 49
-1.27
 74
     0
  0
LTYPE
  5
6C
330
5
100
AcDbSymbolTableRecord
100
AcDbLinetypeTableRecord
  2
CENTER
 70
     0
  3
Center ____ _ ____ _ ____ _ ____ _ ____ _ ____
 72
    65
 73
     4
 40
10.16
 49
6.35
 74
     0
 49
-1.27
 74
     0
 49
1.27
 74
     0
 49
-1.27
 74
     0
  0
LTYPE
  5
6D
330
5
100
AcDbSymbolTableRecord
100
AcDbLinetypeTableRecord
  2
CENTERX2
 70
     0
  3
Center (2x) ________  __  ________  __  _____
 72
    65
 73
     4
 40
20.32
 49
12.7
 74
     0
 49
-2.54
 74
     0
 49
2.54
 74
     0
 49
-2.54
 74
     0
  0
LTYPE
  5
6E
330
5
100
AcDbSymbolTableRecord
100
AcDbLinetypeTableRecord
  2
DOT2
 70
     0
  3
Dot (.5x) ........................................
 72
    65
 73
     2
 40
0.635
 49
0.0
 74
     0
 49
-0.635
 74
     0
  0
ENDTAB
  0
TABLE
  2
LAYER
  5
2
330
0
100
AcDbSymbolTable
 70
     1
  0
LAYER
  5
10
330
2
100
AcDbSymbolTableRecord
100
AcDbLayerTableRecord
  2
0
 70
     0
 62
     7
  6
Continuous
370
    -3
390
F
  0
ENDTAB
  0
TABLE
  2
STYLE
  5
3
330
0
100
AcDbSymbolTable
 70
     3
  0
STYLE
  5
11
330
3
100
AcDbSymbolTableRecord
100
AcDbTextStyleTableRecord
  2
Standard
 70
     0
 40
0.0
 41
1.0
 50
0.0
 71
     0
 42
10.0
  3
txt
  4

  0
STYLE
  5
72
330
3
100
AcDbSymbolTableRecord
100
AcDbTextStyleTableRecord
  2
SLDTEXTSTYLE0
 70
     0
 40
0.0
 41
0.96
 50
0.0
 71
     0
 42
10.0
  3
ISOCP3
  4

  0
STYLE
  5
89
330
3
100
AcDbSymbolTableRecord
100
AcDbTextStyleTableRecord
  2
SLDTEXTSTYLE1
 70
     0
 40
0.0
 41
0.605
 50
0.0
 71
     0
 42
10.0
  3
TXT
  4

  0
ENDTAB
  0
TABLE
  2
VIEW
  5
6
330
0
100
AcDbSymbolTable
 70
     0
  0
ENDTAB
  0
TABLE
  2
UCS
  5
7
330
0
100
AcDbSymbolTable
 70
     0
  0
ENDTAB
  0
TABLE
  2
APPID
  5
9
330
0
100
AcDbSymbolTable
 70
     1
  0
APPID
  5
12
330
9
100
AcDbSymbolTableRecord
100
AcDbRegAppTableRecord
  2
ACAD
 70
     0
  0
ENDTAB
  0
TABLE
  2
DIMSTYLE
  5
A
330
0
100
AcDbSymbolTable
 70
     2
100
AcDbDimStyleTable
  0
DIMSTYLE
105
27
330
A
100
AcDbSymbolTableRecord
100
AcDbDimStyleTableRecord
  2
ISO-25
 70
     0
 41
2.5
 42
0.625
 43
3.75
 44
1.25
 73
     0
 74
     0
 77
     1
 78
     8
140
2.5
141
2.5
143
0.0393700787
147
0.625
171
     3
172
     1
178
     0
271
     2
272
     2
274
     3
278
    44
283
     0
284
     8
340
11
  0
DIMSTYLE
105
73
102
{ACAD_REACTORS
330
71
330
7E
102
}
330
A
100
AcDbSymbolTableRecord
100
AcDbDimStyleTableRecord
  2
SLDDIMSTYLE0
 70
     0
 41
2.5
 44
0.0
 45
0.000000001
 73
     0
 74
     0
 77
     1
 78
    12
 79
     3
140
6.0
147
1.5
173
     1
178
     0
271
     2
272
     2
276
     2
284
    12
340
72
  0
ENDTAB
  0
TABLE
  2
BLOCK_RECORD
  5
1
330
0
100
AcDbSymbolTable
 70
     3
  0
BLOCK_RECORD
  5
1F
330
1
100
AcDbSymbolTableRecord
100
AcDbBlockTableRecord
  2
*Model_Space
340
22
  0
BLOCK_RECORD
  5
1B
330
1
100
AcDbSymbolTableRecord
100
AcDbBlockTableRecord
  2
*Paper_Space
340
1E
  0
BLOCK_RECORD
  5
23
330
1
100
AcDbSymbolTableRecord
100
AcDbBlockTableRecord
  2
*Paper_Space0
340
26
  0
BLOCK_RECORD
  5
74
330
1
100
AcDbSymbolTableRecord
100
AcDbBlockTableRecord
  2
_D
340
0
  0
BLOCK_RECORD
  5
7F
330
1
100
AcDbSymbolTableRecord
100
AcDbBlockTableRecord
  2
_D_1
340
0
  0
ENDTAB
  0
ENDSEC
  0
SECTION
  2
BLOCKS
  0
BLOCK
  5
20
330
1F
100
AcDbEntity
  8
0
100
AcDbBlockBegin
  2
*Model_Space
 70
     0
 10
0.0
 20
0.0
 30
0.0
  3
*Model_Space
  1
*Model_Space
  0
ENDBLK
  5
21
330
1F
100
AcDbEntity
  8
0
100
AcDbBlockEnd
  0
BLOCK
  5
1C
330
1B
100
AcDbEntity
 67
     1
  8
0
100
AcDbBlockBegin
  2
*Paper_Space
 70
     0
 10
0.0
 20
0.0
 30
0.0
  3
*Paper_Space
  1
*Paper_Space
  0
ENDBLK
  5
1D
330
1B
100
AcDbEntity
 67
     1
  8
0
100
AcDbBlockEnd
  0
BLOCK
  5
24
330
23
100
AcDbEntity
  8
0
100
AcDbBlockBegin
  2
*Paper_Space0
 70
     0
 10
0.0
 20
0.0
 30
0.0
  3
*Paper_Space0
  1
*Paper_Space0
  0
ENDBLK
  5
25
330
23
100
AcDbEntity
  8
0
100
AcDbBlockEnd
  0
BLOCK
  5
75
330
74
100
AcDbEntity
  8
0
100
AcDbBlockBegin
  2
_D
 70
     0
 10
0.0
 20
0.0
 30
0.0
  3
_D
  1
_D
  0
SOLID
  5
77
330
74
100
AcDbEntity
  8
0
  6
Continuous
 62
     7
370
     0
100
AcDbTrace
 10
42.7614395004
 20
152.0299240879
 30
0.0
 11
42.4614395004
 21
149.5299240879
 31
0.0
 12
43.0614395004
 22
149.5299240879
 32
0.0
 13
43.0614395004
 23
149.5299240879
 33
0.0
  0
SOLID
  5
78
330
74
100
AcDbEntity
  8
0
  6
Continuous
 62
     7
370
     0
100
AcDbTrace
 10
42.7614395004
 20
52.0299240879
 30
0.0
 11
43.0614395004
 21
54.5299240879
 31
0.0
 12
42.4614395004
 22
54.5299240879
 32
0.0
 13
42.4614395004
 23
54.5299240879
 33
0.0
  0
LINE
  5
79
330
74
100
AcDbEntity
  8
0
  6
Continuous
 62
     7
370
     0
100
AcDbLine
 10
56.6850079902
 20
152.0299240879
 30
0.0
 11
41.7614395004
 21
152.0299240879
 31
0.0
  0
LINE
  5
7A
330
74
100
AcDbEntity
  8
0
  6
Continuous
 62
     7
370
     0
100
AcDbLine
 10
56.6850079902
 20
52.0299240879
 30
0.0
 11
41.7614395004
 21
52.0299240879
 31
0.0
  0
LINE
  5
7B
330
74
100
AcDbEntity
  8
0
  6
Continuous
 62
     7
370
     0
100
AcDbLine
 10
42.7614395004
 20
152.0299240879
 30
0.0
 11
42.7614395004
 21
52.0299240879
 31
0.0
  0
MTEXT
  5
7C
330
74
100
AcDbEntity
  8
0
  6
Continuous
 62
     7
370
     0
100
AcDbMText
 10
35.0270332946
 20
94.3680541463
 30
0.0
 40
6.0
 41
0.0
 71
     1
 72
     1
  1
100
  7
SLDTEXTSTYLE0
 11
-7.044195017643634E-15
 21
1.0
 31
0.0
 73
     1
 44
1.0
  0
MTEXT
  5
7D
330
74
100
AcDbEntity
  8
0
  6
Continuous
 62
     7
370
     0
100
AcDbMText
 10
35.0270332946
 20
105.7430548466
 30
0.0
 40
6.0
 41
0.0
 71
     1
 72
     1
  1
mm
  7
SLDTEXTSTYLE0
 11
-7.044195017643634E-15
 21
1.0
 31
0.0
 73
     1
 44
1.0
  0
ENDBLK
  5
76
330
74
100
AcDbEntity
  8
0
100
AcDbBlockEnd
  0
BLOCK
  5
80
330
7F
100
AcDbEntity
  8
0
100
AcDbBlockBegin
  2
_D_1
 70
     0
 10
0.0
 20
0.0
 30
0.0
  3
_D_1
  1
_D_1
  0
SOLID
  5
82
330
7F
100
AcDbEntity
  8
0
  6
Continuous
 62
     7
370
     0
100
AcDbTrace
 10
56.6850079902
 20
38.4602342313
 30
0.0
 11
59.1850079902
 21
38.1602342313
 31
0.0
 12
59.1850079902
 22
38.7602342313
 32
0.0
 13
59.1850079902
 23
38.7602342313
 33
0.0
  0
SOLID
  5
83
330
7F
100
AcDbEntity
  8
0
  6
Continuous
 62
     7
370
     0
100
AcDbTrace
 10
156.6850079902
 20
38.4602342313
 30
0.0
 11
154.1850079902
 21
38.7602342313
 31
0.0
 12
154.1850079902
 22
38.1602342313
 32
0.0
 13
154.1850079902
 23
38.1602342313
 33
0.0
  0
LINE
  5
84
330
7F
100
AcDbEntity
  8
0
  6
Continuous
 62
     7
370
     0
100
AcDbLine
 10
56.6850079902
 20
52.0299240879
 30
0.0
 11
56.6850079902
 21
37.4602342313
 31
0.0
  0
LINE
  5
85
330
7F
100
AcDbEntity
  8
0
  6
Continuous
 62
     7
370
     0
100
AcDbLine
 10
156.6850079902
 20
52.0299240879
 30
0.0
 11
156.6850079902
 21
37.4602342313
 31
0.0
  0
LINE
  5
86
330
7F
100
AcDbEntity
  8
0
  6
Continuous
 62
     7
370
     0
100
AcDbLine
 10
56.6850079902
 20
38.4602342313
 30
0.0
 11
156.6850079902
 21
38.4602342313
 31
0.0
  0
MTEXT
  5
87
330
7F
100
AcDbEntity
  8
0
  6
Continuous
 62
     7
370
     0
100
AcDbMText
 10
93.9626484861
 20
46.1946404371
 30
0.0
 40
6.0
 41
0.0
 71
     1
 72
     1
  1
100
  7
SLDTEXTSTYLE0
 73
     1
 44
1.0
  0
MTEXT
  5
88
330
7F
100
AcDbEntity
  8
0
  6
Continuous
 62
     7
370
     0
100
AcDbMText
 10
105.3376491864
 20
46.1946404371
 30
0.0
 40
6.0
 41
0.0
 71
     1
 72
     1
  1
mm
  7
SLDTEXTSTYLE0
 73
     1
 44
1.0
  0
ENDBLK
  5
81
330
7F
100
AcDbEntity
  8
0
100
AcDbBlockEnd
  0
ENDSEC
  0
SECTION
  2
ENTITIES
  0
LINE
  5
6F
330
1F
100
AcDbEntity
  8
0
  6
Continuous
 62
     7
370
     0
100
AcDbLine
 10
56.6850079902
 20
152.0299240879
 30
0.0
 11
56.6850079902
 21
52.0299240879
 31
0.0
  0
LINE
  5
70
330
1F
100
AcDbEntity
  8
0
  6
Continuous
 62
     7
370
     0
100
AcDbLine
 10
56.6850079902
 20
52.0299240879
 30
0.0
 11
156.6850079902
 21
52.0299240879
 31
0.0
  0
DIMENSION
  5
71
330
1F
100
AcDbEntity
  8
0
  6
Continuous
 62
     7
370
     0
100
AcDbDimension
  2
_D
 10
42.7614395004
 20
52.0299240879
 30
0.0
 11
42.7614395004
 21
105.4472211621
 31
0.0
 70
   160
  1
<>mm
 71
     2
 42
-1.0
  3
SLDDIMSTYLE0
100
AcDbAlignedDimension
 13
56.6850079902
 23
152.0299240879
 33
0.0
 14
56.6850079902
 24
52.0299240879
 34
0.0
 50
90.0
100
AcDbRotatedDimension
  0
DIMENSION
  5
7E
330
1F
100
AcDbEntity
  8
0
  6
Continuous
 62
     7
370
     0
100
AcDbDimension
  2
_D_1
 10
156.6850079902
 20
38.4602342313
 30
0.0
 11
105.0418155019
 21
38.4602342313
 31
0.0
 70
   160
  1
<>mm
 71
     2
 42
-1.0
  3
SLDDIMSTYLE0
100
AcDbAlignedDimension
 13
56.6850079902
 23
52.0299240879
 33
0.0
 14
156.6850079902
 24
52.0299240879
 34
0.0
100
AcDbRotatedDimension
  0
MTEXT
  5
8A
330
1F
100
AcDbEntity
  8
0
  6
Continuous
 62
     7
370
     0
100
AcDbMText
 10
412.8252631579
 20
48.4342449499
 30
0.0
 40
10.0
 41
0.0
 71
     1
 72
     1
  1
KLUDI GmbH & Co KG
  7
SLDTEXTSTYLE1
 73
     1
 44
1.0
  0
MTEXT
  5
8B
330
1F
100
AcDbEntity
  8
0
  6
Continuous
 62
     7
370
     0
100
AcDbMText
 10
210.0873490389
 20
48.4342449499
 30
0.0
 40
10.0
 41
0.0
 71
     1
 72
     1
  1
52 246 05 75
  7
SLDTEXTSTYLE1
 73
     1
 44
1.0
  0
SPLINE
  5
8C
330
1F
100
AcDbEntity
  8
0
  6
Continuous
 62
     7
370
    15
100
AcDbSpline
210
0.0
220
0.0
230
1.0
 70
     8
 71
     3
 72
    13
 73
     9
 74
     0
 42
0.000000001
 43
0.00000001
 40
0.0
 40
0.0
 40
0.0
 40
0.0
 40
0.1711533492716676
 40
0.4018447468335202
 40
0.5838446662740462
 40
0.7779825241663445
 40
0.9876909248125956
 40
1.0
 40
1.0
 40
1.0
 40
1.0
 10
125.5171802665872
 20
451.7912662989893
 30
0.0
 10
125.7163057018045
 20
451.3130329387884
 30
0.0
 10
126.1838250956318
 20
450.1902061616607
 30
0.0
 10
127.0870708332751
 20
448.6614642853625
 30
0.0
 10
127.8740060830228
 20
447.4849133509407
 30
0.0
 10
128.5148155106754
 20
446.6210551145026
 30
0.0
 10
128.9150002490193
 20
446.1179285664606
 30
0.0
 10
129.0702132551324
 20
445.9425390998049
 30
0.0
 10
129.0788185622377
 20
445.9328151709834
 30
0.0
  0
SPLINE
  5
8D
330
1F
100
AcDbEntity
  8
0
  6
Continuous
 62
     7
370
    15
100
AcDbSpline
210
0.0
220
0.0
230
1.0
 70
     8
 71
     3
 72
    13
 73
     9
 74
     0
 42
0.000000001
 43
0.00000001
 40
0.0
 40
0.0
 40
0.0
 40
0.0
 40
0.0118644570368183
 40
0.2213660298217539
 40
0.4153124125403316
 40
0.5971355295962967
 40
0.8276032548075698
 40
1.0
 40
1.0
 40
1.0
 40
1.0
 10
158.4683638837022
 20
445.9338265872994
 30
0.0
 10
158.4766651383457
 20
445.9432107476201
 30
0.0
 10
158.6315492411127
 20
446.1182996123654
 30
0.0
 10
159.0314901815256
 20
446.6210590226053
 30
0.0
 10
159.6722172960732
 20
447.4848634164027
 30
0.0
 10
160.4592251243921
 20
448.6613984338223
 30
0.0
 10
161.3644491944087
 20
450.1939387735906
 30
0.0
 10
161.8335205324148
 20
451.3207616163686
 30
0.0
 10
162.0342490102929
 20
451.8029599852362
 30
0.0
  0
SPLINE
  5
8E
330
1F
100
AcDbEntity
  8
0
  6
Continuous
 62
     7
370
    15
100
AcDbSpline
210
0.0
220
0.0
230
1.0
 70
     8
 71
     3
 72
    12
 73
     8
 74
     0
 42
0.000000001
 43
0.00000001
 40
0.0
 40
0.0
 40
0.0
 40
0.0
 40
0.0564022863565917
 40
0.2705426134511843
 40
0.4948676928615792
 40
0.7733838284598938
 40
1.0
 40
1.0
 40
1.0
 40
1.0
 10
124.8245742942972
 20
462.4180941313007
 30
0.0
 10
124.7778007350538
 20
462.4159812638792
 30
0.0
 10
124.5534438556516
 20
462.4058465563871
 30
0.0
 10
124.3103492466909
 20
462.2212888204401
 30
0.0
 10
124.1316387483183
 20
462.0807666984846
 30
0.0
 10
124.0653489673364
 20
461.9969682784316
 30
0.0
 10
124.0686688950029
 20
462.0016373826027
 30
0.0
 10
124.0701583053751
 20
462.0037320704633
 30
0.0
  0
SPLINE
  5
8F
330
1F
100
AcDbEntity
  8
0
  6
Continuous
 62
     7
370
    15
100
AcDbSpline
210
0.0
220
0.0
230
1.0
 70
     8
 71
     3
 72
    20
 73
    16
 74
     0
 42
0.000000001
 43
0.00000001
 40
0.0
 40
0.0
 40
0.0
 40
0.0
 40
0.0818226611738103
 40
0.1327070067931443
 40
0.1772365751811392
 40
0.2989410456074451
 40
0.3472558730023132
 40
0.3892063926335024
 40
0.4281426396780399
 40
0.4676491025187676
 40
0.5587614489905088
 40
0.6756394319253356
 40
0.7693191607894442
 40
0.872075047261428
 40
1.0
 40
1.0
 40
1.0
 40
1.0
 10
164.3526163723153
 20
451.1583068809906
 30
0.0
 10
164.3828857124985
 20
451.2269162197661
 30
0.0
 10
164.4319791234887
 20
451.3381927274761
 30
0.0
 10
164.5728244145741
 20
451.6692158247252
 30
0.0
 10
164.7718529331011
 20
452.151875877135
 30
0.0
 10
164.9739177595445
 20
452.668651783572
 30
0.0
 10
165.2392367927618
 20
453.4621121679488
 30
0.0
 10
165.4230532855851
 20
454.0684599956394
 30
0.0
 10
165.6012563370386
 20
454.7273704760244
 30
0.0
 10
165.8312886802227
 20
455.7004167062028
 30
0.0
 10
166.0721425125058
 20
457.0387213296666
 30
0.0
 10
166.2192724369426
 20
458.419942963519
 30
0.0
 10
166.2792892155626
 20
459.71774085364
 30
0.0
 10
166.2779537313451
 20
461.0195688486728
 30
0.0
 10
166.2183779629505
 20
461.8043583105235
 30
0.0
 10
166.185339989869
 20
462.2395663458356
 30
0.0
  0
SPLINE
  5
90
330
1F
100
AcDbEntity
  8
0
  6
Continuous
 62
     7
370
    15
100
AcDbSpline
210
0.0
220
0.0
230
1.0
 70
     8
 71
     3
 72
    20
 73
    16
 74
     0
 42
0.000000001
 43
0.00000001
 40
0.0
 40
0.0
 40
0.0
 40
0.0
 40
0.1143212487184743
 40
0.2060841108230667
 40
0.2881368868462844
 40
0.3905482152100945
 40
0.4348405231965289
 40
0.4765650888911704
 40
0.5179472570902075
 40
0.561559896100963
 40
0.6651959132378917
 40
0.803396264546351
 40
0.8545268796016997
 40
0.9117489737434543
 40
1.0
 40
1.0
 40
1.0
 40
1.0
 10
121.3609483863992
 20
462.2395663458356
 30
0.0
 10
121.3389583369132
 20
461.9702656204426
 30
0.0
 10
121.2993174141094
 20
461.4848038085855
 30
0.0
 10
121.2701068469608
 20
460.6465962886097
 30
0.0
 10
121.2666869457537
 20
459.6940146995216
 30
0.0
 10
121.3083908914862
 20
458.7114972450459
 30
0.0
 10
121.3998879529262
 20
457.7374443177815
 30
0.0
 10
121.490561520914
 20
457.022491346729
 30
0.0
 10
121.6078343137173
 20
456.292692750596
 30
0.0
 10
121.8116010656003
 20
455.2517036626548
 30
0.0
 10
122.1550338609299
 20
453.9133877053405
 30
0.0
 10
122.4825029575915
 20
452.9370681198164
 30
0.0
 10
122.7870258869557
 20
452.1303236121101
 30
0.0
 10
123.0307619788401
 20
451.5289554583105
 30
0.0
 10
123.132159416959
 20
451.2982586908364
 30
0.0
 10
123.1936720039529
 20
451.1583068809906
 30
0.0
  0
LINE
  5
91
330
1F
100
AcDbEntity
  8
0
  6
Continuous
 62
     7
370
    15
100
AcDbLine
 10
155.7731461551
 20
441.4328069828
 30
0.0
 11
155.7731461551
 21
444.4512383483
 31
0.0
  0
LINE
  5
92
330
1F
100
AcDbEntity
  8
0
  6
Continuous
 62
     7
370
    15
100
AcDbLine
 10
131.7731422212
 20
444.4560905389
 30
0.0
 11
131.7731422212
 21
441.4328069828
 31
0.0
  0
LINE
  5
93
330
1F
100
AcDbEntity
  8
0
  6
Continuous
 62
     7
370
    15
100
AcDbLine
 10
145.0868231084
 20
444.4831976138
 30
0.0
 11
146.3089865472
 21
444.4898174546
 31
0.0
  0
LINE
  5
94
330
1F
100
AcDbEntity
  8
0
  6
Continuous
 62
     7
370
    15
100
AcDbLine
 10
141.2375476982
 20
444.4898137293
 30
0.0
 11
142.4559783961
 21
444.4818285696
 31
0.0
  0
SPLINE
  5
95
330
1F
100
AcDbEntity
  8
0
  6
Continuous
 62
     7
370
    15
100
AcDbSpline
210
0.0
220
0.0
230
1.0
 70
     8
 71
     3
 72
    15
 73
    11
 74
     0
 42
0.000000001
 43
0.00000001
 40
0.0
 40
0.0
 40
0.0
 40
0.0
 40
0.0285609872995848
 40
0.0676706940365704
 40
0.1703071425180709
 40
0.3022470403841234
 40
0.4511180134297303
 40
0.6144029225584425
 40
0.7975158106539255
 40
0.9999999999999999
 40
0.9999999999999999
 40
0.9999999999999999
 40
0.9999999999999999
 10
131.2701609756631
 20
445.1118766732016
 30
0.0
 10
131.2769378188483
 20
445.1147522487677
 30
0.0
 10
131.2929944655218
 20
445.1215654654213
 30
0.0
 10
131.4895395840068
 20
445.1184112654818
 30
0.0
 10
132.0405629092595
 20
445.0667672802026
 30
0.0
 10
133.1778622693457
 20
444.9519515396761
 30
0.0
 10
134.7566144683576
 20
444.848009715196
 30
0.0
 10
136.6670018279915
 20
444.7215634079952
 30
0.0
 10
138.8460093959203
 20
444.5622296383827
 30
0.0
 10
140.4142070081976
 20
444.5147621441726
 30
0.0
 10
141.2376967098398
 20
444.4898360810676
 30
0.0
  0
SPLINE
  5
96
330
1F
100
AcDbEntity
  8
0
  6
Continuous
 62
     7
370
    15
100
AcDbSpline
210
0.0
220
0.0
230
1.0
 70
     8
 71
     3
 72
    15
 73
    11
 74
     0
 42
0.000000001
 43
0.00000001
 40
0.0
 40
0.0
 40
0.0
 40
0.0
 40
0.2037443860491469
 40
0.3872960456741262
 40
0.5515890060327635
 40
0.700619717208269
 40
0.8329529467686115
 40
0.9356893938639341
 40
0.974442093559705
 40
1.0
 40
1.0
 40
1.0
 40
1.0
 10
146.3085916664285
 20
444.4898360810676
 30
0.0
 10
147.1370742890324
 20
444.5148083550756
 30
0.0
 10
148.7119301653891
 20
444.5622779475506
 30
0.0
 10
150.9010090818088
 20
444.7223978571939
 30
0.0
 10
152.8160238717423
 20
444.8494203896461
 30
0.0
 10
154.396200761867
 20
444.9543875151972
 30
0.0
 10
155.5292518375019
 20
445.0694716450416
 30
0.0
 10
156.0736253127467
 20
445.1203749150711
 30
0.0
 10
156.2647006562698
 20
445.1229290923461
 30
0.0
 10
156.2768071813614
 20
445.1158663016225
 30
0.0
 10
156.2816184785051
 20
445.1130594528714
 30
0.0
  0
LINE
  5
97
330
1F
100
AcDbEntity
  8
0
  6
Continuous
 62
     7
370
    15
100
AcDbLine
 10
132.7731442477
 20
437.1947546891
 30
0.0
 11
133.2987007525
 21
436.9102095656
 31
0.0
  0
LINE
  5
98
330
1F
100
AcDbEntity
  8
0
  6
Continuous
 62
     7
370
    15
100
AcDbLine
 10
154.2475801732
 20
436.9102095656
 30
0.0
 11
154.7731441285
 21
437.1947546891
 31
0.0
  0
SPLINE
  5
99
330
1F
100
AcDbEntity
  8
0
  6
Continuous
 62
     7
370
    15
100
AcDbSpline
210
0.0
220
0.0
230
1.0
 70
     8
 71
     3
 72
    18
 73
    14
 74
     0
 42
0.000000001
 43
0.00000001
 40
0.0
 40
0.0
 40
0.0
 40
0.0
 40
0.0835676033861936
 40
0.1763866400372965
 40
0.2678170316084354
 40
0.3595586987324904
 40
0.4521101362074073
 40
0.5449372774529729
 40
0.6374906370727107
 40
0.7296823539510126
 40
0.8225733526930749
 40
0.9151477413012407
 40
0.9999999999999999
 40
0.9999999999999999
 40
0.9999999999999999
 40
0.9999999999999999
 10
253.77274467009
 20
477.4887816450992
 30
0.0
 10
253.0938583405346
 20
477.4677829717979
 30
0.0
 10
251.6609289063355
 20
477.4234609465301
 30
0.0
 10
249.5187841466436
 20
477.0246520028306
 30
0.0
 10
247.3842969567024
 20
476.3689862448854
 30
0.0
 10
245.361779276537
 20
475.4504540660728
 30
0.0
 10
243.4711997964993
 20
474.2896396550204
 30
0.0
 10
241.748663513443
 20
472.9020989344655
 30
0.0
 10
240.2358838446638
 20
471.3109279394078
 30
0.0
 10
238.9506763396355
 20
469.5440527775913
 30
0.0
 10
237.9218907808672
 20
467.6292240703963
 30
0.0
 10
237.1600503286055
 20
465.6544303254849
 30
0.0
 10
236.8986612323518
 20
464.2962355004258
 30
0.0
 10
236.7736548956317
 20
463.6466944060722
 30
0.0
  0
SPLINE
  5
9A
330
1F
100
AcDbEntity
  8
0
  6
Continuous
 62
     7
370
    15
100
AcDbSpline
210
0.0
220
0.0
230
1.0
 70
     8
 71
     3
 72
    19
 73
    15
 74
     0
 42
0.000000001
 43
0.00000001
 40
0.0
 40
0.0
 40
0.0
 40
0.0
 40
0.0901659099030691
 40
0.1790942661478732
 40
0.2679572288067863
 40
0.358181281793303
 40
0.4490116476643359
 40
0.5393210671136333
 40
0.6298195566048818
 40
0.7206450295156418
 40
0.8110735005718741
 40
0.9016306886142919
 40
0.9908367005603003
 40
1.0
 40
1.0
 40
1.0
 40
1.0
 10
270.8502449866218
 20
463.1611337821433
 30
0.0
 10
270.731724962368
 20
463.8690668485789
 30
0.0
 10
270.4963116360856
 20
465.2752163916978
 30
0.0
 10
269.7726256560247
 20
467.2905857444946
 30
0.0
 10
268.8047019837059
 20
469.2004157742045
 30
0.0
 10
267.5751135714622
 20
470.9846038666475
 30
0.0
 10
266.1076520652825
 20
472.6092502297638
 30
0.0
 10
264.4261048863801
 20
474.0350458457571
 30
0.0
 10
262.5658230769233
 20
475.2426633582778
 30
0.0
 10
260.5556707375286
 20
476.2139184059765
 30
0.0
 10
258.4267537030258
 20
476.9274484771593
 30
0.0
 10
256.2309217263785
 20
477.3681485214341
 30
0.0
 10
254.6644928266177
 20
477.4907189108068
 30
0.0
 10
253.8491111020451
 20
477.490008270594
 30
0.0
 10
253.7731566524849
 20
477.4899420730272
 30
0.0
  0
SPLINE
  5
9B
330
1F
100
AcDbEntity
  8
0
  6
Continuous
 62
     7
370
     0
100
AcDbSpline
210
0.0
220
0.0
230
1.0
 70
     8
 71
     3
 72
    12
 73
     8
 74
     0
 42
0.000000001
 43
0.00000001
 40
0.0
 40
0.0
 40
0.0
 40
0.0
 40
0.2500000000000004
 40
0.2500000000000004
 40
0.5000000000000009
 40
0.5000000000000009
 40
1.0
 40
1.0
 40
1.0
 40
1.0
 10
128.1818570349816
 20
462.8306038491368
 30
0.0
 10
129.4345210860303
 20
462.9925552734043
 30
0.0
 10
130.7026082921703
 20
463.1362793976979
 30
0.0
 10
133.2691565746086
 20
463.3853217981485
 30
0.0
 10
134.5701442534699
 20
463.4907367348233
 30
0.0
 10
138.4842230109155
 20
463.7442357470209
 30
0.0
 10
141.1169099005215
 20
463.8308659262412
 30
0.0
 10
143.7731435920877
 20
463.8316796005356
 30
0.0
  0
SPLINE
  5
9C
330
1F
100
AcDbEntity
  8
0
  6
Continuous
 62
     7
370
     0
100
AcDbSpline
210
0.0
220
0.0
230
1.0
 70
     8
 71
     3
 72
    25
 73
    21
 74
     0
 42
0.000000001
 43
0.00000001
 40
0.0
 40
0.0
 40
0.0
 40
0.0
 40
0.0000009455392245
 40
0.0116616473726507
 40
0.0619476237466288
 40
0.1121509040584218
 40
0.1581340083634892
 40
0.2040996180659884
 40
0.2477889416892196
 40
0.2914434466427295
 40
0.336555315170234
 40
0.3816637287803091
 40
0.3929489041354219
 40
0.4427524870923252
 40
0.4926338387687089
 40
0.5690371592844927
 40
0.6456222174963265
 40
0.7630659497058838
 40
0.8806628479079546
 40
1.0
 40
1.0
 40
1.0
 40
1.0
 10
143.7731441881341
 20
481.9865686289468
 30
0.0
 10
143.7731243199192
 20
481.9865686289535
 30
0.0
 10
143.5280830666275
 20
481.9865687121397
 30
0.0
 10
142.2264621386785
 20
481.9702179377663
 30
0.0
 10
139.8729385970863
 20
481.7313231589731
 30
0.0
 10
136.8867744133025
 20
480.9836770587276
 30
0.0
 10
134.1359668999228
 20
479.8745939994451
 30
0.0
 10
131.7011682902422
 20
478.5033603163336
 30
0.0
 10
129.5571041261817
 20
476.8932097986726
 30
0.0
 10
127.711486371299
 20
475.1146774577342
 30
0.0
 10
126.2185977513464
 20
473.2199970156252
 30
0.0
 10
125.3718073617793
 20
471.8048648384735
 30
0.0
 10
124.6816816583709
 20
470.4026436814469
 30
0.0
 10
124.1605267043327
 20
469.0303628013731
 30
0.0
 10
123.7346937629162
 20
467.1771072410804
 30
0.0
 10
123.6266625371971
 20
465.5545428871459
 30
0.0
 10
123.8094164148657
 20
464.0638925623551
 30
0.0
 10
124.149978147722
 20
463.070860097721
 30
0.0
 10
124.5610730280103
 20
462.573835958368
 30
0.0
 10
124.6721056160042
 20
462.4959278436503
 30
0.0
 10
124.7280296709222
 20
462.4566876731315
 30
0.0
  0
LINE
  5
9D
330
1F
100
AcDbEntity
  8
0
  6
Continuous
 62
     7
370
     0
100
AcDbLine
 10
124.7960385706
 20
462.4403443589
 30
0.0
 11
124.8230245735
 21
462.4384828779
 31
0.0
  0
LWPOLYLINE
  5
9E
330
1F
100
AcDbEntity
  8
0
  6
Continuous
 62
     7
370
     0
100
AcDbPolyline
 90
        3
 70
   128
 43
0.0
 10
124.8892155316
 20
462.4339182332
 10
125.0713971283
 20
462.4213553901
 10
125.210216346
 20
462.4108321435
  0
SPLINE
  5
9F
330
1F
100
AcDbEntity
  8
0
  6
Continuous
 62
     7
370
     0
100
AcDbSpline
210
0.0
220
0.0
230
1.0
 70
     8
 71
     3
 72
    14
 73
    10
 74
     0
 42
0.000000001
 43
0.00000001
 40
0.0
 40
0.0
 40
0.0
 40
0.0
 40
0.0998031518876345
 40
0.2711191171657989
 40
0.4284372167595221
 40
0.5865304089311341
 40
0.7567131542877832
 40
0.9181791225415945
 40
1.0
 40
1.0
 40
1.0
 40
1.0
 10
129.0813741113824
 20
445.9349497623244
 30
0.0
 10
128.9415399635197
 20
446.0959228574766
 30
0.0
 10
128.5616750995235
 20
446.5332124883114
 30
0.0
 10
128.0035024296965
 20
447.2639847895355
 30
0.0
 10
127.3955051414212
 20
448.1401221851975
 30
0.0
 10
126.817582398845
 20
449.0719377122539
 30
0.0
 10
126.2663459587232
 20
450.0874681110058
 30
0.0
 10
125.8243658731334
 20
450.9992725769394
 30
0.0
 10
125.5917921015802
 20
451.5904380821372
 30
0.0
 10
125.5135741855783
 20
451.7892555735507
 30
0.0
  0
LINE
  5
A0
330
1F
100
AcDbEntity
  8
0
  6
Continuous
 62
     7
370
     0
100
AcDbLine
 10
158.4588420417
 20
445.9421991772
 30
0.0
 11
158.668940964
 21
446.1807909823
 31
0.0
  0
SPLINE
  5
A1
330
1F
100
AcDbEntity
  8
0
  6
Continuous
 62
     7
370
     0
100
AcDbSpline
210
0.0
220
0.0
230
1.0
 70
     8
 71
     3
 72
    19
 73
    15
 74
     0
 42
0.000000001
 43
0.00000001
 40
0.0
 40
0.0
 40
0.0
 40
0.0
 40
0.0893050931206336
 40
0.1785722577077324
 40
0.2704368466807447
 40
0.3580873174717413
 40
0.4486404785574731
 40
0.5283522331382268
 40
0.6107013596035915
 40
0.6833947561397575
 40
0.7576968928902544
 40
0.8765555254784059
 40
0.9987552014715886
 40
1.0
 40
1.0
 40
1.0
 40
1.0
 10
145.2322435404939
 20
482.618877052466
 30
0.0
 10
146.3741944002885
 20
482.4960019479627
 30
0.0
 10
148.6576111249019
 20
482.2503039249218
 30
0.0
 10
151.9787323678424
 20
481.2179700235515
 30
0.0
 10
155.0579818410109
 20
479.736810868819
 30
0.0
 10
157.8349668395767
 20
477.8276242805929
 30
0.0
 10
160.1025941154901
 20
475.7052922250274
 30
0.0
 10
161.8785887928542
 20
473.481835142704
 30
0.0
 10
163.1170439077649
 20
471.4154512816636
 30
0.0
 10
163.949094798806
 20
469.5317702229059
 30
0.0
 10
164.5675809305936
 20
467.5532261269247
 30
0.0
 10
164.8611403151432
 20
465.6893581654303
 30
0.0
 10
164.9049327248523
 20
464.4657153502023
 30
0.0
 10
164.8504916045581
 20
464.103520152548
 30
0.0
 10
164.84994262716
 20
464.0998678218075
 30
0.0
  0
LWPOLYLINE
  5
A2
330
1F
100
AcDbEntity
  8
0
  6
Continuous
 62
     7
370
     0
100
AcDbPolyline
 90
       16
 70
   128
 43
0.0
 10
122.6895508196
 20
464.5299323305
 10
122.6750519898
 20
464.7311543516
 10
122.8656080391
 20
466.7489275738
 10
123.277893367
 20
468.4827265731
 10
124.0330097105
 20
470.4943833343
 10
125.2754685309
 20
472.7817087836
 10
127.0207223322
 20
475.1263124339
 10
128.910964432
 20
477.0400331757
 10
131.1164629485
 20
478.768584638
 10
133.6927172568
 20
480.2879293851
 10
136.4874151375
 20
481.4638917736
 10
139.6962237384
 20
482.2990683309
 10
143.0049669768
 20
482.6513373695
 10
143.698392513
 20
482.6622189424
 10
143.6984521176
 20
482.6622189424
 10
143.6984521176
 20
482.6622189424
  0
SPLINE
  5
A3
330
1F
100
AcDbEntity
  8
0
  6
Continuous
 62
     7
370
    15
100
AcDbSpline
210
0.0
220
0.0
230
1.0
 70
     8
 71
     3
 72
    14
 73
    10
 74
     0
 42
0.000000001
 43
0.00000001
 40
0.0
 40
0.0
 40
0.0
 40
0.0
 40
0.25
 40
0.25
 40
0.5
 40
0.5
 40
0.75
 40
0.75
 40
1.0
 40
1.0
 40
1.0
 40
1.0
 10
143.7731435920877
 20
481.9865683649323
 30
0.0
 10
143.7731435920714
 20
482.0877401556234
 30
0.0
 10
143.773143592002
 20
482.1794164664656
 30
0.0
 10
143.773143592046
 20
482.3443289256969
 30
0.0
 10
143.773143591846
 20
482.4167694830105
 30
0.0
 10
143.7731435918245
 20
482.5342538077234
 30
0.0
 10
143.7731435922964
 20
482.5807789691825
 30
0.0
 10
143.7731435923752
 20
482.6438612799458
 30
0.0
 10
143.7731435919995
 20
482.6605257639895
 30
0.0
 10
143.773143592022
 20
482.6622148696528
 30
0.0
  0
SPLINE
  5
A4
330
1F
100
AcDbEntity
  8
0
  6
Continuous
 62
     7
370
    15
100
AcDbSpline
210
0.0
220
0.0
230
1.0
 70
     8
 71
     3
 72
    22
 73
    18
 74
     0
 42
0.000000001
 43
0.00000001
 40
0.0
 40
0.0
 40
0.0
 40
0.0
 40
0.125
 40
0.125
 40
0.25
 40
0.25
 40
0.375
 40
0.375
 40
0.5
 40
0.5
 40
0.625
 40
0.625
 40
0.75
 40
0.75
 40
0.875
 40
0.875
 40
1.0
 40
1.0
 40
1.0
 40
1.0
 10
166.1840784231027
 20
462.2537130407491
 30
0.0
 10
166.0605959260681
 20
463.637392137655
 30
0.0
 10
165.8086056254778
 20
465.0095756066051
 30
0.0
 10
165.0562103981201
 20
467.6841156610822
 30
0.0
 10
164.5558202070891
 20
468.986419865472
 30
0.0
 10
163.3237340836289
 20
471.4766461334103
 30
0.0
 10
162.5920622817307
 20
472.6645194256257
 30
0.0
 10
160.9224347588968
 20
474.885241609094
 30
0.0
 10
159.9845117377847
 20
475.9180470072786
 30
0.0
 10
157.9344605433656
 20
477.7932945059876
 30
0.0
 10
156.8223725205185
 20
478.6356998796002
 30
0.0
 10
154.4620296237555
 20
480.101320734683
 30
0.0
 10
153.2138209773938
 20
480.7245075118208
 30
0.0
 10
150.6239333839643
 20
481.7303630355181
 30
0.0
 10
149.2823051601065
 20
482.1130120822955
 30
0.0
 10
146.5514725681713
 20
482.6246920955635
 30
0.0
 10
145.1623216837261
 20
482.7537130407491
 30
0.0
 10
143.7731435920877
 20
482.7537130407491
 30
0.0
  0
SPLINE
  5
A5
330
1F
100
AcDbEntity
  8
0
  6
Continuous
 62
     7
370
    15
100
AcDbSpline
210
0.0
220
0.0
230
1.0
 70
     8
 71
     3
 72
    11
 73
     7
 74
     0
 42
0.000000001
 43
0.00000001
 40
0.0
 40
0.0
 40
0.0
 40
0.0
 40
0.2011141147996398
 40
0.5568620872807074
 40
0.9126101112177468
 40
1.0
 40
1.0
 40
1.0
 40
1.0
 10
164.2447021629495
 20
451.2077563844123
 30
0.0
 10
163.904884735906
 20
450.3946369207677
 30
0.0
 10
162.963968968227
 20
448.143201698606
 30
0.0
 10
160.4424375958435
 20
445.012511132579
 30
0.0
 10
157.9326978394803
 20
442.5183390532949
 30
0.0
 10
156.2320677949961
 20
441.5890171092577
 30
0.0
 10
155.8966916825456
 20
441.4057483367124
 30
0.0
  0
SPLINE
  5
A6
330
1F
100
AcDbEntity
  8
0
  6
Continuous
 62
     7
370
    15
100
AcDbSpline
210
0.0
220
0.0
230
1.0
 70
     8
 71
     3
 72
    11
 73
     7
 74
     0
 42
0.000000001
 43
0.00000001
 40
0.0
 40
0.0
 40
0.0
 40
0.0
 40
0.1979411004014136
 40
0.5480760386060305
 40
0.8982117791051336
 40
1.0
 40
1.0
 40
1.0
 40
1.0
 10
123.3015862133188
 20
451.2077563844123
 30
0.0
 10
123.6414756375686
 20
450.3947427565772
 30
0.0
 10
124.5825901854273
 20
448.1436019496756
 30
0.0
 10
127.1017340680958
 20
445.0094016605737
 30
0.0
 10
129.6693747590218
 20
442.476283203057
 30
0.0
 10
131.4344062041204
 20
441.5175849602622
 30
0.0
 10
131.8319496538324
 20
441.3016544125476
 30
0.0
  0
SPLINE
  5
A7
330
1F
100
AcDbEntity
  8
0
  6
Continuous
 62
     7
370
    15
100
AcDbSpline
210
0.0
220
0.0
230
1.0
 70
     8
 71
     3
 72
    12
 73
     8
 74
     0
 42
0.000000001
 43
0.00000001
 40
0.0
 40
0.0
 40
0.0
 40
0.0
 40
0.0463116295142501
 40
0.2847338743650594
 40
0.5231559074429105
 40
0.7615780503943378
 40
1.0
 40
1.0
 40
1.0
 40
1.0
 10
129.231160583703
 20
477.3437709949413
 30
0.0
 10
129.0140577515343
 20
477.183826780641
 30
0.0
 10
127.679262772662
 20
476.2004552971141
 30
0.0
 10
125.7096465628444
 20
473.8194258383813
 30
0.0
 10
123.493105720664
 20
470.2967814114236
 30
0.0
 10
121.9569816573765
 20
466.3826468393106
 30
0.0
 10
121.5604704889349
 20
463.6300239982313
 30
0.0
 10
121.3622149851007
 20
462.253713135744
 30
0.0
  0
LWPOLYLINE
  5
A8
330
1F
100
AcDbEntity
  8
0
  6
Continuous
 62
     7
370
    15
100
AcDbPolyline
 90
       15
 70
   128
 43
0.0
 10
154.7731441285
 20
438.8949436537
 10
153.8316664126
 20
439.1985380493
 10
152.6147630837
 20
439.4710169576
 10
151.1557531383
 20
439.7049167595
 10
149.4945940401
 20
439.8938355438
 10
147.6767641332
 20
440.0325970195
 10
145.752048197
 20
440.1174051158
 10
143.7731441881
 20
440.1459333889
 10
141.7942401793
 20
440.1174051158
 10
139.8695242431
 20
440.0325970195
 10
138.0516943361
 20
439.8938355438
 10
136.390535238
 20
439.7049167595
 10
134.9315252926
 20
439.4710169576
 10
133.7146219637
 20
439.1985380493
 10
132.7731442477
 20
438.8949436537
  0
SPLINE
  5
A9
330
1F
100
AcDbEntity
  8
0
  6
Continuous
 62
     7
370
    15
100
AcDbSpline
210
0.0
220
0.0
230
1.0
 70
    24
 71
     3
 72
    10
 73
     6
 74
     0
 42
0.000000001
 43
0.00000001
 40
0.0
 40
0.0
 40
0.0
 40
0.0
 40
0.5
 40
0.5
 40
1.0
 40
1.0
 40
1.0
 40
1.0
 10
154.7731435920876
 20
437.4935764441729
 30
0.0
 10
154.7731435920876
 20
437.6337756157911
 30
0.0
 10
154.7731435920876
 20
437.8277767183895
 30
0.0
 10
154.7731435920876
 20
438.3018953010459
 30
0.0
 10
154.7731435920876
 20
438.5819578103382
 30
0.0
 10
154.7731435920876
 20
438.8949428698954
 30
0.0
  0
LWPOLYLINE
  5
AA
330
1F
100
AcDbEntity
  8
0
  6
Continuous
 62
     7
370
    15
100
AcDbPolyline
 90
       19
 70
   128
 43
0.0
 10
154.7731441285
 20
437.4935769878
 10
154.6060276057
 20
437.8252675227
 10
154.1097593333
 20
438.1468792848
 10
153.299426737
 20
438.4486408375
 10
152.199631634
 20
438.7213842414
 10
150.8438047793
 20
438.9568207256
 10
149.273140433
 20
439.1477977328
 10
147.5353670146
 20
439.2885112605
 10
145.6832718875
 20
439.3746865384
 10
143.7731441881
 20
439.4037065498
 10
141.8630164888
 20
439.3746865384
 10
140.0109213617
 20
439.2885112605
 10
138.2731404926
 20
439.1477977328
 10
136.702483597
 20
438.9568207256
 10
135.3466567423
 20
438.7213842414
 10
134.2468616392
 20
438.4486408375
 10
133.4365215923
 20
438.1468792848
 10
132.9402607705
 20
437.8252675227
 10
132.7731442477
 20
437.4935769878
  0
SPLINE
  5
AB
330
1F
100
AcDbEntity
  8
0
  6
Continuous
 62
     7
370
    15
100
AcDbSpline
210
0.0
220
0.0
230
1.0
 70
    24
 71
     3
 72
    10
 73
     6
 74
     0
 42
0.000000001
 43
0.00000001
 40
0.0
 40
0.0
 40
0.0
 40
0.0
 40
0.5
 40
0.5
 40
1.0
 40
1.0
 40
1.0
 40
1.0
 10
132.7731435920876
 20
437.4935764441729
 30
0.0
 10
132.7731435920877
 20
437.6337756157911
 30
0.0
 10
132.7731435920876
 20
437.8277767183895
 30
0.0
 10
132.7731435920877
 20
438.3018953010459
 30
0.0
 10
132.7731435920876
 20
438.5819578103381
 30
0.0
 10
132.7731435920876
 20
438.8949428698954
 30
0.0
  0
SPLINE
  5
AC
330
1F
100
AcDbEntity
  8
0
  6
Continuous
 62
     7
370
    15
100
AcDbSpline
210
0.0
220
0.0
230
1.0
 70
     8
 71
     3
 72
    10
 73
     6
 74
     0
 42
0.000000001
 43
0.00000001
 40
0.0
 40
0.0
 40
0.0
 40
0.0
 40
0.1980307535427795
 40
0.6868299542653079
 40
1.0
 40
1.0
 40
1.0
 40
1.0
 10
132.5632539417428
 20
445.0170885242024
 30
0.0
 10
132.4568620305379
 20
445.0032428642495
 30
0.0
 10
132.0878630230614
 20
444.9552219694033
 30
0.0
 10
131.8186435442198
 20
444.7741447731268
 30
0.0
 10
131.8084142941397
 20
444.5452840148025
 30
0.0
 10
131.8044197585267
 20
444.4559135876098
 30
0.0
  0
SPLINE
  5
AD
330
1F
100
AcDbEntity
  8
0
  6
Continuous
 62
     7
370
    15
100
AcDbSpline
210
0.0
220
0.0
230
1.0
 70
     8
 71
     3
 72
    10
 73
     6
 74
     0
 42
0.000000001
 43
0.00000001
 40
0.0
 40
0.0
 40
0.0
 40
0.0
 40
0.2131527986539629
 40
0.6546730239321633
 40
1.0
 40
1.0
 40
1.0
 40
1.0
 10
155.72949320337
 20
444.4513203046718
 30
0.0
 10
155.7392267082729
 20
444.5164791936636
 30
0.0
 10
155.76912199057
 20
444.7166068352508
 30
0.0
 10
155.5327338821436
 20
444.9096600116955
 30
0.0
 10
155.1674039206952
 20
444.9859797879886
 30
0.0
 10
155.0070700075311
 20
445.0194745726386
 30
0.0
  0
SPLINE
  5
AE
330
1F
100
AcDbEntity
  8
0
  6
Continuous
 62
     7
370
    15
100
AcDbSpline
210
0.0
220
0.0
230
1.0
 70
     8
 71
     3
 72
    10
 73
     6
 74
     0
 42
0.000000001
 43
0.00000001
 40
0.0
 40
0.0
 40
0.0
 40
0.0
 40
0.5
 40
0.5
 40
1.0
 40
1.0
 40
1.0
 40
1.0
 10
142.6237862557894
 20
444.4853890699796
 30
0.0
 10
143.0059311475528
 20
444.4774672473938
 30
0.0
 10
143.3899671785796
 20
444.4754532970163
 30
0.0
 10
144.1573751122915
 20
444.4754582185929
 30
0.0
 10
144.5403361367844
 20
444.4774668492969
 30
0.0
 10
144.9225005345042
 20
444.4853890756831
 30
0.0
  0
LINE
  5
AF
330
1F
100
AcDbEntity
  8
0
  6
Continuous
 62
     7
370
    15
100
AcDbLine
 10
154.7731441285
 20
438.8949436537
 30
0.0
 11
154.7731441285
 21
442.265595629
 31
0.0
  0
LINE
  5
B0
330
1F
100
AcDbEntity
  8
0
  6
Continuous
 62
     7
370
    15
100
AcDbLine
 10
132.7731442477
 20
438.8949436537
 30
0.0
 11
132.7731442477
 21
442.265595629
 31
0.0
  0
LWPOLYLINE
  5
B1
330
1F
100
AcDbEntity
  8
0
  6
Continuous
 62
     7
370
    15
100
AcDbPolyline
 90
        9
 70
   128
 43
0.0
 10
132.7731442477
 20
440.6000201992
 10
132.3391255762
 20
440.8004017017
 10
132.0258063104
 20
441.0074589245
 10
131.8364721563
 20
441.219005122
 10
131.7731422212
 20
441.4328069828
 10
131.8364721563
 20
441.6466107062
 10
132.0258063104
 20
441.8581569038
 10
132.3391255762
 20
442.0652141265
 10
132.7731442477
 20
442.265595629
  0
LWPOLYLINE
  5
B2
330
1F
100
AcDbEntity
  8
0
  6
Continuous
 62
     7
370
    15
100
AcDbPolyline
 90
        9
 70
   128
 43
0.0
 10
154.7731441285
 20
442.265595629
 10
155.2071553495
 20
442.0652141265
 10
155.5204820659
 20
441.8581569038
 10
155.7098087694
 20
441.6466107062
 10
155.7731461551
 20
441.4328069828
 10
155.7098087694
 20
441.219005122
 10
155.5204820659
 20
441.0074589245
 10
155.2071553495
 20
440.8004017017
 10
154.7731441285
 20
440.6000201992
  0
SPLINE
  5
B3
330
1F
100
AcDbEntity
  8
0
  6
Continuous
 62
     7
370
    15
100
AcDbSpline
210
0.0
220
0.0
230
1.0
 70
     8
 71
     3
 72
    10
 73
     6
 74
     0
 42
0.000000001
 43
0.00000001
 40
0.0
 40
0.0
 40
0.0
 40
0.0
 40
0.5
 40
0.5
 40
1.0
 40
1.0
 40
1.0
 40
1.0
 10
141.2466277089767
 20
444.4971701020633
 30
0.0
 10
141.24263027708
 20
444.4839343241472
 30
0.0
 10
141.2384588011346
 20
444.4837517576269
 30
0.0
 10
141.2308120254385
 20
444.5129506798307
 30
0.0
 10
141.2273633480884
 20
444.5422305119305
 30
0.0
 10
141.224644507725
 20
444.5811121200652
 30
0.0
  0
LWPOLYLINE
  5
B4
330
1F
100
AcDbEntity
  8
0
  6
Continuous
 62
     7
370
    15
100
AcDbPolyline
 90
       19
 70
   128
 43
0.0
 10
132.7731442477
 20
437.4935769878
 10
132.9402607705
 20
437.1618864528
 10
133.4365215923
 20
436.8402728281
 10
134.2468616392
 20
436.5385112755
 10
135.3466567423
 20
436.2657678715
 10
136.702483597
 20
436.0303313873
 10
138.2731404926
 20
435.8393562428
 10
140.0109213617
 20
435.6986408524
 10
141.8630164888
 20
435.6124655745
 10
143.7731441881
 20
435.5834455631
 10
145.6832718875
 20
435.6124655745
 10
147.5353670146
 20
435.6986408524
 10
149.273140433
 20
435.8393562428
 10
150.8438047793
 20
436.0303313873
 10
152.199631634
 20
436.2657678715
 10
153.299426737
 20
436.5385112755
 10
154.1097593333
 20
436.8402728281
 10
154.6060276057
 20
437.1618864528
 10
154.7731441285
 20
437.4935769878
  0
LWPOLYLINE
  5
B5
330
1F
100
AcDbEntity
  8
0
  6
Continuous
 62
     7
370
    15
100
AcDbPolyline
 90
       20
 70
   128
 43
0.0
 10
134.4444733884
 20
437.3839752219
 10
134.4231423762
 20
437.4935769878
 10
134.5921066429
 20
437.8008463822
 10
135.0929048683
 20
438.0970106862
 10
135.9074246909
 20
438.3713671408
 10
137.0062288668
 20
438.6139952979
 10
138.3496132519
 20
438.8161314122
 10
139.8890149619
 20
438.9704646013
 10
141.5688005116
 20
439.0714199684
 10
143.3282551195
 20
439.1153485916
 10
145.1037880804
 20
439.1006616346
 10
146.8312275436
 20
439.0278899513
 10
148.4481450941
 20
438.8996635966
 10
149.8960909273
 20
438.7206186942
 10
151.1227396156
 20
438.4972260735
 10
152.0837527539
 20
438.2375584386
 10
152.7444031861
 20
437.9509997956
 10
153.0808043506
 20
437.6479101769
 10
153.0808043506
 20
437.339241936
 10
152.8610792782
 20
437.1118707053
  0
LWPOLYLINE
  5
B6
330
1F
100
AcDbEntity
  8
0
  6
Continuous
 62
     7
370
    15
100
AcDbPolyline
 90
       34
 70
   128
 43
0.0
 10
134.6231457617
 20
437.2966153018
 10
134.7884964969
 20
436.9959173195
 10
135.2785733368
 20
436.7060878716
 10
136.075673702
 20
436.4376006118
 10
137.1509787466
 20
436.2001617841
 10
138.4656262424
 20
436.0023507319
 10
139.9720963862
 20
435.85131815
 10
141.6159477856
 20
435.7525215886
 10
143.337769511
 20
435.7095336012
 10
145.0753268625
 20
435.7239057712
 10
146.7658188965
 20
435.7951202832
 10
148.3481434014
 20
435.9206029616
 10
149.765117171
 20
436.0958182655
 10
150.9655323651
 20
436.3144332014
 10
151.9059893515
 20
436.5685482911
 10
152.5525060322
 20
436.8489751063
 10
152.8817099359
 20
437.1455827198
 10
152.8817099359
 20
437.4476478837
 10
152.5525060322
 20
437.7442536346
 10
151.9059893515
 20
438.0246823124
 10
150.9655323651
 20
438.2787955395
 10
149.765117171
 20
438.4974104754
 10
148.3481434014
 20
438.6726257793
 10
146.7658188965
 20
438.7981084577
 10
145.0753268625
 20
438.8693229697
 10
143.337769511
 20
438.8836951397
 10
141.6159477856
 20
438.8407071523
 10
139.9720963862
 20
438.7419124536
 10
138.4656262424
 20
438.5908798716
 10
137.1509787466
 20
438.3930688194
 10
136.075673702
 20
438.155628129
 10
135.2785733368
 20
437.8871427319
 10
134.7884964969
 20
437.5973132841
 10
134.6231457617
 20
437.2966153018
  0
LWPOLYLINE
  5
B7
330
1F
100
AcDbEntity
  8
0
  6
Continuous
 62
     7
370
    15
100
AcDbPolyline
 90
       33
 70
   128
 43
0.0
 10
134.8737087872
 20
437.2966153018
 10
135.0447070625
 20
437.598101183
 10
135.5511379268
 20
437.888003274
 10
136.3735330131
 20
438.1551773689
 10
137.4802869584
 20
438.3893565677
 10
138.8288792994
 20
438.5815442942
 10
140.3674763467
 20
438.7243514351
 10
142.0369502928
 20
438.8122925005
 10
143.7731441881
 20
438.8419867895
 10
145.5093380835
 20
438.8122925005
 10
147.1788120296
 20
438.7243514351
 10
148.7174090769
 20
438.5815442942
 10
150.0659939673
 20
438.3893565677
 10
151.1727553632
 20
438.1551773689
 10
151.9951504495
 20
437.888003274
 10
152.5015813138
 20
437.598101183
 10
152.6725795891
 20
437.2966153018
 10
152.5015813138
 20
436.9951275579
 10
151.9951504495
 20
436.7052273295
 10
151.1727553632
 20
436.4380532346
 10
150.0659939673
 20
436.2038721732
 10
148.7174090769
 20
436.0116863094
 10
147.1788120296
 20
435.8688773058
 10
145.5093380835
 20
435.780938103
 10
143.7731441881
 20
435.751243814
 10
142.0369502928
 20
435.780938103
 10
140.3674763467
 20
435.8688773058
 10
138.8288792994
 20
436.0116863094
 10
137.4802869584
 20
436.2038721732
 10
136.3735330131
 20
436.4380532346
 10
135.5511379268
 20
436.7052273295
 10
135.0447070625
 20
436.9951275579
 10
134.8737087872
 20
437.2966153018
  0
SPLINE
  5
B8
330
1F
100
AcDbEntity
  8
0
  6
Continuous
 62
     7
370
    15
100
AcDbSpline
210
0.0
220
0.0
230
1.0
 70
     8
 71
     3
 72
    10
 73
     6
 74
     0
 42
0.000000001
 43
0.00000001
 40
0.0
 40
0.0
 40
0.0
 40
0.0
 40
0.5000000000000002
 40
0.5000000000000002
 40
1.0
 40
1.0
 40
1.0
 40
1.0
 10
236.5300042409294
 20
429.6259238788347
 30
0.0
 10
236.530151287133
 20
434.9750525304635
 30
0.0
 10
236.533917647642
 20
440.3007156984337
 30
0.0
 10
236.5484182621326
 20
450.8640469409278
 30
0.0
 10
236.559151957821
 20
456.0960163752328
 30
0.0
 10
236.573088723254
 20
461.2806724924065
 30
0.0
  0
SPLINE
  5
B9
330
1F
100
AcDbEntity
  8
0
  6
Continuous
 62
     7
370
    15
100
AcDbSpline
210
0.0
220
0.0
230
1.0
 70
     8
 71
     3
 72
    11
 73
     7
 74
     0
 42
0.000000001
 43
0.00000001
 40
0.0
 40
0.0
 40
0.0
 40
0.0
 40
0.0009596970758013
 40
0.2482245003294907
 40
0.4954987667972496
 40
1.0
 40
1.0
 40
1.0
 40
1.0
 10
271.0162625487728
 20
429.5949687651792
 30
0.0
 10
271.0162693988843
 20
429.6052873283429
 30
0.0
 10
271.0180411720316
 20
432.2741713439352
 30
0.0
 10
271.0134000842628
 20
437.5496736559873
 30
0.0
 10
271.0042491826871
 20
448.1720306325629
 30
0.0
 10
270.9856677883695
 20
456.0164454565148
 30
0.0
 10
270.9731981929226
 20
461.2806725484753
 30
0.0
  0
SPLINE
  5
BA
330
1F
100
AcDbEntity
  8
0
  6
Continuous
 62
     7
370
    15
100
AcDbSpline
210
0.0
220
0.0
230
1.0
 70
     8
 71
     3
 72
    35
 73
    31
 74
     0
 42
0.000000001
 43
0.00000001
 40
0.3733333319878753
 40
0.3733333319878753
 40
0.3733333319878753
 40
0.3733333319878753
 40
0.3747975431955106
 40
0.375
 40
0.4057753405342413
 40
0.4326064606567435
 40
0.4536904553121331
 40
0.4769531651772052
 40
0.4952294512815819
 40
0.5
 40
0.5144770595495093
 40
0.5295967959261346
 40
0.5468823310713626
 40
0.5604601793980922
 40
0.6073137111541508
 40
0.625
 40
0.6440958461729963
 40
0.6576721120961124
 40
0.6683364856808596
 40
0.7208206190357934
 40
0.75
 40
0.762071786177911
 40
0.7962145524500887
 40
0.8231075610513068
 40
0.875
 40
0.8904516614060828
 40
0.9441411256803024
 40
0.9751799444697651
 40
0.9875312344303273
 40
1.0
 40
1.0
 40
1.0
 40
1.0
 10
271.0162760729395
 20
429.8067769486967
 30
0.0
 10
271.0162779486124
 20
429.7651463508262
 30
0.0
 10
271.0162798358908
 20
429.7177586080664
 30
0.0
 10
271.0163110824588
 20
428.7953300876075
 30
0.0
 10
271.016184940325
 20
427.1510940299386
 30
0.0
 10
271.0155514827664
 20
424.9122005947933
 30
0.0
 10
271.0146303211029
 20
422.886101450876
 30
0.0
 10
271.0135357993811
 20
421.1024079920093
 30
0.0
 10
271.0125291775809
 20
419.782265992175
 30
0.0
 10
271.0116246888811
 20
418.7119681809224
 30
0.0
 10
271.0107282987546
 20
417.7312220844614
 30
0.0
 10
271.0093623375236
 20
416.3922173731025
 30
0.0
 10
271.0078682543536
 20
415.0776118650792
 30
0.0
 10
271.0050935796833
 20
412.8535886076389
 30
0.0
 10
271.0018119237923
 20
410.6137551512766
 30
0.0
 10
270.9977287327208
 20
408.2102841262626
 30
0.0
 10
270.9950738409671
 20
406.7611011366033
 30
0.0
 10
270.9926383790149
 20
405.5126170072672
 30
0.0
 10
270.9881279965956
 20
403.3006940882736
 30
0.0
 10
270.9820762268146
 20
400.6345718661334
 30
0.0
 10
270.9751079338398
 20
397.9257043194305
 30
0.0
 10
270.96916856814
 20
395.747456821664
 30
0.0
 10
270.9630507045469
 20
393.636524668869
 30
0.0
 10
270.9528999107687
 20
390.3820274711928
 30
0.0
 10
270.9437016108216
 20
387.6760693997111
 30
0.0
 10
270.9311605847907
 20
384.2184167792826
 30
0.0
 10
270.9201805005391
 20
381.3801581170329
 30
0.0
 10
270.9089326570627
 20
378.693740229971
 30
0.0
 10
270.9023111045461
 20
377.1728888846459
 30
0.0
 10
270.8993313207221
 20
376.504307750804
 30
0.0
 10
270.8978295210513
 20
376.1701678678892
 30
0.0
  0
SPLINE
  5
BB
330
1F
100
AcDbEntity
  8
0
  6
Continuous
 62
     7
370
    15
100
AcDbSpline
210
0.0
220
0.0
230
1.0
 70
     8
 71
     3
 72
    35
 73
    31
 74
     0
 42
0.000000001
 43
0.00000001
 40
0.3733333319878753
 40
0.3733333319878753
 40
0.3733333319878753
 40
0.3733333319878753
 40
0.3747975431955106
 40
0.375
 40
0.4057753405342413
 40
0.4326064606567435
 40
0.4536904553121331
 40
0.4769531651772052
 40
0.4952294512815819
 40
0.5
 40
0.5144770595495093
 40
0.5295967959261346
 40
0.5468823310713626
 40
0.5604601793980922
 40
0.6073137111541508
 40
0.625
 40
0.6440958461729963
 40
0.6576721120961124
 40
0.6683364856808596
 40
0.7208206190357934
 40
0.75
 40
0.762071786177911
 40
0.7962145524500887
 40
0.8231075610513068
 40
0.875
 40
0.8904516614060828
 40
0.9441411256803024
 40
0.9751799444697651
 40
0.9875312344303273
 40
1.0
 40
1.0
 40
1.0
 40
1.0
 10
236.530011111236
 20
429.8067769486967
 30
0.0
 10
236.5300092355631
 20
429.7651463508262
 30
0.0
 10
236.5300073482846
 20
429.7177586080664
 30
0.0
 10
236.5299761017167
 20
428.7953300876075
 30
0.0
 10
236.5301022438504
 20
427.1510940299386
 30
0.0
 10
236.530735701409
 20
424.9122005947933
 30
0.0
 10
236.5316568630726
 20
422.886101450876
 30
0.0
 10
236.5327513847943
 20
421.1024079920093
 30
0.0
 10
236.5337580065946
 20
419.782265992175
 30
0.0
 10
236.5346624952943
 20
418.7119681809224
 30
0.0
 10
236.5355588854208
 20
417.7312220844614
 30
0.0
 10
236.5369248466518
 20
416.3922173731025
 30
0.0
 10
236.5384189298218
 20
415.0776118650792
 30
0.0
 10
236.5411936044921
 20
412.8535886076389
 30
0.0
 10
236.544475260383
 20
410.6137551512766
 30
0.0
 10
236.5485584514546
 20
408.2102841262626
 30
0.0
 10
236.5512133432083
 20
406.7611011366033
 30
0.0
 10
236.5536488051605
 20
405.5126170072672
 30
0.0
 10
236.5581591875798
 20
403.3006940882736
 30
0.0
 10
236.5642109573608
 20
400.6345718661334
 30
0.0
 10
236.5711792503357
 20
397.9257043194305
 30
0.0
 10
236.5771186160354
 20
395.747456821664
 30
0.0
 10
236.5832364796285
 20
393.636524668869
 30
0.0
 10
236.5933872734067
 20
390.3820274711928
 30
0.0
 10
236.6025855733539
 20
387.6760693997111
 30
0.0
 10
236.6151265993847
 20
384.2184167792826
 30
0.0
 10
236.6261066836363
 20
381.3801581170329
 30
0.0
 10
236.6373545271127
 20
378.693740229971
 30
0.0
 10
236.6439760796293
 20
377.1728888846459
 30
0.0
 10
236.6469558634533
 20
376.504307750804
 30
0.0
 10
236.6484576631241
 20
376.1701678678892
 30
0.0
  0
SPLINE
  5
BC
330
1F
100
AcDbEntity
  8
0
  6
Continuous
 62
     7
370
    15
100
AcDbSpline
210
0.0
220
0.0
230
1.0
 70
     8
 71
     3
 72
    11
 73
     7
 74
     0
 42
0.000000001
 43
0.00000001
 40
0.0
 40
0.0
 40
0.0
 40
0.0
 40
0.5690114841821641
 40
0.5690114841821641
 40
0.784505742091082
 40
1.0
 40
1.0
 40
1.0
 40
1.0
 10
253.7731435920877
 20
369.681796595002
 30
0.0
 10
249.8623584238882
 20
369.681796595002
 30
0.0
 10
245.9587329554202
 20
369.8652717023256
 30
0.0
 10
240.5890953819547
 20
370.3813152742044
 30
0.0
 10
237.80188092997
 20
371.7915638796842
 30
0.0
 10
236.6550840704024
 20
374.6901341663705
 30
0.0
 10
236.6484576631241
 20
376.170167867889
 30
0.0
  0
SPLINE
  5
BD
330
1F
100
AcDbEntity
  8
0
  6
Continuous
 62
     7
370
    15
100
AcDbSpline
210
0.0
220
0.0
230
1.0
 70
     8
 71
     3
 72
    11
 73
     7
 74
     0
 42
0.000000001
 43
0.00000001
 40
0.0
 40
0.0
 40
0.0
 40
0.0
 40
0.5690114841821641
 40
0.5690114841821641
 40
0.784505742091082
 40
1.0
 40
1.0
 40
1.0
 40
1.0
 10
253.7731435920877
 20
369.681796595002
 30
0.0
 10
257.6839287602872
 20
369.681796595002
 30
0.0
 10
261.5875542287552
 20
369.8652717023256
 30
0.0
 10
266.9571918022207
 20
370.3813152742044
 30
0.0
 10
269.7444062542055
 20
371.7915638796842
 30
0.0
 10
270.891203113773
 20
374.6901341663705
 30
0.0
 10
270.8978295210513
 20
376.170167867889
 30
0.0
  0
SPLINE
  5
BE
330
1F
100
AcDbEntity
  8
0
  6
Continuous
 62
     7
370
    15
100
AcDbSpline
210
0.0
220
0.0
230
1.0
 70
     8
 71
     3
 72
     9
 73
     5
 74
     0
 42
0.000000001
 43
0.00000001
 40
0.0
 40
0.0
 40
0.0
 40
0.0
 40
0.4623750108359185
 40
1.0
 40
1.0
 40
1.0
 40
1.0
 10
236.5730983044786
 20
461.2842114578435
 30
0.0
 10
236.5781751224677
 20
461.6473985014339
 30
0.0
 10
236.5891549935033
 20
462.4328800587826
 30
0.0
 10
236.7270687249078
 20
463.2046727715003
 30
0.0
 10
236.8012145932597
 20
463.6196078203121
 30
0.0
  0
SPLINE
  5
BF
330
1F
100
AcDbEntity
  8
0
  6
Continuous
 62
     7
370
    15
100
AcDbSpline
210
0.0
220
0.0
230
1.0
 70
     8
 71
     3
 72
     9
 73
     5
 74
     0
 42
0.000000001
 43
0.00000001
 40
0.0
 40
0.0
 40
0.0
 40
0.0
 40
0.5833352025919798
 40
1.0
 40
1.0
 40
1.0
 40
1.0
 10
270.9731888796968
 20
461.2842114578435
 30
0.0
 10
270.9704784213574
 20
461.6476536066285
 30
0.0
 10
270.9658319362363
 20
462.2706952937583
 30
0.0
 10
270.8605731444468
 20
462.8828874950725
 30
0.0
 10
270.8167155112905
 20
463.1379664346078
 30
0.0
  0
LWPOLYLINE
  5
C0
330
1F
100
AcDbEntity
  8
0
  6
Continuous
 62
     7
370
    15
100
AcDbPolyline
 90
       40
 70
   128
 43
0.0
 10
271.1246629085
 20
443.8907702855
 10
272.609371769
 20
445.7018350653
 10
274.0756795581
 20
447.9637596227
 10
275.2569821503
 20
450.3786958225
 10
276.136700141
 20
452.9127430573
 10
276.7024823304
 20
455.530329927
 10
276.9463863995
 20
458.1947101682
 10
276.8649906691
 20
460.8684822737
 10
276.4594350781
 20
463.5141122557
 10
275.7354137327
 20
466.0944611236
 10
274.7030892249
 20
468.5733060754
 10
273.3769547965
 20
470.9158505715
 10
271.7756257232
 20
473.0892100773
 10
269.9215822693
 20
475.0628744654
 10
267.8408493128
 20
476.809139683
 10
265.5626368549
 20
478.3034895949
 10
263.1189255815
 20
479.5249489538
 10
260.5440198283
 20
480.4563702486
 10
257.8740660872
 20
481.0846777103
 10
255.1465442709
 20
481.4010517142
 10
252.3997429132
 20
481.4010517142
 10
249.672221097
 20
481.0846777103
 10
247.0022673558
 20
480.4563702486
 10
244.4273616027
 20
479.5249489538
 10
241.9836503293
 20
478.3034895949
 10
239.7054378714
 20
476.809139683
 10
237.6247049149
 20
475.0628744654
 10
235.770661461
 20
473.0892100773
 10
234.1693323877
 20
470.9158505715
 10
232.8431979593
 20
468.5733060754
 10
231.8108734514
 20
466.0944611236
 10
231.0868521061
 20
463.5141122557
 10
230.6812965151
 20
460.8684822737
 10
230.5999007847
 20
458.1947101682
 10
230.8438048538
 20
455.530329927
 10
231.4095870431
 20
452.9127430573
 10
232.2893050339
 20
450.3786958225
 10
233.470607626
 20
447.9637596227
 10
234.9369154151
 20
445.7018350653
 10
236.5345992919
 20
443.7675209186
  0
ARC
  5
C1
330
1F
100
AcDbEntity
  8
0
  6
Continuous
 62
     7
370
    15
100
AcDbCircle
 10
253.7731435921
 20
460.2537130407
 30
0.0
 40
22.55000000000002
100
AcDbArc
 50
15.2687013326
 51
164.7312986674
  0
SPLINE
  5
C2
330
1F
100
AcDbEntity
  8
0
  6
Continuous
 62
     7
370
    15
100
AcDbSpline
210
0.0
220
0.0
230
1.0
 70
     8
 71
     3
 72
    33
 73
    29
 74
     0
 42
0.000000001
 43
0.00000001
 40
0.0
 40
0.0
 40
0.0
 40
0.0
 40
0.0393123234863504
 40
0.0797605008144437
 40
0.1191846785401788
 40
0.1597533347230117
 40
0.1991136352460436
 40
0.239608776670956
 40
0.2790266813334891
 40
0.3195904363432944
 40
0.3589618048056519
 40
0.3994846694429533
 40
0.4387327134510813
 40
0.4791176225007496
 40
0.5184360488881286
 40
0.5588872318437476
 40
0.5983582599617379
 40
0.6389731652344733
 40
0.678447632033227
 40
0.7190736561936634
 40
0.744688341328247
 40
0.7706096399172617
 40
0.8099792524154472
 40
0.8504923449993207
 40
0.8898528834606445
 40
0.9303481603730839
 40
0.9698014279812872
 40
1.0
 40
1.0
 40
1.0
 40
1.0
 10
120.5646303322
 20
460.2537132837451
 30
0.0
 10
120.6263663246666
 20
461.5368344977442
 30
0.0
 10
120.7516220521517
 20
464.1401502409549
 30
0.0
 10
121.7603123520873
 20
467.9222561624966
 30
0.0
 10
123.3582246243626
 20
471.524201983554
 30
0.0
 10
125.5306337276331
 20
474.7767804107297
 30
0.0
 10
128.2357639175718
 20
477.6436777791256
 30
0.0
 10
131.3540205780784
 20
479.9950641002913
 30
0.0
 10
134.8562000061975
 20
481.80788932007
 30
0.0
 10
138.5807540042774
 20
482.9961816702786
 30
0.0
 10
142.4871836108317
 20
483.5467568706118
 30
0.0
 10
146.38932053135
 20
483.4345128232486
 30
0.0
 10
150.2474941819619
 20
482.6634634308991
 30
0.0
 10
153.8855625251771
 20
481.2717571789589
 30
0.0
 10
157.2707787610842
 20
479.2723038263063
 30
0.0
 10
160.2512106713058
 20
476.7533605483268
 30
0.0
 10
162.793780272879
 20
473.7391286941074
 30
0.0
 10
164.7792146173354
 20
470.3660379686227
 30
0.0
 10
166.1834948044229
 20
466.6725557065105
 30
0.0
 10
166.8529854548188
 20
463.2736274982132
 30
0.0
 10
167.0182087967498
 20
460.2681099510268
 30
0.0
 10
166.859479054443
 20
457.3031076637051
 30
0.0
 10
166.2016417782919
 20
453.9001460277529
 30
0.0
 10
164.8276247569833
 20
450.2460407970016
 30
0.0
 10
162.8467375761851
 20
446.8387526900874
 30
0.0
 10
160.3349829743157
 20
443.857425071223
 30
0.0
 10
157.6234135935664
 20
441.4659077040432
 30
0.0
 10
155.6351743024074
 20
440.3630950007838
 30
0.0
 10
154.7731441285295
 20
439.8849544517198
 30
0.0
  0
SPLINE
  5
C3
330
1F
100
AcDbEntity
  8
0
  6
Continuous
 62
     7
370
    15
100
AcDbSpline
210
0.0
220
0.0
230
1.0
 70
     8
 71
     3
 72
    14
 73
    10
 74
     0
 42
0.000000001
 43
0.00000001
 40
0.0
 40
0.0
 40
0.0
 40
0.0
 40
0.0585403760611408
 40
0.2130793668280437
 40
0.3720811858538438
 40
0.5268181529248928
 40
0.6860523056058491
 40
0.8407759748698314
 40
1.0
 40
1.0
 40
1.0
 40
1.0
 10
132.7731442477388
 20
439.9005764565864
 30
0.0
 10
132.3355063878796
 20
440.1139651077088
 30
0.0
 10
130.7425614095046
 20
440.8906720872123
 30
0.0
 10
128.3031455533466
 20
442.8390737465157
 30
0.0
 10
125.5934901183374
 20
445.6412003379658
 30
0.0
 10
123.3918531648123
 20
448.9256937805467
 30
0.0
 10
121.7922679528465
 20
452.4923967795215
 30
0.0
 10
120.7596762442473
 20
456.3162817945566
 30
0.0
 10
120.6302639994711
 20
458.9287530959023
 30
0.0
 10
120.5646303322
 20
460.2537132837451
 30
0.0
  0
SPLINE
  5
C4
330
1F
100
AcDbEntity
  8
0
  6
Continuous
 62
     7
370
    15
100
AcDbSpline
210
0.0
220
0.0
230
1.0
 70
     8
 71
     3
 72
    27
 73
    23
 74
     0
 42
0.000000001
 43
0.00000001
 40
0.0
 40
0.0
 40
0.0
 40
0.0
 40
0.072276962291113
 40
0.1446065632540151
 40
0.2171832385075919
 40
0.2899080121629298
 40
0.3598273019119799
 40
0.3949999568027258
 40
0.4302671350590338
 40
0.4863521653490897
 40
0.5148787390787779
 40
0.5436138912616899
 40
0.5848473241643215
 40
0.6272533242141101
 40
0.6679155161640951
 40
0.7095820548102383
 40
0.7446228261571785
 40
0.7798845174380489
 40
0.8513009543063688
 40
0.9236041240186473
 40
0.9959328896269204
 40
1.0
 40
1.0
 40
1.0
 40
1.0
 10
298.9848126496954
 20
460.2537130407492
 30
0.0
 10
298.9765280936556
 20
458.9650978304221
 30
0.0
 10
298.9599529480073
 20
456.3869289227179
 30
0.0
 10
298.8050176321702
 20
452.5172250363769
 30
0.0
 10
298.5196975857248
 20
448.6467804581758
 30
0.0
 10
298.0589509153918
 20
444.8358053985866
 30
0.0
 10
297.4839950402916
 20
441.7150428610547
 30
0.0
 10
296.8716731989797
 20
439.2876679551853
 30
0.0
 10
296.2043251219614
 20
437.1321391667129
 30
0.0
 10
295.4009290082088
 20
435.1447779394473
 30
0.0
 10
294.4432426164682
 20
433.3629716857401
 30
0.0
 10
293.4787523087437
 20
431.8927799717957
 30
0.0
 10
292.1749090342498
 20
430.3600682734707
 30
0.0
 10
290.4591308768655
 20
428.9379134509566
 30
0.0
 10
288.5146041230871
 20
427.8381325278446
 30
0.0
 10
286.5500942725589
 20
427.0979452878609
 30
0.0
 10
284.614127398365
 20
426.6025469887463
 30
0.0
 10
282.1252255290371
 20
426.1563992429161
 30
0.0
 10
278.9427033948122
 20
425.8744996029864
 30
0.0
 10
275.0964363019497
 20
425.6833337307964
 30
0.0
 10
272.4476953555502
 20
425.5626026732944
 30
0.0
 10
271.086092611556
 20
425.5293621452432
 30
0.0
 10
271.0136045541448
 20
425.5275925091901
 30
0.0
  0
SPLINE
  5
C5
330
1F
100
AcDbEntity
  8
0
  6
Continuous
 62
     7
370
    15
100
AcDbSpline
210
0.0
220
0.0
230
1.0
 70
     8
 71
     3
 72
     9
 73
     5
 74
     0
 42
0.000000001
 43
0.00000001
 40
0.0
 40
0.0
 40
0.0
 40
0.0
 40
0.619326312629809
 40
1.0
 40
1.0
 40
1.0
 40
1.0
 10
236.5330551590604
 20
424.9302682868638
 30
0.0
 10
228.7379318068169
 20
424.86621223712
 30
0.0
 10
216.151475857378
 20
424.7627836431178
 30
0.0
 10
203.5646263170148
 20
424.7562131082099
 30
0.0
 10
198.7731438901109
 20
424.7537118784585
 30
0.0
  0
SPLINE
  5
C6
330
1F
100
AcDbEntity
  8
0
  6
Continuous
 62
     7
370
    15
100
AcDbSpline
210
0.0
220
0.0
230
1.0
 70
     8
 71
     3
 72
    48
 73
    44
 74
     0
 42
0.000000001
 43
0.00000001
 40
0.0
 40
0.0
 40
0.0
 40
0.0
 40
0.2500000000000002
 40
0.2500000000000002
 40
0.3750000000000003
 40
0.3750000000000003
 40
0.5000000000000004
 40
0.5000000000000004
 40
0.5625000000000004
 40
0.5625000000000004
 40
0.5937500000000006
 40
0.5937500000000006
 40
0.6250000000000006
 40
0.6250000000000006
 40
0.6562500000000006
 40
0.6562500000000006
 40
0.6875000000000007
 40
0.6875000000000007
 40
0.7031250000000006
 40
0.7031250000000006
 40
0.7187500000000004
 40
0.7187500000000004
 40
0.7343750000000003
 40
0.7343750000000003
 40
0.7500000000000002
 40
0.7500000000000002
 40
0.7656250000000001
 40
0.7656250000000001
 40
0.78125
 40
0.78125
 40
0.8124999999999999
 40
0.8124999999999999
 40
0.828125
 40
0.828125
 40
0.84375
 40
0.84375
 40
0.8749999999999999
 40
0.8749999999999999
 40
0.9062499999999999
 40
0.9062499999999999
 40
0.9374999999999999
 40
0.9374999999999999
 40
1.0
 40
1.0
 40
1.0
 40
1.0
 10
198.7731435920877
 20
495.7537130407491
 30
0.0
 10
209.2530062235035
 20
495.7537130407492
 30
0.0
 10
219.732683880166
 20
495.7216793857608
 30
0.0
 10
235.4518296175638
 20
495.6094233813733
 30
0.0
 10
240.6914817975361
 20
495.5610830663384
 30
0.0
 10
251.1705935936352
 20
495.4310545135008
 30
0.0
 10
256.4099457748771
 20
495.3506326644141
 30
0.0
 10
264.2677483377135
 20
495.1792492013697
 30
0.0
 10
266.886827623055
 20
495.1136848574118
 30
0.0
 10
270.8148868340566
 20
494.9902524103321
 30
0.0
 10
272.1242688243111
 20
494.9448696177086
 30
0.0
 10
274.7421561166656
 20
494.8399566452819
 30
0.0
 10
276.05044620983
 20
494.7809715525196
 30
0.0
 10
278.6640617617972
 20
494.6333864299916
 30
0.0
 10
279.9696075600371
 20
494.5469874603736
 30
0.0
 10
282.5700512078109
 20
494.2678228358398
 30
0.0
 10
283.8643070989676
 20
494.0686443979009
 30
0.0
 10
285.7891417078756
 20
493.6045597811907
 30
0.0
 10
286.4264556813262
 20
493.4215088180426
 30
0.0
 10
287.6638280159989
 20
492.9878350406738
 30
0.0
 10
288.2668470689329
 20
492.736521822688
 30
0.0
 10
289.4347621499164
 20
492.1500036165972
 30
0.0
 10
289.9996459489281
 20
491.8147717178356
 30
0.0
 10
291.085215400369
 20
491.0470475176017
 30
0.0
 10
291.5929385424293
 20
490.6232068822156
 30
0.0
 10
292.5326857807852
 20
489.7090606994829
 30
0.0
 10
292.9665986688107
 20
489.2175275633851
 30
0.0
 10
293.7698171987037
 20
488.172550186459
 30
0.0
 10
294.1400273542606
 20
487.616742799513
 30
0.0
 10
295.1413492319963
 20
485.9133274483534
 30
0.0
 10
295.6768790730571
 20
484.7174222226569
 30
0.0
 10
296.3537375688852
 20
482.8658187046622
 30
0.0
 10
296.558264504956
 20
482.2371718735881
 30
0.0
 10
296.9296370891731
 20
480.9713849048544
 30
0.0
 10
297.0960555573727
 20
480.3361766293978
 30
0.0
 10
297.5492364605295
 20
478.4250165206881
 30
0.0
 10
297.7905331945272
 20
477.1436025449548
 30
0.0
 10
298.1905964736386
 20
474.5708596105212
 30
0.0
 10
298.3489729533227
 20
473.2794837902766
 30
0.0
 10
298.6052726213298
 20
470.6894694334135
 30
0.0
 10
298.7030275852936
 20
469.3908106867158
 30
0.0
 10
298.9269240968077
 20
465.4865006924024
 30
0.0
 10
298.9848141238147
 20
462.8703348580534
 30
0.0
 10
298.9848141238147
 20
460.253713040749
 30
0.0
  0
SPLINE
  5
C7
330
1F
100
AcDbEntity
  8
0
  6
Continuous
 62
     7
370
    15
100
AcDbSpline
210
0.0
220
0.0
230
1.0
 70
     8
 71
     3
 72
    48
 73
    44
 74
     0
 42
0.000000001
 43
0.00000001
 40
0.0
 40
0.0
 40
0.0
 40
0.0
 40
0.249999999999997
 40
0.249999999999997
 40
0.3749999999999953
 40
0.3749999999999953
 40
0.4999999999999937
 40
0.4999999999999937
 40
0.562499999999993
 40
0.562499999999993
 40
0.5937499999999929
 40
0.5937499999999929
 40
0.6249999999999927
 40
0.6249999999999927
 40
0.6562499999999926
 40
0.6562499999999926
 40
0.6874999999999925
 40
0.6874999999999925
 40
0.7031249999999927
 40
0.7031249999999927
 40
0.7187499999999929
 40
0.7187499999999929
 40
0.7343749999999932
 40
0.7343749999999932
 40
0.7499999999999934
 40
0.7499999999999934
 40
0.7656249999999937
 40
0.7656249999999937
 40
0.781249999999994
 40
0.781249999999994
 40
0.8124999999999948
 40
0.8124999999999948
 40
0.8281249999999953
 40
0.8281249999999953
 40
0.8437499999999958
 40
0.8437499999999958
 40
0.8749999999999966
 40
0.8749999999999966
 40
0.9062499999999974
 40
0.9062499999999974
 40
0.9374999999999983
 40
0.9374999999999983
 40
1.0
 40
1.0
 40
1.0
 40
1.0
 10
198.7731435920877
 20
424.7537130407491
 30
0.0
 10
188.2932809606719
 20
424.7537130407492
 30
0.0
 10
177.8136033040094
 20
424.7857466957375
 30
0.0
 10
162.0944575666117
 20
424.8980027001249
 30
0.0
 10
156.8548053866394
 20
424.9463430151598
 30
0.0
 10
146.3756935905402
 20
425.0763715679974
 30
0.0
 10
141.1363414092984
 20
425.1567934170841
 30
0.0
 10
133.278538846462
 20
425.3281768801286
 30
0.0
 10
130.6594595611205
 20
425.3937412240864
 30
0.0
 10
126.7314003501189
 20
425.5171736711662
 30
0.0
 10
125.4220183598643
 20
425.5625564637896
 30
0.0
 10
122.8041310675097
 20
425.6674694362164
 30
0.0
 10
121.4958409743454
 20
425.7264545289786
 30
0.0
 10
118.8822254223781
 20
425.8740396515067
 30
0.0
 10
117.5766796241383
 20
425.9604386211246
 30
0.0
 10
114.9762359763644
 20
426.2396032456584
 30
0.0
 10
113.6819800852078
 20
426.4387816835974
 30
0.0
 10
111.7571454762999
 20
426.9028663003076
 30
0.0
 10
111.1198315028492
 20
427.0859172634556
 30
0.0
 10
109.8824591681766
 20
427.5195910408245
 30
0.0
 10
109.2794401152426
 20
427.7709042588103
 30
0.0
 10
108.111525034259
 20
428.357422464901
 30
0.0
 10
107.5466412352472
 20
428.6926543636626
 30
0.0
 10
106.4610717838065
 20
429.4603785638966
 30
0.0
 10
105.9533486417462
 20
429.8842191992826
 30
0.0
 10
105.0136014033902
 20
430.7983653820154
 30
0.0
 10
104.5796885153647
 20
431.289898518113
 30
0.0
 10
103.7764699854717
 20
432.3348758950392
 30
0.0
 10
103.4062598299148
 20
432.8906832819853
 30
0.0
 10
102.4049379521792
 20
434.5940986331449
 30
0.0
 10
101.8694081111184
 20
435.7900038588414
 30
0.0
 10
101.1925496152902
 20
437.6416073768361
 30
0.0
 10
100.9880226792194
 20
438.2702542079102
 30
0.0
 10
100.6166500950024
 20
439.5360411766438
 30
0.0
 10
100.4502316268027
 20
440.1712494521005
 30
0.0
 10
99.99705072364594
 20
442.0824095608101
 30
0.0
 10
99.75575398964824
 20
443.3638235365434
 30
0.0
 10
99.35569071053672
 20
445.9365664709771
 30
0.0
 10
99.19731423085273
 20
447.2279422912217
 30
0.0
 10
98.94101456284564
 20
449.8179566480847
 30
0.0
 10
98.84325959888183
 20
451.1166153947824
 30
0.0
 10
98.6193630873677
 20
455.0209253890958
 30
0.0
 10
98.56147306036071
 20
457.6370912234449
 30
0.0
 10
98.56147306036074
 20
460.2537130407492
 30
0.0
  0
SPLINE
  5
C8
330
1F
100
AcDbEntity
  8
0
  6
Continuous
 62
     7
370
    15
100
AcDbSpline
210
0.0
220
0.0
230
1.0
 70
     8
 71
     3
 72
    52
 73
    48
 74
     0
 42
0.000000001
 43
0.00000001
 40
0.0
 40
0.0
 40
0.0
 40
0.0
 40
0.062500000000003
 40
0.062500000000003
 40
0.0937500000000045
 40
0.0937500000000045
 40
0.125000000000006
 40
0.125000000000006
 40
0.1562500000000076
 40
0.1562500000000076
 40
0.1718750000000084
 40
0.1718750000000084
 40
0.1875000000000092
 40
0.1875000000000092
 40
0.2187500000000108
 40
0.2187500000000108
 40
0.2265625000000111
 40
0.2265625000000111
 40
0.2343750000000115
 40
0.2343750000000115
 40
0.2500000000000117
 40
0.2500000000000117
 40
0.265625000000012
 40
0.265625000000012
 40
0.2812500000000123
 40
0.2812500000000123
 40
0.2968750000000125
 40
0.2968750000000125
 40
0.3046875000000123
 40
0.3046875000000123
 40
0.3125000000000121
 40
0.3125000000000121
 40
0.3437500000000113
 40
0.3437500000000113
 40
0.3750000000000105
 40
0.3750000000000105
 40
0.4062500000000098
 40
0.4062500000000098
 40
0.437500000000009
 40
0.437500000000009
 40
0.5000000000000079
 40
0.5000000000000079
 40
0.625000000000006
 40
0.625000000000006
 40
0.750000000000004
 40
0.750000000000004
 40
1.0
 40
1.0
 40
1.0
 40
1.0
 10
98.56147306036074
 20
460.253713040749
 30
0.0
 10
98.56147306036068
 20
462.8918271050161
 30
0.0
 10
98.62006715813588
 20
465.5262562257877
 30
0.0
 10
98.84856436205173
 20
469.4690572863437
 30
0.0
 10
98.94847076904507
 20
470.7818312715735
 30
0.0
 10
99.21140582534214
 20
473.4034095265656
 30
0.0
 10
99.37439254014426
 20
474.7132234941583
 30
0.0
 10
99.78754862227072
 20
477.3230775535805
 30
0.0
 10
100.0365857669326
 20
478.6180121662176
 30
0.0
 10
100.5021677940973
 20
480.5387564147308
 30
0.0
 10
100.6728403202315
 20
481.1753617499541
 30
0.0
 10
101.0524510201506
 20
482.4395669002996
 30
0.0
 10
101.2620563879907
 20
483.0689206766844
 30
0.0
 10
101.9569637247932
 20
484.9233822524513
 30
0.0
 10
102.5062742926185
 20
486.1164208477094
 30
0.0
 10
103.3585946418574
 20
487.5243973439409
 30
0.0
 10
103.5374798342423
 20
487.8017576505026
 30
0.0
 10
103.9141775472729
 20
488.3469596874062
 30
0.0
 10
104.1124214463586
 20
488.6152062265274
 30
0.0
 10
104.7294932734252
 20
489.3925046137151
 30
0.0
 10
105.1730971012336
 20
489.8778238115091
 30
0.0
 10
106.1308910322517
 20
490.7764364623804
 30
0.0
 10
106.6459313182721
 20
491.1902130976358
 30
0.0
 10
107.7476345389644
 20
491.9391599838636
 30
0.0
 10
108.3211548791885
 20
492.265665723082
 30
0.0
 10
109.5073416174828
 20
492.8358429835645
 30
0.0
 10
110.1199946733698
 20
493.0795427372834
 30
0.0
 10
111.0630131706512
 20
493.3942253149395
 30
0.0
 10
111.3816154217785
 20
493.4906710555875
 30
0.0
 10
112.0185500399824
 20
493.6667921241968
 30
0.0
 10
112.3378456181712
 20
493.7468144116712
 30
0.0
 10
113.9377599766521
 20
494.1135753658194
 30
0.0
 10
115.2285828226078
 20
494.3012848645807
 30
0.0
 10
117.8216821978947
 20
494.5655473121965
 30
0.0
 10
119.1232787964141
 20
494.6486989036636
 30
0.0
 10
121.7288336408147
 20
494.7920825973631
 30
0.0
 10
123.0330426881574
 20
494.8498807031015
 30
0.0
 10
125.6427646097106
 20
494.9528234395736
 30
0.0
 10
126.9484232797002
 20
494.9975060782094
 30
0.0
 10
130.8651001119881
 20
495.119162271298
 30
0.0
 10
133.4764303793025
 20
495.1839865530529
 30
0.0
 10
141.3107461859055
 20
495.3535462803173
 30
0.0
 10
146.5340572972746
 20
495.4333251124307
 30
0.0
 10
156.9810780201441
 20
495.5623358891996
 30
0.0
 10
162.2048035716386
 20
495.610345959181
 30
0.0
 10
177.8764044808763
 20
495.7218550700887
 30
0.0
 10
188.3248043628636
 20
495.7537130407491
 30
0.0
 10
198.7731435920877
 20
495.7537130407491
 30
0.0
  0
SPLINE
  5
C9
330
1F
100
AcDbEntity
  8
0
  6
Continuous
 62
     8
370
     0
100
AcDbSpline
210
0.0
220
0.0
230
1.0
 70
     8
 71
     3
 72
    12
 73
     8
 74
     0
 42
0.000000001
 43
0.00000001
 40
0.0
 40
0.0
 40
0.0
 40
0.0
 40
0.5000000000000013
 40
0.5000000000000013
 40
0.7500000000000007
 40
0.7500000000000007
 40
1.0
 40
1.0
 40
1.0
 40
1.0
 10
159.5501481499042
 20
461.1948243508311
 30
0.0
 10
157.0178559088063
 20
461.532842558743
 30
0.0
 10
154.4306937160676
 20
461.7915571380659
 30
0.0
 10
150.4699109460275
 20
462.0545562157592
 30
0.0
 10
149.1338298742428
 20
462.1212816767072
 30
0.0
 10
146.4593036962754
 20
462.2103877931909
 30
0.0
 10
145.118305518713
 20
462.2330118450826
 30
0.0
 10
143.7735510777002
 20
462.2334387285279
 30
0.0
  0
LWPOLYLINE
  5
CA
330
1F
100
AcDbEntity
  8
0
  6
Continuous
 62
     8
370
     0
100
AcDbPolyline
 90
        9
 70
   128
 43
0.0
 10
143.7735539701
 20
462.233438709
 10
143.7734571125
 20
462.5230558153
 10
143.7733751561
 20
462.8131076164
 10
143.7732931997
 20
463.0889919057
 10
143.7732261445
 20
463.3368203353
 10
143.773181441
 20
463.5441166751
 10
143.7731441881
 20
463.7004447571
 10
143.7731367376
 20
463.7979349058
 10
143.7731441881
 20
463.8316795166
  0
SPLINE
  5
CB
330
1F
100
AcDbEntity
  8
0
  6
Continuous
 62
     8
370
     0
100
AcDbSpline
210
0.0
220
0.0
230
1.0
 70
     8
 71
     3
 72
    12
 73
     8
 74
     0
 42
0.000000001
 43
0.00000001
 40
0.0
 40
0.0
 40
0.0
 40
0.0
 40
0.2500000000000008
 40
0.2500000000000008
 40
0.5000000000000017
 40
0.5000000000000017
 40
1.0
 40
1.0
 40
1.0
 40
1.0
 10
143.7731435920877
 20
463.8316796005356
 30
0.0
 10
145.1011551639888
 20
463.8312727956366
 30
0.0
 10
146.4255550767759
 20
463.8093781730077
 30
0.0
 10
149.0671735892194
 20
463.7231808455952
 30
0.0
 10
150.3868527705421
 20
463.6586465818187
 30
0.0
 10
154.3003313776096
 20
463.4045454878256
 30
0.0
 10
156.8580187506041
 20
463.1546211030746
 30
0.0
 10
159.3632393764327
 20
462.8307577928142
 30
0.0
  0
SPLINE
  5
CC
330
1F
100
AcDbEntity
  8
0
  6
Continuous
 62
     8
370
     0
100
AcDbSpline
210
0.0
220
0.0
230
1.0
 70
     8
 71
     3
 72
    14
 73
    10
 74
     0
 42
0.000000001
 43
0.00000001
 40
0.0
 40
0.0
 40
0.0
 40
0.0
 40
0.25
 40
0.25
 40
0.5
 40
0.5
 40
0.75
 40
0.75
 40
1.0
 40
1.0
 40
1.0
 40
1.0
 10
159.3632343487453
 20
462.8307584747246
 30
0.0
 10
159.4235145966555
 20
462.8225859912494
 30
0.0
 10
159.4780060768528
 20
462.7701641695182
 30
0.0
 10
159.5646962143053
 20
462.5871301562729
 30
0.0
 10
159.5968361256836
 20
462.4566419984019
 30
0.0
 10
159.6323855927052
 20
462.1433827699248
 30
0.0
 10
159.6357710581267
 20
461.9608239805372
 30
0.0
 10
159.6130977297239
 20
461.5797466893765
 30
0.0
 10
159.5870543005603
 20
461.3814864259707
 30
0.0
 10
159.5488647161882
 20
461.1949976445578
 30
0.0
  0
SPLINE
  5
CD
330
1F
100
AcDbEntity
  8
0
  6
Continuous
 62
     8
370
     0
100
AcDbSpline
210
0.0
220
0.0
230
1.0
 70
     8
 71
     3
 72
    12
 73
     8
 74
     0
 42
0.000000001
 43
0.00000001
 40
0.0
 40
0.0
 40
0.0
 40
0.0
 40
0.4999999999999996
 40
0.4999999999999996
 40
0.7499999999999998
 40
0.7499999999999998
 40
1.0
 40
1.0
 40
1.0
 40
1.0
 10
143.7735510777864
 20
462.2334389845153
 30
0.0
 10
141.0839385389801
 20
462.2326031377109
 30
0.0
 10
138.4188078613054
 20
462.1432115505893
 30
0.0
 10
134.4574720741857
 20
461.8808975370463
 30
0.0
 10
133.140885231931
 20
461.7717266179774
 30
0.0
 10
130.5446524710318
 20
461.513248748114
 30
0.0
 10
129.2623663815608
 20
461.3638434066974
 30
0.0
 10
127.9962166432488
 20
461.1948347102904
 30
0.0
  0
SPLINE
  5
CE
330
1F
100
AcDbEntity
  8
0
  6
Continuous
 62
     8
370
     0
100
AcDbSpline
210
0.0
220
0.0
230
1.0
 70
     8
 71
     3
 72
    14
 73
    10
 74
     0
 42
0.000000001
 43
0.00000001
 40
0.0
 40
0.0
 40
0.0
 40
0.0
 40
0.25
 40
0.25
 40
0.5
 40
0.5
 40
0.75
 40
0.75
 40
1.0
 40
1.0
 40
1.0
 40
1.0
 10
127.996698092638
 20
461.1949855523325
 30
0.0
 10
127.958506189692
 20
461.3814699927839
 30
0.0
 10
127.9324662380967
 20
461.5797231299035
 30
0.0
 10
127.9098104137597
 20
461.9607847363556
 30
0.0
 10
127.9132098916064
 20
462.1433350151307
 30
0.0
 10
127.9487951957728
 20
462.4565800797938
 30
0.0
 10
127.9809569110581
 20
462.5870626246253
 30
0.0
 10
128.0676945834815
 20
462.7700912547959
 30
0.0
 10
128.122211770994
 20
462.8225133279981
 30
0.0
 10
128.1825175148329
 20
462.8306893431118
 30
0.0
  0
SPLINE
  5
CF
330
1F
100
AcDbEntity
  8
0
  6
Continuous
 62
     8
370
     0
100
AcDbSpline
210
0.0
220
0.0
230
1.0
 70
     8
 71
     3
 72
    63
 73
    59
 74
     0
 42
0.000000001
 43
0.00000001
 40
0.0
 40
0.0
 40
0.0
 40
0.0
 40
0.0129543224252514
 40
0.0258437233294096
 40
0.0322789340364146
 40
0.0451301073852859
 40
0.0579538793455372
 40
0.0643430619573061
 40
0.0770660221882237
 40
0.0960125198678016
 40
0.1022940057364469
 40
0.1169734231211936
 40
0.1388114672496616
 40
0.146042170086972
 40
0.167584653049117
 40
0.1818243969041936
 40
0.188908900066033
 40
0.2100257086303779
 40
0.2312244028413095
 40
0.2453441057290245
 40
0.2733453332338929
 40
0.3010496154655797
 40
0.3284759168932256
 40
0.3495859962073336
 40
0.3705512794264173
 40
0.3844526242217525
 40
0.4120868488141305
 40
0.4258269413712453
 40
0.4395193119274731
 40
0.4536292773445275
 40
0.4676953098038062
 40
0.4817208918851088
 40
0.4957096885775892
 40
0.5235903240145869
 40
0.5374896516330994
 40
0.5652240067088021
 40
0.6067111205267397
 40
0.6205238138106903
 40
0.6619519335590869
 40
0.6826028885947225
 40
0.6894921913617356
 40
0.7032821628264234
 40
0.7447700294558042
 40
0.7517089644122654
 40
0.7656118122301425
 40
0.7913598725092152
 40
0.8102261386743901
 40
0.8291875336004635
 40
0.848257153697537
 40
0.8565041643424762
 40
0.8730702044410333
 40
0.8897411467529517
 40
0.898119539867157
 40
0.9444083941705178
 40
0.9667990277787197
 40
0.9743267553480551
 40
0.9872745851435647
 40
1.0
 40
1.0
 40
1.0
 40
1.0
 10
159.5494034406112
 20
461.195107412723
 30
0.0
 10
159.5249645181392
 20
461.0943286651607
 30
0.0
 10
159.4762091506176
 20
460.8932762299975
 30
0.0
 10
159.4152942618036
 20
460.6433378347909
 30
0.0
 10
159.3555210319306
 20
460.3944104735144
 30
0.0
 10
159.2967448841688
 20
460.1462887471861
 30
0.0
 10
159.2386041845964
 20
459.8990499142512
 30
0.0
 10
159.1805266218103
 20
459.6534089914954
 30
0.0
 10
159.1106704681283
 20
459.3615369372079
 30
0.0
 10
159.0394793069615
 20
459.0720598161395
 30
0.0
 10
158.9636621475294
 20
458.7687813977402
 30
0.0
 10
158.8810782137977
 20
458.4446351805092
 30
0.0
 10
158.7941553150368
 20
458.1153699114896
 30
0.0
 10
158.6905502457726
 20
457.7366106024804
 30
0.0
 10
158.5998544164463
 20
457.4165575953203
 30
0.0
 10
158.5057970901414
 20
457.1000669855279
 30
0.0
 10
158.4104433921918
 20
456.7882199320131
 30
0.0
 10
158.2959821541336
 20
456.4275673227643
 30
0.0
 10
158.1590988613363
 20
456.0196807563955
 30
0.0
 10
157.9996509901322
 20
455.5660148781332
 30
0.0
 10
157.8159640858245
 20
455.0710393224367
 30
0.0
 10
157.5842698160641
 20
454.4905743967639
 30
0.0
 10
157.3592792474317
 20
453.9667817543544
 30
0.0
 10
157.1435680777063
 20
453.4966508228446
 30
0.0
 10
156.9621988347391
 20
453.1233477919128
 30
0.0
 10
156.7524223558572
 20
452.7117030781915
 30
0.0
 10
156.5590816300013
 20
452.3531968673499
 30
0.0
 10
156.3584611379853
 20
452.001910675171
 30
0.0
 10
156.2030401922648
 20
451.7398925522408
 30
0.0
 10
156.0421770188056
 20
451.4789583863071
 30
0.0
 10
155.8756812219018
 20
451.2192293728941
 30
0.0
 10
155.7053451796331
 20
450.9635661773488
 30
0.0
 10
155.4733697221893
 20
450.6284566231037
 30
0.0
 10
155.233372624955
 20
450.3008758126972
 30
0.0
 10
154.9235913061391
 20
449.9013587211606
 30
0.0
 10
154.5404858277511
 20
449.4342505774966
 30
0.0
 10
154.1365423304795
 20
448.9858668051656
 30
0.0
 10
153.6461848207948
 20
448.4816932845014
 30
0.0
 10
153.2457441571092
 20
448.100422530355
 30
0.0
 10
152.8657656869836
 20
447.7695616449233
 30
0.0
 10
152.6337675604362
 20
447.5755209180348
 30
0.0
 10
152.2799538020614
 20
447.2885080416038
 30
0.0
 10
151.9125590724476
 20
447.0145109771979
 30
0.0
 10
151.532885497437
 20
446.7527131885105
 30
0.0
 10
151.2453177064746
 20
446.5611110627785
 30
0.0
 10
150.8750478956918
 20
446.330469224842
 30
0.0
 10
150.4617332013368
 20
446.0926968333437
 30
0.0
 10
150.0834555356828
 20
445.889921326201
 30
0.0
 10
149.7690085361181
 20
445.733419987079
 30
0.0
 10
149.4663068508323
 20
445.5909632874431
 30
0.0
 10
149.1762650814218
 20
445.4614510572162
 30
0.0
 10
148.880150522336
 20
445.3386969267952
 30
0.0
 10
148.3660798480127
 20
445.1378653330991
 30
0.0
 10
147.7950741313885
 20
444.9437302306498
 30
0.0
 10
147.2134308299412
 20
444.7833612397486
 30
0.0
 10
146.8823274736584
 20
444.7013260034699
 30
0.0
 10
146.6240013193554
 20
444.6417543836066
 30
0.0
 10
146.4219602056791
 20
444.6012314273343
 30
0.0
 10
146.321814819911
 20
444.5811454803975
 30
0.0
  0
SPLINE
  5
D0
330
1F
100
AcDbEntity
  8
0
  6
Continuous
 62
     8
370
     0
100
AcDbSpline
210
0.0
220
0.0
230
1.0
 70
     8
 71
     3
 72
    15
 73
    11
 74
     0
 42
0.000000001
 43
0.00000001
 40
0.0
 40
0.0
 40
0.0
 40
0.0
 40
0.1250198476467703
 40
0.2500227753568716
 40
0.375014352214869
 40
0.5000002212948986
 40
0.6249860626976982
 40
0.7499775565362932
 40
0.8749803459217266
 40
1.0
 40
1.0
 40
1.0
 40
1.0
 10
141.224512841763
 20
444.5810517585006
 30
0.0
 10
141.4367420232874
 20
444.5787405116111
 30
0.0
 10
141.8611716636621
 20
444.5741183306317
 30
0.0
 10
142.4983689560239
 20
444.569578235176
 30
0.0
 10
143.1357561758086
 20
444.5667668618674
 30
0.0
 10
143.7732691155019
 20
444.5658507503533
 30
0.0
 10
144.4107818859989
 20
444.5667676055275
 30
0.0
 10
145.0481685966183
 20
444.5695797170486
 30
0.0
 10
145.6853650455748
 20
444.5741205414261
 30
0.0
 10
146.1097939824769
 20
444.5787431959564
 30
0.0
 10
146.3220227653701
 20
444.5810546791269
 30
0.0
  0
SPLINE
  5
D1
330
1F
100
AcDbEntity
  8
0
  6
Continuous
 62
     8
370
     0
100
AcDbSpline
210
0.0
220
0.0
230
1.0
 70
     8
 71
     3
 72
    24
 73
    20
 74
     0
 42
0.000000001
 43
0.00000001
 40
0.0
 40
0.0
 40
0.0
 40
0.0
 40
0.0111282717701684
 40
0.0223412159328809
 40
0.0336458050171821
 40
0.1012601877997201
 40
0.1720858658674424
 40
0.2400522964322686
 40
0.3105341699327064
 40
0.4485931500565717
 40
0.5170453751220153
 40
0.5862207594200171
 40
0.7233429066594076
 40
0.8616680170580617
 40
0.9307555009773363
 40
0.948065337533748
 40
0.9653460969418
 40
0.9829783205819403
 40
1.0
 40
1.0
 40
1.0
 40
1.0
 10
141.2245702445836
 20
444.5810406384759
 30
0.0
 10
141.1370144795181
 20
444.5985208533346
 30
0.0
 10
140.9612367582424
 20
444.6336142858798
 30
0.0
 10
140.6990928146757
 20
444.6927819761205
 30
0.0
 10
140.0024739776023
 20
444.8634510919644
 30
0.0
 10
138.8798896260384
 20
445.2218332583616
 30
0.0
 10
137.4389413711751
 20
445.8720858699721
 30
0.0
 10
136.0891104725941
 20
446.6693728524357
 30
0.0
 10
134.4566465816955
 20
447.8861951388566
 30
0.0
 10
133.0371757994882
 20
449.325674458446
 30
0.0
 10
131.8362885672043
 20
450.9325629707413
 30
0.0
 10
130.7781249775345
 20
452.6431871078306
 30
0.0
 10
129.7022043894075
 20
454.973273263523
 30
0.0
 10
128.8985705098821
 20
457.485421896092
 30
0.0
 10
128.4758921718391
 20
459.1919140146668
 30
0.0
 10
128.2859833646673
 20
459.9885649091677
 30
0.0
 10
128.1909128404486
 20
460.391591136199
 30
0.0
 10
128.0955725855414
 20
460.793726038378
 30
0.0
 10
128.0293060856293
 20
461.0627731616282
 30
0.0
 10
127.9967565885131
 20
461.1949266415011
 30
0.0
  0
SPLINE
  5
D2
330
1F
100
AcDbEntity
  8
0
  6
Continuous
 62
     8
370
     0
100
AcDbSpline
210
0.0
220
0.0
230
1.0
 70
     8
 71
     3
 72
     8
 73
     4
 74
     0
 42
0.000000001
 43
0.00000001
 40
0.0
 40
0.0
 40
0.0
 40
0.0
 40
1.0
 40
1.0
 40
1.0
 40
1.0
 10
145.1660571973603
 20
481.9469946144443
 30
0.0
 10
144.7023243996162
 20
481.9744403863275
 30
0.0
 10
144.2377181917553
 20
481.9861832620007
 30
0.0
 10
143.7731435920877
 20
481.9865683649323
 30
0.0
  0
SPLINE
  5
D3
330
1F
100
AcDbEntity
  8
0
  6
Continuous
 62
     8
370
     0
100
AcDbSpline
210
0.0
220
0.0
230
1.0
 70
     8
 71
     3
 72
    56
 73
    52
 74
     0
 42
0.000000001
 43
0.00000001
 40
0.0
 40
0.0
 40
0.0
 40
0.0
 40
0.4999999999999988
 40
0.4999999999999988
 40
0.5624999999999989
 40
0.5624999999999989
 40
0.6249999999999989
 40
0.6249999999999989
 40
0.656249999999999
 40
0.656249999999999
 40
0.687499999999999
 40
0.687499999999999
 40
0.7499999999999988
 40
0.7499999999999988
 40
0.7812499999999988
 40
0.7812499999999988
 40
0.7968749999999987
 40
0.7968749999999987
 40
0.8124999999999987
 40
0.8124999999999987
 40
0.8281249999999987
 40
0.8281249999999987
 40
0.8437499999999986
 40
0.8437499999999986
 40
0.8593749999999986
 40
0.8593749999999986
 40
0.8749999999999986
 40
0.8749999999999986
 40
0.8828124999999986
 40
0.8828124999999986
 40
0.8906249999999984
 40
0.8906249999999984
 40
0.9062499999999986
 40
0.9062499999999986
 40
0.9140624999999987
 40
0.9140624999999987
 40
0.9218749999999988
 40
0.9218749999999988
 40
0.9374999999999989
 40
0.9374999999999989
 40
0.945312499999999
 40
0.945312499999999
 40
0.9531249999999991
 40
0.9531249999999991
 40
0.9687499999999994
 40
0.9687499999999994
 40
0.9765624999999997
 40
0.9765624999999997
 40
0.9843749999999998
 40
0.9843749999999998
 40
1.0
 40
1.0
 40
1.0
 40
1.0
 10
162.3360649976077
 20
462.4108321437803
 30
0.0
 10
162.4484823338287
 20
462.420359090497
 30
0.0
 10
162.559566885453
 20
462.4269333555337
 30
0.0
 10
162.6835989639225
 20
462.4370815132766
 30
0.0
 10
162.6973119494606
 20
462.4383050770103
 30
0.0
 10
162.7244572914985
 20
462.4411822226202
 30
0.0
 10
162.7377204216079
 20
462.443548007148
 30
0.0
 10
162.7587226525056
 20
462.4381532456328
 30
0.0
 10
162.7640770793683
 20
462.4380459304301
 30
0.0
 10
162.8089497786249
 20
462.4609574406543
 30
0.0
 10
162.8501961448109
 20
462.4835664109473
 30
0.0
 10
163.0293926037961
 20
462.62539133442
 30
0.0
 10
163.226201533962
 20
462.8214176991917
 30
0.0
 10
163.5271576770305
 20
463.4883280651784
 30
0.0
 10
163.6282132474063
 20
463.7748965622432
 30
0.0
 10
163.7528421371784
 20
464.347200276445
 30
0.0
 10
163.7898176441947
 20
464.5619519776456
 30
0.0
 10
163.8459372222307
 20
465.0513726134556
 30
0.0
 10
163.865003892764
 20
465.3266508600303
 30
0.0
 10
163.8720534218061
 20
465.940483721039
 30
0.0
 10
163.8602748869896
 20
466.2796905158174
 30
0.0
 10
163.7890910013041
 20
467.0330107161466
 30
0.0
 10
163.7298198025984
 20
467.4470764736768
 30
0.0
 10
163.537361030529
 20
468.3643833714034
 30
0.0
 10
163.4026400939874
 20
468.8715197309546
 30
0.0
 10
163.0366225399815
 20
469.9491877055381
 30
0.0
 10
162.8051404020059
 20
470.5220092598857
 30
0.0
 10
162.3580065737794
 20
471.4302358922744
 30
0.0
 10
162.1909882435025
 20
471.7429443900086
 30
0.0
 10
161.8261279658332
 20
472.3727377420024
 30
0.0
 10
161.6283168113483
 20
472.6900417480551
 30
0.0
 10
160.9869222596176
 20
473.6448512847044
 30
0.0
 10
160.4952335026841
 20
474.2854078224335
 30
0.0
 10
159.6531817188421
 20
475.2362331849035
 30
0.0
 10
159.3531445742958
 20
475.5532140761161
 30
0.0
 10
158.7269064743356
 20
476.1702184281729
 30
0.0
 10
158.4009695144803
 20
476.4706240410598
 30
0.0
 10
157.3865797309128
 20
477.345693044203
 30
0.0
 10
156.6618031614143
 20
477.8942578609497
 30
0.0
 10
155.5037231570301
 20
478.6567500318383
 30
0.0
 10
155.1057727396155
 20
478.9008186706791
 30
0.0
 10
154.2855406377818
 20
479.3670798041745
 30
0.0
 10
153.8659367171717
 20
479.5876355241697
 30
0.0
 10
152.5908410164062
 20
480.2049911185762
 30
0.0
 10
151.714445328096
 20
480.5603911256421
 30
0.0
 10
150.3629758023871
 20
481.0099065018238
 30
0.0
 10
149.90625871684
 20
481.1456666090423
 30
0.0
 10
148.9802874076153
 20
481.3883449664666
 30
0.0
 10
148.5097376612939
 20
481.495483693824
 30
0.0
 10
147.0889857908971
 20
481.7700328946794
 30
0.0
 10
146.1322135556308
 20
481.889813179054
 30
0.0
 10
145.1660571973603
 20
481.9469946144442
 30
0.0
  0
SPLINE
  5
D4
330
1F
100
AcDbEntity
  8
0
  6
Continuous
 62
     8
370
     0
100
AcDbSpline
210
0.0
220
0.0
230
1.0
 70
     8
 71
     3
 72
    20
 73
    16
 74
     0
 42
0.000000001
 43
0.00000001
 40
0.0
 40
0.0
 40
0.0
 40
0.0
 40
0.1249999999999982
 40
0.1249999999999982
 40
0.2499999999999963
 40
0.2499999999999963
 40
0.3749999999999945
 40
0.3749999999999945
 40
0.4999999999999927
 40
0.4999999999999927
 40
0.6249999999999909
 40
0.6249999999999909
 40
0.749999999999989
 40
0.749999999999989
 40
1.0
 40
1.0
 40
1.0
 40
1.0
 10
159.3632343487453
 20
462.8307584747246
 30
0.0
 10
159.5769341582353
 20
462.8031323634654
 30
0.0
 10
159.7828964904661
 20
462.7759510975226
 30
0.0
 10
160.1800677231616
 20
462.7225992367435
 30
0.0
 10
160.3724515167436
 20
462.6962607868898
 30
0.0
 10
160.7326409573351
 20
462.6461767004286
 30
0.0
 10
160.9013625712235
 20
462.622313846356
 30
0.0
 10
161.2164673109894
 20
462.5771723826073
 30
0.0
 10
161.3638559799267
 20
462.5557443590058
 30
0.0
 10
161.6297965278899
 20
462.5166843104923
 30
0.0
 10
161.7477952638646
 20
462.4991395303151
 30
0.0
 10
161.9541901646552
 20
462.4682488088181
 30
0.0
 10
162.0429584751327
 20
462.454845627186
 30
0.0
 10
162.2593156237276
 20
462.4221104935936
 30
0.0
 10
162.3347070435567
 20
462.4106410380585
 30
0.0
 10
162.3363961786802
 20
462.4107802964672
 30
0.0
  0
SPLINE
  5
D5
330
1F
100
AcDbEntity
  8
0
  6
Continuous
 62
     8
370
     0
100
AcDbSpline
210
0.0
220
0.0
230
1.0
 70
    24
 71
     3
 72
    60
 73
    56
 74
     0
 42
0.000000001
 43
0.00000001
 40
0.0268356000760574
 40
0.0268356000760574
 40
0.0268356000760574
 40
0.0268356000760574
 40
0.0554292486670908
 40
0.1108584973341814
 40
0.1662877460012723
 40
0.2217169946683631
 40
0.2771534307455618
 40
0.3325898667764042
 40
0.3880263028304248
 40
0.4434627388844455
 40
0.4927146457590637
 40
0.5
 40
0.5358473189263123
 40
0.5789799920935612
 40
0.62211266526081
 40
0.625
 40
0.65625
 40
0.6652453383260551
 40
0.6812676014112365
 40
0.7005976221469622
 40
0.7161696595094189
 40
0.71875
 40
0.735352048690637
 40
0.7391809496307813
 40
0.7585961707078137
 40
0.7817880691450805
 40
0.8048876132061307
 40
0.8125
 40
0.8241330739512333
 40
0.839381526774363
 40
0.84375
 40
0.8523228460447851
 40
0.8571174708739037
 40
0.86641438388639
 40
0.875
 40
0.8815628857148348
 40
0.8950990028924524
 40
0.90625
 40
0.9071872230289011
 40
0.9071872230289011
 40
0.9072335182135433
 40
0.9182142495350564
 40
0.921875
 40
0.9288757719630962
 40
0.9375
 40
0.9392432896295566
 40
0.9491116234918254
 40
0.953125
 40
0.9585167182797334
 40
0.9674164963245437
 40
0.96875
 40
0.9757583613885578
 40
0.9836323403661181
 40
0.984375
 40
0.9881437662621773
 40
0.9881437662621773
 40
0.9881437662621773
 40
0.9881437662621773
 10
143.7731435920877
 20
463.8316796005356
 30
0.0
 10
143.7731435920877
 20
463.8380463549299
 30
0.0
 10
143.7731435920877
 20
463.8568504505541
 30
0.0
 10
143.7731435920877
 20
463.8884638675257
 30
0.0
 10
143.7731435920877
 20
463.9266131731862
 30
0.0
 10
143.7731435920877
 20
463.9650325585972
 30
0.0
 10
143.7731435920877
 20
464.0035381236187
 30
0.0
 10
143.7731435920877
 20
464.0419458965756
 30
0.0
 10
143.7731435920877
 20
464.0800702288305
 30
0.0
 10
143.7731435920877
 20
464.116326791935
 30
0.0
 10
143.7731435920877
 20
464.1412665326774
 30
0.0
 10
143.7731435920877
 20
464.1616123940036
 30
0.0
 10
143.7731435920877
 20
464.1804413042491
 30
0.0
 10
143.7731435920877
 20
464.2054368338486
 30
0.0
 10
143.7731435920877
 20
464.2211943653646
 30
0.0
 10
143.7731435920877
 20
464.2331590299493
 30
0.0
 10
143.7731435920877
 20
464.2391219283322
 30
0.0
 10
143.7731435920877
 20
464.2440095580131
 30
0.0
 10
143.7731435920877
 20
464.2509325252342
 30
0.0
 10
143.7731435920877
 20
464.2768340714481
 30
0.0
 10
143.7731435920877
 20
464.3203136021389
 30
0.0
 10
143.7731435920877
 20
464.3768196574994
 30
0.0
 10
143.7731435920877
 20
464.4260735648884
 30
0.0
 10
143.7731435920877
 20
464.5422208037118
 30
0.0
 10
143.7731435920877
 20
464.71917596588
 30
0.0
 10
143.7731435920877
 20
465.120172767626
 30
0.0
 10
143.7731435920877
 20
465.6201761093931
 30
0.0
 10
143.7731435920877
 20
466.1448564818413
 30
0.0
 10
143.7731435920877
 20
466.6353507341485
 30
0.0
 10
143.7731435920877
 20
467.1712085848175
 30
0.0
 10
143.7731435920877
 20
467.719017457134
 30
0.0
 10
143.7731435920877
 20
468.0909180727648
 30
0.0
 10
143.7731435920877
 20
468.6056763193837
 30
0.0
 10
143.7731435920877
 20
469.1645022308756
 30
0.0
 10
143.7731435920877
 20
469.832358496125
 30
0.0
 10
143.7731435920877
 20
470.6862068971335
 30
0.0
 10
143.7731435920877
 20
471.7090829773586
 30
0.0
 10
143.7731435920877
 20
472.622926499412
 30
0.0
 10
143.7731435920877
 20
473.0679119149347
 30
0.0
 10
143.7731435920877
 20
473.1039213210153
 30
0.0
 10
143.7731435920877
 20
473.5108518857216
 30
0.0
 10
143.7731435920877
 20
474.0680574099496
 30
0.0
 10
143.7731435920877
 20
474.9146084146928
 30
0.0
 10
143.7731435920877
 20
475.6840988783152
 30
0.0
 10
143.7731435920877
 20
476.3949300574689
 30
0.0
 10
143.7731435920877
 20
477.2345801215088
 30
0.0
 10
143.7731435920877
 20
477.8892222575794
 30
0.0
 10
143.7731435920877
 20
478.675993436727
 30
0.0
 10
143.7731435920877
 20
479.4020275896438
 30
0.0
 10
143.7731435920877
 20
479.980574910921
 30
0.0
 10
143.7731435920877
 20
480.5685697713827
 30
0.0
 10
143.7731435920877
 20
481.0823013687138
 30
0.0
 10
143.7731435920877
 20
481.5036514427094
 30
0.0
 10
143.7731435920877
 20
481.8034696421305
 30
0.0
 10
143.7731435920877
 20
481.9056330222063
 30
0.0
 10
143.7731435920877
 20
481.9865683649322
 30
0.0
  0
LINE
  5
D6
330
1F
100
AcDbEntity
  8
0
  6
Continuous
 62
     8
370
     0
100
AcDbLine
 10
124.8230245735
 20
462.4384828779
 30
0.0
 11
124.8892155316
 21
462.4339182332
 31
0.0
  0
SPLINE
  5
D7
330
1F
100
AcDbEntity
  8
0
  6
Continuous
 62
     8
370
     0
100
AcDbSpline
210
0.0
220
0.0
230
1.0
 70
     8
 71
     3
 72
    20
 73
    16
 74
     0
 42
0.000000001
 43
0.00000001
 40
0.0
 40
0.0
 40
0.0
 40
0.0
 40
0.125
 40
0.125
 40
0.25
 40
0.25
 40
0.375
 40
0.375
 40
0.5
 40
0.5
 40
0.625
 40
0.625
 40
0.75
 40
0.75
 40
1.0
 40
1.0
 40
1.0
 40
1.0
 10
125.2098901544897
 20
462.4107801653328
 30
0.0
 10
125.2107341224607
 20
462.410710514483
 30
0.0
 10
125.2303886676643
 20
462.4135909668498
 30
0.0
 10
125.3054574109894
 20
462.4248817949569
 30
0.0
 10
125.3614812804265
 20
462.4333844774088
 30
0.0
 10
125.5051990657167
 20
462.4551280286964
 30
0.0
 10
125.5929938274481
 20
462.4683838235437
 30
0.0
 10
125.7996786405585
 20
462.4993163403291
 30
0.0
 10
125.9198168181271
 20
462.5171763602162
 30
0.0
 10
126.1856802009241
 20
462.556217947109
 30
0.0
 10
126.3310568456392
 20
462.5773512520719
 30
0.0
 10
126.6462324640119
 20
462.6224995577825
 30
0.0
 10
126.8172164315629
 20
462.6466800094318
 30
0.0
 10
127.3606099278085
 20
462.7222177508817
 30
0.0
 10
127.7545147199994
 20
462.7753550558691
 30
0.0
 10
128.1818736673662
 20
462.8306061050545
 30
0.0
  0
SPLINE
  5
D8
330
1F
100
AcDbEntity
  8
0
  6
Continuous
 62
     8
370
     0
100
AcDbSpline
210
0.0
220
0.0
230
1.0
 70
     8
 71
     3
 72
    33
 73
    29
 74
     0
 42
0.000000001
 43
0.00000001
 40
0.0
 40
0.0
 40
0.0
 40
0.0
 40
0.0338890116132985
 40
0.0667719942692378
 40
0.0987215937370915
 40
0.1297987652433186
 40
0.1600548888344795
 40
0.1895333822179114
 40
0.218270944961489
 40
0.2462985274904876
 40
0.2736403701979664
 40
0.3001441338086849
 40
0.3257290853283786
 40
0.3504315681970251
 40
0.3742820858700748
 40
0.3973061228554798
 40
0.4195248081204953
 40
0.4409554574944076
 40
0.4616120225379846
 40
0.4815008731402386
 40
0.5006347171754183
 40
0.5809547260504563
 40
0.6576835191921964
 40
0.7313165466274403
 40
0.8025151442315133
 40
0.8712411055949321
 40
0.9369090984832764
 40
1.0
 40
1.0
 40
1.0
 40
1.0
 10
127.9953680041827
 20
461.1949308145005
 30
0.0
 10
127.9198104617625
 20
461.1951395451032
 30
0.0
 10
127.7709383775884
 20
461.1955508099335
 30
0.0
 10
127.5550370600249
 20
461.1962566608458
 30
0.0
 10
127.3486720963207
 20
461.1970000219407
 30
0.0
 10
127.1517524553503
 20
461.1977809286467
 30
0.0
 10
126.9638830243416
 20
461.1985926548059
 30
0.0
 10
126.7847782168546
 20
461.1994334003762
 30
0.0
 10
126.6141501373062
 20
461.2003006855244
 30
0.0
 10
126.4517358016737
 20
461.2011980170884
 30
0.0
 10
126.2976126610962
 20
461.2021090999361
 30
0.0
 10
126.1520067085764
 20
461.2030829100342
 30
0.0
 10
126.0150522848594
 20
461.2041259719093
 30
0.0
 10
125.8865143863943
 20
461.2052133048402
 30
0.0
 10
125.7659636075353
 20
461.2063298016302
 30
0.0
 10
125.652999245105
 20
461.2074595731274
 30
0.0
 10
125.5472455198255
 20
461.2085818224029
 30
0.0
 10
125.448347423521
 20
461.2096935737491
 30
0.0
 10
125.3559786855095
 20
461.2107263388976
 30
0.0
 10
125.2698123803357
 20
461.2118403389489
 30
0.0
 10
125.1029678155893
 20
461.2139020710302
 30
0.0
 10
124.8773560237408
 20
461.2167767539426
 30
0.0
 10
124.6278464315542
 20
461.2207181632664
 30
0.0
 10
124.4323721685191
 20
461.2247094735462
 30
0.0
 10
124.2862774479927
 20
461.2289818370909
 30
0.0
 10
124.1871795301851
 20
461.2336157244387
 30
0.0
 10
124.1277382407752
 20
461.2380923614959
 30
0.0
 10
124.1199490612972
 20
461.2408646155939
 30
0.0
 10
124.1161324212305
 20
461.2422229995026
 30
0.0
  0
SPLINE
  5
D9
330
1F
100
AcDbEntity
  8
0
  6
Continuous
 62
     8
370
     0
100
AcDbSpline
210
0.0
220
0.0
230
1.0
 70
     8
 71
     3
 72
    17
 73
    13
 74
     0
 42
0.000000001
 43
0.00000001
 40
0.0
 40
0.0
 40
0.0
 40
0.0
 40
0.087566515069414
 40
0.2341399705442473
 40
0.3825194763127092
 40
0.4589354073781132
 40
0.5384094459893232
 40
0.6211330571777318
 40
0.7035387894376014
 40
0.7806156331810944
 40
0.8549504500568281
 40
1.0
 40
1.0
 40
1.0
 40
1.0
 10
131.7731422211808
 20
443.40951865832
 30
0.0
 10
131.4520763577895
 20
443.6631009520213
 30
0.0
 10
130.5935935034969
 20
444.3411426752838
 30
0.0
 10
129.8523899822652
 20
445.1551027134525
 30
0.0
 10
129.6253467072748
 20
445.565899336278
 30
0.0
 10
130.0549877703114
 20
445.604699405976
 30
0.0
 10
130.8209359324234
 20
445.5135462856422
 30
0.0
 10
132.1120203538886
 20
445.3737414586566
 30
0.0
 10
133.7593821562025
 20
445.3199854357057
 30
0.0
 10
135.6520683807786
 20
445.2170816969312
 30
0.0
 10
138.1485115531808
 20
444.848190155553
 30
0.0
 10
140.0003019131654
 20
444.6874122284162
 30
0.0
 10
141.2246432926339
 20
444.5811112813154
 30
0.0
  0
SPLINE
  5
DA
330
1F
100
AcDbEntity
  8
0
  6
Continuous
 62
     8
370
     0
100
AcDbSpline
210
0.0
220
0.0
230
1.0
 70
     8
 71
     3
 72
    12
 73
     8
 74
     0
 42
0.000000001
 43
0.00000001
 40
0.0
 40
0.0
 40
0.0
 40
0.0
 40
0.1672486175743055
 40
0.4117075696271567
 40
0.6687278870790931
 40
0.9219036325904196
 40
0.9999999999999999
 40
0.9999999999999999
 40
0.9999999999999999
 40
0.9999999999999999
 10
131.7731422211808
 20
443.3765852294364
 30
0.0
 10
131.5962195020064
 20
443.5155121504607
 30
0.0
 10
131.1606976795864
 20
443.8575016140524
 30
0.0
 10
130.5361922239139
 20
444.4169759551156
 30
0.0
 10
129.8776877882656
 20
445.0587845205793
 30
0.0
 10
129.3942699418445
 20
445.5655835553558
 30
0.0
 10
129.1410661221522
 20
445.8644847402376
 30
0.0
 10
129.0813741113824
 20
445.9349497623244
 30
0.0
  0
SPLINE
  5
DB
330
1F
100
AcDbEntity
  8
0
  6
Continuous
 62
     8
370
     0
100
AcDbSpline
210
0.0
220
0.0
230
1.0
 70
     8
 71
     3
 72
    12
 73
     8
 74
     0
 42
0.000000001
 43
0.00000001
 40
0.0
 40
0.0
 40
0.0
 40
0.0
 40
0.0678590773631349
 40
0.3056825357828842
 40
0.5330475100733036
 40
0.767557229357684
 40
1.0
 40
1.0
 40
1.0
 40
1.0
 10
125.5135741855783
 20
451.7892555735507
 30
0.0
 10
125.4439269076602
 20
451.9586045154135
 30
0.0
 10
125.1301891241292
 20
452.7214650786914
 30
0.0
 10
124.668961887107
 20
454.2151236580338
 30
0.0
 10
124.2222895426104
 20
456.3638640128573
 30
0.0
 10
123.9806207587767
 20
458.7021646204325
 30
0.0
 10
124.0713115415734
 20
460.3980391245324
 30
0.0
 10
124.1164562132043
 20
461.2422230123976
 30
0.0
  0
SPLINE
  5
DC
330
1F
100
AcDbEntity
  8
0
  6
Continuous
 62
     8
370
     0
100
AcDbSpline
210
0.0
220
0.0
230
1.0
 70
     8
 71
     3
 72
    36
 73
    32
 74
     0
 42
0.000000001
 43
0.00000001
 40
0.0
 40
0.0
 40
0.0
 40
0.0
 40
0.0008945009466587
 40
0.002999835804681
 40
0.0048599778634445
 40
0.0104148822643456
 40
0.0326109018422371
 40
0.0410741112177131
 40
0.0579573240646168
 40
0.0831494908307755
 40
0.0998667848196296
 40
0.1507914793710092
 40
0.2253263579224348
 40
0.2492264091277396
 40
0.2967930928810186
 40
0.4489204067224702
 40
0.4739715202743842
 40
0.5115771665742657
 40
0.5492336483209121
 40
0.574429592144614
 40
0.6127687954732203
 40
0.6389239725137461
 40
0.6520302798112787
 40
0.7047836758438638
 40
0.7564441649832294
 40
0.769407471920174
 40
0.8085476866406666
 40
0.8562703142488163
 40
0.9046782935591337
 40
0.9520040653460201
 40
0.9999999999999999
 40
0.9999999999999999
 40
0.9999999999999999
 40
0.9999999999999999
 10
163.4299500173009
 20
461.242514110139
 30
0.0
 10
163.4299303425094
 20
461.2425175308483
 30
0.0
 10
163.4298643603054
 20
461.2425290026824
 30
0.0
 10
163.429745823182
 20
461.2424976405558
 30
0.0
 10
163.4294770398257
 20
461.2424455474541
 30
0.0
 10
163.4284342326873
 20
461.2420870156126
 30
0.0
 10
163.4260856007941
 20
461.2410615522987
 30
0.0
 10
163.4209694734915
 20
461.2395395884474
 30
0.0
 10
163.4136463495844
 20
461.2379112299258
 30
0.0
 10
163.4012108295013
 20
461.2363976746807
 30
0.0
 10
163.3753609404147
 20
461.2346938485609
 30
0.0
 10
163.3208557100378
 20
461.233248358672
 30
0.0
 10
163.2380427905425
 20
461.2298052719163
 30
0.0
 10
163.1373723023814
 20
461.2260567577835
 30
0.0
 10
162.9604965400745
 20
461.2213122463207
 30
0.0
 10
162.7198747817877
 20
461.217842239549
 30
0.0
 10
162.4441196988524
 20
461.2142091233445
 30
0.0
 10
162.3077270371743
 20
461.2124539382734
 30
0.0
 10
162.1622977575051
 20
461.2106093141199
 30
0.0
 10
162.0085960685657
 20
461.208854498391
 30
0.0
 10
161.8660017889489
 20
461.2073324651013
 30
0.0
 10
161.7372631463861
 20
461.2061276514389
 30
0.0
 10
161.5808495988566
 20
461.2047917370214
 30
0.0
 10
161.3730564305614
 20
461.2033154060738
 30
0.0
 10
161.1538157222222
 20
461.2022617801669
 30
0.0
 10
160.9542508775523
 20
461.2013213701591
 30
0.0
 10
160.75782305679
 20
461.2004250335527
 30
0.0
 10
160.4827697640084
 20
461.1980466015817
 30
0.0
 10
160.1809715409334
 20
461.1957879157287
 30
0.0
 10
159.869728156984
 20
461.196472409441
 30
0.0
 10
159.6576264034802
 20
461.1955314898828
 30
0.0
 10
159.5508299320229
 20
461.1950577225184
 30
0.0
  0
SPLINE
  5
DD
330
1F
100
AcDbEntity
  8
0
  6
Continuous
 62
     8
370
     0
100
AcDbSpline
210
0.0
220
0.0
230
1.0
 70
     8
 71
     3
 72
    10
 73
     6
 74
     0
 42
0.000000001
 43
0.00000001
 40
0.0
 40
0.0
 40
0.0
 40
0.0
 40
0.3330053975130794
 40
0.757170581341565
 40
1.0
 40
1.0
 40
1.0
 40
1.0
 10
155.7731461550874
 20
443.3860307029882
 30
0.0
 10
156.1178704518388
 20
443.662404321132
 30
0.0
 10
156.9016868647951
 20
444.2908084691733
 30
0.0
 10
157.7575871503469
 20
445.1290651044247
 30
0.0
 10
158.2716791248705
 20
445.7251760281468
 30
0.0
 10
158.4588420416993
 20
445.9421991772452
 30
0.0
  0
SPLINE
  5
DE
330
1F
100
AcDbEntity
  8
0
  6
Continuous
 62
     8
370
     0
100
AcDbSpline
210
0.0
220
0.0
230
1.0
 70
     8
 71
     3
 72
    14
 73
    10
 74
     0
 42
0.000000001
 43
0.00000001
 40
0.0
 40
0.0
 40
0.0
 40
0.0
 40
0.0283703394839348
 40
0.1855414863094485
 40
0.3374697069159954
 40
0.48456948675534
 40
0.6480892830814005
 40
0.8143967592983745
 40
1.0
 40
1.0
 40
1.0
 40
1.0
 10
162.0352250363511
 20
451.8025595165291
 30
0.0
 10
162.0661157237012
 20
451.8696374456699
 30
0.0
 10
162.268140237623
 20
452.308325839878
 30
0.0
 10
162.5682195605406
 20
453.2394569434762
 30
0.0
 10
162.9409109202654
 20
454.5339878174275
 30
0.0
 10
163.237687924287
 20
455.9545263925938
 30
0.0
 10
163.4460182122136
 20
457.5106140329772
 30
0.0
 10
163.549851375759
 20
459.2878746282677
 30
0.0
 10
163.4712893574758
 20
460.5672263593021
 30
0.0
 10
163.4298545148057
 20
461.2419765611613
 30
0.0
  0
SPLINE
  5
DF
330
1F
100
AcDbEntity
  8
0
  6
Continuous
 62
     8
370
     0
100
AcDbSpline
210
0.0
220
0.0
230
1.0
 70
     8
 71
     3
 72
    17
 73
    13
 74
     0
 42
0.000000001
 43
0.00000001
 40
0.0
 40
0.0
 40
0.0
 40
0.0
 40
0.1459378166821583
 40
0.2202144557389194
 40
0.2979011378015404
 40
0.3803482243352219
 40
0.4628482160418102
 40
0.5423933045251996
 40
0.6189540171638235
 40
0.7673119063893971
 40
0.9136569560220219
 40
1.0
 40
1.0
 40
1.0
 40
1.0
 10
146.3220176126642
 20
444.5811150066057
 30
0.0
 10
147.5540180888611
 20
444.6871478389164
 30
0.0
 10
149.4130586069653
 20
444.8471472344715
 30
0.0
 10
151.921732206856
 20
445.218265377221
 30
0.0
 10
153.8171487865079
 20
445.3202832099391
 30
0.0
 10
155.4624292376477
 20
445.3767134851308
 30
0.0
 10
156.7447592236478
 20
445.5168696638286
 30
0.0
 10
157.502838700688
 20
445.6069205287487
 30
0.0
 10
157.923655615002
 20
445.5648114745952
 30
0.0
 10
157.6890969467413
 20
445.1491952932633
 30
0.0
 10
156.9463265144146
 20
444.3349153879768
 30
0.0
 10
156.090657367708
 20
443.6601812861898
 30
0.0
 10
155.7731461550874
 20
443.4098092309633
 30
0.0
  0
SPLINE
  5
E0
330
1F
100
AcDbEntity
  8
0
  6
Continuous
 62
     8
370
     0
100
AcDbSpline
210
0.0
220
0.0
230
1.0
 70
     8
 71
     3
 72
    10
 73
     6
 74
     0
 42
0.000000001
 43
0.00000001
 40
0.0
 40
0.0
 40
0.0
 40
0.0
 40
0.5
 40
0.5
 40
1.0
 40
1.0
 40
1.0
 40
1.0
 10
124.1164635429771
 20
461.242305328257
 30
0.0
 10
124.1420677433719
 20
461.5285248598682
 30
0.0
 10
124.2658199224351
 20
461.8050538299307
 30
0.0
 10
124.6585655451734
 20
462.2246469863472
 30
0.0
 10
124.9263193776229
 20
462.3663868234108
 30
0.0
 10
125.2102225182847
 20
462.4108321156685
 30
0.0
  0
SPLINE
  5
E1
330
1F
100
AcDbEntity
  8
0
  6
Continuous
 62
     8
370
     0
100
AcDbSpline
210
0.0
220
0.0
230
1.0
 70
     8
 71
     3
 72
    10
 73
     6
 74
     0
 42
0.000000001
 43
0.00000001
 40
0.0
 40
0.0
 40
0.0
 40
0.0
 40
0.5
 40
0.5
 40
1.0
 40
1.0
 40
1.0
 40
1.0
 10
162.3360644840827
 20
462.4108321002609
 30
0.0
 10
162.61996762775
 20
462.366386812476
 30
0.0
 10
162.8877214645742
 20
462.2246469780218
 30
0.0
 10
163.280467095352
 20
461.8050538228902
 30
0.0
 10
163.4042192780159
 20
461.528524851541
 30
0.0
 10
163.4298234804699
 20
461.2423053178274
 30
0.0
  0
ARC
  5
E2
330
1F
100
AcDbEntity
  8
0
  6
Continuous
 62
     8
370
     0
100
AcDbCircle
 10
151.5218628967
 20
481.6601196271
 30
0.0
 40
6.362273763877066
100
AcDbArc
 50
171.3328444071
 51
177.4156542134
  0
SPLINE
  5
E3
330
1F
100
AcDbEntity
  8
0
  6
Continuous
 62
     8
370
     0
100
AcDbSpline
210
0.0
220
0.0
230
1.0
 70
     8
 71
     3
 72
    15
 73
    11
 74
     0
 42
0.000000001
 43
0.00000001
 40
0.0
 40
0.0
 40
0.0
 40
0.0
 40
0.0440299231389267
 40
0.0884594553768668
 40
0.133987756278328
 40
0.1795297234076989
 40
0.2820749302935202
 40
0.3846236525512856
 40
0.5897183697671363
 40
1.0
 40
1.0
 40
1.0
 40
1.0
 10
164.84994262716
 20
464.0998678218075
 30
0.0
 10
164.7858972927293
 20
463.5554583114067
 30
0.0
 10
164.6572253578432
 20
462.4616983100526
 30
0.0
 10
164.2821290721226
 20
461.7311360205604
 30
0.0
 10
163.9880414043497
 20
461.3477841045939
 30
0.0
 10
163.7603293856671
 20
461.2234992397799
 30
0.0
 10
163.7469107032811
 20
461.2303267840018
 30
0.0
 10
163.7244379826764
 20
461.2706350448885
 30
0.0
 10
163.5831790040629
 20
461.2397532006719
 30
0.0
 10
163.4911691861008
 20
461.2412844252052
 30
0.0
 10
163.4298247124833
 20
461.2423053180301
 30
0.0
  0
SPLINE
  5
E4
330
1F
100
AcDbEntity
  8
0
  6
Continuous
 62
     8
370
     0
100
AcDbSpline
210
0.0
220
0.0
230
1.0
 70
     8
 71
     3
 72
    14
 73
    10
 74
     0
 42
0.000000001
 43
0.00000001
 40
0.0
 40
0.0
 40
0.0
 40
0.0
 40
0.2735737184599767
 40
0.7680953890082898
 40
0.8185941974273507
 40
0.8690800480077802
 40
0.9200906336484007
 40
0.9710255045959039
 40
1.0
 40
1.0
 40
1.0
 40
1.0
 10
124.1164711143655
 20
461.2423053180301
 30
0.0
 10
124.0699742351072
 20
461.242657481796
 30
0.0
 10
123.9394279283835
 20
461.2436462294222
 30
0.0
 10
123.8591434232186
 20
461.2909354230217
 30
0.0
 10
123.7063538808404
 20
461.2454230443197
 30
0.0
 10
123.5093878406431
 20
461.3982588409714
 30
0.0
 10
123.123815623635
 20
461.9379427343446
 30
0.0
 10
122.7743762094238
 20
462.90826671736
 30
0.0
 10
122.7121232451944
 20
464.0983996671894
 30
0.0
 10
122.6895508196039
 20
464.529932330499
 30
0.0
  0
SPLINE
  5
E5
330
1F
100
AcDbEntity
  8
0
  6
Continuous
 62
     8
370
     0
100
AcDbSpline
210
0.0
220
0.0
230
1.0
 70
     8
 71
     3
 72
     8
 73
     4
 74
     0
 42
0.000000001
 43
0.00000001
 40
0.0
 40
0.0
 40
0.0
 40
0.0
 40
1.0
 40
1.0
 40
1.0
 40
1.0
 10
143.8478352461485
 20
482.662218996904
 30
0.0
 10
144.3096160881645
 20
482.6623508728614
 30
0.0
 10
144.7713912023515
 20
482.6477206222277
 30
0.0
 10
145.23224050205
 20
482.6188770629192
 30
0.0
  0
SPLINE
  5
E6
330
1F
100
AcDbEntity
  8
0
  6
Continuous
 62
     8
370
     0
100
AcDbSpline
210
0.0
220
0.0
230
1.0
 70
     8
 71
     3
 72
    18
 73
    14
 74
     0
 42
0.000000001
 43
0.00000001
 40
0.8668632849023913
 40
0.8668632849023913
 40
0.8668632849023913
 40
0.8668632849023913
 40
0.8881861961350098
 40
0.9095091073676284
 40
0.9180382718606758
 40
0.9265674363537232
 40
0.9350966008467706
 40
0.9350966008467706
 40
0.9419631130283863
 40
0.948829625210002
 40
0.9625626495732336
 40
0.9778215655323796
 40
1.0
 40
1.0
 40
1.0
 40
1.0
 10
143.7731435920877
 20
482.7537130407491
 30
0.0
 10
143.7731435922516
 20
482.753713042585
 30
0.0
 10
143.7718200875738
 20
482.7520762430281
 30
0.0
 10
143.7671232010683
 20
482.7462675278189
 30
0.0
 10
143.7620040371465
 20
482.7399365753259
 30
0.0
 10
143.7579884895138
 20
482.7349704828773
 30
0.0
 10
143.7549132222534
 20
482.7311672503131
 30
0.0
 10
143.7519596172299
 20
482.7275144793973
 30
0.0
 10
143.7491637801204
 20
482.7240980338894
 30
0.0
 10
143.7429666230189
 20
482.7166371861107
 30
0.0
 10
143.7337671953223
 20
482.7056760159079
 30
0.0
 10
143.7187222951763
 20
482.6876195147465
 30
0.0
 10
143.7062286823683
 20
482.6721661149541
 30
0.0
 10
143.6984713156552
 20
482.6622437831881
 30
0.0
  0
SPLINE
  5
E7
330
1F
100
AcDbEntity
  8
0
  6
Continuous
 62
     8
370
     0
100
AcDbSpline
210
0.0
220
0.0
230
1.0
 70
     8
 71
     3
 72
    12
 73
     8
 74
     0
 42
0.000000001
 43
0.00000001
 40
0.0
 40
0.0
 40
0.0
 40
0.0
 40
0.0972750803053962
 40
0.4766212279673985
 40
0.6645552279137388
 40
0.8500071602758881
 40
1.0
 40
1.0
 40
1.0
 40
1.0
 10
155.7731461550874
 20
443.6822210840383
 30
0.0
 10
155.8671940593382
 20
443.7713059584807
 30
0.0
 10
156.3280030092876
 20
444.2077974228595
 30
0.0
 10
156.6216823630757
 20
444.6433034018182
 30
0.0
 10
156.6689120223934
 20
444.9531328974406
 30
0.0
 10
156.5553815751744
 20
445.0797663049288
 30
0.0
 10
156.2622184261809
 20
445.0868275819156
 30
0.0
 10
156.1311316516084
 20
445.0899850047627
 30
0.0
  0
SPLINE
  5
E8
330
1F
100
AcDbEntity
  8
0
  6
Continuous
 62
     8
370
     0
100
AcDbSpline
210
0.0
220
0.0
230
1.0
 70
     8
 71
     3
 72
    13
 73
     9
 74
     0
 42
0.000000001
 43
0.00000001
 40
0.0
 40
0.0
 40
0.0
 40
0.0
 40
0.1461747193282541
 40
0.3317920003643337
 40
0.5190781862762867
 40
0.7091451184502211
 40
0.8991341150981371
 40
1.0
 40
1.0
 40
1.0
 40
1.0
 10
131.4149555589837
 20
445.0895221374431
 30
0.0
 10
131.2854352698443
 20
445.0868711793415
 30
0.0
 10
130.9914460217798
 20
445.0808539508122
 30
0.0
 10
130.8786684886012
 20
444.9558756547041
 30
0.0
 10
130.9013811186107
 20
444.7290761641667
 30
0.0
 10
131.1103920915133
 20
444.3929392349899
 30
0.0
 10
131.3922467909713
 20
444.0406682032234
 30
0.0
 10
131.6750637992193
 20
443.7735718208879
 30
0.0
 10
131.7731422211808
 20
443.6809451721111
 30
0.0
  0
SPLINE
  5
E9
330
1F
100
AcDbEntity
  8
0
  6
Continuous
 62
     8
370
     0
100
AcDbSpline
210
0.0
220
0.0
230
1.0
 70
     8
 71
     3
 72
    10
 73
     6
 74
     0
 42
0.000000001
 43
0.00000001
 40
0.0
 40
0.0
 40
0.0
 40
0.0
 40
0.5
 40
0.5
 40
1.0
 40
1.0
 40
1.0
 40
1.0
 10
146.3000663074959
 20
444.4971574250769
 30
0.0
 10
146.3040587460192
 20
444.4839237273225
 30
0.0
 10
146.3082249461345
 20
444.4837386535094
 30
0.0
 10
146.3158622999969
 20
444.5129215490809
 30
0.0
 10
146.3193068832132
 20
444.5421879904966
 30
0.0
 10
146.3220227653701
 20
444.581054679127
 30
0.0
  0
SPLINE
  5
EA
330
1F
100
AcDbEntity
  8
0
  6
Continuous
 62
     8
370
     0
100
AcDbSpline
210
0.0
220
0.0
230
1.0
 70
     8
 71
     3
 72
    34
 73
    30
 74
     0
 42
0.000000001
 43
0.00000001
 40
0.0
 40
0.0
 40
0.0
 40
0.0
 40
0.5000000000000002
 40
0.5000000000000002
 40
0.5625000000000001
 40
0.5625000000000001
 40
0.5937500000000001
 40
0.5937500000000001
 40
0.6250000000000001
 40
0.6250000000000001
 40
0.6875000000000003
 40
0.6875000000000003
 40
0.7500000000000004
 40
0.7500000000000004
 40
0.8125000000000006
 40
0.8125000000000006
 40
0.8437500000000004
 40
0.8437500000000004
 40
0.8750000000000004
 40
0.8750000000000004
 40
0.9062500000000003
 40
0.9062500000000003
 40
0.9375000000000002
 40
0.9375000000000002
 40
0.9687500000000001
 40
0.9687500000000001
 40
0.9843750000000001
 40
0.9843750000000001
 40
1.0
 40
1.0
 40
1.0
 40
1.0
 10
253.7731435920877
 20
369.6830726735292
 30
0.0
 10
257.1864130080146
 20
369.683074035997
 30
0.0
 10
260.6002415091939
 20
369.824247634856
 30
0.0
 10
264.4242513172244
 20
370.1444947530151
 30
0.0
 10
264.8489094054246
 20
370.1823106599936
 30
0.0
 10
265.4855474008302
 20
370.2423840006682
 30
0.0
 10
265.6976943685883
 20
370.2631130802137
 30
0.0
 10
266.1188950361299
 20
370.3351907411575
 30
0.0
 10
266.3285590594353
 20
370.3828613108304
 30
0.0
 10
266.9525422932833
 20
370.5608377394085
 30
0.0
 10
267.3488212090138
 20
370.7217401769082
 30
0.0
 10
268.1038978196416
 20
371.12386741828
 30
0.0
 10
268.4655391764692
 20
371.3684285351229
 30
0.0
 10
269.1178770599828
 20
371.9205396982724
 30
0.0
 10
269.411954617056
 20
372.229570914218
 30
0.0
 10
269.8028820127713
 20
372.7446817200257
 30
0.0
 10
269.9241879745964
 20
372.9242677507327
 30
0.0
 10
270.1446767140229
 20
373.2914440203624
 30
0.0
 10
270.2446396879313
 20
373.4800314418242
 30
0.0
 10
270.4244544524342
 20
373.8669843991141
 30
0.0
 10
270.5043062326124
 20
374.0653499756242
 30
0.0
 10
270.6434584185456
 20
374.4720728837449
 30
0.0
 10
270.7027794510357
 20
374.681010767978
 30
0.0
 10
270.7979956944299
 20
375.101012950616
 30
0.0
 10
270.8342702959744
 20
375.3129926220121
 30
0.0
 10
270.8713616264545
 20
375.6339874309441
 30
0.0
 10
270.8808324249383
 20
375.7415108624376
 30
0.0
 10
270.8938353836705
 20
375.9575155001101
 30
0.0
 10
270.8973525164099
 20
376.0671896736812
 30
0.0
 10
270.8978295210513
 20
376.1738167301578
 30
0.0
  0
SPLINE
  5
EB
330
1F
100
AcDbEntity
  8
0
  6
Continuous
 62
     8
370
     0
100
AcDbSpline
210
0.0
220
0.0
230
1.0
 70
     8
 71
     3
 72
    28
 73
    24
 74
     0
 42
0.000000001
 43
0.00000001
 40
0.0
 40
0.0
 40
0.0
 40
0.0
 40
0.0625000000000011
 40
0.0625000000000011
 40
0.1250000000000022
 40
0.1250000000000022
 40
0.1875000000000033
 40
0.1875000000000033
 40
0.218750000000003
 40
0.218750000000003
 40
0.2500000000000027
 40
0.2500000000000027
 40
0.3125000000000024
 40
0.3125000000000024
 40
0.3437500000000019
 40
0.3437500000000019
 40
0.3593750000000017
 40
0.3593750000000017
 40
0.3750000000000013
 40
0.3750000000000013
 40
0.500000000000001
 40
0.500000000000001
 40
1.0
 40
1.0
 40
1.0
 40
1.0
 10
269.5583439376528
 20
376.2121832652387
 30
0.0
 10
269.5563914437301
 20
375.8227050062013
 30
0.0
 10
269.5042071969032
 20
375.4367951188999
 30
0.0
 10
269.3078788807097
 20
374.685127667044
 30
0.0
 10
269.1650555964616
 20
374.3250356586965
 30
0.0
 10
268.7985384386728
 20
373.6491493240738
 30
0.0
 10
268.5703144483224
 20
373.3283197276766
 30
0.0
 10
268.1784070602267
 20
372.9060165917708
 30
0.0
 10
268.0391497733514
 20
372.7740212714316
 30
0.0
 10
267.7439700306346
 20
372.5269891778689
 30
0.0
 10
267.5869780458343
 20
372.4112954061552
 30
0.0
 10
267.0986162184226
 20
372.0955593265182
 30
0.0
 10
266.7530049582469
 20
371.9271532753651
 30
0.0
 10
266.2042914114397
 20
371.7382108331117
 30
0.0
 10
266.0157349784751
 20
371.6860872194237
 30
0.0
 10
265.7328660239693
 20
371.6269312386781
 30
0.0
 10
265.6382562526907
 20
371.6102673275668
 30
0.0
 10
265.4483914863758
 20
371.5831006510313
 30
0.0
 10
265.3530376702588
 20
371.5735434692737
 30
0.0
 10
264.4951455015525
 20
371.4846941528934
 30
0.0
 10
263.7317589599863
 20
371.4132238596806
 30
0.0
 10
259.9107090168879
 20
371.0940390446347
 30
0.0
 10
256.8420615149137
 20
370.9598833491963
 30
0.0
 10
253.7731435920877
 20
370.9598350874254
 30
0.0
  0
SPLINE
  5
EC
330
1F
100
AcDbEntity
  8
0
  6
Continuous
 62
     8
370
     0
100
AcDbSpline
210
0.0
220
0.0
230
1.0
 70
     8
 71
     3
 72
    28
 73
    24
 74
     0
 42
0.000000001
 43
0.00000001
 40
0.0
 40
0.0
 40
0.0
 40
0.0
 40
0.0625000000000009
 40
0.0625000000000009
 40
0.1250000000000017
 40
0.1250000000000017
 40
0.1875000000000025
 40
0.1875000000000025
 40
0.2187500000000029
 40
0.2187500000000029
 40
0.2500000000000033
 40
0.2500000000000033
 40
0.3125000000000039
 40
0.3125000000000039
 40
0.3437500000000041
 40
0.3437500000000041
 40
0.3593750000000041
 40
0.3593750000000041
 40
0.3750000000000039
 40
0.3750000000000039
 40
0.5000000000000032
 40
0.5000000000000032
 40
1.0
 40
1.0
 40
1.0
 40
1.0
 10
237.9879432465226
 20
376.2121832652387
 30
0.0
 10
237.9898957404453
 20
375.8227050062013
 30
0.0
 10
238.0420799872722
 20
375.4367951188999
 30
0.0
 10
238.2384083034657
 20
374.685127667044
 30
0.0
 10
238.3812315877139
 20
374.3250356586965
 30
0.0
 10
238.7477487455026
 20
373.6491493240737
 30
0.0
 10
238.975972735853
 20
373.3283197276766
 30
0.0
 10
239.3678801239487
 20
372.9060165917708
 30
0.0
 10
239.507137410824
 20
372.7740212714315
 30
0.0
 10
239.8023171535408
 20
372.5269891778688
 30
0.0
 10
239.9593091383412
 20
372.4112954061553
 30
0.0
 10
240.4476709657527
 20
372.0955593265182
 30
0.0
 10
240.7932822259284
 20
371.9271532753652
 30
0.0
 10
241.3419957727354
 20
371.7382108331117
 30
0.0
 10
241.5305522057002
 20
371.6860872194237
 30
0.0
 10
241.8134211602059
 20
371.6269312386781
 30
0.0
 10
241.9080309314844
 20
371.6102673275669
 30
0.0
 10
242.0978956977994
 20
371.5831006510314
 30
0.0
 10
242.1932495139164
 20
371.5735434692738
 30
0.0
 10
243.0511416826226
 20
371.4846941528936
 30
0.0
 10
243.8145282241886
 20
371.4132238596809
 30
0.0
 10
247.6355781672867
 20
371.0940390446349
 30
0.0
 10
250.704225669262
 20
370.9598833491963
 30
0.0
 10
253.7731435920877
 20
370.9598350874254
 30
0.0
  0
SPLINE
  5
ED
330
1F
100
AcDbEntity
  8
0
  6
Continuous
 62
     8
370
     0
100
AcDbSpline
210
0.0
220
0.0
230
1.0
 70
     8
 71
     3
 72
    34
 73
    30
 74
     0
 42
0.000000001
 43
0.00000001
 40
0.0
 40
0.0
 40
0.0
 40
0.0
 40
0.5000000000000051
 40
0.5000000000000051
 40
0.5625000000000059
 40
0.5625000000000059
 40
0.5937500000000061
 40
0.5937500000000061
 40
0.6250000000000062
 40
0.6250000000000062
 40
0.6875000000000062
 40
0.6875000000000062
 40
0.7500000000000062
 40
0.7500000000000062
 40
0.8125000000000062
 40
0.8125000000000062
 40
0.8437500000000052
 40
0.8437500000000052
 40
0.8750000000000041
 40
0.8750000000000041
 40
0.9062500000000031
 40
0.9062500000000031
 40
0.9375000000000021
 40
0.9375000000000021
 40
0.9687500000000011
 40
0.9687500000000011
 40
0.9843750000000007
 40
0.9843750000000007
 40
1.0
 40
1.0
 40
1.0
 40
1.0
 10
253.7731435920877
 20
369.6830726735292
 30
0.0
 10
250.3598741761608
 20
369.683074035997
 30
0.0
 10
246.9460456749814
 20
369.8242476348561
 30
0.0
 10
243.122035866951
 20
370.1444947530151
 30
0.0
 10
242.6973777787508
 20
370.1823106599935
 30
0.0
 10
242.0607397833452
 20
370.2423840006681
 30
0.0
 10
241.8485928155871
 20
370.2631130802137
 30
0.0
 10
241.4273921480455
 20
370.3351907411575
 30
0.0
 10
241.21772812474
 20
370.3828613108304
 30
0.0
 10
240.5937448908922
 20
370.5608377394085
 30
0.0
 10
240.1974659751616
 20
370.7217401769082
 30
0.0
 10
239.4423893645338
 20
371.12386741828
 30
0.0
 10
239.0807480077062
 20
371.3684285351229
 30
0.0
 10
238.4284101241926
 20
371.9205396982724
 30
0.0
 10
238.1343325671194
 20
372.229570914218
 30
0.0
 10
237.7434051714041
 20
372.7446817200257
 30
0.0
 10
237.6220992095791
 20
372.9242677507327
 30
0.0
 10
237.4016104701525
 20
373.2914440203624
 30
0.0
 10
237.3016474962441
 20
373.4800314418242
 30
0.0
 10
237.1218327317412
 20
373.8669843991141
 30
0.0
 10
237.0419809515631
 20
374.0653499756242
 30
0.0
 10
236.9028287656298
 20
374.4720728837449
 30
0.0
 10
236.8435077331397
 20
374.681010767978
 30
0.0
 10
236.7482914897455
 20
375.1010129506161
 30
0.0
 10
236.7120168882011
 20
375.3129926220121
 30
0.0
 10
236.6749255577209
 20
375.6339874309441
 30
0.0
 10
236.6654547592371
 20
375.7415108624377
 30
0.0
 10
236.6524518005049
 20
375.9575155001101
 30
0.0
 10
236.6489352184081
 20
376.0671896766506
 30
0.0
 10
236.6484576631241
 20
376.1738167301578
 30
0.0
  0
SPLINE
  5
EE
330
1F
100
AcDbEntity
  8
0
  6
Continuous
 62
     8
370
     0
100
AcDbSpline
210
0.0
220
0.0
230
1.0
 70
     8
 71
     3
 72
    24
 73
    20
 74
     0
 42
0.000000001
 43
0.00000001
 40
0.0
 40
0.0
 40
0.0
 40
0.0
 40
0.1250000000000002
 40
0.1250000000000002
 40
0.2500000000000003
 40
0.2500000000000003
 40
0.3750000000000004
 40
0.3750000000000004
 40
0.5000000000000006
 40
0.5000000000000006
 40
0.7500000000000008
 40
0.7500000000000008
 40
0.8750000000000007
 40
0.8750000000000007
 40
0.9375000000000003
 40
0.9375000000000003
 40
0.9687500000000002
 40
0.9687500000000002
 40
1.0
 40
1.0
 40
1.0
 40
1.0
 10
237.9130019470698
 20
461.7046725856713
 30
0.0
 10
237.9038163132991
 20
458.2575234839437
 30
0.0
 10
237.8962243866505
 20
454.7895500155835
 30
0.0
 10
237.8838605531745
 20
447.8106665676684
 30
0.0
 10
237.8790158649133
 20
444.2983927925396
 30
0.0
 10
237.8719284218138
 20
437.2401452208667
 30
0.0
 10
237.8698651858559
 20
433.6944975362263
 30
0.0
 10
237.8700979582657
 20
426.58259193422
 30
0.0
 10
237.8719945866605
 20
423.0169656474726
 30
0.0
 10
237.8815244901417
 20
412.2909741202121
 30
0.0
 10
237.893576083141
 20
405.1000759868911
 30
0.0
 10
237.9216844518966
 20
394.2869038710641
 30
0.0
 10
237.9326794804757
 20
390.6765477787915
 30
0.0
 10
237.9519546427622
 20
385.2556225857975
 30
0.0
 10
237.9590672106291
 20
383.4478628684972
 30
0.0
 10
237.9696407260592
 20
380.7350621706086
 30
0.0
 10
237.9730871992998
 20
379.8306596923809
 30
0.0
 10
237.9798633850657
 20
378.0216028029368
 30
0.0
 10
237.9833934868654
 20
377.116975218952
 30
0.0
 10
237.9879432466919
 20
376.2121832652397
 30
0.0
  0
SPLINE
  5
EF
330
1F
100
AcDbEntity
  8
0
  6
Continuous
 62
     8
370
     0
100
AcDbSpline
210
0.0
220
0.0
230
1.0
 70
     8
 71
     3
 72
    18
 73
    14
 74
     0
 42
0.000000001
 43
0.00000001
 40
0.0
 40
0.0
 40
0.0
 40
0.0
 40
0.0625000000000002
 40
0.0625000000000002
 40
0.1250000000000003
 40
0.1250000000000003
 40
0.2500000000000006
 40
0.2500000000000006
 40
0.5000000000000004
 40
0.5000000000000004
 40
0.7500000000000002
 40
0.7500000000000002
 40
1.0
 40
1.0
 40
1.0
 40
1.0
 10
236.6484576631241
 20
376.1738167310864
 30
0.0
 10
236.6434254725244
 20
377.2948073415139
 30
0.0
 10
236.6385634085069
 20
378.4155535338643
 30
0.0
 10
236.6292006766387
 20
380.6567109475886
 30
0.0
 10
236.6246925712709
 20
381.7771252918305
 30
0.0
 10
236.6116517316275
 20
385.1374291487968
 30
0.0
 10
236.603588684213
 20
387.37644702239
 30
0.0
 10
236.5811955887334
 20
394.089778491211
 30
0.0
 10
236.5687661565054
 20
398.5571799877873
 30
0.0
 10
236.549103488156
 20
407.4756119604336
 30
0.0
 10
236.5418133559196
 20
411.926495031294
 30
0.0
 10
236.5322039388694
 20
420.7986304771416
 30
0.0
 10
236.5298831130374
 20
425.2196307454798
 30
0.0
 10
236.5300042409294
 20
429.6259238788347
 30
0.0
  0
SPLINE
  5
F0
330
1F
100
AcDbEntity
  8
0
  6
Continuous
 62
     8
370
     0
100
AcDbSpline
210
0.0
220
0.0
230
1.0
 70
     8
 71
     3
 72
    14
 73
    10
 74
     0
 42
0.000000001
 43
0.00000001
 40
0.0
 40
0.0
 40
0.0
 40
0.0
 40
0.0046965947604375
 40
0.0234834332731079
 40
0.0986313358911951
 40
0.2489337373054992
 40
0.5496071133523673
 40
0.6999098191615557
 40
1.0
 40
1.0
 40
1.0
 40
1.0
 10
270.8978299822492
 20
376.173814146916
 30
0.0
 10
270.8982071673555
 20
376.2579839532785
 30
0.0
 10
270.9000931297874
 20
376.6788412194778
 30
0.0
 10
270.9079166209496
 20
378.4462699789422
 30
0.0
 10
270.9261886855837
 20
382.8220682641841
 30
0.0
 10
270.9607218067042
 20
392.2413437183872
 30
0.0
 10
270.989233963957
 20
402.9806657372225
 30
0.0
 10
271.0117550545032
 20
416.3423666648206
 30
0.0
 10
271.0144601699729
 20
424.2957475926104
 30
0.0
 10
271.0162625487728
 20
429.5949687651792
 30
0.0
  0
SPLINE
  5
F1
330
1F
100
AcDbEntity
  8
0
  6
Continuous
 62
     8
370
     0
100
AcDbSpline
210
0.0
220
0.0
230
1.0
 70
     8
 71
     3
 72
    24
 73
    20
 74
     0
 42
0.000000001
 43
0.00000001
 40
0.0
 40
0.0
 40
0.0
 40
0.0
 40
0.1250000000000001
 40
0.1250000000000001
 40
0.2500000000000001
 40
0.2500000000000001
 40
0.3750000000000001
 40
0.3750000000000001
 40
0.5000000000000001
 40
0.5000000000000001
 40
0.7500000000000002
 40
0.7500000000000002
 40
0.8750000000000003
 40
0.8750000000000003
 40
0.9375000000000002
 40
0.9375000000000002
 40
0.9687500000000001
 40
0.9687500000000001
 40
1.0
 40
1.0
 40
1.0
 40
1.0
 10
269.6332852371056
 20
461.7046725856713
 30
0.0
 10
269.6424708708763
 20
458.2575234839437
 30
0.0
 10
269.6500627975249
 20
454.7895500155835
 30
0.0
 10
269.6624266310009
 20
447.8106665676684
 30
0.0
 10
269.6672713192621
 20
444.2983927925396
 30
0.0
 10
269.6743587623616
 20
437.2401452208667
 30
0.0
 10
269.6764219983195
 20
433.6944975362263
 30
0.0
 10
269.6761892259097
 20
426.58259193422
 30
0.0
 10
269.6742925975148
 20
423.0169656474726
 30
0.0
 10
269.664762694034
 20
412.2909741202121
 30
0.0
 10
269.6527111010345
 20
405.1000759868911
 30
0.0
 10
269.6246027322788
 20
394.2869038710641
 30
0.0
 10
269.6136077036997
 20
390.6765477787915
 30
0.0
 10
269.5943325414132
 20
385.2556225857975
 30
0.0
 10
269.5872199735464
 20
383.4478628684973
 30
0.0
 10
269.5766464581162
 20
380.7350621706086
 30
0.0
 10
269.5731999848757
 20
379.8306596923809
 30
0.0
 10
269.5664237991097
 20
378.0216028029368
 30
0.0
 10
269.56289369731
 20
377.1169752189519
 30
0.0
 10
269.5583439374835
 20
376.2121832652397
 30
0.0
  0
LWPOLYLINE
  5
F2
330
1F
100
AcDbEntity
  8
0
  6
Continuous
 62
     8
370
     0
100
AcDbPolyline
 90
        3
 70
   128
 43
0.0
 10
269.6332764651
 20
461.7079676531
 10
269.6332764651
 20
461.7079104932
 10
269.6332857784
 20
461.7046726338
  0
LWPOLYLINE
  5
F3
330
1F
100
AcDbEntity
  8
0
  6
Continuous
 62
     8
370
     0
100
AcDbPolyline
 90
        3
 70
   128
 43
0.0
 10
237.913010719
 20
461.7079676531
 10
237.913010719
 20
461.7079104932
 10
237.9130014058
 20
461.7046726338
  0
LINE
  5
F4
330
1F
100
AcDbEntity
  8
0
  6
Continuous
 62
     8
370
     0
100
AcDbLine
 10
270.8978299822
 20
376.1738141469
 30
0.0
 11
270.8978299822
 21
376.170170813
 31
0.0
  0
LINE
  5
F5
330
1F
100
AcDbEntity
  8
0
  6
Continuous
 62
     8
370
     0
100
AcDbLine
 10
236.6484572019
 20
376.1738141469
 30
0.0
 11
236.6484572019
 21
376.170170813
 31
0.0
  0
LINE
  5
F6
330
1F
100
AcDbEntity
  8
0
  6
Continuous
 62
     8
370
     0
100
AcDbLine
 10
253.7731435921
 20
369.6830694966
 30
0.0
 11
253.7731435921
 21
369.6817954473
 31
0.0
  0
SPLINE
  5
F7
330
1F
100
AcDbEntity
  8
0
  6
Continuous
 62
     8
370
     0
100
AcDbSpline
210
0.0
220
0.0
230
1.0
 70
     8
 71
     3
 72
    38
 73
    34
 74
     0
 42
0.000000001
 43
0.00000001
 40
0.0
 40
0.0
 40
0.0
 40
0.0
 40
0.0312499999999999
 40
0.0312499999999999
 40
0.0624999999999999
 40
0.0624999999999999
 40
0.1249999999999996
 40
0.1249999999999996
 40
0.1874999999999994
 40
0.1874999999999994
 40
0.2499999999999991
 40
0.2499999999999991
 40
0.3124999999999988
 40
0.3124999999999988
 40
0.3749999999999986
 40
0.3749999999999986
 40
0.4999999999999986
 40
0.4999999999999986
 40
0.5624999999999987
 40
0.5624999999999987
 40
0.6249999999999987
 40
0.6249999999999987
 40
0.7499999999999992
 40
0.7499999999999992
 40
0.8124999999999994
 40
0.8124999999999994
 40
0.8749999999999996
 40
0.8749999999999996
 40
0.9374999999999998
 40
0.9374999999999998
 40
0.9687499999999999
 40
0.9687499999999999
 40
1.0
 40
1.0
 40
1.0
 40
1.0
 10
253.7731435920877
 20
476.6582652603111
 30
0.0
 10
253.5132601423784
 20
476.6582647896059
 30
0.0
 10
253.2508348042149
 20
476.6519735947614
 30
0.0
 10
252.730782702458
 20
476.6271073177396
 30
0.0
 10
252.4715027499566
 20
476.6085324158084
 30
0.0
 10
251.6958671333003
 20
476.5346472142342
 30
0.0
 10
251.1817087112904
 20
476.4612341275949
 30
0.0
 10
250.1592449919307
 20
476.2661010145805
 30
0.0
 10
249.6530431685549
 20
476.1445511958009
 30
0.0
 10
248.6645873286294
 20
475.8581963184478
 30
0.0
 10
248.1801984802832
 20
475.6930072106162
 30
0.0
 10
247.2309306241242
 20
475.318911781232
 30
0.0
 10
246.7660444579949
 20
475.110021425928
 30
0.0
 10
245.8556875230415
 20
474.6485617571275
 30
0.0
 10
245.4078827390146
 20
474.3944422340034
 30
0.0
 10
244.1142080857075
 20
473.57686369394
 30
0.0
 10
243.3190221456134
 20
472.9614341804282
 30
0.0
 10
242.2260347100817
 20
471.9328796471052
 30
0.0
 10
241.878489355818
 20
471.5723017380762
 30
0.0
 10
241.2173789140539
 20
470.8150969012875
 30
0.0
 10
240.9058650709285
 20
470.4203993396107
 30
0.0
 10
240.0423359735715
 20
469.2090928073317
 30
0.0
 10
239.5537091421046
 20
468.3581291027022
 30
0.0
 10
238.9535169602646
 20
467.0146828855872
 30
0.0
 10
238.7758130138583
 20
466.5555876905762
 30
0.0
 10
238.4667883548099
 20
465.6139810121856
 30
0.0
 10
238.3362252481861
 20
465.1327186439979
 30
0.0
 10
238.1277103696081
 20
464.1674782293073
 30
0.0
 10
238.0488894783625
 20
463.6810183243345
 30
0.0
 10
237.9689129711123
 20
462.9455300896283
 30
0.0
 10
237.9486425607006
 20
462.6993989959358
 30
0.0
 10
237.9210482337784
 20
462.2051699144324
 30
0.0
 10
237.9137199217174
 20
461.9554274144191
 30
0.0
 10
237.9130110153218
 20
461.7079675980081
 30
0.0
  0
SPLINE
  5
F8
330
1F
100
AcDbEntity
  8
0
  6
Continuous
 62
     8
370
     0
100
AcDbSpline
210
0.0
220
0.0
230
1.0
 70
     8
 71
     3
 72
    38
 73
    34
 74
     0
 42
0.000000001
 43
0.00000001
 40
0.0
 40
0.0
 40
0.0
 40
0.0
 40
0.03125
 40
0.03125
 40
0.0625
 40
0.0625
 40
0.1249999999999999
 40
0.1249999999999999
 40
0.1874999999999998
 40
0.1874999999999998
 40
0.2499999999999998
 40
0.2499999999999998
 40
0.3124999999999998
 40
0.3124999999999998
 40
0.3749999999999997
 40
0.3749999999999997
 40
0.4999999999999994
 40
0.4999999999999994
 40
0.5624999999999994
 40
0.5624999999999994
 40
0.6249999999999994
 40
0.6249999999999994
 40
0.7499999999999997
 40
0.7499999999999997
 40
0.8124999999999999
 40
0.8124999999999999
 40
0.8750000000000001
 40
0.8750000000000001
 40
0.9375000000000002
 40
0.9375000000000002
 40
0.9687500000000001
 40
0.9687500000000001
 40
1.0
 40
1.0
 40
1.0
 40
1.0
 10
253.7731435920877
 20
476.6582652603111
 30
0.0
 10
254.0330270417981
 20
476.6582652603713
 30
0.0
 10
254.2954523799605
 20
476.6519735947614
 30
0.0
 10
254.8155044817174
 20
476.6271073177396
 30
0.0
 10
255.0747844342189
 20
476.6085324158084
 30
0.0
 10
255.850420050875
 20
476.5346472142342
 30
0.0
 10
256.3645784728851
 20
476.4612341275949
 30
0.0
 10
257.3870421922447
 20
476.2661010145805
 30
0.0
 10
257.8932440156206
 20
476.1445511958009
 30
0.0
 10
258.8816998555461
 20
475.8581963184478
 30
0.0
 10
259.3660887038922
 20
475.6930072106162
 30
0.0
 10
260.3153565600513
 20
475.318911781232
 30
0.0
 10
260.7802427261806
 20
475.110021425928
 30
0.0
 10
261.6905996611339
 20
474.6485617571275
 30
0.0
 10
262.1384044451607
 20
474.3944422340034
 30
0.0
 10
263.4320790984679
 20
473.57686369394
 30
0.0
 10
264.2272650385621
 20
472.9614341804282
 30
0.0
 10
265.3202524740938
 20
471.9328796471052
 30
0.0
 10
265.6677978283574
 20
471.5723017380762
 30
0.0
 10
266.3289082701215
 20
470.8150969012875
 30
0.0
 10
266.6404221132469
 20
470.4203993396107
 30
0.0
 10
267.5039512106039
 20
469.2090928073317
 30
0.0
 10
267.9925780420708
 20
468.3581291027021
 30
0.0
 10
268.5927702239109
 20
467.0146828855872
 30
0.0
 10
268.7704741703171
 20
466.5555876905761
 30
0.0
 10
269.0794988293655
 20
465.6139810121856
 30
0.0
 10
269.2100619359893
 20
465.1327186439979
 30
0.0
 10
269.4185768145674
 20
464.1674782293073
 30
0.0
 10
269.4973977058129
 20
463.6810183243345
 30
0.0
 10
269.5773742130631
 20
462.9455300896283
 30
0.0
 10
269.5976446234748
 20
462.6993989959358
 30
0.0
 10
269.625238950397
 20
462.2051699144323
 30
0.0
 10
269.6325677628399
 20
461.955427400187
 30
0.0
 10
269.6332761688536
 20
461.7079675980081
 30
0.0
  0
SPLINE
  5
F9
330
1F
100
AcDbEntity
  8
0
  6
Continuous
 62
     8
370
     0
100
AcDbSpline
210
0.0
220
0.0
230
1.0
 70
     8
 71
     3
 72
    43
 73
    39
 74
     0
 42
0.000000001
 43
0.00000001
 40
0.0
 40
0.0
 40
0.0
 40
0.0
 40
0.0754124885299978
 40
0.1112563792015037
 40
0.148322349787695
 40
0.1865463631899861
 40
0.2250401187347471
 40
0.2627307658770049
 40
0.3003268479061476
 40
0.3378145704564594
 40
0.375307371281791
 40
0.4128006964569971
 40
0.4503533464173705
 40
0.4692172348379198
 40
0.4881732969355593
 40
0.5071894654995079
 40
0.525849223353447
 40
0.563206473283583
 40
0.5821592464304024
 40
0.600915354214881
 40
0.6103933767676648
 40
0.6198004856972202
 40
0.6385271118336308
 40
0.6480008799502439
 40
0.657478489471888
 40
0.6764324552056621
 40
0.713872477007794
 40
0.7327110162849371
 40
0.7517070724266313
 40
0.7706637562062052
 40
0.7896207756456058
 40
0.8085243956684869
 40
0.8276457608264041
 40
0.8656997544651202
 40
0.9036147704170535
 40
0.9416542259055146
 40
0.979304520445973
 40
1.0
 40
1.0
 40
1.0
 40
1.0
 10
297.4348124887628
 20
460.2537130407493
 30
0.0
 10
297.4271206776161
 20
458.9701275040351
 30
0.0
 10
297.4157729144755
 20
457.0764480618902
 30
0.0
 10
297.3334664469212
 20
454.5531829612491
 30
0.0
 10
297.244774044855
 20
452.6636907951418
 30
0.0
 10
297.1197501296895
 20
450.7309950544311
 30
0.0
 10
296.9536981770785
 20
448.7906872919118
 30
0.0
 10
296.7429242176203
 20
446.8654248968907
 30
0.0
 10
296.4810091901276
 20
444.9636648168928
 30
0.0
 10
296.1588287530478
 20
443.0744770023389
 30
0.0
 10
295.7626414905558
 20
441.2010009794469
 30
0.0
 10
295.2786594343482
 20
439.3468864250245
 30
0.0
 10
294.7835670511126
 20
437.8257554490423
 30
0.0
 10
294.3198541308851
 20
436.6293282259472
 30
0.0
 10
293.9324909544617
 20
435.7425603429166
 30
0.0
 10
293.5031637860714
 20
434.8790023192026
 30
0.0
 10
292.8727780039713
 20
433.7679478820576
 30
0.0
 10
292.1428372002898
 20
432.7156157076052
 30
0.0
 10
291.2995189516215
 20
431.7542866366999
 30
0.0
 10
290.7211198351588
 20
431.1955545289836
 30
0.0
 10
290.2323754245185
 20
430.7810634246974
 30
0.0
 10
289.7263004614003
 20
430.3887605038543
 30
0.0
 10
289.1953463737215
 20
430.0296495007616
 30
0.0
 10
288.6425926297326
 20
429.7042441021685
 30
0.0
 10
288.0733373450458
 20
429.4002728313024
 30
0.0
 10
287.0539296438496
 20
428.9311095091517
 30
0.0
 10
285.8374714732682
 20
428.5195947599855
 30
0.0
 10
284.5958084697925
 20
428.2031006516219
 30
0.0
 10
283.64946546887
 20
428.0047600945891
 30
0.0
 10
282.6945263579552
 20
427.8415106529173
 30
0.0
 10
281.7363575845967
 20
427.7097916238334
 30
0.0
 10
280.7723284263495
 20
427.6029757044615
 30
0.0
 10
279.4825189953048
 20
427.4878655383734
 30
0.0
 10
277.8677345342074
 20
427.3770436444637
 30
0.0
 10
275.9299869688652
 20
427.2743694427296
 30
0.0
 10
273.9983494058482
 20
427.1879585543335
 30
0.0
 10
272.3591952529709
 20
427.1213380921275
 30
0.0
 10
271.3666373793292
 20
427.0899650578768
 30
0.0
 10
271.0145731296224
 20
427.0788369170824
 30
0.0
  0
SPLINE
  5
FA
330
1F
100
AcDbEntity
  8
0
  6
Continuous
 62
     8
370
     0
100
AcDbSpline
210
0.0
220
0.0
230
1.0
 70
     8
 71
     3
 72
    11
 73
     7
 74
     0
 42
0.000000001
 43
0.00000001
 40
0.0
 40
0.0
 40
0.0
 40
0.0
 40
0.1844543032838724
 40
0.389169065626229
 40
0.5910450504545585
 40
1.0
 40
1.0
 40
1.0
 40
1.0
 10
236.5320977594537
 20
426.462327449719
 30
0.0
 10
234.2105526722476
 20
426.442565761702
 30
0.0
 10
229.3124640057732
 20
426.4008717620293
 30
0.0
 10
221.8734106196373
 20
426.3580303357904
 30
0.0
 10
211.6086564499514
 20
426.314192899702
 30
0.0
 10
203.9204463523945
 20
426.3079150782518
 30
0.0
 10
198.7731438901109
 20
426.3037120393911
 30
0.0
  0
SPLINE
  5
FB
330
1F
100
AcDbEntity
  8
0
  6
Continuous
 62
     8
370
     0
100
AcDbSpline
210
0.0
220
0.0
230
1.0
 70
     8
 71
     3
 72
    50
 73
    46
 74
     0
 42
0.000000001
 43
0.00000001
 40
0.0
 40
0.0
 40
0.0
 40
0.0
 40
0.2499999999999976
 40
0.2499999999999976
 40
0.3749999999999963
 40
0.3749999999999963
 40
0.4999999999999951
 40
0.4999999999999951
 40
0.5624999999999944
 40
0.5624999999999944
 40
0.6249999999999939
 40
0.6249999999999939
 40
0.6562499999999936
 40
0.6562499999999936
 40
0.6874999999999933
 40
0.6874999999999933
 40
0.7031249999999931
 40
0.7031249999999931
 40
0.7187499999999931
 40
0.7187499999999931
 40
0.734374999999993
 40
0.734374999999993
 40
0.7421874999999931
 40
0.7421874999999931
 40
0.7499999999999931
 40
0.7499999999999931
 40
0.7656249999999932
 40
0.7656249999999932
 40
0.7734374999999933
 40
0.7734374999999933
 40
0.7812499999999934
 40
0.7812499999999934
 40
0.8124999999999942
 40
0.8124999999999942
 40
0.8281249999999947
 40
0.8281249999999947
 40
0.8437499999999951
 40
0.8437499999999951
 40
0.874999999999996
 40
0.874999999999996
 40
0.906249999999997
 40
0.906249999999997
 40
0.937499999999998
 40
0.937499999999998
 40
1.0
 40
1.0
 40
1.0
 40
1.0
 10
198.7731435920877
 20
494.2037163627623
 30
0.0
 10
209.017328363406
 20
494.2037170887068
 30
0.0
 10
219.2613139084447
 20
494.1729944993381
 30
0.0
 10
234.6272204738611
 20
494.0661871662467
 30
0.0
 10
239.7491745714454
 20
494.0202498985271
 30
0.0
 10
249.9931520415873
 20
493.89751747534
 30
0.0
 10
255.1150999663484
 20
493.821703985798
 30
0.0
 10
262.7975522620301
 20
493.6631319464695
 30
0.0
 10
265.3583043626575
 20
493.6027624321421
 30
0.0
 10
270.4798294606114
 20
493.4543591855924
 30
0.0
 10
273.0413440060808
 20
493.3686724101667
 30
0.0
 10
276.8808285049743
 20
493.1849923945703
 30
0.0
 10
278.1601745989512
 20
493.1161898017812
 30
0.0
 10
280.7183839136943
 20
492.9189087777203
 30
0.0
 10
281.9981689564191
 20
492.7895893776146
 30
0.0
 10
283.9098294690964
 20
492.4533107238508
 30
0.0
 10
284.54517539851
 20
492.3192675704535
 30
0.0
 10
285.8132587049188
 20
491.9870261675326
 30
0.0
 10
286.4365269906245
 20
491.790312172677
 30
0.0
 10
287.648487493063
 20
491.315301381304
 30
0.0
 10
288.237729786097
 20
491.0367194861679
 30
0.0
 10
289.0884083974115
 20
490.5416208223556
 30
0.0
 10
289.3664286922761
 20
490.3637342973673
 30
0.0
 10
289.910075751947
 20
489.9800891233337
 30
0.0
 10
290.1729122707197
 20
489.7761534411725
 30
0.0
 10
290.9263915283149
 20
489.1357831636177
 30
0.0
 10
291.3855881981056
 20
488.6681619348898
 30
0.0
 10
292.0167633218032
 20
487.9142346171457
 30
0.0
 10
292.2175904657869
 20
487.6541940868766
 30
0.0
 10
292.6015474322647
 20
487.1181114357443
 30
0.0
 10
292.7846699736193
 20
486.8418986476919
 30
0.0
 10
293.6475185134323
 20
485.4457495509376
 30
0.0
 10
294.1859194906962
 20
484.2655086234283
 30
0.0
 10
294.8615747047373
 20
482.4402875823367
 30
0.0
 10
295.0644272175225
 20
481.8208558813262
 30
0.0
 10
295.4316084873455
 20
480.5737360195462
 30
0.0
 10
295.5953732576104
 20
479.9483847283083
 30
0.0
 10
296.0402310644023
 20
478.068048978083
 30
0.0
 10
296.2755644569251
 20
476.8088358003187
 30
0.0
 10
296.6651183155496
 20
474.2825929311027
 30
0.0
 10
296.818860425325
 20
473.0155246679299
 30
0.0
 10
297.0674646751365
 20
470.4755258236997
 30
0.0
 10
297.16213713669
 20
469.2025804221613
 30
0.0
 10
297.3788993542228
 20
465.3768763693676
 30
0.0
 10
297.4348259756728
 20
462.81512281795
 30
0.0
 10
297.4348261571588
 20
460.253713040749
 30
0.0
  0
SPLINE
  5
FC
330
1F
100
AcDbEntity
  8
0
  6
Continuous
 62
     8
370
     0
100
AcDbSpline
210
0.0
220
0.0
230
1.0
 70
     8
 71
     3
 72
    50
 73
    46
 74
     0
 42
0.000000001
 43
0.00000001
 40
0.0
 40
0.0
 40
0.0
 40
0.0
 40
0.2500000000000059
 40
0.2500000000000059
 40
0.3750000000000089
 40
0.3750000000000089
 40
0.5000000000000119
 40
0.5000000000000119
 40
0.5625000000000132
 40
0.5625000000000132
 40
0.6250000000000149
 40
0.6250000000000149
 40
0.6562500000000157
 40
0.6562500000000157
 40
0.6875000000000165
 40
0.6875000000000165
 40
0.7031250000000165
 40
0.7031250000000165
 40
0.7187500000000167
 40
0.7187500000000167
 40
0.7343750000000168
 40
0.7343750000000168
 40
0.7421875000000165
 40
0.7421875000000165
 40
0.7500000000000162
 40
0.7500000000000162
 40
0.7656250000000158
 40
0.7656250000000158
 40
0.7734375000000155
 40
0.7734375000000155
 40
0.7812500000000152
 40
0.7812500000000152
 40
0.8125000000000131
 40
0.8125000000000131
 40
0.8281250000000119
 40
0.8281250000000119
 40
0.8437500000000108
 40
0.8437500000000108
 40
0.8750000000000085
 40
0.8750000000000085
 40
0.9062500000000064
 40
0.9062500000000064
 40
0.9375000000000043
 40
0.9375000000000043
 40
1.0
 40
1.0
 40
1.0
 40
1.0
 10
198.7731435920877
 20
426.3037094216315
 30
0.0
 10
188.5289588201373
 20
426.3037085287563
 30
0.0
 10
178.284973273566
 20
426.3344309511941
 30
0.0
 10
162.9190667030776
 20
426.4412380339185
 30
0.0
 10
157.7971126033373
 20
426.487175218187
 30
0.0
 10
147.5531351268635
 20
426.6099074745074
 30
0.0
 10
142.4311871981481
 20
426.6857208806242
 30
0.0
 10
134.7487348917842
 20
426.8442927949484
 30
0.0
 10
132.1879827868415
 20
426.9046622676267
 30
0.0
 10
127.0664576757569
 20
427.0530654310567
 30
0.0
 10
124.5049431228964
 20
427.1387521648963
 30
0.0
 10
120.6654585957654
 20
427.3224321191729
 30
0.0
 10
119.3861124905946
 20
427.3912346914739
 30
0.0
 10
116.8279031172706
 20
427.5885156781958
 30
0.0
 10
115.5481180205123
 20
427.7178350615366
 30
0.0
 10
113.6364573835989
 20
428.0541137053746
 30
0.0
 10
113.0011114103074
 20
428.1881568570241
 30
0.0
 10
111.7330279900612
 20
428.5203982682
 30
0.0
 10
111.1097596368964
 20
428.7171122726778
 30
0.0
 10
109.8977989801584
 20
429.1921231021144
 30
0.0
 10
109.3085566001012
 20
429.4707050259812
 30
0.0
 10
108.4578778516232
 20
429.9658037515161
 30
0.0
 10
108.1798575100284
 20
430.1436903001326
 30
0.0
 10
107.6362103570668
 20
430.5273355272309
 30
0.0
 10
107.3733737922108
 20
430.7312712385237
 30
0.0
 10
106.6198944023337
 20
431.3716416079648
 30
0.0
 10
106.1606976521441
 20
431.8392629041951
 30
0.0
 10
105.5295224236606
 20
432.5931903227246
 30
0.0
 10
105.3286952472758
 20
432.8532308865368
 30
0.0
 10
104.944738220779
 20
433.38931360355
 30
0.0
 10
104.7616156518108
 20
433.665526423945
 30
0.0
 10
103.8987669857777
 20
435.0616756753188
 30
0.0
 10
103.360365942166
 20
436.2419167050428
 30
0.0
 10
102.6847106476268
 20
438.0671378734326
 30
0.0
 10
102.481858111464
 20
438.6865696128249
 30
0.0
 10
102.1146767993336
 20
439.9336895444213
 30
0.0
 10
101.9509120101775
 20
440.559040866988
 30
0.0
 10
101.5060541508709
 20
442.4393767032344
 30
0.0
 10
101.2707207287364
 20
443.6985899278924
 30
0.0
 10
100.8811668152773
 20
446.2248328788742
 30
0.0
 10
100.7274246804191
 20
447.4919011768138
 30
0.0
 10
100.4788203826116
 20
450.031900083
 30
0.0
 10
100.3841478981882
 20
451.3048455116807
 30
0.0
 10
100.167385613772
 20
455.1305496383205
 30
0.0
 10
100.1114589499629
 20
457.6923032290991
 30
0.0
 10
100.1114587267442
 20
460.2537130407492
 30
0.0
  0
SPLINE
  5
FD
330
1F
100
AcDbEntity
  8
0
  6
Continuous
 62
     8
370
     0
100
AcDbSpline
210
0.0
220
0.0
230
1.0
 70
     8
 71
     3
 72
    46
 73
    42
 74
     0
 42
0.000000001
 43
0.00000001
 40
0.0
 40
0.0
 40
0.0
 40
0.0
 40
0.0625000000000003
 40
0.0625000000000003
 40
0.0937500000000005
 40
0.0937500000000005
 40
0.1250000000000006
 40
0.1250000000000006
 40
0.1562500000000007
 40
0.1562500000000007
 40
0.1718750000000008
 40
0.1718750000000008
 40
0.1875000000000009
 40
0.1875000000000009
 40
0.2187500000000011
 40
0.2187500000000011
 40
0.2343750000000011
 40
0.2343750000000011
 40
0.2500000000000012
 40
0.2500000000000012
 40
0.2656250000000013
 40
0.2656250000000013
 40
0.2812500000000014
 40
0.2812500000000014
 40
0.2968750000000014
 40
0.2968750000000014
 40
0.3125000000000014
 40
0.3125000000000014
 40
0.3437500000000008
 40
0.3437500000000008
 40
0.3750000000000002
 40
0.3750000000000002
 40
0.4374999999999996
 40
0.4374999999999996
 40
0.4999999999999993
 40
0.4999999999999993
 40
0.6249999999999996
 40
0.6249999999999996
 40
0.7499999999999998
 40
0.7499999999999998
 40
1.0
 40
1.0
 40
1.0
 40
1.0
 10
100.1114587280211
 20
460.253713040749
 30
0.0
 10
100.1114589574294
 20
462.8366000693362
 30
0.0
 10
100.1680864678392
 20
465.4166708768176
 30
0.0
 10
100.3893713207914
 20
469.2805304124508
 30
0.0
 10
100.4861557345973
 20
470.5674321201026
 30
0.0
 10
100.7412740849447
 20
473.1385861619058
 30
0.0
 10
100.8995027075467
 20
474.4236089910784
 30
0.0
 10
101.3020534559344
 20
476.9869921385068
 30
0.0
 10
101.5451170294283
 20
478.2598632017402
 30
0.0
 10
102.0025770551645
 20
480.150007383902
 30
0.0
 10
102.1707007375566
 20
480.7768316351603
 30
0.0
 10
102.5464326328266
 20
482.0224309578915
 30
0.0
 10
102.7547147180775
 20
482.642966514765
 30
0.0
 10
103.4493501225609
 20
484.4706531331068
 30
0.0
 10
104.0026145946395
 20
485.6476058082498
 30
0.0
 10
105.0623539060871
 20
487.3068551796455
 30
0.0
 10
105.4577442367944
 20
487.8442955697165
 30
0.0
 10
106.3209325581118
 20
488.8370878200224
 30
0.0
 10
106.7908423760622
 20
489.2961635031106
 30
0.0
 10
107.8145539575042
 20
490.1294884405213
 30
0.0
 10
108.3723829697171
 20
490.5045437541742
 30
0.0
 10
109.5248901924396
 20
491.144330574556
 30
0.0
 10
110.1236556261294
 20
491.4136536469331
 30
0.0
 10
111.3552273674355
 20
491.8719858429433
 30
0.0
 10
111.9899184374573
 20
492.0612401079228
 30
0.0
 10
113.2543264262401
 20
492.3751710869992
 30
0.0
 10
113.887866677247
 20
492.5024065015951
 30
0.0
 10
115.7942951532631
 20
492.8195621359694
 30
0.0
 10
117.0698762423692
 20
492.9411443913394
 30
0.0
 10
119.6200509862257
 20
493.1299113292341
 30
0.0
 10
120.8954163024795
 20
493.1970883715143
 30
0.0
 10
124.7231085444129
 20
493.3766025881793
 30
0.0
 10
127.277262029706
 20
493.4611954784929
 30
0.0
 10
132.3841726584248
 20
493.6076614563378
 30
0.0
 10
134.937496858634
 20
493.6673898763952
 30
0.0
 10
142.5974581704222
 20
493.8243760965013
 30
0.0
 10
147.7040616772145
 20
493.8996018224364
 30
0.0
 10
157.9174600029536
 20
494.021409996718
 30
0.0
 10
163.0242363689552
 20
494.0670426501654
 30
0.0
 10
178.3448333520593
 20
494.1731601043689
 30
0.0
 10
188.5590083258174
 20
494.2037172791195
 30
0.0
 10
198.7731435920877
 20
494.2037163614856
 30
0.0
  0
SPLINE
  5
FE
330
1F
100
AcDbEntity
  8
0
  6
Continuous
 62
     7
370
    15
100
AcDbSpline
210
0.0
220
0.0
230
1.0
 70
     8
 71
     3
 72
    10
 73
     6
 74
     0
 42
0.000000001
 43
0.00000001
 40
0.0
 40
0.0
 40
0.0
 40
0.0
 40
0.4341150020817612
 40
0.8191635383509919
 40
1.0
 40
1.0
 40
1.0
 40
1.0
 10
358.8545099896295
 20
426.3044570974508
 30
0.0
 10
359.0761214246388
 20
427.9503244348727
 30
0.0
 10
359.4942963468845
 20
431.0560326119997
 30
0.0
 10
359.9132734707254
 20
434.8589681954603
 30
0.0
 10
360.1099031300072
 20
437.0147901279549
 30
0.0
 10
360.1727388863368
 20
437.7037131629386
 30
0.0
  0
SPLINE
  5
FF
330
1F
100
AcDbEntity
  8
0
  6
Continuous
 62
     7
370
    15
100
AcDbSpline
210
0.0
220
0.0
230
1.0
 70
     8
 71
     3
 72
     9
 73
     5
 74
     0
 42
0.000000001
 43
0.00000001
 40
0.0
 40
0.0
 40
0.0
 40
0.0
 40
0.4340252737107305
 40
1.0
 40
1.0
 40
1.0
 40
1.0
 10
360.1711798523469
 20
482.8037129185596
 30
0.0
 10
360.0142444560828
 20
484.4568345007389
 30
0.0
 10
359.6526632169945
 20
488.2656486005394
 30
0.0
 10
359.1421260640928
 20
492.0572710191138
 30
0.0
 10
358.8531749387188
 20
494.2032334796586
 30
0.0
  0
LINE
  5
100
330
1F
100
AcDbEntity
  8
0
  6
Continuous
 62
     7
370
    15
100
AcDbLine
 10
360.1048110117
 20
437.7537121467
 30
0.0
 11
373.8761633699
 21
437.7537121467
 31
0.0
  0
LINE
  5
101
330
1F
100
AcDbEntity
  8
0
  6
Continuous
 62
     7
370
    15
100
AcDbLine
 10
373.8761633699
 20
482.7537139348
 30
0.0
 11
360.1051081036
 21
482.7537139348
 31
0.0
  0
SPLINE
  5
102
330
1F
100
AcDbEntity
  8
0
  6
Continuous
 62
     7
370
    15
100
AcDbSpline
210
0.0
220
0.0
230
1.0
 70
     8
 71
     3
 72
    17
 73
    13
 74
     0
 42
0.000000001
 43
0.00000001
 40
0.0
 40
0.0
 40
0.0
 40
0.0
 40
0.0818211677975103
 40
0.180674709227899
 40
0.2957802774310476
 40
0.4271970605156277
 40
0.5749382523080646
 40
0.7336467959311354
 40
0.8147117150137211
 40
0.8938206308087268
 40
0.9623703322410361
 40
1.0
 40
1.0
 40
1.0
 40
1.0
 10
414.1711384122177
 20
465.4041713505486
 30
0.0
 10
413.299658800362
 20
465.5432698453882
 30
0.0
 10
411.3752872751384
 20
465.850422392653
 30
0.0
 10
408.2072617361694
 20
466.5492751398934
 30
0.0
 10
404.5570776103744
 20
467.6152275956689
 30
0.0
 10
400.4992396167734
 20
469.2253268000454
 30
0.0
 10
396.2743944475708
 20
471.646120391872
 30
0.0
 10
392.927834797511
 20
474.3840751286109
 30
0.0
 10
390.5421972635426
 20
477.000824792148
 30
0.0
 10
389.0415386123281
 20
479.0099149226619
 30
0.0
 10
387.916842469878
 20
480.7415108712692
 30
0.0
 10
387.4171808216767
 20
481.6564303480309
 30
0.0
 10
387.2401021485134
 20
481.9806752196947
 30
0.0
  0
SPLINE
  5
103
330
1F
100
AcDbEntity
  8
0
  6
Continuous
 62
     7
370
    15
100
AcDbSpline
210
0.0
220
0.0
230
1.0
 70
     8
 71
     3
 72
    11
 73
     7
 74
     0
 42
0.000000001
 43
0.00000001
 40
0.0
 40
0.0
 40
0.0
 40
0.0
 40
0.2589550462160685
 40
0.514656923628975
 40
0.7624911276310457
 40
0.9999999999999999
 40
0.9999999999999999
 40
0.9999999999999999
 40
0.9999999999999999
 10
548.1961906020446
 20
444.4571038178602
 30
0.0
 10
549.6830972882653
 20
445.6402547932504
 30
0.0
 10
552.63823113113
 20
447.991693199571
 30
0.0
 10
556.0588692251314
 20
452.4502265090629
 30
0.0
 10
558.6629103715893
 20
457.2447488966745
 30
0.0
 10
559.6154051306153
 20
460.6743228252952
 30
0.0
 10
560.0815206830306
 20
462.3526289063939
 30
0.0
  0
LINE
  5
104
330
1F
100
AcDbEntity
  8
0
  6
Continuous
 62
     7
370
    15
100
AcDbLine
 10
548.7624645297
 20
440.1459333889
 30
0.0
 11
547.9982435767
 21
444.4799808256
 31
0.0
  0
LINE
  5
105
330
1F
100
AcDbEntity
  8
0
  6
Continuous
 62
     7
370
    15
100
AcDbLine
 10
524.5028376643
 20
439.518587052
 30
0.0
 11
525.1270771091
 21
435.9783766262
 31
0.0
  0
LINE
  5
106
330
1F
100
AcDbEntity
  8
0
  6
Continuous
 62
     7
370
    15
100
AcDbLine
 10
525.1270771091
 20
435.9783766262
 30
0.0
 11
526.2121349637
 21
435.5834455631
 31
0.0
  0
LINE
  5
107
330
1F
100
AcDbEntity
  8
0
  6
Continuous
 62
     7
370
    15
100
AcDbLine
 10
547.8779017989
 20
439.4037065498
 30
0.0
 11
548.7624645297
 21
440.1459333889
 31
0.0
  0
ARC
  5
108
330
1F
100
AcDbEntity
  8
0
  6
Continuous
 62
     7
370
    15
100
AcDbCircle
 10
528.0340295796
 20
435.9046956185
 30
0.0
 40
0.2000000000000098
100
AcDbArc
 50
190.0
 51
280.0
  0
ARC
  5
109
330
1F
100
AcDbEntity
  8
0
  6
Continuous
 62
     7
370
    15
100
AcDbCircle
 10
546.0560114597
 20
439.0824572698
 30
0.0
 40
0.2000000000000658
100
AcDbArc
 50
280.0
 51
10.0
  0
LINE
  5
10A
330
1F
100
AcDbEntity
  8
0
  6
Continuous
 62
     7
370
    15
100
AcDbLine
 10
548.0946987932
 20
444.4846318505
 30
0.0
 11
548.1614559953
 21
444.4830821298
 31
0.0
  0
SPLINE
  5
10B
330
1F
100
AcDbEntity
  8
0
  6
Continuous
 62
     7
370
    15
100
AcDbSpline
210
0.0
220
0.0
230
1.0
 70
     8
 71
     3
 72
     9
 73
     5
 74
     0
 42
0.000000001
 43
0.00000001
 40
0.0
 40
0.0
 40
0.0
 40
0.0
 40
0.5054000891636605
 40
1.0
 40
1.0
 40
1.0
 40
1.0
 10
548.1614112918181
 20
444.4830728165308
 30
0.0
 10
548.195172041521
 20
444.4921629714803
 30
0.0
 10
548.261972088507
 20
444.5101490287534
 30
0.0
 10
548.3201418461679
 20
444.5475708871398
 30
0.0
 10
548.3489126031203
 20
444.5660797349611
 30
0.0
  0
SPLINE
  5
10C
330
1F
100
AcDbEntity
  8
0
  6
Continuous
 62
     7
370
    15
100
AcDbSpline
210
0.0
220
0.0
230
1.0
 70
     8
 71
     3
 72
     9
 73
     5
 74
     0
 42
0.000000001
 43
0.00000001
 40
0.0
 40
0.0
 40
0.0
 40
0.0
 40
0.5053164645247616
 40
1.0
 40
1.0
 40
1.0
 40
1.0
 10
548.1614112918181
 20
444.4830728165308
 30
0.0
 10
548.1268733831132
 20
444.4775972500616
 30
0.0
 10
548.0585243164792
 20
444.4667613346433
 30
0.0
 10
547.9901402037843
 20
444.4771820937431
 30
0.0
 10
547.956311709146
 20
444.4823370716968
 30
0.0
  0
SPLINE
  5
10D
330
1F
100
AcDbEntity
  8
0
  6
Continuous
 62
     7
370
    15
100
AcDbSpline
210
0.0
220
0.0
230
1.0
 70
     8
 71
     3
 72
    17
 73
    13
 74
     0
 42
0.000000001
 43
0.00000001
 40
0.0
 40
0.0
 40
0.0
 40
0.0
 40
0.0818193182590709
 40
0.1806714496053665
 40
0.2957760189650311
 40
0.4271919529378645
 40
0.574932484375118
 40
0.7336403513188567
 40
0.8147048350487766
 40
0.8938131275800805
 40
0.9623613559943921
 40
1.0
 40
1.0
 40
1.0
 40
1.0
 10
414.1711384122177
 20
465.4041713505486
 30
0.0
 10
413.2996569680575
 20
465.5432705615244
 30
0.0
 10
411.3752726151831
 20
465.8504260917919
 30
0.0
 10
408.2072582497954
 20
466.549282059874
 30
0.0
 10
404.5570761088497
 20
467.6152400372093
 30
0.0
 10
400.4992434568248
 20
469.2253433274191
 30
0.0
 10
396.2744045638794
 20
471.6461370549607
 30
0.0
 10
392.9278535051322
 20
474.384089466594
 30
0.0
 10
390.5422110631338
 20
477.0008268984116
 30
0.0
 10
389.0415508818181
 20
479.0099179064242
 30
0.0
 10
387.916805392359
 20
480.7415792698628
 30
0.0
 10
387.4170692970657
 20
481.6566294692583
 30
0.0
 10
387.2399345104499
 20
481.9809751055637
 30
0.0
  0
SPLINE
  5
10E
330
1F
100
AcDbEntity
  8
0
  6
Continuous
 62
     7
370
    15
100
AcDbSpline
210
0.0
220
0.0
230
1.0
 70
     8
 71
     3
 72
    12
 73
     8
 74
     0
 42
0.000000001
 43
0.00000001
 40
0.0
 40
0.0
 40
0.0
 40
0.0
 40
0.1424122218884321
 40
0.5056472740380289
 40
0.787930566989733
 40
0.9480539953004373
 40
1.0
 40
1.0
 40
1.0
 40
1.0
 10
559.5115214650435
 20
463.6036661389717
 30
0.0
 10
559.4870191867761
 20
463.6225923592484
 30
0.0
 10
559.4000216661323
 20
463.6897915895099
 30
0.0
 10
559.238977985451
 20
463.7553054676767
 30
0.0
 10
559.0741638930913
 20
463.80276922684
 30
0.0
 10
558.9714643686706
 20
463.8193007440687
 30
0.0
 10
558.942039252083
 20
463.8224584750026
 30
0.0
 10
558.9348316256804
 20
463.8232319551954
 30
0.0
  0
ARC
  5
10F
330
1F
100
AcDbEntity
  8
0
  6
Continuous
 62
     7
370
    15
100
AcDbCircle
 10
390.040090809
 20
481.2770943771
 30
0.0
 40
0.2000000000000363
100
AcDbArc
 50
54.8892770261
 51
166.8658427455
  0
ARC
  5
110
330
1F
100
AcDbEntity
  8
0
  6
Continuous
 62
     7
370
    15
100
AcDbCircle
 10
379.5883512565
 20
436.4844016249
 30
0.0
 40
0.2000000000000495
100
AcDbArc
 50
166.8658427455
 51
278.8424084648
  0
ARC
  5
111
330
1F
100
AcDbEntity
  8
0
  6
Continuous
 62
     7
370
    15
100
AcDbCircle
 10
375.7761634891
 20
460.9896505407
 30
0.0
 40
25.0
100
AcDbArc
 50
22.9727036833
 51
54.8892770262
  0
LWPOLYLINE
  5
112
330
1F
100
AcDbEntity
  8
0
  6
Continuous
 62
     7
370
    15
100
AcDbPolyline
 90
        3
 70
   128
 43
0.0
 10
379.6190951084
 20
436.2867785088
 10
382.2872728174
 20
436.8524284504
 10
384.6821576421
 20
437.6297866396
  0
LINE
  5
113
330
1F
100
AcDbEntity
  8
0
  6
Continuous
 62
     7
370
    15
100
AcDbLine
 10
375.8761636977
 20
482.8037129186
 30
0.0
 11
360.1173233305
 21
482.8037129186
 31
0.0
  0
LINE
  5
114
330
1F
100
AcDbEntity
  8
0
  6
Continuous
 62
     7
370
    15
100
AcDbLine
 10
360.1136809279
 20
437.7037131629
 30
0.0
 11
375.8761636977
 21
437.7037131629
 31
0.0
  0
ARC
  5
115
330
1F
100
AcDbEntity
  8
0
  6
Continuous
 62
     7
370
    15
100
AcDbCircle
 10
375.8761634891
 20
482.1037130407
 30
0.0
 40
0.7000000000000192
100
AcDbArc
 50
67.0115326078
 51
90.0
  0
ARC
  5
116
330
1F
100
AcDbEntity
  8
0
  6
Continuous
 62
     7
370
    15
100
AcDbCircle
 10
375.8761634891
 20
438.4037130407
 30
0.0
 40
0.6999999999999981
100
AcDbArc
 50
270.0
 51
291.6696360195
  0
SPLINE
  5
117
330
1F
100
AcDbEntity
  8
0
  6
Continuous
 62
     7
370
    15
100
AcDbSpline
210
0.0
220
0.0
230
1.0
 70
     8
 71
     3
 72
    22
 73
    18
 74
     0
 42
0.000000001
 43
0.00000001
 40
0.0
 40
0.0
 40
0.0
 40
0.0
 40
0.0150100023057478
 40
0.0403618412487141
 40
0.0822831971762528
 40
0.1550274914707564
 40
0.2735881290747686
 40
0.367884578201969
 40
0.4512498111111541
 40
0.532702773002008
 40
0.6000474198497706
 40
0.6618610452047423
 40
0.7250952637574591
 40
0.8116155832846089
 40
0.900659424702235
 40
0.9940193331563276
 40
1.0
 40
1.0
 40
1.0
 40
1.0
 10
426.4036655490203
 20
370.9814374736944
 30
0.0
 10
426.4316789493893
 20
371.3127485372542
 30
0.0
 10
426.5070068804247
 20
372.2036427742406
 30
0.0
 10
426.5947114569443
 20
374.0579141039938
 30
0.0
 10
426.5769653905888
 20
377.212250560378
 30
0.0
 10
426.3550889223569
 20
382.4649449540823
 30
0.0
 10
426.0429790492743
 20
388.8933775101923
 30
0.0
 10
425.5417479787762
 20
395.5508217276696
 30
0.0
 10
425.0034852447733
 20
401.3654310627123
 30
0.0
 10
424.4324455971149
 20
406.5663679238615
 30
0.0
 10
423.8436857662879
 20
411.2760805858515
 30
0.0
 10
423.2500494432963
 20
415.5710473137248
 30
0.0
 10
422.5372422200282
 20
420.2853401480268
 30
0.0
 10
421.657232325381
 20
425.5948303787202
 30
0.0
 10
420.5443233093121
 20
431.5519018867097
 30
0.0
 10
419.7299829801499
 20
435.7196711328792
 30
0.0
 10
419.2257424144342
 20
437.9008513733182
 30
0.0
 10
419.1953852836891
 20
438.0321664206186
 30
0.0
  0
LINE
  5
118
330
1F
100
AcDbEntity
  8
0
  6
Continuous
 62
     7
370
    15
100
AcDbLine
 10
357.0761635032
 20
424.7537118785
 30
0.0
 11
351.176163514
 21
424.7537118785
 31
0.0
  0
ARC
  5
119
330
1F
100
AcDbEntity
  8
0
  6
Continuous
 62
     7
370
    15
100
AcDbCircle
 10
357.0761634891
 20
426.5537130407
 30
0.0
 40
1.800000000000011
100
AcDbArc
 50
270.0
 51
352.0164438544
  0
SPLINE
  5
11A
330
1F
100
AcDbEntity
  8
0
  6
Continuous
 62
     7
370
    15
100
AcDbSpline
210
0.0
220
0.0
230
1.0
 70
    24
 71
     3
 72
    36
 73
    32
 74
     0
 42
0.000000001
 43
0.00000001
 40
0.0
 40
0.0
 40
0.0
 40
0.0
 40
0.0518536584101165
 40
0.1027583684356926
 40
0.152714224891549
 40
0.201721328099792
 40
0.2497797843241007
 40
0.3865799510862891
 40
0.4995610209864885
 40
0.5714539707132026
 40
0.624423403899905
 40
0.6416672187097793
 40
0.6556411473686138
 40
0.6712859083196938
 40
0.6869938465553007
 40
0.7026179003893986
 40
0.7105862777875545
 40
0.718255340849266
 40
0.7340652294346219
 40
0.7495994039725992
 40
0.7648688696029722
 40
0.7809575718023769
 40
0.7960568697906039
 40
0.8123273297907914
 40
0.8415910056601145
 40
0.8750412465280333
 40
0.9047027986412696
 40
0.937483754974036
 40
0.9572476451670112
 40
0.9780838765546381
 40
1.0
 40
1.0
 40
1.0
 40
1.0
 10
350.8761634890838
 20
425.0537130407491
 30
0.0
 10
350.8761634890838
 20
425.0545113567886
 30
0.0
 10
350.8761634890838
 20
425.0560933792769
 30
0.0
 10
350.8761634890838
 20
425.0691666852984
 30
0.0
 10
350.8761634890838
 20
425.0901251909358
 30
0.0
 10
350.8761634890838
 20
425.1196879096024
 30
0.0
 10
350.8761634890838
 20
425.1813444679687
 30
0.0
 10
350.8761634890838
 20
425.2972236243874
 30
0.0
 10
350.8761634890838
 20
425.5100489082853
 30
0.0
 10
350.8761634890838
 20
425.7615833149356
 30
0.0
 10
350.8761634890838
 20
425.9858599106225
 30
0.0
 10
350.8761634890838
 20
426.1976730653318
 30
0.0
 10
350.8761634890838
 20
426.3563665348759
 30
0.0
 10
350.8761634890838
 20
426.5814938436196
 30
0.0
 10
350.8761634890838
 20
426.9387277382753
 30
0.0
 10
350.8761634890838
 20
427.3653729295476
 30
0.0
 10
350.8761634890838
 20
427.8097925216419
 30
0.0
 10
350.8761634890838
 20
428.3336091213681
 30
0.0
 10
350.8761634890838
 20
429.1426914491464
 30
0.0
 10
350.8761634890838
 20
430.3648850755919
 30
0.0
 10
350.8761634890838
 20
431.8177380812421
 30
0.0
 10
350.8761634890838
 20
433.4236029288198
 30
0.0
 10
350.8761634890838
 20
435.1796080296357
 30
0.0
 10
350.8761634890838
 20
437.5216390352331
 30
0.0
 10
350.8761634890838
 20
440.6927071630006
 30
0.0
 10
350.8761634890838
 20
444.4844785869673
 30
0.0
 10
350.8761634890838
 20
448.4593351239474
 30
0.0
 10
350.8761634890838
 20
451.8829866963161
 30
0.0
 10
350.8761634890838
 20
454.9438815820582
 30
0.0
 10
350.8761634890838
 20
457.5534933377159
 30
0.0
 10
350.8761634890838
 20
459.3386095789581
 30
0.0
 10
350.8761634890838
 20
460.253713040749
 30
0.0
  0
ARC
  5
11B
330
1F
100
AcDbEntity
  8
0
  6
Continuous
 62
     7
370
    15
100
AcDbCircle
 10
351.1761634891
 20
425.0537130407
 30
0.0
 40
0.3000000000000114
100
AcDbArc
 50
180.0
 51
270.0
  0
ARC
  5
11C
330
1F
100
AcDbEntity
  8
0
  6
Continuous
 62
     7
370
    15
100
AcDbCircle
 10
357.0761634891
 20
493.9537130407
 30
0.0
 40
1.800000000000011
100
AcDbArc
 50
7.9835561456
 51
90.0
  0
LINE
  5
11D
330
1F
100
AcDbEntity
  8
0
  6
Continuous
 62
     7
370
    15
100
AcDbLine
 10
357.0761635032
 20
495.753714203
 30
0.0
 11
351.176163514
 21
495.753714203
 31
0.0
  0
SPLINE
  5
11E
330
1F
100
AcDbEntity
  8
0
  6
Continuous
 62
     7
370
    15
100
AcDbSpline
210
0.0
220
0.0
230
1.0
 70
    24
 71
     3
 72
    40
 73
    36
 74
     0
 42
0.000000001
 43
0.00000001
 40
0.0
 40
0.0
 40
0.0
 40
0.0
 40
0.0095317875344691
 40
0.0188642523409436
 40
0.0279979161525191
 40
0.0369333355259263
 40
0.0456711048998232
 40
0.0542118599824339
 40
0.0625562815098883
 40
0.0953482991789748
 40
0.1250182701954623
 40
0.1584703988192139
 40
0.1877345743154584
 40
0.204036457029438
 40
0.2191630203361405
 40
0.2352256055984392
 40
0.2504735939759937
 40
0.2660342240262428
 40
0.28187586791552
 40
0.2895763880651936
 40
0.2975801678599812
 40
0.3133148776505059
 40
0.3289133891934425
 40
0.3444783277627563
 40
0.3584310545396645
 40
0.3756440052989992
 40
0.4088627081883675
 40
0.4504834218003013
 40
0.5005103896727655
 40
0.5731788320562402
 40
0.6564265903203104
 40
0.7502554852530914
 40
0.8308693567955014
 40
0.9141173735342731
 40
1.0
 40
1.0
 40
1.0
 40
1.0
 10
350.8761634890838
 20
460.253713040749
 30
0.0
 10
350.8761634890838
 20
460.6517071859303
 30
0.0
 10
350.8761634890838
 20
461.439372873795
 30
0.0
 10
350.8761634890838
 20
462.6083495407297
 30
0.0
 10
350.8761634890838
 20
463.7522997153353
 30
0.0
 10
350.8761634890838
 20
464.8712243863707
 30
0.0
 10
350.8761634890838
 20
465.9651216581432
 30
0.0
 10
350.8761634890838
 20
467.0339997901737
 30
0.0
 10
350.8761634890838
 20
469.1053668180065
 30
0.0
 10
350.8761634890838
 20
472.0542927683823
 30
0.0
 10
350.8761634890838
 20
476.0299776380037
 30
0.0
 10
350.8761634890838
 20
479.8221020570604
 30
0.0
 10
350.8761634890838
 20
482.9943299998451
 30
0.0
 10
350.8761634890838
 20
485.3382829817581
 30
0.0
 10
350.8761634890838
 20
487.0948780334778
 30
0.0
 10
350.8761634890838
 20
488.6990685858932
 30
0.0
 10
350.8761634890838
 20
490.1501923037129
 30
0.0
 10
350.8761634890838
 20
491.3720067909714
 30
0.0
 10
350.8761634890838
 20
492.1813424292002
 30
0.0
 10
350.8761634890838
 20
492.7052719200896
 30
0.0
 10
350.8761634890838
 20
493.1505041338995
 30
0.0
 10
350.8761634890838
 20
493.575038753573
 30
0.0
 10
350.8761634890838
 20
493.9295554557814
 30
0.0
 10
350.8761634890838
 20
494.1526766514011
 30
0.0
 10
350.8761634890838
 20
494.31049588646
 30
0.0
 10
350.8761634890838
 20
494.4727003769188
 30
0.0
 10
350.8761634890838
 20
494.6386571892114
 30
0.0
 10
350.8761634890838
 20
494.8058363182767
 30
0.0
 10
350.8761634890838
 20
494.9711765637207
 30
0.0
 10
350.8761634890838
 20
495.1244035726917
 30
0.0
 10
350.8761634890838
 20
495.2563484340991
 30
0.0
 10
350.8761634890838
 20
495.3492553596692
 30
0.0
 10
350.8761634890838
 20
495.4111263383404
 30
0.0
 10
350.8761634890838
 20
495.4472199903934
 30
0.0
 10
350.8761634890838
 20
495.4515263301554
 30
0.0
 10
350.8761634890838
 20
495.4537130407492
 30
0.0
  0
ARC
  5
11F
330
1F
100
AcDbEntity
  8
0
  6
Continuous
 62
     7
370
    15
100
AcDbCircle
 10
351.1761634891
 20
495.4537130407
 30
0.0
 40
0.2999999999999545
100
AcDbArc
 50
90.0
 51
180.0
  0
SPLINE
  5
120
330
1F
100
AcDbEntity
  8
0
  6
Continuous
 62
     7
370
    15
100
AcDbSpline
210
0.0
220
0.0
230
1.0
 70
     8
 71
     3
 72
    17
 73
    13
 74
     0
 42
0.000000001
 43
0.00000001
 40
0.0
 40
0.0
 40
0.0
 40
0.0
 40
0.1055299947811281
 40
0.2141090754305303
 40
0.3199393317136938
 40
0.4288418257811893
 40
0.5345006101117921
 40
0.6432057611750671
 40
0.7490191780483899
 40
0.8579085154078062
 40
0.963597010512937
 40
1.0
 40
1.0
 40
1.0
 40
1.0
 10
360.6719808717175
 20
460.2537132837451
 30
0.0
 10
360.6719821620708
 20
461.5368353649642
 30
0.0
 10
360.6719847800597
 20
464.1401528676716
 30
0.0
 10
360.6676913206268
 20
467.9222454153966
 30
0.0
 10
360.6388002950281
 20
471.5242415896054
 30
0.0
 10
360.5663519961383
 20
474.7766295659851
 30
0.0
 10
360.4486269220735
 20
477.6442282501542
 30
0.0
 10
360.3102075297908
 20
479.9929655427918
 30
0.0
 10
360.1789241365257
 20
481.8155761927916
 30
0.0
 10
360.0886604262616
 20
482.9669079160271
 30
0.0
 10
360.0467116958899
 20
483.4999362298502
 30
0.0
 10
360.0577158154902
 20
483.4175238816153
 30
0.0
 10
360.0605350051923
 20
483.3964103303352
 30
0.0
  0
LINE
  5
121
330
1F
100
AcDbEntity
  8
0
  6
Continuous
 62
     7
370
    15
100
AcDbLine
 10
360.0728144933
 20
483.3206081233
 30
0.0
 11
360.12913902
 21
482.7537139348
 31
0.0
  0
LINE
  5
122
330
1F
100
AcDbEntity
  8
0
  6
Continuous
 62
     7
370
    15
100
AcDbLine
 10
360.1288586919
 20
437.7537121467
 30
0.0
 11
360.0725350966
 21
437.1860114328
 31
0.0
  0
SPLINE
  5
123
330
1F
100
AcDbEntity
  8
0
  6
Continuous
 62
     7
370
    15
100
AcDbSpline
210
0.0
220
0.0
230
1.0
 70
     8
 71
     3
 72
    17
 73
    13
 74
     0
 42
0.000000001
 43
0.00000001
 40
0.0
 40
0.0
 40
0.0
 40
0.0
 40
0.0332863232132047
 40
0.1418975274096882
 40
0.2472753718493756
 40
0.355695626814502
 40
0.461457090234685
 40
0.5702727682922978
 40
0.6761697202616495
 40
0.7851443999229943
 40
0.8910322513053117
 40
0.9999999999999999
 40
0.9999999999999999
 40
0.9999999999999999
 40
0.9999999999999999
 10
360.0597079907461
 20
437.1044070861736
 30
0.0
 10
360.0571035158041
 20
437.0848679948958
 30
0.0
 10
360.0460008009716
 20
437.0015740629589
 30
0.0
 10
360.0869254884788
 20
437.5221419180789
 30
0.0
 10
360.1767784568021
 20
438.6695661827867
 30
0.0
 10
360.3060962446743
 20
440.4583723273165
 30
0.0
 10
360.4456479614324
 20
442.814219733432
 30
0.0
 10
360.5633255234645
 20
445.6477330459685
 30
0.0
 10
360.6376319523987
 20
448.9239064217363
 30
0.0
 10
360.6671207232409
 20
452.4928634865744
 30
0.0
 10
360.6719594029536
 20
456.31616259409
 30
0.0
 10
360.6719736473995
 20
458.9287129845065
 30
0.0
 10
360.6719808717175
 20
460.2537132837451
 30
0.0
  0
SPLINE
  5
124
330
1F
100
AcDbEntity
  8
0
  6
Continuous
 62
     7
370
    15
100
AcDbSpline
210
0.0
220
0.0
230
1.0
 70
     8
 71
     3
 72
    14
 73
    10
 74
     0
 42
0.000000001
 43
0.00000001
 40
0.0
 40
0.0
 40
0.0
 40
0.0
 40
0.25
 40
0.25
 40
0.5
 40
0.5
 40
0.75
 40
0.75
 40
1.0
 40
1.0
 40
1.0
 40
1.0
 10
387.2298609643162
 20
481.9865683649323
 30
0.0
 10
387.1744801669738
 20
482.0877401556234
 30
0.0
 10
387.1071022585435
 20
482.1794164664656
 30
0.0
 10
386.9490481270168
 20
482.3443289256969
 30
0.0
 10
386.8583891051147
 20
482.4167694830105
 30
0.0
 10
386.6636283071803
 20
482.5342538077234
 30
0.0
 10
386.5571012378815
 20
482.5807789691825
 30
0.0
 10
386.3363555813477
 20
482.6438612799458
 30
0.0
 10
386.2229222401136
 20
482.6605257639895
 30
0.0
 10
386.1087595900318
 20
482.6622148696528
 30
0.0
  0
SPLINE
  5
125
330
1F
100
AcDbEntity
  8
0
  6
Continuous
 62
     7
370
    15
100
AcDbSpline
210
0.0
220
0.0
230
1.0
 70
     8
 71
     3
 72
    29
 73
    25
 74
     0
 42
0.000000001
 43
0.00000001
 40
0.2092365636407211
 40
0.2092365636407211
 40
0.2092365636407211
 40
0.2092365636407211
 40
0.6141870323710232
 40
0.6141870323710232
 40
0.6447291392561103
 40
0.6752712461411973
 40
0.7363554599113714
 40
0.7668975667964584
 40
0.7974396736815454
 40
0.8193234911266105
 40
0.833912702756654
 40
0.850320159220031
 40
0.8585238874517195
 40
0.8890417193700116
 40
0.9043006353291577
 40
0.9180336596923893
 40
0.924900171874005
 40
0.9317666840556207
 40
0.9317666840556207
 40
0.9402958485486681
 40
0.9488250130417155
 40
0.9573541775347629
 40
0.9786770887673815
 40
1.0
 40
1.0
 40
1.0
 40
1.0
 10
524.0146616848509
 20
439.2789840673229
 30
0.0
 10
498.2990576830703
 20
438.97272510224
 30
0.0
 10
472.5834536816753
 20
438.6664661371314
 30
0.0
 10
444.9283316745482
 20
438.3371085592246
 30
0.0
 10
441.0492956608324
 20
438.290911333778
 30
0.0
 10
433.2912236312253
 20
438.1985168830292
 30
0.0
 10
425.5331516145926
 20
438.1061224314182
 30
0.0
 10
417.7750795606683
 20
438.0137279822853
 30
0.0
 10
412.5063537011434
 20
437.9509802951689
 30
0.0
 10
408.2307121192002
 20
437.8987311944321
 30
0.0
 10
404.882745240657
 20
437.8595309213326
 30
0.0
 10
402.4326557190205
 20
437.8329630095761
 30
0.0
 10
399.0236844944516
 20
437.8002345021749
 30
0.0
 10
395.7431092929028
 20
437.7767605563996
 30
0.0
 10
392.1097657423699
 20
437.7614102665356
 30
0.0
 10
389.8961118457488
 20
437.7560876662231
 30
0.0
 10
388.1797221085031
 20
437.7540232586785
 30
0.0
 10
387.3114325649678
 20
437.753766638176
 30
0.0
 10
386.3344968224172
 20
437.7537130407491
 30
0.0
 10
385.2506996402295
 20
437.7537438646672
 30
0.0
 10
383.626284184449
 20
437.7537050202398
 30
0.0
 10
381.1885747424918
 20
437.7537189381824
 30
0.0
 10
377.9386930712811
 20
437.753711074938
 30
0.0
 10
375.2303400164829
 20
437.7537123854788
 30
0.0
 10
373.8761634890838
 20
437.7537130407491
 30
0.0
  0
SPLINE
  5
126
330
1F
100
AcDbEntity
  8
0
  6
Continuous
 62
     7
370
    15
100
AcDbSpline
210
0.0
220
0.0
230
1.0
 70
     8
 71
     3
 72
    18
 73
    14
 74
     0
 42
0.000000001
 43
0.00000001
 40
0.8668632849023913
 40
0.8668632849023913
 40
0.8668632849023913
 40
0.8668632849023913
 40
0.8881861961350098
 40
0.9095091073676284
 40
0.9180382718606758
 40
0.9265674363537232
 40
0.9350966008467706
 40
0.9350966008467706
 40
0.9419631130283863
 40
0.948829625210002
 40
0.9625626495732336
 40
0.9778215655323796
 40
1.0
 40
1.0
 40
1.0
 40
1.0
 10
373.8761634890838
 20
482.7537130407491
 30
0.0
 10
374.5293561072958
 20
482.753713042585
 30
0.0
 10
375.8357359765097
 20
482.7520762430281
 30
0.0
 10
377.4033792129293
 20
482.7462675278189
 30
0.0
 10
378.5791051659594
 20
482.7399365753259
 30
0.0
 10
379.3629200235588
 20
482.7349704828773
 30
0.0
 10
379.8854616469936
 20
482.7311672503131
 30
0.0
 10
380.3570711212298
 20
482.7275144793973
 30
0.0
 10
380.7775454880188
 20
482.7240980338894
 30
0.0
 10
381.617895875474
 20
482.7166371861107
 30
0.0
 10
382.7142725776342
 20
482.7056760159079
 30
0.0
 10
384.2790166374634
 20
482.6876195147465
 30
0.0
 10
385.425798566193
 20
482.6721661149541
 30
0.0
 10
386.1067770545343
 20
482.6622437831881
 30
0.0
  0
SPLINE
  5
127
330
1F
100
AcDbEntity
  8
0
  6
Continuous
 62
     7
370
    15
100
AcDbSpline
210
0.0
220
0.0
230
1.0
 70
     8
 71
     3
 72
    11
 73
     7
 74
     0
 42
0.000000001
 43
0.00000001
 40
0.0
 40
0.0
 40
0.0
 40
0.0
 40
0.2860107419146202
 40
0.5712163369927455
 40
0.8542861607712838
 40
1.0
 40
1.0
 40
1.0
 40
1.0
 10
524.0375787083907
 20
439.2960009566942
 30
0.0
 10
524.1194985689036
 20
439.3573721220445
 30
0.0
 10
524.2831076779036
 20
439.4799416872073
 30
0.0
 10
525.0432176842239
 20
440.0159368315426
 30
0.0
 10
525.9200777819055
 20
440.6086889784323
 30
0.0
 10
526.6675836357861
 20
441.0368289559158
 30
0.0
 10
526.9216090504927
 20
441.1823240510622
 30
0.0
  0
SPLINE
  5
128
330
1F
100
AcDbEntity
  8
0
  6
Continuous
 62
     7
370
    15
100
AcDbSpline
210
0.0
220
0.0
230
1.0
 70
     8
 71
     3
 72
    14
 73
    10
 74
     0
 42
0.000000001
 43
0.00000001
 40
0.0
 40
0.0
 40
0.0
 40
0.0
 40
0.0133277620707869
 40
0.0536272286993609
 40
0.1349953854480191
 40
0.2168048206397565
 40
0.2986537979957849
 40
0.380489673570166
 40
1.0
 40
1.0
 40
1.0
 40
1.0
 10
414.1769163374706
 20
465.4602351068953
 30
0.0
 10
414.8102671428783
 20
465.3499352595045
 30
0.0
 10
417.35869562683
 20
464.9061191776962
 30
0.0
 10
423.863649327435
 20
464.4373468514236
 30
0.0
 10
433.6714683101442
 20
464.2082498947216
 30
0.0
 10
445.4891219786238
 20
464.242813297459
 30
0.0
 10
457.327427076157
 20
464.1931319266837
 30
0.0
 10
495.0963713166388
 20
464.0734330981811
 30
0.0
 10
528.9178471199211
 20
463.9450671836348
 30
0.0
 10
558.792898065309
 20
463.8316795166084
 30
0.0
  0
ARC
  5
129
330
1F
100
AcDbEntity
  8
0
  6
Continuous
 62
     7
370
    15
100
AcDbCircle
 10
558.7883080735
 20
462.5316817252
 30
0.0
 40
1.300005894489864
100
AcDbArc
 50
346.7372692052
 51
89.7977026836
  0
SPLINE
  5
12A
330
1F
100
AcDbEntity
  8
0
  6
Continuous
 62
     7
370
    15
100
AcDbSpline
210
0.0
220
0.0
230
1.0
 70
     8
 71
     3
 72
    42
 73
    38
 74
     0
 42
0.000000001
 43
0.00000001
 40
0.0
 40
0.0
 40
0.0
 40
0.0
 40
0.0086118807947733
 40
0.0174403542971837
 40
0.0264951410492175
 40
0.0357852512201833
 40
0.0453190278011927
 40
0.0551041905363721
 40
0.0651478795224495
 40
0.0954189264098957
 40
0.1299581561463786
 40
0.1586080491794228
 40
0.1923389967433805
 40
0.2232531535664406
 40
0.2511184953584155
 40
0.2662778969803105
 40
0.2801342689552259
 40
0.2946757988477081
 40
0.3087592402643285
 40
0.337593489762291
 40
0.3664895268468732
 40
0.4256843586356806
 40
0.4555363451062758
 40
0.4867753412016464
 40
0.5173536613409107
 40
0.5494957690084868
 40
0.6127419872497001
 40
0.6769268406742619
 40
0.7091477726662571
 40
0.7411089202270127
 40
0.8067333828537687
 40
0.8703461282004731
 40
0.897032880569824
 40
0.9232727303076022
 40
0.9491331305018007
 40
0.9746845403599734
 40
1.0
 40
1.0
 40
1.0
 40
1.0
 10
547.8832396664609
 20
444.4971701020633
 30
0.0
 10
547.8778235721554
 20
444.4982689535886
 30
0.0
 10
547.8668551663164
 20
444.5004942932537
 30
0.0
 10
547.839753823355
 20
444.5059697849857
 30
0.0
 10
547.804708938249
 20
444.5130115143432
 30
0.0
 10
547.7609072682891
 20
444.5217519251885
 30
0.0
 10
547.7085674827966
 20
444.5321070454094
 30
0.0
 10
547.6476181576182
 20
444.5440434380802
 30
0.0
 10
547.5320035338801
 20
444.5664208638195
 30
0.0
 10
547.3267122178556
 20
444.6051648150166
 30
0.0
 10
547.0278428979942
 20
444.6585236121487
 30
0.0
 10
546.6887013109779
 20
444.7152240844413
 30
0.0
 10
546.3456568162484
 20
444.7685771603728
 30
0.0
 10
545.9953382722537
 20
444.8186423501655
 30
0.0
 10
545.7127304264219
 20
444.8557960482006
 30
0.0
 10
545.4829791806101
 20
444.8840211912689
 30
0.0
 10
545.287730914796
 20
444.9067819861193
 30
0.0
 10
545.07758858355
 20
444.9298467606759
 30
0.0
 10
544.7655416579507
 20
444.9617431196696
 30
0.0
 10
544.3188525560034
 20
445.0020866821549
 30
0.0
 10
543.4807464607103
 20
445.0614578632708
 30
0.0
 10
542.494777020967
 20
445.0988032032415
 30
0.0
 10
541.433962077973
 20
445.0962023474722
 30
0.0
 10
540.6043184692182
 20
445.0715566175197
 30
0.0
 10
539.7445647010557
 20
445.0216092689106
 30
0.0
 10
538.5876797591068
 20
444.9208467172458
 30
0.0
 10
537.1239488105277
 20
444.7279856829689
 30
0.0
 10
535.6829426660483
 20
444.4508618315377
 30
0.0
 10
534.548602753206
 20
444.1805965947196
 30
0.0
 10
533.4209825151759
 20
443.8771074486737
 30
0.0
 10
532.062687299403
 20
443.4465123844154
 30
0.0
 10
530.8237116455297
 20
442.9754730739255
 30
0.0
 10
529.9479253759118
 20
442.6050120318192
 30
0.0
 10
529.3773427425463
 20
442.3492284100799
 30
0.0
 10
528.8386052758974
 20
442.0942390003865
 30
0.0
 10
528.3286838514583
 20
441.8413381633314
 30
0.0
 10
528.0125765902978
 20
441.6754438405633
 30
0.0
 10
527.8552561046699
 20
441.5928814365079
 30
0.0
  0
SPLINE
  5
12B
330
1F
100
AcDbEntity
  8
0
  6
Continuous
 62
     7
370
    15
100
AcDbSpline
210
0.0
220
0.0
230
1.0
 70
     8
 71
     3
 72
     9
 73
     5
 74
     0
 42
0.000000001
 43
0.00000001
 40
0.0
 40
0.0
 40
0.0
 40
0.0
 40
0.7641125537102419
 40
1.0
 40
1.0
 40
1.0
 40
1.0
 10
547.9412764375014
 20
444.4853899470964
 30
0.0
 10
547.9707120501531
 20
444.4802753641781
 30
0.0
 10
548.0092346637508
 20
444.4735818700148
 30
0.0
 10
547.9899723225858
 20
444.4769298321366
 30
0.0
 10
547.9854285781188
 20
444.4777195743719
 30
0.0
  0
LWPOLYLINE
  5
12C
330
1F
100
AcDbEntity
  8
0
  6
Continuous
 62
     7
370
    15
100
AcDbPolyline
 90
        8
 70
   128
 43
0.0
 10
548.7624645297
 20
440.1459333889
 10
548.6006528203
 20
440.1174051158
 10
548.1197029416
 20
440.0325970195
 10
547.3327428167
 20
439.8938355438
 10
546.2613344257
 20
439.7049167595
 10
544.934818155
 20
439.4710169576
 10
543.3895081346
 20
439.1985380493
 10
541.6677385633
 20
438.8949436537
  0
LINE
  5
12D
330
1F
100
AcDbEntity
  8
0
  6
Continuous
 62
     7
370
    15
100
AcDbLine
 10
541.6677385633
 20
438.8949436537
 30
0.0
 11
541.0734057491
 21
442.265595629
 31
0.0
  0
LWPOLYLINE
  5
12E
330
1F
100
AcDbEntity
  8
0
  6
Continuous
 62
     7
370
    15
100
AcDbPolyline
 90
        9
 70
   128
 43
0.0
 10
531.6274553602
 20
440.6000201992
 10
532.7638775174
 20
440.8004017017
 10
533.9381486242
 20
441.0074589245
 10
535.1378858154
 20
441.219005122
 10
536.350423104
 20
441.4328069828
 10
537.5629603927
 20
441.6466107062
 10
538.7626975839
 20
441.8581569038
 10
539.9369835918
 20
442.0652141265
 10
541.0734057491
 20
442.265595629
  0
LINE
  5
12F
330
1F
100
AcDbEntity
  8
0
  6
Continuous
 62
     7
370
    15
100
AcDbLine
 10
531.6274553602
 20
440.6000201992
 30
0.0
 11
532.2217881744
 21
437.2293682239
 31
0.0
  0
LWPOLYLINE
  5
130
330
1F
100
AcDbEntity
  8
0
  6
Continuous
 62
     7
370
    15
100
AcDbPolyline
 90
        8
 70
   128
 43
0.0
 10
532.2217881744
 20
437.2293682239
 10
530.5000186031
 20
436.9257719658
 10
528.9547085826
 20
436.6532949201
 10
527.6282072131
 20
436.4193932555
 10
526.5567988221
 20
436.2304763339
 10
525.7698386972
 20
436.0917129956
 10
525.2888739173
 20
436.0069067619
 10
525.1270771091
 20
435.9783766262
  0
LWPOLYLINE
  5
131
330
1F
100
AcDbEntity
  8
0
  6
Continuous
 62
     7
370
    15
100
AcDbPolyline
 90
       10
 70
   128
 43
0.0
 10
537.0450258319
 20
437.4935769878
 10
535.1639032428
 20
437.1618864528
 10
533.3399564092
 20
436.8402728281
 10
531.6285729472
 20
436.5385112755
 10
530.0817728107
 20
436.2657678715
 10
528.7465542619
 20
436.0303313873
 10
527.6634633605
 20
435.8393562428
 10
526.8654316728
 20
435.6986408524
 10
526.3767182891
 20
435.6124655745
 10
526.2121349637
 20
435.5834455631
  0
SPLINE
  5
132
330
1F
100
AcDbEntity
  8
0
  6
Continuous
 62
     7
370
    15
100
AcDbSpline
210
0.0
220
0.0
230
1.0
 70
     8
 71
     3
 72
     8
 73
     4
 74
     0
 42
0.000000001
 43
0.00000001
 40
0.0
 40
0.0
 40
0.0
 40
0.0
 40
1.0
 40
1.0
 40
1.0
 40
1.0
 10
532.2217926312051
 20
437.2293680610537
 30
0.0
 10
533.8419015323689
 20
437.1446601627636
 30
0.0
 10
535.4510903798849
 20
437.2125235551725
 30
0.0
 10
537.0450205196241
 20
437.4935764441729
 30
0.0
  0
SPLINE
  5
133
330
1F
100
AcDbEntity
  8
0
  6
Continuous
 62
     7
370
    15
100
AcDbSpline
210
0.0
220
0.0
230
1.0
 70
     8
 71
     3
 72
    10
 73
     6
 74
     0
 42
0.000000001
 43
0.00000001
 40
0.0
 40
0.0
 40
0.0
 40
0.0
 40
0.5
 40
0.5
 40
1.0
 40
1.0
 40
1.0
 40
1.0
 10
537.0450205196241
 20
437.4935764441729
 30
0.0
 10
537.8401295327476
 20
437.6337756157911
 30
0.0
 10
538.6353590549736
 20
437.8277767183895
 30
0.0
 10
540.1779339982799
 20
438.3018953010459
 30
0.0
 10
540.930139717567
 20
438.5819578103381
 30
0.0
 10
541.6677367638025
 20
438.8949428698954
 30
0.0
  0
LWPOLYLINE
  5
134
330
1F
100
AcDbEntity
  8
0
  6
Continuous
 62
     7
370
    15
100
AcDbPolyline
 90
       10
 70
   128
 43
0.0
 10
547.8779017989
 20
439.4037065498
 10
547.7133333747
 20
439.3746865384
 10
547.2246050899
 20
439.2885112605
 10
546.4265734021
 20
439.1477977328
 10
545.3434974019
 20
438.9568207256
 10
544.008263952
 20
438.7213842414
 10
542.4614638154
 20
438.4486408375
 10
540.7500803535
 20
438.1468792848
 10
538.9261335199
 20
437.8252675227
 10
537.0450258319
 20
437.4935769878
  0
LWPOLYLINE
  5
135
330
1F
100
AcDbEntity
  8
0
  6
Continuous
 62
     7
370
    15
100
AcDbPolyline
 90
       10
 70
   128
 43
0.0
 10
537.0797455375
 20
437.2966153018
 10
535.374411947
 20
436.9959173195
 10
533.7307095592
 20
436.7060878716
 10
532.2080344026
 20
436.4376006118
 10
530.861461169
 20
436.2001617841
 10
529.7396123473
 20
436.0023507319
 10
528.8830637996
 20
435.85131815
 10
528.3227652376
 20
435.7525215886
 10
528.0789673393
 20
435.7095336012
 10
528.0687600438
 20
435.707734286
  0
LWPOLYLINE
  5
136
330
1F
100
AcDbEntity
  8
0
  6
Continuous
 62
     7
370
    15
100
AcDbPolyline
 90
       10
 70
   128
 43
0.0
 10
546.0907459323
 20
438.8854963175
 10
546.0805386369
 20
438.8836951397
 10
545.8367407386
 20
438.8407071523
 10
545.2764421766
 20
438.7419124536
 10
544.4198936288
 20
438.5908798716
 10
543.2980448072
 20
438.3930688194
 10
541.9514566724
 20
438.155628129
 10
540.428796417
 20
437.8871427319
 10
538.7850940292
 20
437.5973132841
 10
537.0797455375
 20
437.2966153018
  0
SPLINE
  5
137
330
1F
100
AcDbEntity
  8
0
  6
Continuous
 62
     7
370
    15
100
AcDbSpline
210
0.0
220
0.0
230
1.0
 70
     8
 71
     3
 72
    26
 73
    22
 74
     0
 42
0.000000001
 43
0.00000001
 40
0.0
 40
0.0
 40
0.0
 40
0.0
 40
0.0396456960478581
 40
0.0789649309408638
 40
0.1179871209870217
 40
0.1567423589617213
 40
0.1952613633738461
 40
0.2335754210028554
 40
0.2717163230414091
 40
0.3097162953337443
 40
0.3476079233524049
 40
0.385424072698824
 40
0.423197806039842
 40
0.460962297496141
 40
0.4987507455746615
 40
0.624011246361241
 40
0.7489236549951713
 40
0.8116841854251057
 40
0.8743424021787137
 40
0.937060447056933
 40
1.0
 40
1.0
 40
1.0
 40
1.0
 10
527.8552115001002
 20
441.5928577426835
 30
0.0
 10
527.773008369567
 20
441.5489035609911
 30
0.0
 10
527.6092790074231
 20
441.4613571368415
 30
0.0
 10
527.3737648116743
 20
441.331853810526
 30
0.0
 10
527.1469133908238
 20
441.2047116068037
 30
0.0
 10
526.9292589730063
 20
441.0802170121617
 30
0.0
 10
526.7205351575691
 20
440.9585611280542
 30
0.0
 10
526.5206888533488
 20
440.8399488853926
 30
0.0
 10
526.3296118316209
 20
440.7245702326125
 30
0.0
 10
526.1472123947923
 20
440.6126079644088
 30
0.0
 10
525.9733965335258
 20
440.5042356851759
 30
0.0
 10
525.8080738498171
 20
440.3996189022578
 30
0.0
 10
525.6511541747548
 20
440.2989133924518
 30
0.0
 10
525.5025567023908
 20
440.2022713449422
 30
0.0
 10
525.2539653884917
 20
440.0385509007451
 30
0.0
 10
524.9435411775659
 20
439.8284508912239
 30
0.0
 10
524.6867684859554
 20
439.6492016774404
 30
0.0
 10
524.5294202322799
 20
439.5376539964487
 30
0.0
 10
524.4359477009823
 20
439.4707769270179
 30
0.0
 10
524.3651232262912
 20
439.4197407040942
 30
0.0
 10
524.3384303478338
 20
439.4004045715081
 30
0.0
 10
524.3250603816241
 20
439.3907194624362
 30
0.0
  0
SPLINE
  5
138
330
1F
100
AcDbEntity
  8
0
  6
Continuous
 62
     7
370
    15
100
AcDbSpline
210
0.0
220
0.0
230
1.0
 70
     8
 71
     3
 72
     9
 73
     5
 74
     0
 42
0.000000001
 43
0.00000001
 40
0.0
 40
0.0
 40
0.0
 40
0.0
 40
0.4998277067459441
 40
1.0
 40
1.0
 40
1.0
 40
1.0
 10
547.9412460213194
 20
444.4853352861144
 30
0.0
 10
547.9343035863579
 20
444.4867589080284
 30
0.0
 10
547.9204139302467
 20
444.4896071333163
 30
0.0
 10
547.8956910506961
 20
444.494636938758
 30
0.0
 10
547.8833253513355
 20
444.4971527080805
 30
0.0
  0
SPLINE
  5
139
330
1F
100
AcDbEntity
  8
0
  6
Continuous
 62
     7
370
    15
100
AcDbSpline
210
0.0
220
0.0
230
1.0
 70
    24
 71
     3
 72
     8
 73
     4
 74
     0
 42
0.000000001
 43
0.00000001
 40
0.0
 40
0.0
 40
0.0
 40
0.0
 40
1.0
 40
1.0
 40
1.0
 40
1.0
 10
524.325060381624
 20
439.3907194624362
 30
0.0
 10
524.3097826859998
 20
439.3796458771783
 30
0.0
 10
524.3021434985963
 20
439.3741088384066
 30
0.0
 10
524.3021434986001
 20
439.3741088384095
 30
0.0
  0
ARC
  5
13A
330
1F
100
AcDbEntity
  8
0
  6
Continuous
 62
     7
370
    15
100
AcDbCircle
 10
524.0087073769
 20
439.7789486123
 30
0.0
 40
0.5000000000000463
100
AcDbArc
 50
270.6823295535
 51
305.9353658269
  0
LWPOLYLINE
  5
13B
330
1F
100
AcDbEntity
  8
0
  6
Continuous
 62
     7
370
    15
100
AcDbPolyline
 90
        5
 70
   128
 43
0.0
 10
379.3935827975
 20
436.5298481129
 10
379.3935827975
 20
436.5298481129
 10
379.4316850667
 20
436.6931424878
 10
379.5454368059
 20
437.1806451521
 10
379.6475917165
 20
437.6184431307
  0
LWPOLYLINE
  5
13C
330
1F
100
AcDbEntity
  8
0
  6
Continuous
 62
     7
370
    15
100
AcDbPolyline
 90
        5
 70
   128
 43
0.0
 10
389.2854020064
 20
478.922902926
 10
389.5057268505
 20
479.8671429447
 10
389.6934665804
 20
480.6717441819
 10
389.8072220449
 20
481.1592468462
 10
389.8453243141
 20
481.3225412212
  0
ARC
  5
13D
330
1F
100
AcDbEntity
  8
0
  6
Continuous
 62
     7
370
    15
100
AcDbCircle
 10
405.9091428125
 20
476.0928592534
 30
0.0
 40
1.400000000000048
100
AcDbArc
 50
23.8197983656
 51
111.671664185
  0
SPLINE
  5
13E
330
1F
100
AcDbEntity
  8
0
  6
Continuous
 62
     7
370
    15
100
AcDbSpline
210
0.0
220
0.0
230
1.0
 70
     8
 71
     3
 72
    12
 73
     8
 74
     0
 42
0.000000001
 43
0.00000001
 40
0.0
 40
0.0
 40
0.0
 40
0.0
 40
0.25
 40
0.25
 40
0.5
 40
0.5
 40
1.0
 40
1.0
 40
1.0
 40
1.0
 10
426.4071315640529
 20
370.959835087426
 30
0.0
 10
426.3918262480618
 20
370.7866118516848
 30
0.0
 10
426.345047237239
 20
370.6199828882797
 30
0.0
 10
426.1921932881682
 20
370.3094770262485
 30
0.0
 10
426.0876785412419
 20
370.1699029183981
 30
0.0
 10
425.707248487809
 20
369.8196174522601
 30
0.0
 10
425.3676862617091
 20
369.6848937216396
 30
0.0
 10
425.0198948699864
 20
369.6830726735292
 30
0.0
  0
SPLINE
  5
13F
330
1F
100
AcDbEntity
  8
0
  6
Continuous
 62
     7
370
    15
100
AcDbSpline
210
0.0
220
0.0
230
1.0
 70
     8
 71
     3
 72
    36
 73
    32
 74
     0
 42
0.000000001
 43
0.00000001
 40
0.3263893184623795
 40
0.3263893184623795
 40
0.3263893184623795
 40
0.3263893184623795
 40
0.3353815202101044
 40
0.3747975431955106
 40
0.375
 40
0.4057753405342413
 40
0.4326064606567435
 40
0.4536904553121331
 40
0.4769531651772052
 40
0.4952294512815819
 40
0.5
 40
0.5144770595495093
 40
0.5295967959261346
 40
0.5468823310713626
 40
0.5604601793980922
 40
0.6073137111541508
 40
0.625
 40
0.6440958461729963
 40
0.6576721120961124
 40
0.6683364856808596
 40
0.7208206190357934
 40
0.75
 40
0.762071786177911
 40
0.7962145524500887
 40
0.8231075610513068
 40
0.875
 40
0.8904516614060828
 40
0.9441411256803024
 40
0.9751799444697651
 40
0.9875312344303273
 40
1.0
 40
1.0
 40
1.0
 40
1.0
 10
409.0224044620061
 20
431.9440030971621
 30
0.0
 10
409.0583646930233
 20
431.693679576875
 30
0.0
 10
409.2466724315672
 20
430.3440737176235
 30
0.0
 10
409.4094695177881
 20
428.9800862865246
 30
0.0
 10
409.6256838625755
 20
427.0060067617527
 30
0.0
 10
409.790738736775
 20
425.3856137843246
 30
0.0
 10
409.9877128573524
 20
423.1814000216551
 30
0.0
 10
410.147633284892
 20
421.1884574087588
 30
0.0
 10
410.2751325342956
 20
419.4355393753796
 30
0.0
 10
410.3615422381794
 20
418.1394614072377
 30
0.0
 10
410.4284658743832
 20
417.0893100632966
 30
0.0
 10
410.4874835727658
 20
416.1275193497569
 30
0.0
 10
410.5642521900371
 20
414.8154983795384
 30
0.0
 10
410.6366912954669
 20
413.528613338886
 30
0.0
 10
410.7566574549866
 20
411.3535076916395
 30
0.0
 10
410.8756917035693
 20
409.1668444603254
 30
0.0
 10
411.0143816164759
 20
406.8248974199792
 30
0.0
 10
411.1034352665392
 20
405.4144337129027
 30
0.0
 10
411.1867504043672
 20
404.2009281282176
 30
0.0
 10
411.3453065695954
 20
402.0533678505158
 30
0.0
 10
411.5763621411717
 20
399.4730855846259
 30
0.0
 10
411.9000391951583
 20
396.8668263701746
 30
0.0
 10
412.2047703967503
 20
394.7777912446288
 30
0.0
 10
412.5497618777933
 20
392.7592809155062
 30
0.0
 10
413.1910374579475
 20
389.6518821519566
 30
0.0
 10
413.8491739931617
 20
387.0667275213522
 30
0.0
 10
414.8427609968331
 20
383.7478722756575
 30
0.0
 10
415.8051884591115
 20
381.0139611142212
 30
0.0
 10
416.9618901379774
 20
378.4294847117019
 30
0.0
 10
417.703311076573
 20
376.9698870672338
 30
0.0
 10
418.0530278200835
 20
376.329172584749
 30
0.0
 10
418.2340848586911
 20
376.0094928086772
 30
0.0
  0
SPLINE
  5
140
330
1F
100
AcDbEntity
  8
0
  6
Continuous
 62
     7
370
    15
100
AcDbSpline
210
0.0
220
0.0
230
1.0
 70
     8
 71
     3
 72
    15
 73
    11
 74
     0
 42
0.000000001
 43
0.00000001
 40
0.0622547595065109
 40
0.0622547595065109
 40
0.0622547595065109
 40
0.0622547595065109
 40
0.0687156696329354
 40
0.0687156696329354
 40
0.1167395001017629
 40
0.1407514153361767
 40
0.1647633305705905
 40
0.1887752458050042
 40
0.212787161039418
 40
0.2608109982492182
 40
0.2608109982492182
 40
0.2608109982492182
 40
0.2608109982492182
 10
405.3921407233547
 20
477.3939006977024
 30
0.0
 10
405.3443051957078
 20
477.3748920275048
 30
0.0
 10
405.2955629558957
 20
477.3555230520412
 30
0.0
 10
404.875301929075
 20
477.1885215857943
 30
0.0
 10
404.3059887510719
 20
476.8775724158463
 30
0.0
 10
403.6522513950314
 20
476.2517299640703
 30
0.0
 10
403.2463833730354
 20
475.7125628825238
 30
0.0
 10
402.9262285664183
 20
475.1397514891836
 30
0.0
 10
402.5992625418638
 20
474.3795117637394
 30
0.0
 10
402.4352857503659
 20
473.847224137526
 30
0.0
 10
402.3425521880472
 20
473.5174419774013
 30
0.0
  0
SPLINE
  5
141
330
1F
100
AcDbEntity
  8
0
  6
Continuous
 62
     7
370
    15
100
AcDbSpline
210
0.0
220
0.0
230
1.0
 70
     8
 71
     3
 72
    18
 73
    14
 74
     0
 42
0.000000001
 43
0.00000001
 40
0.0
 40
0.0
 40
0.0
 40
0.0
 40
0.013671875
 40
0.0341796875
 40
0.068359375
 40
0.247802734375
 40
0.546875
 40
0.669921875
 40
0.875
 40
0.93359375
 40
0.96875
 40
0.984375
 40
1.0
 40
1.0
 40
1.0
 40
1.0
 10
424.7761840507126
 20
369.681796595002
 30
0.0
 10
424.7394322732223
 20
369.6816041613865
 30
0.0
 10
424.6476953014096
 20
369.6828797040664
 30
0.0
 10
424.5751907346868
 20
369.6889087741052
 30
0.0
 10
424.158292759171
 20
369.7382920933393
 30
0.0
 10
423.1682359607452
 20
370.0826835955983
 30
0.0
 10
421.8488273065611
 20
371.0989349801364
 30
0.0
 10
420.3954310885633
 20
372.7127504793184
 30
0.0
 10
419.4753754863928
 20
373.9716218586291
 30
0.0
 10
418.7633378377233
 20
375.1060883959164
 30
0.0
 10
418.5031031545809
 20
375.5424881428397
 30
0.0
 10
418.3453135910415
 20
375.8140397582629
 30
0.0
 10
418.2570648912869
 20
375.9689185686208
 30
0.0
 10
418.2340848586911
 20
376.0094928086772
 30
0.0
  0
LINE
  5
142
330
1F
100
AcDbEntity
  8
0
  6
Continuous
 62
     7
370
    15
100
AcDbLine
 10
425.0198915665
 20
369.6830694966
 30
0.0
 11
424.7761830752
 21
369.6817954473
 31
0.0
  0
LINE
  5
143
330
1F
100
AcDbEntity
  8
0
  6
Continuous
 62
     7
370
    15
100
AcDbLine
 10
426.407130069
 20
370.9598382405
 30
0.0
 11
426.4186263149
 21
371.16694948
 31
0.0
  0
SPLINE
  5
144
330
1F
100
AcDbEntity
  8
0
  6
Continuous
 62
     7
370
    15
100
AcDbSpline
210
0.0
220
0.0
230
1.0
 70
     8
 71
     3
 72
     9
 73
     5
 74
     0
 42
0.000000001
 43
0.00000001
 40
0.0
 40
0.0
 40
0.0
 40
0.0
 40
0.3935002450288883
 40
1.0
 40
1.0
 40
1.0
 40
1.0
 10
411.3762766186996
 20
465.923983923296
 30
0.0
 10
410.8868648379623
 20
467.3548638070181
 30
0.0
 10
409.6431253818373
 20
470.9911509549895
 30
0.0
 10
408.1160581442543
 20
474.518767098991
 30
0.0
 10
407.1898922388359
 20
476.6582654259601
 30
0.0
  0
SPLINE
  5
145
330
1F
100
AcDbEntity
  8
0
  6
Continuous
 62
     7
370
    15
100
AcDbSpline
210
0.0
220
0.0
230
1.0
 70
     8
 71
     3
 72
     9
 73
     5
 74
     0
 42
0.000000001
 43
0.00000001
 40
0.0
 40
0.0
 40
0.0
 40
0.0
 40
0.1096956533373
 40
1.0
 40
1.0
 40
1.0
 40
1.0
 10
407.8143589262767
 20
437.8982888005176
 30
0.0
 10
407.884571880331
 20
437.6872224589713
 30
0.0
 10
408.52464240198
 20
435.7631139357533
 30
0.0
 10
408.787965667221
 20
433.7427455090725
 30
0.0
 10
409.0224035148426
 20
431.9440027169385
 30
0.0
  0
SPLINE
  5
146
330
1F
100
AcDbEntity
  8
0
  6
Continuous
 62
     7
370
    15
100
AcDbSpline
210
0.0
220
0.0
230
1.0
 70
     8
 71
     3
 72
     9
 73
     5
 74
     0
 42
0.000000001
 43
0.00000001
 40
0.0
 40
0.0
 40
0.0
 40
0.0
 40
0.05
 40
0.3046688700282364
 40
0.3046688700282364
 40
0.3046688700282364
 40
0.3046688700282364
 10
402.3425521489959
 20
473.5174418385257
 30
0.0
 10
402.2953291516551
 20
473.3495058541723
 30
0.0
 10
402.0277161948069
 20
472.3442434178419
 30
0.0
 10
401.8034405858553
 20
471.4784059320949
 30
0.0
 10
401.5988642899211
 20
470.8598650311986
 30
0.0
  0
SPLINE
  5
147
330
1F
100
AcDbEntity
  8
0
  6
Continuous
 62
     7
370
    15
100
AcDbSpline
210
0.0
220
0.0
230
1.0
 70
     8
 71
     3
 72
    22
 73
    18
 74
     0
 42
0.000000001
 43
0.00000001
 40
0.0
 40
0.0
 40
0.0
 40
0.0
 40
0.1249999999999984
 40
0.1249999999999984
 40
0.2499999999999968
 40
0.2499999999999968
 40
0.4999999999999991
 40
0.4999999999999991
 40
0.6250000000000003
 40
0.6250000000000003
 40
0.7500000000000013
 40
0.7500000000000013
 40
0.8750000000000024
 40
0.8750000000000024
 40
0.9375000000000012
 40
0.9375000000000012
 40
1.0
 40
1.0
 40
1.0
 40
1.0
 10
401.5988642899211
 20
470.8598650311986
 30
0.0
 10
401.5508892257873
 20
470.7148113765006
 30
0.0
 10
401.4824875321964
 20
470.5806019111844
 30
0.0
 10
401.3054532922062
 20
470.3335409333048
 30
0.0
 10
401.1990367639304
 20
470.2245976562223
 30
0.0
 10
400.8365710384567
 20
469.9511246534086
 30
0.0
 10
400.537144280072
 20
469.8444831372335
 30
0.0
 10
400.0854654443369
 20
469.8262044102094
 30
0.0
 10
399.9317713293782
 20
469.843352457632
 30
0.0
 10
399.6408510794085
 20
469.921509349113
 30
0.0
 10
399.4993036899324
 20
469.9836618567322
 30
0.0
 10
399.2447188357292
 20
470.1451060648366
 30
0.0
 10
399.1284588130933
 20
470.2462806735951
 30
0.0
 10
398.9819698483493
 20
470.4190758837508
 30
0.0
 10
398.9377289696095
 20
470.4800178198004
 30
0.0
 10
398.8584310111081
 20
470.6085933087259
 30
0.0
 10
398.8229909880842
 20
470.6772412567144
 30
0.0
 10
398.793599079501
 20
470.7465793014297
 30
0.0
  0
SPLINE
  5
148
330
1F
100
AcDbEntity
  8
0
  6
Continuous
 62
     8
370
     0
100
AcDbSpline
210
0.0
220
0.0
230
1.0
 70
    24
 71
     3
 72
    48
 73
    44
 74
     0
 42
0.000000001
 43
0.00000001
 40
0.0
 40
0.0
 40
0.0
 40
0.0
 40
0.249999999999997
 40
0.249999999999997
 40
0.3749999999999953
 40
0.3749999999999953
 40
0.4999999999999937
 40
0.4999999999999937
 40
0.562499999999993
 40
0.562499999999993
 40
0.5937499999999929
 40
0.5937499999999929
 40
0.6249999999999927
 40
0.6249999999999927
 40
0.6562499999999926
 40
0.6562499999999926
 40
0.6874999999999925
 40
0.6874999999999925
 40
0.7031249999999927
 40
0.7031249999999927
 40
0.7187499999999929
 40
0.7187499999999929
 40
0.7343749999999932
 40
0.7343749999999932
 40
0.7499999999999934
 40
0.7499999999999934
 40
0.7656249999999937
 40
0.7656249999999937
 40
0.781249999999994
 40
0.781249999999994
 40
0.8124999999999948
 40
0.8124999999999948
 40
0.8281249999999953
 40
0.8281249999999953
 40
0.8437499999999958
 40
0.8437499999999958
 40
0.8749999999999966
 40
0.8749999999999966
 40
0.9062499999999974
 40
0.9062499999999974
 40
0.9374999999999983
 40
0.9374999999999983
 40
1.0
 40
1.0
 40
1.0
 40
1.0
 10
357.0761634890838
 20
424.7537130407491
 30
0.0
 10
357.0761634890838
 20
424.7537130407492
 30
0.0
 10
357.0761634890838
 20
424.7857466957375
 30
0.0
 10
357.0761634890838
 20
424.8980027001249
 30
0.0
 10
357.0761634890838
 20
424.9463430151598
 30
0.0
 10
357.0761634890838
 20
425.0763715679974
 30
0.0
 10
357.0761634890838
 20
425.1567934170841
 30
0.0
 10
357.0761634890838
 20
425.3281768801286
 30
0.0
 10
357.0761634890838
 20
425.3937412240864
 30
0.0
 10
357.0761634890838
 20
425.5171736711662
 30
0.0
 10
357.0761634890838
 20
425.5625564637896
 30
0.0
 10
357.0761634890838
 20
425.6674694362164
 30
0.0
 10
357.0761634890838
 20
425.7264545289786
 30
0.0
 10
357.0761634890838
 20
425.8740396515067
 30
0.0
 10
357.0761634890838
 20
425.9604386211246
 30
0.0
 10
357.0761634890838
 20
426.2396032456584
 30
0.0
 10
357.0761634890838
 20
426.4387816835974
 30
0.0
 10
357.0761634890838
 20
426.9028663003076
 30
0.0
 10
357.0761634890838
 20
427.0859172634556
 30
0.0
 10
357.0761634890838
 20
427.5195910408245
 30
0.0
 10
357.0761634890838
 20
427.7709042588103
 30
0.0
 10
357.0761634890838
 20
428.357422464901
 30
0.0
 10
357.0761634890838
 20
428.6926543636626
 30
0.0
 10
357.0761634890838
 20
429.4603785638966
 30
0.0
 10
357.0761634890838
 20
429.8842191992826
 30
0.0
 10
357.0761634890838
 20
430.7983653820154
 30
0.0
 10
357.0761634890838
 20
431.289898518113
 30
0.0
 10
357.0761634890838
 20
432.3348758950392
 30
0.0
 10
357.0761634890838
 20
432.8906832819853
 30
0.0
 10
357.0761634890838
 20
434.5940986331449
 30
0.0
 10
357.0761634890838
 20
435.7900038588414
 30
0.0
 10
357.0761634890838
 20
437.6416073768361
 30
0.0
 10
357.0761634890838
 20
438.2702542079102
 30
0.0
 10
357.0761634890838
 20
439.5360411766438
 30
0.0
 10
357.0761634890838
 20
440.1712494521005
 30
0.0
 10
357.0761634890838
 20
442.0824095608101
 30
0.0
 10
357.0761634890838
 20
443.3638235365434
 30
0.0
 10
357.0761634890838
 20
445.9365664709771
 30
0.0
 10
357.0761634890838
 20
447.2279422912217
 30
0.0
 10
357.0761634890838
 20
449.8179566480847
 30
0.0
 10
357.0761634890838
 20
451.1166153947824
 30
0.0
 10
357.0761634890838
 20
455.0209253890958
 30
0.0
 10
357.0761634890838
 20
457.6370912234449
 30
0.0
 10
357.0761634890838
 20
460.2537130407492
 30
0.0
  0
SPLINE
  5
149
330
1F
100
AcDbEntity
  8
0
  6
Continuous
 62
     8
370
     0
100
AcDbSpline
210
0.0
220
0.0
230
1.0
 70
    24
 71
     3
 72
    52
 73
    48
 74
     0
 42
0.000000001
 43
0.00000001
 40
0.0
 40
0.0
 40
0.0
 40
0.0
 40
0.062500000000003
 40
0.062500000000003
 40
0.0937500000000045
 40
0.0937500000000045
 40
0.125000000000006
 40
0.125000000000006
 40
0.1562500000000076
 40
0.1562500000000076
 40
0.1718750000000084
 40
0.1718750000000084
 40
0.1875000000000092
 40
0.1875000000000092
 40
0.2187500000000108
 40
0.2187500000000108
 40
0.2265625000000111
 40
0.2265625000000111
 40
0.2343750000000115
 40
0.2343750000000115
 40
0.2500000000000117
 40
0.2500000000000117
 40
0.265625000000012
 40
0.265625000000012
 40
0.2812500000000123
 40
0.2812500000000123
 40
0.2968750000000125
 40
0.2968750000000125
 40
0.3046875000000123
 40
0.3046875000000123
 40
0.3125000000000121
 40
0.3125000000000121
 40
0.3437500000000113
 40
0.3437500000000113
 40
0.3750000000000105
 40
0.3750000000000105
 40
0.4062500000000098
 40
0.4062500000000098
 40
0.437500000000009
 40
0.437500000000009
 40
0.5000000000000079
 40
0.5000000000000079
 40
0.625000000000006
 40
0.625000000000006
 40
0.750000000000004
 40
0.750000000000004
 40
1.0
 40
1.0
 40
1.0
 40
1.0
 10
357.0761634890838
 20
460.253713040749
 30
0.0
 10
357.0761634890838
 20
462.8918271050161
 30
0.0
 10
357.0761634890838
 20
465.5262562257877
 30
0.0
 10
357.0761634890838
 20
469.4690572863437
 30
0.0
 10
357.0761634890838
 20
470.7818312715735
 30
0.0
 10
357.0761634890838
 20
473.4034095265656
 30
0.0
 10
357.0761634890838
 20
474.7132234941583
 30
0.0
 10
357.0761634890838
 20
477.3230775535805
 30
0.0
 10
357.0761634890838
 20
478.6180121662176
 30
0.0
 10
357.0761634890838
 20
480.5387564147308
 30
0.0
 10
357.0761634890838
 20
481.1753617499541
 30
0.0
 10
357.0761634890838
 20
482.4395669002996
 30
0.0
 10
357.0761634890838
 20
483.0689206766844
 30
0.0
 10
357.0761634890838
 20
484.9233822524513
 30
0.0
 10
357.0761634890838
 20
486.1164208477094
 30
0.0
 10
357.0761634890838
 20
487.5243973439409
 30
0.0
 10
357.0761634890838
 20
487.8017576505026
 30
0.0
 10
357.0761634890838
 20
488.3469596874062
 30
0.0
 10
357.0761634890838
 20
488.6152062265274
 30
0.0
 10
357.0761634890838
 20
489.3925046137151
 30
0.0
 10
357.0761634890838
 20
489.8778238115091
 30
0.0
 10
357.0761634890838
 20
490.7764364623804
 30
0.0
 10
357.0761634890838
 20
491.1902130976358
 30
0.0
 10
357.0761634890838
 20
491.9391599838636
 30
0.0
 10
357.0761634890838
 20
492.265665723082
 30
0.0
 10
357.0761634890838
 20
492.8358429835645
 30
0.0
 10
357.0761634890838
 20
493.0795427372834
 30
0.0
 10
357.0761634890838
 20
493.3942253149395
 30
0.0
 10
357.0761634890838
 20
493.4906710555875
 30
0.0
 10
357.0761634890838
 20
493.6667921241968
 30
0.0
 10
357.0761634890838
 20
493.7468144116712
 30
0.0
 10
357.0761634890838
 20
494.1135753658194
 30
0.0
 10
357.0761634890838
 20
494.3012848645807
 30
0.0
 10
357.0761634890838
 20
494.5655473121965
 30
0.0
 10
357.0761634890838
 20
494.6486989036636
 30
0.0
 10
357.0761634890838
 20
494.7920825973631
 30
0.0
 10
357.0761634890838
 20
494.8498807031015
 30
0.0
 10
357.0761634890838
 20
494.9528234395736
 30
0.0
 10
357.0761634890838
 20
494.9975060782094
 30
0.0
 10
357.0761634890838
 20
495.119162271298
 30
0.0
 10
357.0761634890838
 20
495.1839865530529
 30
0.0
 10
357.0761634890838
 20
495.3535462803173
 30
0.0
 10
357.0761634890838
 20
495.4333251124307
 30
0.0
 10
357.0761634890838
 20
495.5623358891996
 30
0.0
 10
357.0761634890838
 20
495.610345959181
 30
0.0
 10
357.0761634890838
 20
495.7218550700887
 30
0.0
 10
357.0761634890838
 20
495.7537130407491
 30
0.0
 10
357.0761634890838
 20
495.7537130407491
 30
0.0
  0
SPLINE
  5
14A
330
1F
100
AcDbEntity
  8
0
  6
Continuous
 62
     8
370
     0
100
AcDbSpline
210
0.0
220
0.0
230
1.0
 70
     8
 71
     3
 72
    66
 73
    62
 74
     0
 42
0.000000001
 43
0.00000001
 40
0.0
 40
0.0
 40
0.0
 40
0.0
 40
0.5000000000000003
 40
0.5000000000000003
 40
0.5625000000000003
 40
0.5625000000000003
 40
0.5937500000000003
 40
0.5937500000000003
 40
0.6250000000000002
 40
0.6250000000000002
 40
0.6562500000000001
 40
0.6562500000000001
 40
0.6875
 40
0.6875
 40
0.7187499999999999
 40
0.7187499999999999
 40
0.7499999999999998
 40
0.7499999999999998
 40
0.7656249999999999
 40
0.7656249999999999
 40
0.7812499999999999
 40
0.7812499999999999
 40
0.8124999999999998
 40
0.8124999999999998
 40
0.8203124999999998
 40
0.8203124999999998
 40
0.8281249999999998
 40
0.8281249999999998
 40
0.8437499999999998
 40
0.8437499999999998
 40
0.8593749999999998
 40
0.8593749999999998
 40
0.8671874999999998
 40
0.8671874999999998
 40
0.8749999999999998
 40
0.8749999999999998
 40
0.8906249999999998
 40
0.8906249999999998
 40
0.8984374999999997
 40
0.8984374999999997
 40
0.9062499999999996
 40
0.9062499999999996
 40
0.9218749999999997
 40
0.9218749999999997
 40
0.9296874999999997
 40
0.9296874999999997
 40
0.9374999999999997
 40
0.9374999999999997
 40
0.9531249999999997
 40
0.9531249999999997
 40
0.9687499999999997
 40
0.9687499999999997
 40
0.9843749999999997
 40
0.9843749999999997
 40
0.9921874999999997
 40
0.9921874999999997
 40
0.9960937499999998
 40
0.9960937499999998
 40
0.9980468749999999
 40
0.9980468749999999
 40
1.0
 40
1.0
 40
1.0
 40
1.0
 10
552.2665650829312
 20
461.2423053087296
 30
0.0
 10
521.1781113292201
 20
461.2488864041834
 30
0.0
 10
490.0896583720199
 20
461.2514403966263
 30
0.0
 10
455.1151475770894
 20
461.2567325069936
 30
0.0
 10
451.2290907943697
 20
461.2574205086764
 30
0.0
 10
445.4000055549946
 20
461.2587726910162
 30
0.0
 10
443.4569770812825
 20
461.2596567059036
 30
0.0
 10
439.5709205257481
 20
461.2584077192485
 30
0.0
 10
437.6277336204606
 20
461.2536751448461
 30
0.0
 10
433.7422738915187
 20
461.2559105242545
 30
0.0
 10
431.8002188163688
 20
461.2632622555085
 30
0.0
 10
427.9200348456296
 20
461.3140277319108
 30
0.0
 10
425.9818069410197
 20
461.3570251231837
 30
0.0
 10
422.111355096806
 20
461.5155034989554
 30
0.0
 10
420.1791917140475
 20
461.63162003729
 30
0.0
 10
416.3230320220911
 20
461.9777304678173
 30
0.0
 10
414.3988698545954
 20
462.2048026723664
 30
0.0
 10
411.5213456747549
 20
462.6783707395315
 30
0.0
 10
410.5635970988766
 20
462.8580368926895
 30
0.0
 10
408.6513156139054
 20
463.2687694378577
 30
0.0
 10
407.6958160688942
 20
463.5006589353447
 30
0.0
 10
404.8693376521011
 20
464.2829826134653
 30
0.0
 10
403.0280762130683
 20
464.9210127038669
 30
0.0
 10
400.7993676143223
 20
465.9143207687844
 30
0.0
 10
400.3572987250601
 20
466.1228457673386
 30
0.0
 10
399.4811842507481
 20
466.5613979159239
 30
0.0
 10
399.0458806610579
 20
466.7921748242848
 30
0.0
 10
397.7663803795523
 20
467.5122211332548
 30
0.0
 10
396.9472266309459
 20
468.0304217255644
 30
0.0
 10
395.3788298262987
 20
469.1394213313083
 30
0.0
 10
394.6293942687456
 20
469.730025952763
 30
0.0
 10
393.5622466104466
 20
470.6694685036776
 30
0.0
 10
393.2186376571584
 20
470.9894275249006
 30
0.0
 10
392.5631999676681
 20
471.6345439436076
 30
0.0
 10
392.2502235665609
 20
471.9607790914819
 30
0.0
 10
391.3522340280051
 20
472.9464090711583
 30
0.0
 10
390.8082221427505
 20
473.6128485719643
 30
0.0
 10
390.066770013053
 20
474.6127902560681
 30
0.0
 10
389.8312029871415
 20
474.947316914868
 30
0.0
 10
389.3874963392511
 20
475.6083972445307
 30
0.0
 10
389.1807925831684
 20
475.9326016707777
 30
0.0
 10
388.6024311482826
 20
476.8839274392523
 30
0.0
 10
388.2715553861167
 20
477.4894136593665
 30
0.0
 10
387.8370393247439
 20
478.3449162508752
 30
0.0
 10
387.7022972355662
 20
478.6220342038161
 30
0.0
 10
387.453117771119
 20
479.1537358860274
 30
0.0
 10
387.3393081271895
 20
479.4069193701166
 30
0.0
 10
387.0259680154205
 20
480.1279548463584
 30
0.0
 10
386.85441595844
 20
480.5574996720408
 30
0.0
 10
386.5696924186032
 20
481.3069376884675
 30
0.0
 10
386.4558891852224
 20
481.6271120394516
 30
0.0
 10
386.2779705082916
 20
482.1400171429403
 30
0.0
 10
386.2132094090989
 20
482.3351762997498
 30
0.0
 10
386.1493952382283
 20
482.5307466964967
 30
0.0
 10
386.1336917795736
 20
482.5798543880047
 30
0.0
 10
386.1181863131781
 20
482.6291674691489
 30
0.0
 10
386.1143609738406
 20
482.6415426926727
 30
0.0
 10
386.1106355625359
 20
482.6539427965763
 30
0.0
 10
386.1097302633094
 20
482.6570464916104
 30
0.0
 10
386.1085958668268
 20
482.6611850295316
 30
0.0
 10
386.1084291140484
 20
482.6622536778723
 30
0.0
 10
386.1084780531354
 20
482.662218996904
 30
0.0
  0
SPLINE
  5
14B
330
1F
100
AcDbEntity
  8
0
  6
Continuous
 62
     8
370
     0
100
AcDbSpline
210
0.0
220
0.0
230
1.0
 70
     8
 71
     3
 72
    54
 73
    50
 74
     0
 42
0.000000001
 43
0.00000001
 40
0.0
 40
0.0
 40
0.0
 40
0.0
 40
0.0078124999999997
 40
0.0078124999999997
 40
0.0156249999999994
 40
0.0156249999999994
 40
0.0312499999999988
 40
0.0312499999999988
 40
0.0468749999999983
 40
0.0468749999999983
 40
0.0624999999999977
 40
0.0624999999999977
 40
0.0703124999999975
 40
0.0703124999999975
 40
0.0781249999999973
 40
0.0781249999999973
 40
0.093749999999997
 40
0.093749999999997
 40
0.101562499999997
 40
0.101562499999997
 40
0.1093749999999969
 40
0.1093749999999969
 40
0.1249999999999969
 40
0.1249999999999969
 40
0.1328124999999968
 40
0.1328124999999968
 40
0.1406249999999968
 40
0.1406249999999968
 40
0.1562499999999968
 40
0.1562499999999968
 40
0.1640624999999969
 40
0.1640624999999969
 40
0.1718749999999969
 40
0.1718749999999969
 40
0.1874999999999971
 40
0.1874999999999971
 40
0.2187499999999974
 40
0.2187499999999974
 40
0.2499999999999977
 40
0.2499999999999977
 40
0.3124999999999983
 40
0.3124999999999983
 40
0.3437499999999986
 40
0.3437499999999986
 40
0.3749999999999987
 40
0.3749999999999987
 40
0.4999999999999989
 40
0.4999999999999989
 40
1.0
 40
1.0
 40
1.0
 40
1.0
 10
387.2298609643162
 20
481.9865683649323
 30
0.0
 10
387.2303072440017
 20
481.9861649847959
 30
0.0
 10
387.2342625869258
 20
481.9731360191853
 30
0.0
 10
387.254236859792
 20
481.9129309146938
 30
0.0
 10
387.2695153990745
 20
481.8671629658725
 30
0.0
 10
387.3329191980225
 20
481.6814083941849
 30
0.0
 10
387.3984824573909
 20
481.492675681869
 30
0.0
 10
387.5791977290742
 20
480.9948955807405
 30
0.0
 10
387.6950523796212
 20
480.6835806811052
 30
0.0
 10
387.9854807208785
 20
479.9555434437672
 30
0.0
 10
388.1614169574781
 20
479.5372579895219
 30
0.0
 10
388.4861488661384
 20
478.8311362657026
 30
0.0
 10
388.6048696373408
 20
478.5819902478783
 30
0.0
 10
388.8641454409258
 20
478.0611140761649
 30
0.0
 10
389.0038553326355
 20
477.7909885995284
 30
0.0
 10
389.4569124496529
 20
476.9543188419951
 30
0.0
 10
389.8035867632513
 20
476.3614493574025
 30
0.0
 10
390.4159485086679
 20
475.4291306609692
 30
0.0
 10
390.6369052382135
 20
475.109336167797
 30
0.0
 10
391.1057934159635
 20
474.4678472515882
 30
0.0
 10
391.3535874339058
 20
474.1461133617349
 30
0.0
 10
392.1394334217921
 20
473.1823140748283
 30
0.0
 10
392.7200416814033
 20
472.5413726275606
 30
0.0
 10
393.6865707460736
 20
471.5988920430762
 30
0.0
 10
394.0261761417883
 20
471.2871792669146
 30
0.0
 10
394.7313373512798
 20
470.678775807895
 30
0.0
 10
395.0949574782261
 20
470.3835166529998
 30
0.0
 10
396.2128074688217
 20
469.5273289009879
 30
0.0
 10
396.9953988884288
 20
468.994351759512
 30
0.0
 10
398.2205045726094
 20
468.2523110950269
 30
0.0
 10
398.6375317372298
 20
468.0146702953384
 30
0.0
 10
399.4883134987354
 20
467.5588584196976
 30
0.0
 10
399.9225525723697
 20
467.3403896439327
 30
0.0
 10
401.2327768005443
 20
466.7195316688403
 30
0.0
 10
402.1212793469672
 20
466.3486354591221
 30
0.0
 10
404.8240538296843
 20
465.3428988064779
 30
0.0
 10
406.6755700973623
 20
464.814962842755
 30
0.0
 10
410.4491495823029
 20
463.9623055026796
 30
0.0
 10
412.3446550558023
 20
463.6416728617841
 30
0.0
 10
418.0408816972636
 20
462.8943060046564
 30
0.0
 10
421.8557975763705
 20
462.6686016888938
 30
0.0
 10
427.592923052341
 20
462.4994443126046
 30
0.0
 10
429.5076982798682
 20
462.4711275058394
 30
0.0
 10
433.3402812757551
 20
462.4402586617716
 30
0.0
 10
435.2580991567941
 20
462.4381933069719
 30
0.0
 10
444.8484305241809
 20
462.4436790188626
 30
0.0
 10
452.5211068863488
 20
462.4384498755341
 30
0.0
 10
490.8834837327599
 20
462.4269735321079
 30
0.0
 10
521.5733824673484
 20
462.4204293748923
 30
0.0
 10
552.2632756116293
 20
462.4108321445158
 30
0.0
  0
LINE
  5
14C
330
1F
100
AcDbEntity
  8
0
  6
Continuous
 62
     8
370
     0
100
AcDbLine
 10
526.9216090505
 20
441.1823240511
 30
0.0
 11
527.6265084808
 21
441.5920705936
 31
0.0
  0
SPLINE
  5
14D
330
1F
100
AcDbEntity
  8
0
  6
Continuous
 62
     8
370
     0
100
AcDbSpline
210
0.0
220
0.0
230
1.0
 70
     8
 71
     3
 72
     8
 73
     4
 74
     0
 42
0.000000001
 43
0.00000001
 40
0.0
 40
0.0
 40
0.0
 40
0.0
 40
1.0
 40
1.0
 40
1.0
 40
1.0
 10
524.0146616848511
 20
439.2789840673229
 30
0.0
 10
524.014662240092
 20
439.2789844697728
 30
0.0
 10
524.0223029066548
 20
439.2846564368499
 30
0.0
 10
524.0375831314997
 20
439.2960012891797
 30
0.0
  0
LINE
  5
14E
330
1F
100
AcDbEntity
  8
0
  6
Continuous
 62
     8
370
     0
100
AcDbLine
 10
387.2298613255
 20
481.9865686289
 30
0.0
 11
387.3668141727
 21
481.7540993385
 31
0.0
  0
LINE
  5
14F
330
1F
100
AcDbEntity
  8
0
  6
Continuous
 62
     8
370
     0
100
AcDbLine
 10
410.6704235141
 20
466.0408639751
 30
0.0
 11
414.1769163375
 21
465.4602351069
 31
0.0
  0
SPLINE
  5
150
330
1F
100
AcDbEntity
  8
0
  6
Continuous
 62
     8
370
     0
100
AcDbSpline
210
0.0
220
0.0
230
1.0
 70
     8
 71
     3
 72
    12
 73
     8
 74
     0
 42
0.000000001
 43
0.00000001
 40
0.0
 40
0.0
 40
0.0
 40
0.0
 40
0.2500000000000004
 40
0.2500000000000004
 40
0.5000000000000009
 40
0.5000000000000009
 40
1.0
 40
1.0
 40
1.0
 40
1.0
 10
556.3251478994981
 20
462.8306038491368
 30
0.0
 10
556.7357183474998
 20
462.9925552734043
 30
0.0
 10
557.0945232778181
 20
463.1362793976979
 30
0.0
 10
557.711194288643
 20
463.3853217981485
 30
0.0
 10
557.969250827
 20
463.4907367348233
 30
0.0
 10
558.5864864812198
 20
463.7442357470209
 30
0.0
 10
558.7928199576038
 20
463.8308659262412
 30
0.0
 10
558.7928975850547
 20
463.8316796005356
 30
0.0
  0
SPLINE
  5
151
330
1F
100
AcDbEntity
  8
0
  6
Continuous
 62
     8
370
     0
100
AcDbSpline
210
0.0
220
0.0
230
1.0
 70
     8
 71
     3
 72
    20
 73
    16
 74
     0
 42
0.000000001
 43
0.00000001
 40
0.0
 40
0.0
 40
0.0
 40
0.0
 40
0.125
 40
0.125
 40
0.25
 40
0.25
 40
0.375
 40
0.375
 40
0.5
 40
0.5
 40
0.625
 40
0.625
 40
0.75
 40
0.75
 40
1.0
 40
1.0
 40
1.0
 40
1.0
 10
552.2632768205515
 20
462.4107801653328
 30
0.0
 10
552.4899195827094
 20
462.410710514483
 30
0.0
 10
552.7141620192058
 20
462.4135909668498
 30
0.0
 10
553.1580852288175
 20
462.4248817949569
 30
0.0
 10
553.3787905830555
 20
462.4333844774088
 30
0.0
 10
553.8026996378276
 20
462.4551280286964
 30
0.0
 10
554.0074791427647
 20
462.4683838235437
 30
0.0
 10
554.4030529548196
 20
462.4993163403291
 30
0.0
 10
554.5953861091327
 20
462.5171763602162
 30
0.0
 10
554.9560843244911
 20
462.556217947109
 30
0.0
 10
555.1246308149922
 20
462.5773512520719
 30
0.0
 10
555.4385998691884
 20
462.6224995577825
 30
0.0
 10
555.584874964859
 20
462.6466800094318
 30
0.0
 10
555.9810901242721
 20
462.7222177508817
 30
0.0
 10
556.1848887057457
 20
462.7753550558691
 30
0.0
 10
556.3250963142789
 20
462.8306061050545
 30
0.0
  0
SPLINE
  5
152
330
1F
100
AcDbEntity
  8
0
  6
Continuous
 62
     8
370
     0
100
AcDbSpline
210
0.0
220
0.0
230
1.0
 70
     8
 71
     3
 72
    33
 73
    29
 74
     0
 42
0.000000001
 43
0.00000001
 40
0.0
 40
0.0
 40
0.0
 40
0.0
 40
0.0338890116132985
 40
0.0667719942692378
 40
0.0987215937370915
 40
0.1297987652433186
 40
0.1600548888344795
 40
0.1895333822179114
 40
0.218270944961489
 40
0.2462985274904876
 40
0.2736403701979664
 40
0.3001441338086849
 40
0.3257290853283786
 40
0.3504315681970251
 40
0.3742820858700748
 40
0.3973061228554798
 40
0.4195248081204953
 40
0.4409554574944076
 40
0.4616120225379846
 40
0.4815008731402386
 40
0.5006347171754183
 40
0.5809547260504563
 40
0.6576835191921964
 40
0.7313165466274403
 40
0.8025151442315133
 40
0.8712411055949321
 40
0.9369090984832764
 40
1.0
 40
1.0
 40
1.0
 40
1.0
 10
557.5246440280138
 20
461.1949308145005
 30
0.0
 10
557.5013768770933
 20
461.1951395451032
 30
0.0
 10
557.4555332837291
 20
461.1955508099335
 30
0.0
 10
557.3751456572187
 20
461.1962566608458
 30
0.0
 10
557.2886547058249
 20
461.1970000219407
 30
0.0
 10
557.1959579482298
 20
461.1977809286467
 30
0.0
 10
557.0980109404095
 20
461.1985926548059
 30
0.0
 10
556.9954126437106
 20
461.1994334003762
 30
0.0
 10
556.8887821638207
 20
461.2003006855244
 30
0.0
 10
556.7786757192208
 20
461.2011980170884
 30
0.0
 10
556.6658532963949
 20
461.2021090999361
 30
0.0
 10
556.551240187154
 20
461.2030829100342
 30
0.0
 10
556.4357605025593
 20
461.2041259719093
 30
0.0
 10
556.3200463190921
 20
461.2052133048402
 30
0.0
 10
556.2045142024037
 20
461.2063298016302
 30
0.0
 10
556.0895483686534
 20
461.2074595731274
 30
0.0
 10
555.9755052899707
 20
461.2085818224029
 30
0.0
 10
555.8627177747032
 20
461.2096935737491
 30
0.0
 10
555.7515046438331
 20
461.2107263388976
 30
0.0
 10
555.6421635801117
 20
461.2118403389489
 30
0.0
 10
555.4193385701702
 20
461.2139020710302
 30
0.0
 10
555.0749212346914
 20
461.2167767539426
 30
0.0
 10
554.5973279490171
 20
461.2207181632664
 30
0.0
 10
554.1181807787937
 20
461.2247094735462
 30
0.0
 10
553.6412493453297
 20
461.2289818370909
 30
0.0
 10
553.1716025059673
 20
461.2336157244387
 30
0.0
 10
552.7140485429445
 20
461.2380923614959
 30
0.0
 10
552.4136754171443
 20
461.2408646155939
 30
0.0
 10
552.2664948174217
 20
461.2422229995026
 30
0.0
  0
SPLINE
  5
153
330
1F
100
AcDbEntity
  8
0
  6
Continuous
 62
     8
370
     0
100
AcDbSpline
210
0.0
220
0.0
230
1.0
 70
     8
 71
     3
 72
    24
 73
    20
 74
     0
 42
0.000000001
 43
0.00000001
 40
0.0
 40
0.0
 40
0.0
 40
0.0
 40
0.0111282717701684
 40
0.0223412159328809
 40
0.0336458050171821
 40
0.1012601877997201
 40
0.1720858658674424
 40
0.2400522964322686
 40
0.3105341699327064
 40
0.4485931500565717
 40
0.5170453751220153
 40
0.5862207594200171
 40
0.7233429066594076
 40
0.8616680170580617
 40
0.9307555009773363
 40
0.948065337533748
 40
0.9653460969418
 40
0.9829783205819403
 40
1.0
 40
1.0
 40
1.0
 40
1.0
 10
548.2736271647805
 20
444.5810406384759
 30
0.0
 10
548.2911998008836
 20
444.5985208533346
 30
0.0
 10
548.3264787791293
 20
444.6336142858798
 30
0.0
 10
548.3855801725578
 20
444.6927819761205
 30
0.0
 10
548.5551287229372
 20
444.8634510919644
 30
0.0
 10
548.9043743313373
 20
445.2218332583616
 30
0.0
 10
549.5071093222822
 20
445.8720858699721
 30
0.0
 10
550.2011789872096
 20
446.6693728524357
 30
0.0
 10
551.1912517128444
 20
447.8861951388566
 30
0.0
 10
552.2414953084548
 20
449.325674458446
 30
0.0
 10
553.2732145715382
 20
450.9325629707413
 30
0.0
 10
554.2787899589422
 20
452.6431871078306
 30
0.0
 10
555.4659864511179
 20
454.973273263523
 30
0.0
 10
556.4778526510134
 20
457.485421896092
 30
0.0
 10
557.0156203028212
 20
459.1919140146668
 30
0.0
 10
557.2346658222084
 20
459.9885649091677
 30
0.0
 10
557.3389517520674
 20
460.391591136199
 30
0.0
 10
557.4366960900377
 20
460.793726038378
 30
0.0
 10
557.4959855574016
 20
461.0627731616282
 30
0.0
 10
557.525108000107
 20
461.1949266415011
 30
0.0
  0
SPLINE
  5
154
330
1F
100
AcDbEntity
  8
0
  6
Continuous
 62
     8
370
     0
100
AcDbSpline
210
0.0
220
0.0
230
1.0
 70
     8
 71
     3
 72
    45
 73
    41
 74
     0
 42
0.000000001
 43
0.00000001
 40
0.0
 40
0.0
 40
0.0
 40
0.0
 40
0.0132022153350183
 40
0.0264173203447938
 40
0.0396567864450764
 40
0.0529317494006662
 40
0.0662530169919124
 40
0.0796310754828717
 40
0.0930760950439701
 40
0.1065979342264109
 40
0.1202061435262612
 40
0.1803001478850514
 40
0.2410383774276302
 40
0.3027569881800112
 40
0.3628905127861559
 40
0.4266282897242472
 40
0.4863911756420558
 40
0.5187669372454393
 40
0.5499063651202227
 40
0.5830253898730594
 40
0.6160159269279246
 40
0.649977843562042
 40
0.6848564534397121
 40
0.7020440835104121
 40
0.7193221495210691
 40
0.7366886429315
 40
0.7534488733196043
 40
0.7744172461952885
 40
0.7957585073021957
 40
0.817680050805486
 40
0.8327282993408546
 40
0.8486770167647111
 40
0.8794683665691184
 40
0.9100154889640798
 40
0.9251891218132584
 40
0.9402893471583832
 40
0.9563897097038676
 40
0.9702597765223723
 40
0.9857061411611076
 40
0.9999999999999999
 40
0.9999999999999999
 40
0.9999999999999999
 40
0.9999999999999999
 10
527.6262398282615
 20
441.5922168119442
 30
0.0
 10
527.71555194228
 20
441.6406219394885
 30
0.0
 10
527.8942633681144
 20
441.7374794537936
 30
0.0
 10
528.1714523214755
 20
441.8842386958394
 30
0.0
 10
528.4554687864671
 20
442.0318069723331
 30
0.0
 10
528.7470472827736
 20
442.1800883037345
 30
0.0
 10
529.046091528729
 20
442.3288365218106
 30
0.0
 10
529.3527257472672
 20
442.4778554116566
 30
0.0
 10
529.6670092889578
 20
442.6269430219238
 30
0.0
 10
529.9890240918298
 20
442.775911893386
 30
0.0
 10
530.693473493841
 20
443.093440920487
 30
0.0
 10
531.8288895349575
 20
443.5697375542426
 30
0.0
 10
533.4639082151486
 20
444.1603804058103
 30
0.0
 10
535.1768894489853
 20
444.6778473808516
 30
0.0
 10
536.98688699626
 20
445.1037204805294
 30
0.0
 10
538.8313507990517
 20
445.4080343384813
 30
0.0
 10
540.4240109632408
 20
445.546512560235
 30
0.0
 10
541.6737186418424
 20
445.5886449713682
 30
0.0
 10
542.6387003231472
 20
445.5900066325643
 30
0.0
 10
543.5807778089883
 20
445.5607278892172
 30
0.0
 10
544.5007485261998
 20
445.5084239501875
 30
0.0
 10
545.3670478719685
 20
445.4456475567353
 30
0.0
 10
546.024159777995
 20
445.3958183198096
 30
0.0
 10
546.5025806253226
 20
445.3630044804377
 30
0.0
 10
546.8337571472932
 20
445.3418524250259
 30
0.0
 10
547.1351533993158
 20
445.3243702933184
 30
0.0
 10
547.429664456245
 20
445.3091719626189
 30
0.0
 10
547.6981430722931
 20
445.286379342725
 30
0.0
 10
547.9226896300869
 20
445.2451564167486
 30
0.0
 10
548.0691320790423
 20
445.1932240167143
 30
0.0
 10
548.1610966013893
 20
445.1347666448262
 30
0.0
 10
548.2351153858021
 20
445.0582069223829
 30
0.0
 10
548.2743103500676
 20
444.950059019452
 30
0.0
 10
548.2716435315764
 20
444.8397600638357
 30
0.0
 10
548.260150590716
 20
444.7583492396951
 30
0.0
 10
548.2503317391207
 20
444.7016442172289
 30
0.0
 10
548.2437050454175
 20
444.6543415918512
 30
0.0
 10
548.2429364942101
 20
444.6163111009133
 30
0.0
 10
548.2502604251879
 20
444.5900458425109
 30
0.0
 10
548.2660375232538
 20
444.5840120866553
 30
0.0
 10
548.2736203718765
 20
444.5811121200653
 30
0.0
  0
SPLINE
  5
155
330
1F
100
AcDbEntity
  8
0
  6
Continuous
 62
     8
370
     0
100
AcDbSpline
210
0.0
220
0.0
230
1.0
 70
     8
 71
     3
 72
    14
 73
    10
 74
     0
 42
0.000000001
 43
0.00000001
 40
0.0
 40
0.0
 40
0.0
 40
0.0
 40
0.25
 40
0.25
 40
0.5
 40
0.5
 40
0.75
 40
0.75
 40
1.0
 40
1.0
 40
1.0
 40
1.0
 10
557.5250508669661
 20
461.1949855523325
 30
0.0
 10
557.5675849526509
 20
461.3814699927839
 30
0.0
 10
557.5688262792884
 20
461.5797231299035
 30
0.0
 10
557.4884793352498
 20
461.9607847363556
 30
0.0
 10
557.4069455041235
 20
462.1433350151307
 30
0.0
 10
557.1771889344759
 20
462.4565800797938
 30
0.0
 10
557.0291218688845
 20
462.5870626246253
 30
0.0
 10
556.6957242647766
 20
462.7700912547959
 30
0.0
 10
556.5106196217889
 20
462.8225133279981
 30
0.0
 10
556.3253074892582
 20
462.8306893431118
 30
0.0
  0
SPLINE
  5
156
330
1F
100
AcDbEntity
  8
0
  6
Continuous
 62
     8
370
     0
100
AcDbSpline
210
0.0
220
0.0
230
1.0
 70
     8
 71
     3
 72
    12
 73
     8
 74
     0
 42
0.000000001
 43
0.00000001
 40
0.0
 40
0.0
 40
0.0
 40
0.0
 40
0.4999999999999996
 40
0.4999999999999996
 40
0.7499999999999998
 40
0.7499999999999998
 40
1.0
 40
1.0
 40
1.0
 40
1.0
 10
560.0536383293917
 20
462.2334389845153
 30
0.0
 10
560.0534607196157
 20
462.2326031377109
 30
0.0
 10
559.841940220095
 20
462.1432115505893
 30
0.0
 10
559.2094016340071
 20
461.8808975370463
 30
0.0
 10
558.9449423236906
 20
461.7717266179774
 30
0.0
 10
558.3131108041002
 20
461.513248748114
 30
0.0
 10
557.9455384211063
 20
461.3638434066974
 30
0.0
 10
557.5249229079438
 20
461.1948347102904
 30
0.0
  0
LINE
  5
157
330
1F
100
AcDbEntity
  8
0
  6
Continuous
 62
     8
370
     0
100
AcDbLine
 10
548.2736468379
 20
444.581049814
 30
0.0
 11
548.2736319368
 21
444.5810516767
 31
0.0
  0
SPLINE
  5
158
330
1F
100
AcDbEntity
  8
0
  6
Continuous
 62
     8
370
     0
100
AcDbSpline
210
0.0
220
0.0
230
1.0
 70
     8
 71
     3
 72
    10
 73
     6
 74
     0
 42
0.000000001
 43
0.00000001
 40
0.0
 40
0.0
 40
0.0
 40
0.0
 40
0.5
 40
0.5
 40
1.0
 40
1.0
 40
1.0
 40
1.0
 10
547.8832396664608
 20
444.4971701020633
 30
0.0
 10
547.9484412062874
 20
444.4839343241472
 30
0.0
 10
548.0192483106883
 20
444.4837517576269
 30
0.0
 10
548.1550408031568
 20
444.5129506798307
 30
0.0
 10
548.2195534269795
 20
444.5422305119305
 30
0.0
 10
548.2736203718765
 20
444.5811121200652
 30
0.0
  0
SPLINE
  5
159
330
1F
100
AcDbEntity
  8
0
  6
Continuous
 62
     8
370
     0
100
AcDbSpline
210
0.0
220
0.0
230
1.0
 70
     8
 71
     3
 72
     8
 73
     4
 74
     0
 42
0.000000001
 43
0.00000001
 40
0.0
 40
0.0
 40
0.0
 40
0.0
 40
1.0
 40
1.0
 40
1.0
 40
1.0
 10
527.6262398282616
 20
441.5922168119442
 30
0.0
 10
527.7074336503781
 20
441.5591188666595
 30
0.0
 10
527.7921594732602
 20
441.5593647481485
 30
0.0
 10
527.8552561046699
 20
441.5928814365078
 30
0.0
  0
ARC
  5
15A
330
1F
100
AcDbEntity
  8
0
  6
Continuous
 62
     8
370
     0
100
AcDbCircle
 10
524.0328488432
 20
439.7940027928
 30
0.0
 40
0.4980242969691155
100
AcDbArc
 50
270.5441609807
 51
305.9270301852
  0
LWPOLYLINE
  5
15B
330
1F
100
AcDbEntity
  8
0
  6
Continuous
 62
     8
370
     0
100
AcDbPolyline
 90
        6
 70
   128
 43
0.0
 10
390.1551231806
 20
481.4407037042
 10
390.1458695595
 20
481.4010517142
 10
390.072049207
 20
481.0846777103
 10
389.9254404073
 20
480.4563702486
 10
389.7081069712
 20
479.5249489538
 10
389.4986972277
 20
478.6274762295
  0
LWPOLYLINE
  5
15C
330
1F
100
AcDbEntity
  8
0
  6
Continuous
 62
     8
370
     0
100
AcDbPolyline
 90
        5
 70
   128
 43
0.0
 10
379.9642339413
 20
437.7659329615
 10
379.9487683986
 20
437.6996525965
 10
379.7664787684
 20
436.9184163801
 10
379.6560704772
 20
436.4452449075
 10
379.6190951084
 20
436.2867785088
  0
SPLINE
  5
15D
330
1F
100
AcDbEntity
  8
0
  6
Continuous
 62
     8
370
     0
100
AcDbSpline
210
0.0
220
0.0
230
1.0
 70
     8
 71
     3
 72
    10
 73
     6
 74
     0
 42
0.000000001
 43
0.00000001
 40
0.0
 40
0.0
 40
0.0
 40
0.0
 40
0.0262342535782124
 40
0.6697692631139328
 40
1.0
 40
1.0
 40
1.0
 40
1.0
 10
398.8369569246574
 20
470.3235713235536
 30
0.0
 10
398.8363336437306
 20
470.3312982483566
 30
0.0
 10
398.8204210733273
 20
470.5285692214366
 30
0.0
 10
398.8036672900393
 20
470.6915352661887
 30
0.0
 10
398.7961482007709
 20
470.7326394197089
 30
0.0
 10
398.7935982708736
 20
470.7465789682665
 30
0.0
  0
SPLINE
  5
15E
330
1F
100
AcDbEntity
  8
0
  6
Continuous
 62
     8
370
     0
100
AcDbSpline
210
0.0
220
0.0
230
1.0
 70
     8
 71
     3
 72
    22
 73
    18
 74
     0
 42
0.000000001
 43
0.00000001
 40
0.0
 40
0.0
 40
0.0
 40
0.0
 40
0.0000029501048098
 40
0.0844884453254019
 40
0.1700448603115169
 40
0.2354740728185104
 40
0.3013765924792616
 40
0.3687681766047943
 40
0.4366667444468061
 40
0.5022447643679596
 40
0.5682758300850164
 40
0.6357468204473797
 40
0.7037189686812634
 40
0.7790199131470097
 40
0.8550018662492868
 40
0.9332102553537681
 40
1.0
 40
1.0
 40
1.0
 40
1.0
 10
407.1898922388359
 20
476.6582654259601
 30
0.0
 10
407.189892238831
 20
476.6582654259724
 30
0.0
 10
407.1898920991416
 20
476.6582657780179
 30
0.0
 10
407.2140800533491
 20
476.5973968106911
 30
0.0
 10
407.312252081154
 20
476.3480695494236
 30
0.0
 10
407.4531361990599
 20
475.9877230559942
 30
0.0
 10
407.6210457295261
 20
475.5558284778147
 30
0.0
 10
407.8295219134403
 20
475.01662345222
 30
0.0
 10
408.0735218952135
 20
474.3804743705102
 30
0.0
 10
408.3479482837365
 20
473.6580355771008
 30
0.0
 10
408.6505424117674
 20
472.8527812051727
 30
0.0
 10
408.9835073938827
 20
471.955844887543
 30
0.0
 10
409.3566785453566
 20
470.9370313084729
 30
0.0
 10
409.7678758247171
 20
469.7978294381209
 30
0.0
 10
410.2187908069994
 20
468.5266626232269
 30
0.0
 10
410.6673292351764
 20
467.241140416838
 30
0.0
 10
410.9692996427669
 20
466.3533001880473
 30
0.0
 10
411.1083947186275
 20
465.9443389094868
 30
0.0
  0
SPLINE
  5
15F
330
1F
100
AcDbEntity
  8
0
  6
Continuous
 62
     8
370
     0
100
AcDbSpline
210
0.0
220
0.0
230
1.0
 70
     8
 71
     3
 72
    21
 73
    17
 74
     0
 42
0.000000001
 43
0.00000001
 40
0.0
 40
0.0
 40
0.0
 40
0.0
 40
0.0414265411131942
 40
0.1189472077505112
 40
0.1987829365195554
 40
0.2794044042092247
 40
0.3463861569656722
 40
0.4138336490651001
 40
0.4827475725633786
 40
0.5521637362586685
 40
0.6192189016586255
 40
0.6867427149454502
 40
0.7557696318083121
 40
0.8253223500711632
 40
0.9121221000360097
 40
1.0
 40
1.0
 40
1.0
 40
1.0
 10
409.4978697662158
 20
466.2992850347856
 30
0.0
 10
409.4054532408678
 20
466.5665696090193
 30
0.0
 10
409.140099500373
 20
467.3340185179934
 30
0.0
 10
408.7066841573268
 20
468.5536767173492
 30
0.0
 10
408.2035564104385
 20
469.9488663620046
 30
0.0
 10
407.7459951254959
 20
471.1956734436869
 30
0.0
 10
407.3387030293142
 20
472.291917652857
 30
0.0
 10
406.9794164272
 20
473.2491575854098
 30
0.0
 10
406.6458529612683
 20
474.1301548889347
 30
0.0
 10
406.3463074511166
 20
474.9155082233847
 30
0.0
 10
406.0844829150791
 20
475.5981096382679
 30
0.0
 10
405.8612198702566
 20
476.1780864736668
 30
0.0
 10
405.676914959314
 20
476.6563189557318
 30
0.0
 10
405.524493396028
 20
477.0513569529319
 30
0.0
 10
405.4144909807751
 20
477.3360854489842
 30
0.0
 10
405.3996220161995
 20
477.3745495890963
 30
0.0
 10
405.3921416466041
 20
477.3939003638425
 30
0.0
  0
SPLINE
  5
160
330
1F
100
AcDbEntity
  8
0
  6
Continuous
 62
     8
370
     0
100
AcDbSpline
210
0.0
220
0.0
230
1.0
 70
     8
 71
     3
 72
    34
 73
    30
 74
     0
 42
0.000000001
 43
0.00000001
 40
0.0
 40
0.0
 40
0.0
 40
0.0
 40
0.5000000000000051
 40
0.5000000000000051
 40
0.5625000000000059
 40
0.5625000000000059
 40
0.5937500000000061
 40
0.5937500000000061
 40
0.6250000000000062
 40
0.6250000000000062
 40
0.6875000000000062
 40
0.6875000000000062
 40
0.7500000000000062
 40
0.7500000000000062
 40
0.8125000000000062
 40
0.8125000000000062
 40
0.8437500000000052
 40
0.8437500000000052
 40
0.8750000000000041
 40
0.8750000000000041
 40
0.9062500000000031
 40
0.9062500000000031
 40
0.9375000000000021
 40
0.9375000000000021
 40
0.9687500000000011
 40
0.9687500000000011
 40
0.9843750000000007
 40
0.9843750000000007
 40
1.0
 40
1.0
 40
1.0
 40
1.0
 10
425.0198948699864
 20
369.6830726735292
 30
0.0
 10
425.0201550797825
 20
369.683074035997
 30
0.0
 10
425.0177516356794
 20
369.8242476348561
 30
0.0
 10
424.9753068279992
 20
370.1444947530151
 30
0.0
 10
424.9700080382409
 20
370.1823106599935
 30
0.0
 10
424.9610581845533
 20
370.2423840006681
 30
0.0
 10
424.9586327035819
 20
370.2631130802137
 30
0.0
 10
424.9543807721229
 20
370.3351907411575
 30
0.0
 10
424.9524236930825
 20
370.3828613108304
 30
0.0
 10
424.9468206974583
 20
370.5608377394085
 30
0.0
 10
424.9435437234112
 20
370.7217401769082
 30
0.0
 10
424.9365909735343
 20
371.12386741828
 30
0.0
 10
424.9328732462288
 20
371.3684285351229
 30
0.0
 10
424.9244157918696
 20
371.9205396982724
 30
0.0
 10
424.9196728941
 20
372.229570914218
 30
0.0
 10
424.9112529545175
 20
372.7446817200257
 30
0.0
 10
424.9082303877833
 20
372.9242677507327
 30
0.0
 10
424.9017906144491
 20
373.2914440203624
 30
0.0
 10
424.8983556931605
 20
373.4800314418242
 30
0.0
 10
424.8910191555339
 20
373.8669843991141
 30
0.0
 10
424.8871194332771
 20
374.0653499756242
 30
0.0
 10
424.8788227922843
 20
374.4720728837449
 30
0.0
 10
424.8744108499606
 20
374.681010767978
 30
0.0
 10
424.8652149212319
 20
375.1010129506161
 30
0.0
 10
424.8604050254585
 20
375.3129926220121
 30
0.0
 10
424.8529336371616
 20
375.6339874309441
 30
0.0
 10
424.8504034081873
 20
375.7415108624377
 30
0.0
 10
424.8453059830144
 20
375.9575155001101
 30
0.0
 10
424.8427108312192
 20
376.0671896766506
 30
0.0
 10
424.8402010376311
 20
376.1738167301578
 30
0.0
  0
SPLINE
  5
161
330
1F
100
AcDbEntity
  8
0
  6
Continuous
 62
     8
370
     0
100
AcDbSpline
210
0.0
220
0.0
230
1.0
 70
     8
 71
     3
 72
    16
 73
    12
 74
     0
 42
0.000000001
 43
0.00000001
 40
0.0
 40
0.0
 40
0.0
 40
0.0
 40
0.004049714032605
 40
0.0202489663491828
 40
0.0850464486265229
 40
0.2146471008414116
 40
0.4739075336266066
 40
0.603508448310858
 40
0.8627690243373246
 40
0.9923696312130266
 40
1.0
 40
1.0
 40
1.0
 40
1.0
 10
424.8401984636589
 20
376.173814146916
 30
0.0
 10
424.8381981407912
 20
376.2579839549016
 30
0.0
 10
424.8281963307603
 20
376.6788412292169
 30
0.0
 10
424.7787062448722
 20
378.4462695114514
 30
0.0
 10
424.6274081371538
 20
382.8220792765731
 30
0.0
 10
424.1270898150858
 20
392.2412223512541
 30
0.0
 10
423.1588813852792
 20
402.9813957301574
 30
0.0
 10
421.4678733371063
 20
416.3510036399911
 30
0.0
 10
419.6696889105949
 20
426.98172608994
 30
0.0
 10
418.1087962410111
 20
435.0785063169345
 30
0.0
 10
417.4600234528951
 20
437.8568449098841
 30
0.0
 10
417.4239501421256
 20
438.011327146689
 30
0.0
  0
LWPOLYLINE
  5
162
330
1F
100
AcDbEntity
  8
0
  6
Continuous
 62
     8
370
     0
100
AcDbPolyline
 90
        3
 70
   128
 43
0.0
 10
409.0224035148
 20
431.9440027169
 10
409.0222805803
 20
431.946884229
 10
409.022675461
 20
431.9498719118
  0
SPLINE
  5
163
330
1F
100
AcDbEntity
  8
0
  6
Continuous
 62
     7
370
    15
100
AcDbSpline
210
0.0
220
0.0
230
1.0
 70
     8
 71
     3
 72
     9
 73
     5
 74
     0
 42
0.000000001
 43
0.00000001
 40
0.0
 40
0.0
 40
0.0
 40
0.0
 40
0.4579168811670174
 40
0.9999999999999999
 40
0.9999999999999999
 40
0.9999999999999999
 40
0.9999999999999999
 10
276.3154321189804
 20
298.5688678622265
 30
0.0
 10
279.5508823471832
 20
298.6982718968477
 30
0.0
 10
286.616466433005
 20
298.9808647427183
 30
0.0
 10
293.6294249136666
 20
299.8929758079235
 30
0.0
 10
297.4310313191099
 20
300.3874158188719
 30
0.0
  0
SPLINE
  5
164
330
1F
100
AcDbEntity
  8
0
  6
Continuous
 62
     7
370
    15
100
AcDbSpline
210
0.0
220
0.0
230
1.0
 70
     8
 71
     3
 72
    11
 73
     7
 74
     0
 42
0.000000001
 43
0.00000001
 40
0.0
 40
0.0
 40
0.0
 40
0.0
 40
0.2453420394598839
 40
0.5916720884917066
 40
0.8115308258670886
 40
1.0
 40
1.0
 40
1.0
 40
1.0
 10
166.9706311847848
 20
298.0549594089408
 30
0.0
 10
172.2288901189526
 20
298.0409918165418
 30
0.0
 10
184.9098193728971
 20
298.0073072731831
 30
0.0
 10
202.3029173911183
 20
298.0014967625175
 30
0.0
 10
218.4770635547077
 20
298.0216108071245
 30
0.0
 10
227.2284960496081
 20
298.0439060090197
 30
0.0
 10
231.2678360219878
 20
298.0541966557522
 30
0.0
  0
SPLINE
  5
165
330
1F
100
AcDbEntity
  8
0
  6
Continuous
 62
     7
370
    15
100
AcDbSpline
210
0.0
220
0.0
230
1.0
 70
     8
 71
     3
 72
     9
 73
     5
 74
     0
 42
0.000000001
 43
0.00000001
 40
0.0
 40
0.0
 40
0.0
 40
0.0
 40
0.5543604013028747
 40
1.0
 40
1.0
 40
1.0
 40
1.0
 10
100.1156625177545
 20
300.3870661072452
 30
0.0
 10
103.8818503399703
 20
299.895988971659
 30
0.0
 10
110.6756036696892
 20
299.0101444300357
 30
0.0
 10
117.519893344859
 20
298.7230579970634
 30
0.0
 10
120.5699798490686
 20
298.5951209142823
 30
0.0
  0
ARC
  5
166
330
1F
100
AcDbEntity
  8
0
  6
Continuous
 62
     7
370
    15
100
AcDbCircle
 10
120.5731435982
 20
298.738284436
 30
0.0
 40
0.200000000000012
100
AcDbArc
 50
269.6952438021
 51
285.5976230516
  0
ARC
  5
167
330
1F
100
AcDbEntity
  8
0
  6
Continuous
 62
     7
370
    15
100
AcDbCircle
 10
120.5731435982
 20
298.738284436
 30
0.0
 40
0.1999999999999748
100
AcDbArc
 50
285.5976230516
 51
314.6168281901
  0
LINE
  5
168
330
1F
100
AcDbEntity
  8
0
  6
Continuous
 62
     7
370
    15
100
AcDbLine
 10
121.2731507446
 20
298.5422525257
 30
0.0
 11
121.2731507446
 21
285.3342832699
 31
0.0
  0
LINE
  5
169
330
1F
100
AcDbEntity
  8
0
  6
Continuous
 62
     7
370
    15
100
AcDbLine
 10
166.2731450822
 20
285.3342832699
 30
0.0
 11
166.2731450822
 21
298.1152169108
 31
0.0
  0
SPLINE
  5
16A
330
1F
100
AcDbEntity
  8
0
  6
Continuous
 62
     7
370
    15
100
AcDbSpline
210
0.0
220
0.0
230
1.0
 70
     8
 71
     3
 72
    36
 73
    32
 74
     0
 42
0.000000001
 43
0.00000001
 40
0.0
 40
0.0
 40
0.0
 40
0.0
 40
0.0890801595586354
 40
0.1833576844044833
 40
0.2712282237554146
 40
0.3526908648276383
 40
0.427744948950924
 40
0.495220127878221
 40
0.5565120648812111
 40
0.6116201047772685
 40
0.6606651759991802
 40
0.7027095857599293
 40
0.7434468321813982
 40
0.7798212576700793
 40
0.810006427014855
 40
0.8353940083086074
 40
0.8528260461031516
 40
0.8669922352072361
 40
0.8782434090719294
 40
0.8819819582427574
 40
0.8899322500008298
 40
0.9024372706858311
 40
0.91692776010411
 40
0.9346468666483845
 40
0.9565248028034464
 40
0.9629979317195155
 40
0.9697853088804588
 40
0.9768792692975756
 40
0.9841738045090505
 40
0.9910038662197401
 40
1.0
 40
1.0
 40
1.0
 40
1.0
 10
163.5132414128465
 20
107.8195662871022
 30
0.0
 10
163.5301575975382
 20
113.0929230829942
 30
0.0
 10
163.564976938561
 20
123.9473096930333
 30
0.0
 10
163.6160926006545
 20
140.0034506160591
 30
0.0
 10
163.6654299272158
 20
155.6086527349127
 30
0.0
 10
163.7109152664032
 20
170.0758683275402
 30
0.0
 10
163.7519581155384
 20
183.3357203751973
 30
0.0
 10
163.7900964180228
 20
195.4015040284901
 30
0.0
 10
163.8207775023627
 20
206.2865217000954
 30
0.0
 10
163.8592576247633
 20
216.0804934214897
 30
0.0
 10
163.8585646509693
 20
224.7350815992214
 30
0.0
 10
163.9888975857395
 20
232.5387273085335
 30
0.0
 10
164.317237402426
 20
239.5856215978433
 30
0.0
 10
164.7097358627478
 20
245.9252510057495
 30
0.0
 10
165.0897294385587
 20
251.3550316465675
 30
0.0
 10
165.4089955364977
 20
255.6648189345751
 30
0.0
 10
165.6578283356434
 20
259.0288447041527
 30
0.0
 10
165.8382738994981
 20
261.5586462488888
 30
0.0
 10
165.953840635762
 20
263.2803099251142
 30
0.0
 10
166.0390124248182
 20
264.6348973985446
 30
0.0
 10
166.1227441044702
 20
266.0645704108185
 30
0.0
 10
166.2253341251235
 20
268.1304652260973
 30
0.0
 10
166.2972146746519
 20
270.7764637003029
 30
0.0
 10
166.2814874554758
 20
273.9776835081186
 30
0.0
 10
166.2821607334596
 20
276.7042552795543
 30
0.0
 10
166.2795220336327
 20
278.78389769953
 30
0.0
 10
166.2783262540831
 20
279.9885555050794
 30
0.0
 10
166.2775660554861
 20
281.2418530632108
 30
0.0
 10
166.2741221492599
 20
282.4975860629669
 30
0.0
 10
166.2784164752625
 20
283.8667228454246
 30
0.0
 10
166.2749747901576
 20
284.8024085306579
 30
0.0
 10
166.2730184223336
 20
285.3342832699437
 30
0.0
  0
SPLINE
  5
16B
330
1F
100
AcDbEntity
  8
0
  6
Continuous
 62
     7
370
    15
100
AcDbSpline
210
0.0
220
0.0
230
1.0
 70
     8
 71
     3
 72
    37
 73
    33
 74
     0
 42
0.000000001
 43
0.00000001
 40
0.0
 40
0.0
 40
0.0
 40
0.0
 40
0.0112308660417604
 40
0.0206920519278398
 40
0.0301136476263516
 40
0.0389201903282861
 40
0.0470987703030613
 40
0.0546578179268598
 40
0.0616063111705121
 40
0.0679490894378599
 40
0.0820726061033571
 40
0.093276139262124
 40
0.1017041476201594
 40
0.1182949308049105
 40
0.1331279751522657
 40
0.1441915912584029
 40
0.1565411575155508
 40
0.1745518428250376
 40
0.1982762011623529
 40
0.2279886742579902
 40
0.2628119775790788
 40
0.3005472991279154
 40
0.3440468988950411
 40
0.390185062104868
 40
0.4414687670484614
 40
0.4979505871457124
 40
0.5596297299256245
 40
0.6265054453198446
 40
0.7119931743843284
 40
0.8046962050425033
 40
0.9046126155098313
 40
1.0
 40
1.0
 40
1.0
 40
1.0
 10
121.2732699539346
 20
285.3342832699437
 30
0.0
 10
121.272138050627
 20
284.6698082651874
 30
0.0
 10
121.270052601301
 20
283.4455615105699
 30
0.0
 10
121.2701743298428
 20
281.6628907027705
 30
0.0
 10
121.2676518958187
 20
280.0242587783894
 30
0.0
 10
121.2663599002209
 20
278.4614183474729
 30
0.0
 10
121.2645012389758
 20
277.0088606151177
 30
0.0
 10
121.2628315563651
 20
275.666279768403
 30
0.0
 10
121.2612594882357
 20
274.4323689882557
 30
0.0
 10
121.2607751556833
 20
272.8100225125276
 30
0.0
 10
121.2535624332954
 20
270.9359550725036
 30
0.0
 10
121.2956364300683
 20
268.9388912947994
 30
0.0
 10
121.3829821854751
 20
266.7981806398088
 30
0.0
 10
121.5146957313257
 20
264.4438195035175
 30
0.0
 10
121.6820309625999
 20
261.9352056383331
 30
0.0
 10
121.8419348517571
 20
259.6773656950101
 30
0.0
 10
122.0209510329108
 20
257.2321141604948
 30
0.0
 10
122.2583370950875
 20
254.03973577312
 30
0.0
 10
122.5663478547966
 20
249.8220357107998
 30
0.0
 10
122.9224162399094
 20
244.6100646642869
 30
0.0
 10
123.2826900026582
 20
238.5673311221245
 30
0.0
 10
123.5828316508821
 20
231.7037105113323
 30
0.0
 10
123.6853190968214
 20
224.1644006113278
 30
0.0
 10
123.6896423208006
 20
215.8233872500011
 30
0.0
 10
123.7238131621478
 20
206.713873274811
 30
0.0
 10
123.7525661167826
 20
196.6845128132723
 30
0.0
 10
123.7869710722029
 20
185.7322537376268
 30
0.0
 10
123.8261458825569
 20
173.0631426569154
 30
0.0
 10
123.8716206397992
 20
158.5577330894275
 30
0.0
 10
123.923578876418
 20
142.0966530749247
 30
0.0
 10
123.9777924809017
 20
125.0496146844905
 30
0.0
 10
124.0148606979413
 20
113.4896418447426
 30
0.0
 10
124.0329650070352
 20
107.843691267075
 30
0.0
  0
LINE
  5
16C
330
1F
100
AcDbEntity
  8
0
  6
Continuous
 62
     7
370
    15
100
AcDbLine
 10
276.3231434699
 20
283.3342829421
 30
0.0
 11
276.3231434699
 21
298.510864161
 31
0.0
  0
LINE
  5
16D
330
1F
100
AcDbEntity
  8
0
  6
Continuous
 62
     7
370
    15
100
AcDbLine
 10
231.2231437143
 20
298.0574572161
 30
0.0
 11
231.2231437143
 21
283.3342829421
 31
0.0
  0
ARC
  5
16E
330
1F
100
AcDbEntity
  8
0
  6
Continuous
 62
     7
370
    15
100
AcDbCircle
 10
275.6231435921
 20
283.3342831507
 30
0.0
 40
0.7000000000000247
100
AcDbArc
 50
311.0
 51
0.0
  0
ARC
  5
16F
330
1F
100
AcDbEntity
  8
0
  6
Continuous
 62
     7
370
    15
100
AcDbCircle
 10
231.9231435921
 20
283.3342831507
 30
0.0
 40
0.7000000000000247
100
AcDbArc
 50
180.0
 51
229.0
  0
LINE
  5
170
330
1F
100
AcDbEntity
  8
0
  6
Continuous
 62
     7
370
    15
100
AcDbLine
 10
231.4639017757
 20
282.8059864864
 30
0.0
 11
241.2705059003
 21
274.2812351957
 31
0.0
  0
LINE
  5
171
330
1F
100
AcDbEntity
  8
0
  6
Continuous
 62
     7
370
    15
100
AcDbLine
 10
266.2757812839
 20
274.2812351957
 30
0.0
 11
276.0823854085
 21
282.8059864864
 31
0.0
  0
ARC
  5
172
330
1F
100
AcDbEntity
  8
0
  6
Continuous
 62
     7
370
    15
100
AcDbCircle
 10
253.7731435921
 20
283.4342831507
 30
0.0
 40
24.99999999999999
100
AcDbArc
 50
202.5990391479
 51
247.6674337614
  0
ARC
  5
173
330
1F
100
AcDbEntity
  8
0
  6
Continuous
 62
     7
370
    15
100
AcDbCircle
 10
253.7731435921
 20
283.4342831507
 30
0.0
 40
25.00000000000005
100
AcDbArc
 50
292.3425113477
 51
337.4009608521
  0
SPLINE
  5
174
330
1F
100
AcDbEntity
  8
0
  6
Continuous
 62
     7
370
    15
100
AcDbSpline
210
0.0
220
0.0
230
1.0
 70
     8
 71
     3
 72
    10
 73
     6
 74
     0
 42
0.000000001
 43
0.00000001
 40
0.0
 40
0.0
 40
0.0
 40
0.0
 40
0.3439713069322551
 40
0.6981813085724161
 40
1.0
 40
1.0
 40
1.0
 40
1.0
 10
124.0810212518853
 20
108.1295551434178
 30
0.0
 10
124.0721006998834
 20
107.5499038844455
 30
0.0
 10
124.0539940655672
 20
106.3733473916546
 30
0.0
 10
124.4400136937229
 20
104.892633251101
 30
0.0
 10
124.876254321397
 20
104.2407705708071
 30
0.0
 10
125.0769552614374
 20
103.9408685341496
 30
0.0
  0
LINE
  5
175
330
1F
100
AcDbEntity
  8
0
  6
Continuous
 62
     7
370
    15
100
AcDbLine
 10
162.4693331148
 20
103.9408685341
 30
0.0
 11
162.7016869213
 21
104.3398471251
 31
0.0
  0
SPLINE
  5
176
330
1F
100
AcDbEntity
  8
0
  6
Continuous
 62
     7
370
    15
100
AcDbSpline
210
0.0
220
0.0
230
1.0
 70
     8
 71
     3
 72
     9
 73
     5
 74
     0
 42
0.000000001
 43
0.00000001
 40
0.0
 40
0.0
 40
0.0
 40
0.0
 40
0.6027607572520951
 40
1.0
 40
1.0
 40
1.0
 40
1.0
 10
163.2167753603143
 20
105.6251169815678
 30
0.0
 10
163.3035461923421
 20
105.8792177002476
 30
0.0
 10
163.4475018679294
 20
106.3007791831786
 30
0.0
 10
163.4404333593598
 20
106.8264652400091
 30
0.0
 10
163.4376254703683
 20
107.0352883711476
 30
0.0
  0
SPLINE
  5
177
330
1F
100
AcDbEntity
  8
0
  6
Continuous
 62
     7
370
    15
100
AcDbSpline
210
0.0
220
0.0
230
1.0
 70
     8
 71
     3
 72
    11
 73
     7
 74
     0
 42
0.000000001
 43
0.00000001
 40
0.0
 40
0.0
 40
0.0
 40
0.0
 40
0.2182820378083558
 40
0.4781018873801319
 40
0.7331293462201244
 40
1.0
 40
1.0
 40
1.0
 40
1.0
 10
240.6782452788038
 20
254.0196867361684
 30
0.0
 10
240.176532755569
 20
253.6949389240386
 30
0.0
 10
239.0776347120599
 20
252.9836456657353
 30
0.0
 10
237.7785695272902
 20
251.6223833111755
 30
0.0
 10
236.8612855297349
 20
250.1449590287419
 30
0.0
 10
236.687715513137
 20
249.1313287842951
 30
0.0
 10
236.5989611323756
 20
248.6130127385278
 30
0.0
  0
SPLINE
  5
178
330
1F
100
AcDbEntity
  8
0
  6
Continuous
 62
     7
370
    15
100
AcDbSpline
210
0.0
220
0.0
230
1.0
 70
     8
 71
     3
 72
    11
 73
     7
 74
     0
 42
0.000000001
 43
0.00000001
 40
0.0
 40
0.0
 40
0.0
 40
0.0
 40
0.2668706537798756
 40
0.5218981126198681
 40
0.7817179621916442
 40
1.0
 40
1.0
 40
1.0
 40
1.0
 10
270.9473260517997
 20
248.6130127385278
 30
0.0
 10
270.8585716710384
 20
249.1313287842951
 30
0.0
 10
270.6850016544405
 20
250.1449590287419
 30
0.0
 10
269.7677176568852
 20
251.6223833111755
 30
0.0
 10
268.4686524721155
 20
252.9836456657352
 30
0.0
 10
267.3697544286064
 20
253.6949389240386
 30
0.0
 10
266.8680419053716
 20
254.0196867361684
 30
0.0
  0
SPLINE
  5
179
330
1F
100
AcDbEntity
  8
0
  6
Continuous
 62
     7
370
    15
100
AcDbSpline
210
0.0
220
0.0
230
1.0
 70
     8
 71
     3
 72
    11
 73
     7
 74
     0
 42
0.000000001
 43
0.00000001
 40
0.0
 40
0.0
 40
0.0
 40
0.0
 40
0.1876730487273644
 40
0.4520787436817301
 40
0.7264249259786748
 40
1.0
 40
1.0
 40
1.0
 40
1.0
 10
244.9985072787685
 20
258.291868276896
 30
0.0
 10
244.8146781935193
 20
257.8894216173656
 30
0.0
 10
244.3718590328824
 20
256.9199825771138
 30
0.0
 10
243.2455128492441
 20
255.779148079153
 30
0.0
 10
241.9253906038279
 20
254.7561438403339
 30
0.0
 10
241.0497364686329
 20
254.2571276513958
 30
0.0
 10
240.6125255700034
 20
254.0079706981797
 30
0.0
  0
SPLINE
  5
17A
330
1F
100
AcDbEntity
  8
0
  6
Continuous
 62
     7
370
    15
100
AcDbSpline
210
0.0
220
0.0
230
1.0
 70
     8
 71
     3
 72
    11
 73
     7
 74
     0
 42
0.000000001
 43
0.00000001
 40
0.0
 40
0.0
 40
0.0
 40
0.0
 40
0.2736937416471241
 40
0.5481589260505897
 40
0.8126793112638548
 40
1.0
 40
1.0
 40
1.0
 40
1.0
 10
266.9337616141719
 20
254.0079706981797
 30
0.0
 10
266.4965485696334
 20
254.2571254899348
 30
0.0
 10
265.6208901365717
 20
254.7561373498586
 30
0.0
 10
264.3007998042936
 20
255.779173733098
 30
0.0
 10
263.1750200350102
 20
256.9192206757302
 30
0.0
 10
262.7325797743117
 20
257.8876843526294
 30
0.0
 10
262.5491564001722
 20
258.2891823425908
 30
0.0
  0
SPLINE
  5
17B
330
1F
100
AcDbEntity
  8
0
  6
Continuous
 62
     7
370
    15
100
AcDbSpline
210
0.0
220
0.0
230
1.0
 70
     8
 71
     3
 72
    12
 73
     8
 74
     0
 42
0.000000001
 43
0.00000001
 40
0.0
 40
0.0
 40
0.0
 40
0.0
 40
0.0369368360175136
 40
0.2794960140385819
 40
0.5858364340364668
 40
0.8553174161317855
 40
1.0
 40
1.0
 40
1.0
 40
1.0
 10
262.450068334846
 20
258.8195332959313
 30
0.0
 10
262.4478665542753
 20
258.8284467700071
 30
0.0
 10
262.4312059801807
 20
258.8958938159385
 30
0.0
 10
262.4147752699834
 20
259.3063780938692
 30
0.0
 10
262.6527206867361
 20
259.8760770217727
 30
0.0
 10
263.0732316787931
 20
260.2266081352337
 30
0.0
 10
263.2205457684855
 20
260.2816735183448
 30
0.0
 10
263.2720080043954
 20
260.3009098842759
 30
0.0
  0
SPLINE
  5
17C
330
1F
100
AcDbEntity
  8
0
  6
Continuous
 62
     7
370
    15
100
AcDbSpline
210
0.0
220
0.0
230
1.0
 70
     8
 71
     3
 72
    12
 73
     8
 74
     0
 42
0.000000001
 43
0.00000001
 40
0.0
 40
0.0
 40
0.0
 40
0.0
 40
0.0119157136341595
 40
0.2496101517609684
 40
0.5157671427530189
 40
0.7837287583449757
 40
1.0
 40
1.0
 40
1.0
 40
1.0
 10
244.2720952283425
 20
260.3092470839638
 30
0.0
 10
244.2749932318164
 20
260.3083234941217
 30
0.0
 10
244.3357005557028
 20
260.2889761509625
 30
0.0
 10
244.6628604747631
 20
260.1097409773702
 30
0.0
 10
245.0252525863769
 20
259.6447415721386
 30
0.0
 10
245.1411294422902
 20
259.0552477965764
 30
0.0
 10
245.1032331873884
 20
258.8514495459407
 30
0.0
 10
245.0863077144903
 20
258.7604278400559
 30
0.0
  0
SPLINE
  5
17D
330
1F
100
AcDbEntity
  8
0
  6
Continuous
 62
     7
370
    15
100
AcDbSpline
210
0.0
220
0.0
230
1.0
 70
     8
 71
     3
 72
    13
 73
     9
 74
     0
 42
0.000000001
 43
0.00000001
 40
0.0
 40
0.0
 40
0.0
 40
0.0
 40
0.0081572145856285
 40
0.2272495334787471
 40
0.4581845911182383
 40
0.6889253734576237
 40
0.9203564188949118
 40
1.0
 40
1.0
 40
1.0
 40
1.0
 10
143.7727642085237
 20
99.12673548609207
 30
0.0
 10
143.8166152645747
 20
99.12520934129884
 30
0.0
 10
145.0382494297083
 20
99.08269290524782
 30
0.0
 10
147.5040426790387
 20
99.23605599895735
 30
0.0
 10
151.1457097265104
 20
99.60264652774967
 30
0.0
 10
154.8013685034828
 20
100.2968687472728
 30
0.0
 10
157.626705225514
 20
100.9869510219963
 30
0.0
 10
159.1917826609592
 20
101.5413790332157
 30
0.0
 10
159.5924851324243
 20
101.6833277121205
 30
0.0
  0
LINE
  5
17E
330
1F
100
AcDbEntity
  8
0
  6
Continuous
 62
     7
370
    15
100
AcDbLine
 10
143.27218205
 20
99.1510094777
 30
0.0
 11
143.7734347608
 21
99.1534681693
 31
0.0
  0
SPLINE
  5
17F
330
1F
100
AcDbEntity
  8
0
  6
Continuous
 62
     7
370
    15
100
AcDbSpline
210
0.0
220
0.0
230
1.0
 70
     8
 71
     3
 72
    12
 73
     8
 74
     0
 42
0.000000001
 43
0.00000001
 40
0.0
 40
0.0
 40
0.0
 40
0.0
 40
0.2199472726385826
 40
0.4564097648577385
 40
0.6942199367347666
 40
0.9329337986636083
 40
1.0
 40
1.0
 40
1.0
 40
1.0
 10
127.9442217971963
 20
101.6614230051655
 30
0.0
 10
129.032065951986
 20
101.3223239290699
 30
0.0
 10
131.2894374071224
 20
100.6186637848562
 30
0.0
 10
134.8234329220384
 20
99.86776563528556
 30
0.0
 10
138.4997192165135
 20
99.36173545626984
 30
0.0
 10
141.3287260848612
 20
99.12809098107142
 30
0.0
 10
142.9226004088953
 20
99.14688698362612
 30
0.0
 10
143.2721820499582
 20
99.15100947767685
 30
0.0
  0
SPLINE
  5
180
330
1F
100
AcDbEntity
  8
0
  6
Continuous
 62
     7
370
    15
100
AcDbSpline
210
0.0
220
0.0
230
1.0
 70
     8
 71
     3
 72
    11
 73
     7
 74
     0
 42
0.000000001
 43
0.00000001
 40
0.0
 40
0.0
 40
0.0
 40
0.0
 40
0.2125039267596598
 40
0.5467107626383907
 40
0.8816499567540508
 40
1.0
 40
1.0
 40
1.0
 40
1.0
 10
125.0045356180353
 20
104.0079237595219
 30
0.0
 10
125.1488536805352
 20
103.7755205714961
 30
0.0
 10
125.5201420572487
 20
103.1776148005179
 30
0.0
 10
126.3797337904107
 20
102.4233453166464
 30
0.0
 10
127.2493176514775
 20
101.8915781459716
 30
0.0
 10
127.800540517921
 20
101.7122756164329
 30
0.0
 10
127.9444602157754
 20
101.6654612198491
 30
0.0
  0
SPLINE
  5
181
330
1F
100
AcDbEntity
  8
0
  6
Continuous
 62
     7
370
    15
100
AcDbSpline
210
0.0
220
0.0
230
1.0
 70
     8
 71
     3
 72
    11
 73
     7
 74
     0
 42
0.000000001
 43
0.00000001
 40
0.0
 40
0.0
 40
0.0
 40
0.0
 40
0.2717947861956748
 40
0.6011243550490806
 40
0.922577184825227
 40
1.0
 40
1.0
 40
1.0
 40
1.0
 10
159.6006509687585
 20
101.6637773886342
 30
0.0
 10
159.9368234664036
 20
101.7914968282349
 30
0.0
 10
160.6803310173052
 20
102.0739719515875
 30
0.0
 10
161.6455791913073
 20
102.8293091651019
 30
0.0
 10
162.3231895749386
 20
103.5340287146679
 30
0.0
 10
162.5590485283603
 20
104.0059900140415
 30
0.0
 10
162.6048293735666
 20
104.0975989475865
 30
0.0
  0
SPLINE
  5
182
330
1F
100
AcDbEntity
  8
0
  6
Continuous
 62
     7
370
    15
100
AcDbSpline
210
0.0
220
0.0
230
1.0
 70
     8
 71
     3
 72
     9
 73
     5
 74
     0
 42
0.000000001
 43
0.00000001
 40
0.0
 40
0.0
 40
0.0
 40
0.0
 40
0.5004009753646406
 40
1.0
 40
1.0
 40
1.0
 40
1.0
 10
253.7731435920877
 20
232.7216880098004
 30
0.0
 10
256.4255331026315
 20
232.7289043594938
 30
0.0
 10
261.7260613612165
 20
232.7433254938412
 30
0.0
 10
267.0228492718832
 20
232.9344684154013
 30
0.0
 10
269.6691193457527
 20
233.0299632325788
 30
0.0
  0
SPLINE
  5
183
330
1F
100
AcDbEntity
  8
0
  6
Continuous
 62
     7
370
    15
100
AcDbSpline
210
0.0
220
0.0
230
1.0
 70
     8
 71
     3
 72
     9
 73
     5
 74
     0
 42
0.000000001
 43
0.00000001
 40
0.0
 40
0.0
 40
0.0
 40
0.0
 40
0.4995990246353594
 40
1.0
 40
1.0
 40
1.0
 40
1.0
 10
237.8771678384227
 20
233.0299632325788
 30
0.0
 10
240.5234379122922
 20
232.9344684154013
 30
0.0
 10
245.820225822959
 20
232.7433254938412
 30
0.0
 10
251.1207540815439
 20
232.7289043594938
 30
0.0
 10
253.7731435920877
 20
232.7216880098004
 30
0.0
  0
LINE
  5
184
330
1F
100
AcDbEntity
  8
0
  6
Continuous
 62
     7
370
    15
100
AcDbLine
 10
298.9848126497
 20
302.1342831366
 30
0.0
 11
298.9848126497
 21
308.0342831258
 31
0.0
  0
ARC
  5
185
330
1F
100
AcDbEntity
  8
0
  6
Continuous
 62
     7
370
    15
100
AcDbCircle
 10
297.1848141238
 20
302.1342831507
 30
0.0
 40
1.800000000000011
100
AcDbArc
 50
277.9835561456
 51
0.0
  0
SPLINE
  5
186
330
1F
100
AcDbEntity
  8
0
  6
Continuous
 62
     7
370
    15
100
AcDbSpline
210
0.0
220
0.0
230
1.0
 70
    24
 71
     3
 72
    36
 73
    32
 74
     0
 42
0.000000001
 43
0.00000001
 40
0.0
 40
0.0
 40
0.0
 40
0.0
 40
0.0518536584101082
 40
0.1027583684356806
 40
0.1527142248915371
 40
0.2017213280997842
 40
0.2497797843241009
 40
0.3865799510862902
 40
0.4995610209864884
 40
0.5714539707132011
 40
0.6244234038999045
 40
0.6416672187097779
 40
0.6556411473686136
 40
0.6712859083196937
 40
0.6869938465553009
 40
0.7026179003893986
 40
0.710586277787555
 40
0.7182553408492663
 40
0.7340652294346224
 40
0.7495994039725993
 40
0.7648688696029726
 40
0.7809575718023773
 40
0.7960568697906035
 40
0.8123273297907917
 40
0.8415910056601154
 40
0.8750412465280336
 40
0.9047027986412687
 40
0.9374837549740362
 40
0.9572476451670119
 40
0.9780838765546387
 40
1.0
 40
1.0
 40
1.0
 40
1.0
 10
198.7731435920877
 20
308.3342831507344
 30
0.0
 10
200.9382541204653
 20
308.3342831507344
 30
0.0
 10
205.2288525507512
 20
308.3342831507344
 30
0.0
 10
211.605309234714
 20
308.3342831507344
 30
0.0
 10
217.8628872158933
 20
308.3342831507344
 30
0.0
 10
224.0015866752665
 20
308.3342831507344
 30
0.0
 10
233.7662823526753
 20
308.3342831507344
 30
0.0
 10
246.2018489979373
 20
308.3342831507344
 30
0.0
 10
259.6316614546529
 20
308.3342831507344
 30
0.0
 10
269.5594573465509
 20
308.3342831507344
 30
0.0
 10
275.4892881011732
 20
308.3342831507344
 30
0.0
 10
278.9982450336015
 20
308.3342831507344
 30
0.0
 10
280.9486740381058
 20
308.3342831507344
 30
0.0
 10
282.8287364589673
 20
308.3342831507344
 30
0.0
 10
284.7589186067875
 20
308.3342831507344
 30
0.0
 10
286.3463109791267
 20
308.3342831507344
 30
0.0
 10
287.5745123111456
 20
308.3342831507344
 30
0.0
 10
288.77932719837
 20
308.3342831507344
 30
0.0
 10
290.2010606195861
 20
308.3342831507344
 30
0.0
 10
291.7263886392573
 20
308.3342831507344
 30
0.0
 10
293.0494556191194
 20
308.3342831507344
 30
0.0
 10
294.1474835721176
 20
308.3342831507344
 30
0.0
 10
295.0725640972912
 20
308.3342831507344
 30
0.0
 10
296.0419979197835
 20
308.3342831507344
 30
0.0
 10
296.9755615014572
 20
308.3342831507344
 30
0.0
 10
297.7048896648159
 20
308.3342831507344
 30
0.0
 10
298.2005430778568
 20
308.3342831507344
 30
0.0
 10
298.4622696712543
 20
308.3342831507344
 30
0.0
 10
298.6023721533339
 20
308.3342831507344
 30
0.0
 10
298.6724467504989
 20
308.3342831507344
 30
0.0
 10
298.6806228255578
 20
308.3342831507344
 30
0.0
 10
298.6848141238147
 20
308.3342831507344
 30
0.0
  0
ARC
  5
187
330
1F
100
AcDbEntity
  8
0
  6
Continuous
 62
     7
370
    15
100
AcDbCircle
 10
298.6848141238
 20
308.0342831507
 30
0.0
 40
0.3000000000000114
100
AcDbArc
 50
0.0
 51
90.0
  0
LINE
  5
188
330
1F
100
AcDbEntity
  8
0
  6
Continuous
 62
     7
370
    15
100
AcDbLine
 10
98.5614714052
 20
302.1342831366
 30
0.0
 11
98.5614714052
 21
308.0342831258
 31
0.0
  0
ARC
  5
189
330
1F
100
AcDbEntity
  8
0
  6
Continuous
 62
     7
370
    15
100
AcDbCircle
 10
100.3614730604
 20
302.1342831507
 30
0.0
 40
1.799999999999997
100
AcDbArc
 50
180.0
 51
262.0164438544
  0
ARC
  5
18A
330
1F
100
AcDbEntity
  8
0
  6
Continuous
 62
     7
370
    15
100
AcDbCircle
 10
98.8614730604
 20
308.0342831507
 30
0.0
 40
0.2999999999999972
100
AcDbArc
 50
90.0
 51
180.0
  0
SPLINE
  5
18B
330
1F
100
AcDbEntity
  8
0
  6
Continuous
 62
     7
370
    15
100
AcDbSpline
210
0.0
220
0.0
230
1.0
 70
    24
 71
     3
 72
    40
 73
    36
 74
     0
 42
0.000000001
 43
0.00000001
 40
0.0
 40
0.0
 40
0.0
 40
0.0
 40
0.0095317875344691
 40
0.0188642523409436
 40
0.0279979161525191
 40
0.0369333355259263
 40
0.0456711048998232
 40
0.0542118599824339
 40
0.0625562815098883
 40
0.0953482991789748
 40
0.1250182701954623
 40
0.1584703988192139
 40
0.1877345743154584
 40
0.204036457029438
 40
0.2191630203361405
 40
0.2352256055984392
 40
0.2504735939759937
 40
0.2660342240262428
 40
0.28187586791552
 40
0.2895763880651936
 40
0.2975801678599812
 40
0.3133148776505059
 40
0.3289133891934425
 40
0.3444783277627563
 40
0.3584310545396645
 40
0.3756440052989992
 40
0.4088627081883675
 40
0.4504834218003013
 40
0.5005103896727655
 40
0.5731788320562402
 40
0.6564265903203104
 40
0.7502554852530914
 40
0.8308693567955014
 40
0.9141173735342731
 40
1.0
 40
1.0
 40
1.0
 40
1.0
 10
98.86147306036071
 20
308.3342831507344
 30
0.0
 10
98.8622692987368
 20
308.3342831507344
 30
0.0
 10
98.86384512505443
 20
308.3342831507344
 30
0.0
 10
98.87690897425846
 20
308.3342831507344
 30
0.0
 10
98.89786278127323
 20
308.3342831507344
 30
0.0
 10
98.92742869798039
 20
308.3342831507344
 30
0.0
 10
98.96542083767669
 20
308.3342831507344
 30
0.0
 10
99.011881305426
 20
308.3342831507344
 30
0.0
 10
99.12090128466224
 20
308.3342831507344
 30
0.0
 10
99.34626783403657
 20
308.3342831507344
 30
0.0
 10
99.8424924584352
 20
308.3342831507344
 30
0.0
 10
100.5724509456567
 20
308.3342831507344
 30
0.0
 10
101.507144696418
 20
308.3342831507344
 30
0.0
 10
102.4784603955498
 20
308.3342831507344
 30
0.0
 10
103.4054034063131
 20
308.3342831507344
 30
0.0
 10
104.5043687826689
 20
308.3342831507344
 30
0.0
 10
105.8280023526961
 20
308.3342831507344
 30
0.0
 10
107.3556536161756
 20
308.3342831507344
 30
0.0
 10
108.7815859399449
 20
308.3342831507344
 30
0.0
 10
109.9908489721371
 20
308.3342831507344
 30
0.0
 10
111.22664656786
 20
308.3342831507344
 30
0.0
 10
112.8162109629783
 20
308.3342831507344
 30
0.0
 10
114.7435097915014
 20
308.3342831507344
 30
0.0
 10
116.6149504683169
 20
308.3342831507344
 30
0.0
 10
118.5599233318533
 20
308.3342831507344
 30
0.0
 10
121.243481750929
 20
308.3342831507344
 30
0.0
 10
125.0836454528187
 20
308.3342831507344
 30
0.0
 10
130.2947269255764
 20
308.3342831507344
 30
0.0
 10
137.1536979228783
 20
308.3342831507344
 30
0.0
 10
145.7513970613409
 20
308.3342831507344
 30
0.0
 10
156.1785316332981
 20
308.3342831507344
 30
0.0
 10
166.9378447158001
 20
308.3342831507344
 30
0.0
 10
177.6973758380791
 20
308.3342831507344
 30
0.0
 10
188.1252378500396
 20
308.3342831507344
 30
0.0
 10
195.1871728986052
 20
308.3342831507344
 30
0.0
 10
198.7731435920877
 20
308.3342831507344
 30
0.0
  0
SPLINE
  5
18C
330
1F
100
AcDbEntity
  8
0
  6
Continuous
 62
     7
370
    15
100
AcDbSpline
210
0.0
220
0.0
230
1.0
 70
     8
 71
     3
 72
    37
 73
    33
 74
     0
 42
0.000000001
 43
0.00000001
 40
0.0
 40
0.0
 40
0.0
 40
0.0
 40
0.009005691737123
 40
0.0363233600409137
 40
0.0626036875488387
 40
0.1160555125007252
 40
0.1432900681021063
 40
0.169610063174371
 40
0.2231386075004272
 40
0.2504100707403356
 40
0.2768215701128572
 40
0.3305409044967185
 40
0.3579133434053397
 40
0.3843288924012558
 40
0.410928733936723
 40
0.4381109142124077
 40
0.4654947955969814
 40
0.4918206637908744
 40
0.545369971680476
 40
0.57265758208539
 40
0.5989444196475511
 40
0.652406815978602
 40
0.6796450978177206
 40
0.7060106123387626
 40
0.7596347903122138
 40
0.7869578606174712
 40
0.8133486541773219
 40
0.8670306153312366
 40
0.8943861628867487
 40
0.9207293813769459
 40
0.9743086126922638
 40
1.0
 40
1.0
 40
1.0
 40
1.0
 10
231.2678285714073
 20
298.0574451088924
 30
0.0
 10
231.2527835698
 20
298.0560944463446
 30
0.0
 10
231.1921013894468
 20
298.0506467135717
 30
0.0
 10
231.3561453873551
 20
298.0654062241068
 30
0.0
 10
231.7235110132462
 20
298.0981645600874
 30
0.0
 10
232.4371264744348
 20
298.1606693387242
 30
0.0
 10
233.4369342727311
 20
298.2438700273152
 30
0.0
 10
234.6301880881567
 20
298.339366086645
 30
0.0
 10
236.0993220160616
 20
298.4493193534083
 30
0.0
 10
237.8125130622038
 20
298.5646211802119
 30
0.0
 10
239.6790095064703
 20
298.6804876137307
 30
0.0
 10
241.7578852056692
 20
298.7924898058114
 30
0.0
 10
243.9973123792856
 20
298.8907692182267
 30
0.0
 10
245.7418031376449
 20
298.9555435354522
 30
0.0
 10
247.5384377647891
 20
299.0098173053552
 30
0.0
 10
249.4018579265647
 20
299.0526531484463
 30
0.0
 10
251.2911733244255
 20
299.0819293588573
 30
0.0
 10
253.8187493171117
 20
299.1023265755598
 30
0.0
 10
256.357905986765
 20
299.0945112662068
 30
0.0
 10
258.8452165197535
 20
299.0599077013946
 30
0.0
 10
261.2823227945083
 20
299.0094462232123
 30
0.0
 10
263.6257142289123
 20
298.938218775425
 30
0.0
 10
265.8182542228669
 20
298.8562314621639
 30
0.0
 10
267.900462554426
 20
298.7713590376608
 30
0.0
 10
269.7961919702324
 20
298.6891235007046
 30
0.0
 10
271.4540771880054
 20
298.6228095208961
 30
0.0
 10
272.9458757314388
 20
298.5693055708874
 30
0.0
 10
274.1742405133306
 20
298.5368250212398
 30
0.0
 10
275.1052931266522
 20
298.5210451168986
 30
0.0
 10
275.8297793438826
 20
298.5129086953563
 30
0.0
 10
276.2636765994924
 20
298.5112271351355
 30
0.0
 10
276.3051146439254
 20
298.51095581904
 30
0.0
 10
276.3185445990247
 20
298.5108678862471
 30
0.0
  0
SPLINE
  5
18D
330
1F
100
AcDbEntity
  8
0
  6
Continuous
 62
     7
370
    15
100
AcDbSpline
210
0.0
220
0.0
230
1.0
 70
     8
 71
     3
 72
    27
 73
    23
 74
     0
 42
0.000000001
 43
0.00000001
 40
0.0
 40
0.0
 40
0.0
 40
0.0
 40
0.052763520149098
 40
0.1070515405502871
 40
0.1599651872472495
 40
0.2144149098302443
 40
0.2672428229512436
 40
0.3215938767945966
 40
0.3744991040223619
 40
0.4289422484354888
 40
0.4817850165278516
 40
0.5361732794228646
 40
0.5888505260769467
 40
0.643053630177408
 40
0.6958253414104418
 40
0.7501173958517092
 40
0.8030939233808515
 40
0.8576057197506527
 40
0.9105868625476208
 40
0.965113582269776
 40
0.9994926480525619
 40
1.0
 40
1.0
 40
1.0
 40
1.0
 10
120.5646303322
 20
298.5384657681007
 30
0.0
 10
120.6263663246688
 20
298.5384643994162
 30
0.0
 10
120.7516220521584
 20
298.5384616225015
 30
0.0
 10
121.7603123520599
 20
298.5427562899184
 30
0.0
 10
123.358224624463
 20
298.5716427673913
 30
0.0
 10
125.5306337272504
 20
298.6441082686631
 30
0.0
 10
128.2357639189683
 20
298.7617699966984
 30
0.0
 10
131.3540205727544
 20
298.9004286612828
 30
0.0
 10
134.8562000256988
 20
299.0308281899966
 30
0.0
 10
138.5807539300112
 20
299.1244303521461
 30
0.0
 10
142.4871838820101
 20
299.1661769921585
 30
0.0
 10
146.3893194992431
 20
299.1479654291792
 30
0.0
 10
150.2474979412794
 20
299.0704210734225
 30
0.0
 10
153.8855481894627
 20
298.9429675468645
 30
0.0
 10
157.2708312777698
 20
298.7771338953291
 30
0.0
 10
160.2510102874906
 20
298.5935050105622
 30
0.0
 10
162.7945162237245
 20
298.4091450416648
 30
0.0
 10
164.7764108330663
 20
298.2479179654826
 30
0.0
 10
166.1937477672862
 20
298.1232692367608
 30
0.0
 10
166.8196323691961
 20
298.0656517502087
 30
0.0
 10
167.0173153077959
 20
298.0472989668831
 30
0.0
 10
166.9712930345079
 20
298.0515595867877
 30
0.0
 10
166.9706237342042
 20
298.0516215488333
 30
0.0
  0
SPLINE
  5
18E
330
1F
100
AcDbEntity
  8
0
  6
Continuous
 62
     7
370
    15
100
AcDbSpline
210
0.0
220
0.0
230
1.0
 70
    24
 71
     3
 72
    11
 73
     7
 74
     0
 42
0.000000001
 43
0.00000001
 40
0.5368636735614617
 40
0.5368636735614617
 40
0.5368636735614617
 40
0.5368636735614617
 40
0.6526477551545147
 40
0.7684318367696765
 40
0.8842159183848384
 40
1.0
 40
1.0
 40
1.0
 40
1.0
 10
121.3622087609089
 20
285.3342831507344
 30
0.0
 10
121.6047063721904
 20
285.3342831507344
 30
0.0
 10
123.0926535443253
 20
285.3342831507344
 30
0.0
 10
128.1392454012557
 20
285.3342831507344
 30
0.0
 10
135.3629348780845
 20
285.3342831507344
 30
0.0
 10
140.9696584201343
 20
285.3342831507344
 30
0.0
 10
143.7731435920877
 20
285.3342831507344
 30
0.0
  0
SPLINE
  5
18F
330
1F
100
AcDbEntity
  8
0
  6
Continuous
 62
     7
370
    15
100
AcDbSpline
210
0.0
220
0.0
230
1.0
 70
    24
 71
     3
 72
    22
 73
    18
 74
     0
 42
0.000000001
 43
0.00000001
 40
0.0
 40
0.0
 40
0.0
 40
0.0
 40
0.125
 40
0.125
 40
0.25
 40
0.25
 40
0.375
 40
0.375
 40
0.5
 40
0.5
 40
0.625
 40
0.625
 40
0.75
 40
0.75
 40
0.875
 40
0.875
 40
1.0
 40
1.0
 40
1.0
 40
1.0
 10
166.1840784231027
 20
285.3342831507344
 30
0.0
 10
166.0605959260681
 20
285.3342831507344
 30
0.0
 10
165.8086056254778
 20
285.3342831507344
 30
0.0
 10
165.0562103981201
 20
285.3342831507344
 30
0.0
 10
164.5558202070891
 20
285.3342831507344
 30
0.0
 10
163.3237340836289
 20
285.3342831507344
 30
0.0
 10
162.5920622817307
 20
285.3342831507344
 30
0.0
 10
160.9224347588968
 20
285.3342831507344
 30
0.0
 10
159.9845117377847
 20
285.3342831507344
 30
0.0
 10
157.9344605433656
 20
285.3342831507344
 30
0.0
 10
156.8223725205185
 20
285.3342831507344
 30
0.0
 10
154.4620296237555
 20
285.3342831507344
 30
0.0
 10
153.2138209773938
 20
285.3342831507344
 30
0.0
 10
150.6239333839643
 20
285.3342831507344
 30
0.0
 10
149.2823051601065
 20
285.3342831507344
 30
0.0
 10
146.5514725681713
 20
285.3342831507344
 30
0.0
 10
145.1623216837261
 20
285.3342831507344
 30
0.0
 10
143.7731435920877
 20
285.3342831507344
 30
0.0
  0
LWPOLYLINE
  5
190
330
1F
100
AcDbEntity
  8
0
  6
Continuous
 62
     7
370
    15
100
AcDbPolyline
 90
        3
 70
   128
 43
0.0
 10
163.5125857618
 20
107.9169304743
 10
163.5043081667
 20
107.8195960894
 10
163.4298545148
 20
106.9438697472
  0
ELLIPSE
  5
191
330
1F
100
AcDbEntity
  8
0
  6
Continuous
 62
     7
370
    15
100
AcDbEllipse
 10
253.7731435921
 20
275.1251090066
 30
0.0
 11
12.97894729201997
 21
0.0
 31
0.0
210
0.0
220
0.0
230
1.0
 40
0.2422251455
 41
3.413347351514273
 42
6.011430609255214
  0
LWPOLYLINE
  5
192
330
1F
100
AcDbEntity
  8
0
  6
Continuous
 62
     7
370
    15
100
AcDbPolyline
 90
       26
 70
   128
 43
0.0
 10
276.8535596158
 20
273.8272862211
 10
276.4594350781
 20
273.2382395938
 10
275.7354137327
 20
272.6361507252
 10
274.7030892249
 20
272.0577472523
 10
273.3769547965
 20
271.511150308
 10
271.7756257232
 20
271.0040265396
 10
269.9215822693
 20
270.5434987023
 10
267.8408493128
 20
270.1360339001
 10
265.5626368549
 20
269.7873467281
 10
263.1189255815
 20
269.5023396686
 10
260.5440198283
 20
269.2850062326
 10
257.8740660872
 20
269.1383974329
 10
255.1465442709
 20
269.0645770803
 10
252.3997429132
 20
269.0645770803
 10
249.672221097
 20
269.1383974329
 10
247.0022673558
 20
269.2850062326
 10
244.4273616027
 20
269.5023396686
 10
241.9836503293
 20
269.7873467281
 10
239.7054378714
 20
270.1360339001
 10
237.6247049149
 20
270.5434987023
 10
235.770661461
 20
271.0040265396
 10
234.1693323877
 20
271.511150308
 10
232.8431979593
 20
272.0577472523
 10
231.8108734514
 20
272.6361507252
 10
231.0868521061
 20
273.2382395938
 10
230.6927275684
 20
273.8272862211
  0
LWPOLYLINE
  5
193
330
1F
100
AcDbEntity
  8
0
  6
Continuous
 62
     7
370
    15
100
AcDbPolyline
 90
        8
 70
   128
 43
0.0
 10
276.7416667964
 20
274.8553024307
 10
276.6034194108
 20
275.2209024206
 10
276.1028223511
 20
275.8416251913
 10
275.2766069796
 20
276.444112666
 10
274.1368227478
 20
277.0195768848
 10
272.700091901
 20
277.5596266314
 10
270.9873617466
 20
278.0563866422
 10
270.7014084633
 20
278.1283741519
  0
LWPOLYLINE
  5
194
330
1F
100
AcDbEntity
  8
0
  6
Continuous
 62
     7
370
    15
100
AcDbPolyline
 90
        9
 70
   128
 43
0.0
 10
236.8448787208
 20
278.1283741519
 10
236.5589254375
 20
278.0563866422
 10
234.8461952831
 20
277.5596266314
 10
233.4094644364
 20
277.0195768848
 10
232.2696802046
 20
276.444112666
 10
231.4434648331
 20
275.8416251913
 10
230.9428677734
 20
275.2209024206
 10
230.7751868691
 20
274.590993084
 10
230.8058758106
 20
274.3211107031
  0
SPLINE
  5
195
330
1F
100
AcDbEntity
  8
0
  6
Continuous
 62
     7
370
    15
100
AcDbSpline
210
0.0
220
0.0
230
1.0
 70
     8
 71
     3
 72
    12
 73
     8
 74
     0
 42
0.000000001
 43
0.00000001
 40
0.0
 40
0.0
 40
0.0
 40
0.0
 40
0.0000046634703383
 40
0.0000233185257048
 40
0.0001119309332162
 40
0.5436495290023322
 40
0.9999999999999999
 40
0.9999999999999999
 40
0.9999999999999999
 40
0.9999999999999999
 10
124.1163370039148
 20
106.9440634623189
 30
0.0
 10
124.1163370039144
 20
106.9440584952333
 30
0.0
 10
124.1163370039127
 20
106.9440336585547
 30
0.0
 10
124.1163370040264
 20
106.9439144518345
 30
0.0
 10
124.1163307628006
 20
106.3649188729216
 30
0.0
 10
124.2642802926678
 20
105.2756104242971
 30
0.0
 10
124.8059016650186
 20
104.3508266459268
 30
0.0
 10
125.053098502366
 20
103.928753890099
 30
0.0
  0
SPLINE
  5
196
330
1F
100
AcDbEntity
  8
0
  6
Continuous
 62
     7
370
    15
100
AcDbSpline
210
0.0
220
0.0
230
1.0
 70
     8
 71
     3
 72
    12
 73
     8
 74
     0
 42
0.000000001
 43
0.00000001
 40
0.0
 40
0.0
 40
0.0
 40
0.0
 40
0.0000046634751136
 40
0.0000233185495827
 40
0.0001119617191686
 40
0.5436501163647665
 40
1.0
 40
1.0
 40
1.0
 40
1.0
 10
163.4299513723535
 20
106.9440634623189
 30
0.0
 10
163.429951371177
 20
106.9440584952487
 30
0.0
 10
163.4299513652942
 20
106.9440336586477
 30
0.0
 10
163.4299517607532
 20
106.9439144140592
 30
0.0
 10
163.4082054185269
 20
106.3652049124664
 30
0.0
 10
163.2896906606998
 20
105.2755113851379
 30
0.0
 10
162.7427940326047
 20
104.3507952453586
 30
0.0
 10
162.4931898739023
 20
103.928753890099
 30
0.0
  0
LINE
  5
197
330
1F
100
AcDbEntity
  8
0
  6
Continuous
 62
     7
370
    15
100
AcDbLine
 10
236.6368156697
 20
248.6101479903
 30
0.0
 11
236.5730889913
 21
248.1748329178
 31
0.0
  0
SPLINE
  5
198
330
1F
100
AcDbEntity
  8
0
  6
Continuous
 62
     7
370
    15
100
AcDbSpline
210
0.0
220
0.0
230
1.0
 70
     8
 71
     3
 72
     9
 73
     5
 74
     0
 42
0.000000001
 43
0.00000001
 40
0.0
 40
0.0
 40
0.0
 40
0.0
 40
0.4700180961894886
 40
1.0
 40
1.0
 40
1.0
 40
1.0
 10
240.1031973611397
 20
253.6194676235337
 30
0.0
 10
240.1661944766286
 20
253.6845790820271
 30
0.0
 10
240.3002257320198
 20
253.8231087663546
 30
0.0
 10
240.5483977662382
 20
253.9501097900517
 30
0.0
 10
240.6799244534058
 20
254.0174180343766
 30
0.0
  0
SPLINE
  5
199
330
1F
100
AcDbEntity
  8
0
  6
Continuous
 62
     7
370
    15
100
AcDbSpline
210
0.0
220
0.0
230
1.0
 70
     8
 71
     3
 72
     9
 73
     5
 74
     0
 42
0.000000001
 43
0.00000001
 40
0.0
 40
0.0
 40
0.0
 40
0.0
 40
0.1329958928256578
 40
1.0
 40
1.0
 40
1.0
 40
1.0
 10
245.0606758545918
 20
258.5447298064847
 30
0.0
 10
245.0249134494899
 20
258.4491766329031
 30
0.0
 10
244.7560148817062
 20
257.7307095317659
 30
0.0
 10
244.2979744013608
 20
257.1065080938266
 30
0.0
 10
243.9008514236492
 20
256.565322883429
 30
0.0
  0
SPLINE
  5
19A
330
1F
100
AcDbEntity
  8
0
  6
Continuous
 62
     7
370
    15
100
AcDbSpline
210
0.0
220
0.0
230
1.0
 70
     8
 71
     3
 72
     8
 73
     4
 74
     0
 42
0.000000001
 43
0.00000001
 40
0.0
 40
0.0
 40
0.0
 40
0.0
 40
1.0
 40
1.0
 40
1.0
 40
1.0
 10
269.5583439376528
 20
232.9720777224863
 30
0.0
 10
269.5579164743183
 20
232.970101339715
 30
0.0
 10
269.5550525077739
 20
232.9681065701835
 30
0.0
 10
269.5498041378182
 20
232.9661158822255
 30
0.0
  0
SPLINE
  5
19B
330
1F
100
AcDbEntity
  8
0
  6
Continuous
 62
     7
370
    15
100
AcDbSpline
210
0.0
220
0.0
230
1.0
 70
     8
 71
     3
 72
     8
 73
     4
 74
     0
 42
0.000000001
 43
0.00000001
 40
0.0
 40
0.0
 40
0.0
 40
0.0
 40
1.0
 40
1.0
 40
1.0
 40
1.0
 10
237.9879432465226
 20
232.9720777224863
 30
0.0
 10
237.9883707098571
 20
232.970101339715
 30
0.0
 10
237.9912346764015
 20
232.9681065701835
 30
0.0
 10
237.9964830463572
 20
232.9661158822255
 30
0.0
  0
SPLINE
  5
19C
330
1F
100
AcDbEntity
  8
0
  6
Continuous
 62
     7
370
    15
100
AcDbSpline
210
0.0
220
0.0
230
1.0
 70
     8
 71
     3
 72
    10
 73
     6
 74
     0
 42
0.000000001
 43
0.00000001
 40
0.0
 40
0.0
 40
0.0
 40
0.0
 40
0.341764773866545
 40
0.867875251408308
 40
1.0
 40
1.0
 40
1.0
 40
1.0
 10
237.9795257773084
 20
233.0290319100041
 30
0.0
 10
237.9803409490617
 20
233.0210540184287
 30
0.0
 10
237.9824109909278
 20
233.0007950122754
 30
0.0
 10
237.9854061540655
 20
232.9842789232713
 30
0.0
 10
237.9875189735058
 20
232.9741190249619
 30
0.0
 10
237.9879430707378
 20
232.9720796719213
 30
0.0
  0
ARC
  5
19D
330
1F
100
AcDbEntity
  8
0
  6
Continuous
 62
     7
370
    15
100
AcDbCircle
 10
238.0480688836
 20
234.3703992952
 30
0.0
 40
1.399611689817235
100
AcDbArc
 50
180.0061863476
 51
267.5378772448
  0
SPLINE
  5
19E
330
1F
100
AcDbEntity
  8
0
  6
Continuous
 62
     7
370
    15
100
AcDbSpline
210
0.0
220
0.0
230
1.0
 70
     8
 71
     3
 72
    24
 73
    20
 74
     0
 42
0.000000001
 43
0.00000001
 40
0.0
 40
0.0
 40
0.0
 40
0.0
 40
0.0312499999999999
 40
0.0312499999999999
 40
0.0624999999999998
 40
0.0624999999999998
 40
0.1249999999999996
 40
0.1249999999999996
 40
0.2499999999999996
 40
0.2499999999999996
 40
0.4999999999999999
 40
0.4999999999999999
 40
0.6249999999999999
 40
0.6249999999999999
 40
0.7499999999999999
 40
0.7499999999999999
 40
0.875
 40
0.875
 40
1.0
 40
1.0
 40
1.0
 40
1.0
 10
236.6484576631241
 20
234.3702455648627
 30
0.0
 10
236.6444143297296
 20
234.3910583884712
 30
0.0
 10
236.6404781648376
 20
234.4186657971562
 30
0.0
 10
236.632845584329
 20
234.4782948797352
 30
0.0
 10
236.6291421364348
 20
234.5118296530007
 30
0.0
 10
236.6183542357369
 20
234.6231774849857
 30
0.0
 10
236.6115885486025
 20
234.7119085691075
 30
0.0
 10
236.5924451554502
 20
235.0223579106807
 30
0.0
 10
236.5812383521307
 20
235.2879735849529
 30
0.0
 10
236.5526665464437
 20
236.2608843154488
 30
0.0
 10
236.5402813189881
 20
237.1447059081675
 30
0.0
 10
236.5312573202926
 20
238.8217772683441
 30
0.0
 10
236.52984707282
 20
239.4399820315636
 30
0.0
 10
236.5301785675101
 20
240.7908314843305
 30
0.0
 10
236.5319260844863
 20
241.5201404814737
 30
0.0
 10
236.5385262294549
 20
243.1228838782638
 30
0.0
 10
236.5433769128071
 20
244.0000671101335
 30
0.0
 10
236.5560369685912
 20
245.9064712970865
 30
0.0
 10
236.5638643938445
 20
246.9346786834824
 30
0.0
 10
236.573088723254
 20
248.035574841572
 30
0.0
  0
SPLINE
  5
19F
330
1F
100
AcDbEntity
  8
0
  6
Continuous
 62
     7
370
    15
100
AcDbSpline
210
0.0
220
0.0
230
1.0
 70
     8
 71
     3
 72
    24
 73
    20
 74
     0
 42
0.000000001
 43
0.00000001
 40
0.0
 40
0.0
 40
0.0
 40
0.0
 40
0.0312499999999999
 40
0.0312499999999999
 40
0.0624999999999998
 40
0.0624999999999998
 40
0.1249999999999997
 40
0.1249999999999997
 40
0.2499999999999994
 40
0.2499999999999994
 40
0.4999999999999994
 40
0.4999999999999994
 40
0.6249999999999994
 40
0.6249999999999994
 40
0.7499999999999996
 40
0.7499999999999996
 40
0.8749999999999998
 40
0.8749999999999998
 40
1.0
 40
1.0
 40
1.0
 40
1.0
 10
270.8978295210513
 20
234.3702455648627
 30
0.0
 10
270.9018728544458
 20
234.3910583884719
 30
0.0
 10
270.9058090193379
 20
234.4186657971562
 30
0.0
 10
270.9134415998464
 20
234.4782948797346
 30
0.0
 10
270.9171450477406
 20
234.5118296530017
 30
0.0
 10
270.9279329484385
 20
234.6231774849863
 30
0.0
 10
270.9346986355729
 20
234.7119085691072
 30
0.0
 10
270.9538420287252
 20
235.0223579106804
 30
0.0
 10
270.9650488320448
 20
235.2879735849527
 30
0.0
 10
270.9936206377316
 20
236.2608843154487
 30
0.0
 10
271.0060058651873
 20
237.1447059081677
 30
0.0
 10
271.0150298638828
 20
238.8217772683443
 30
0.0
 10
271.0164401113555
 20
239.4399820315639
 30
0.0
 10
271.0161086166653
 20
240.7908314843307
 30
0.0
 10
271.0143610996892
 20
241.5201404814731
 30
0.0
 10
271.0077609547205
 20
243.1228838782631
 30
0.0
 10
271.0029102713683
 20
244.0000671101333
 30
0.0
 10
270.9902502155841
 20
245.9064712970863
 30
0.0
 10
270.9824227903309
 20
246.9346786834824
 30
0.0
 10
270.9731984609214
 20
248.035574841572
 30
0.0
  0
ARC
  5
1A0
330
1F
100
AcDbEntity
  8
0
  6
Continuous
 62
     7
370
    15
100
AcDbCircle
 10
269.4982183006
 20
234.3703992952
 30
0.0
 40
1.399611689817263
100
AcDbArc
 50
272.4621227553
 51
359.9938136524
  0
SPLINE
  5
1A1
330
1F
100
AcDbEntity
  8
0
  6
Continuous
 62
     8
370
     0
100
AcDbSpline
210
0.0
220
0.0
230
1.0
 70
    24
 71
     3
 72
    48
 73
    44
 74
     0
 42
0.000000001
 43
0.00000001
 40
0.0
 40
0.0
 40
0.0
 40
0.0
 40
0.2500000000000002
 40
0.2500000000000002
 40
0.3750000000000003
 40
0.3750000000000003
 40
0.5000000000000004
 40
0.5000000000000004
 40
0.5625000000000004
 40
0.5625000000000004
 40
0.5937500000000006
 40
0.5937500000000006
 40
0.6250000000000006
 40
0.6250000000000006
 40
0.6562500000000006
 40
0.6562500000000006
 40
0.6875000000000007
 40
0.6875000000000007
 40
0.7031250000000006
 40
0.7031250000000006
 40
0.7187500000000004
 40
0.7187500000000004
 40
0.7343750000000003
 40
0.7343750000000003
 40
0.7500000000000002
 40
0.7500000000000002
 40
0.7656250000000001
 40
0.7656250000000001
 40
0.78125
 40
0.78125
 40
0.8124999999999999
 40
0.8124999999999999
 40
0.828125
 40
0.828125
 40
0.84375
 40
0.84375
 40
0.8749999999999999
 40
0.8749999999999999
 40
0.9062499999999999
 40
0.9062499999999999
 40
0.9374999999999999
 40
0.9374999999999999
 40
1.0
 40
1.0
 40
1.0
 40
1.0
 10
198.7731435920877
 20
302.1342831507344
 30
0.0
 10
209.2530062235035
 20
302.1342831507344
 30
0.0
 10
219.732683880166
 20
302.1342831507344
 30
0.0
 10
235.4518296175638
 20
302.1342831507344
 30
0.0
 10
240.6914817975361
 20
302.1342831507344
 30
0.0
 10
251.1705935936352
 20
302.1342831507344
 30
0.0
 10
256.4099457748771
 20
302.1342831507344
 30
0.0
 10
264.2677483377135
 20
302.1342831507344
 30
0.0
 10
266.886827623055
 20
302.1342831507344
 30
0.0
 10
270.8148868340566
 20
302.1342831507344
 30
0.0
 10
272.1242688243111
 20
302.1342831507344
 30
0.0
 10
274.7421561166656
 20
302.1342831507344
 30
0.0
 10
276.05044620983
 20
302.1342831507344
 30
0.0
 10
278.6640617617972
 20
302.1342831507344
 30
0.0
 10
279.9696075600371
 20
302.1342831507344
 30
0.0
 10
282.5700512078109
 20
302.1342831507344
 30
0.0
 10
283.8643070989676
 20
302.1342831507344
 30
0.0
 10
285.7891417078756
 20
302.1342831507344
 30
0.0
 10
286.4264556813262
 20
302.1342831507344
 30
0.0
 10
287.6638280159989
 20
302.1342831507344
 30
0.0
 10
288.2668470689329
 20
302.1342831507344
 30
0.0
 10
289.4347621499164
 20
302.1342831507344
 30
0.0
 10
289.9996459489281
 20
302.1342831507344
 30
0.0
 10
291.085215400369
 20
302.1342831507344
 30
0.0
 10
291.5929385424293
 20
302.1342831507344
 30
0.0
 10
292.5326857807852
 20
302.1342831507344
 30
0.0
 10
292.9665986688107
 20
302.1342831507344
 30
0.0
 10
293.7698171987037
 20
302.1342831507344
 30
0.0
 10
294.1400273542606
 20
302.1342831507344
 30
0.0
 10
295.1413492319963
 20
302.1342831507344
 30
0.0
 10
295.6768790730571
 20
302.1342831507344
 30
0.0
 10
296.3537375688852
 20
302.1342831507344
 30
0.0
 10
296.558264504956
 20
302.1342831507344
 30
0.0
 10
296.9296370891731
 20
302.1342831507344
 30
0.0
 10
297.0960555573727
 20
302.1342831507344
 30
0.0
 10
297.5492364605295
 20
302.1342831507344
 30
0.0
 10
297.7905331945272
 20
302.1342831507344
 30
0.0
 10
298.1905964736386
 20
302.1342831507344
 30
0.0
 10
298.3489729533227
 20
302.1342831507344
 30
0.0
 10
298.6052726213298
 20
302.1342831507344
 30
0.0
 10
298.7030275852936
 20
302.1342831507344
 30
0.0
 10
298.9269240968077
 20
302.1342831507344
 30
0.0
 10
298.9848141238147
 20
302.1342831507344
 30
0.0
 10
298.9848141238147
 20
302.1342831507344
 30
0.0
  0
SPLINE
  5
1A2
330
1F
100
AcDbEntity
  8
0
  6
Continuous
 62
     8
370
     0
100
AcDbSpline
210
0.0
220
0.0
230
1.0
 70
    24
 71
     3
 72
    52
 73
    48
 74
     0
 42
0.000000001
 43
0.00000001
 40
0.0
 40
0.0
 40
0.0
 40
0.0
 40
0.0624999999999991
 40
0.0624999999999991
 40
0.0937499999999986
 40
0.0937499999999986
 40
0.1249999999999982
 40
0.1249999999999982
 40
0.140624999999998
 40
0.140624999999998
 40
0.1562499999999978
 40
0.1562499999999978
 40
0.1874999999999974
 40
0.1874999999999974
 40
0.2031249999999972
 40
0.2031249999999972
 40
0.218749999999997
 40
0.218749999999997
 40
0.2343749999999968
 40
0.2343749999999968
 40
0.2499999999999966
 40
0.2499999999999966
 40
0.2656249999999964
 40
0.2656249999999964
 40
0.2734374999999963
 40
0.2734374999999963
 40
0.2812499999999962
 40
0.2812499999999962
 40
0.3124999999999963
 40
0.3124999999999963
 40
0.3281249999999963
 40
0.3281249999999963
 40
0.3437499999999964
 40
0.3437499999999964
 40
0.3749999999999965
 40
0.3749999999999965
 40
0.4062499999999967
 40
0.4062499999999967
 40
0.4374999999999968
 40
0.4374999999999968
 40
0.4999999999999972
 40
0.4999999999999972
 40
0.6249999999999979
 40
0.6249999999999979
 40
0.7499999999999986
 40
0.7499999999999986
 40
1.0
 40
1.0
 40
1.0
 40
1.0
 10
298.9848141238147
 20
308.0342831507344
 30
0.0
 10
298.9848141238147
 20
308.0342831507344
 30
0.0
 10
298.9267653007199
 20
308.0342831507344
 30
0.0
 10
298.7013107800001
 20
308.0342831507344
 30
0.0
 10
298.602799696956
 20
308.0342831507344
 30
0.0
 10
298.3439783735029
 20
308.0342831507344
 30
0.0
 10
298.1838543810879
 20
308.0342831507344
 30
0.0
 10
297.8795914014094
 20
308.0342831507344
 30
0.0
 10
297.7674078203678
 20
308.0342831507344
 30
0.0
 10
297.5170450727919
 20
308.0342831507344
 30
0.0
 10
297.378682816713
 20
308.0342831507344
 30
0.0
 10
296.9188570441621
 20
308.0342831507344
 30
0.0
 10
296.5533542203918
 20
308.0342831507344
 30
0.0
 10
295.8700309783883
 20
308.0342831507344
 30
0.0
 10
295.6184340651042
 20
308.0342831507344
 30
0.0
 10
295.0624246800305
 20
308.0342831507344
 30
0.0
 10
294.7588438892587
 20
308.0342831507344
 30
0.0
 10
294.0896956805261
 20
308.0342831507344
 30
0.0
 10
293.7241435021547
 20
308.0342831507344
 30
0.0
 10
292.917440581983
 20
308.0342831507344
 30
0.0
 10
292.4724489858228
 20
308.0342831507344
 30
0.0
 10
291.5238189404822
 20
308.0342831507344
 30
0.0
 10
291.0182139112776
 20
308.0342831507344
 30
0.0
 10
290.2124185876957
 20
308.0342831507344
 30
0.0
 10
289.9359422474405
 20
308.0342831507344
 30
0.0
 10
289.3674378379202
 20
308.0342831507344
 30
0.0
 10
289.0744175294938
 20
308.0342831507344
 30
0.0
 10
287.5951592927512
 20
308.0342831507344
 30
0.0
 10
286.3526323948892
 20
308.0342831507344
 30
0.0
 10
284.4369048904519
 20
308.0342831507344
 30
0.0
 10
283.7878962865812
 20
308.0342831507344
 30
0.0
 10
282.4889947060581
 20
308.0342831507344
 30
0.0
 10
281.8384027841863
 20
308.0342831507344
 30
0.0
 10
279.8844482624485
 20
308.0342831507344
 30
0.0
 10
278.5791147267885
 20
308.0342831507344
 30
0.0
 10
275.9671930505263
 20
308.0342831507344
 30
0.0
 10
274.6604824546945
 20
308.0342831507344
 30
0.0
 10
272.0463936798872
 20
308.0342831507344
 30
0.0
 10
270.7389891278637
 20
308.0342831507344
 30
0.0
 10
266.8161264120433
 20
308.0342831507344
 30
0.0
 10
264.2000301236889
 20
308.0342831507344
 30
0.0
 10
256.3504416117685
 20
308.0342831507344
 30
0.0
 10
251.1163029809535
 20
308.0342831507344
 30
0.0
 10
240.6481135351556
 20
308.0342831507344
 30
0.0
 10
235.4138216885823
 20
308.0342831507344
 30
0.0
 10
219.7109215560959
 20
308.0342831507344
 30
0.0
 10
209.2421112772788
 20
308.0342831507344
 30
0.0
 10
198.7731435920877
 20
308.0342831507344
 30
0.0
  0
LINE
  5
1A3
330
1F
100
AcDbEntity
  8
0
  6
Continuous
 62
     8
370
     0
100
AcDbLine
 10
198.7731438901
 20
308.0342831258
 30
0.0
 11
198.7731438901
 21
308.3342831982
 31
0.0
  0
SPLINE
  5
1A4
330
1F
100
AcDbEntity
  8
0
  6
Continuous
 62
     8
370
     0
100
AcDbSpline
210
0.0
220
0.0
230
1.0
 70
    24
 71
     3
 72
    52
 73
    48
 74
     0
 42
0.000000001
 43
0.00000001
 40
0.0
 40
0.0
 40
0.0
 40
0.0
 40
0.062500000000003
 40
0.062500000000003
 40
0.0937500000000045
 40
0.0937500000000045
 40
0.125000000000006
 40
0.125000000000006
 40
0.1562500000000076
 40
0.1562500000000076
 40
0.1718750000000084
 40
0.1718750000000084
 40
0.1875000000000092
 40
0.1875000000000092
 40
0.2187500000000108
 40
0.2187500000000108
 40
0.2265625000000111
 40
0.2265625000000111
 40
0.2343750000000115
 40
0.2343750000000115
 40
0.2500000000000117
 40
0.2500000000000117
 40
0.265625000000012
 40
0.265625000000012
 40
0.2812500000000123
 40
0.2812500000000123
 40
0.2968750000000125
 40
0.2968750000000125
 40
0.3046875000000123
 40
0.3046875000000123
 40
0.3125000000000121
 40
0.3125000000000121
 40
0.3437500000000113
 40
0.3437500000000113
 40
0.3750000000000105
 40
0.3750000000000105
 40
0.4062500000000098
 40
0.4062500000000098
 40
0.437500000000009
 40
0.437500000000009
 40
0.5000000000000079
 40
0.5000000000000079
 40
0.625000000000006
 40
0.625000000000006
 40
0.750000000000004
 40
0.750000000000004
 40
1.0
 40
1.0
 40
1.0
 40
1.0
 10
98.56147306036074
 20
302.1342831507344
 30
0.0
 10
98.56147306036068
 20
302.1342831507344
 30
0.0
 10
98.62006715813588
 20
302.1342831507344
 30
0.0
 10
98.84856436205173
 20
302.1342831507344
 30
0.0
 10
98.94847076904507
 20
302.1342831507344
 30
0.0
 10
99.21140582534214
 20
302.1342831507344
 30
0.0
 10
99.37439254014426
 20
302.1342831507344
 30
0.0
 10
99.78754862227072
 20
302.1342831507344
 30
0.0
 10
100.0365857669326
 20
302.1342831507344
 30
0.0
 10
100.5021677940973
 20
302.1342831507344
 30
0.0
 10
100.6728403202315
 20
302.1342831507344
 30
0.0
 10
101.0524510201506
 20
302.1342831507344
 30
0.0
 10
101.2620563879907
 20
302.1342831507344
 30
0.0
 10
101.9569637247932
 20
302.1342831507344
 30
0.0
 10
102.5062742926185
 20
302.1342831507344
 30
0.0
 10
103.3585946418574
 20
302.1342831507344
 30
0.0
 10
103.5374798342423
 20
302.1342831507344
 30
0.0
 10
103.9141775472729
 20
302.1342831507344
 30
0.0
 10
104.1124214463586
 20
302.1342831507344
 30
0.0
 10
104.7294932734252
 20
302.1342831507344
 30
0.0
 10
105.1730971012336
 20
302.1342831507344
 30
0.0
 10
106.1308910322517
 20
302.1342831507344
 30
0.0
 10
106.6459313182721
 20
302.1342831507344
 30
0.0
 10
107.7476345389644
 20
302.1342831507344
 30
0.0
 10
108.3211548791885
 20
302.1342831507344
 30
0.0
 10
109.5073416174828
 20
302.1342831507344
 30
0.0
 10
110.1199946733698
 20
302.1342831507344
 30
0.0
 10
111.0630131706512
 20
302.1342831507344
 30
0.0
 10
111.3816154217785
 20
302.1342831507344
 30
0.0
 10
112.0185500399824
 20
302.1342831507344
 30
0.0
 10
112.3378456181712
 20
302.1342831507344
 30
0.0
 10
113.9377599766521
 20
302.1342831507344
 30
0.0
 10
115.2285828226078
 20
302.1342831507344
 30
0.0
 10
117.8216821978947
 20
302.1342831507344
 30
0.0
 10
119.1232787964141
 20
302.1342831507344
 30
0.0
 10
121.7288336408147
 20
302.1342831507344
 30
0.0
 10
123.0330426881574
 20
302.1342831507344
 30
0.0
 10
125.6427646097106
 20
302.1342831507344
 30
0.0
 10
126.9484232797002
 20
302.1342831507344
 30
0.0
 10
130.8651001119881
 20
302.1342831507344
 30
0.0
 10
133.4764303793025
 20
302.1342831507344
 30
0.0
 10
141.3107461859055
 20
302.1342831507344
 30
0.0
 10
146.5340572972746
 20
302.1342831507344
 30
0.0
 10
156.9810780201441
 20
302.1342831507344
 30
0.0
 10
162.2048035716386
 20
302.1342831507344
 30
0.0
 10
177.8764044808763
 20
302.1342831507344
 30
0.0
 10
188.3248043628636
 20
302.1342831507344
 30
0.0
 10
198.7731435920877
 20
302.1342831507344
 30
0.0
  0
SPLINE
  5
1A5
330
1F
100
AcDbEntity
  8
0
  6
Continuous
 62
     8
370
     0
100
AcDbSpline
210
0.0
220
0.0
230
1.0
 70
    24
 71
     3
 72
    52
 73
    48
 74
     0
 42
0.000000001
 43
0.00000001
 40
0.0
 40
0.0
 40
0.0
 40
0.0
 40
0.2499999999999975
 40
0.2499999999999975
 40
0.3749999999999962
 40
0.3749999999999962
 40
0.499999999999995
 40
0.499999999999995
 40
0.5624999999999946
 40
0.5624999999999946
 40
0.5937499999999939
 40
0.5937499999999939
 40
0.6249999999999931
 40
0.6249999999999931
 40
0.6562499999999923
 40
0.6562499999999923
 40
0.6874999999999916
 40
0.6874999999999916
 40
0.6953124999999916
 40
0.6953124999999916
 40
0.7031249999999917
 40
0.7031249999999917
 40
0.7187499999999916
 40
0.7187499999999916
 40
0.7343749999999916
 40
0.7343749999999916
 40
0.7499999999999917
 40
0.7499999999999917
 40
0.7812499999999916
 40
0.7812499999999916
 40
0.7890624999999918
 40
0.7890624999999918
 40
0.796874999999992
 40
0.796874999999992
 40
0.8124999999999928
 40
0.8124999999999928
 40
0.8437499999999939
 40
0.8437499999999939
 40
0.8593749999999946
 40
0.8593749999999946
 40
0.8749999999999951
 40
0.8749999999999951
 40
0.9062499999999963
 40
0.9062499999999963
 40
0.9374999999999977
 40
0.9374999999999977
 40
1.0
 40
1.0
 40
1.0
 40
1.0
 10
198.7731435920877
 20
308.0342831507344
 30
0.0
 10
188.3057785319884
 20
308.0342831507344
 30
0.0
 10
177.8386016366754
 20
308.0342831507344
 30
0.0
 10
162.1382131426425
 20
308.0342831507344
 30
0.0
 10
156.9048144173443
 20
308.0342831507344
 30
0.0
 10
146.4382124603463
 20
308.0342831507344
 30
0.0
 10
141.2050724990799
 20
308.0342831507344
 30
0.0
 10
133.3566624599019
 20
308.0342831507344
 30
0.0
 10
130.7407213545961
 20
308.0342831507344
 30
0.0
 10
126.8173885624063
 20
308.0342831507344
 30
0.0
 10
125.5097086756937
 20
308.0342831507344
 30
0.0
 10
122.8946743586977
 20
308.0342831507344
 30
0.0
 10
121.5875348572934
 20
308.0342831507344
 30
0.0
 10
118.9770494017088
 20
308.0342831507344
 30
0.0
 10
117.6732610467661
 20
308.0342831507344
 30
0.0
 10
115.0779701776848
 20
308.0342831507344
 30
0.0
 10
113.787256689633
 20
308.0342831507344
 30
0.0
 10
112.1898994191739
 20
308.0342831507344
 30
0.0
 10
111.8712456711487
 20
308.0342831507344
 30
0.0
 10
111.2359008139661
 20
308.0342831507344
 30
0.0
 10
110.9181327559318
 20
308.0342831507344
 30
0.0
 10
109.9789819673628
 20
308.0342831507344
 30
0.0
 10
109.370884538262
 20
308.0342831507344
 30
0.0
 10
108.1976423130624
 20
308.0342831507344
 30
0.0
 10
107.6325099104989
 20
308.0342831507344
 30
0.0
 10
106.5507733751858
 20
308.0342831507344
 30
0.0
 10
106.0305825233824
 20
308.0342831507344
 30
0.0
 10
104.6023680497854
 20
308.0342831507344
 30
0.0
 10
103.807435793688
 20
308.0342831507344
 30
0.0
 10
102.9601524950207
 20
308.0342831507344
 30
0.0
 10
102.7978046768912
 20
308.0342831507344
 30
0.0
 10
102.4901121087073
 20
308.0342831507344
 30
0.0
 10
102.3442705622514
 20
308.0342831507344
 30
0.0
 10
101.927918901493
 20
308.0342831507344
 30
0.0
 10
101.6784660169682
 20
308.0342831507344
 30
0.0
 10
100.9969030133863
 20
308.0342831507344
 30
0.0
 10
100.6306558582766
 20
308.0342831507344
 30
0.0
 10
100.1693604331087
 20
308.0342831507344
 30
0.0
 10
100.0308009788193
 20
308.0342831507344
 30
0.0
 10
99.78024975426224
 20
308.0342831507344
 30
0.0
 10
99.66797000694015
 20
308.0342831507344
 30
0.0
 10
99.36342636656046
 20
308.0342831507344
 30
0.0
 10
99.20312660451226
 20
308.0342831507344
 30
0.0
 10
98.94400414155479
 20
308.0342831507344
 30
0.0
 10
98.84536683467786
 20
308.0342831507344
 30
0.0
 10
98.61961385230032
 20
308.0342831507344
 30
0.0
 10
98.56147306036071
 20
308.0342831507344
 30
0.0
 10
98.56147306036074
 20
308.0342831507344
 30
0.0
  0
SPLINE
  5
1A6
330
1F
100
AcDbEntity
  8
0
  6
Continuous
 62
     8
370
     0
100
AcDbSpline
210
0.0
220
0.0
230
1.0
 70
     8
 71
     3
 72
    66
 73
    62
 74
     0
 42
0.000000001
 43
0.00000001
 40
0.0
 40
0.0
 40
0.0
 40
0.0
 40
0.5000000000000003
 40
0.5000000000000003
 40
0.5625000000000003
 40
0.5625000000000003
 40
0.5937500000000003
 40
0.5937500000000003
 40
0.6250000000000002
 40
0.6250000000000002
 40
0.6562500000000001
 40
0.6562500000000001
 40
0.6875
 40
0.6875
 40
0.7187499999999999
 40
0.7187499999999999
 40
0.7499999999999998
 40
0.7499999999999998
 40
0.7656249999999999
 40
0.7656249999999999
 40
0.7812499999999999
 40
0.7812499999999999
 40
0.8124999999999998
 40
0.8124999999999998
 40
0.8203124999999998
 40
0.8203124999999998
 40
0.8281249999999998
 40
0.8281249999999998
 40
0.8437499999999998
 40
0.8437499999999998
 40
0.8593749999999998
 40
0.8593749999999998
 40
0.8671874999999998
 40
0.8671874999999998
 40
0.8749999999999998
 40
0.8749999999999998
 40
0.8906249999999998
 40
0.8906249999999998
 40
0.8984374999999997
 40
0.8984374999999997
 40
0.9062499999999996
 40
0.9062499999999996
 40
0.9218749999999997
 40
0.9218749999999997
 40
0.9296874999999997
 40
0.9296874999999997
 40
0.9374999999999997
 40
0.9374999999999997
 40
0.9531249999999997
 40
0.9531249999999997
 40
0.9687499999999997
 40
0.9687499999999997
 40
0.9843749999999997
 40
0.9843749999999997
 40
0.9921874999999997
 40
0.9921874999999997
 40
0.9960937499999998
 40
0.9960937499999998
 40
0.9980468749999999
 40
0.9980468749999999
 40
1.0
 40
1.0
 40
1.0
 40
1.0
 10
124.1164638439064
 20
106.943881556887
 30
0.0
 10
124.0150456590212
 20
138.0323353105981
 30
0.0
 10
123.9131959886719
 20
169.1207882677982
 30
0.0
 10
123.799092912805
 20
204.0952990627288
 30
0.0
 10
123.7864264121193
 20
207.9813558454485
 30
0.0
 10
123.7674566775749
 20
213.8104410848236
 30
0.0
 10
123.7611655534477
 20
215.7534695585357
 30
0.0
 10
123.7483688209945
 20
219.6395261140701
 30
0.0
 10
123.7431014961006
 20
221.5827130193576
 30
0.0
 10
123.7267233732694
 20
225.4681727482996
 30
0.0
 10
123.7109195878692
 20
227.4102278234494
 30
0.0
 10
123.6345600032095
 20
231.2904117941886
 30
0.0
 10
123.5761814576551
 20
233.2286396987984
 30
0.0
 10
123.4278651939769
 20
237.0990915430122
 30
0.0
 10
123.33740598065
 20
239.0312549257706
 30
0.0
 10
123.1460576395305
 20
242.887414617727
 30
0.0
 10
123.0440848736887
 20
244.8115767852228
 30
0.0
 10
122.9042082587788
 20
247.6891009650633
 30
0.0
 10
122.8598551576316
 20
248.6468495409415
 30
0.0
 10
122.7810012275383
 20
250.5591310259129
 30
0.0
 10
122.7465140030758
 20
251.514630570924
 30
0.0
 10
122.6710598348584
 20
254.3411089877171
 30
0.0
 10
122.6552114290243
 20
256.1823704267499
 30
0.0
 10
122.7463379453695
 20
258.4110790254959
 30
0.0
 10
122.7703171320036
 20
258.8531479147581
 30
0.0
 10
122.8325697120329
 20
259.72926238907
 30
0.0
 10
122.8709966110967
 20
260.1645659787603
 30
0.0
 10
123.0112543923224
 20
261.4440662602659
 30
0.0
 10
123.1380543818737
 20
262.2632200088723
 30
0.0
 10
123.4804524836866
 20
263.8316168135195
 30
0.0
 10
123.6957884083613
 20
264.5810523710726
 30
0.0
 10
124.10936343415
 20
265.6482000293716
 30
0.0
 10
124.261542057426
 20
265.9918089826598
 30
0.0
 10
124.5935064109858
 20
266.64724667215
 30
0.0
 10
124.7737751274252
 20
266.9602230732573
 30
0.0
 10
125.3593497521905
 20
267.8582126118131
 30
0.0
 10
125.8093213868916
 20
268.4022244970677
 30
0.0
 10
126.5849331607569
 20
269.1436766267652
 30
0.0
 10
126.861324174363
 20
269.3792436526767
 30
0.0
 10
127.4451421624967
 20
269.8229503005671
 30
0.0
 10
127.7503712119659
 20
270.0296540566498
 30
0.0
 10
128.706169805985
 20
270.6080154915356
 30
0.0
 10
129.3966688689059
 20
270.9388912537015
 30
0.0
 10
130.5106579947409
 20
271.3734073150743
 30
0.0
 10
130.8961565801615
 20
271.508149404252
 30
0.0
 10
131.6888565757168
 20
271.7573288686992
 30
0.0
 10
132.0938085849845
 20
271.8711385126287
 30
0.0
 10
133.3338426024492
 20
272.1844786243977
 30
0.0
 10
134.193975320419
 20
272.3560306813783
 30
0.0
 10
135.9814261074207
 20
272.640754221215
 30
0.0
 10
136.9131442894378
 20
272.7545574545958
 30
0.0
 10
138.8062630690513
 20
272.9324761315266
 30
0.0
 10
139.7746589733295
 20
272.9972372307192
 30
0.0
 10
141.2378807555755
 20
273.0610514015899
 30
0.0
 10
141.7275257263054
 20
273.0767548602446
 30
0.0
 10
142.4648632530627
 20
273.0922603266401
 30
0.0
 10
142.7111212943597
 20
273.0960856659775
 30
0.0
 10
143.0812339304516
 20
273.0998110772823
 30
0.0
 10
143.2046700393371
 20
273.1007163765088
 30
0.0
 10
143.4515349741272
 20
273.1018507729914
 30
0.0
 10
143.5770120118879
 20
273.1020175257698
 30
0.0
 10
143.6984519380269
 20
273.1019685866828
 30
0.0
  0
SPLINE
  5
1A7
330
1F
100
AcDbEntity
  8
0
  6
Continuous
 62
     8
370
     0
100
AcDbSpline
210
0.0
220
0.0
230
1.0
 70
     8
 71
     3
 72
    54
 73
    50
 74
     0
 42
0.000000001
 43
0.00000001
 40
0.0
 40
0.0
 40
0.0
 40
0.0
 40
0.0078124999999997
 40
0.0078124999999997
 40
0.0156249999999994
 40
0.0156249999999994
 40
0.0312499999999988
 40
0.0312499999999988
 40
0.0468749999999983
 40
0.0468749999999983
 40
0.0624999999999977
 40
0.0624999999999977
 40
0.0703124999999975
 40
0.0703124999999975
 40
0.0781249999999973
 40
0.0781249999999973
 40
0.093749999999997
 40
0.093749999999997
 40
0.101562499999997
 40
0.101562499999997
 40
0.1093749999999969
 40
0.1093749999999969
 40
0.1249999999999969
 40
0.1249999999999969
 40
0.1328124999999968
 40
0.1328124999999968
 40
0.1406249999999968
 40
0.1406249999999968
 40
0.1562499999999968
 40
0.1562499999999968
 40
0.1640624999999969
 40
0.1640624999999969
 40
0.1718749999999969
 40
0.1718749999999969
 40
0.1874999999999971
 40
0.1874999999999971
 40
0.2187499999999974
 40
0.2187499999999974
 40
0.2499999999999977
 40
0.2499999999999977
 40
0.3124999999999983
 40
0.3124999999999983
 40
0.3437499999999986
 40
0.3437499999999986
 40
0.3749999999999987
 40
0.3749999999999987
 40
0.4999999999999989
 40
0.4999999999999989
 40
1.0
 40
1.0
 40
1.0
 40
1.0
 10
143.7731435920877
 20
271.980585675502
 30
0.0
 10
143.2865200157331
 20
271.9801393958165
 30
0.0
 10
142.7996110228702
 20
271.9761840528924
 30
0.0
 10
141.8302141146087
 20
271.9562097800262
 30
0.0
 10
141.3472888797218
 20
271.9409312407437
 30
0.0
 10
139.904038997961
 20
271.8775274417957
 30
0.0
 10
138.9491286870576
 20
271.8119641824273
 30
0.0
 10
137.0811762495576
 20
271.631248910744
 30
0.0
 10
136.1625935942933
 20
271.515394260197
 30
0.0
 10
134.3985669479254
 20
271.2249659189397
 30
0.0
 10
133.5489380417397
 20
271.0490296823401
 30
0.0
 10
132.3248232856032
 20
270.7242977736798
 30
0.0
 10
131.924076530869
 20
270.6055770024774
 30
0.0
 10
131.1446800024347
 20
270.3463011988924
 30
0.0
 10
130.7682237785666
 20
270.2065913071827
 30
0.0
 10
129.6780901909518
 20
269.7535341901653
 30
0.0
 10
129.003374863583
 20
269.4068598765669
 30
0.0
 10
128.0739043495481
 20
268.7944981311503
 30
0.0
 10
127.7765543288846
 20
268.5735414016047
 30
0.0
 10
127.2189368794852
 20
268.1046532238547
 30
0.0
 10
126.9583477966316
 20
267.8568592059124
 30
0.0
 10
126.2280452665746
 20
267.0710132180261
 30
0.0
 10
125.8103099408095
 20
266.4904049584149
 30
0.0
 10
125.2770930630547
 20
265.5238758937446
 30
0.0
 10
125.1147676728946
 20
265.1842704980299
 30
0.0
 10
124.8233335811579
 20
264.4791092885384
 30
0.0
 10
124.6946522785552
 20
264.1154891615921
 30
0.0
 10
124.352754674391
 20
262.9976391709964
 30
0.0
 10
124.1822900616495
 20
262.2150477513894
 30
0.0
 10
123.9880935844999
 20
260.9899420672088
 30
0.0
 10
123.9337635789192
 20
260.5729149025884
 30
0.0
 10
123.8429729558688
 20
259.7221331410828
 30
0.0
 10
123.8064552124933
 20
259.2878940674485
 30
0.0
 10
123.7197167572722
 20
257.9776698392739
 30
0.0
 10
123.691350413532
 20
257.089167292851
 30
0.0
 10
123.6613245709859
 20
254.3863928101339
 30
0.0
 10
123.7134098864521
 20
252.5348765424559
 30
0.0
 10
123.8649022488649
 20
248.7612970575153
 30
0.0
 10
123.9641943978568
 20
246.8657915840159
 30
0.0
 10
124.2674694475291
 20
241.1695649425546
 30
0.0
 10
124.4745025838151
 20
237.3546490634477
 30
0.0
 10
124.6718174811032
 20
231.6175235874772
 30
0.0
 10
124.7201394126508
 20
229.7027483599499
 30
0.0
 10
124.7761483309016
 20
225.8701653640631
 30
0.0
 10
124.7844676629976
 20
223.9523474830241
 30
0.0
 10
124.8195017247702
 20
214.3620161156373
 30
0.0
 10
124.8462812516736
 20
206.6893397534694
 30
0.0
 10
124.9850259576005
 20
168.3269629070583
 30
0.0
 10
125.0969754904697
 20
137.6370641724698
 30
0.0
 10
125.2102221778884
 20
106.947171028189
 30
0.0
  0
LINE
  5
1A8
330
1F
100
AcDbEntity
  8
0
  6
Continuous
 62
     8
370
     0
100
AcDbLine
 10
121.3622149851
 20
285.3342832699
 30
0.0
 11
121.3916447785
 21
285.3342832699
 31
0.0
  0
LINE
  5
1A9
330
1F
100
AcDbEntity
  8
0
  6
Continuous
 62
     8
370
     0
100
AcDbLine
 10
166.1840808417
 20
285.3342832699
 30
0.0
 11
166.1546361472
 21
285.3342832699
 31
0.0
  0
SPLINE
  5
1AA
330
1F
100
AcDbEntity
  8
0
  6
Continuous
 62
     8
370
     0
100
AcDbSpline
210
0.0
220
0.0
230
1.0
 70
     8
 71
     3
 72
     8
 73
     4
 74
     0
 42
0.000000001
 43
0.00000001
 40
0.0
 40
0.0
 40
0.0
 40
0.0
 40
1.0
 40
1.0
 40
1.0
 40
1.0
 10
145.1660571973603
 20
271.9675105439509
 30
0.0
 10
144.7023243996162
 20
271.9766084487708
 30
0.0
 10
144.2377181917553
 20
271.9801596170179
 30
0.0
 10
143.7731435920877
 20
271.980585675502
 30
0.0
  0
SPLINE
  5
1AB
330
1F
100
AcDbEntity
  8
0
  6
Continuous
 62
     8
370
     0
100
AcDbSpline
210
0.0
220
0.0
230
1.0
 70
     8
 71
     3
 72
     8
 73
     4
 74
     0
 42
0.000000001
 43
0.00000001
 40
0.0
 40
0.0
 40
0.0
 40
0.0
 40
1.0
 40
1.0
 40
1.0
 40
1.0
 10
143.8478352461485
 20
273.1019685866828
 30
0.0
 10
144.3096160881645
 20
273.1021546797858
 30
0.0
 10
144.7713912023515
 20
273.0980589378121
 30
0.0
 10
145.23224050205
 20
273.0890214274066
 30
0.0
  0
SPLINE
  5
1AC
330
1F
100
AcDbEntity
  8
0
  6
Continuous
 62
     8
370
     0
100
AcDbSpline
210
0.0
220
0.0
230
1.0
 70
     8
 71
     3
 72
    62
 73
    58
 74
     0
 42
0.000000001
 43
0.00000001
 40
0.0
 40
0.0
 40
0.0
 40
0.0
 40
0.0156250000000005
 40
0.0156250000000005
 40
0.0234375000000008
 40
0.0234375000000008
 40
0.031250000000001
 40
0.031250000000001
 40
0.0468750000000013
 40
0.0468750000000013
 40
0.0546875000000014
 40
0.0546875000000014
 40
0.0625000000000014
 40
0.0625000000000014
 40
0.0781250000000017
 40
0.0781250000000017
 40
0.0859375000000018
 40
0.0859375000000018
 40
0.093750000000002
 40
0.093750000000002
 40
0.1250000000000026
 40
0.1250000000000026
 40
0.1328125000000028
 40
0.1328125000000028
 40
0.140625000000003
 40
0.140625000000003
 40
0.1562500000000033
 40
0.1562500000000033
 40
0.1718750000000037
 40
0.1718750000000037
 40
0.1875000000000041
 40
0.1875000000000041
 40
0.2031250000000044
 40
0.2031250000000044
 40
0.2109375000000046
 40
0.2109375000000046
 40
0.2187500000000048
 40
0.2187500000000048
 40
0.2500000000000053
 40
0.2500000000000053
 40
0.2656250000000053
 40
0.2656250000000053
 40
0.2812500000000054
 40
0.2812500000000054
 40
0.3125000000000052
 40
0.3125000000000052
 40
0.3437500000000051
 40
0.3437500000000051
 40
0.3750000000000048
 40
0.3750000000000048
 40
0.4062500000000047
 40
0.4062500000000047
 40
0.4375000000000045
 40
0.4375000000000045
 40
0.500000000000004
 40
0.500000000000004
 40
1.0
 40
1.0
 40
1.0
 40
1.0
 10
145.23224050205
 20
273.0890214274066
 30
0.0
 10
146.2119096742262
 20
273.0698095715066
 30
0.0
 10
147.1816139346702
 20
273.0295122080844
 30
0.0
 10
148.6213476404628
 20
272.9348727753261
 30
0.0
 10
149.0988299834439
 20
272.8975358043428
 30
0.0
 10
150.0378497666511
 20
272.8114501004345
 30
0.0
 10
150.5007957958757
 20
272.7626279124227
 30
0.0
 10
151.8700412104667
 20
272.5972228577102
 30
0.0
 10
152.7566876099219
 20
272.4619747227811
 30
0.0
 10
154.0465837203596
 20
272.2088519333247
 30
0.0
 10
154.4698768496316
 20
272.1160897385249
 30
0.0
 10
155.3027865977672
 20
271.9112634668007
 30
0.0
 10
155.7095364115028
 20
271.7998275306109
 30
0.0
 10
156.8904848312154
 20
271.4386463739229
 30
0.0
 10
157.6302189935377
 20
271.1613677770066
 30
0.0
 10
158.6681137834733
 20
270.6752501788544
 30
0.0
 10
159.0020599546972
 20
270.5014440518967
 30
0.0
 10
159.6451711615896
 20
270.126115833547
 30
0.0
 10
159.9554038903583
 20
269.923625271657
 30
0.0
 10
161.4312855415827
 20
268.8425105753916
 30
0.0
 10
162.3427936891495
 20
267.7875301106161
 30
0.0
 10
163.2031236237141
 20
266.1641208188929
 30
0.0
 10
163.3595870933578
 20
265.8261865517408
 30
0.0
 10
163.6422233945935
 20
265.1309849428932
 30
0.0
 10
163.7688721861088
 20
264.7727689631255
 30
0.0
 10
164.1103211052567
 20
263.6673699221611
 30
0.0
 10
164.2870549906457
 20
262.8896354065637
 30
0.0
 10
164.5623989018049
 20
261.2555360461653
 30
0.0
 10
164.657992913336
 20
260.4154720423476
 30
0.0
 10
164.7923036040715
 20
258.695401891163
 30
0.0
 10
164.8310030336239
 20
257.8156063360088
 30
0.0
 10
164.8705350537475
 20
256.0221827113434
 30
0.0
 10
164.8712630318912
 20
255.1085135387717
 30
0.0
 10
164.8536493362676
 20
253.7158141599065
 30
0.0
 10
164.8446109057054
 20
253.2476820678654
 30
0.0
 10
164.8217533554469
 20
252.3117411941282
 30
0.0
 10
164.8079276520748
 20
251.8430001196119
 30
0.0
 10
164.7297966433722
 20
249.4957392785449
 30
0.0
 10
164.6399356625392
 20
247.6067593994804
 30
0.0
 10
164.4976852689148
 20
244.7609775953052
 30
0.0
 10
164.4486393569657
 20
243.8101430454362
 30
0.0
 10
164.3516765580122
 20
241.9051968427983
 30
0.0
 10
164.3035965430734
 20
240.9510283638672
 30
0.0
 10
164.1644961951123
 20
238.0840740560219
 30
0.0
 10
164.0788095103331
 20
236.1667808676328
 30
0.0
 10
163.941734691275
 20
232.3237171948407
 30
0.0
 10
163.8894313000094
 20
230.3980477406967
 30
0.0
 10
163.8258139496823
 20
226.5418141095969
 30
0.0
 10
163.814884028956
 20
224.6122569604421
 30
0.0
 10
163.8014465056751
 20
220.754276790389
 30
0.0
 10
163.7952141878783
 20
218.8252839884665
 30
0.0
 10
163.78256823962
 20
214.9673011557489
 30
0.0
 10
163.7763187556582
 20
213.0383097806943
 30
0.0
 10
163.7574822713064
 20
207.251335624515
 30
0.0
 10
163.7449053606357
 20
203.3933528627674
 30
0.0
 10
163.6316151175605
 20
168.6715081163845
 30
0.0
 10
163.530508532821
 20
137.8076471134519
 30
0.0
 10
163.4298230264855
 20
106.9437853705264
 30
0.0
  0
LINE
  5
1AD
330
1F
100
AcDbEntity
  8
0
  6
Continuous
 62
     8
370
     0
100
AcDbLine
 10
124.0640339281
 20
107.843780674
 30
0.0
 11
124.1164562132
 21
106.9439591542
 31
0.0
  0
LINE
  5
1AE
330
1F
100
AcDbEntity
  8
0
  6
Continuous
 62
     8
370
     0
100
AcDbLine
 10
276.3231434699
 20
283.3342829421
 30
0.0
 11
231.2231437143
 21
283.3342829421
 31
0.0
  0
SPLINE
  5
1AF
330
1F
100
AcDbEntity
  8
0
  6
Continuous
 62
     8
370
     0
100
AcDbSpline
210
0.0
220
0.0
230
1.0
 70
     8
 71
     3
 72
    56
 73
    52
 74
     0
 42
0.000000001
 43
0.00000001
 40
0.0
 40
0.0
 40
0.0
 40
0.0
 40
0.4999999999999988
 40
0.4999999999999988
 40
0.5624999999999989
 40
0.5624999999999989
 40
0.6249999999999989
 40
0.6249999999999989
 40
0.656249999999999
 40
0.656249999999999
 40
0.687499999999999
 40
0.687499999999999
 40
0.7499999999999988
 40
0.7499999999999988
 40
0.7812499999999988
 40
0.7812499999999988
 40
0.7968749999999987
 40
0.7968749999999987
 40
0.8124999999999987
 40
0.8124999999999987
 40
0.8281249999999987
 40
0.8281249999999987
 40
0.8437499999999986
 40
0.8437499999999986
 40
0.8593749999999986
 40
0.8593749999999986
 40
0.8749999999999986
 40
0.8749999999999986
 40
0.8828124999999986
 40
0.8828124999999986
 40
0.8906249999999984
 40
0.8906249999999984
 40
0.9062499999999986
 40
0.9062499999999986
 40
0.9140624999999987
 40
0.9140624999999987
 40
0.9218749999999988
 40
0.9218749999999988
 40
0.9374999999999989
 40
0.9374999999999989
 40
0.945312499999999
 40
0.945312499999999
 40
0.9531249999999991
 40
0.9531249999999991
 40
0.9687499999999994
 40
0.9687499999999994
 40
0.9765624999999997
 40
0.9765624999999997
 40
0.9843749999999998
 40
0.9843749999999998
 40
1.0
 40
1.0
 40
1.0
 40
1.0
 10
162.3360649976077
 20
106.9471686760742
 30
0.0
 10
162.4484823338287
 20
137.4123070667093
 30
0.0
 10
162.559566885453
 20
167.877451149254
 30
0.0
 10
162.6835989639225
 20
202.1507408960277
 30
0.0
 10
162.6973119494606
 20
205.9588844254505
 30
0.0
 10
162.7244572914985
 20
213.5751723959209
 30
0.0
 10
162.7377204216079
 20
217.3833175872565
 30
0.0
 10
162.7587226525056
 20
223.0955326188173
 30
0.0
 10
162.7640770793683
 20
224.999611733912
 30
0.0
 10
162.8089497786249
 20
228.8074980472705
 30
0.0
 10
162.8501961448109
 20
230.7102288399639
 30
0.0
 10
163.0293926037961
 20
236.4076865281995
 30
0.0
 10
163.226201533962
 20
240.192511982969
 30
0.0
 10
163.5271576770305
 20
245.83152155669
 30
0.0
 10
163.6282132474063
 20
247.7046129017386
 30
0.0
 10
163.7528421371784
 20
250.5008281853481
 30
0.0
 10
163.7898176441947
 20
251.4306413802243
 30
0.0
 10
163.8459372222307
 20
253.2848859397449
 30
0.0
 10
163.865003892764
 20
254.2103269098529
 30
0.0
 10
163.8720534218061
 20
256.0255141281916
 30
0.0
 10
163.8602748869896
 20
256.9185707723603
 30
0.0
 10
163.7890910013041
 20
258.6704058523222
 30
0.0
 10
163.7298198025984
 20
259.5292108510001
 30
0.0
 10
163.537361030529
 20
261.2052242039081
 30
0.0
 10
163.4026400939874
 20
262.0259348583037
 30
0.0
 10
163.0366225399815
 20
263.5752816699699
 30
0.0
 10
162.8051404020059
 20
264.3091355303665
 30
0.0
 10
162.3580065737794
 20
265.3418230329193
 30
0.0
 10
162.1909882435025
 20
265.6761186271028
 30
0.0
 10
161.8261279658332
 20
266.3102380513694
 30
0.0
 10
161.6283168113483
 20
266.6109303117255
 30
0.0
 10
160.9869222596176
 20
267.4674282005454
 30
0.0
 10
160.4952335026841
 20
267.9773463882772
 30
0.0
 10
159.6531817188421
 20
268.6622274303834
 30
0.0
 10
159.3531445742958
 20
268.878229947929
 30
0.0
 10
158.7269064743356
 20
269.2779241524236
 30
0.0
 10
158.4009695144803
 20
269.4620578049331
 30
0.0
 10
157.3865797309128
 20
269.9751160323976
 30
0.0
 10
156.6618031614143
 20
270.2652129599484
 30
0.0
 10
155.5037231570301
 20
270.6415504274721
 30
0.0
 10
155.1057727396155
 20
270.7570128831098
 30
0.0
 10
154.2855406377818
 20
270.9698719359176
 30
0.0
 10
153.8659367171717
 20
271.0665068826202
 30
0.0
 10
152.5908410164062
 20
271.3283158045917
 30
0.0
 10
151.714445328096
 20
271.4667452742459
 30
0.0
 10
150.3629758023871
 20
271.6361532794494
 30
0.0
 10
149.90625871684
 20
271.686074027945
 30
0.0
 10
148.9802874076153
 20
271.7739800611797
 30
0.0
 10
148.5097376612939
 20
271.8120297559649
 30
0.0
 10
147.0889857908971
 20
271.9083905389016
 30
0.0
 10
146.1322135556308
 20
271.9485556659882
 30
0.0
 10
145.1660571973603
 20
271.9675105439509
 30
0.0
  0
SPLINE
  5
1B0
330
1F
100
AcDbEntity
  8
0
  6
Continuous
 62
     8
370
     0
100
AcDbSpline
210
0.0
220
0.0
230
1.0
 70
     8
 71
     3
 72
    12
 73
     8
 74
     0
 42
0.000000001
 43
0.00000001
 40
0.0
 40
0.0
 40
0.0
 40
0.0
 40
0.2500000000000004
 40
0.2500000000000004
 40
0.5000000000000009
 40
0.5000000000000009
 40
1.0
 40
1.0
 40
1.0
 40
1.0
 10
128.1818570349816
 20
102.88529874032
 30
0.0
 10
129.4345210860303
 20
102.4747282923184
 30
0.0
 10
130.7026082921703
 20
102.1159233620001
 30
0.0
 10
133.2691565746086
 20
101.4992523511751
 30
0.0
 10
134.5701442534699
 20
101.2411958128182
 30
0.0
 10
138.4842230109155
 20
100.6239601585985
 30
0.0
 10
141.1169099005215
 20
100.4176266822144
 30
0.0
 10
143.7731435920877
 20
100.4175490547635
 30
0.0
  0
SPLINE
  5
1B1
330
1F
100
AcDbEntity
  8
0
  6
Continuous
 62
     8
370
     0
100
AcDbSpline
210
0.0
220
0.0
230
1.0
 70
     8
 71
     3
 72
    20
 73
    16
 74
     0
 42
0.000000001
 43
0.00000001
 40
0.0
 40
0.0
 40
0.0
 40
0.0
 40
0.125
 40
0.125
 40
0.25
 40
0.25
 40
0.375
 40
0.375
 40
0.5
 40
0.5
 40
0.625
 40
0.625
 40
0.75
 40
0.75
 40
1.0
 40
1.0
 40
1.0
 40
1.0
 10
125.2098901544897
 20
106.9471698192668
 30
0.0
 10
125.2107341224607
 20
106.7205270571089
 30
0.0
 10
125.2303886676643
 20
106.4962846206124
 30
0.0
 10
125.3054574109894
 20
106.0523614110007
 30
0.0
 10
125.3614812804265
 20
105.8316560567627
 30
0.0
 10
125.5051990657167
 20
105.4077470019907
 30
0.0
 10
125.5929938274481
 20
105.2029674970534
 30
0.0
 10
125.7996786405585
 20
104.8073936849986
 30
0.0
 10
125.9198168181271
 20
104.6150605306855
 30
0.0
 10
126.1856802009241
 20
104.254362315327
 30
0.0
 10
126.3310568456392
 20
104.085815824826
 30
0.0
 10
126.6462324640119
 20
103.7718467706299
 30
0.0
 10
126.8172164315629
 20
103.6255716749592
 30
0.0
 10
127.3606099278085
 20
103.2293565155461
 30
0.0
 10
127.7545147199994
 20
103.0255579340725
 30
0.0
 10
128.1818736673662
 20
102.8853503255394
 30
0.0
  0
SPLINE
  5
1B2
330
1F
100
AcDbEntity
  8
0
  6
Continuous
 62
     8
370
     0
100
AcDbSpline
210
0.0
220
0.0
230
1.0
 70
     8
 71
     3
 72
    20
 73
    16
 74
     0
 42
0.000000001
 43
0.00000001
 40
0.0
 40
0.0
 40
0.0
 40
0.0
 40
0.1249999999999982
 40
0.1249999999999982
 40
0.2499999999999963
 40
0.2499999999999963
 40
0.3749999999999945
 40
0.3749999999999945
 40
0.4999999999999927
 40
0.4999999999999927
 40
0.6249999999999909
 40
0.6249999999999909
 40
0.749999999999989
 40
0.749999999999989
 40
1.0
 40
1.0
 40
1.0
 40
1.0
 10
159.3632343487453
 20
102.8849240823704
 30
0.0
 10
159.5769341582353
 20
102.954960406031
 30
0.0
 10
159.7828964904661
 20
103.041494104082
 30
0.0
 10
160.1800677231616
 20
103.2460636380035
 30
0.0
 10
160.3724515167436
 20
103.3651463629952
 30
0.0
 10
160.7326409573351
 20
103.6285152466385
 30
0.0
 10
160.9013625712235
 20
103.7730043266115
 30
0.0
 10
161.2164673109894
 20
104.0871748431689
 30
0.0
 10
161.3638559799267
 20
104.2582986720458
 30
0.0
 10
161.6297965278899
 20
104.6200575292371
 30
0.0
 10
161.7477952638646
 20
104.8094191834262
 30
0.0
 10
161.9541901646552
 20
105.2049366392992
 30
0.0
 10
162.0429584751327
 20
105.4121936875756
 30
0.0
 10
162.2593156237276
 20
106.0536303712725
 30
0.0
 10
162.3347070435567
 20
106.4937198701429
 30
0.0
 10
162.3363961786802
 20
106.9471674702189
 30
0.0
  0
SPLINE
  5
1B3
330
1F
100
AcDbEntity
  8
0
  6
Continuous
 62
     8
370
     0
100
AcDbSpline
210
0.0
220
0.0
230
1.0
 70
     8
 71
     3
 72
    12
 73
     8
 74
     0
 42
0.000000001
 43
0.00000001
 40
0.0
 40
0.0
 40
0.0
 40
0.0
 40
0.2500000000000008
 40
0.2500000000000008
 40
0.5000000000000017
 40
0.5000000000000017
 40
1.0
 40
1.0
 40
1.0
 40
1.0
 10
143.7731435920877
 20
100.4175490547635
 30
0.0
 10
145.1011551639888
 20
100.4175878654123
 30
0.0
 10
146.4255550767759
 20
100.4694992308019
 30
0.0
 10
149.0671735892194
 20
100.6765963039478
 30
0.0
 10
150.3868527705421
 20
100.8323433307078
 30
0.0
 10
154.3003313776096
 20
101.4510897644329
 30
0.0
 10
156.8580187506041
 20
102.0638750389486
 30
0.0
 10
159.3632393764327
 20
102.8849084723946
 30
0.0
  0
LWPOLYLINE
  5
1B4
330
1F
100
AcDbEntity
  8
0
  6
Continuous
 62
     8
370
     0
100
AcDbPolyline
 90
       15
 70
   128
 43
0.0
 10
253.7731435921
 20
269.3651223257
 10
256.5452410679
 20
269.4032245949
 10
259.2769149531
 20
269.5169800594
 10
261.9283321153
 20
269.7047197893
 10
264.4608273011
 20
269.963716872
 10
266.8374721732
 20
270.2901864126
 10
269.0236103561
 20
270.6793749407
 10
270.9873617466
 20
271.1256013885
 10
272.700091901
 20
271.6223613992
 10
274.1368227478
 20
272.1624092832
 10
275.2766069796
 20
272.7378735021
 10
276.1028223511
 20
273.3403609768
 10
276.6034194108
 20
273.9610837474
 10
276.7711003151
 20
274.590993084
 10
276.7416667964
 20
274.8553024307
  0
LWPOLYLINE
  5
1B5
330
1F
100
AcDbEntity
  8
0
  6
Continuous
 62
     8
370
     0
100
AcDbPolyline
 90
       14
 70
   128
 43
0.0
 10
230.8058758106
 20
274.3211107031
 10
230.9428677734
 20
273.9610837474
 10
231.4434648331
 20
273.3403609768
 10
232.2696802046
 20
272.7378735021
 10
233.4094644364
 20
272.1624092832
 10
234.8461952831
 20
271.6223613992
 10
236.5589254375
 20
271.1256013885
 10
238.5226768281
 20
270.6793749407
 10
240.708815011
 20
270.2901864126
 10
243.0854598831
 20
269.963716872
 10
245.6179550689
 20
269.7047197893
 10
248.2693722311
 20
269.5169800594
 10
251.0010461163
 20
269.4032245949
 10
253.7731435921
 20
269.3651223257
  0
SPLINE
  5
1B6
330
1F
100
AcDbEntity
  8
0
  6
Continuous
 62
     8
370
     0
100
AcDbSpline
210
0.0
220
0.0
230
1.0
 70
     8
 71
     3
 72
    22
 73
    18
 74
     0
 42
0.000000001
 43
0.00000001
 40
0.0
 40
0.0
 40
0.0
 40
0.0
 40
0.0022885884576752
 40
0.1073048253630027
 40
0.2161287624082021
 40
0.2786346985961858
 40
0.3416381205009136
 40
0.4060143131778706
 40
0.4708204529456683
 40
0.531966768485004
 40
0.5937858720275205
 40
0.6577768364730736
 40
0.7223640795666699
 40
0.7912399336651474
 40
0.8606114226128365
 40
0.9314795068280054
 40
0.9999999999999999
 40
0.9999999999999999
 40
0.9999999999999999
 40
0.9999999999999999
 10
253.7731435920877
 20
260.4168483689446
 30
0.0
 10
253.7845024866496
 20
260.4166887695676
 30
0.0
 10
254.3170858758517
 20
260.4092056490331
 30
0.0
 10
255.3927807686617
 20
260.4028164339248
 30
0.0
 10
256.7031227218174
 20
260.3589851787461
 30
0.0
 10
257.7523614616027
 20
260.3264600001385
 30
0.0
 10
258.5636463187674
 20
260.303669685859
 30
0.0
 10
259.3435908466827
 20
260.2891027002242
 30
0.0
 10
260.0722206653251
 20
260.2842843084148
 30
0.0
 10
260.7269026829301
 20
260.2786446526595
 30
0.0
 10
261.3065653125629
 20
260.2704263284878
 30
0.0
 10
261.8007841870606
 20
260.2529323965131
 30
0.0
 10
262.2409080880695
 20
260.2422539372379
 30
0.0
 10
262.618482843036
 20
260.2412223665323
 30
0.0
 10
262.9237564003968
 20
260.2515229069879
 30
0.0
 10
263.1514980196557
 20
260.2726615898699
 30
0.0
 10
263.2339224851745
 20
260.2984209113727
 30
0.0
 10
263.2744406189603
 20
260.311083652081
 30
0.0
  0
SPLINE
  5
1B7
330
1F
100
AcDbEntity
  8
0
  6
Continuous
 62
     8
370
     0
100
AcDbSpline
210
0.0
220
0.0
230
1.0
 70
     8
 71
     3
 72
    22
 73
    18
 74
     0
 42
0.000000001
 43
0.00000001
 40
0.0
 40
0.0
 40
0.0
 40
0.0
 40
0.0660510121096855
 40
0.1354198322538413
 40
0.2062320297113757
 40
0.2775765955193916
 40
0.3389719009027735
 40
0.4007917839432582
 40
0.4645454294726815
 40
0.529114724563655
 40
0.5916570100173595
 40
0.6546397638626043
 40
0.7189690930767725
 40
0.7838014004375222
 40
0.836657080531662
 40
0.9446059251320325
 40
1.0
 40
1.0
 40
1.0
 40
1.0
 10
244.2718968566341
 20
260.311046399178
 30
0.0
 10
244.3107123325367
 20
260.2987979146059
 30
0.0
 10
244.3902930243035
 20
260.2736856918988
 30
0.0
 10
244.6114884937423
 20
260.2522015527056
 30
0.0
 10
244.9164414093161
 20
260.2412460487047
 30
0.0
 10
245.2938662701978
 20
260.2421506382324
 30
0.0
 10
245.7262134292422
 20
260.2522617323535
 30
0.0
 10
246.2056389112945
 20
260.2696240688496
 30
0.0
 10
246.7892892367325
 20
260.2784001756279
 30
0.0
 10
247.4531156410534
 20
260.2841232151335
 30
0.0
 10
248.1796560748119
 20
260.2889556743976
 30
0.0
 10
248.9483640315508
 20
260.3028366624882
 30
0.0
 10
249.7672377906698
 20
260.3255507213164
 30
0.0
 10
250.5820982837729
 20
260.3511201562028
 30
0.0
 10
251.6306522627662
 20
260.3841152090201
 30
0.0
 10
252.6873004111422
 20
260.4069378644237
 30
0.0
 10
253.4981591129297
 20
260.4143385821064
 30
0.0
 10
253.7731435920877
 20
260.4168483689446
 30
0.0
  0
SPLINE
  5
1B8
330
1F
100
AcDbEntity
  8
0
  6
Continuous
 62
     8
370
     0
100
AcDbSpline
210
0.0
220
0.0
230
1.0
 70
     8
 71
     3
 72
    30
 73
    26
 74
     0
 42
0.000000001
 43
0.00000001
 40
0.0
 40
0.0
 40
0.0
 40
0.0
 40
0.1250000000000004
 40
0.1250000000000004
 40
0.1875000000000004
 40
0.1875000000000004
 40
0.2500000000000006
 40
0.2500000000000006
 40
0.3750000000000006
 40
0.3750000000000006
 40
0.4375000000000006
 40
0.4375000000000006
 40
0.5000000000000006
 40
0.5000000000000006
 40
0.6250000000000003
 40
0.6250000000000003
 40
0.6875000000000003
 40
0.6875000000000003
 40
0.7500000000000002
 40
0.7500000000000002
 40
0.8125000000000002
 40
0.8125000000000002
 40
0.8750000000000002
 40
0.8750000000000002
 40
1.0
 40
1.0
 40
1.0
 40
1.0
 10
270.9731886277837
 20
248.0367099314866
 30
0.0
 10
270.9700673146771
 20
248.3824163026801
 30
0.0
 10
270.8526000085208
 20
248.7318055853969
 30
0.0
 10
270.5115481636811
 20
249.2593765211021
 30
0.0
 10
270.3691998376889
 20
249.4367559944502
 30
0.0
 10
270.0324496677713
 20
249.7874051940058
 30
0.0
 10
269.8388749741857
 20
249.9601868973879
 30
0.0
 10
269.1853773873929
 20
250.4706886999136
 30
0.0
 10
268.6537093611409
 20
250.8007182605457
 30
0.0
 10
267.7146315311783
 20
251.2770872142186
 30
0.0
 10
267.3758833066323
 20
251.4335156285236
 30
0.0
 10
266.6575963363898
 20
251.7353186885475
 30
0.0
 10
266.2801060492391
 20
251.8799922869644
 30
0.0
 10
265.0933720736538
 20
252.2947965938625
 30
0.0
 10
264.2305476998761
 20
252.5459579502987
 30
0.0
 10
262.8276287257035
 20
252.8815967467733
 30
0.0
 10
262.3424216829686
 20
252.9862429963719
 30
0.0
 10
261.3561395187186
 20
253.1766978620293
 30
0.0
 10
260.8525771704239
 20
253.2631290214561
 30
0.0
 10
259.8245562351877
 20
253.4179985755488
 30
0.0
 10
259.3000954642411
 20
253.4864431067921
 30
0.0
 10
258.2300911412151
 20
253.6051508069771
 30
0.0
 10
257.6822084173079
 20
253.6555738846617
 30
0.0
 10
256.0230344347515
 20
253.7769968570058
 30
0.0
 10
254.9045266152059
 20
253.8183059164627
 30
0.0
 10
253.7731435920877
 20
253.8183059164627
 30
0.0
  0
SPLINE
  5
1B9
330
1F
100
AcDbEntity
  8
0
  6
Continuous
 62
     8
370
     0
100
AcDbSpline
210
0.0
220
0.0
230
1.0
 70
     8
 71
     3
 72
    38
 73
    34
 74
     0
 42
0.000000001
 43
0.00000001
 40
0.0
 40
0.0
 40
0.0
 40
0.0
 40
0.03125
 40
0.03125
 40
0.0625
 40
0.0625
 40
0.1249999999999999
 40
0.1249999999999999
 40
0.1874999999999998
 40
0.1874999999999998
 40
0.2499999999999998
 40
0.2499999999999998
 40
0.3124999999999998
 40
0.3124999999999998
 40
0.3749999999999997
 40
0.3749999999999997
 40
0.4999999999999994
 40
0.4999999999999994
 40
0.5624999999999994
 40
0.5624999999999994
 40
0.6249999999999994
 40
0.6249999999999994
 40
0.7499999999999997
 40
0.7499999999999997
 40
0.8124999999999999
 40
0.8124999999999999
 40
0.8750000000000001
 40
0.8750000000000001
 40
0.9375000000000002
 40
0.9375000000000002
 40
0.9687500000000001
 40
0.9687500000000001
 40
1.0
 40
1.0
 40
1.0
 40
1.0
 10
253.7731435920877
 20
252.0205555900317
 30
0.0
 10
254.0330270417981
 20
252.0205555898801
 30
0.0
 10
254.2954523799605
 20
252.0180555643425
 30
0.0
 10
254.8155044817174
 20
252.0082047558845
 30
0.0
 10
255.0747844342189
 20
252.0008538468821
 30
0.0
 10
255.850420050875
 20
251.9716747681479
 30
0.0
 10
256.3645784728851
 20
251.9427427536384
 30
0.0
 10
257.3870421922447
 20
251.8661680278962
 30
0.0
 10
257.8932440156206
 20
251.8185943872977
 30
0.0
 10
258.8816998555461
 20
251.7069436899211
 30
0.0
 10
259.3660887038922
 20
251.6427152215669
 30
0.0
 10
260.3153565600513
 20
251.4977778954695
 30
0.0
 10
260.7802427261806
 20
251.4170752758035
 30
0.0
 10
261.6905996611339
 20
251.2397179177766
 30
0.0
 10
262.1384044451607
 20
251.1424736276268
 30
0.0
 10
263.4320790984679
 20
250.831562686722
 30
0.0
 10
264.2272650385621
 20
250.599908407667
 30
0.0
 10
265.3202524740938
 20
250.2189412229723
 30
0.0
 10
265.6677978283574
 20
250.0863137682199
 30
0.0
 10
266.3289082701215
 20
249.810073953727
 30
0.0
 10
266.6404221132469
 20
249.6671799919416
 30
0.0
 10
267.5039512106039
 20
249.2323953555536
 30
0.0
 10
267.9925780420708
 20
248.9317427946733
 30
0.0
 10
268.5927702239109
 20
248.4665392518067
 30
0.0
 10
268.7704741703171
 20
248.3090588049484
 30
0.0
 10
269.0794988293655
 20
247.9891440055308
 30
0.0
 10
269.2100619359893
 20
247.8271537750672
 30
0.0
 10
269.4185768145674
 20
247.5053057300063
 30
0.0
 10
269.4973977058129
 20
247.3446016053404
 30
0.0
 10
269.5773742130631
 20
247.1039481732938
 30
0.0
 10
269.5976446234748
 20
247.0237977417447
 30
0.0
 10
269.625238950397
 20
246.8636470315694
 30
0.0
 10
269.6325677628399
 20
246.7831191763718
 30
0.0
 10
269.6332761688536
 20
246.7037305632095
 30
0.0
  0
SPLINE
  5
1BA
330
1F
100
AcDbEntity
  8
0
  6
Continuous
 62
     8
370
     0
100
AcDbSpline
210
0.0
220
0.0
230
1.0
 70
     8
 71
     3
 72
    38
 73
    34
 74
     0
 42
0.000000001
 43
0.00000001
 40
0.0
 40
0.0
 40
0.0
 40
0.0
 40
0.0312499999999999
 40
0.0312499999999999
 40
0.0624999999999999
 40
0.0624999999999999
 40
0.1249999999999996
 40
0.1249999999999996
 40
0.1874999999999994
 40
0.1874999999999994
 40
0.2499999999999991
 40
0.2499999999999991
 40
0.3124999999999988
 40
0.3124999999999988
 40
0.3749999999999986
 40
0.3749999999999986
 40
0.4999999999999986
 40
0.4999999999999986
 40
0.5624999999999987
 40
0.5624999999999987
 40
0.6249999999999987
 40
0.6249999999999987
 40
0.7499999999999992
 40
0.7499999999999992
 40
0.8124999999999994
 40
0.8124999999999994
 40
0.8749999999999996
 40
0.8749999999999996
 40
0.9374999999999998
 40
0.9374999999999998
 40
0.9687499999999999
 40
0.9687499999999999
 40
1.0
 40
1.0
 40
1.0
 40
1.0
 10
253.7731435920877
 20
252.0205555900317
 30
0.0
 10
253.5132601423784
 20
252.0205553822316
 30
0.0
 10
253.2508348042149
 20
252.0180555643425
 30
0.0
 10
252.730782702458
 20
252.0082047558845
 30
0.0
 10
252.4715027499566
 20
252.0008538468821
 30
0.0
 10
251.6958671333003
 20
251.9716747681478
 30
0.0
 10
251.1817087112904
 20
251.9427427536384
 30
0.0
 10
250.1592449919307
 20
251.8661680278962
 30
0.0
 10
249.6530431685549
 20
251.8185943872977
 30
0.0
 10
248.6645873286294
 20
251.7069436899211
 30
0.0
 10
248.1801984802832
 20
251.6427152215669
 30
0.0
 10
247.2309306241242
 20
251.4977778954695
 30
0.0
 10
246.7660444579949
 20
251.4170752758035
 30
0.0
 10
245.8556875230415
 20
251.2397179177766
 30
0.0
 10
245.4078827390146
 20
251.1424736276268
 30
0.0
 10
244.1142080857075
 20
250.831562686722
 30
0.0
 10
243.3190221456134
 20
250.599908407667
 30
0.0
 10
242.2260347100817
 20
250.2189412229722
 30
0.0
 10
241.878489355818
 20
250.0863137682199
 30
0.0
 10
241.2173789140539
 20
249.810073953727
 30
0.0
 10
240.9058650709285
 20
249.6671799919416
 30
0.0
 10
240.0423359735715
 20
249.2323953555535
 30
0.0
 10
239.5537091421046
 20
248.9317427946733
 30
0.0
 10
238.9535169602646
 20
248.4665392518068
 30
0.0
 10
238.7758130138583
 20
248.3090588049484
 30
0.0
 10
238.4667883548099
 20
247.9891440055308
 30
0.0
 10
238.3362252481861
 20
247.8271537750672
 30
0.0
 10
238.1277103696081
 20
247.5053057300064
 30
0.0
 10
238.0488894783625
 20
247.3446016053404
 30
0.0
 10
237.9689129711123
 20
247.1039481732938
 30
0.0
 10
237.9486425607006
 20
247.0237977417447
 30
0.0
 10
237.9210482337784
 20
246.8636470315694
 30
0.0
 10
237.9137199217174
 20
246.7831191275415
 30
0.0
 10
237.9130110153218
 20
246.7037305632095
 30
0.0
  0
SPLINE
  5
1BB
330
1F
100
AcDbEntity
  8
0
  6
Continuous
 62
     8
370
     0
100
AcDbSpline
210
0.0
220
0.0
230
1.0
 70
     8
 71
     3
 72
    30
 73
    26
 74
     0
 42
0.000000001
 43
0.00000001
 40
0.0
 40
0.0
 40
0.0
 40
0.0
 40
0.1250000000000004
 40
0.1250000000000004
 40
0.1875000000000004
 40
0.1875000000000004
 40
0.2500000000000006
 40
0.2500000000000006
 40
0.3750000000000006
 40
0.3750000000000006
 40
0.4375000000000006
 40
0.4375000000000006
 40
0.5000000000000006
 40
0.5000000000000006
 40
0.6250000000000003
 40
0.6250000000000003
 40
0.6875000000000003
 40
0.6875000000000003
 40
0.7500000000000002
 40
0.7500000000000002
 40
0.8125000000000002
 40
0.8125000000000002
 40
0.8750000000000002
 40
0.8750000000000002
 40
1.0
 40
1.0
 40
1.0
 40
1.0
 10
236.5730985563918
 20
248.0367099314866
 30
0.0
 10
236.5762198694983
 20
248.3824163026801
 30
0.0
 10
236.6936871756546
 20
248.7318055853969
 30
0.0
 10
237.0347390204943
 20
249.2593765211021
 30
0.0
 10
237.1770873464865
 20
249.4367559944502
 30
0.0
 10
237.5138375164041
 20
249.7874051940058
 30
0.0
 10
237.7074122099897
 20
249.9601868973879
 30
0.0
 10
238.3609097967826
 20
250.4706886999136
 30
0.0
 10
238.8925778230345
 20
250.8007182605457
 30
0.0
 10
239.8316556529972
 20
251.2770872142186
 30
0.0
 10
240.1704038775432
 20
251.4335156285236
 30
0.0
 10
240.8886908477857
 20
251.7353186885475
 30
0.0
 10
241.2661811349363
 20
251.8799922869644
 30
0.0
 10
242.4529151105217
 20
252.2947965938625
 30
0.0
 10
243.3157394842993
 20
252.5459579502988
 30
0.0
 10
244.7186584584719
 20
252.8815967467733
 30
0.0
 10
245.2038655012068
 20
252.986242996372
 30
0.0
 10
246.1901476654568
 20
253.1766978620294
 30
0.0
 10
246.6937100137515
 20
253.263129021456
 30
0.0
 10
247.7217309489877
 20
253.4179985755487
 30
0.0
 10
248.2461917199344
 20
253.486443106792
 30
0.0
 10
249.3161960429603
 20
253.605150806977
 30
0.0
 10
249.8640787668675
 20
253.6555738846619
 30
0.0
 10
251.5232527494239
 20
253.7769968570057
 30
0.0
 10
252.6417605689695
 20
253.8183059164627
 30
0.0
 10
253.7731435920877
 20
253.8183059164627
 30
0.0
  0
SPLINE
  5
1BC
330
1F
100
AcDbEntity
  8
0
  6
Continuous
 62
     8
370
     0
100
AcDbSpline
210
0.0
220
0.0
230
1.0
 70
     8
 71
     3
 72
    13
 73
     9
 74
     0
 42
0.000000001
 43
0.00000001
 40
0.0
 40
0.0
 40
0.0
 40
0.0
 40
0.1300425826632712
 40
0.3041707140980363
 40
0.4781315396460643
 40
0.6521601009191822
 40
0.8261234108555259
 40
1.0
 40
1.0
 40
1.0
 40
1.0
 10
240.6799244534058
 20
254.0174180343766
 30
0.0
 10
241.0162534483556
 20
254.222159002286
 30
0.0
 10
241.802929846737
 20
254.701049878941
 30
0.0
 10
243.5429884012019
 20
255.3671602161834
 30
0.0
 10
245.7393697297227
 20
255.9932800151438
 30
0.0
 10
248.2379450244388
 20
256.4717973867777
 30
0.0
 10
250.9416586988702
 20
256.8011185481515
 30
0.0
 10
252.8294721794369
 20
256.8456396737799
 30
0.0
 10
253.7731435920877
 20
256.8678946867604
 30
0.0
  0
LWPOLYLINE
  5
1BD
330
1F
100
AcDbEntity
  8
0
  6
Continuous
 62
     8
370
     0
100
AcDbPolyline
 90
        3
 70
   128
 43
0.0
 10
236.5730889913
 20
248.0355741158
 10
236.5730889913
 20
248.0355927423
 10
236.5730983045
 20
248.0367103294
  0
LINE
  5
1BE
330
1F
100
AcDbEntity
  8
0
  6
Continuous
 62
     8
370
     0
100
AcDbLine
 10
236.5730889913
 20
248.1748329178
 30
0.0
 11
236.5730889913
 21
248.0355741158
 31
0.0
  0
LWPOLYLINE
  5
1BF
330
1F
100
AcDbEntity
  8
0
  6
Continuous
 62
     8
370
     0
100
AcDbPolyline
 90
        3
 70
   128
 43
0.0
 10
270.9731981929
 20
248.0355741158
 10
270.9731981929
 20
248.0355927423
 10
270.9731888797
 20
248.0367103294
  0
SPLINE
  5
1C0
330
1F
100
AcDbEntity
  8
0
  6
Continuous
 62
     8
370
     0
100
AcDbSpline
210
0.0
220
0.0
230
1.0
 70
     8
 71
     3
 72
    13
 73
     9
 74
     0
 42
0.000000001
 43
0.00000001
 40
0.0
 40
0.0
 40
0.0
 40
0.0
 40
0.1300425826632712
 40
0.3041707140980362
 40
0.4781315396460641
 40
0.652160100919182
 40
0.8261234108555257
 40
1.0
 40
1.0
 40
1.0
 40
1.0
 10
266.8663627307696
 20
254.0174180343766
 30
0.0
 10
266.5300337358198
 20
254.222159002286
 30
0.0
 10
265.7433573374384
 20
254.701049878941
 30
0.0
 10
264.0032987829736
 20
255.3671602161834
 30
0.0
 10
261.8069174544527
 20
255.9932800151438
 30
0.0
 10
259.3083421597366
 20
256.4717973867777
 30
0.0
 10
256.6046284853052
 20
256.8011185481515
 30
0.0
 10
254.7168150047385
 20
256.84563967378
 30
0.0
 10
253.7731435920877
 20
256.8678946867604
 30
0.0
  0
SPLINE
  5
1C1
330
1F
100
AcDbEntity
  8
0
  6
Continuous
 62
     8
370
     0
100
AcDbSpline
210
0.0
220
0.0
230
1.0
 70
     8
 71
     3
 72
    10
 73
     6
 74
     0
 42
0.000000001
 43
0.00000001
 40
0.0
 40
0.0
 40
0.0
 40
0.0
 40
0.9116562011009197
 40
0.975858743422728
 40
1.0
 40
1.0
 40
1.0
 40
1.0
 10
270.9173188384456
 20
248.6109303012509
 30
0.0
 10
270.94470486913
 20
248.4790712813601
 30
0.0
 10
270.9740195356223
 20
248.3379262123044
 30
0.0
 10
270.9731888284432
 20
248.1913163270889
 30
0.0
 10
270.9731961831418
 20
248.1783705451494
 30
0.0
 10
270.9731981929226
 20
248.1748329177518
 30
0.0
  0
LINE
  5
1C2
330
1F
100
AcDbEntity
  8
0
  6
Continuous
 62
     8
370
     0
100
AcDbLine
 10
270.9731981929
 20
248.1748329178
 30
0.0
 11
270.9731981929
 21
248.0355741158
 31
0.0
  0
SPLINE
  5
1C3
330
1F
100
AcDbEntity
  8
0
  6
Continuous
 62
     8
370
     0
100
AcDbSpline
210
0.0
220
0.0
230
1.0
 70
     8
 71
     3
 72
    32
 73
    28
 74
     0
 42
0.000000001
 43
0.00000001
 40
0.0
 40
0.0
 40
0.0
 40
0.0
 40
0.0624999999999999
 40
0.0624999999999999
 40
0.1249999999999998
 40
0.1249999999999998
 40
0.2499999999999996
 40
0.2499999999999996
 40
0.3749999999999994
 40
0.3749999999999994
 40
0.4374999999999994
 40
0.4374999999999994
 40
0.4999999999999994
 40
0.4999999999999994
 40
0.5624999999999994
 40
0.5624999999999994
 40
0.6249999999999994
 40
0.6249999999999994
 40
0.7499999999999997
 40
0.7499999999999997
 40
0.8749999999999999
 40
0.8749999999999999
 40
0.9374999999999999
 40
0.9374999999999999
 40
0.9687499999999999
 40
0.9687499999999999
 40
1.0
 40
1.0
 40
1.0
 40
1.0
 10
253.7731435920877
 20
257.6115823498971
 30
0.0
 10
253.4213985061735
 20
257.6073673026169
 30
0.0
 10
253.0696903424811
 20
257.6062290292222
 30
0.0
 10
252.3730961366947
 20
257.6014720867976
 30
0.0
 10
252.034127633847
 20
257.5973582733047
 30
0.0
 10
251.0431526564001
 20
257.5858724255193
 30
0.0
 10
250.4080881953603
 20
257.5807830806065
 30
0.0
 10
249.2558597486051
 20
257.6051271820165
 30
0.0
 10
248.7303192443974
 20
257.6354658281591
 30
0.0
 10
248.0011194320809
 20
257.7258998551398
 30
0.0
 10
247.7674500302503
 20
257.7588273143215
 30
0.0
 10
247.3260481186937
 20
257.8191116483035
 30
0.0
 10
247.1180387563955
 20
257.8463666368412
 30
0.0
 10
246.7320520015191
 20
257.8893044957821
 30
0.0
 10
246.556264516738
 20
257.9053268515673
 30
0.0
 10
246.2306014525124
 20
257.9229274946035
 30
0.0
 10
246.0821778123941
 20
257.9351606331993
 30
0.0
 10
245.6776237845783
 20
257.979538929474
 30
0.0
 10
245.4693931731431
 20
258.019924144358
 30
0.0
 10
245.1688301770165
 20
258.1261714869882
 30
0.0
 10
245.0747168825637
 20
258.1916475461988
 30
0.0
 10
245.0135320626891
 20
258.3115746497745
 30
0.0
 10
245.0077093983232
 20
258.3568687161853
 30
0.0
 10
245.014058591581
 20
258.4227533637811
 30
0.0
 10
245.0202660179937
 20
258.4479426093683
 30
0.0
 10
245.0375113024887
 20
258.4966472223627
 30
0.0
 10
245.0495179663105
 20
258.521730967112
 30
0.0
 10
245.0607404459577
 20
258.5449093209286
 30
0.0
  0
SPLINE
  5
1C4
330
1F
100
AcDbEntity
  8
0
  6
Continuous
 62
     8
370
     0
100
AcDbSpline
210
0.0
220
0.0
230
1.0
 70
     8
 71
     3
 72
    34
 73
    30
 74
     0
 42
0.000000001
 43
0.00000001
 40
0.0
 40
0.0
 40
0.0
 40
0.0
 40
0.0625
 40
0.0625
 40
0.125
 40
0.125
 40
0.2499999999999999
 40
0.2499999999999999
 40
0.3749999999999999
 40
0.3749999999999999
 40
0.4374999999999999
 40
0.4374999999999999
 40
0.5
 40
0.5
 40
0.5625
 40
0.5625
 40
0.625
 40
0.625
 40
0.75
 40
0.75
 40
0.8125
 40
0.8125
 40
0.875
 40
0.875
 40
0.9375
 40
0.9375
 40
0.96875
 40
0.96875
 40
1.0
 40
1.0
 40
1.0
 40
1.0
 10
262.4855467382177
 20
258.5449093209286
 30
0.0
 10
262.5078050838607
 20
258.4989380358473
 30
0.0
 10
262.5301140846574
 20
258.4447191578055
 30
0.0
 10
262.5385713162726
 20
258.3569120077938
 30
0.0
 10
262.5327637578193
 20
258.311612950364
 30
0.0
 10
262.4716191545768
 20
258.1917005911493
 30
0.0
 10
262.377551130168
 20
258.1262284119828
 30
0.0
 10
262.0771245451575
 20
258.0199820093929
 30
0.0
 10
261.8689923207412
 20
257.9795941003871
 30
0.0
 10
261.4646002640285
 20
257.9352049610529
 30
0.0
 10
261.3162330234441
 20
257.9229754436628
 30
0.0
 10
260.9907062486237
 20
257.9053454950796
 30
0.0
 10
260.8149906338183
 20
257.8893773746886
 30
0.0
 10
260.4291601928703
 20
257.8464791739554
 30
0.0
 10
260.2212303564716
 20
257.8192441195378
 30
0.0
 10
259.7799907219833
 20
257.7589877624582
 30
0.0
 10
259.5469026639151
 20
257.7261578570186
 30
0.0
 10
258.8207565031248
 20
257.6359747438476
 30
0.0
 10
258.2944480972757
 20
257.6051536449138
 30
0.0
 10
257.4201332049336
 20
257.5867691917736
 30
0.0
 10
257.1149559839632
 20
257.5850381711427
 30
0.0
 10
256.4850032176626
 20
257.58654141518
 30
0.0
 10
256.1632734046141
 20
257.5898063737737
 30
0.0
 10
255.5058167324785
 20
257.5974371136139
 30
0.0
 10
255.1698890486265
 20
257.6014949870311
 30
0.0
 10
254.6521502817945
 20
257.6050300240293
 30
0.0
 10
254.4769778343961
 20
257.6059355575493
 30
0.0
 10
254.1255108193772
 20
257.6081541858717
 30
0.0
 10
253.9475538811941
 20
257.6094923488035
 30
0.0
 10
253.7731435920877
 20
257.6115823498971
 30
0.0
  0
LWPOLYLINE
  5
1C5
330
1F
100
AcDbEntity
  8
0
  6
Continuous
 62
     8
370
     0
100
AcDbPolyline
 90
        3
 70
   128
 43
0.0
 10
269.6332764651
 20
246.7037306801
 10
269.6332764651
 20
246.7037120536
 10
269.6332857784
 20
246.7026726976
  0
SPLINE
  5
1C6
330
1F
100
AcDbEntity
  8
0
  6
Continuous
 62
     8
370
     0
100
AcDbSpline
210
0.0
220
0.0
230
1.0
 70
     8
 71
     3
 72
    24
 73
    20
 74
     0
 42
0.000000001
 43
0.00000001
 40
0.0
 40
0.0
 40
0.0
 40
0.0
 40
0.1250000000000001
 40
0.1250000000000001
 40
0.2500000000000001
 40
0.2500000000000001
 40
0.3750000000000001
 40
0.3750000000000001
 40
0.5000000000000001
 40
0.5000000000000001
 40
0.7500000000000002
 40
0.7500000000000002
 40
0.8750000000000003
 40
0.8750000000000003
 40
0.9375000000000002
 40
0.9375000000000002
 40
0.9687500000000001
 40
0.9687500000000001
 40
1.0
 40
1.0
 40
1.0
 40
1.0
 10
269.6332852371056
 20
246.7026734908635
 30
0.0
 10
269.6424708708763
 20
245.5968060027344
 30
0.0
 10
269.6500627975249
 20
244.5639259704944
 30
0.0
 10
269.6624266310009
 20
242.648657597764
 30
0.0
 10
269.6672713192621
 20
241.7672849350047
 30
0.0
 10
269.6743587623616
 20
240.1567818503358
 30
0.0
 10
269.6764219983195
 20
239.4239248087956
 30
0.0
 10
269.6761892259097
 20
238.0665192546172
 30
0.0
 10
269.6742925975148
 20
237.4452979469658
 30
0.0
 10
269.664762694034
 20
235.7600322034434
 30
0.0
 10
269.6527111010345
 20
234.8718760848479
 30
0.0
 10
269.6246027322788
 20
233.8942871614813
 30
0.0
 10
269.6136077036997
 20
233.6273862663208
 30
0.0
 10
269.5943325414132
 20
233.3154419995513
 30
0.0
 10
269.5872199735464
 20
233.2262828046497
 30
0.0
 10
269.5766464581162
 20
233.1144006847825
 30
0.0
 10
269.5731999848757
 20
233.080707456211
 30
0.0
 10
269.5664237991097
 20
233.0207956226029
 30
0.0
 10
269.56289369731
 20
232.9930497242772
 30
0.0
 10
269.5583439374835
 20
232.972077722479
 30
0.0
  0
LWPOLYLINE
  5
1C7
330
1F
100
AcDbEntity
  8
0
  6
Continuous
 62
     8
370
     0
100
AcDbPolyline
 90
        3
 70
   128
 43
0.0
 10
237.913010719
 20
246.7037306801
 10
237.913010719
 20
246.7037120536
 10
237.9130014058
 20
246.7026726976
  0
SPLINE
  5
1C8
330
1F
100
AcDbEntity
  8
0
  6
Continuous
 62
     8
370
     0
100
AcDbSpline
210
0.0
220
0.0
230
1.0
 70
     8
 71
     3
 72
    15
 73
    11
 74
     0
 42
0.000000001
 43
0.00000001
 40
0.0
 40
0.0
 40
0.0
 40
0.0
 40
0.1952452989731166
 40
0.2909295156868087
 40
0.3865129550582475
 40
0.5776902354961918
 40
0.6732573175512756
 40
0.8644314898969857
 40
0.9599947334094908
 40
1.0
 40
1.0
 40
1.0
 40
1.0
 10
237.9130014058036
 20
246.7026726976056
 30
0.0
 10
237.9010681159099
 20
245.105723209158
 30
0.0
 10
237.88328665706
 20
242.7261537972751
 30
0.0
 10
237.8719921353389
 20
240.2780241666662
 30
0.0
 10
237.8679637760522
 20
238.1275483701015
 30
0.0
 10
237.8762038641104
 20
236.3647674383884
 30
0.0
 10
237.8978548736448
 20
234.6575851005759
 30
0.0
 10
237.9251915896691
 20
233.693143773099
 30
0.0
 10
237.960478389897
 20
233.1919074456834
 30
0.0
 10
237.9751857452969
 20
233.066143825853
 30
0.0
 10
237.9795257773084
 20
233.0290319100041
 30
0.0
  0
ENDSEC
  0
SECTION
  2
OBJECTS
  0
DICTIONARY
  5
C
330
0
100
AcDbDictionary
281
     1
  3
ACAD_GROUP
350
D
  3
ACAD_LAYOUT
350
1A
  3
ACAD_MLINESTYLE
350
17
  3
ACAD_PLOTSETTINGS
350
19
  3
ACAD_PLOTSTYLENAME
350
E
  3
ACAD_SCALELIST
350
47
  0
DICTIONARY
  5
D
102
{ACAD_REACTORS
330
C
102
}
330
C
100
AcDbDictionary
281
     1
  0
DICTIONARY
  5
1A
102
{ACAD_REACTORS
330
C
102
}
330
C
100
AcDbDictionary
281
     1
  3
Layout1
350
1E
  3
Layout2
350
26
  3
Model
350
22
  0
DICTIONARY
  5
17
102
{ACAD_REACTORS
330
C
102
}
330
C
100
AcDbDictionary
281
     1
  3
Standard
350
18
  0
DICTIONARY
  5
19
102
{ACAD_REACTORS
330
C
102
}
330
C
100
AcDbDictionary
281
     1
  0
ACDBDICTIONARYWDFLT
  5
E
102
{ACAD_REACTORS
330
C
102
}
330
C
100
AcDbDictionary
281
     1
  3
Normal
350
F
100
AcDbDictionaryWithDefault
340
F
  0
DICTIONARY
  5
47
102
{ACAD_REACTORS
330
C
102
}
330
C
100
AcDbDictionary
281
     1
  3
A0
350
48
  3
A1
350
49
  3
A2
350
4A
  3
A3
350
4B
  3
A4
350
4C
  3
A5
350
4D
  3
A6
350
4E
  3
A7
350
4F
  3
A8
350
50
  3
A9
350
51
  3
B0
350
52
  3
B1
350
53
  3
B2
350
54
  3
B3
350
55
  3
B4
350
56
  3
B5
350
57
  3
B6
350
58
  3
B7
350
59
  3
B8
350
5A
  3
B9
350
5B
  3
C0
350
5C
  3
C1
350
5D
  3
C2
350
5E
  3
C3
350
5F
  3
C4
350
60
  3
C5
350
61
  3
C6
350
62
  3
C7
350
63
  3
C8
350
64
  3
C9
350
65
  3
D0
350
66
  3
D1
350
67
  3
D2
350
68
  0
LAYOUT
  5
1E
102
{ACAD_REACTORS
330
1A
102
}
330
1A
100
AcDbPlotSettings
  1

  2
none_device
  4

  6

 40
0.0
 41
0.0
 42
0.0
 43
0.0
 44
0.0
 45
0.0
 46
0.0
 47
0.0
 48
0.0
 49
0.0
140
0.0
141
0.0
142
1.0
143
1.0
 70
   688
 72
     1
 73
     0
 74
     5
  7

 75
    16
147
1.0
148
0.0
149
0.0
100
AcDbLayout
  1
Layout1
 70
     1
 71
     1
 10
0.0
 20
0.0
 11
420.0
 21
297.0
 12
0.0
 22
0.0
 32
0.0
 14
1.0000000000E+20
 24
1.0000000000E+20
 34
1.0000000000E+20
 15
-1.0000000000E+20
 25
-1.0000000000E+20
 35
-1.0000000000E+20
146
0.0
 13
0.0
 23
0.0
 33
0.0
 16
1.0
 26
0.0
 36
0.0
 17
0.0
 27
1.0
 37
0.0
 76
     0
330
1B
  0
LAYOUT
  5
26
102
{ACAD_REACTORS
330
1A
102
}
330
1A
100
AcDbPlotSettings
  1

  2
none_device
  4

  6

 40
0.0
 41
0.0
 42
0.0
 43
0.0
 44
0.0
 45
0.0
 46
0.0
 47
0.0
 48
0.0
 49
0.0
140
0.0
141
0.0
142
1.0
143
1.0
 70
   688
 72
     1
 73
     0
 74
     5
  7

 75
    16
147
1.0
148
0.0
149
0.0
100
AcDbLayout
  1
Layout2
 70
     1
 71
     2
 10
0.0
 20
0.0
 11
0.0
 21
0.0
 12
0.0
 22
0.0
 32
0.0
 14
0.0
 24
0.0
 34
0.0
 15
0.0
 25
0.0
 35
0.0
146
0.0
 13
0.0
 23
0.0
 33
0.0
 16
1.0
 26
0.0
 36
0.0
 17
0.0
 27
1.0
 37
0.0
 76
     0
330
23
  0
LAYOUT
  5
22
102
{ACAD_REACTORS
330
1A
102
}
330
1A
100
AcDbPlotSettings
  1

  2
none_device
  4
Letter_(8.50_x_11.00_Inches)
  6

 40
6.35
 41
6.35
 42
6.35000508
 43
6.35000508
 44
215.9
 45
279.4
 46
0.0
 47
0.0
 48
0.0
 49
0.0
140
0.0
141
0.0
142
1.0
143
1.0
 70
  1712
 72
     1
 73
     0
 74
     0
  7

 75
     0
147
1.0
148
0.0
149
0.0
100
AcDbLayout
  1
Model
 70
     1
 71
     0
 10
0.0
 20
0.0
 11
594.0
 21
841.0
 12
0.0
 22
0.0
 32
0.0
 14
0.0
 24
0.0
 34
0.0
 15
594.0
 25
841.0
 35
0.0
146
0.0
 13
0.0
 23
0.0
 33
0.0
 16
1.0
 26
0.0
 36
0.0
 17
0.0
 27
1.0
 37
0.0
 76
     0
330
1F
331
29
  0
MLINESTYLE
  5
18
102
{ACAD_REACTORS
330
17
102
}
330
17
100
AcDbMlineStyle
  2
Standard
 70
     0
  3

 62
   256
 51
90.0
 52
90.0
 71
     2
 49
0.5
 62
   256
  6
BYLAYER
 49
-0.5
 62
   256
  6
BYLAYER
  0
ACDBPLACEHOLDER
  5
F
102
{ACAD_REACTORS
330
E
102
}
330
E
  0
SCALE
  5
48
102
{ACAD_REACTORS
330
47
102
}
330
47
100
AcDbScale
 70
     0
300
1:1
140
1.0
141
1.0
290
     1
  0
SCALE
  5
49
102
{ACAD_REACTORS
330
47
102
}
330
47
100
AcDbScale
 70
     0
300
1:2
140
1.0
141
2.0
290
     0
  0
SCALE
  5
4A
102
{ACAD_REACTORS
330
47
102
}
330
47
100
AcDbScale
 70
     0
300
1:4
140
1.0
141
4.0
290
     0
  0
SCALE
  5
4B
102
{ACAD_REACTORS
330
47
102
}
330
47
100
AcDbScale
 70
     0
300
1:5
140
1.0
141
5.0
290
     0
  0
SCALE
  5
4C
102
{ACAD_REACTORS
330
47
102
}
330
47
100
AcDbScale
 70
     0
300
1:8
140
1.0
141
8.0
290
     0
  0
SCALE
  5
4D
102
{ACAD_REACTORS
330
47
102
}
330
47
100
AcDbScale
 70
     0
300
1:10
140
1.0
141
10.0
290
     0
  0
SCALE
  5
4E
102
{ACAD_REACTORS
330
47
102
}
330
47
100
AcDbScale
 70
     0
300
1:16
140
1.0
141
16.0
290
     0
  0
SCALE
  5
4F
102
{ACAD_REACTORS
330
47
102
}
330
47
100
AcDbScale
 70
     0
300
1:20
140
1.0
141
20.0
290
     0
  0
SCALE
  5
50
102
{ACAD_REACTORS
330
47
102
}
330
47
100
AcDbScale
 70
     0
300
1:30
140
1.0
141
30.0
290
     0
  0
SCALE
  5
51
102
{ACAD_REACTORS
330
47
102
}
330
47
100
AcDbScale
 70
     0
300
1:40
140
1.0
141
40.0
290
     0
  0
SCALE
  5
52
102
{ACAD_REACTORS
330
47
102
}
330
47
100
AcDbScale
 70
     0
300
1:50
140
1.0
141
50.0
290
     0
  0
SCALE
  5
53
102
{ACAD_REACTORS
330
47
102
}
330
47
100
AcDbScale
 70
     0
300
1:100
140
1.0
141
100.0
290
     0
  0
SCALE
  5
54
102
{ACAD_REACTORS
330
47
102
}
330
47
100
AcDbScale
 70
     0
300
2:1
140
2.0
141
1.0
290
     0
  0
SCALE
  5
55
102
{ACAD_REACTORS
330
47
102
}
330
47
100
AcDbScale
 70
     0
300
4:1
140
4.0
141
1.0
290
     0
  0
SCALE
  5
56
102
{ACAD_REACTORS
330
47
102
}
330
47
100
AcDbScale
 70
     0
300
8:1
140
8.0
141
1.0
290
     0
  0
SCALE
  5
57
102
{ACAD_REACTORS
330
47
102
}
330
47
100
AcDbScale
 70
     0
300
10:1
140
10.0
141
1.0
290
     0
  0
SCALE
  5
58
102
{ACAD_REACTORS
330
47
102
}
330
47
100
AcDbScale
 70
     0
300
100:1
140
100.0
141
1.0
290
     0
  0
SCALE
  5
59
102
{ACAD_REACTORS
330
47
102
}
330
47
100
AcDbScale
 70
     0
300
1/128" = 1'-0"
140
0.0078125
141
12.0
290
     0
  0
SCALE
  5
5A
102
{ACAD_REACTORS
330
47
102
}
330
47
100
AcDbScale
 70
     0
300
1/64" = 1'-0"
140
0.015625
141
12.0
290
     0
  0
SCALE
  5
5B
102
{ACAD_REACTORS
330
47
102
}
330
47
100
AcDbScale
 70
     0
300
1/32" = 1'-0"
140
0.03125
141
12.0
290
     0
  0
SCALE
  5
5C
102
{ACAD_REACTORS
330
47
102
}
330
47
100
AcDbScale
 70
     0
300
1/16" = 1'-0"
140
0.0625
141
12.0
290
     0
  0
SCALE
  5
5D
102
{ACAD_REACTORS
330
47
102
}
330
47
100
AcDbScale
 70
     0
300
3/32" = 1'-0"
140
0.09375
141
12.0
290
     0
  0
SCALE
  5
5E
102
{ACAD_REACTORS
330
47
102
}
330
47
100
AcDbScale
 70
     0
300
1/8" = 1'-0"
140
0.125
141
12.0
290
     0
  0
SCALE
  5
5F
102
{ACAD_REACTORS
330
47
102
}
330
47
100
AcDbScale
 70
     0
300
3/16" = 1'-0"
140
0.1875
141
12.0
290
     0
  0
SCALE
  5
60
102
{ACAD_REACTORS
330
47
102
}
330
47
100
AcDbScale
 70
     0
300
1/4" = 1'-0"
140
0.25
141
12.0
290
     0
  0
SCALE
  5
61
102
{ACAD_REACTORS
330
47
102
}
330
47
100
AcDbScale
 70
     0
300
3/8" = 1'-0"
140
0.375
141
12.0
290
     0
  0
SCALE
  5
62
102
{ACAD_REACTORS
330
47
102
}
330
47
100
AcDbScale
 70
     0
300
1/2" = 1'-0"
140
0.5
141
12.0
290
     0
  0
SCALE
  5
63
102
{ACAD_REACTORS
330
47
102
}
330
47
100
AcDbScale
 70
     0
300
3/4" = 1'-0"
140
0.75
141
12.0
290
     0
  0
SCALE
  5
64
102
{ACAD_REACTORS
330
47
102
}
330
47
100
AcDbScale
 70
     0
300
1" = 1'-0"
140
1.0
141
12.0
290
     0
  0
SCALE
  5
65
102
{ACAD_REACTORS
330
47
102
}
330
47
100
AcDbScale
 70
     0
300
1-1/2" = 1'-0"
140
1.5
141
12.0
290
     0
  0
SCALE
  5
66
102
{ACAD_REACTORS
330
47
102
}
330
47
100
AcDbScale
 70
     0
300
3" = 1'-0"
140
3.0
141
12.0
290
     0
  0
SCALE
  5
67
102
{ACAD_REACTORS
330
47
102
}
330
47
100
AcDbScale
 70
     0
300
6" = 1'-0"
140
6.0
141
12.0
290
     0
  0
SCALE
  5
68
102
{ACAD_REACTORS
330
47
102
}
330
47
100
AcDbScale
 70
     0
300
1'-0" = 1'-0"
140
12.0
141
12.0
290
     0
  0
ENDSEC
  0
EOF
