  0
SECTION
  2
HEADER
  9
$ACADVER
  1
AC1024
  9
$ACADMAINTVER
 70
     6
  9
$DWGCODEPAGE
  3
ANSI_1252
  9
$INSBASE
 10
0.0
 20
0.0
 30
0.0
  9
$EXTMIN
 10
0.0
 20
0.0
 30
0.0
  9
$EXTMAX
 10
594.0
 20
841.0
 30
0.0
  9
$LIMMIN
 10
0.0
 20
0.0
  9
$LIMMAX
 10
594.0
 20
841.0
  9
$ORTHOMODE
 70
     0
  9
$REGENMODE
 70
     1
  9
$FILLMODE
 70
     1
  9
$QTEXTMODE
 70
     0
  9
$MIRRTEXT
 70
     1
  9
$LTSCALE
 40
1.0
  9
$ATTMODE
 70
     1
  9
$TEXTSIZE
 40
10.0
  9
$TRACEWID
 40
1.0
  9
$TEXTSTYLE
  7
Standard
  9
$CLAYER
  8
0
  9
$CELTYPE
  6
ByLayer
  9
$CECOLOR
 62
   256
  9
$CELTSCALE
 40
1.0
  9
$DISPSILH
 70
     0
  9
$DIMSCALE
 40
1.0
  9
$DIMASZ
 40
2.5
  9
$DIMEXO
 40
0.0
  9
$DIMDLI
 40
3.75
  9
$DIMRND
 40
0.0
  9
$DIMDLE
 40
0.0
  9
$DIMEXE
 40
1.0
  9
$DIMTP
 40
0.0
  9
$DIMTM
 40
0.0
  9
$DIMTXT
 40
3.5
  9
$DIMCEN
 40
2.5
  9
$DIMTSZ
 40
0.0
  9
$DIMTOL
 70
     0
  9
$DIMLIM
 70
     0
  9
$DIMTIH
 70
     1
  9
$DIMTOH
 70
     1
  9
$DIMSE1
 70
     0
  9
$DIMSE2
 70
     0
  9
$DIMTAD
 70
     1
  9
$DIMZIN
 70
     0
  9
$DIMBLK
  1

  9
$DIMASO
 70
     1
  9
$DIMSHO
 70
     1
  9
$DIMPOST
  1

  9
$DIMAPOST
  1

  9
$DIMALT
 70
     0
  9
$DIMALTD
 70
     3
  9
$DIMALTF
 40
0.0393700787
  9
$DIMLFAC
 40
1.0
  9
$DIMTOFL
 70
     1
  9
$DIMTVP
 40
0.0
  9
$DIMTIX
 70
     0
  9
$DIMSOXD
 70
     0
  9
$DIMSAH
 70
     0
  9
$DIMBLK1
  1

  9
$DIMBLK2
  1

  9
$DIMSTYLE
  2
ISO-25
  9
$DIMCLRD
 70
     0
  9
$DIMCLRE
 70
     0
  9
$DIMCLRT
 70
     0
  9
$DIMTFAC
 40
1.0
  9
$DIMGAP
 40
1.5
  9
$DIMJUST
 70
     0
  9
$DIMSD1
 70
     0
  9
$DIMSD2
 70
     0
  9
$DIMTOLJ
 70
     0
  9
$DIMTZIN
 70
     0
  9
$DIMALTZ
 70
     0
  9
$DIMALTTZ
 70
     0
  9
$DIMUPT
 70
     0
  9
$DIMDEC
 70
     2
  9
$DIMTDEC
 70
     2
  9
$DIMALTU
 70
     2
  9
$DIMALTTD
 70
     3
  9
$DIMTXSTY
  7
Standard
  9
$DIMAUNIT
 70
     0
  9
$DIMADEC
 70
     2
  9
$DIMALTRND
 40
0.0
  9
$DIMAZIN
 70
     0
  9
$DIMDSEP
 70
    44
  9
$DIMATFIT
 70
     3
  9
$DIMFRAC
 70
     0
  9
$DIMLDRBLK
  1

  9
$DIMLUNIT
 70
     2
  9
$DIMLWD
 70
    -2
  9
$DIMLWE
 70
    -2
  9
$DIMTMOVE
 70
     0
  9
$DIMFXL
 40
1.0
  9
$DIMFXLON
 70
     0
  9
$DIMJOGANG
 40
0.7853981634
  9
$DIMTFILL
 70
     0
  9
$DIMTFILLCLR
 70
     0
  9
$DIMARCSYM
 70
     0
  9
$DIMLTYPE
  6

  9
$DIMLTEX1
  6

  9
$DIMLTEX2
  6

  9
$DIMTXTDIRECTION
 70
     0
  9
$LUNITS
 70
     2
  9
$LUPREC
 70
     2
  9
$SKETCHINC
 40
1.0
  9
$FILLETRAD
 40
10.0
  9
$AUNITS
 70
     0
  9
$AUPREC
 70
     2
  9
$MENU
  1
.
  9
$ELEVATION
 40
0.0
  9
$PELEVATION
 40
0.0
  9
$THICKNESS
 40
0.0
  9
$LIMCHECK
 70
     0
  9
$CHAMFERA
 40
0.0
  9
$CHAMFERB
 40
0.0
  9
$CHAMFERC
 40
0.0
  9
$CHAMFERD
 40
0.0
  9
$SKPOLY
 70
     0
  9
$TDCREATE
 40
2457339.352314479
  9
$TDUCREATE
 40
2457339.310647813
  9
$TDUPDATE
 40
2457339.352315752
  9
$TDUUPDATE
 40
2457339.310649086
  9
$TDINDWG
 40
0.0000000116
  9
$TDUSRTIMER
 40
0.0000000116
  9
$USRTIMER
 70
     1
  9
$ANGBASE
 50
0.0
  9
$ANGDIR
 70
     0
  9
$PDMODE
 70
     0
  9
$PDSIZE
 40
-1.0
  9
$PLINEWID
 40
0.0
  9
$SPLFRAME
 70
     0
  9
$SPLINETYPE
 70
     6
  9
$SPLINESEGS
 70
     8
  9
$HANDSEED
  5
25C
  9
$SURFTAB1
 70
     6
  9
$SURFTAB2
 70
     6
  9
$SURFTYPE
 70
     6
  9
$SURFU
 70
     6
  9
$SURFV
 70
     6
  9
$UCSBASE
  2

  9
$UCSNAME
  2

  9
$UCSORG
 10
0.0
 20
0.0
 30
0.0
  9
$UCSXDIR
 10
1.0
 20
0.0
 30
0.0
  9
$UCSYDIR
 10
0.0
 20
1.0
 30
0.0
  9
$UCSORTHOREF
  2

  9
$UCSORTHOVIEW
 70
     0
  9
$UCSORGTOP
 10
0.0
 20
0.0
 30
0.0
  9
$UCSORGBOTTOM
 10
0.0
 20
0.0
 30
0.0
  9
$UCSORGLEFT
 10
0.0
 20
0.0
 30
0.0
  9
$UCSORGRIGHT
 10
0.0
 20
0.0
 30
0.0
  9
$UCSORGFRONT
 10
0.0
 20
0.0
 30
0.0
  9
$UCSORGBACK
 10
0.0
 20
0.0
 30
0.0
  9
$PUCSBASE
  2

  9
$PUCSNAME
  2

  9
$PUCSORG
 10
0.0
 20
0.0
 30
0.0
  9
$PUCSXDIR
 10
1.0
 20
0.0
 30
0.0
  9
$PUCSYDIR
 10
0.0
 20
1.0
 30
0.0
  9
$PUCSORTHOREF
  2

  9
$PUCSORTHOVIEW
 70
     0
  9
$PUCSORGTOP
 10
0.0
 20
0.0
 30
0.0
  9
$PUCSORGBOTTOM
 10
0.0
 20
0.0
 30
0.0
  9
$PUCSORGLEFT
 10
0.0
 20
0.0
 30
0.0
  9
$PUCSORGRIGHT
 10
0.0
 20
0.0
 30
0.0
  9
$PUCSORGFRONT
 10
0.0
 20
0.0
 30
0.0
  9
$PUCSORGBACK
 10
0.0
 20
0.0
 30
0.0
  9
$USERI1
 70
     0
  9
$USERI2
 70
     0
  9
$USERI3
 70
     0
  9
$USERI4
 70
     0
  9
$USERI5
 70
     0
  9
$USERR1
 40
0.0
  9
$USERR2
 40
0.0
  9
$USERR3
 40
0.0
  9
$USERR4
 40
0.0
  9
$USERR5
 40
0.0
  9
$WORLDVIEW
 70
     1
  9
$SHADEDGE
 70
     3
  9
$SHADEDIF
 70
    70
  9
$TILEMODE
 70
     1
  9
$MAXACTVP
 70
    64
  9
$PINSBASE
 10
0.0
 20
0.0
 30
0.0
  9
$PLIMCHECK
 70
     0
  9
$PEXTMIN
 10
1.0000000000E+20
 20
1.0000000000E+20
 30
1.0000000000E+20
  9
$PEXTMAX
 10
-1.0000000000E+20
 20
-1.0000000000E+20
 30
-1.0000000000E+20
  9
$PLIMMIN
 10
0.0
 20
0.0
  9
$PLIMMAX
 10
420.0
 20
297.0
  9
$UNITMODE
 70
     0
  9
$VISRETAIN
 70
     1
  9
$PLINEGEN
 70
     0
  9
$PSLTSCALE
 70
     1
  9
$TREEDEPTH
 70
  3020
  9
$CMLSTYLE
  2
Standard
  9
$CMLJUST
 70
     0
  9
$CMLSCALE
 40
20.0
  9
$PROXYGRAPHICS
 70
     1
  9
$MEASUREMENT
 70
     1
  9
$CELWEIGHT
370
    -1
  9
$ENDCAPS
280
     0
  9
$JOINSTYLE
280
     0
  9
$LWDISPLAY
290
     1
  9
$INSUNITS
 70
     4
  9
$HYPERLINKBASE
  1

  9
$STYLESHEET
  1

  9
$XEDIT
290
     1
  9
$CEPSNTYPE
380
     0
  9
$PSTYLEMODE
290
     1
  9
$FINGERPRINTGUID
  2
{37C882A1-57E7-4549-AC30-DFD0548F9D34}
  9
$VERSIONGUID
  2
{FAEB1C32-E019-11D5-929B-00C0DF256EC4}
  9
$EXTNAMES
290
     1
  9
$PSVPSCALE
 40
0.0
  9
$OLESTARTUP
290
     0
  9
$SORTENTS
280
   127
  9
$INDEXCTL
280
     0
  9
$HIDETEXT
280
     1
  9
$XCLIPFRAME
280
     2
  9
$HALOGAP
280
     0
  9
$OBSCOLOR
 70
   257
  9
$OBSLTYPE
280
     0
  9
$INTERSECTIONDISPLAY
280
     0
  9
$INTERSECTIONCOLOR
 70
   257
  9
$DIMASSOC
280
     2
  9
$PROJECTNAME
  1

  9
$CAMERADISPLAY
290
     0
  9
$LENSLENGTH
 40
50.0
  9
$CAMERAHEIGHT
 40
0.0
  9
$STEPSPERSEC
 40
2.0
  9
$STEPSIZE
 40
6.0
  9
$3DDWFPREC
 40
2.0
  9
$PSOLWIDTH
 40
5.0
  9
$PSOLHEIGHT
 40
80.0
  9
$LOFTANG1
 40
1.5707963268
  9
$LOFTANG2
 40
1.5707963268
  9
$LOFTMAG1
 40
0.0
  9
$LOFTMAG2
 40
0.0
  9
$LOFTPARAM
 70
     7
  9
$LOFTNORMALS
280
     1
  9
$LATITUDE
 40
37.795
  9
$LONGITUDE
 40
-122.394
  9
$NORTHDIRECTION
 40
0.0
  9
$TIMEZONE
 70
 -8000
  9
$LIGHTGLYPHDISPLAY
280
     1
  9
$TILEMODELIGHTSYNCH
280
     1
  9
$CMATERIAL
347
44
  9
$SOLIDHIST
280
     1
  9
$SHOWHIST
280
     1
  9
$DWFFRAME
280
     2
  9
$DGNFRAME
280
     2
  9
$REALWORLDSCALE
290
     1
  9
$INTERFERECOLOR
 62
   256
  9
$CSHADOW
280
     0
  9
$SHADOWPLANELOCATION
 40
0.0
  0
ENDSEC
  0
SECTION
  2
CLASSES
  0
CLASS
  1
ACDBDICTIONARYWDFLT
  2
AcDbDictionaryWithDefault
  3
ObjectDBX Classes
 90
        0
 91
        4
280
     0
281
     0
  0
CLASS
  1
VISUALSTYLE
  2
AcDbVisualStyle
  3
ObjectDBX Classes
 90
     4095
 91
        4
280
     0
281
     0
  0
CLASS
  1
MATERIAL
  2
AcDbMaterial
  3
ObjectDBX Classes
 90
     1153
 91
        4
280
     0
281
     0
  0
CLASS
  1
SCALE
  2
AcDbScale
  3
ObjectDBX Classes
 90
     1153
 91
        4
280
     0
281
     0
  0
CLASS
  1
SUN
  2
AcDbSun
  3
SCENEOE
 90
     1153
 91
        4
280
     0
281
     0
  0
CLASS
  1
DICTIONARYVAR
  2
AcDbDictionaryVar
  3
ObjectDBX Classes
 90
        0
 91
        4
280
     0
281
     0
  0
ENDSEC
  0
SECTION
  2
TABLES
  0
TABLE
  2
VPORT
  5
8
330
0
100
AcDbSymbolTable
 70
     1
  0
VPORT
  5
29
330
8
100
AcDbSymbolTableRecord
100
AcDbViewportTableRecord
  2
*Active
 70
     0
 10
0.0
 20
0.0
 11
1.0
 21
1.0
 12
297.0
 22
420.5
 13
0.0
 23
0.0
 14
10.0
 24
10.0
 15
10.0
 25
10.0
 16
0.0
 26
0.0
 36
1.0
 17
0.0
 27
0.0
 37
0.0
 40
841.0
 41
0.7063020214
 42
50.0
 43
0.0
 44
0.0
 50
0.0
 51
0.0
 71
     0
 72
  2000
 73
     1
 74
     3
 75
     0
 76
     0
 77
     0
 78
     0
281
     0
 65
     1
110
0.0
120
0.0
130
0.0
111
1.0
121
0.0
131
0.0
112
0.0
122
1.0
132
0.0
 79
     0
146
0.0
 60
     3
 61
     5
292
     1
282
     1
141
0.0
142
0.0
 63
   250
361
69
  0
ENDTAB
  0
TABLE
  2
LTYPE
  5
5
330
0
100
AcDbSymbolTable
 70
     6
  0
LTYPE
  5
14
330
5
100
AcDbSymbolTableRecord
100
AcDbLinetypeTableRecord
  2
ByBlock
 70
     0
  3

 72
    65
 73
     0
 40
0.0
  0
LTYPE
  5
15
330
5
100
AcDbSymbolTableRecord
100
AcDbLinetypeTableRecord
  2
ByLayer
 70
     0
  3

 72
    65
 73
     0
 40
0.0
  0
LTYPE
  5
16
330
5
100
AcDbSymbolTableRecord
100
AcDbLinetypeTableRecord
  2
Continuous
 70
     0
  3
Solid line
 72
    65
 73
     0
 40
0.0
  0
LTYPE
  5
6A
330
5
100
AcDbSymbolTableRecord
100
AcDbLinetypeTableRecord
  2
HIDDEN
 70
     0
  3
Hidden __ __ __ __ __ __ __ __ __ __ __ __ __ __
 72
    65
 73
     2
 40
1.905
 49
1.27
 74
     0
 49
-0.635
 74
     0
  0
LTYPE
  5
6B
330
5
100
AcDbSymbolTableRecord
100
AcDbLinetypeTableRecord
  2
PHANTOM
 70
     0
  3
Phantom ______  __  __  ______  __  __  ______
 72
    65
 73
     6
 40
12.7
 49
6.35
 74
     0
 49
-1.27
 74
     0
 49
1.27
 74
     0
 49
-1.27
 74
     0
 49
1.27
 74
     0
 49
-1.27
 74
     0
  0
LTYPE
  5
6C
330
5
100
AcDbSymbolTableRecord
100
AcDbLinetypeTableRecord
  2
CENTER
 70
     0
  3
Center ____ _ ____ _ ____ _ ____ _ ____ _ ____
 72
    65
 73
     4
 40
10.16
 49
6.35
 74
     0
 49
-1.27
 74
     0
 49
1.27
 74
     0
 49
-1.27
 74
     0
  0
LTYPE
  5
6D
330
5
100
AcDbSymbolTableRecord
100
AcDbLinetypeTableRecord
  2
CENTERX2
 70
     0
  3
Center (2x) ________  __  ________  __  _____
 72
    65
 73
     4
 40
20.32
 49
12.7
 74
     0
 49
-2.54
 74
     0
 49
2.54
 74
     0
 49
-2.54
 74
     0
  0
LTYPE
  5
6E
330
5
100
AcDbSymbolTableRecord
100
AcDbLinetypeTableRecord
  2
DOT2
 70
     0
  3
Dot (.5x) ........................................
 72
    65
 73
     2
 40
0.635
 49
0.0
 74
     0
 49
-0.635
 74
     0
  0
ENDTAB
  0
TABLE
  2
LAYER
  5
2
330
0
100
AcDbSymbolTable
 70
     1
  0
LAYER
  5
10
330
2
100
AcDbSymbolTableRecord
100
AcDbLayerTableRecord
  2
0
 70
     0
 62
     7
  6
Continuous
370
    -3
390
F
347
46
  0
ENDTAB
  0
TABLE
  2
STYLE
  5
3
330
0
100
AcDbSymbolTable
 70
     3
  0
STYLE
  5
11
330
3
100
AcDbSymbolTableRecord
100
AcDbTextStyleTableRecord
  2
Standard
 70
     0
 40
0.0
 41
1.0
 50
0.0
 71
     0
 42
10.0
  3
txt
  4

  0
STYLE
  5
72
330
3
100
AcDbSymbolTableRecord
100
AcDbTextStyleTableRecord
  2
SLDTEXTSTYLE0
 70
     0
 40
0.0
 41
0.96
 50
0.0
 71
     0
 42
10.0
  3
ISOCP3
  4

  0
STYLE
  5
89
330
3
100
AcDbSymbolTableRecord
100
AcDbTextStyleTableRecord
  2
SLDTEXTSTYLE1
 70
     0
 40
0.0
 41
0.605
 50
0.0
 71
     0
 42
10.0
  3
TXT
  4

  0
ENDTAB
  0
TABLE
  2
VIEW
  5
6
330
0
100
AcDbSymbolTable
 70
     0
  0
ENDTAB
  0
TABLE
  2
UCS
  5
7
330
0
100
AcDbSymbolTable
 70
     0
  0
ENDTAB
  0
TABLE
  2
APPID
  5
9
330
0
100
AcDbSymbolTable
 70
     1
  0
APPID
  5
12
330
9
100
AcDbSymbolTableRecord
100
AcDbRegAppTableRecord
  2
ACAD
 70
     0
  0
ENDTAB
  0
TABLE
  2
DIMSTYLE
  5
A
330
0
100
AcDbSymbolTable
 70
     2
100
AcDbDimStyleTable
  0
DIMSTYLE
105
27
330
A
100
AcDbSymbolTableRecord
100
AcDbDimStyleTableRecord
  2
ISO-25
 70
     0
 41
2.5
 42
0.625
 43
3.75
 44
1.25
 73
     0
 74
     0
 77
     1
 78
     8
140
2.5
141
2.5
143
0.0393700787
147
0.625
171
     3
172
     1
178
     0
271
     2
272
     2
274
     3
278
    44
283
     0
284
     8
340
11
  0
DIMSTYLE
105
73
102
{ACAD_REACTORS
330
71
330
7E
102
}
330
A
100
AcDbSymbolTableRecord
100
AcDbDimStyleTableRecord
  2
SLDDIMSTYLE0
 70
     0
 41
2.5
 44
0.0
 45
0.000000001
 73
     0
 74
     0
 77
     1
 78
    12
 79
     3
140
6.0
147
1.5
173
     1
178
     0
271
     2
272
     2
276
     2
284
    12
340
72
  0
ENDTAB
  0
TABLE
  2
BLOCK_RECORD
  5
1
330
0
100
AcDbSymbolTable
 70
     3
  0
BLOCK_RECORD
  5
1F
330
1
100
AcDbSymbolTableRecord
100
AcDbBlockTableRecord
  2
*Model_Space
340
22
 70
     0
280
     1
281
     0
  0
BLOCK_RECORD
  5
1B
330
1
100
AcDbSymbolTableRecord
100
AcDbBlockTableRecord
  2
*Paper_Space
340
1E
 70
     0
280
     1
281
     0
  0
BLOCK_RECORD
  5
23
330
1
100
AcDbSymbolTableRecord
100
AcDbBlockTableRecord
  2
*Paper_Space0
340
26
 70
     0
280
     1
281
     0
  0
BLOCK_RECORD
  5
74
330
1
100
AcDbSymbolTableRecord
100
AcDbBlockTableRecord
  2
_D
340
0
 70
     0
280
     1
281
     0
  0
BLOCK_RECORD
  5
7F
330
1
100
AcDbSymbolTableRecord
100
AcDbBlockTableRecord
  2
_D_1
340
0
 70
     0
280
     1
281
     0
  0
ENDTAB
  0
ENDSEC
  0
SECTION
  2
BLOCKS
  0
BLOCK
  5
20
330
1F
100
AcDbEntity
  8
0
100
AcDbBlockBegin
  2
*Model_Space
 70
     0
 10
0.0
 20
0.0
 30
0.0
  3
*Model_Space
  1
*Model_Space
  0
ENDBLK
  5
21
330
1F
100
AcDbEntity
  8
0
100
AcDbBlockEnd
  0
BLOCK
  5
1C
330
1B
100
AcDbEntity
 67
     1
  8
0
100
AcDbBlockBegin
  2
*Paper_Space
 70
     0
 10
0.0
 20
0.0
 30
0.0
  3
*Paper_Space
  1
*Paper_Space
  0
ENDBLK
  5
1D
330
1B
100
AcDbEntity
 67
     1
  8
0
100
AcDbBlockEnd
  0
BLOCK
  5
24
330
23
100
AcDbEntity
  8
0
100
AcDbBlockBegin
  2
*Paper_Space0
 70
     0
 10
0.0
 20
0.0
 30
0.0
  3
*Paper_Space0
  1
*Paper_Space0
  0
ENDBLK
  5
25
330
23
100
AcDbEntity
  8
0
100
AcDbBlockEnd
  0
BLOCK
  5
75
330
74
100
AcDbEntity
  8
0
100
AcDbBlockBegin
  2
_D
 70
     0
 10
0.0
 20
0.0
 30
0.0
  3
_D
  1
_D
  0
SOLID
  5
77
330
74
100
AcDbEntity
  8
0
  6
Continuous
 62
     7
370
     0
100
AcDbTrace
 10
42.7614395004
 20
152.0299240879
 30
0.0
 11
42.4614395004
 21
149.5299240879
 31
0.0
 12
43.0614395004
 22
149.5299240879
 32
0.0
 13
43.0614395004
 23
149.5299240879
 33
0.0
  0
SOLID
  5
78
330
74
100
AcDbEntity
  8
0
  6
Continuous
 62
     7
370
     0
100
AcDbTrace
 10
42.7614395004
 20
52.0299240879
 30
0.0
 11
43.0614395004
 21
54.5299240879
 31
0.0
 12
42.4614395004
 22
54.5299240879
 32
0.0
 13
42.4614395004
 23
54.5299240879
 33
0.0
  0
LINE
  5
79
330
74
100
AcDbEntity
  8
0
  6
Continuous
 62
     7
370
     0
100
AcDbLine
 10
56.6850079902
 20
152.0299240879
 30
0.0
 11
41.7614395004
 21
152.0299240879
 31
0.0
  0
LINE
  5
7A
330
74
100
AcDbEntity
  8
0
  6
Continuous
 62
     7
370
     0
100
AcDbLine
 10
56.6850079902
 20
52.0299240879
 30
0.0
 11
41.7614395004
 21
52.0299240879
 31
0.0
  0
LINE
  5
7B
330
74
100
AcDbEntity
  8
0
  6
Continuous
 62
     7
370
     0
100
AcDbLine
 10
42.7614395004
 20
152.0299240879
 30
0.0
 11
42.7614395004
 21
52.0299240879
 31
0.0
  0
MTEXT
  5
7C
330
74
100
AcDbEntity
  8
0
  6
Continuous
 62
     7
370
     0
100
AcDbMText
 10
35.0270332946
 20
94.3680541463
 30
0.0
 40
6.0
 41
0.0
 46
0.0
 71
     1
 72
     1
  1
100
  7
SLDTEXTSTYLE0
 11
-7.044195017643634E-15
 21
1.0
 31
0.0
 73
     1
 44
1.0
  0
MTEXT
  5
7D
330
74
100
AcDbEntity
  8
0
  6
Continuous
 62
     7
370
     0
100
AcDbMText
 10
35.0270332946
 20
105.7430548466
 30
0.0
 40
6.0
 41
0.0
 46
0.0
 71
     1
 72
     1
  1
mm
  7
SLDTEXTSTYLE0
 11
-7.044195017643634E-15
 21
1.0
 31
0.0
 73
     1
 44
1.0
  0
ENDBLK
  5
76
330
74
100
AcDbEntity
  8
0
100
AcDbBlockEnd
  0
BLOCK
  5
80
330
7F
100
AcDbEntity
  8
0
100
AcDbBlockBegin
  2
_D_1
 70
     0
 10
0.0
 20
0.0
 30
0.0
  3
_D_1
  1
_D_1
  0
SOLID
  5
82
330
7F
100
AcDbEntity
  8
0
  6
Continuous
 62
     7
370
     0
100
AcDbTrace
 10
56.6850079902
 20
38.4602342313
 30
0.0
 11
59.1850079902
 21
38.1602342313
 31
0.0
 12
59.1850079902
 22
38.7602342313
 32
0.0
 13
59.1850079902
 23
38.7602342313
 33
0.0
  0
SOLID
  5
83
330
7F
100
AcDbEntity
  8
0
  6
Continuous
 62
     7
370
     0
100
AcDbTrace
 10
156.6850079902
 20
38.4602342313
 30
0.0
 11
154.1850079902
 21
38.7602342313
 31
0.0
 12
154.1850079902
 22
38.1602342313
 32
0.0
 13
154.1850079902
 23
38.1602342313
 33
0.0
  0
LINE
  5
84
330
7F
100
AcDbEntity
  8
0
  6
Continuous
 62
     7
370
     0
100
AcDbLine
 10
56.6850079902
 20
52.0299240879
 30
0.0
 11
56.6850079902
 21
37.4602342313
 31
0.0
  0
LINE
  5
85
330
7F
100
AcDbEntity
  8
0
  6
Continuous
 62
     7
370
     0
100
AcDbLine
 10
156.6850079902
 20
52.0299240879
 30
0.0
 11
156.6850079902
 21
37.4602342313
 31
0.0
  0
LINE
  5
86
330
7F
100
AcDbEntity
  8
0
  6
Continuous
 62
     7
370
     0
100
AcDbLine
 10
56.6850079902
 20
38.4602342313
 30
0.0
 11
156.6850079902
 21
38.4602342313
 31
0.0
  0
MTEXT
  5
87
330
7F
100
AcDbEntity
  8
0
  6
Continuous
 62
     7
370
     0
100
AcDbMText
 10
93.9626484861
 20
46.1946404371
 30
0.0
 40
6.0
 41
0.0
 46
0.0
 71
     1
 72
     1
  1
100
  7
SLDTEXTSTYLE0
 73
     1
 44
1.0
  0
MTEXT
  5
88
330
7F
100
AcDbEntity
  8
0
  6
Continuous
 62
     7
370
     0
100
AcDbMText
 10
105.3376491864
 20
46.1946404371
 30
0.0
 40
6.0
 41
0.0
 46
0.0
 71
     1
 72
     1
  1
mm
  7
SLDTEXTSTYLE0
 73
     1
 44
1.0
  0
ENDBLK
  5
81
330
7F
100
AcDbEntity
  8
0
100
AcDbBlockEnd
  0
ENDSEC
  0
SECTION
  2
ENTITIES
  0
LINE
  5
6F
330
1F
100
AcDbEntity
  8
0
  6
Continuous
 62
     7
370
     0
100
AcDbLine
 10
56.6850079902
 20
152.0299240879
 30
0.0
 11
56.6850079902
 21
52.0299240879
 31
0.0
  0
LINE
  5
70
330
1F
100
AcDbEntity
  8
0
  6
Continuous
 62
     7
370
     0
100
AcDbLine
 10
56.6850079902
 20
52.0299240879
 30
0.0
 11
156.6850079902
 21
52.0299240879
 31
0.0
  0
DIMENSION
  5
71
330
1F
100
AcDbEntity
  8
0
  6
Continuous
 62
     7
370
     0
100
AcDbDimension
280
     0
  2
_D
 10
42.7614395004
 20
52.0299240879
 30
0.0
 11
42.7614395004
 21
105.4472211621
 31
0.0
 70
   160
  1
<>mm
 71
     2
 42
-1.0
 73
     0
 74
     0
 75
     0
  3
SLDDIMSTYLE0
100
AcDbAlignedDimension
 13
56.6850079902
 23
152.0299240879
 33
0.0
 14
56.6850079902
 24
52.0299240879
 34
0.0
 50
90.0
100
AcDbRotatedDimension
  0
DIMENSION
  5
7E
330
1F
100
AcDbEntity
  8
0
  6
Continuous
 62
     7
370
     0
100
AcDbDimension
280
     0
  2
_D_1
 10
156.6850079902
 20
38.4602342313
 30
0.0
 11
105.0418155019
 21
38.4602342313
 31
0.0
 70
   160
  1
<>mm
 71
     2
 42
-1.0
 73
     0
 74
     0
 75
     0
  3
SLDDIMSTYLE0
100
AcDbAlignedDimension
 13
56.6850079902
 23
52.0299240879
 33
0.0
 14
156.6850079902
 24
52.0299240879
 34
0.0
100
AcDbRotatedDimension
  0
MTEXT
  5
8A
330
1F
100
AcDbEntity
  8
0
  6
Continuous
 62
     7
370
     0
100
AcDbMText
 10
293.8447690857
 20
49.3034557666
 30
0.0
 40
10.0
 41
0.0
 46
0.0
 71
     1
 72
     1
  1
35 201 05 38
  7
SLDTEXTSTYLE1
 73
     1
 44
1.0
  0
MTEXT
  5
8B
330
1F
100
AcDbEntity
  8
0
  6
Continuous
 62
     7
370
     0
100
AcDbMText
 10
412.8252631579
 20
48.4342449499
 30
0.0
 40
10.0
 41
0.0
 46
0.0
 71
     1
 72
     1
  1
KLUDI GmbH & Co KG
  7
SLDTEXTSTYLE1
 73
     1
 44
1.0
  0
LINE
  5
8C
330
1F
100
AcDbEntity
  8
0
  6
Continuous
 62
     7
370
    15
100
AcDbLine
 10
200.8296439598
 20
379.4709579635
 30
0.0
 11
201.9263614447
 21
379.4748887936
 31
0.0
  0
LINE
  5
8D
330
1F
100
AcDbEntity
  8
0
  6
Continuous
 62
     7
370
    15
100
AcDbLine
 10
202.3083319543
 20
379.4748887936
 30
0.0
 11
203.4050494392
 21
379.4709579635
 31
0.0
  0
LINE
  5
8E
330
1F
100
AcDbEntity
  8
0
  6
Continuous
 62
     7
370
    15
100
AcDbLine
 10
216.1173466995
 20
348.5718985304
 30
0.0
 11
216.1173466995
 21
354.8069596305
 31
0.0
  0
LINE
  5
8F
330
1F
100
AcDbEntity
  8
0
  6
Continuous
 62
     7
370
    15
100
AcDbLine
 10
188.1173466995
 20
354.8137075212
 30
0.0
 11
188.1173466995
 21
348.5718985304
 31
0.0
  0
LINE
  5
90
330
1F
100
AcDbEntity
  8
0
  6
Continuous
 62
     7
370
    15
100
AcDbLine
 10
189.1173466995
 20
343.6545862002
 30
0.0
 11
190.0304284818
 21
343.1751556818
 31
0.0
  0
LINE
  5
91
330
1F
100
AcDbEntity
  8
0
  6
Continuous
 62
     7
370
    15
100
AcDbLine
 10
214.2042649173
 20
343.1751556818
 30
0.0
 11
215.1173466995
 21
343.6545862002
 31
0.0
  0
LINE
  5
92
330
1F
100
AcDbEntity
  8
0
  6
Continuous
 62
     7
370
    15
100
AcDbLine
 10
69.7657321666
 20
379.1365068742
 30
0.0
 11
62.7802367466
 21
379.0755453792
 31
0.0
  0
LINE
  5
93
330
1F
100
AcDbEntity
  8
0
  6
Continuous
 62
     7
370
    15
100
AcDbLine
 10
108.6173466995
 20
379.4755597776
 30
0.0
 11
81.4939026925
 21
379.2388570678
 31
0.0
  0
LINE
  5
94
330
1F
100
AcDbEntity
  8
0
  6
Continuous
 62
     7
370
    15
100
AcDbLine
 10
62.7802367466
 20
329.8755741761
 30
0.0
 11
108.6173466995
 21
329.4755597776
 31
0.0
  0
LINE
  5
95
330
1F
100
AcDbEntity
  8
0
  6
Continuous
 62
     7
370
    15
100
AcDbLine
 10
295.6173466995
 20
329.4755597815
 30
0.0
 11
341.4544566525
 21
329.87557418
 31
0.0
  0
LINE
  5
96
330
1F
100
AcDbEntity
  8
0
  6
Continuous
 62
     7
370
    15
100
AcDbLine
 10
322.7667273444
 20
379.238630726
 30
0.0
 11
295.6173466995
 21
379.4755597815
 31
0.0
  0
LINE
  5
97
330
1F
100
AcDbEntity
  8
0
  6
Continuous
 62
     7
370
    15
100
AcDbLine
 10
341.4544566525
 20
379.0755453831
 30
0.0
 11
334.4983590704
 21
379.136250327
 31
0.0
  0
ARC
  5
98
330
1F
100
AcDbEntity
  8
0
  6
Continuous
 62
     7
370
    15
100
AcDbCircle
 10
62.792890223
 20
377.6256005907
 30
0.0
 40
1.450000000000278
100
AcDbArc
 50
90.5
 51
177.0416025162
  0
ARC
  5
99
330
1F
100
AcDbEntity
  8
0
  6
Continuous
 62
     7
370
    15
100
AcDbCircle
 10
62.792890223
 20
331.3255189645
 30
0.0
 40
1.450000000000278
100
AcDbArc
 50
182.9583974838
 51
269.5
  0
ARC
  5
9A
330
1F
100
AcDbEntity
  8
0
  6
Continuous
 62
     7
370
    15
100
AcDbCircle
 10
341.441803176
 20
331.3255189684
 30
0.0
 40
1.450000000000274
100
AcDbArc
 50
270.5
 51
357.0416025162
  0
ARC
  5
9B
330
1F
100
AcDbEntity
  8
0
  6
Continuous
 62
     7
370
    15
100
AcDbCircle
 10
341.441803176
 20
377.6256005946
 30
0.0
 40
1.450000000000274
100
AcDbArc
 50
2.9583974838
 51
89.5
  0
ARC
  5
9C
330
1F
100
AcDbEntity
  8
0
  6
Continuous
 62
     7
370
    15
100
AcDbCircle
 10
510.745095386
 20
354.4755597776
 30
0.0
 40
450.0000000000003
100
AcDbArc
 50
182.7849290165
 51
182.958397484
  0
ARC
  5
9D
330
1F
100
AcDbEntity
  8
0
  6
Continuous
 62
     7
370
    15
100
AcDbCircle
 10
510.745095386
 20
354.4755597776
 30
0.0
 40
450.0000000000003
100
AcDbArc
 50
177.041602516
 51
177.2150709835
  0
ARC
  5
9E
330
1F
100
AcDbEntity
  8
0
  6
Continuous
 62
     7
370
    15
100
AcDbCircle
 10
-106.5104019869
 20
354.4755597815
 30
0.0
 40
450.0000000000002
100
AcDbArc
 50
357.041602516
 51
357.2150709835
  0
ARC
  5
9F
330
1F
100
AcDbEntity
  8
0
  6
Continuous
 62
     7
370
    15
100
AcDbCircle
 10
-106.5104019869
 20
354.4755597815
 30
0.0
 40
450.0000000000002
100
AcDbArc
 50
2.7849290165
 51
2.958397484
  0
LINE
  5
A0
330
1F
100
AcDbEntity
  8
0
  6
Continuous
 62
     7
370
    15
100
AcDbLine
 10
293.1173466995
 20
331.5755597797
 30
0.0
 11
295.6173466995
 21
331.5755597797
 31
0.0
  0
LINE
  5
A1
330
1F
100
AcDbEntity
  8
0
  6
Continuous
 62
     7
370
    15
100
AcDbLine
 10
295.6173466995
 20
377.3755597829
 30
0.0
 11
293.1173466995
 21
377.3755597829
 31
0.0
  0
LINE
  5
A2
330
1F
100
AcDbEntity
  8
0
  6
Continuous
 62
     7
370
    15
100
AcDbLine
 10
108.6173466995
 20
331.9755597776
 30
0.0
 11
111.1173466995
 21
331.9755597776
 31
0.0
  0
LINE
  5
A3
330
1F
100
AcDbEntity
  8
0
  6
Continuous
 62
     7
370
    15
100
AcDbLine
 10
111.1173466995
 20
376.9755597776
 30
0.0
 11
108.6173466995
 21
376.9755597776
 31
0.0
  0
ARC
  5
A4
330
1F
100
AcDbEntity
  8
0
  6
Continuous
 62
     7
370
    15
100
AcDbCircle
 10
342.9044076644
 20
375.9505882921
 30
0.0
 40
0.2000000000006838
100
AcDbArc
 50
2.7365416299
 51
74.4193767422
  0
ARC
  5
A5
330
1F
100
AcDbEntity
  8
0
  6
Continuous
 62
     7
370
    15
100
AcDbCircle
 10
61.3302857346
 20
375.9505882882
 30
0.0
 40
0.2000000000007547
100
AcDbArc
 50
105.5806232578
 51
177.2634583701
  0
ARC
  5
A6
330
1F
100
AcDbEntity
  8
0
  6
Continuous
 62
     7
370
    15
100
AcDbCircle
 10
-106.3826533005
 20
354.4755597815
 30
0.0
 40
450.0000000000001
100
AcDbArc
 50
357.4132958516
 51
0.0
  0
ARC
  5
A7
330
1F
100
AcDbEntity
  8
0
  6
Continuous
 62
     7
370
    15
100
AcDbCircle
 10
-106.3826533005
 20
354.4755597815
 30
0.0
 40
450.0
100
AcDbArc
 50
0.0
 51
2.7365416344
  0
ARC
  5
A8
330
1F
100
AcDbEntity
  8
0
  6
Continuous
 62
     7
370
    15
100
AcDbCircle
 10
510.6173466995
 20
354.4755597776
 30
0.0
 40
450.0000000000001
100
AcDbArc
 50
177.2634583656
 51
182.5867041484
  0
SPLINE
  5
A9
330
1F
100
AcDbEntity
  8
0
  6
Continuous
 62
     7
370
    15
100
AcDbSpline
210
0.0
220
0.0
230
1.0
 70
     8
 71
     3
 72
    18
 73
    14
 74
     0
 42
0.000000001
 43
0.00000001
 40
0.0
 40
0.0
 40
0.0
 40
0.0
 40
0.0667752581991329
 40
0.1307132551878864
 40
0.1873784310930394
 40
0.2920755333096392
 40
0.3966901825947614
 40
0.4672803493421158
 40
0.542528064889958
 40
0.6325455572568617
 40
0.7385425649923907
 40
0.8609195207312785
 40
1.0
 40
1.0
 40
1.0
 40
1.0
 10
175.9515653846613
 20
379.4174148926719
 30
0.0
 10
175.6253061093227
 20
379.4216297273261
 30
0.0
 10
174.9866502199276
 20
379.4298803095417
 30
0.0
 10
173.7915796609875
 20
379.4372293498089
 30
0.0
 10
172.0026668937636
 20
379.4373183189495
 30
0.0
 10
169.4308722504952
 20
379.4167426308801
 30
0.0
 10
166.5616459611091
 20
379.4103362459537
 30
0.0
 10
163.8308560358403
 20
379.4112026659204
 30
0.0
 10
161.1505138529057
 20
379.4206068629388
 30
0.0
 10
157.9472326864082
 20
379.4451711744979
 30
0.0
 10
154.1393212997016
 20
379.4659548746143
 30
0.0
 10
149.710583379924
 20
379.4749587600676
 30
0.0
 10
146.5475324005015
 20
379.475351126291
 30
0.0
 10
144.8649692477012
 20
379.4755598427973
 30
0.0
  0
SPLINE
  5
AA
330
1F
100
AcDbEntity
  8
0
  6
Continuous
 62
     7
370
    15
100
AcDbSpline
210
0.0
220
0.0
230
1.0
 70
     8
 71
     3
 72
    16
 73
    12
 74
     0
 42
0.000000001
 43
0.00000001
 40
0.0
 40
0.0
 40
0.0
 40
0.0
 40
0.117111527158283
 40
0.2151031891591484
 40
0.2943645852489254
 40
0.3957304016284696
 40
0.5042122346961575
 40
0.6217839232724086
 40
0.746795458393349
 40
0.8819610951311576
 40
1.0
 40
1.0
 40
1.0
 40
1.0
 10
259.3697241513484
 20
379.4755598427973
 30
0.0
 10
257.8797259463958
 20
379.4755951610626
 30
0.0
 10
255.1429896617296
 20
379.4756600314618
 30
0.0
 10
251.40096140259
 20
379.4752191179318
 30
0.0
 10
247.8741661288908
 20
379.4722968313754
 30
0.0
 10
244.3033378661359
 20
379.4449273268823
 30
0.0
 10
240.4408435737528
 20
379.4083210265539
 30
0.0
 10
236.4687952627957
 20
379.4115597071226
 30
0.0
 10
232.6080715627841
 20
379.423998641051
 30
0.0
 10
229.6547069341897
 20
379.4261005108709
 30
0.0
 10
228.3656766521988
 20
379.4107934872272
 30
0.0
 10
227.7647564559673
 20
379.40365765824
 30
0.0
  0
LINE
  5
AB
330
1F
100
AcDbEntity
  8
0
  6
Continuous
 62
     7
370
    15
100
AcDbLine
 10
213.8673466995
 20
325.1755597776
 30
0.0
 11
213.8673466995
 21
329.4755597776
 31
0.0
  0
LINE
  5
AC
330
1F
100
AcDbEntity
  8
0
  6
Continuous
 62
     7
370
    15
100
AcDbLine
 10
190.3673466995
 20
329.4755597776
 30
0.0
 11
190.3673466995
 21
325.1755597776
 31
0.0
  0
LINE
  5
AD
330
1F
100
AcDbEntity
  8
0
  6
Continuous
 62
     7
370
    15
100
AcDbLine
 10
212.5923466995
 20
321.9505597776
 30
0.0
 11
211.3673466995
 21
323.1755597776
 31
0.0
  0
LINE
  5
AE
330
1F
100
AcDbEntity
  8
0
  6
Continuous
 62
     7
370
    15
100
AcDbLine
 10
192.8673466995
 20
323.1755597776
 30
0.0
 11
191.6423466995
 21
321.9505597776
 31
0.0
  0
LINE
  5
AF
330
1F
100
AcDbEntity
  8
0
  6
Continuous
 62
     7
370
    15
100
AcDbLine
 10
191.6423466995
 20
315.3505597776
 30
0.0
 11
192.8173466995
 21
314.1755597776
 31
0.0
  0
LINE
  5
B0
330
1F
100
AcDbEntity
  8
0
  6
Continuous
 62
     7
370
    15
100
AcDbLine
 10
211.4173466995
 20
314.1755597776
 30
0.0
 11
212.5923466995
 21
315.3505597776
 31
0.0
  0
LINE
  5
B1
330
1F
100
AcDbEntity
  8
0
  6
Continuous
 62
     7
370
    15
100
AcDbLine
 10
212.5923466995
 20
315.3505597776
 30
0.0
 11
212.5923466995
 21
321.9505597776
 31
0.0
  0
LINE
  5
B2
330
1F
100
AcDbEntity
  8
0
  6
Continuous
 62
     7
370
    15
100
AcDbLine
 10
191.6423466995
 20
321.9505597776
 30
0.0
 11
191.6423466995
 21
315.3505597776
 31
0.0
  0
ARC
  5
B3
330
1F
100
AcDbEntity
  8
0
  6
Continuous
 62
     7
370
    15
100
AcDbCircle
 10
211.8673466995
 20
324.6755597776
 30
0.0
 40
0.5
100
AcDbArc
 50
90.0
 51
180.0
  0
ARC
  5
B4
330
1F
100
AcDbEntity
  8
0
  6
Continuous
 62
     7
370
    15
100
AcDbCircle
 10
192.3673466995
 20
324.6755597776
 30
0.0
 40
0.5
100
AcDbArc
 50
0.0
 51
90.0
  0
LINE
  5
B5
330
1F
100
AcDbEntity
  8
0
  6
Continuous
 62
     7
370
    15
100
AcDbLine
 10
211.3673466995
 20
323.1755597776
 30
0.0
 11
211.3673466995
 21
324.6755597776
 31
0.0
  0
LINE
  5
B6
330
1F
100
AcDbEntity
  8
0
  6
Continuous
 62
     7
370
    15
100
AcDbLine
 10
192.8673466995
 20
324.6755597776
 30
0.0
 11
192.8673466995
 21
323.1755597776
 31
0.0
  0
LINE
  5
B7
330
1F
100
AcDbEntity
  8
0
  6
Continuous
 62
     7
370
    15
100
AcDbLine
 10
81.5473466995
 20
379.226389368
 30
0.0
 11
81.5473466995
 21
384.8560944191
 31
0.0
  0
LINE
  5
B8
330
1F
100
AcDbEntity
  8
0
  6
Continuous
 62
     7
370
    15
100
AcDbLine
 10
69.6873466995
 20
384.8560944191
 30
0.0
 11
69.6873466995
 21
379.1177800253
 31
0.0
  0
ARC
  5
B9
330
1F
100
AcDbEntity
  8
0
  6
Continuous
 62
     7
370
    15
100
AcDbCircle
 10
80.7973466995
 20
384.8560944191
 30
0.0
 40
0.7500000000000193
100
AcDbArc
 50
0.0
 51
84.8250179637
  0
ARC
  5
BA
330
1F
100
AcDbEntity
  8
0
  6
Continuous
 62
     7
370
    15
100
AcDbCircle
 10
70.4373466995
 20
384.8560944191
 30
0.0
 40
0.7500000000000181
100
AcDbArc
 50
95.1749820363
 51
180.0
  0
ARC
  5
BB
330
1F
100
AcDbEntity
  8
0
  6
Continuous
 62
     7
370
    15
100
AcDbCircle
 10
333.7973466995
 20
384.7794750669
 30
0.0
 40
0.7499999999999653
100
AcDbArc
 50
0.0
 51
84.8250179636
  0
ARC
  5
BC
330
1F
100
AcDbEntity
  8
0
  6
Continuous
 62
     7
370
    15
100
AcDbCircle
 10
323.4373466995
 20
384.7794750669
 30
0.0
 40
0.75
100
AcDbArc
 50
95.1749820364
 51
180.0
  0
LINE
  5
BD
330
1F
100
AcDbEntity
  8
0
  6
Continuous
 62
     7
370
    15
100
AcDbLine
 10
334.5473466995
 20
379.1247484289
 30
0.0
 11
334.5473466995
 21
384.7794750669
 31
0.0
  0
LINE
  5
BE
330
1F
100
AcDbEntity
  8
0
  6
Continuous
 62
     7
370
    15
100
AcDbLine
 10
322.6873466995
 20
384.7794750669
 30
0.0
 11
322.6873466995
 21
379.2198132284
 31
0.0
  0
ARC
  5
BF
330
1F
100
AcDbEntity
  8
0
  6
Continuous
 62
     7
370
    15
100
AcDbCircle
 10
75.6173466995
 20
327.6607958204
 30
0.0
 40
58.17938778877858
100
AcDbArc
 50
84.8250179637
 51
95.1749820363
  0
ARC
  5
C0
330
1F
100
AcDbEntity
  8
0
  6
Continuous
 62
     7
370
    15
100
AcDbCircle
 10
328.6173466995
 20
327.5841764682
 30
0.0
 40
58.17938778877858
100
AcDbArc
 50
84.8250179637
 51
95.1749820363
  0
SPLINE
  5
C1
330
1F
100
AcDbEntity
  8
0
  6
Continuous
 62
     7
370
    15
100
AcDbSpline
210
0.0
220
0.0
230
1.0
 70
     8
 71
     3
 72
     9
 73
     5
 74
     0
 42
0.000000001
 43
0.00000001
 40
0.0
 40
0.0
 40
0.0
 40
0.0
 40
0.7061338578520763
 40
0.9999999999999999
 40
0.9999999999999999
 40
0.9999999999999999
 40
0.9999999999999999
 10
343.151200061298
 20
334.0985002769011
 30
0.0
 10
343.1523579592224
 20
334.119904109776
 30
0.0
 10
343.1539977303673
 20
334.1502154064754
 30
0.0
 10
343.1543151210971
 20
334.1545830514929
 30
0.0
 10
343.1544083914864
 20
334.1558665544845
 30
0.0
  0
SPLINE
  5
C2
330
1F
100
AcDbEntity
  8
0
  6
Continuous
 62
     7
370
    15
100
AcDbSpline
210
0.0
220
0.0
230
1.0
 70
     8
 71
     3
 72
     9
 73
     5
 74
     0
 42
0.000000001
 43
0.00000001
 40
0.0
 40
0.0
 40
0.0
 40
0.0
 40
0.8421491124728694
 40
1.0
 40
1.0
 40
1.0
 40
1.0
 10
61.08024599462819
 20
334.1564973438211
 30
0.0
 10
61.08022828709819
 20
334.1567469247956
 30
0.0
 10
61.0802072605012
 20
334.1570432867711
 30
0.0
 10
61.08024654839978
 20
334.1564388418272
 30
0.0
 10
61.08025275002943
 20
334.1563434296564
 30
0.0
  0
ARC
  5
C3
330
1F
100
AcDbEntity
  8
0
  6
Continuous
 62
     7
370
    15
100
AcDbCircle
 10
61.3302857346
 20
333.1135175174
 30
0.0
 40
0.2000000000000131
100
AcDbArc
 50
182.7221656221
 51
254.4193767427
  0
ARC
  5
C4
330
1F
100
AcDbEntity
  8
0
  6
Continuous
 62
     7
370
    15
100
AcDbCircle
 10
342.9044076644
 20
333.1135175213
 30
0.0
 40
0.2000000000000344
100
AcDbArc
 50
285.5806232574
 51
357.2778343779
  0
LINE
  5
C5
330
1F
100
AcDbEntity
  8
0
  6
Continuous
 62
     7
370
    15
100
AcDbLine
 10
61.0758653505
 20
334.1665335438
 30
0.0
 11
61.0786331263
 21
334.14121164
 31
0.0
  0
LINE
  5
C6
330
1F
100
AcDbEntity
  8
0
  6
Continuous
 62
     7
370
    15
100
AcDbLine
 10
343.1579108736
 20
334.1544143837
 30
0.0
 11
343.1588280485
 21
334.1665335477
 31
0.0
  0
SPLINE
  5
C7
330
1F
100
AcDbEntity
  8
0
  6
Continuous
 62
     7
370
    15
100
AcDbSpline
210
0.0
220
0.0
230
1.0
 70
     8
 71
     3
 72
    10
 73
     6
 74
     0
 42
0.000000001
 43
0.00000001
 40
0.0
 40
0.0
 40
0.0
 40
0.0
 40
0.5
 40
0.5
 40
1.0
 40
1.0
 40
1.0
 40
1.0
 10
183.9145993035263
 20
378.5747665882674
 30
0.0
 10
186.8811442098009
 20
378.8573199000157
 30
0.0
 10
189.8812660483846
 20
379.0844243760628
 30
0.0
 10
195.9483990205726
 20
379.3936093917742
 30
0.0
 10
199.0154069854917
 20
379.4757199948412
 30
0.0
 10
202.1173466995248
 20
379.4757199948412
 30
0.0
  0
SPLINE
  5
C8
330
1F
100
AcDbEntity
  8
0
  6
Continuous
 62
     7
370
    15
100
AcDbSpline
210
0.0
220
0.0
230
1.0
 70
     8
 71
     3
 72
    10
 73
     6
 74
     0
 42
0.000000001
 43
0.00000001
 40
0.0
 40
0.0
 40
0.0
 40
0.0
 40
0.5
 40
0.5
 40
1.0
 40
1.0
 40
1.0
 40
1.0
 10
220.3200940955233
 20
378.5747665882674
 30
0.0
 10
217.3535491907514
 20
378.8573198998726
 30
0.0
 10
214.3534273445524
 20
379.0844243764488
 30
0.0
 10
208.2862943753696
 20
379.393609391858
 30
0.0
 10
205.2192864119866
 20
379.4757199948412
 30
0.0
 10
202.1173466995248
 20
379.4757199948412
 30
0.0
  0
ARC
  5
C9
330
1F
100
AcDbEntity
  8
0
  6
Continuous
 62
     7
370
    15
100
AcDbCircle
 10
218.3772355861
 20
377.3168291741
 30
0.0
 40
2.314542231981452
100
AcDbArc
 50
340.3070648755
 51
32.9217379618
  0
SPLINE
  5
CA
330
1F
100
AcDbEntity
  8
0
  6
Continuous
 62
     7
370
    15
100
AcDbSpline
210
0.0
220
0.0
230
1.0
 70
     8
 71
     3
 72
    18
 73
    14
 74
     0
 42
0.000000001
 43
0.00000001
 40
0.0
 40
0.0
 40
0.0
 40
0.0
 40
0.2500000000000006
 40
0.2500000000000006
 40
0.3750000000000009
 40
0.3750000000000009
 40
0.5000000000000012
 40
0.5000000000000012
 40
0.7500000000000016
 40
0.7500000000000016
 40
0.8750000000000008
 40
0.8750000000000008
 40
1.0
 40
1.0
 40
1.0
 40
1.0
 10
202.1173466995505
 20
357.8403191027155
 30
0.0
 10
201.1248839396528
 20
357.8403191027164
 30
0.0
 10
200.1514075477079
 20
357.7851826414366
 30
0.0
 10
198.7182492679511
 20
357.6256287803728
 30
0.0
 10
198.24507597124
 20
357.5595635045809
 30
0.0
 10
197.3080233192419
 20
357.4018073287876
 30
0.0
 10
196.8494641127447
 20
357.3109280465516
 30
0.0
 10
195.5164017790458
 20
357.0079250499113
 30
0.0
 10
194.6779075390022
 20
356.7646633888638
 30
0.0
 10
193.494857041521
 20
356.3452136901222
 30
0.0
 10
193.1152726992508
 20
356.1968814055422
 30
0.0
 10
192.3970822917656
 20
355.8898333889586
 30
0.0
 10
192.0565198547362
 20
355.7304365438242
 30
0.0
 10
191.7341338279284
 20
355.5658938098538
 30
0.0
  0
SPLINE
  5
CB
330
1F
100
AcDbEntity
  8
0
  6
Continuous
 62
     7
370
    15
100
AcDbSpline
210
0.0
220
0.0
230
1.0
 70
     8
 71
     3
 72
    27
 73
    23
 74
     0
 42
0.000000001
 43
0.00000001
 40
0.0
 40
0.0
 40
0.0
 40
0.0
 40
0.1249999999999994
 40
0.1249999999999994
 40
0.2499999999999991
 40
0.2499999999999991
 40
0.3124999999999988
 40
0.3124999999999988
 40
0.3749999999999986
 40
0.3749999999999986
 40
0.4999999999999982
 40
0.4999999999999982
 40
0.6249999999999979
 40
0.6874999999999981
 40
0.6874999999999981
 40
0.7499999999999982
 40
0.7499999999999982
 40
0.8749999999999994
 40
0.8749999999999994
 40
0.9374999999999997
 40
0.9374999999999997
 40
1.0
 40
1.0
 40
1.0
 40
1.0
 10
212.4989250615665
 20
355.5665818791878
 30
0.0
 10
213.2060661064031
 20
356.1194294933484
 30
0.0
 10
213.8941864170161
 20
356.7077324802269
 30
0.0
 10
215.1733011188942
 20
357.98397721119
 30
0.0
 10
215.7647620114456
 20
358.6733871578754
 30
0.0
 10
216.495547406239
 20
359.8123600638588
 30
0.0
 10
216.7208080678578
 20
360.2063986634731
 30
0.0
 10
217.1572312985348
 20
361.0093138977373
 30
0.0
 10
217.3655800818916
 20
361.4195934123521
 30
0.0
 10
217.9609185913862
 20
362.6738158523792
 30
0.0
 10
218.317992640665
 20
363.5405910912735
 30
0.0
 10
218.953139683874
 20
365.3223343159125
 30
0.0
 10
219.3739554447314
 20
366.7049999131488
 30
0.0
 10
219.7084922678194
 20
368.1633058425438
 30
0.0
 10
219.9120145908798
 20
369.1529968764004
 30
0.0
 10
220.0040907305363
 20
369.6570872477434
 30
0.0
 10
220.2483642121156
 20
371.1811235566088
 30
0.0
 10
220.3693768729039
 20
372.2178865992884
 30
0.0
 10
220.4870104151701
 20
373.8093039628795
 30
0.0
 10
220.5155945661985
 20
374.3458454153982
 30
0.0
 10
220.5511890490123
 20
375.4317767910038
 30
0.0
 10
220.5553031260038
 20
375.9808980322654
 30
0.0
 10
220.5564055233739
 20
376.537059101406
 30
0.0
  0
SPLINE
  5
CC
330
1F
100
AcDbEntity
  8
0
  6
Continuous
 62
     7
370
    15
100
AcDbSpline
210
0.0
220
0.0
230
1.0
 70
     8
 71
     3
 72
    18
 73
    14
 74
     0
 42
0.000000001
 43
0.00000001
 40
0.0
 40
0.0
 40
0.0
 40
0.0
 40
0.1249999999999999
 40
0.1249999999999999
 40
0.2499999999999999
 40
0.2499999999999999
 40
0.3749999999999998
 40
0.3749999999999998
 40
0.4999999999999998
 40
0.4999999999999998
 40
0.7499999999999999
 40
0.7499999999999999
 40
1.0
 40
1.0
 40
1.0
 40
1.0
 10
212.5005595711212
 20
355.5658938098538
 30
0.0
 10
212.1760201717873
 20
355.7315356044945
 30
0.0
 10
211.8298687980837
 20
355.8933481343736
 30
0.0
 10
211.1110491392768
 20
356.2002511828837
 30
0.0
 10
210.7365747406826
 20
356.3463334056972
 30
0.0
 10
209.9576115820925
 20
356.6225874561049
 30
0.0
 10
209.5531242534493
 20
356.7527622052386
 30
0.0
 10
208.7132263306864
 20
356.9955236601448
 30
0.0
 10
208.2749697918995
 20
357.1087188050454
 30
0.0
 10
206.9347052822323
 20
357.413276541222
 30
0.0
 10
206.0106398414893
 20
357.569961350272
 30
0.0
 10
204.1011670070538
 20
357.783828865485
 30
0.0
 10
203.1091558296133
 20
357.8403191027164
 30
0.0
 10
202.1173466994992
 20
357.8403191027155
 30
0.0
  0
SPLINE
  5
CD
330
1F
100
AcDbEntity
  8
0
  6
Continuous
 62
     7
370
    15
100
AcDbSpline
210
0.0
220
0.0
230
1.0
 70
     8
 71
     3
 72
    20
 73
    16
 74
     0
 42
0.000000001
 43
0.00000001
 40
0.0
 40
0.0
 40
0.0
 40
0.0
 40
0.2499999999999963
 40
0.2499999999999963
 40
0.3749999999999969
 40
0.3749999999999969
 40
0.4999999999999976
 40
0.4999999999999976
 40
0.6249999999999981
 40
0.6249999999999981
 40
0.7499999999999988
 40
0.7499999999999988
 40
0.8749999999999993
 40
0.8749999999999993
 40
1.0
 40
1.0
 40
1.0
 40
1.0
 10
179.8332854297398
 20
378.235570140742
 30
0.0
 10
179.8466003869153
 20
378.2245287670432
 30
0.0
 10
179.951321658538
 20
378.224159667053
 30
0.0
 10
180.2449773937684
 20
378.2401883606902
 30
0.0
 10
180.3656653423041
 20
378.2483359094388
 30
0.0
 10
180.645585816656
 20
378.2696308860026
 30
0.0
 10
180.8055729285219
 20
378.2828192490403
 30
0.0
 10
181.1665337987652
 20
378.3141725012187
 30
0.0
 10
181.3687893442859
 20
378.3324651739863
 30
0.0
 10
181.8008837554258
 20
378.3725142989933
 30
0.0
 10
182.0321435831243
 20
378.3943887339402
 30
0.0
 10
182.5256129493378
 20
378.4414939141865
 30
0.0
 10
182.7900903933533
 20
378.4669436207335
 30
0.0
 10
183.3375953918296
 20
378.5195807635543
 30
0.0
 10
183.6210584189227
 20
378.5468078158071
 30
0.0
 10
183.9145992745504
 20
378.5747665840076
 30
0.0
  0
SPLINE
  5
CE
330
1F
100
AcDbEntity
  8
0
  6
Continuous
 62
     7
370
    15
100
AcDbSpline
210
0.0
220
0.0
230
1.0
 70
     8
 71
     3
 72
     8
 73
     4
 74
     0
 42
0.000000001
 43
0.00000001
 40
0.0
 40
0.0
 40
0.0
 40
0.0
 40
1.0
 40
1.0
 40
1.0
 40
1.0
 10
178.6994571012612
 20
379.1361005398024
 30
0.0
 10
179.0860589848183
 20
378.8862250803148
 30
0.0
 10
179.458993098726
 20
378.5463711204869
 30
0.0
 10
179.8332944101883
 20
378.2355711469386
 30
0.0
  0
SPLINE
  5
CF
330
1F
100
AcDbEntity
  8
0
  6
Continuous
 62
     7
370
    15
100
AcDbSpline
210
0.0
220
0.0
230
1.0
 70
     8
 71
     3
 72
    12
 73
     8
 74
     0
 42
0.000000001
 43
0.00000001
 40
0.0
 40
0.0
 40
0.0
 40
0.0
 40
0.4999999999999998
 40
0.7499999999999999
 40
0.7499999999999999
 40
0.90625
 40
1.0
 40
1.0
 40
1.0
 40
1.0
 10
178.6994571012612
 20
379.1361005398024
 30
0.0
 10
178.6104966041274
 20
379.1935995483905
 30
0.0
 10
178.5378331378823
 20
379.2727270773346
 30
0.0
 10
178.081751302695
 20
379.3322570516613
 30
0.0
 10
177.6940923519633
 20
379.3612310715006
 30
0.0
 10
177.4003773884046
 20
379.3778365517631
 30
0.0
 10
176.9833140649873
 20
379.3924410093596
 30
0.0
 10
176.806607944988
 20
379.3976327834405
 30
0.0
  0
SPLINE
  5
D0
330
1F
100
AcDbEntity
  8
0
  6
Continuous
 62
     7
370
    15
100
AcDbSpline
210
0.0
220
0.0
230
1.0
 70
     8
 71
     3
 72
    27
 73
    23
 74
     0
 42
0.000000001
 43
0.00000001
 40
0.0
 40
0.0
 40
0.0
 40
0.0
 40
0.0239212178407026
 40
0.0475820817608422
 40
0.0709907062980869
 40
0.094155473935166
 40
0.1170850375846791
 40
0.1397883221668939
 40
0.1622745251822338
 40
0.1845531161809152
 40
0.2066338350347594
 40
0.228526688920971
 40
0.2502419479346663
 40
0.3764749231956922
 40
0.5004627715258163
 40
0.6233925670133404
 40
0.7506456992267945
 40
0.7977701204882168
 40
0.8461924207477677
 40
0.8959910439224704
 40
0.9472381513531045
 40
1.0
 40
1.0
 40
1.0
 40
1.0
 10
162.0524779597963
 20
379.4755597776369
 30
0.0
 10
162.2289378778555
 20
379.4755539730218
 30
0.0
 10
162.5799371582648
 20
379.4755424269679
 30
0.0
 10
163.0986106115702
 20
379.4754466335916
 30
0.0
 10
163.6077918790623
 20
379.4752918285168
 30
0.0
 10
164.1071445980928
 20
379.4750717347333
 30
0.0
 10
164.5967563703537
 20
379.4747869868979
 30
0.0
 10
165.0766030347106
 20
379.4744365300285
 30
0.0
 10
165.5466895828367
 20
379.4740198720978
 30
0.0
 10
166.0070143781346
 20
379.4735364633208
 30
0.0
 10
166.4575734496346
 20
379.472985870223
 30
0.0
 10
166.8983783313094
 20
379.472367603763
 30
0.0
 10
168.0218618784027
 20
379.4705792590108
 30
0.0
 10
169.7298341604473
 20
379.4666455798714
 30
0.0
 10
171.792521883642
 20
379.4585408814098
 30
0.0
 10
173.5341722191707
 20
379.4476364328705
 30
0.0
 10
174.64927443245
 20
379.4367648691776
 30
0.0
 10
175.3519789505872
 20
379.4274708452675
 30
0.0
 10
175.7663282358366
 20
379.4209969643774
 30
0.0
 10
176.1478921040053
 20
379.4138945492243
 30
0.0
 10
176.5001155492371
 20
379.4061559146402
 30
0.0
 10
176.7034566890951
 20
379.4005012777313
 30
0.0
 10
176.8066079450012
 20
379.3976327834401
 30
0.0
  0
LINE
  5
D1
330
1F
100
AcDbEntity
  8
0
  6
Continuous
 62
     7
370
    15
100
AcDbLine
 10
202.1173466995
 20
379.4755597776
 30
0.0
 11
162.0524779598
 21
379.4755597776
 31
0.0
  0
SPLINE
  5
D2
330
1F
100
AcDbEntity
  8
0
  6
Continuous
 62
     7
370
    15
100
AcDbSpline
210
0.0
220
0.0
230
1.0
 70
     8
 71
     3
 72
    40
 73
    36
 74
     0
 42
0.000000001
 43
0.00000001
 40
0.0
 40
0.0
 40
0.0
 40
0.0
 40
0.0220862378552625
 40
0.0441397642586654
 40
0.0660528874323102
 40
0.0879853456741044
 40
0.1136782208349562
 40
0.1265101284924426
 40
0.163912973212238
 40
0.2129654761239383
 40
0.2374418208941249
 40
0.2623242148387027
 40
0.287174156451453
 40
0.3367753273953535
 40
0.3737070850148359
 40
0.410584348775737
 40
0.4351436440678282
 40
0.4841432549546387
 40
0.5249618590127175
 40
0.5494526955572807
 40
0.6108230834200518
 40
0.6356434517119454
 40
0.648055291316896
 40
0.697715985913581
 40
0.7356816973470601
 40
0.7483443220908599
 40
0.7736771949858886
 40
0.7990260984956373
 40
0.8238470726653958
 40
0.86111071865051
 40
0.8859752567489688
 40
0.8984138538169413
 40
0.9474031510931401
 40
0.9736910233274864
 40
1.0
 40
1.0
 40
1.0
 40
1.0
 10
242.1822066706029
 20
379.4755350862981
 30
0.0
 10
242.0192031298188
 20
379.4755537555078
 30
0.0
 10
241.6934374692891
 20
379.4755910662766
 30
0.0
 10
241.2102283211239
 20
379.4755105410978
 30
0.0
 10
240.7315572993261
 20
379.475342681326
 30
0.0
 10
240.230685297949
 20
379.4750955901691
 30
0.0
 10
239.7993639010928
 20
379.4748403756382
 30
0.0
 10
239.2623267072267
 20
379.474483906143
 30
0.0
 10
238.568186784166
 20
379.4739500638262
 30
0.0
 10
237.8100793706472
 20
379.4731055800918
 30
0.0
 10
237.1527279596827
 20
379.4721092757777
 30
0.0
 10
236.6651853731739
 20
379.471251379278
 30
0.0
 10
236.024311031736
 20
379.4699862714203
 30
0.0
 10
235.3263943790115
 20
379.4684204295108
 30
0.0
 10
234.5829768170993
 20
379.466385980613
 30
0.0
 10
234.012026589939
 20
379.4644588699224
 30
0.0
 10
233.3925300793065
 20
379.4621417800364
 30
0.0
 10
232.7782625840221
 20
379.4595553810522
 30
0.0
 10
232.1997703771023
 20
379.4566070738479
 30
0.0
 10
231.5880456707118
 20
379.4530905526497
 30
0.0
 10
231.0874108942517
 20
379.4497644717737
 30
0.0
 10
230.6723363855033
 20
379.446528457489
 30
0.0
 10
230.3182204890312
 20
379.4435809877747
 30
0.0
 10
229.9327266500501
 20
379.4400157667499
 30
0.0
 10
229.5769943971519
 20
379.4361685278293
 30
0.0
 10
229.3207304622026
 20
379.4331436852898
 30
0.0
 10
229.1150725589573
 20
379.4305557623666
 30
0.0
 10
228.8825283339468
 20
379.4273492076578
 30
0.0
 10
228.6272003311185
 20
379.423505394783
 30
0.0
 10
228.3899529875797
 20
379.4195375305781
 30
0.0
 10
228.2001505192742
 20
379.4159737324334
 30
0.0
 10
227.9896673363254
 20
379.4117550176204
 30
0.0
 10
227.7909500592258
 20
379.4073416345433
 30
0.0
 10
227.5795434082197
 20
379.4020175982027
 30
0.0
 10
227.4785980833605
 20
379.3991317835317
 30
0.0
 10
227.4281051688207
 20
379.3976882972309
 30
0.0
  0
SPLINE
  5
D3
330
1F
100
AcDbEntity
  8
0
  6
Continuous
 62
     7
370
    15
100
AcDbSpline
210
0.0
220
0.0
230
1.0
 70
     8
 71
     3
 72
    22
 73
    18
 74
     0
 42
0.000000001
 43
0.00000001
 40
0.0
 40
0.0
 40
0.0
 40
0.0
 40
0.025669051098673
 40
0.051874430161218
 40
0.0786218296935956
 40
0.1059166060012113
 40
0.1337638025197695
 40
0.1621681714811845
 40
0.1911341940165721
 40
0.2206660987976768
 40
0.2507678793157823
 40
0.368492316928093
 40
0.5004119245286082
 40
0.6157847505178562
 40
0.7501276130977915
 40
0.8750590855092271
 40
0.9999999999999999
 40
0.9999999999999999
 40
0.9999999999999999
 40
0.9999999999999999
 10
227.4280854540617
 20
379.3976327834405
 30
0.0
 10
227.3807280684107
 20
379.3962027248917
 30
0.0
 10
227.2850238140879
 20
379.3933127282171
 30
0.0
 10
227.1517212180278
 20
379.3887710969269
 30
0.0
 10
227.0239633771336
 20
379.3840114306649
 30
0.0
 10
226.9026469956952
 20
379.3790121177107
 30
0.0
 10
226.787526891081
 20
379.3737659943556
 30
0.0
 10
226.6786735632531
 20
379.3682611900021
 30
0.0
 10
226.5760698935202
 20
379.3624864190036
 30
0.0
 10
226.4797251569269
 20
379.3564293158775
 30
0.0
 10
226.3027938242658
 20
379.3439549199555
 30
0.0
 10
226.0828604699971
 20
379.3228826670214
 30
0.0
 10
225.8876421753708
 20
379.2923565234231
 30
0.0
 10
225.7523917631173
 20
379.2572961657075
 30
0.0
 10
225.6616863361615
 20
379.2199320910762
 30
0.0
 10
225.5976455816508
 20
379.178807938586
 30
0.0
 10
225.5560399164687
 20
379.1503366980169
 30
0.0
 10
225.5352362977884
 20
379.1361005398024
 30
0.0
  0
SPLINE
  5
D4
330
1F
100
AcDbEntity
  8
0
  6
Continuous
 62
     7
370
    15
100
AcDbSpline
210
0.0
220
0.0
230
1.0
 70
     8
 71
     3
 72
     8
 73
     4
 74
     0
 42
0.000000001
 43
0.00000001
 40
0.0
 40
0.0
 40
0.0
 40
0.0
 40
1.0
 40
1.0
 40
1.0
 40
1.0
 10
225.5352362977884
 20
379.1361005398024
 30
0.0
 10
225.1486344142313
 20
378.8862250803148
 30
0.0
 10
224.7757003003236
 20
378.5463711204869
 30
0.0
 10
224.4013989888613
 20
378.2355711469386
 30
0.0
  0
SPLINE
  5
D5
330
1F
100
AcDbEntity
  8
0
  6
Continuous
 62
     7
370
    15
100
AcDbSpline
210
0.0
220
0.0
230
1.0
 70
     8
 71
     3
 72
    20
 73
    16
 74
     0
 42
0.000000001
 43
0.00000001
 40
0.0
 40
0.0
 40
0.0
 40
0.0
 40
0.25
 40
0.25
 40
0.375
 40
0.375
 40
0.5
 40
0.5
 40
0.625
 40
0.625
 40
0.75
 40
0.75
 40
0.875
 40
0.875
 40
1.0
 40
1.0
 40
1.0
 40
1.0
 10
224.4014079693098
 20
378.235570140742
 30
0.0
 10
224.388093012123
 20
378.2245287670338
 30
0.0
 10
224.2833717403387
 20
378.2241596670521
 30
0.0
 10
223.9897160046244
 20
378.2401883607312
 30
0.0
 10
223.8690280559026
 20
378.2483359094979
 30
0.0
 10
223.5891075811108
 20
378.2696308861053
 30
0.0
 10
223.4291204689916
 20
378.2828192491689
 30
0.0
 10
223.0681595981655
 20
378.3141725014075
 30
0.0
 10
222.8659040523407
 20
378.3324651742071
 30
0.0
 10
222.4338096405777
 20
378.3725142992793
 30
0.0
 10
222.2025498125435
 20
378.394388734261
 30
0.0
 10
221.7090804455985
 20
378.4414939145812
 30
0.0
 10
221.4446030011919
 20
378.4669436211668
 30
0.0
 10
220.8970980020226
 20
378.5195807640537
 30
0.0
 10
220.6136349803746
 20
378.5468078157836
 30
0.0
 10
220.3200941244992
 20
378.5747665840076
 30
0.0
  0
LINE
  5
D6
330
1F
100
AcDbEntity
  8
0
  6
Continuous
 62
     7
370
    15
100
AcDbLine
 10
202.1173466995
 20
379.4755597776
 30
0.0
 11
242.1822154393
 21
379.4755597776
 31
0.0
  0
SPLINE
  5
D7
330
1F
100
AcDbEntity
  8
0
  6
Continuous
 62
     7
370
    15
100
AcDbSpline
210
0.0
220
0.0
230
1.0
 70
     8
 71
     3
 72
    14
 73
    10
 74
     0
 42
0.000000001
 43
0.00000001
 40
0.0
 40
0.0
 40
0.0
 40
0.0
 40
0.25
 40
0.25
 40
0.5
 40
0.5
 40
0.75
 40
0.75
 40
1.0
 40
1.0
 40
1.0
 40
1.0
 10
224.4014079693098
 20
378.235570140742
 30
0.0
 10
224.5989418078835
 20
378.2134270989816
 30
0.0
 10
224.7922546726961
 20
378.1540481842783
 30
0.0
 10
225.1441222363866
 20
377.9689020615344
 30
0.0
 10
225.3025644233025
 20
377.8431940548233
 30
0.0
 10
225.5628964188822
 20
377.5426212067418
 30
0.0
 10
225.6647029844038
 20
377.3678524754267
 30
0.0
 10
225.7977380333998
 20
376.9931422715705
 30
0.0
 10
225.8289239776406
 20
376.7933206153677
 30
0.0
 10
225.8226556366907
 20
376.5946336240161
 30
0.0
  0
SPLINE
  5
D8
330
1F
100
AcDbEntity
  8
0
  6
Continuous
 62
     7
370
    15
100
AcDbSpline
210
0.0
220
0.0
230
1.0
 70
     8
 71
     3
 72
    14
 73
    10
 74
     0
 42
0.000000001
 43
0.00000001
 40
0.0
 40
0.0
 40
0.0
 40
0.0
 40
0.25
 40
0.25
 40
0.5
 40
0.5
 40
0.75
 40
0.75
 40
1.0
 40
1.0
 40
1.0
 40
1.0
 10
178.4120538314987
 20
376.5945054995196
 30
0.0
 10
178.4057688007333
 20
376.7932029363018
 30
0.0
 10
178.4369419995107
 20
376.9930381277049
 30
0.0
 10
178.5699607041148
 20
377.367776964724
 30
0.0
 10
178.6717636672319
 20
377.5425607594852
 30
0.0
 10
178.9320965995851
 20
377.8431607306672
 30
0.0
 10
179.0905433078366
 20
377.9688807676972
 30
0.0
 10
179.4424250905844
 20
378.1540444801042
 30
0.0
 10
179.6357476244836
 20
378.2134289354938
 30
0.0
 10
179.8332916143034
 20
378.2355734684937
 30
0.0
  0
SPLINE
  5
D9
330
1F
100
AcDbEntity
  8
0
  6
Continuous
 62
     7
370
    15
100
AcDbSpline
210
0.0
220
0.0
230
1.0
 70
     8
 71
     3
 72
    16
 73
    12
 74
     0
 42
0.000000001
 43
0.00000001
 40
0.0
 40
0.0
 40
0.0
 40
0.0
 40
0.2500000000000026
 40
0.2500000000000026
 40
0.3750000000000038
 40
0.3750000000000038
 40
0.500000000000005
 40
0.500000000000005
 40
0.7500000000000024
 40
0.7500000000000024
 40
1.0
 40
1.0
 40
1.0
 40
1.0
 10
188.3995834749132
 20
354.7786036942664
 30
0.0
 10
188.5210225765285
 20
354.7261782504472
 30
0.0
 10
188.6811021661971
 20
354.6961919742434
 30
0.0
 10
188.9813775350264
 20
354.6915431136608
 30
0.0
 10
189.0915331147736
 20
354.6967549874226
 30
0.0
 10
189.3328649194638
 20
354.7224140058718
 30
0.0
 10
189.4645478887936
 20
354.7429688364567
 30
0.0
 10
189.8892354338678
 20
354.8300350256731
 30
0.0
 10
190.2111041975548
 20
354.9215698186442
 30
0.0
 10
190.927631790054
 20
355.1841633976172
 30
0.0
 10
191.3170615511769
 20
355.3531054837491
 30
0.0
 10
191.735638066674
 20
355.566683726393
 30
0.0
  0
SPLINE
  5
DA
330
1F
100
AcDbEntity
  8
0
  6
Continuous
 62
     7
370
    15
100
AcDbSpline
210
0.0
220
0.0
230
1.0
 70
     8
 71
     3
 72
    33
 73
    29
 74
     0
 42
0.000000001
 43
0.00000001
 40
0.0
 40
0.0
 40
0.0
 40
0.0
 40
0.0093128434283038
 40
0.0225255383141171
 40
0.0397720297453849
 40
0.061078163209844
 40
0.0915204411836244
 40
0.1243230285656837
 40
0.1595334828484024
 40
0.1908314811038411
 40
0.2222312418021288
 40
0.2537458040125949
 40
0.2856879906402745
 40
0.3169750945069177
 40
0.3476461982478434
 40
0.358345456099293
 40
0.3898153652732536
 40
0.4426258019951238
 40
0.4821220903153572
 40
0.5345618061857274
 40
0.6385161120562334
 40
0.710079909303134
 40
0.799731673680851
 40
0.8822315273182484
 40
0.9254571509253303
 40
0.967677434373982
 40
0.9837460745123001
 40
1.0
 40
1.0
 40
1.0
 40
1.0
 10
188.4010592434888
 20
354.7778217205533
 30
0.0
 10
188.3378982111597
 20
354.8227575179632
 30
0.0
 10
188.1851267977195
 20
354.9314464521244
 30
0.0
 10
187.9217966268721
 20
355.1256175241749
 30
0.0
 10
187.5896662665822
 20
355.3798178071144
 30
0.0
 10
187.1576986591838
 20
355.7260781976769
 30
0.0
 10
186.6469934542675
 20
356.1610641216203
 30
0.0
 10
186.0792067990516
 20
356.6810658511239
 30
0.0
 10
185.53358797438
 20
357.2200980447897
 30
0.0
 10
185.0185435273195
 20
357.7669707540343
 30
0.0
 10
184.5412030994319
 20
358.309062784718
 30
0.0
 10
184.0815242456293
 20
358.8678118645714
 30
0.0
 10
183.6371292769133
 20
359.4452483214532
 30
0.0
 10
183.204961250875
 20
360.0455467948195
 30
0.0
 10
182.8818311156469
 20
360.5262564838348
 30
0.0
 10
182.5585703388538
 20
361.0292402510196
 30
0.0
 10
182.1527585869951
 20
361.693769924028
 30
0.0
 10
181.6598089897476
 20
362.5880326577308
 30
0.0
 10
181.1322449350233
 20
363.6631231619284
 30
0.0
 10
180.4834937441146
 20
365.1545322437494
 30
0.0
 10
179.853645479728
 20
366.9602780815507
 30
0.0
 10
179.2779435112258
 20
369.1357591191343
 30
0.0
 10
178.8738864990158
 20
371.2015037596238
 30
0.0
 10
178.630945208794
 20
373.0788885110393
 30
0.0
 10
178.5031435206556
 20
374.5693729150375
 30
0.0
 10
178.4508820952941
 20
375.4803975074814
 30
0.0
 10
178.4240876870915
 20
376.1537874290898
 30
0.0
 10
178.4160767215045
 20
376.4471060771248
 30
0.0
 10
178.4120482777466
 20
376.5946061086655
 30
0.0
  0
SPLINE
  5
DB
330
1F
100
AcDbEntity
  8
0
  6
Continuous
 62
     7
370
    15
100
AcDbSpline
210
0.0
220
0.0
230
1.0
 70
     8
 71
     3
 72
    26
 73
    22
 74
     0
 42
0.000000001
 43
0.00000001
 40
0.0
 40
0.0
 40
0.0
 40
0.0
 40
0.1249999999999988
 40
0.1874999999999984
 40
0.1874999999999984
 40
0.249999999999998
 40
0.249999999999998
 40
0.3749999999999975
 40
0.3749999999999975
 40
0.4374999999999972
 40
0.4374999999999972
 40
0.499999999999997
 40
0.6249999999999971
 40
0.6249999999999971
 40
0.6874999999999977
 40
0.6874999999999977
 40
0.7499999999999982
 40
0.7499999999999982
 40
0.8749999999999991
 40
0.8749999999999991
 40
1.0
 40
1.0
 40
1.0
 40
1.0
 10
225.8226459571619
 20
376.5945301987533
 30
0.0
 10
225.7966060526784
 20
375.5262750716718
 30
0.0
 10
225.7024664936186
 20
373.955415208432
 30
0.0
 10
225.5161124524845
 20
372.4139657228545
 30
0.0
 10
225.3703182147593
 20
371.3908823871263
 30
0.0
 10
225.286778465371
 20
370.8821496606704
 30
0.0
 10
225.0043357117082
 20
369.3762339854534
 30
0.0
 10
224.7726460701558
 20
368.3940246469235
 30
0.0
 10
224.3498280018684
 20
366.9418844782867
 30
0.0
 10
224.1967157452813
 20
366.4620577304214
 30
0.0
 10
223.8615304633032
 20
365.5033353552398
 30
0.0
 10
223.3149525283998
 20
364.067396698255
 30
0.0
 10
222.6228570837681
 20
362.6465200861961
 30
0.0
 10
221.8149266674247
 20
361.247187940838
 30
0.0
 10
221.5268984447903
 20
360.7869819214255
 30
0.0
 10
220.9500357796538
 20
359.9283631091429
 30
0.0
 10
220.6561080529675
 20
359.5215822318841
 30
0.0
 10
219.7482942618992
 20
358.3454308860367
 30
0.0
 10
219.1095257526504
 20
357.6202292371647
 30
0.0
 10
217.6444874882778
 20
356.1831157816673
 30
0.0
 10
216.8171742798275
 20
355.4739951462599
 30
0.0
 10
215.8356662257018
 20
354.7789975931068
 30
0.0
  0
SPLINE
  5
DC
330
1F
100
AcDbEntity
  8
0
  6
Continuous
 62
     7
370
    15
100
AcDbSpline
210
0.0
220
0.0
230
1.0
 70
     8
 71
     3
 72
    16
 73
    12
 74
     0
 42
0.000000001
 43
0.00000001
 40
0.0
 40
0.0
 40
0.0
 40
0.0
 40
0.249999999999997
 40
0.249999999999997
 40
0.3749999999999975
 40
0.3749999999999975
 40
0.499999999999998
 40
0.499999999999998
 40
0.749999999999999
 40
0.749999999999999
 40
1.0
 40
1.0
 40
1.0
 40
1.0
 10
212.4990553323756
 20
355.566683726393
 30
0.0
 10
212.9192095692631
 20
355.3523004530093
 30
0.0
 10
213.3064504560797
 20
355.1846210840196
 30
0.0
 10
213.8376318014258
 20
354.9896051112351
 30
0.0
 10
214.0063898172456
 20
354.9341127624941
 30
0.0
 10
214.3269547830566
 20
354.8407668447243
 30
0.0
 10
214.4793616252735
 20
354.8028016790026
 30
0.0
 10
214.9058853578198
 20
354.7147192472346
 30
0.0
 10
215.1473328715078
 20
354.6903048759488
 30
0.0
 10
215.5508992330428
 20
354.6957561889175
 30
0.0
 10
215.7133038711398
 20
354.726019836981
 30
0.0
 10
215.8351099241364
 20
354.7786036942664
 30
0.0
  0
SPLINE
  5
DD
330
1F
100
AcDbEntity
  8
0
  6
Continuous
 62
     7
370
    15
100
AcDbSpline
210
0.0
220
0.0
230
1.0
 70
     8
 71
     3
 72
    11
 73
     7
 74
     0
 42
0.000000001
 43
0.00000001
 40
0.0
 40
0.0
 40
0.0
 40
0.0
 40
0.25
 40
0.5
 40
0.75
 40
0.8524290849597423
 40
0.8524290849597423
 40
0.8524290849597423
 40
0.8524290849597423
 10
178.5523409610082
 20
367.8003807203739
 30
0.0
 10
178.2922580160633
 20
368.7580413599948
 30
0.0
 10
177.8576680301403
 20
370.6808752711414
 30
0.0
 10
177.4262627497728
 20
373.5482366983088
 30
0.0
 10
177.2280284659585
 20
375.8129282201721
 30
0.0
 10
177.1621652348171
 20
377.1144612009984
 30
0.0
 10
177.1469130890167
 20
377.4905605239655
 30
0.0
  0
SPLINE
  5
DE
330
1F
100
AcDbEntity
  8
0
  6
Continuous
 62
     7
370
    15
100
AcDbSpline
210
0.0
220
0.0
230
1.0
 70
     8
 71
     3
 72
    10
 73
     6
 74
     0
 42
0.000000001
 43
0.00000001
 40
0.0
 40
0.0
 40
0.0
 40
0.0
 40
0.5
 40
0.5
 40
1.0
 40
1.0
 40
1.0
 40
1.0
 10
178.4120506833358
 20
376.5945077937353
 30
0.0
 10
178.201363002959
 20
376.7480459326059
 30
0.0
 10
177.9906980911645
 20
376.9085211574529
 30
0.0
 10
177.5689934121535
 20
377.2172103243601
 30
0.0
 10
177.3577254625197
 20
377.3656118676186
 30
0.0
 10
177.1469184464883
 20
377.4905623188261
 30
0.0
  0
SPLINE
  5
DF
330
1F
100
AcDbEntity
  8
0
  6
Continuous
 62
     7
370
    15
100
AcDbSpline
210
0.0
220
0.0
230
1.0
 70
     8
 71
     3
 72
     9
 73
     5
 74
     0
 42
0.000000001
 43
0.00000001
 40
0.0
 40
0.0
 40
0.0
 40
0.0
 40
0.79976470571215
 40
0.9999999999999999
 40
0.9999999999999999
 40
0.9999999999999999
 40
0.9999999999999999
 10
188.4005324058127
 20
354.7781942047823
 30
0.0
 10
188.2632198607457
 20
354.8362084336927
 30
0.0
 10
188.0915286819699
 20
354.9087475548818
 30
0.0
 10
188.139529880938
 20
354.8297556105774
 30
0.0
 10
188.1491414151395
 20
354.8139386353632
 30
0.0
  0
SPLINE
  5
E0
330
1F
100
AcDbEntity
  8
0
  6
Continuous
 62
     7
370
    15
100
AcDbSpline
210
0.0
220
0.0
230
1.0
 70
     8
 71
     3
 72
    10
 73
     6
 74
     0
 42
0.000000001
 43
0.00000001
 40
0.0
 40
0.0
 40
0.0
 40
0.0
 40
0.5
 40
0.5
 40
1.0
 40
1.0
 40
1.0
 40
1.0
 10
225.8226427157138
 20
376.5945077937353
 30
0.0
 10
226.0333303960906
 20
376.7480459326059
 30
0.0
 10
226.2439953078851
 20
376.9085211574529
 30
0.0
 10
226.6656999868961
 20
377.2172103243601
 30
0.0
 10
226.8769679365299
 20
377.3656118676186
 30
0.0
 10
227.0877749525613
 20
377.4905623188261
 30
0.0
  0
SPLINE
  5
E1
330
1F
100
AcDbEntity
  8
0
  6
Continuous
 62
     7
370
    15
100
AcDbSpline
210
0.0
220
0.0
230
1.0
 70
     8
 71
     3
 72
    17
 73
    13
 74
     0
 42
0.000000001
 43
0.00000001
 40
0.0
 40
0.0
 40
0.0
 40
0.0
 40
0.0613922468322369
 40
0.1225666400268341
 40
0.183519116727603
 40
0.2442459506451258
 40
0.3047438012596547
 40
0.3650097634987141
 40
0.6356982871703719
 40
0.9039763335857111
 40
0.9519469780076767
 40
1.0
 40
1.0
 40
1.0
 40
1.0
 10
227.0877745896619
 20
377.4905533685205
 30
0.0
 10
227.0793992615707
 20
377.2980987698975
 30
0.0
 10
227.0626783256834
 20
376.9138725079824
 30
0.0
 10
227.029686529768
 20
376.3344399528906
 30
0.0
 10
226.9906798900863
 20
375.7543286334342
 30
0.0
 10
226.944897006648
 20
375.173482917785
 30
0.0
 10
226.8922766617023
 20
374.5922267077126
 30
0.0
 10
226.7629882355935
 20
373.3333975586015
 30
0.0
 10
226.4964833787467
 20
371.385574025691
 30
0.0
 10
226.1046140528322
 20
369.4622910661276
 30
0.0
 10
225.808101379705
 20
368.2709563787917
 30
0.0
 10
225.7242927180754
 20
367.9573289588978
 30
0.0
 10
225.6823524380296
 20
367.8003807203195
 30
0.0
  0
SPLINE
  5
E2
330
1F
100
AcDbEntity
  8
0
  6
Continuous
 62
     7
370
    15
100
AcDbSpline
210
0.0
220
0.0
230
1.0
 70
     8
 71
     3
 72
     9
 73
     5
 74
     0
 42
0.000000001
 43
0.00000001
 40
0.0
 40
0.0
 40
0.0
 40
0.0
 40
0.3107986525831248
 40
1.0
 40
1.0
 40
1.0
 40
1.0
 10
216.0756982776434
 20
354.8070907594563
 30
0.0
 10
216.0868312154674
 20
354.8290117753439
 30
0.0
 10
216.1226516340294
 20
354.8995430202687
 30
0.0
 10
215.9518664039361
 20
354.8277050385669
 30
0.0
 10
215.8341609932369
 20
354.7781942047823
 30
0.0
  0
SPLINE
  5
E3
330
1F
100
AcDbEntity
  8
0
  6
Continuous
 62
     7
370
    15
100
AcDbSpline
210
0.0
220
0.0
230
1.0
 70
     8
 71
     3
 72
    14
 73
    10
 74
     0
 42
0.000000001
 43
0.00000001
 40
0.0
 40
0.0
 40
0.0
 40
0.0
 40
0.25
 40
0.25
 40
0.5
 40
0.5
 40
0.75
 40
0.75
 40
1.0
 40
1.0
 40
1.0
 40
1.0
 10
225.5352362983214
 20
379.136100540147
 30
0.0
 10
225.7444839811484
 20
379.1299625021757
 30
0.0
 10
225.9524440929139
 20
379.0822220822579
 30
0.0
 10
226.3344562335536
 20
378.9107294336433
 30
0.0
 10
226.508358075624
 20
378.7870446267117
 30
0.0
 10
226.7957518549651
 20
378.4824333940446
 30
0.0
 10
226.9091308043263
 20
378.3016267252033
 30
0.0
 10
227.0581702392629
 20
377.9102530674666
 30
0.0
 10
227.0937721304795
 20
377.6998399458244
 30
0.0
 10
227.0877741620025
 20
377.4905517968776
 30
0.0
  0
SPLINE
  5
E4
330
1F
100
AcDbEntity
  8
0
  6
Continuous
 62
     7
370
    15
100
AcDbSpline
210
0.0
220
0.0
230
1.0
 70
     8
 71
     3
 72
    39
 73
    35
 74
     0
 42
0.000000001
 43
0.00000001
 40
0.0
 40
0.0
 40
0.0
 40
0.0
 40
0.015625
 40
0.0234375
 40
0.03125
 40
0.0380859375
 40
0.044921875
 40
0.0517578125
 40
0.05859375
 40
0.072265625
 40
0.0859375
 40
0.1090087890625
 40
0.1474609375
 40
0.1859130859375
 40
0.25
 40
0.296875
 40
0.375
 40
0.5
 40
0.625
 40
0.703125
 40
0.75
 40
0.8140869140625
 40
0.8525390625
 40
0.8909912109375
 40
0.9140625
 40
0.927734375
 40
0.94140625
 40
0.9482421875
 40
0.955078125
 40
0.9619140625
 40
0.96875
 40
0.9765625
 40
0.984375
 40
1.0
 40
1.0
 40
1.0
 40
1.0
 10
177.146913007961
 20
377.490556946243
 30
0.0
 10
177.1466374492201
 20
377.5036341122639
 30
0.0
 10
177.1462147674797
 20
377.5232575853432
 30
0.0
 10
177.1463313183376
 20
377.5494243623479
 30
0.0
 10
177.1466322417686
 20
377.5682280045149
 30
0.0
 10
177.1471401730493
 20
377.586208871354
 30
0.0
 10
177.1478137833856
 20
377.6033657779109
 30
0.0
 10
177.14867718855
 20
377.6205142056245
 30
0.0
 10
177.1500798500883
 20
377.6433649721275
 30
0.0
 10
177.1523031065347
 20
377.6718978915423
 30
0.0
 10
177.156499272131
 20
377.7139055480251
 30
0.0
 10
177.164581150523
 20
377.7763671514437
 30
0.0
 10
177.1793307902065
 20
377.858842989443
 30
0.0
 10
177.2070308794538
 20
377.9737451177008
 30
0.0
 10
177.2459086816754
 20
378.0929460840157
 30
0.0
 10
177.3076355859036
 20
378.2389760048907
 30
0.0
 10
177.4073426990236
 20
378.4234418286621
 30
0.0
 10
177.5748069285178
 20
378.6421304310568
 30
0.0
 10
177.7833865605074
 20
378.8220140748884
 30
0.0
 10
177.9617329730916
 20
378.9322596655616
 30
0.0
 10
178.1039154628157
 20
379.0023551319047
 30
0.0
 10
178.2206427038594
 20
379.0480813402382
 30
0.0
 10
178.3337267569997
 20
379.0823975814628
 30
0.0
 10
178.4151950364707
 20
379.1019039750396
 30
0.0
 10
178.4770725430387
 20
379.1135929483598
 30
0.0
 10
178.5187591768182
 20
379.1202168805917
 30
0.0
 10
178.5471103732
 20
379.1240900967081
 30
0.0
 10
178.5698374996219
 20
379.1268147079027
 30
0.0
 10
178.5869041057784
 20
379.1286704592729
 30
0.0
 10
178.6039901725113
 20
379.1303371930056
 30
0.0
 10
178.6219082720278
 20
379.131886240722
 30
0.0
 10
178.6406596163219
 20
379.1332762672215
 30
0.0
 10
178.6667711277641
 20
379.1349088476211
 30
0.0
 10
178.6863827115426
 20
379.1356238631366
 30
0.0
 10
178.6994571012612
 20
379.1361005398024
 30
0.0
  0
LINE
  5
E5
330
1F
100
AcDbEntity
  8
0
  6
Continuous
 62
     7
370
    15
100
AcDbLine
 10
215.1173466995
 20
345.8153089436
 30
0.0
 11
215.1173466995
 21
349.6522393663
 31
0.0
  0
LWPOLYLINE
  5
E6
330
1F
100
AcDbEntity
  8
0
  6
Continuous
 62
     7
370
    15
100
AcDbPolyline
 90
       16
 70
   128
 43
0.0
 10
215.1173466995
 20
345.8153089436
 10
214.1325280001
 20
346.2289755474
 10
212.845583805
 20
346.6050748663
 10
211.2888747289
 20
346.9341497653
 10
209.501544709
 20
347.2079255529
 10
207.5285367182
 20
347.4195180513
 10
205.4194626601
 20
347.5636067008
 10
203.2273558624
 20
347.6365683473
 10
201.0073375367
 20
347.6365683473
 10
198.8152307389
 20
347.5636067008
 10
196.7061566809
 20
347.4195180513
 10
194.7331486901
 20
347.2079255529
 10
192.9458186702
 20
346.9341497653
 10
191.3891095941
 20
346.6050748663
 10
190.102165399
 20
346.2289755474
 10
189.1173466995
 20
345.8153089436
  0
LINE
  5
E7
330
1F
100
AcDbEntity
  8
0
  6
Continuous
 62
     7
370
    15
100
AcDbLine
 10
189.1173466995
 20
345.8153089436
 30
0.0
 11
189.1173466995
 21
349.6522393663
 31
0.0
  0
LWPOLYLINE
  5
E8
330
1F
100
AcDbEntity
  8
0
  6
Continuous
 62
     7
370
    15
100
AcDbPolyline
 90
        9
 70
   128
 43
0.0
 10
189.1173466995
 20
347.4915576944
 10
188.6828254014
 20
347.7529893689
 10
188.3696196147
 20
348.0218159018
 10
188.1805576291
 20
348.2956097539
 10
188.1173466995
 20
348.5718985304
 10
188.1805576291
 20
348.8481873068
 10
188.3696196147
 20
349.1219811589
 10
188.6828254014
 20
349.3908076919
 10
189.1173466995
 20
349.6522393663
  0
LWPOLYLINE
  5
E9
330
1F
100
AcDbEntity
  8
0
  6
Continuous
 62
     7
370
    15
100
AcDbPolyline
 90
        9
 70
   128
 43
0.0
 10
215.1173466995
 20
349.6522393663
 10
215.5518679976
 20
349.3908076919
 10
215.8650737844
 20
349.1219811589
 10
216.05413577
 20
348.8481873068
 10
216.1173466995
 20
348.5718985304
 10
216.05413577
 20
348.2956097539
 10
215.8650737844
 20
348.0218159018
 10
215.5518679976
 20
347.7529893689
 10
215.1173466995
 20
347.4915576944
  0
SPLINE
  5
EA
330
1F
100
AcDbEntity
  8
0
  6
Continuous
 62
     7
370
    15
100
AcDbSpline
210
0.0
220
0.0
230
1.0
 70
    24
 71
     3
 72
    12
 73
     8
 74
     0
 42
0.000000001
 43
0.00000001
 40
0.0
 40
0.0
 40
0.0
 40
0.0
 40
0.25
 40
0.25
 40
0.5
 40
0.5
 40
1.0
 40
1.0
 40
1.0
 40
1.0
 10
189.1173466995248
 20
344.17023432707
 30
0.0
 10
189.1173466995248
 20
344.2605895520639
 30
0.0
 10
189.1173466995248
 20
344.3634382387428
 30
0.0
 10
189.1173466995248
 20
344.5940039985491
 30
0.0
 10
189.1173466995248
 20
344.7220588396715
 30
0.0
 10
189.1173466995248
 20
345.1398574278454
 30
0.0
 10
189.1173466995248
 20
345.4609435873735
 30
0.0
 10
189.1173466995248
 20
345.8153089436126
 30
0.0
  0
SPLINE
  5
EB
330
1F
100
AcDbEntity
  8
0
  6
Continuous
 62
     7
370
    15
100
AcDbSpline
210
0.0
220
0.0
230
1.0
 70
    24
 71
     3
 72
    12
 73
     8
 74
     0
 42
0.000000001
 43
0.00000001
 40
0.0
 40
0.0
 40
0.0
 40
0.0
 40
0.2499999999999999
 40
0.2499999999999999
 40
0.4999999999999999
 40
0.4999999999999999
 40
1.0
 40
1.0
 40
1.0
 40
1.0
 10
215.1173466995248
 20
344.17023432707
 30
0.0
 10
215.1173466995248
 20
344.2605895520639
 30
0.0
 10
215.1173466995248
 20
344.3634382387428
 30
0.0
 10
215.1173466995248
 20
344.5940039985491
 30
0.0
 10
215.1173466995248
 20
344.7220588396715
 30
0.0
 10
215.1173466995248
 20
345.1398574278454
 30
0.0
 10
215.1173466995248
 20
345.4609435873735
 30
0.0
 10
215.1173466995248
 20
345.8153089436126
 30
0.0
  0
LWPOLYLINE
  5
EC
330
1F
100
AcDbEntity
  8
0
  6
Continuous
 62
     7
370
    15
100
AcDbPolyline
 90
       20
 70
   128
 43
0.0
 10
215.1173466995
 20
344.1702343271
 10
214.9400436438
 20
344.6151091414
 10
214.4129708416
 20
345.0478489305
 10
213.5505054652
 20
345.456649681
 10
212.3761733217
 20
345.8303603741
 10
210.9220071307
 20
346.1587871562
 10
209.2276727551
 20
346.432971401
 10
207.33938722
 20
346.6454340768
 10
205.3086580324
 20
346.7903797559
 10
203.1908781907
 20
346.8638546979
 10
201.0438152084
 20
346.8638546979
 10
198.9260353667
 20
346.7903797559
 10
196.895306179
 20
346.6454340768
 10
195.0070206439
 20
346.432971401
 10
193.3126862684
 20
346.1587871562
 10
191.8585200774
 20
345.8303603741
 10
190.6841879338
 20
345.456649681
 10
189.8217225574
 20
345.0478489305
 10
189.2946497553
 20
344.6151091414
 10
189.1173466995
 20
344.1702343271
  0
LWPOLYLINE
  5
ED
330
1F
100
AcDbEntity
  8
0
  6
Continuous
 62
     7
370
    15
100
AcDbPolyline
 90
       20
 70
   128
 43
0.0
 10
189.1173466995
 20
344.1702343271
 10
189.2946497553
 20
343.7253595127
 10
189.8217225574
 20
343.2926197236
 10
190.6841879338
 20
342.8838189731
 10
191.8585200774
 20
342.51010828
 10
193.3126862684
 20
342.1816814979
 10
195.0070206439
 20
341.9074972532
 10
196.895306179
 20
341.6950345773
 10
198.9260353667
 20
341.5500888983
 10
201.0438152084
 20
341.4766139563
 10
203.1908781907
 20
341.4766139563
 10
205.3086580324
 20
341.5500888983
 10
207.33938722
 20
341.6950345773
 10
209.2276727551
 20
341.9074972532
 10
210.9220071307
 20
342.1816814979
 10
212.3761733217
 20
342.51010828
 10
213.5505054652
 20
342.8838189731
 10
214.4129708416
 20
343.2926197236
 10
214.9400436438
 20
343.7253595127
 10
215.1173466995
 20
344.1702343271
  0
SPLINE
  5
EE
330
1F
100
AcDbEntity
  8
0
  6
Continuous
 62
     7
370
    15
100
AcDbSpline
210
0.0
220
0.0
230
1.0
 70
    24
 71
     3
 72
     8
 73
     4
 74
     0
 42
0.000000001
 43
0.00000001
 40
0.0
 40
0.0
 40
0.0
 40
0.0
 40
1.0
 40
1.0
 40
1.0
 40
1.0
 10
215.1173466995248
 20
343.6546272717092
 30
0.0
 10
215.1173466995248
 20
343.6517157243376
 30
0.0
 10
215.1173466995248
 20
343.8077425867079
 30
0.0
 10
215.1173466995248
 20
344.17023432707
 30
0.0
  0
SPLINE
  5
EF
330
1F
100
AcDbEntity
  8
0
  6
Continuous
 62
     7
370
    15
100
AcDbSpline
210
0.0
220
0.0
230
1.0
 70
    24
 71
     3
 72
     8
 73
     4
 74
     0
 42
0.000000001
 43
0.00000001
 40
0.0
 40
0.0
 40
0.0
 40
0.0
 40
1.0
 40
1.0
 40
1.0
 40
1.0
 10
189.1173466995248
 20
343.6546272717092
 30
0.0
 10
189.1173466995248
 20
343.6517157243376
 30
0.0
 10
189.1173466995248
 20
343.8077425867079
 30
0.0
 10
189.1173466995248
 20
344.17023432707
 30
0.0
  0
LINE
  5
F0
330
1F
100
AcDbEntity
  8
0
  6
Continuous
 62
     7
370
    15
100
AcDbLine
 10
111.1173466995
 20
379.4755597776
 30
0.0
 11
111.1173466995
 21
329.4755597776
 31
0.0
  0
LINE
  5
F1
330
1F
100
AcDbEntity
  8
0
  6
Continuous
 62
     7
370
    15
100
AcDbLine
 10
145.1173466995
 20
379.4755597776
 30
0.0
 11
111.1173466995
 21
379.4755597776
 31
0.0
  0
SPLINE
  5
F2
330
1F
100
AcDbEntity
  8
0
  6
Continuous
 62
     7
370
    15
100
AcDbSpline
210
0.0
220
0.0
230
1.0
 70
     8
 71
     3
 72
    30
 73
    26
 74
     0
 42
0.000000001
 43
0.00000001
 40
0.0
 40
0.0
 40
0.0
 40
0.0
 40
0.1250000000000001
 40
0.1250000000000001
 40
0.1875000000000001
 40
0.1875000000000001
 40
0.2500000000000001
 40
0.2500000000000001
 40
0.3750000000000002
 40
0.3750000000000002
 40
0.4375000000000002
 40
0.4375000000000002
 40
0.5000000000000002
 40
0.5000000000000002
 40
0.5625000000000001
 40
0.5625000000000001
 40
0.6250000000000001
 40
0.6250000000000001
 40
0.7500000000000002
 40
0.7500000000000002
 40
0.8125000000000002
 40
0.8125000000000002
 40
0.8750000000000001
 40
0.8750000000000001
 40
1.0
 40
1.0
 40
1.0
 40
1.0
 10
190.3673466995248
 20
329.4755597776369
 30
0.0
 10
190.3673466995248
 20
329.4755597776369
 30
0.0
 10
190.4459038504447
 20
329.5127533057637
 30
0.0
 10
190.6752463273721
 20
329.6188792245214
 30
0.0
 10
190.770425884466
 20
329.662665045338
 30
0.0
 10
190.9989273535935
 20
329.766323007455
 30
0.0
 10
191.1317536106122
 20
329.8259561986023
 30
0.0
 10
191.5776514906051
 20
330.0225133528969
 30
0.0
 10
191.9397845238581
 20
330.1780677792822
 30
0.0
 10
192.5794699873381
 20
330.4366214988877
 30
0.0
 10
192.809381057289
 20
330.5271613133031
 30
0.0
 10
193.292557670294
 20
330.7107861405939
 30
0.0
 10
193.5468509086364
 20
330.8043012907344
 30
0.0
 10
194.0807355820536
 20
330.9923274936097
 30
0.0
 10
194.3603261781218
 20
331.0868439946422
 30
0.0
 10
194.9455914231362
 20
331.2743802310568
 30
0.0
 10
195.2529261582475
 20
331.3678664229573
 30
0.0
 10
196.2035114699411
 20
331.6382692564684
 30
0.0
 10
196.8713547748495
 20
331.804369112263
 30
0.0
 10
197.9268834979794
 20
332.0171822634106
 30
0.0
 10
198.2877531638031
 20
332.0820502206757
 30
0.0
 10
199.0288588332557
 20
332.1968201155967
 30
0.0
 10
199.4091719466713
 20
332.2465718349928
 30
0.0
 10
200.5531302490826
 20
332.3665333189094
 30
0.0
 10
201.3284968090981
 20
332.4088994050295
 30
0.0
 10
202.1173466995248
 20
332.4088994050295
 30
0.0
  0
LINE
  5
F3
330
1F
100
AcDbEntity
  8
0
  6
Continuous
 62
     7
370
    15
100
AcDbLine
 10
111.1173466995
 20
329.4755597776
 30
0.0
 11
190.3673466995
 21
329.4755597776
 31
0.0
  0
LINE
  5
F4
330
1F
100
AcDbEntity
  8
0
  6
Continuous
 62
     7
370
    15
100
AcDbLine
 10
259.1173466995
 20
379.4755597776
 30
0.0
 11
293.1173466995
 21
379.4755597776
 31
0.0
  0
LINE
  5
F5
330
1F
100
AcDbEntity
  8
0
  6
Continuous
 62
     7
370
    15
100
AcDbLine
 10
293.1173466995
 20
379.4755597776
 30
0.0
 11
293.1173466995
 21
329.4755597776
 31
0.0
  0
LINE
  5
F6
330
1F
100
AcDbEntity
  8
0
  6
Continuous
 62
     7
370
    15
100
AcDbLine
 10
293.1173466995
 20
329.4755597776
 30
0.0
 11
213.8673466995
 21
329.4755597776
 31
0.0
  0
SPLINE
  5
F7
330
1F
100
AcDbEntity
  8
0
  6
Continuous
 62
     7
370
    15
100
AcDbSpline
210
0.0
220
0.0
230
1.0
 70
     8
 71
     3
 72
    30
 73
    26
 74
     0
 42
0.000000001
 43
0.00000001
 40
0.0
 40
0.0
 40
0.0
 40
0.0
 40
0.1250000000000005
 40
0.1250000000000005
 40
0.1875000000000008
 40
0.1875000000000008
 40
0.2500000000000011
 40
0.2500000000000011
 40
0.3750000000000013
 40
0.3750000000000013
 40
0.4375000000000014
 40
0.4375000000000014
 40
0.5000000000000014
 40
0.5000000000000014
 40
0.5625000000000012
 40
0.5625000000000012
 40
0.6250000000000011
 40
0.6250000000000011
 40
0.7500000000000008
 40
0.7500000000000008
 40
0.8125000000000007
 40
0.8125000000000007
 40
0.8750000000000004
 40
0.8750000000000004
 40
1.0
 40
1.0
 40
1.0
 40
1.0
 10
202.1173466995248
 20
332.4088994050295
 30
0.0
 10
202.9061150732317
 20
332.4088994050295
 30
0.0
 10
203.6789459397425
 20
332.3665632736861
 30
0.0
 10
204.8160274402345
 20
332.2476879430135
 30
0.0
 10
205.191337358518
 20
332.1988428592394
 30
0.0
 10
205.9345426853832
 20
332.0841845790187
 30
0.0
 10
206.2997200783423
 20
332.0187206867024
 30
0.0
 10
207.3612344715445
 20
331.8049762282292
 30
0.0
 10
208.030665539334
 20
331.6384004404575
 30
0.0
 10
208.9810946118556
 20
331.3680656009278
 30
0.0
 10
209.2886850573788
 20
331.2745108901318
 30
0.0
 10
209.874264097289
 20
331.0868799698044
 30
0.0
 10
210.1538947221614
 20
330.9923486115714
 30
0.0
 10
210.6876831423312
 20
330.8043585133839
 30
0.0
 10
210.9418397845159
 20
330.7108943139703
 30
0.0
 10
211.4246167528075
 20
330.527429950077
 30
0.0
 10
211.6543586684182
 20
330.4369658120478
 30
0.0
 10
212.2945311980577
 20
330.1782308193391
 30
0.0
 10
212.6556549902626
 20
330.023099429682
 30
0.0
 10
213.0997402564674
 20
329.8273790719743
 30
0.0
 10
213.2313727260192
 20
329.7683004439065
 30
0.0
 10
213.460338345158
 20
329.6644624875225
 30
0.0
 10
213.5572993840219
 20
329.6198694915253
 30
0.0
 10
213.7887485927686
 20
329.5127792663259
 30
0.0
 10
213.8673466995248
 20
329.4755597776368
 30
0.0
 10
213.8673466995248
 20
329.4755597776369
 30
0.0
  0
SPLINE
  5
F8
330
1F
100
AcDbEntity
  8
0
  6
Continuous
 62
     7
370
    15
100
AcDbSpline
210
0.0
220
0.0
230
1.0
 70
     8
 71
     3
 72
    17
 73
    13
 74
     0
 42
0.000000001
 43
0.00000001
 40
0.0
 40
0.0
 40
0.0
 40
0.0
 40
0.0637641726752327
 40
0.1681491350824553
 40
0.2742093216008242
 40
0.3824360519175025
 40
0.4898267489197575
 40
0.5944768423562012
 40
0.698876011850919
 40
0.8059499136404434
 40
0.9146201376782623
 40
1.0
 40
1.0
 40
1.0
 40
1.0
 10
69.76589577102904
 20
379.1177596629555
 30
0.0
 10
69.7583622854103
 20
379.1194178608533
 30
0.0
 10
69.73849612800862
 20
379.1237906070305
 30
0.0
 10
70.42895938985077
 20
378.9679205516812
 30
0.0
 10
71.68673682035006
 20
378.7353610279154
 30
0.0
 10
73.42718239863144
 20
378.5204191824876
 30
0.0
 10
75.40997777120859
 20
378.436279789552
 30
0.0
 10
77.39000426143664
 20
378.5219796863701
 30
0.0
 10
79.16943596546483
 20
378.7416089148896
 30
0.0
 10
80.56065952407411
 20
379.0040668628612
 30
0.0
 10
81.42639150263315
 20
379.2087435433324
 30
0.0
 10
81.47335096160606
 20
379.2209101056117
 30
0.0
 10
81.49401259704788
 20
379.2262632566038
 30
0.0
  0
LINE
  5
F9
330
1F
100
AcDbEntity
  8
0
  6
Continuous
 62
     7
370
    15
100
AcDbLine
 10
108.6173466995
 20
354.4755597776
 30
0.0
 11
108.6173466995
 21
379.4755597776
 31
0.0
  0
LINE
  5
FA
330
1F
100
AcDbEntity
  8
0
  6
Continuous
 62
     7
370
    15
100
AcDbLine
 10
108.6173466995
 20
329.4755597776
 30
0.0
 11
108.6173466995
 21
354.4755597776
 31
0.0
  0
SPLINE
  5
FB
330
1F
100
AcDbEntity
  8
0
  6
Continuous
 62
     7
370
    15
100
AcDbSpline
210
0.0
220
0.0
230
1.0
 70
     8
 71
     3
 72
    17
 73
    13
 74
     0
 42
0.000000001
 43
0.00000001
 40
0.0
 40
0.0
 40
0.0
 40
0.0
 40
0.0620410653810237
 40
0.1660427316180159
 40
0.2718519727518678
 40
0.380237243843189
 40
0.4881349108100734
 40
0.5931138230057686
 40
0.6973178090214764
 40
0.803890439323259
 40
0.9122520362971918
 40
1.0
 40
1.0
 40
1.0
 40
1.0
 10
322.7665629872224
 20
379.2197972609692
 30
0.0
 10
322.7575763970635
 20
379.2219478745891
 30
0.0
 10
322.7335252630487
 20
379.2277036390637
 30
0.0
 10
323.409966026471
 20
379.0635535643173
 30
0.0
 10
324.6523892220879
 20
378.8114152464414
 30
0.0
 10
326.3834871176206
 20
378.5642705782466
 30
0.0
 10
328.367385104872
 20
378.4405991223841
 30
0.0
 10
330.3549151238075
 20
378.4876456950718
 30
0.0
 10
332.1402915268311
 20
378.6741938935461
 30
0.0
 10
333.5384220450591
 20
378.9125044465024
 30
0.0
 10
334.4185016152211
 20
379.1053353721724
 30
0.0
 10
334.4736028978534
 20
379.1186616854152
 30
0.0
 10
334.4982576129611
 20
379.1246244587072
 30
0.0
  0
LINE
  5
FC
330
1F
100
AcDbEntity
  8
0
  6
Continuous
 62
     7
370
    15
100
AcDbLine
 10
295.6173466995
 20
379.4755597815
 30
0.0
 11
295.6173466995
 21
329.4755597815
 31
0.0
  0
LINE
  5
FD
330
1F
100
AcDbEntity
  8
0
  6
Continuous
 62
     7
370
    15
100
AcDbLine
 10
61.2765669196
 20
332.6113900419
 30
0.0
 11
61.2765669196
 21
376.3397295134
 31
0.0
  0
LINE
  5
FE
330
1F
100
AcDbEntity
  8
0
  6
Continuous
 62
     7
370
    15
100
AcDbLine
 10
342.9581264795
 20
354.4755597815
 30
0.0
 11
342.9581264795
 21
332.6113900458
 31
0.0
  0
LINE
  5
FF
330
1F
100
AcDbEntity
  8
0
  6
Continuous
 62
     7
370
    15
100
AcDbLine
 10
342.9581264795
 20
376.3397295173
 30
0.0
 11
342.9581264795
 21
354.4755597815
 31
0.0
  0
LINE
  5
100
330
1F
100
AcDbEntity
  8
0
  6
Continuous
 62
     7
370
    15
100
AcDbLine
 10
293.1173466995
 20
350.1771266271
 30
0.0
 11
295.6173466995
 21
350.1771266271
 31
0.0
  0
LINE
  5
101
330
1F
100
AcDbEntity
  8
0
  6
Continuous
 62
     7
370
    15
100
AcDbLine
 10
295.6173466995
 20
347.7110435728
 30
0.0
 11
293.1173466995
 21
347.7110435728
 31
0.0
  0
LINE
  5
102
330
1F
100
AcDbEntity
  8
0
  6
Continuous
 62
     7
370
    15
100
AcDbLine
 10
295.6173466995
 20
349.6992351491
 30
0.0
 11
293.1173466995
 21
349.6992351491
 31
0.0
  0
LINE
  5
103
330
1F
100
AcDbEntity
  8
0
  6
Continuous
 62
     7
370
    15
100
AcDbLine
 10
293.1173466995
 20
349.9410403074
 30
0.0
 11
295.6173466995
 21
349.9410403074
 31
0.0
  0
LINE
  5
104
330
1F
100
AcDbEntity
  8
0
  6
Continuous
 62
     7
370
    15
100
AcDbLine
 10
293.1173466995
 20
348.0823653734
 30
0.0
 11
295.6173466995
 21
348.0823653734
 31
0.0
  0
LINE
  5
105
330
1F
100
AcDbEntity
  8
0
  6
Continuous
 62
     7
370
    15
100
AcDbLine
 10
295.6173466995
 20
347.8939096644
 30
0.0
 11
293.1173466995
 21
347.8939096644
 31
0.0
  0
ARC
  5
106
330
1F
100
AcDbEntity
  8
0
  6
Continuous
 62
     7
370
    15
100
AcDbCircle
 10
-106.3826533005
 20
354.4755597815
 30
0.0
 40
449.9946174065952
100
AcDbArc
 50
357.2778343779
 51
357.3622590491
  0
SPLINE
  5
107
330
1F
100
AcDbEntity
  8
0
  6
Continuous
 62
     7
370
    15
100
AcDbSpline
210
0.0
220
0.0
230
1.0
 70
     8
 71
     3
 72
    10
 73
     6
 74
     0
 42
0.000000001
 43
0.00000001
 40
0.0
 40
0.0
 40
0.0
 40
0.0
 40
0.3143067248828648
 40
0.6571554009698818
 40
1.0
 40
1.0
 40
1.0
 40
1.0
 10
343.1512052628312
 20
334.0985000354652
 30
0.0
 10
343.1499043420831
 20
334.0731013870106
 30
0.0
 10
343.1471843649773
 20
334.0199976584302
 30
0.0
 10
343.1414384342641
 20
333.9009647984784
 30
0.0
 10
343.1372676979271
 20
333.8112252155183
 30
0.0
 10
343.1351823421579
 20
333.766355690829
 30
0.0
  0
ARC
  5
108
330
1F
100
AcDbEntity
  8
0
  6
Continuous
 62
     7
370
    15
100
AcDbCircle
 10
510.6173466995
 20
354.4755597776
 30
0.0
 40
449.9946174065952
100
AcDbArc
 50
182.6377409509
 51
182.7221656221
  0
SPLINE
  5
109
330
1F
100
AcDbEntity
  8
0
  6
Continuous
 62
     7
370
    15
100
AcDbSpline
210
0.0
220
0.0
230
1.0
 70
     8
 71
     3
 72
    12
 73
     8
 74
     0
 42
0.000000001
 43
0.00000001
 40
0.0
 40
0.0
 40
0.0
 40
0.0
 40
0.1570815397374456
 40
0.3949431595203657
 40
0.6325570065421006
 40
0.870033953495344
 40
1.0
 40
1.0
 40
1.0
 40
1.0
 10
61.09951105689146
 20
333.7663556869299
 30
0.0
 10
61.09813934719532
 20
333.7959601217213
 30
0.0
 10
61.09469051824789
 20
333.8703932411818
 30
0.0
 10
61.08930213143638
 20
333.983182061064
 30
0.0
 10
61.08431296027417
 20
334.0835869867764
 30
0.0
 10
61.08106646020231
 20
334.1452850651947
 30
0.0
 10
61.08041319245336
 20
334.1534478708969
 30
0.0
 10
61.08018212905536
 20
334.1563350877016
 30
0.0
  0
LINE
  5
10A
330
1F
100
AcDbEntity
  8
0
  6
Continuous
 62
     7
370
    15
100
AcDbLine
 10
213.8673466995
 20
325.1755597776
 30
0.0
 11
190.3673466995
 21
325.1755597776
 31
0.0
  0
LINE
  5
10B
330
1F
100
AcDbEntity
  8
0
  6
Continuous
 62
     7
370
    15
100
AcDbLine
 10
212.5923466995
 20
321.9505597776
 30
0.0
 11
191.6423466995
 21
321.9505597776
 31
0.0
  0
LINE
  5
10C
330
1F
100
AcDbEntity
  8
0
  6
Continuous
 62
     7
370
    15
100
AcDbLine
 10
211.3673466995
 20
323.1755597776
 30
0.0
 11
192.8673466995
 21
323.1755597776
 31
0.0
  0
LINE
  5
10D
330
1F
100
AcDbEntity
  8
0
  6
Continuous
 62
     7
370
    15
100
AcDbLine
 10
211.4173466995
 20
314.1755597776
 30
0.0
 11
192.8173466995
 21
314.1755597776
 31
0.0
  0
LINE
  5
10E
330
1F
100
AcDbEntity
  8
0
  6
Continuous
 62
     7
370
    15
100
AcDbLine
 10
212.5923466995
 20
315.3505597776
 30
0.0
 11
191.6423466995
 21
315.3505597776
 31
0.0
  0
ARC
  5
10F
330
1F
100
AcDbEntity
  8
0
  6
Continuous
 62
     7
370
    15
100
AcDbCircle
 10
127.1173466995
 20
354.4755597776
 30
0.0
 40
35.00000000000002
100
AcDbArc
 50
45.715697187
 51
90.0
  0
ARC
  5
110
330
1F
100
AcDbEntity
  8
0
  6
Continuous
 62
     7
370
    15
100
AcDbCircle
 10
127.1173466995
 20
354.4755597776
 30
0.0
 40
34.99999999999999
100
AcDbArc
 50
225.4613559862
 51
314.4153085972
  0
ARC
  5
111
330
1F
100
AcDbEntity
  8
0
  6
Continuous
 62
     7
370
    15
100
AcDbCircle
 10
127.1173466995
 20
354.4755597776
 30
0.0
 40
35.0
100
AcDbArc
 50
90.0
 51
134.5386440138
  0
ARC
  5
112
330
1F
100
AcDbEntity
  8
0
  6
Continuous
 62
     7
370
    15
100
AcDbCircle
 10
277.1173466995
 20
354.4755597776
 30
0.0
 40
35.00000000000006
100
AcDbArc
 50
45.4613559954
 51
90.0
  0
ARC
  5
113
330
1F
100
AcDbEntity
  8
0
  6
Continuous
 62
     7
370
    15
100
AcDbCircle
 10
277.1173466995
 20
354.4755597776
 30
0.0
 40
34.99999999999996
100
AcDbArc
 50
225.5846914028
 51
314.5386440229
  0
ARC
  5
114
330
1F
100
AcDbEntity
  8
0
  6
Continuous
 62
     7
370
    15
100
AcDbCircle
 10
277.1173466995
 20
354.4755597776
 30
0.0
 40
35.00000000000006
100
AcDbArc
 50
90.0
 51
134.1272426322
  0
SPLINE
  5
115
330
1F
100
AcDbEntity
  8
0
  6
Continuous
 62
     8
370
    15
100
AcDbSpline
210
0.0
220
0.0
230
1.0
 70
     8
 71
     3
 72
    15
 73
    11
 74
     0
 42
0.000000001
 43
0.00000001
 40
0.0
 40
0.0
 40
0.0
 40
0.0
 40
0.2581690390799329
 40
0.4165764162457344
 40
0.5738121455715519
 40
0.6765970743762187
 40
0.7804786021030201
 40
0.8883113542744787
 40
0.9893628591964652
 40
1.0
 40
1.0
 40
1.0
 40
1.0
 10
178.55234096102
 20
367.8003807203195
 30
0.0
 10
178.997681901073
 20
366.3648993412501
 30
0.0
 10
179.7162751664621
 20
364.0486351965975
 30
0.0
 10
181.2282370884968
 20
361.0097800120782
 30
0.0
 10
182.5516444588325
 20
358.9119991284428
 30
0.0
 10
183.8771442967841
 20
357.2087621126985
 30
0.0
 10
185.1337726116544
 20
355.8282936031675
 30
0.0
 10
186.5023319856274
 20
354.5775626403248
 30
0.0
 10
187.5115293483039
 20
353.7511703908761
 30
0.0
 10
188.0646663559193
 20
353.3883595292376
 30
0.0
 10
188.1173466995248
 20
353.3538057015389
 30
0.0
  0
SPLINE
  5
116
330
1F
100
AcDbEntity
  8
0
  6
Continuous
 62
     8
370
    15
100
AcDbSpline
210
0.0
220
0.0
230
1.0
 70
     8
 71
     3
 72
    15
 73
    11
 74
     0
 42
0.000000001
 43
0.00000001
 40
0.0
 40
0.0
 40
0.0
 40
0.0
 40
0.2581690390799329
 40
0.4165764162457344
 40
0.5738121455715519
 40
0.6765970743762187
 40
0.7804786021030201
 40
0.8883113542744787
 40
0.9893628591964652
 40
1.0
 40
1.0
 40
1.0
 40
1.0
 10
225.6823524380296
 20
367.8003807203195
 30
0.0
 10
225.2370114979766
 20
366.3648993412501
 30
0.0
 10
224.5184182325875
 20
364.0486351965975
 30
0.0
 10
223.0064563105528
 20
361.0097800120782
 30
0.0
 10
221.6830489402171
 20
358.9119991284428
 30
0.0
 10
220.3575491022655
 20
357.2087621126985
 30
0.0
 10
219.1009207873952
 20
355.8282936031675
 30
0.0
 10
217.7323614134222
 20
354.5775626403248
 30
0.0
 10
216.7231640507457
 20
353.7511703908761
 30
0.0
 10
216.1700270431303
 20
353.3883595292376
 30
0.0
 10
216.1173466995248
 20
353.3538057015389
 30
0.0
  0
LINE
  5
117
330
1F
100
AcDbEntity
  8
0
  6
Continuous
 62
     8
370
    15
100
AcDbLine
 10
61.3448226777
 20
331.2506832513
 30
0.0
 11
61.3448226777
 21
377.700436304
 31
0.0
  0
LINE
  5
118
330
1F
100
AcDbEntity
  8
0
  6
Continuous
 62
     8
370
    15
100
AcDbLine
 10
342.8898707214
 20
354.4755597815
 30
0.0
 11
342.8898707214
 21
331.2506832552
 31
0.0
  0
LINE
  5
119
330
1F
100
AcDbEntity
  8
0
  6
Continuous
 62
     8
370
    15
100
AcDbLine
 10
342.8898707214
 20
377.7004363079
 30
0.0
 11
342.8898707214
 21
354.4755597815
 31
0.0
  0
LINE
  5
11A
330
1F
100
AcDbEntity
  8
0
  6
Continuous
 62
     8
370
    15
100
AcDbLine
 10
343.1041795901
 20
375.9601369931
 30
0.0
 11
343.1041795901
 21
333.1040190587
 31
0.0
  0
ARC
  5
11B
330
1F
100
AcDbEntity
  8
0
  6
Continuous
 62
     8
370
    15
100
AcDbCircle
 10
342.9052272076
 20
333.113926989
 30
0.0
 40
0.1991989397691182
100
AcDbArc
 50
285.4002311626
 51
357.1489962704
  0
ARC
  5
11C
330
1F
100
AcDbEntity
  8
0
  6
Continuous
 62
     8
370
    15
100
AcDbCircle
 10
61.3294661915
 20
333.1139269851
 30
0.0
 40
0.1991989397713398
100
AcDbArc
 50
182.8510037303
 51
254.599768837
  0
LINE
  5
11D
330
1F
100
AcDbEntity
  8
0
  6
Continuous
 62
     8
370
    15
100
AcDbLine
 10
61.1305138089
 20
333.1040190548
 30
0.0
 11
61.1305138089
 21
375.9601369892
 31
0.0
  0
LINE
  5
11E
330
1F
100
AcDbEntity
  8
0
  6
Continuous
 62
     8
370
    15
100
AcDbLine
 10
343.1552211567
 20
334.1665335477
 30
0.0
 11
343.1588280485
 21
334.1665335477
 31
0.0
  0
SPLINE
  5
11F
330
1F
100
AcDbEntity
  8
0
  6
Continuous
 62
     8
370
    15
100
AcDbSpline
210
0.0
220
0.0
230
1.0
 70
     8
 71
     3
 72
    10
 73
     6
 74
     0
 42
0.000000001
 43
0.00000001
 40
0.0
 40
0.0
 40
0.0
 40
0.0
 40
0.3764705944879573
 40
0.9522214268708861
 40
1.0
 40
1.0
 40
1.0
 40
1.0
 10
343.1552211567393
 20
334.1665335476543
 30
0.0
 10
343.1549992707505
 20
334.1642420110529
 30
0.0
 10
343.1544380460601
 20
334.1584459401664
 30
0.0
 10
343.1529802494878
 20
334.1336664554457
 30
0.0
 10
343.1513315928204
 20
334.101002912568
 30
0.0
 10
343.1512052628312
 20
334.0985000354652
 30
0.0
  0
LINE
  5
120
330
1F
100
AcDbEntity
  8
0
  6
Continuous
 62
     8
370
    15
100
AcDbLine
 10
61.0758653505
 20
334.1665335438
 30
0.0
 11
61.0794722423
 21
334.1665335438
 31
0.0
  0
LINE
  5
121
330
1F
100
AcDbEntity
  8
0
  6
Continuous
 62
     8
370
    15
100
AcDbLine
 10
70.3696984074
 20
385.6030373276
 30
0.0
 11
80.8649949916
 21
385.6030373276
 31
0.0
  0
LINE
  5
122
330
1F
100
AcDbEntity
  8
0
  6
Continuous
 62
     8
370
    15
100
AcDbLine
 10
328.6173466995
 20
385.5264179755
 30
0.0
 11
333.8649949916
 21
385.5264179755
 31
0.0
  0
LINE
  5
123
330
1F
100
AcDbEntity
  8
0
  6
Continuous
 62
     8
370
    15
100
AcDbLine
 10
323.3696984074
 20
385.5264179755
 30
0.0
 11
328.6173466995
 21
385.5264179755
 31
0.0
  0
LINE
  5
124
330
1F
100
AcDbEntity
  8
0
  6
Continuous
 62
     8
370
    15
100
AcDbLine
 10
61.0794722423
 20
334.1665335438
 30
0.0
 11
61.0801791047
 21
334.1564958753
 31
0.0
  0
ARC
  5
125
330
1F
100
AcDbEntity
  8
0
  6
Continuous
 62
     7
370
     0
100
AcDbCircle
 10
127.1173466995
 20
354.4755597776
 30
0.0
 40
32.60585337309749
100
AcDbArc
 50
50.3815899808
 51
90.0
  0
ARC
  5
126
330
1F
100
AcDbEntity
  8
0
  6
Continuous
 62
     7
370
     0
100
AcDbCircle
 10
127.1173466995
 20
354.4755597776
 30
0.0
 40
32.60585337309743
100
AcDbArc
 50
230.0027929465
 51
309.93854086
  0
ARC
  5
127
330
1F
100
AcDbEntity
  8
0
  6
Continuous
 62
     7
370
     0
100
AcDbCircle
 10
127.1173466995
 20
354.4755597776
 30
0.0
 40
32.60585337309749
100
AcDbArc
 50
90.0
 51
129.9972070535
  0
ARC
  5
128
330
1F
100
AcDbEntity
  8
0
  6
Continuous
 62
     7
370
     0
100
AcDbCircle
 10
277.1173466995
 20
354.4755597776
 30
0.0
 40
32.60585337309749
100
AcDbArc
 50
50.0027929573
 51
90.0
  0
ARC
  5
129
330
1F
100
AcDbEntity
  8
0
  6
Continuous
 62
     7
370
     0
100
AcDbCircle
 10
277.1173466995
 20
354.4755597776
 30
0.0
 40
32.60585337309745
100
AcDbArc
 50
230.06145914
 51
309.9972070642
  0
ARC
  5
12A
330
1F
100
AcDbEntity
  8
0
  6
Continuous
 62
     7
370
     0
100
AcDbCircle
 10
277.1173466995
 20
354.4755597776
 30
0.0
 40
32.60585337309751
100
AcDbArc
 50
90.0
 51
129.8746385866
  0
ARC
  5
12B
330
1F
100
AcDbEntity
  8
0
  6
Continuous
 62
     7
370
    15
100
AcDbCircle
 10
470.0476820996
 20
384.8560944191
 30
0.0
 40
0.7500000000000568
100
AcDbArc
 50
0.0
 51
84.8250179636
  0
ARC
  5
12C
330
1F
100
AcDbEntity
  8
0
  6
Continuous
 62
     7
370
    15
100
AcDbCircle
 10
459.6876820996
 20
384.8560944191
 30
0.0
 40
0.7500000000000219
100
AcDbArc
 50
95.1749820364
 51
180.0
  0
LINE
  5
12D
330
1F
100
AcDbEntity
  8
0
  6
Continuous
 62
     7
370
    15
100
AcDbLine
 10
470.7976820996
 20
378.4721459864
 30
0.0
 11
470.7976820996
 21
384.8560944191
 31
0.0
  0
LINE
  5
12E
330
1F
100
AcDbEntity
  8
0
  6
Continuous
 62
     7
370
    15
100
AcDbLine
 10
458.9376820996
 20
384.8560944191
 30
0.0
 11
458.9376820996
 21
378.4858193766
 31
0.0
  0
ARC
  5
12F
330
1F
100
AcDbEntity
  8
0
  6
Continuous
 62
     7
370
    15
100
AcDbCircle
 10
464.8676820996
 20
327.6607958204
 30
0.0
 40
58.17938778877858
100
AcDbArc
 50
84.8250179637
 51
95.1749820363
  0
ARC
  5
130
330
1F
100
AcDbEntity
  8
0
  6
Continuous
 62
     7
370
    15
100
AcDbCircle
 10
415.6863090662
 20
344.4755597775
 30
0.0
 40
5.999999999875786
100
AcDbArc
 50
228.5903778903
 51
270.0000000009
  0
ARC
  5
131
330
1F
100
AcDbEntity
  8
0
  6
Continuous
 62
     7
370
    15
100
AcDbCircle
 10
415.6863090662
 20
364.4755597778
 30
0.0
 40
5.999999999875786
100
AcDbArc
 50
89.9999999991
 51
131.4096221097
  0
ARC
  5
132
330
1F
100
AcDbEntity
  8
0
  6
Continuous
 62
     7
370
    15
100
AcDbCircle
 10
424.749055133
 20
344.4755597776
 30
0.0
 40
5.999999999999995
100
AcDbArc
 50
270.0
 51
311.4096221093
  0
ARC
  5
133
330
1F
100
AcDbEntity
  8
0
  6
Continuous
 62
     7
370
    15
100
AcDbCircle
 10
424.749055133
 20
364.4755597776
 30
0.0
 40
6.000000000000037
100
AcDbArc
 50
48.5903778907
 51
90.0
  0
LINE
  5
134
330
1F
100
AcDbEntity
  8
0
  6
Continuous
 62
     7
370
    15
100
AcDbLine
 10
428.7176820996
 20
343.9755597776
 30
0.0
 11
442.131939329
 21
343.9755597776
 31
0.0
  0
LINE
  5
135
330
1F
100
AcDbEntity
  8
0
  6
Continuous
 62
     7
370
    15
100
AcDbLine
 10
442.1207424188
 20
364.9755597776
 30
0.0
 11
428.7176820996
 21
364.9755597776
 31
0.0
  0
LINE
  5
136
330
1F
100
AcDbEntity
  8
0
  6
Continuous
 62
     7
370
    15
100
AcDbLine
 10
424.749055133
 20
370.4755597776
 30
0.0
 11
415.6863090662
 21
370.4755597776
 31
0.0
  0
LINE
  5
137
330
1F
100
AcDbEntity
  8
0
  6
Continuous
 62
     7
370
    15
100
AcDbLine
 10
415.6863090662
 20
338.4755597776
 30
0.0
 11
424.749055133
 21
338.4755597776
 31
0.0
  0
SPLINE
  5
138
330
1F
100
AcDbEntity
  8
0
  6
Continuous
 62
     7
370
    15
100
AcDbSpline
210
0.0
220
0.0
230
1.0
 70
     8
 71
     3
 72
    21
 73
    17
 74
     0
 42
0.000000001
 43
0.00000001
 40
0.0
 40
0.0
 40
0.0
 40
0.0
 40
0.0518937102833062
 40
0.1257573211757276
 40
0.1929203390054068
 40
0.2223373499403313
 40
0.2506482672582723
 40
0.2903359195946925
 40
0.3334365091003889
 40
0.3785140134397293
 40
0.4507573025102459
 40
0.5307213584536135
 40
0.6250905260290532
 40
0.741075634099289
 40
0.8819939161820347
 40
0.9999999999999999
 40
0.9999999999999999
 40
0.9999999999999999
 40
0.9999999999999999
 10
484.5950026510639
 20
339.0292547015472
 30
0.0
 10
484.5961836138806
 20
339.0220126879055
 30
0.0
 10
484.5990455160155
 20
339.0044626566875
 30
0.0
 10
484.9101988033817
 20
339.3080116791853
 30
0.0
 10
485.371102717099
 20
339.7618514555034
 30
0.0
 10
486.0346652276506
 20
340.4138347467783
 30
0.0
 10
486.7117171065404
 20
341.0670301870782
 30
0.0
 10
487.6438951547393
 20
341.9371491367735
 30
0.0
 10
488.7513207234775
 20
342.8988681442876
 30
0.0
 10
490.2011166942299
 20
344.0364241275707
 30
0.0
 10
492.0942317230815
 20
345.2975535855705
 30
0.0
 10
494.6419824961394
 20
346.6010292280747
 30
0.0
 10
497.8157428639025
 20
347.6941747047912
 30
0.0
 10
501.7759336565487
 20
348.4683063241604
 30
0.0
 10
506.0642066115456
 20
348.8561279464155
 30
0.0
 10
509.002344188139
 20
349.0001060208847
 30
0.0
 10
510.3414151864443
 20
349.0657247534619
 30
0.0
  0
SPLINE
  5
139
330
1F
100
AcDbEntity
  8
0
  6
Continuous
 62
     7
370
    15
100
AcDbSpline
210
0.0
220
0.0
230
1.0
 70
     8
 71
     3
 72
     9
 73
     5
 74
     0
 42
0.000000001
 43
0.00000001
 40
0.0
 40
0.0
 40
0.0
 40
0.0
 40
0.5154941808258876
 40
1.0
 40
1.0
 40
1.0
 40
1.0
 10
474.2257274297851
 20
379.4459749594272
 30
0.0
 10
473.5806051250819
 20
379.4482710359649
 30
0.0
 10
472.329141328401
 20
379.4527251629425
 30
0.0
 10
471.2975123451986
 20
379.4556531190449
 30
0.0
 10
470.7976820996084
 20
379.4570717308148
 30
0.0
  0
LINE
  5
13A
330
1F
100
AcDbEntity
  8
0
  6
Continuous
 62
     7
370
    15
100
AcDbLine
 10
556.945638987
 20
347.6457317791
 30
0.0
 11
554.7787125578
 21
357.8403191027
 31
0.0
  0
LINE
  5
13B
330
1F
100
AcDbEntity
  8
0
  6
Continuous
 62
     7
370
    15
100
AcDbLine
 10
527.8180966948
 20
350.0074826092
 30
0.0
 11
529.5575061664
 21
341.8242044362
 31
0.0
  0
LINE
  5
13C
330
1F
100
AcDbEntity
  8
0
  6
Continuous
 62
     7
370
    15
100
AcDbLine
 10
529.5575061664
 20
341.8242044362
 30
0.0
 11
530.6556916378
 21
341.4673823464
 31
0.0
  0
LINE
  5
13D
330
1F
100
AcDbEntity
  8
0
  6
Continuous
 62
     7
370
    15
100
AcDbLine
 10
556.0875292569
 20
346.8730863077
 30
0.0
 11
556.945638987
 21
347.6457317791
 31
0.0
  0
LINE
  5
13E
330
1F
100
AcDbEntity
  8
0
  6
Continuous
 62
     7
370
    15
100
AcDbLine
 10
476.6176820996
 20
325.1755597776
 30
0.0
 11
476.6176820996
 21
332.408899405
 31
0.0
  0
LINE
  5
13F
330
1F
100
AcDbEntity
  8
0
  6
Continuous
 62
     7
370
    15
100
AcDbLine
 10
453.1176820996
 20
332.408899405
 30
0.0
 11
453.1176820996
 21
325.1755597776
 31
0.0
  0
LINE
  5
140
330
1F
100
AcDbEntity
  8
0
  6
Continuous
 62
     7
370
    15
100
AcDbLine
 10
475.3426820996
 20
321.9505597776
 30
0.0
 11
474.1176820996
 21
323.1755597776
 31
0.0
  0
LINE
  5
141
330
1F
100
AcDbEntity
  8
0
  6
Continuous
 62
     7
370
    15
100
AcDbLine
 10
455.6176820996
 20
323.1755597776
 30
0.0
 11
454.3926820996
 21
321.9505597776
 31
0.0
  0
LINE
  5
142
330
1F
100
AcDbEntity
  8
0
  6
Continuous
 62
     7
370
    15
100
AcDbLine
 10
454.3926820996
 20
315.3505597776
 30
0.0
 11
455.5676820996
 21
314.1755597776
 31
0.0
  0
LINE
  5
143
330
1F
100
AcDbEntity
  8
0
  6
Continuous
 62
     7
370
    15
100
AcDbLine
 10
474.1676820996
 20
314.1755597776
 30
0.0
 11
475.3426820996
 21
315.3505597776
 31
0.0
  0
LINE
  5
144
330
1F
100
AcDbEntity
  8
0
  6
Continuous
 62
     7
370
    15
100
AcDbLine
 10
475.3426820996
 20
315.3505597776
 30
0.0
 11
475.3426820996
 21
321.9505597776
 31
0.0
  0
LINE
  5
145
330
1F
100
AcDbEntity
  8
0
  6
Continuous
 62
     7
370
    15
100
AcDbLine
 10
454.3926820996
 20
321.9505597776
 30
0.0
 11
454.3926820996
 21
315.3505597776
 31
0.0
  0
ARC
  5
146
330
1F
100
AcDbEntity
  8
0
  6
Continuous
 62
     7
370
    15
100
AcDbCircle
 10
474.6176820996
 20
324.6755597776
 30
0.0
 40
0.5
100
AcDbArc
 50
90.0
 51
180.0
  0
ARC
  5
147
330
1F
100
AcDbEntity
  8
0
  6
Continuous
 62
     7
370
    15
100
AcDbCircle
 10
455.1176820996
 20
324.6755597776
 30
0.0
 40
0.5
100
AcDbArc
 50
0.0
 51
90.0
  0
LINE
  5
148
330
1F
100
AcDbEntity
  8
0
  6
Continuous
 62
     7
370
    15
100
AcDbLine
 10
474.1176820996
 20
323.1755597776
 30
0.0
 11
474.1176820996
 21
324.6755597776
 31
0.0
  0
LINE
  5
149
330
1F
100
AcDbEntity
  8
0
  6
Continuous
 62
     7
370
    15
100
AcDbLine
 10
455.6176820996
 20
324.6755597776
 30
0.0
 11
455.6176820996
 21
323.1755597776
 31
0.0
  0
LINE
  5
14A
330
1F
100
AcDbEntity
  8
0
  6
Continuous
 62
     7
370
    15
100
AcDbLine
 10
442.1795794905
 20
364.9755597776
 30
0.0
 11
442.1207424188
 21
364.9755597776
 31
0.0
  0
LINE
  5
14B
330
1F
100
AcDbEntity
  8
0
  6
Continuous
 62
     7
370
    15
100
AcDbLine
 10
385.7082978512
 20
319.4755597776
 30
0.0
 11
409.667995703
 21
319.8937778593
 31
0.0
  0
LINE
  5
14C
330
1F
100
AcDbEntity
  8
0
  6
Continuous
 62
     7
370
    15
100
AcDbLine
 10
409.667995703
 20
389.057341696
 30
0.0
 11
385.7082978512
 21
389.4755597776
 31
0.0
  0
ARC
  5
14D
330
1F
100
AcDbEntity
  8
0
  6
Continuous
 62
     7
370
    15
100
AcDbCircle
 10
409.6330908901
 20
321.8934732496
 30
0.0
 40
1.999999999999917
100
AcDbArc
 50
271.0
 51
359.3191140165
  0
ARC
  5
14E
330
1F
100
AcDbEntity
  8
0
  6
Continuous
 62
     7
370
    15
100
AcDbCircle
 10
409.6330908901
 20
387.0576463057
 30
0.0
 40
1.999999999999857
100
AcDbArc
 50
0.6808859835
 51
89.0
  0
ARC
  5
14F
330
1F
100
AcDbEntity
  8
0
  6
Continuous
 62
     7
370
    15
100
AcDbCircle
 10
-788.2823179004
 20
336.129813449
 30
0.0
 40
1200.0
100
AcDbArc
 50
359.3191140165
 51
0.0
  0
ARC
  5
150
330
1F
100
AcDbEntity
  8
0
  6
Continuous
 62
     7
370
    15
100
AcDbCircle
 10
-788.2823179004
 20
372.8213061063
 30
0.0
 40
1200.0
100
AcDbArc
 50
0.0
 51
0.6808859835
  0
LINE
  5
151
330
1F
100
AcDbEntity
  8
0
  6
Continuous
 62
     7
370
    15
100
AcDbLine
 10
411.7176820996
 20
336.129813449
 30
0.0
 11
411.7176820996
 21
372.8213061063
 31
0.0
  0
SPLINE
  5
152
330
1F
100
AcDbEntity
  8
0
  6
Continuous
 62
     7
370
    15
100
AcDbSpline
210
0.0
220
0.0
230
1.0
 70
     8
 71
     3
 72
     8
 73
     4
 74
     0
 42
0.000000001
 43
0.00000001
 40
0.0
 40
0.0
 40
0.0
 40
0.0
 40
1.0
 40
1.0
 40
1.0
 40
1.0
 10
462.9122204300968
 20
333.901383739237
 30
0.0
 10
462.9497772019799
 20
333.9477869710552
 30
0.0
 10
463.0077566803319
 20
333.9755597776378
 30
0.0
 10
463.0676820996079
 20
333.9755597776378
 30
0.0
  0
SPLINE
  5
153
330
1F
100
AcDbEntity
  8
0
  6
Continuous
 62
     7
370
    15
100
AcDbSpline
210
0.0
220
0.0
230
1.0
 70
     8
 71
     3
 72
     8
 73
     4
 74
     0
 42
0.000000001
 43
0.00000001
 40
0.0
 40
0.0
 40
0.0
 40
0.0
 40
1.0
 40
1.0
 40
1.0
 40
1.0
 10
462.9122204300966
 20
333.9013837392367
 30
0.0
 10
462.8832726416458
 20
333.8656173282605
 30
0.0
 10
462.8674508929615
 20
333.8210204613728
 30
0.0
 10
462.867324011352
 20
333.7750092404719
 30
0.0
  0
SPLINE
  5
154
330
1F
100
AcDbEntity
  8
0
  6
Continuous
 62
     7
370
    15
100
AcDbSpline
210
0.0
220
0.0
230
1.0
 70
     8
 71
     3
 72
     8
 73
     4
 74
     0
 42
0.000000001
 43
0.00000001
 40
0.0
 40
0.0
 40
0.0
 40
0.0
 40
1.0
 40
1.0
 40
1.0
 40
1.0
 10
466.6676820996081
 20
333.9755597776369
 30
0.0
 10
466.7276990121593
 20
333.9755597776369
 30
0.0
 10
466.7859882491864
 20
333.9472912046109
 30
0.0
 10
466.8231437691195
 20
333.9013837392371
 30
0.0
  0
SPLINE
  5
155
330
1F
100
AcDbEntity
  8
0
  6
Continuous
 62
     7
370
    15
100
AcDbSpline
210
0.0
220
0.0
230
1.0
 70
     8
 71
     3
 72
     8
 73
     4
 74
     0
 42
0.000000001
 43
0.00000001
 40
0.0
 40
0.0
 40
0.0
 40
0.0
 40
1.0
 40
1.0
 40
1.0
 40
1.0
 10
466.8680401878644
 20
333.7750092404715
 30
0.0
 10
466.8679133062468
 20
333.821020464271
 30
0.0
 10
466.8520915714593
 20
333.8656173111003
 30
0.0
 10
466.8231437691199
 20
333.9013837392366
 30
0.0
  0
LINE
  5
156
330
1F
100
AcDbEntity
  8
0
  6
Continuous
 62
     7
370
    15
100
AcDbLine
 10
466.6676820996
 20
333.9755597776
 30
0.0
 11
463.0676820996
 21
333.9755597776
 31
0.0
  0
SPLINE
  5
157
330
1F
100
AcDbEntity
  8
0
  6
Continuous
 62
     7
370
    15
100
AcDbSpline
210
0.0
220
0.0
230
1.0
 70
     8
 71
     3
 72
    10
 73
     6
 74
     0
 42
0.000000001
 43
0.00000001
 40
0.0
 40
0.0
 40
0.0
 40
0.0
 40
0.5
 40
0.5
 40
1.0
 40
1.0
 40
1.0
 40
1.0
 10
462.867324011352
 20
333.7750092404719
 30
0.0
 10
462.8670185776289
 20
333.6642494657257
 30
0.0
 10
462.866515132835
 20
333.5534876422243
 30
0.0
 10
462.8650837547277
 20
333.3319596031792
 30
0.0
 10
462.864149611739
 20
333.2207303306115
 30
0.0
 10
462.86300765125
 20
333.1114759151054
 30
0.0
  0
SPLINE
  5
158
330
1F
100
AcDbEntity
  8
0
  6
Continuous
 62
     7
370
    15
100
AcDbSpline
210
0.0
220
0.0
230
1.0
 70
     8
 71
     3
 72
    10
 73
     6
 74
     0
 42
0.000000001
 43
0.00000001
 40
0.0
 40
0.0
 40
0.0
 40
0.0
 40
0.5
 40
0.5
 40
1.0
 40
1.0
 40
1.0
 40
1.0
 10
466.8723565479663
 20
333.1114759151054
 30
0.0
 10
466.8712110200393
 20
333.2210716369552
 30
0.0
 10
466.8702791584338
 20
333.3321333023779
 30
0.0
 10
466.8688486976083
 20
333.5535700827129
 30
0.0
 10
466.8683455088759
 20
333.6642903384381
 30
0.0
 10
466.8680401878644
 20
333.7750092404719
 30
0.0
  0
ARC
  5
159
330
1F
100
AcDbEntity
  8
0
  6
Continuous
 62
     7
370
    15
100
AcDbCircle
 10
462.6676820996
 20
333.1135175174
 30
0.0
 40
0.1953362210754115
100
AcDbArc
 50
264.1200430039
 51
359.4011488368
  0
ARC
  5
15A
330
1F
100
AcDbEntity
  8
0
  6
Continuous
 62
     7
370
    15
100
AcDbCircle
 10
467.0676820996
 20
333.1135175174
 30
0.0
 40
0.1953362210753541
100
AcDbArc
 50
180.5988511632
 51
275.8799569961
  0
ARC
  5
15B
330
1F
100
AcDbEntity
  8
0
  6
Continuous
 62
     7
370
    15
100
AcDbCircle
 10
464.8676820996
 20
354.4755597776
 30
0.0
 40
21.67036473163346
100
AcDbArc
 50
275.8799569961
 51
264.1200430039
  0
CIRCLE
  5
15C
330
1F
100
AcDbEntity
  8
0
  6
Continuous
 62
     7
370
    15
100
AcDbCircle
 10
464.8676820996
 20
354.4755597776
 30
0.0
 40
21.86416973574006
  0
CIRCLE
  5
15D
330
1F
100
AcDbEntity
  8
0
  6
Continuous
 62
     7
370
    15
100
AcDbCircle
 10
464.8676820996
 20
354.4755597776
 30
0.0
 40
21.86398157398128
  0
CIRCLE
  5
15E
330
1F
100
AcDbEntity
  8
0
  6
Continuous
 62
     7
370
    15
100
AcDbCircle
 10
464.8676820996
 20
354.4755597776
 30
0.0
 40
23.22487652633856
  0
CIRCLE
  5
15F
330
1F
100
AcDbEntity
  8
0
  6
Continuous
 62
     7
370
    15
100
AcDbCircle
 10
464.8676820996
 20
354.4755597776
 30
0.0
 40
24.59998560153008
  0
SPLINE
  5
160
330
1F
100
AcDbEntity
  8
0
  6
Continuous
 62
     7
370
    15
100
AcDbSpline
210
0.0
220
0.0
230
1.0
 70
     8
 71
     3
 72
    15
 73
    11
 74
     0
 42
0.000000001
 43
0.00000001
 40
0.0
 40
0.0
 40
0.0
 40
0.0
 40
0.1419876867391698
 40
0.2840630136618504
 40
0.4237560696185145
 40
0.5617170639332804
 40
0.701892127964067
 40
0.8449306172406779
 40
0.9868641582117259
 40
1.0
 40
1.0
 40
1.0
 40
1.0
 10
460.5861845098513
 20
378.7774942755684
 30
0.0
 10
461.0931486294482
 20
378.8550553236432
 30
0.0
 10
462.1073897861174
 20
379.0102252934123
 30
0.0
 10
464.0665527289825
 20
379.1496826046997
 30
0.0
 10
466.0676192852755
 20
379.1323978386012
 30
0.0
 10
467.9242120972986
 20
378.9727137086732
 30
0.0
 10
469.4719734921189
 20
378.7314881475707
 30
0.0
 10
470.4578872723868
 20
378.5311701119053
 30
0.0
 10
470.8850212109787
 20
378.4373699350798
 30
0.0
 10
470.7791577559815
 20
378.4694301807086
 30
0.0
 10
470.7701901211638
 20
378.4721459864129
 30
0.0
  0
SPLINE
  5
161
330
1F
100
AcDbEntity
  8
0
  6
Continuous
 62
     7
370
    15
100
AcDbSpline
210
0.0
220
0.0
230
1.0
 70
     8
 71
     3
 72
    10
 73
     6
 74
     0
 42
0.000000001
 43
0.00000001
 40
0.0
 40
0.0
 40
0.0
 40
0.0
 40
0.2137840902277444
 40
0.6414631824737629
 40
1.0
 40
1.0
 40
1.0
 40
1.0
 10
459.0203842850671
 20
378.485819376612
 30
0.0
 10
459.0043785310919
 20
378.4788936893934
 30
0.0
 10
458.9563529653362
 20
378.4581130346716
 30
0.0
 10
459.5108073286611
 20
378.5844821941765
 30
0.0
 10
460.2493761293251
 20
378.7170428472764
 30
0.0
 10
460.5861845098513
 20
378.7774942755684
 30
0.0
  0
ELLIPSE
  5
162
330
1F
100
AcDbEntity
  8
0
  6
Continuous
 62
     7
370
    15
100
AcDbEllipse
 10
464.6812680018
 20
354.5875686678
 30
0.0
 11
21.36093983155371
 21
-12.83494752943983
 31
0.0
210
0.0
220
0.0
230
1.0
 40
0.9999619202
 41
1.531626084808884
 42
1.646467354535367
  0
ELLIPSE
  5
163
330
1F
100
AcDbEntity
  8
0
  6
Continuous
 62
     7
370
    15
100
AcDbEllipse
 10
465.0055527764
 20
354.3927187175
 30
0.0
 11
21.35033216592262
 21
-12.82857380262243
 31
0.0
210
0.0
220
0.0
230
1.0
 40
0.9999791499
 41
1.514143636681559
 42
1.546803088449465
  0
ELLIPSE
  5
164
330
1F
100
AcDbEntity
  8
0
  6
Continuous
 62
     7
370
    15
100
AcDbEllipse
 10
464.6811756744
 20
354.5876241437
 30
0.0
 11
21.37151950017102
 21
-12.84130443574492
 31
0.0
210
0.0
220
0.0
230
1.0
 40
0.9999619202
 41
1.498990372033885
 42
1.622254052595534
  0
ELLIPSE
  5
165
330
1F
100
AcDbEntity
  8
0
  6
Continuous
 62
     7
370
    15
100
AcDbEllipse
 10
465.1200581434
 20
354.3239169517
 30
0.0
 11
21.39925264648082
 21
-12.85796819241068
 31
0.0
210
0.0
220
0.0
230
1.0
 40
0.9999304521
 41
1.642735965863138
 42
1.666912660526695
  0
LINE
  5
166
330
1F
100
AcDbEntity
  8
0
  6
Continuous
 62
     7
370
    15
100
AcDbLine
 10
454.2026385581
 20
377.0363746194
 30
0.0
 11
454.2048521236
 21
377.0325406114
 31
0.0
  0
ARC
  5
167
330
1F
100
AcDbEntity
  8
0
  6
Continuous
 62
     7
370
    15
100
AcDbCircle
 10
464.8535363853
 20
354.4673927457
 30
0.0
 40
24.95597257854497
100
AcDbArc
 50
115.2638606184
 51
123.3066481375
  0
LINE
  5
168
330
1F
100
AcDbEntity
  8
0
  6
Continuous
 62
     7
370
    15
100
AcDbLine
 10
451.1519277472
 20
375.3203607429
 30
0.0
 11
451.1497178589
 21
375.3241883818
 31
0.0
  0
ARC
  5
169
330
1F
100
AcDbEntity
  8
0
  6
Continuous
 62
     7
370
    15
100
AcDbCircle
 10
464.8535388862
 20
354.4673941896
 30
0.0
 40
24.95156032813972
100
AcDbArc
 50
115.2630278552
 51
123.3072401535
  0
ELLIPSE
  5
16A
330
1F
100
AcDbEntity
  8
0
  6
Continuous
 62
     7
370
    15
100
AcDbEllipse
 10
464.8394002477
 20
354.4592312428
 30
0.0
 11
21.60519490344722
 21
12.47376508973315
 31
0.0
210
0.0
220
0.0
230
1.0
 40
0.9999991432
 41
1.487450509282301
 42
1.627872402899672
  0
LINE
  5
16B
330
1F
100
AcDbEntity
  8
0
  6
Continuous
 62
     7
370
    15
100
AcDbLine
 10
451.1556976324
 20
375.3138311102
 30
0.0
 11
451.1534877418
 21
375.317658753
 31
0.0
  0
ELLIPSE
  5
16C
330
1F
100
AcDbEntity
  8
0
  6
Continuous
 62
     7
370
    15
100
AcDbEllipse
 10
464.8394052497
 20
354.4592341307
 30
0.0
 11
21.60137377654019
 21
12.471558961624
 31
0.0
210
0.0
220
0.0
230
1.0
 40
0.9999991432
 41
1.487435964114128
 42
1.627882742142258
  0
LINE
  5
16D
330
1F
100
AcDbEntity
  8
0
  6
Continuous
 62
     7
370
    15
100
AcDbLine
 10
454.2075639813
 20
377.027843536
 30
0.0
 11
454.2097775527
 21
377.0240095179
 31
0.0
  0
ARC
  5
16E
330
1F
100
AcDbEntity
  8
0
  6
Continuous
 62
     7
370
    15
100
AcDbCircle
 10
464.8676820996
 20
354.4755597776
 30
0.0
 40
25.00000000000006
100
AcDbArc
 50
0.0
 51
76.2786591902
  0
ARC
  5
16F
330
1F
100
AcDbEntity
  8
0
  6
Continuous
 62
     7
370
    15
100
AcDbCircle
 10
464.8676820996
 20
354.4755597776
 30
0.0
 40
25.00000000000006
100
AcDbArc
 50
103.7213408098
 51
0.0
  0
LINE
  5
170
330
1F
100
AcDbEntity
  8
0
  6
Continuous
 62
     7
370
    15
100
AcDbLine
 10
476.3993818064
 20
376.5799370372
 30
0.0
 11
476.4057497586
 21
376.5905350894
 31
0.0
  0
SPLINE
  5
171
330
1F
100
AcDbEntity
  8
0
  6
Continuous
 62
     7
370
    15
100
AcDbSpline
210
0.0
220
0.0
230
1.0
 70
     8
 71
     3
 72
    22
 73
    18
 74
     0
 42
0.000000001
 43
0.00000001
 40
0.0
 40
0.0
 40
0.0
 40
0.0
 40
0.2499999999999995
 40
0.2499999999999995
 40
0.3749999999999992
 40
0.3749999999999992
 40
0.4999999999999988
 40
0.4999999999999988
 40
0.6249999999999984
 40
0.6249999999999984
 40
0.7499999999999981
 40
0.7499999999999981
 40
0.8749999999999977
 40
0.8749999999999977
 40
0.9374999999999988
 40
0.9374999999999988
 40
1.0
 40
1.0
 40
1.0
 40
1.0
 10
428.0656799233666
 20
354.4755597776368
 30
0.0
 10
428.0656799233666
 20
353.880967353498
 30
0.0
 10
428.0140395903234
 20
353.2949578364547
 30
0.0
 10
427.8513787906829
 20
352.430104318905
 30
0.0
 10
427.7826943992831
 20
352.1442238300805
 30
0.0
 10
427.6103974148792
 20
351.578268111455
 30
0.0
 10
427.5060702472749
 20
351.2969230511359
 30
0.0
 10
427.2585614455372
 20
350.7573541957776
 30
0.0
 10
427.1150230102876
 20
350.4970972795632
 30
0.0
 10
426.7757697448923
 20
350.0048370350113
 30
0.0
 10
426.5849374638975
 20
349.7796762927298
 30
0.0
 10
426.1472708337737
 20
349.3847329145432
 30
0.0
 10
425.8949314356616
 20
349.2128685217371
 30
0.0
 10
425.4856275997742
 20
349.0346155801891
 30
0.0
 10
425.3421910718963
 20
348.9874640408947
 30
0.0
 10
425.0487164076956
 20
348.924063514106
 30
0.0
 10
424.8999534471001
 20
348.9077954148063
 30
0.0
 10
424.7490551330117
 20
348.9077954148063
 30
0.0
  0
LINE
  5
172
330
1F
100
AcDbEntity
  8
0
  6
Continuous
 62
     7
370
    15
100
AcDbLine
 10
424.749055133
 20
348.9077954148
 30
0.0
 11
415.6863090662
 21
348.9077954148
 31
0.0
  0
SPLINE
  5
173
330
1F
100
AcDbEntity
  8
0
  6
Continuous
 62
     7
370
    15
100
AcDbSpline
210
0.0
220
0.0
230
1.0
 70
     8
 71
     3
 72
    22
 73
    18
 74
     0
 42
0.000000001
 43
0.00000001
 40
0.0
 40
0.0
 40
0.0
 40
0.0
 40
0.0625000000000007
 40
0.0625000000000007
 40
0.1250000000000015
 40
0.1250000000000015
 40
0.1875000000000022
 40
0.1875000000000022
 40
0.250000000000003
 40
0.250000000000003
 40
0.3750000000000026
 40
0.3750000000000026
 40
0.5000000000000022
 40
0.5000000000000022
 40
0.7500000000000012
 40
0.7500000000000012
 40
1.0
 40
1.0
 40
1.0
 40
1.0
 10
415.6863090662474
 20
348.9077954148065
 30
0.0
 10
415.5357812823103
 20
348.9077954148
 30
0.0
 10
415.3881474220087
 20
348.9239762441036
 30
0.0
 10
415.0982105539785
 20
348.9861443614914
 30
0.0
 10
414.9545080266374
 20
349.032856111666
 30
0.0
 10
414.6805686691349
 20
349.1515301528108
 30
0.0
 10
414.5502579744179
 20
349.2230810801939
 30
0.0
 10
414.3011711371688
 20
349.387339607625
 30
0.0
 10
414.1824907325802
 20
349.4802759893481
 30
0.0
 10
413.8516922964637
 20
349.778046289353
 30
0.0
 10
413.6597381116082
 20
350.0046700725422
 30
0.0
 10
413.3205968971139
 20
350.4966848070717
 30
0.0
 10
413.1779209682622
 20
350.7554148562719
 30
0.0
 10
412.8084766594772
 20
351.5593182541805
 30
0.0
 10
412.6394552069156
 20
352.1363637159142
 30
0.0
 10
412.4212713402928
 20
353.2940600037001
 30
0.0
 10
412.36968427584
 20
353.8811244898737
 30
0.0
 10
412.36968427584
 20
354.4755597776368
 30
0.0
  0
SPLINE
  5
174
330
1F
100
AcDbEntity
  8
0
  6
Continuous
 62
     7
370
    15
100
AcDbSpline
210
0.0
220
0.0
230
1.0
 70
     8
 71
     3
 72
    22
 73
    18
 74
     0
 42
0.000000001
 43
0.00000001
 40
0.0
 40
0.0
 40
0.0
 40
0.0
 40
0.2499999999999994
 40
0.2499999999999994
 40
0.3749999999999991
 40
0.3749999999999991
 40
0.4999999999999987
 40
0.4999999999999987
 40
0.6249999999999983
 40
0.6249999999999983
 40
0.7499999999999979
 40
0.7499999999999979
 40
0.8749999999999976
 40
0.8749999999999976
 40
0.9374999999999987
 40
0.9374999999999987
 40
1.0
 40
1.0
 40
1.0
 40
1.0
 10
412.36968427584
 20
354.4755597776368
 30
0.0
 10
412.36968427584
 20
355.0701522017811
 30
0.0
 10
412.4213246088834
 20
355.65616171883
 30
0.0
 10
412.5839854085253
 20
356.5210152363885
 30
0.0
 10
412.6526697999257
 20
356.806895725216
 30
0.0
 10
412.8249667843314
 20
357.3728514438475
 30
0.0
 10
412.9292939519368
 20
357.654196504169
 30
0.0
 10
413.1768027536774
 20
358.1937653595313
 30
0.0
 10
413.3203411889301
 20
358.4540222757495
 30
0.0
 10
413.6595944543294
 20
358.9462825203017
 30
0.0
 10
413.8504267353271
 20
359.1714432625834
 30
0.0
 10
414.2880933654605
 20
359.5663866407687
 30
0.0
 10
414.5404327635785
 20
359.7382510335722
 30
0.0
 10
414.9497365994745
 20
359.9165039751107
 30
0.0
 10
415.0931731273571
 20
359.9636555144015
 30
0.0
 10
415.3866477915607
 20
360.0270560411798
 30
0.0
 10
415.5354107521576
 20
360.0433241404737
 30
0.0
 10
415.6863090662474
 20
360.0433241404672
 30
0.0
  0
LINE
  5
175
330
1F
100
AcDbEntity
  8
0
  6
Continuous
 62
     7
370
    15
100
AcDbLine
 10
415.6863090662
 20
360.0433241405
 30
0.0
 11
424.749055133
 21
360.0433241405
 31
0.0
  0
SPLINE
  5
176
330
1F
100
AcDbEntity
  8
0
  6
Continuous
 62
     7
370
    15
100
AcDbSpline
210
0.0
220
0.0
230
1.0
 70
     8
 71
     3
 72
    22
 73
    18
 74
     0
 42
0.000000001
 43
0.00000001
 40
0.0
 40
0.0
 40
0.0
 40
0.0
 40
0.0625000000000007
 40
0.0625000000000007
 40
0.1250000000000015
 40
0.1250000000000015
 40
0.1875000000000022
 40
0.1875000000000022
 40
0.2500000000000029
 40
0.2500000000000029
 40
0.3750000000000024
 40
0.3750000000000024
 40
0.500000000000002
 40
0.500000000000002
 40
0.750000000000001
 40
0.750000000000001
 40
1.0
 40
1.0
 40
1.0
 40
1.0
 10
424.7490551330117
 20
360.0433241404674
 30
0.0
 10
424.8995829169472
 20
360.0433241404673
 30
0.0
 10
425.0472167772467
 20
360.0271433111581
 30
0.0
 10
425.3371536452717
 20
359.9649751937607
 30
0.0
 10
425.4808561726094
 20
359.9182634435824
 30
0.0
 10
425.7547955301064
 20
359.7995894024314
 30
0.0
 10
425.8851062248206
 20
359.728038475046
 30
0.0
 10
426.1341930620637
 20
359.5637799476125
 30
0.0
 10
426.2528734666502
 20
359.4708435658884
 30
0.0
 10
426.5836719027604
 20
359.1730732658819
 30
0.0
 10
426.77562608761
 20
358.9464494826966
 30
0.0
 10
427.1147673021008
 20
358.454434748168
 30
0.0
 10
427.2574432309507
 20
358.1957046989697
 30
0.0
 10
427.626887539731
 20
357.3918013010694
 30
0.0
 10
427.7959089922916
 20
356.8147558393423
 30
0.0
 10
428.014092858914
 20
355.6570595515635
 30
0.0
 10
428.0656799233666
 20
355.0699950653946
 30
0.0
 10
428.0656799233666
 20
354.4755597776368
 30
0.0
  0
LINE
  5
177
330
1F
100
AcDbEntity
  8
0
  6
Continuous
 62
     7
370
    15
100
AcDbLine
 10
424.749055133
 20
360.0433241405
 30
0.0
 11
424.749055133
 21
364.682058653
 31
0.0
  0
LINE
  5
178
330
1F
100
AcDbEntity
  8
0
  6
Continuous
 62
     7
370
    15
100
AcDbLine
 10
415.6863090662
 20
360.0433241405
 30
0.0
 11
415.6863090662
 21
364.682058653
 31
0.0
  0
LINE
  5
179
330
1F
100
AcDbEntity
  8
0
  6
Continuous
 62
     7
370
    15
100
AcDbLine
 10
424.749055133
 20
364.682058653
 30
0.0
 11
415.6863090662
 21
364.682058653
 31
0.0
  0
SPLINE
  5
17A
330
1F
100
AcDbEntity
  8
0
  6
Continuous
 62
     7
370
    15
100
AcDbSpline
210
0.0
220
0.0
230
1.0
 70
     8
 71
     3
 72
    40
 73
    36
 74
     0
 42
0.000000001
 43
0.00000001
 40
0.0
 40
0.0
 40
0.0
 40
0.0
 40
0.0312500000000006
 40
0.0312500000000006
 40
0.0625000000000011
 40
0.0625000000000011
 40
0.0937500000000017
 40
0.0937500000000017
 40
0.1250000000000022
 40
0.1250000000000022
 40
0.1875000000000033
 40
0.1875000000000033
 40
0.2500000000000044
 40
0.2500000000000044
 40
0.3750000000000065
 40
0.3750000000000065
 40
0.5000000000000085
 40
0.5000000000000085
 40
0.5625000000000083
 40
0.5625000000000083
 40
0.6250000000000081
 40
0.6250000000000081
 40
0.6875000000000079
 40
0.6875000000000079
 40
0.7500000000000077
 40
0.7500000000000077
 40
0.8125000000000074
 40
0.8125000000000074
 40
0.8750000000000072
 40
0.8750000000000072
 40
0.9062500000000058
 40
0.9062500000000058
 40
0.9375000000000043
 40
0.9375000000000043
 40
1.0
 40
1.0
 40
1.0
 40
1.0
 10
415.6863090662474
 20
364.6820586529882
 30
0.0
 10
415.5356977558793
 20
364.6820586529849
 30
0.0
 10
415.3879835637268
 20
364.6901579985835
 30
0.0
 10
415.0978917676096
 20
364.7212759539762
 30
0.0
 10
414.9541131474487
 20
364.7446576841083
 30
0.0
 10
414.6800515598514
 20
364.804054938014
 30
0.0
 10
414.5496858142677
 20
364.8398660798314
 30
0.0
 10
414.3004994506931
 20
364.9220763985041
 30
0.0
 10
414.1817849579812
 20
364.9685862939717
 30
0.0
 10
413.8509014907793
 20
365.117600918161
 30
0.0
 10
413.6588941864857
 20
365.2310204437546
 30
0.0
 10
413.3197476025133
 20
365.4772075594154
 30
0.0
 10
413.1770808845319
 20
365.6066652718567
 30
0.0
 10
412.8076976990843
 20
366.0089029558247
 30
0.0
 10
412.6387866666227
 20
366.2976987138769
 30
0.0
 10
412.4210917359831
 20
366.8760868190764
 30
0.0
 10
412.3697570777851
 20
367.1690353416457
 30
0.0
 10
412.3696479872656
 20
367.6134777391521
 30
0.0
 10
412.382891425196
 20
367.7621383840789
 30
0.0
 10
412.4359488065693
 20
368.0555371103338
 30
0.0
 10
412.4757288439865
 20
368.2009588677661
 30
0.0
 10
412.5841498844208
 20
368.4890198025081
 30
0.0
 10
412.6527424033076
 20
368.6316636543312
 30
0.0
 10
412.824346954392
 20
368.9136328600829
 30
0.0
 10
412.9282496259691
 20
369.0540010062564
 30
0.0
 10
413.176196988138
 20
369.3245024232092
 30
0.0
 10
413.3195370287
 20
369.4544618487544
 30
0.0
 10
413.6579611901315
 20
369.7002431656718
 30
0.0
 10
413.8507866664423
 20
369.8140747672882
 30
0.0
 10
414.1790402555735
 20
369.9621354402794
 30
0.0
 10
414.2953119410003
 20
370.0078921490663
 30
0.0
 10
414.5447014579946
 20
370.0905648003581
 30
0.0
 10
414.6768591471041
 20
370.1269926087018
 30
0.0
 10
415.0861156674862
 20
370.2161114327347
 30
0.0
 10
415.3845232759964
 20
370.2498230158251
 30
0.0
 10
415.6863090662474
 20
370.2498230158186
 30
0.0
  0
LINE
  5
17B
330
1F
100
AcDbEntity
  8
0
  6
Continuous
 62
     7
370
    15
100
AcDbLine
 10
415.6863090662
 20
344.2690609023
 30
0.0
 11
415.6863090662
 21
348.9077954148
 31
0.0
  0
SPLINE
  5
17C
330
1F
100
AcDbEntity
  8
0
  6
Continuous
 62
     7
370
    15
100
AcDbSpline
210
0.0
220
0.0
230
1.0
 70
     8
 71
     3
 72
    40
 73
    36
 74
     0
 42
0.000000001
 43
0.00000001
 40
0.0
 40
0.0
 40
0.0
 40
0.0
 40
0.0312499999999993
 40
0.0312499999999993
 40
0.0624999999999985
 40
0.0624999999999985
 40
0.0937499999999978
 40
0.0937499999999978
 40
0.124999999999997
 40
0.124999999999997
 40
0.1874999999999963
 40
0.1874999999999963
 40
0.2499999999999957
 40
0.2499999999999957
 40
0.3749999999999967
 40
0.3749999999999967
 40
0.4999999999999977
 40
0.4999999999999977
 40
0.5624999999999982
 40
0.5624999999999982
 40
0.6249999999999989
 40
0.6249999999999989
 40
0.6874999999999994
 40
0.6874999999999994
 40
0.7500000000000001
 40
0.7500000000000001
 40
0.8125000000000007
 40
0.8125000000000007
 40
0.8750000000000013
 40
0.8750000000000013
 40
0.9062500000000013
 40
0.9062500000000013
 40
0.9375000000000013
 40
0.9375000000000013
 40
1.0
 40
1.0
 40
1.0
 40
1.0
 10
415.6863090662474
 20
338.7012965394551
 30
0.0
 10
415.5356977558793
 20
338.7012965394518
 30
0.0
 10
415.3879835637268
 20
338.7093958850504
 30
0.0
 10
415.0978917676096
 20
338.740513840443
 30
0.0
 10
414.9541131474487
 20
338.7638955705752
 30
0.0
 10
414.6800515598514
 20
338.8232928244809
 30
0.0
 10
414.5496858142677
 20
338.8591039662983
 30
0.0
 10
414.300499450693
 20
338.941314284971
 30
0.0
 10
414.1817849579812
 20
338.9878241804386
 30
0.0
 10
413.8509014907793
 20
339.1368388046279
 30
0.0
 10
413.6588941864857
 20
339.2502583302214
 30
0.0
 10
413.3197476025132
 20
339.4964454458823
 30
0.0
 10
413.1770808845318
 20
339.6259031583236
 30
0.0
 10
412.8076976990842
 20
340.0281408422916
 30
0.0
 10
412.6387866666227
 20
340.3169366003438
 30
0.0
 10
412.4210917359831
 20
340.8953247055433
 30
0.0
 10
412.3697570777851
 20
341.1882732281126
 30
0.0
 10
412.3696479872656
 20
341.632715625619
 30
0.0
 10
412.3828914251959
 20
341.7813762705458
 30
0.0
 10
412.4359488065692
 20
342.0747749968007
 30
0.0
 10
412.4757288439865
 20
342.2201967542331
 30
0.0
 10
412.5841498844208
 20
342.508257688975
 30
0.0
 10
412.6527424033076
 20
342.6509015407981
 30
0.0
 10
412.824346954392
 20
342.9328707465498
 30
0.0
 10
412.9282496259691
 20
343.0732388927233
 30
0.0
 10
413.176196988138
 20
343.3437403096761
 30
0.0
 10
413.3195370287
 20
343.4736997352213
 30
0.0
 10
413.6579611901315
 20
343.7194810521387
 30
0.0
 10
413.8507866664423
 20
343.8333126537552
 30
0.0
 10
414.1790402555735
 20
343.9813733267463
 30
0.0
 10
414.2953119410003
 20
344.0271300355332
 30
0.0
 10
414.5447014579946
 20
344.109802686825
 30
0.0
 10
414.6768591471041
 20
344.1462304951687
 30
0.0
 10
415.0861156674862
 20
344.2353493192016
 30
0.0
 10
415.3845232759964
 20
344.269060902292
 30
0.0
 10
415.6863090662474
 20
344.2690609022856
 30
0.0
  0
LINE
  5
17D
330
1F
100
AcDbEntity
  8
0
  6
Continuous
 62
     7
370
    15
100
AcDbLine
 10
424.749055133
 20
344.2690609023
 30
0.0
 11
424.749055133
 21
348.9077954148
 31
0.0
  0
LINE
  5
17E
330
1F
100
AcDbEntity
  8
0
  6
Continuous
 62
     7
370
    15
100
AcDbLine
 10
415.6863090662
 20
344.2690609023
 30
0.0
 11
424.749055133
 21
344.2690609023
 31
0.0
  0
LINE
  5
17F
330
1F
100
AcDbEntity
  8
0
  6
Continuous
 62
     7
370
    15
100
AcDbLine
 10
428.7176820996
 20
354.4755597776
 30
0.0
 11
428.7176820996
 21
368.9755597776
 31
0.0
  0
LINE
  5
180
330
1F
100
AcDbEntity
  8
0
  6
Continuous
 62
     7
370
    15
100
AcDbLine
 10
428.7176820996
 20
339.9755597776
 30
0.0
 11
428.7176820996
 21
354.4755597776
 31
0.0
  0
SPLINE
  5
181
330
1F
100
AcDbEntity
  8
0
  6
Continuous
 62
     7
370
    15
100
AcDbSpline
210
0.0
220
0.0
230
1.0
 70
     8
 71
     3
 72
    40
 73
    36
 74
     0
 42
0.000000001
 43
0.00000001
 40
0.0
 40
0.0
 40
0.0
 40
0.0
 40
0.0312500000000008
 40
0.0312500000000008
 40
0.0625000000000017
 40
0.0625000000000017
 40
0.0937500000000025
 40
0.0937500000000025
 40
0.1250000000000034
 40
0.1250000000000034
 40
0.1875000000000023
 40
0.1875000000000023
 40
0.2500000000000012
 40
0.2500000000000012
 40
0.3749999999999991
 40
0.3749999999999991
 40
0.4999999999999969
 40
0.4999999999999969
 40
0.562499999999997
 40
0.562499999999997
 40
0.6249999999999971
 40
0.6249999999999971
 40
0.6874999999999973
 40
0.6874999999999973
 40
0.7499999999999974
 40
0.7499999999999974
 40
0.8124999999999976
 40
0.8124999999999976
 40
0.8749999999999977
 40
0.8749999999999977
 40
0.9062499999999983
 40
0.9062499999999983
 40
0.937499999999999
 40
0.937499999999999
 40
1.0
 40
1.0
 40
1.0
 40
1.0
 10
424.7490551330117
 20
344.2690609022856
 30
0.0
 10
424.8996664433784
 20
344.2690609022856
 30
0.0
 10
425.0473806355288
 20
344.2609615566842
 30
0.0
 10
425.3374724316411
 20
344.2298436012867
 30
0.0
 10
425.4812510517987
 20
344.2064618711526
 30
0.0
 10
425.7553126393907
 20
344.1470646172438
 30
0.0
 10
425.8856783849717
 20
344.1112534754251
 30
0.0
 10
426.1348647485405
 20
344.0290431567511
 30
0.0
 10
426.2535792412502
 20
343.982533261283
 30
0.0
 10
426.5844627084459
 20
343.8335186370927
 30
0.0
 10
426.7764700127339
 20
343.7200991115009
 30
0.0
 10
427.1156165967027
 20
343.4739119958402
 30
0.0
 10
427.2582833146823
 20
343.3444542833997
 30
0.0
 10
427.6276665001251
 20
342.9422165994355
 30
0.0
 10
427.7965775325856
 20
342.653420841386
 30
0.0
 10
428.014272463224
 20
342.0750327361908
 30
0.0
 10
428.0656071214213
 20
341.7820842136248
 30
0.0
 10
428.065716211941
 20
341.337641816125
 30
0.0
 10
428.0524727740108
 20
341.1889811711981
 30
0.0
 10
427.9994153926375
 20
340.8955824449449
 30
0.0
 10
427.9596353552204
 20
340.7501606875138
 30
0.0
 10
427.851214314787
 20
340.4620997527751
 30
0.0
 10
427.782621795901
 20
340.3194559009541
 30
0.0
 10
427.61101724482
 20
340.0374866952075
 30
0.0
 10
427.5071145732461
 20
339.8971185490371
 30
0.0
 10
427.2591672110785
 20
339.626617132084
 30
0.0
 10
427.1158271705182
 20
339.4966577065396
 30
0.0
 10
426.7774030090955
 20
339.2508763896251
 30
0.0
 10
426.5845775327824
 20
339.1370447880053
 30
0.0
 10
426.2563239436576
 20
338.9889841150134
 30
0.0
 10
426.140052258234
 20
338.9432274062264
 30
0.0
 10
425.8906627412491
 20
338.8605547549342
 30
0.0
 10
425.7585050521391
 20
338.8241269465883
 30
0.0
 10
425.3492485317647
 20
338.7350081225505
 30
0.0
 10
425.0508409232602
 20
338.7012965394551
 30
0.0
 10
424.7490551330117
 20
338.7012965394551
 30
0.0
  0
SPLINE
  5
182
330
1F
100
AcDbEntity
  8
0
  6
Continuous
 62
     7
370
    15
100
AcDbSpline
210
0.0
220
0.0
230
1.0
 70
     8
 71
     3
 72
    40
 73
    36
 74
     0
 42
0.000000001
 43
0.00000001
 40
0.0
 40
0.0
 40
0.0
 40
0.0
 40
0.0312500000000007
 40
0.0312500000000007
 40
0.0625000000000015
 40
0.0625000000000015
 40
0.0937500000000022
 40
0.0937500000000022
 40
0.1250000000000029
 40
0.1250000000000029
 40
0.1875000000000038
 40
0.1875000000000038
 40
0.2500000000000047
 40
0.2500000000000047
 40
0.3750000000000058
 40
0.3750000000000058
 40
0.5000000000000069
 40
0.5000000000000069
 40
0.562500000000006
 40
0.562500000000006
 40
0.6250000000000051
 40
0.6250000000000051
 40
0.6875000000000043
 40
0.6875000000000043
 40
0.7500000000000034
 40
0.7500000000000034
 40
0.8125000000000026
 40
0.8125000000000026
 40
0.8750000000000017
 40
0.8750000000000017
 40
0.9062500000000013
 40
0.9062500000000013
 40
0.937500000000001
 40
0.937500000000001
 40
1.0
 40
1.0
 40
1.0
 40
1.0
 10
424.7490551330117
 20
370.2498230158186
 30
0.0
 10
424.8996664433784
 20
370.2498230158186
 30
0.0
 10
425.0473806355288
 20
370.2417236702172
 30
0.0
 10
425.3374724316411
 20
370.2106057148197
 30
0.0
 10
425.4812510517987
 20
370.1872239846855
 30
0.0
 10
425.7553126393907
 20
370.1278267307768
 30
0.0
 10
425.8856783849717
 20
370.0920155889582
 30
0.0
 10
426.1348647485405
 20
370.0098052702842
 30
0.0
 10
426.2535792412502
 20
369.963295374816
 30
0.0
 10
426.5844627084459
 20
369.8142807506257
 30
0.0
 10
426.7764700127339
 20
369.7008612250339
 30
0.0
 10
427.1156165967027
 20
369.4546741093733
 30
0.0
 10
427.2582833146823
 20
369.3252163969327
 30
0.0
 10
427.6276665001251
 20
368.9229787129685
 30
0.0
 10
427.7965775325856
 20
368.6341829549191
 30
0.0
 10
428.014272463224
 20
368.0557948497238
 30
0.0
 10
428.0656071214213
 20
367.7628463271578
 30
0.0
 10
428.065716211941
 20
367.318403929658
 30
0.0
 10
428.0524727740108
 20
367.1697432847311
 30
0.0
 10
427.9994153926375
 20
366.876344558478
 30
0.0
 10
427.9596353552204
 20
366.7309228010467
 30
0.0
 10
427.851214314787
 20
366.4428618663081
 30
0.0
 10
427.782621795901
 20
366.3002180144871
 30
0.0
 10
427.61101724482
 20
366.0182488087405
 30
0.0
 10
427.507114573246
 20
365.8778806625701
 30
0.0
 10
427.2591672110785
 20
365.6073792456171
 30
0.0
 10
427.1158271705182
 20
365.4774198200726
 30
0.0
 10
426.7774030090955
 20
365.2316385031581
 30
0.0
 10
426.5845775327824
 20
365.1178069015384
 30
0.0
 10
426.2563239436576
 20
364.9697462285464
 30
0.0
 10
426.140052258234
 20
364.9239895197594
 30
0.0
 10
425.8906627412491
 20
364.8413168684672
 30
0.0
 10
425.7585050521391
 20
364.8048890601213
 30
0.0
 10
425.3492485317647
 20
364.7157702360835
 30
0.0
 10
425.0508409232602
 20
364.6820586529881
 30
0.0
 10
424.7490551330117
 20
364.6820586529881
 30
0.0
  0
LINE
  5
183
330
1F
100
AcDbEntity
  8
0
  6
Continuous
 62
     7
370
    15
100
AcDbLine
 10
424.749055133
 20
338.7012965395
 30
0.0
 11
415.6863090662
 21
338.7012965395
 31
0.0
  0
LINE
  5
184
330
1F
100
AcDbEntity
  8
0
  6
Continuous
 62
     7
370
    15
100
AcDbLine
 10
415.6863090662
 20
370.2498230158
 30
0.0
 11
424.749055133
 21
370.2498230158
 31
0.0
  0
LINE
  5
185
330
1F
100
AcDbEntity
  8
0
  6
Continuous
 62
     7
370
    15
100
AcDbLine
 10
510.338627796
 20
349.0701601686
 30
0.0
 11
509.7931321448
 21
349.0353825217
 31
0.0
  0
SPLINE
  5
186
330
1F
100
AcDbEntity
  8
0
  6
Continuous
 62
     7
370
    15
100
AcDbSpline
210
0.0
220
0.0
230
1.0
 70
     8
 71
     3
 72
    13
 73
     9
 74
     0
 42
0.000000001
 43
0.00000001
 40
0.0
 40
0.0
 40
0.0
 40
0.0
 40
0.1737451655046046
 40
0.3355902265860421
 40
0.4826267055560288
 40
0.6621409288737803
 40
0.83249907951223
 40
1.0
 40
1.0
 40
1.0
 40
1.0
 10
505.4669474434293
 20
348.7562343881032
 30
0.0
 10
503.9574960998902
 20
348.6085692247619
 30
0.0
 10
501.0419783246032
 20
348.3233527384174
 30
0.0
 10
496.9223282947605
 20
347.3809650002153
 30
0.0
 10
492.9478127251074
 20
345.7917428227606
 30
0.0
 10
489.2939625753571
 20
343.4017363361279
 30
0.0
 10
485.9557210789222
 20
340.3519821260535
 30
0.0
 10
483.9176098104786
 20
338.2227750504119
 30
0.0
 10
482.9071721970002
 20
337.1671747260216
 30
0.0
  0
SPLINE
  5
187
330
1F
100
AcDbEntity
  8
0
  6
Continuous
 62
     7
370
    15
100
AcDbSpline
210
0.0
220
0.0
230
1.0
 70
     8
 71
     3
 72
    10
 73
     6
 74
     0
 42
0.000000001
 43
0.00000001
 40
0.0
 40
0.0
 40
0.0
 40
0.0
 40
0.2699087936939165
 40
0.7197469051427244
 40
1.0
 40
1.0
 40
1.0
 40
1.0
 10
470.7976820996084
 20
379.4612531886891
 30
0.0
 10
471.0740894306122
 20
379.4602341450391
 30
0.0
 10
471.8111655307496
 20
379.4575167326004
 30
0.0
 10
472.9792810827573
 20
379.4523547957364
 30
0.0
 10
473.8799849671789
 20
379.4479268196891
 30
0.0
 10
474.2257295111191
 20
379.4462270950788
 30
0.0
  0
LINE
  5
188
330
1F
100
AcDbEntity
  8
0
  6
Continuous
 62
     7
370
    15
100
AcDbLine
 10
565.8193805784
 20
379.4757199948
 30
0.0
 11
470.7976820996
 21
379.4755691889
 31
0.0
  0
SPLINE
  5
189
330
1F
100
AcDbEntity
  8
0
  6
Continuous
 62
     7
370
    15
100
AcDbSpline
210
0.0
220
0.0
230
1.0
 70
     8
 71
     3
 72
    10
 73
     6
 74
     0
 42
0.000000001
 43
0.00000001
 40
0.0
 40
0.0
 40
0.0
 40
0.0
 40
0.5
 40
0.5
 40
1.0
 40
1.0
 40
1.0
 40
1.0
 10
563.2440897755201
 20
378.5747665882674
 30
0.0
 10
564.1022442350582
 20
378.8573199000157
 30
0.0
 10
564.74266545246
 20
379.0844243760628
 30
0.0
 10
565.6011710477158
 20
379.3936093917742
 30
0.0
 10
565.819380578364
 20
379.4757199948412
 30
0.0
 10
565.819380578364
 20
379.4757199948412
 30
0.0
  0
SPLINE
  5
18A
330
1F
100
AcDbEntity
  8
0
  6
Continuous
 62
     7
370
    15
100
AcDbSpline
210
0.0
220
0.0
230
1.0
 70
     8
 71
     3
 72
    20
 73
    16
 74
     0
 42
0.000000001
 43
0.00000001
 40
0.0
 40
0.0
 40
0.0
 40
0.0
 40
0.2499999999999963
 40
0.2499999999999963
 40
0.3749999999999969
 40
0.3749999999999969
 40
0.4999999999999976
 40
0.4999999999999976
 40
0.6249999999999981
 40
0.6249999999999981
 40
0.7499999999999988
 40
0.7499999999999988
 40
0.8749999999999993
 40
0.8749999999999993
 40
1.0
 40
1.0
 40
1.0
 40
1.0
 10
557.7957507471027
 20
378.235570140742
 30
0.0
 10
558.4086944826821
 20
378.2245287670432
 30
0.0
 10
559.0040378180182
 20
378.224159667053
 30
0.0
 10
559.8707543872805
 20
378.2401883606902
 30
0.0
 10
560.1527864759177
 20
378.2483359094388
 30
0.0
 10
560.6885993675294
 20
378.2696308860026
 30
0.0
 10
560.944634284035
 20
378.2828192490403
 30
0.0
 10
561.4324185503167
 20
378.3141725012187
 30
0.0
 10
561.6648580670508
 20
378.3324651739863
 30
0.0
 10
562.088041025487
 20
378.3725142989933
 30
0.0
 10
562.2810824927346
 20
378.3943887339402
 30
0.0
 10
562.6294720618408
 20
378.4414939141865
 30
0.0
 10
562.7857729636108
 20
378.4669436207335
 30
0.0
 10
563.0501964850191
 20
378.5195807635543
 30
0.0
 10
563.1591751413363
 20
378.5468078158071
 30
0.0
 10
563.244089877089
 20
378.5747665840076
 30
0.0
  0
SPLINE
  5
18B
330
1F
100
AcDbEntity
  8
0
  6
Continuous
 62
     7
370
    15
100
AcDbSpline
210
0.0
220
0.0
230
1.0
 70
     8
 71
     3
 72
     8
 73
     4
 74
     0
 42
0.000000001
 43
0.00000001
 40
0.0
 40
0.0
 40
0.0
 40
0.0
 40
1.0
 40
1.0
 40
1.0
 40
1.0
 10
506.0429194555495
 20
379.1361005398024
 30
0.0
 10
523.2944951505965
 20
378.8862250803148
 30
0.0
 10
540.5449018288552
 20
378.5463711204869
 30
0.0
 10
557.795750570377
 20
378.2355711469386
 30
0.0
  0
SPLINE
  5
18C
330
1F
100
AcDbEntity
  8
0
  6
Continuous
 62
     7
370
    15
100
AcDbSpline
210
0.0
220
0.0
230
1.0
 70
     8
 71
     3
 72
    12
 73
     8
 74
     0
 42
0.000000001
 43
0.00000001
 40
0.0
 40
0.0
 40
0.0
 40
0.0
 40
0.4999999999999998
 40
0.7499999999999999
 40
0.7499999999999999
 40
0.90625
 40
1.0
 40
1.0
 40
1.0
 40
1.0
 10
506.0429194555495
 20
379.1361005398024
 30
0.0
 10
502.0731492482373
 20
379.1935995483905
 30
0.0
 10
496.114175649488
 20
379.2727270773346
 30
0.0
 10
490.1817163179326
 20
379.3322570516613
 30
0.0
 10
486.9780688559314
 20
379.3612310715006
 30
0.0
 10
485.0026534229026
 20
379.3778365517631
 30
0.0
 10
483.0517144959627
 20
379.3924410093596
 30
0.0
 10
482.3261515219228
 20
379.3976327834405
 30
0.0
  0
SPLINE
  5
18D
330
1F
100
AcDbEntity
  8
0
  6
Continuous
 62
     7
370
    15
100
AcDbSpline
210
0.0
220
0.0
230
1.0
 70
     8
 71
     3
 72
     9
 73
     5
 74
     0
 42
0.000000001
 43
0.00000001
 40
0.0800278232580259
 40
0.0800278232580259
 40
0.0800278232580259
 40
0.0800278232580259
 40
0.2025680294464539
 40
0.354768223731934
 40
0.354768223731934
 40
0.354768223731934
 40
0.354768223731934
 10
527.8180966951173
 20
350.0074826077266
 30
0.0
 10
525.2193908967757
 20
349.8712319489854
 30
0.0
 10
519.3929299704959
 20
349.5630448724169
 30
0.0
 10
513.5663114182166
 20
349.2464930885104
 30
0.0
 10
510.3384750529812
 20
349.0702456673191
 30
0.0
  0
SPLINE
  5
18E
330
1F
100
AcDbEntity
  8
0
  6
Continuous
 62
     7
370
    15
100
AcDbSpline
210
0.0
220
0.0
230
1.0
 70
     8
 71
     3
 72
    34
 73
    30
 74
     0
 42
0.000000001
 43
0.00000001
 40
0.0
 40
0.0
 40
0.0
 40
0.0
 40
0.0624999999999992
 40
0.0624999999999992
 40
0.1249999999999984
 40
0.1249999999999984
 40
0.2499999999999967
 40
0.2499999999999967
 40
0.2812499999999968
 40
0.2812499999999968
 40
0.3124999999999968
 40
0.3124999999999968
 40
0.3749999999999967
 40
0.3749999999999967
 40
0.4374999999999967
 40
0.4374999999999967
 40
0.4999999999999967
 40
0.4999999999999967
 40
0.5624999999999967
 40
0.5624999999999967
 40
0.6249999999999966
 40
0.6249999999999966
 40
0.7499999999999973
 40
0.7499999999999973
 40
0.8124999999999981
 40
0.8124999999999981
 40
0.8749999999999989
 40
0.8749999999999989
 40
1.0
 40
1.0
 40
1.0
 40
1.0
 10
543.981016238742
 20
354.7781942047823
 30
0.0
 10
543.472192709938
 20
354.8213175469463
 30
0.0
 10
542.957481207676
 20
354.8483443132158
 30
0.0
 10
541.9152449568918
 20
354.864851131436
 30
0.0
 10
541.3847959636632
 20
354.8538819372116
 30
0.0
 10
539.8208099229088
 20
354.7610014571577
 30
0.0
 10
538.8011638491835
 20
354.6196408418976
 30
0.0
 10
537.5549547121487
 20
354.3531035633155
 30
0.0
 10
537.3063523882121
 20
354.2951255773913
 30
0.0
 10
536.8186794339899
 20
354.1724261392552
 30
0.0
 10
536.578993154291
 20
354.1076052178943
 30
0.0
 10
535.8717690683495
 20
353.9040532455774
 30
0.0
 10
535.4160302841198
 20
353.7562485069518
 30
0.0
 10
534.5336687019361
 20
353.4430863668343
 30
0.0
 10
534.1049635775832
 20
353.2768408210306
 30
0.0
 10
533.285888641917
 20
352.9374170261814
 30
0.0
 10
532.8970919942008
 20
352.765073953717
 30
0.0
 10
532.1574278573115
 20
352.4211485851283
 30
0.0
 10
531.8065715411833
 20
352.2495497813204
 30
0.0
 10
531.1412633778212
 20
351.9123552192157
 30
0.0
 10
530.8255616774044
 20
351.7460338170682
 30
0.0
 10
529.9514498367278
 20
351.273432286761
 30
0.0
 10
529.4589803354717
 20
350.9906669739443
 30
0.0
 10
528.8517632573431
 20
350.6346679200079
 30
0.0
 10
528.6706020007197
 20
350.5267814609277
 30
0.0
 10
528.3619662155346
 20
350.3413758962373
 30
0.0
 10
528.2336286333032
 20
350.2633299162176
 30
0.0
 10
527.9243684106506
 20
350.0740402333752
 30
0.0
 10
527.8180966916448
 20
350.0074826055654
 30
0.0
 10
527.8180966951227
 20
350.0074826077269
 30
0.0
  0
ARC
  5
18F
330
1F
100
AcDbEntity
  8
0
  6
Continuous
 62
     7
370
    15
100
AcDbCircle
 10
563.1336348471
 20
376.9510149947
 30
0.0
 40
1.627504080823265
100
AcDbArc
 50
345.2582839576
 51
86.1084751834
  0
SPLINE
  5
190
330
1F
100
AcDbEntity
  8
0
  6
Continuous
 62
     7
370
    15
100
AcDbSpline
210
0.0
220
0.0
230
1.0
 70
     8
 71
     3
 72
    31
 73
    27
 74
     0
 42
0.000000001
 43
0.00000001
 40
0.0
 40
0.0
 40
0.0
 40
0.0
 40
0.0151489732206148
 40
0.0302587040844527
 40
0.0600369905517726
 40
0.093049999290219
 40
0.1292665002461921
 40
0.1948541592579078
 40
0.2602155758219504
 40
0.3254989475289607
 40
0.3937779349619953
 40
0.4607957003733132
 40
0.526720770615197
 40
0.5917048740240245
 40
0.6558825693623325
 40
0.7193711771552439
 40
0.743058759417502
 40
0.7663567000945744
 40
0.7892827580505053
 40
0.8118546242713802
 40
0.8340900017055961
 40
0.8696106547623232
 40
0.9075193902973778
 40
0.9478508834998141
 40
0.9738942841878755
 40
1.0
 40
1.0
 40
1.0
 40
1.0
 10
564.7081497725135
 20
376.5369048164079
 30
0.0
 10
564.6679329318592
 20
376.404176486801
 30
0.0
 10
564.5876034294668
 20
376.1390636510523
 30
0.0
 10
564.4209592993155
 20
375.6152945596731
 30
0.0
 10
564.1969056330626
 20
374.9382274164898
 30
0.0
 10
563.8982675959659
 20
374.0831397087152
 30
0.0
 10
563.4683693356551
 20
372.9285428516729
 30
0.0
 10
562.8928198658823
 20
371.516403155573
 30
0.0
 10
562.1551150725743
 20
369.8942454853589
 30
0.0
 10
561.3451978404149
 20
368.2914040387168
 30
0.0
 10
560.4657473946945
 20
366.7235089282649
 30
0.0
 10
559.5223237439382
 20
365.2052274477155
 30
0.0
 10
558.5386886666234
 20
363.7694866834335
 30
0.0
 10
557.5184093089597
 20
362.4143058913721
 30
0.0
 10
556.4658392042888
 20
361.138064613503
 30
0.0
 10
555.6043597569326
 20
360.1845699036896
 30
0.0
 10
554.9642383811837
 20
359.5156052848973
 30
0.0
 10
554.5600571641575
 20
359.1033503882498
 30
0.0
 10
554.1629599575434
 20
358.7083740799147
 30
0.0
 10
553.7735684580474
 20
358.33025957725
 30
0.0
 10
553.3149055633614
 20
357.8949515049725
 30
0.0
 10
552.772513452581
 20
357.3961186281078
 30
0.0
 10
552.1274822052509
 20
356.8292575838192
 30
0.0
 10
551.5340536659303
 20
356.3342700719114
 30
0.0
 10
551.0037174259063
 20
355.9109833947459
 30
0.0
 10
550.7015054400747
 20
355.6810846926267
 30
0.0
 10
550.5502188843934
 20
355.5659979838599
 30
0.0
  0
SPLINE
  5
191
330
1F
100
AcDbEntity
  8
0
  6
Continuous
 62
     7
370
    15
100
AcDbSpline
210
0.0
220
0.0
230
1.0
 70
     8
 71
     3
 72
    16
 73
    12
 74
     0
 42
0.000000001
 43
0.00000001
 40
0.0
 40
0.0
 40
0.0
 40
0.0
 40
0.2500000000000026
 40
0.2500000000000026
 40
0.3750000000000038
 40
0.3750000000000038
 40
0.500000000000005
 40
0.500000000000005
 40
0.7500000000000024
 40
0.7500000000000024
 40
1.0
 40
1.0
 40
1.0
 40
1.0
 10
543.9761752806968
 20
354.7786036942664
 30
0.0
 10
544.5962264889473
 20
354.7261782504472
 30
0.0
 10
545.2037331598896
 20
354.6961919742434
 30
0.0
 10
546.0955056402832
 20
354.6915431136608
 30
0.0
 10
546.3895030817309
 20
354.6967549874226
 30
0.0
 10
546.9706972103976
 20
354.7224140058718
 30
0.0
 10
547.2588780367763
 20
354.7429688364567
 30
0.0
 10
548.1050158425865
 20
354.8300350256731
 30
0.0
 10
548.6435760745785
 20
354.9215698186442
 30
0.0
 10
549.6565543347718
 20
355.1841633976172
 30
0.0
 10
550.1240162363891
 20
355.3531054837491
 30
0.0
 10
550.5516125966951
 20
355.566683726393
 30
0.0
  0
SPLINE
  5
192
330
1F
100
AcDbEntity
  8
0
  6
Continuous
 62
     7
370
    15
100
AcDbSpline
210
0.0
220
0.0
230
1.0
 70
     8
 71
     3
 72
    12
 73
     8
 74
     0
 42
0.000000001
 43
0.00000001
 40
0.0
 40
0.0
 40
0.0
 40
0.0
 40
0.25
 40
0.25
 40
0.5
 40
0.5
 40
1.0
 40
1.0
 40
1.0
 40
1.0
 10
567.3678645700005
 20
377.4729678449481
 30
0.0
 10
567.3678645700005
 20
377.4729678449481
 30
0.0
 10
567.3110962807159
 20
377.4517221094391
 30
0.0
 10
567.087093382596
 20
377.368836143856
 30
0.0
 10
566.9198545816614
 20
377.3071980756523
 30
0.0
 10
566.2542297021183
 20
377.0662429571373
 30
0.0
 10
565.592724260646
 20
376.8303993409032
 30
0.0
 10
564.7082048619352
 20
376.5370885723247
 30
0.0
  0
SPLINE
  5
193
330
1F
100
AcDbEntity
  8
0
  6
Continuous
 62
     7
370
    15
100
AcDbSpline
210
0.0
220
0.0
230
1.0
 70
     8
 71
     3
 72
     8
 73
     4
 74
     0
 42
0.000000001
 43
0.00000001
 40
0.0609873451674064
 40
0.0609873451674064
 40
0.0609873451674064
 40
0.0609873451674064
 40
0.5169227274261058
 40
0.5169227274261058
 40
0.5169227274261058
 40
0.5169227274261058
 10
567.3678645700005
 20
377.4729678449481
 30
0.0
 10
565.2869257867516
 20
369.4722846616246
 30
0.0
 10
560.954761917684
 20
362.7858939754101
 30
0.0
 10
554.7787125578453
 20
357.8403191027155
 30
0.0
  0
SPLINE
  5
194
330
1F
100
AcDbEntity
  8
0
  6
Continuous
 62
     7
370
    15
100
AcDbSpline
210
0.0
220
0.0
230
1.0
 70
     8
 71
     3
 72
    18
 73
    14
 74
     0
 42
0.000000001
 43
0.00000001
 40
0.0
 40
0.0
 40
0.0
 40
0.0
 40
0.2500000000000006
 40
0.2500000000000006
 40
0.3750000000000009
 40
0.3750000000000009
 40
0.5000000000000012
 40
0.5000000000000012
 40
0.7500000000000016
 40
0.7500000000000016
 40
0.8750000000000008
 40
0.8750000000000008
 40
1.0
 40
1.0
 40
1.0
 40
1.0
 10
554.7787125578453
 20
357.8403191027155
 30
0.0
 10
554.7787125578469
 20
357.8403191027164
 30
0.0
 10
554.6837662449132
 20
357.7851826414366
 30
0.0
 10
554.4050604480054
 20
357.6256287803728
 30
0.0
 10
554.2892408054026
 20
357.5595635045809
 30
0.0
 10
554.0103453581457
 20
357.4018073287876
 30
0.0
 10
553.848683043996
 20
357.3109280465516
 30
0.0
 10
553.3040205245009
 20
357.0079250499113
 30
0.0
 10
552.860222183595
 20
356.7646633888638
 30
0.0
 10
552.0707792420967
 20
356.3452136901222
 30
0.0
 10
551.7879825345099
 20
356.1968814055422
 30
0.0
 10
551.1929894895846
 20
355.8898333889586
 30
0.0
 10
550.8795211156753
 20
355.7304365438242
 30
0.0
 10
550.5500804267535
 20
355.5658938098538
 30
0.0
  0
ARC
  5
195
330
1F
100
AcDbEntity
  8
0
  6
Continuous
 62
     7
370
    15
100
AcDbCircle
 10
565.8193844423
 20
377.8757199948
 30
0.0
 40
1.600000000000003
100
AcDbArc
 50
345.4206781598
 51
90.0001383687
  0
LINE
  5
196
330
1F
100
AcDbEntity
  8
0
  6
Continuous
 62
     7
370
    15
100
AcDbLine
 10
556.945638987
 20
347.6457317791
 30
0.0
 11
548.334176602
 21
345.8153089436
 31
0.0
  0
LINE
  5
197
330
1F
100
AcDbEntity
  8
0
  6
Continuous
 62
     7
370
    15
100
AcDbLine
 10
548.334176602
 20
345.8153089436
 30
0.0
 11
547.518611864
 21
349.6522393663
 31
0.0
  0
LINE
  5
198
330
1F
100
AcDbEntity
  8
0
  6
Continuous
 62
     7
370
    15
100
AcDbLine
 10
537.3534038134
 20
347.4915576944
 30
0.0
 11
547.518611864
 21
349.6522393663
 31
0.0
  0
LINE
  5
199
330
1F
100
AcDbEntity
  8
0
  6
Continuous
 62
     7
370
    15
100
AcDbLine
 10
537.3534038134
 20
347.4915576944
 30
0.0
 11
538.1689685514
 21
343.6546272717
 31
0.0
  0
LINE
  5
19A
330
1F
100
AcDbEntity
  8
0
  6
Continuous
 62
     7
370
    15
100
AcDbLine
 10
538.1689685514
 20
343.6546272717
 30
0.0
 11
529.5575061664
 21
341.8242044362
 31
0.0
  0
SPLINE
  5
19B
330
1F
100
AcDbEntity
  8
0
  6
Continuous
 62
     7
370
    15
100
AcDbSpline
210
0.0
220
0.0
230
1.0
 70
     8
 71
     3
 72
     8
 73
     4
 74
     0
 42
0.000000001
 43
0.00000001
 40
0.0
 40
0.0
 40
0.0
 40
0.0
 40
1.0
 40
1.0
 40
1.0
 40
1.0
 10
538.1689685514048
 20
343.6546272717092
 30
0.0
 10
539.9294621146678
 20
343.6517157243376
 30
0.0
 10
541.6662208912388
 20
343.8077425867079
 30
0.0
 10
543.3716104473837
 20
344.17023432707
 30
0.0
  0
LINE
  5
19C
330
1F
100
AcDbEntity
  8
0
  6
Continuous
 62
     7
370
    15
100
AcDbLine
 10
543.3716104474
 20
344.1702343271
 30
0.0
 11
530.6556916378
 21
341.4673823464
 31
0.0
  0
SPLINE
  5
19D
330
1F
100
AcDbEntity
  8
0
  6
Continuous
 62
     7
370
    15
100
AcDbSpline
210
0.0
220
0.0
230
1.0
 70
     8
 71
     3
 72
    12
 73
     8
 74
     0
 42
0.000000001
 43
0.00000001
 40
0.0
 40
0.0
 40
0.0
 40
0.0
 40
0.25
 40
0.25
 40
0.5
 40
0.5
 40
1.0
 40
1.0
 40
1.0
 40
1.0
 10
543.3716104473837
 20
344.17023432707
 30
0.0
 10
543.7966983594388
 20
344.2605895520639
 30
0.0
 10
544.2198971046179
 20
344.3634382387428
 30
0.0
 10
545.0625341854816
 20
344.5940039985491
 30
0.0
 10
545.4829682202468
 20
344.7220588396715
 30
0.0
 10
546.7317793198127
 20
345.1398574278454
 30
0.0
 10
547.541788404708
 20
345.4609435873735
 30
0.0
 10
548.3341766020401
 20
345.8153089436126
 30
0.0
  0
LINE
  5
19E
330
1F
100
AcDbEntity
  8
0
  6
Continuous
 62
     7
370
    15
100
AcDbLine
 10
556.0875292569
 20
346.8730863077
 30
0.0
 11
543.3716104474
 21
344.1702343271
 31
0.0
  0
LINE
  5
19F
330
1F
100
AcDbEntity
  8
0
  6
Continuous
 62
     7
370
    15
100
AcDbLine
 10
476.6176820996
 20
325.1755597776
 30
0.0
 11
453.1176820996
 21
325.1755597776
 31
0.0
  0
LINE
  5
1A0
330
1F
100
AcDbEntity
  8
0
  6
Continuous
 62
     7
370
    15
100
AcDbLine
 10
475.3426820996
 20
321.9505597776
 30
0.0
 11
454.3926820996
 21
321.9505597776
 31
0.0
  0
LINE
  5
1A1
330
1F
100
AcDbEntity
  8
0
  6
Continuous
 62
     7
370
    15
100
AcDbLine
 10
474.1176820996
 20
323.1755597776
 30
0.0
 11
455.6176820996
 21
323.1755597776
 31
0.0
  0
LINE
  5
1A2
330
1F
100
AcDbEntity
  8
0
  6
Continuous
 62
     7
370
    15
100
AcDbLine
 10
474.1676820996
 20
314.1755597776
 30
0.0
 11
455.5676820996
 21
314.1755597776
 31
0.0
  0
LINE
  5
1A3
330
1F
100
AcDbEntity
  8
0
  6
Continuous
 62
     7
370
    15
100
AcDbLine
 10
475.3426820996
 20
315.3505597776
 30
0.0
 11
454.3926820996
 21
315.3505597776
 31
0.0
  0
LINE
  5
1A4
330
1F
100
AcDbEntity
  8
0
  6
Continuous
 62
     7
370
    15
100
AcDbLine
 10
385.7082978512
 20
319.4755597776
 30
0.0
 11
385.7082978512
 21
389.4755597776
 31
0.0
  0
LINE
  5
1A5
330
1F
100
AcDbEntity
  8
0
  6
Continuous
 62
     8
370
    15
100
AcDbLine
 10
459.6200338075
 20
385.6030373276
 30
0.0
 11
470.1153303917
 21
385.6030373276
 31
0.0
  0
LINE
  5
1A6
330
1F
100
AcDbEntity
  8
0
  6
Continuous
 62
     8
370
    15
100
AcDbLine
 10
415.6863090662
 20
370.2498230158
 30
0.0
 11
415.6863090662
 21
370.4755597776
 31
0.0
  0
LINE
  5
1A7
330
1F
100
AcDbEntity
  8
0
  6
Continuous
 62
     8
370
    15
100
AcDbLine
 10
415.6863090662
 20
338.4755597776
 30
0.0
 11
415.6863090662
 21
338.7012965395
 31
0.0
  0
LINE
  5
1A8
330
1F
100
AcDbEntity
  8
0
  6
Continuous
 62
     8
370
    15
100
AcDbLine
 10
424.749055133
 20
338.4755597776
 30
0.0
 11
424.749055133
 21
338.7012965395
 31
0.0
  0
LINE
  5
1A9
330
1F
100
AcDbEntity
  8
0
  6
Continuous
 62
     8
370
    15
100
AcDbLine
 10
424.749055133
 20
370.2498230158
 30
0.0
 11
424.749055133
 21
370.4755597776
 31
0.0
  0
SPLINE
  5
1AA
330
1F
100
AcDbEntity
  8
0
  6
Continuous
 62
     8
370
    15
100
AcDbSpline
210
0.0
220
0.0
230
1.0
 70
     8
 71
     3
 72
    11
 73
     7
 74
     0
 42
0.000000001
 43
0.00000001
 40
0.0
 40
0.0
 40
0.0
 40
0.0
 40
0.0881610670284244
 40
0.3209478547526988
 40
0.6484552112866702
 40
1.0
 40
1.0
 40
1.0
 40
1.0
 10
474.2257295111191
 20
379.4462270950788
 30
0.0
 10
474.4429257549892
 20
379.4451853851708
 30
0.0
 10
475.233622497668
 20
379.4413930699061
 30
0.0
 10
476.9405001362891
 20
379.4321650845815
 30
0.0
 10
479.414966849867
 20
379.4177157472428
 30
0.0
 10
481.3331233392428
 20
379.4044832416882
 30
0.0
 10
482.326151521977
 20
379.3976327834401
 30
0.0
  0
LINE
  5
1AB
330
1F
100
AcDbEntity
  8
0
  6
Continuous
 62
     8
370
    15
100
AcDbLine
 10
411.6329496694
 20
321.8697064045
 30
0.0
 11
411.6329496694
 21
387.0814131507
 31
0.0
  0
SPLINE
  5
1AC
330
1F
100
AcDbEntity
  8
0
  6
Continuous
 62
     7
370
    15
100
AcDbSpline
210
0.0
220
0.0
230
1.0
 70
     8
 71
     3
 72
    19
 73
    15
 74
     0
 42
0.000000001
 43
0.00000001
 40
0.0
 40
0.0
 40
0.0
 40
0.0
 40
0.0107002785628418
 40
0.1497671546219142
 40
0.3074903471001186
 40
0.4154122087154606
 40
0.5158139043485217
 40
0.5946873436753912
 40
0.6270114404233632
 40
0.6607387531247104
 40
0.7240795611316554
 40
0.8085676356735035
 40
0.9126306146798039
 40
1.0
 40
1.0
 40
1.0
 40
1.0
 10
153.3248389976015
 20
161.7814566418707
 30
0.0
 10
153.4237192103306
 20
161.7822228805748
 30
0.0
 10
154.8077026292556
 20
161.7929475911328
 30
0.0
 10
157.6463822684267
 20
161.7115731286453
 30
0.0
 10
161.3030320795692
 20
161.4799594480403
 30
0.0
 10
164.538725987728
 20
161.1341440297699
 30
0.0
 10
167.0351067442347
 20
160.7281328174643
 30
0.0
 10
168.7856782665134
 20
160.3137390938116
 30
0.0
 10
169.8966691795869
 20
159.9808890299184
 30
0.0
 10
170.7653409055914
 20
159.6866226458716
 30
0.0
 10
171.7779713451261
 20
159.2912587112868
 30
0.0
 10
173.0276812477599
 20
158.6803412487029
 30
0.0
 10
174.2511096305338
 20
157.8861269208462
 30
0.0
 10
174.9455391175524
 20
157.0894763574822
 30
0.0
 10
175.2624754811735
 20
156.7258864792452
 30
0.0
  0
SPLINE
  5
1AD
330
1F
100
AcDbEntity
  8
0
  6
Continuous
 62
     7
370
    15
100
AcDbSpline
210
0.0
220
0.0
230
1.0
 70
     8
 71
     3
 72
    18
 73
    14
 74
     0
 42
0.000000001
 43
0.00000001
 40
0.0
 40
0.0
 40
0.0
 40
0.0
 40
0.0538481896213935
 40
0.1892509614883618
 40
0.2938705805694128
 40
0.3846826077812054
 40
0.4672938881915564
 40
0.5444310988151491
 40
0.6185121278805794
 40
0.712700129069136
 40
0.8174762972599475
 40
0.9408901119063898
 40
0.9999999999999999
 40
0.9999999999999999
 40
0.9999999999999999
 40
0.9999999999999999
 10
228.6625330758708
 20
156.1845962613851
 30
0.0
 10
228.833766115339
 20
156.4434754415603
 30
0.0
 10
229.4355693994565
 20
157.3533135271479
 30
0.0
 10
230.7100931826085
 20
158.3706439594725
 30
0.0
 10
232.5531179980067
 20
159.3608960298768
 30
0.0
 10
234.434260915135
 20
160.0422649299257
 30
0.0
 10
236.3971086772852
 20
160.5547341732424
 30
0.0
 10
238.4383065406693
 20
160.9386790704816
 30
0.0
 10
240.5914906739939
 20
161.2353040406535
 30
0.0
 10
243.0414949798651
 20
161.4782243362836
 30
0.0
 10
246.0175003075696
 20
161.6743141795903
 30
0.0
 10
248.6977544820115
 20
161.785042581617
 30
0.0
 10
250.4149981477399
 20
161.7709527064392
 30
0.0
 10
250.97112362288
 20
161.7663897322473
 30
0.0
  0
SPLINE
  5
1AE
330
1F
100
AcDbEntity
  8
0
  6
Continuous
 62
     7
370
    15
100
AcDbSpline
210
0.0
220
0.0
230
1.0
 70
     8
 71
     3
 72
    12
 73
     8
 74
     0
 42
0.000000001
 43
0.00000001
 40
0.0
 40
0.0
 40
0.0
 40
0.0
 40
0.2055198495624847
 40
0.441552971661933
 40
0.6765631178372672
 40
0.9107952422155474
 40
1.0
 40
1.0
 40
1.0
 40
1.0
 10
202.1175813919048
 20
84.25325031333351
 30
0.0
 10
203.4039913367024
 20
84.26772914329146
 30
0.0
 10
206.1678028863411
 20
84.29883645680749
 30
0.0
 10
210.386402248071
 20
84.70647740733176
 30
0.0
 10
214.735898975422
 20
85.41746984365658
 30
0.0
 10
218.146816614563
 20
86.16385269812152
 30
0.0
 10
220.0704519270133
 20
86.76545312750424
 30
0.0
 10
220.6009956948277
 20
86.93137613612112
 30
0.0
  0
SPLINE
  5
1AF
330
1F
100
AcDbEntity
  8
0
  6
Continuous
 62
     7
370
    15
100
AcDbSpline
210
0.0
220
0.0
230
1.0
 70
     8
 71
     3
 72
    12
 73
     8
 74
     0
 42
0.000000001
 43
0.00000001
 40
0.0
 40
0.0
 40
0.0
 40
0.0
 40
0.1592913906773896
 40
0.3992338368312942
 40
0.6359874546656333
 40
0.8702420465203017
 40
1.0
 40
1.0
 40
1.0
 40
1.0
 10
183.6335959026742
 20
86.93167225701698
 30
0.0
 10
184.585860466837
 20
86.65004314598896
 30
0.0
 10
186.9725320503576
 20
85.94419287949957
 30
0.0
 10
190.8708897154472
 20
85.15599986906551
 30
0.0
 10
195.2737936549856
 20
84.54724533770826
 30
0.0
 10
199.026850048275
 20
84.25047600665535
 30
0.0
 10
201.3052162074011
 20
84.26683990004754
 30
0.0
 10
202.1173753867339
 20
84.27267306526323
 30
0.0
  0
LINE
  5
1B0
330
1F
100
AcDbEntity
  8
0
  6
Continuous
 62
     7
370
    15
100
AcDbLine
 10
108.6173466995
 20
211.7835722922
 30
0.0
 11
62.7802367466
 21
211.3835578938
 31
0.0
  0
LINE
  5
1B1
330
1F
100
AcDbEntity
  8
0
  6
Continuous
 62
     7
370
    15
100
AcDbLine
 10
62.7802367466
 20
162.1835866907
 30
0.0
 11
108.6173466995
 21
161.7835722922
 31
0.0
  0
LINE
  5
1B2
330
1F
100
AcDbEntity
  8
0
  6
Continuous
 62
     7
370
    15
100
AcDbLine
 10
295.6173466995
 20
161.7835722922
 30
0.0
 11
341.4544566525
 21
162.1835866907
 31
0.0
  0
LINE
  5
1B3
330
1F
100
AcDbEntity
  8
0
  6
Continuous
 62
     7
370
    15
100
AcDbLine
 10
341.4544566525
 20
211.3835578938
 30
0.0
 11
295.6173466995
 21
211.7835722922
 31
0.0
  0
LINE
  5
1B4
330
1F
100
AcDbEntity
  8
0
  6
Continuous
 62
     7
370
    15
100
AcDbLine
 10
266.7473208552
 20
211.7835722922
 30
0.0
 11
202.1173466995
 21
211.7835722922
 31
0.0
  0
LINE
  5
1B5
330
1F
100
AcDbEntity
  8
0
  6
Continuous
 62
     7
370
    15
100
AcDbLine
 10
293.1173466995
 20
211.7835722922
 30
0.0
 11
287.5153684738
 21
211.7835722922
 31
0.0
  0
LINE
  5
1B6
330
1F
100
AcDbEntity
  8
0
  6
Continuous
 62
     7
370
    15
100
AcDbLine
 10
116.7549018879
 20
211.7835722922
 30
0.0
 11
111.1173466995
 21
211.7835722922
 31
0.0
  0
LINE
  5
1B7
330
1F
100
AcDbEntity
  8
0
  6
Continuous
 62
     7
370
    15
100
AcDbLine
 10
202.1173466995
 20
211.7835722922
 30
0.0
 11
137.6173466995
 21
211.7835722922
 31
0.0
  0
LINE
  5
1B8
330
1F
100
AcDbEntity
  8
0
  6
Continuous
 62
     7
370
    15
100
AcDbLine
 10
250.7844799227
 20
161.7835722922
 30
0.0
 11
293.1173466995
 21
161.7835722922
 31
0.0
  0
LINE
  5
1B9
330
1F
100
AcDbEntity
  8
0
  6
Continuous
 62
     7
370
    15
100
AcDbLine
 10
111.1173466995
 20
161.7835722922
 30
0.0
 11
153.4502134763
 21
161.7835722922
 31
0.0
  0
SPLINE
  5
1BA
330
1F
100
AcDbEntity
  8
0
  6
Continuous
 62
     7
370
    15
100
AcDbSpline
210
0.0
220
0.0
230
1.0
 70
     8
 71
     3
 72
     9
 73
     5
 74
     0
 42
0.000000001
 43
0.00000001
 40
0.0
 40
0.0
 40
0.0
 40
0.0
 40
0.4995444733689055
 40
1.0
 40
1.0
 40
1.0
 40
1.0
 10
176.9582234724094
 20
151.228887661983
 30
0.0
 10
176.999360834995
 20
150.2901232221504
 30
0.0
 10
177.0817105851747
 20
148.4108822538707
 30
0.0
 10
177.1419792965396
 20
146.5308856396322
 30
0.0
 10
177.172141106225
 20
145.5900309439887
 30
0.0
  0
SPLINE
  5
1BB
330
1F
100
AcDbEntity
  8
0
  6
Continuous
 62
     7
370
    15
100
AcDbSpline
210
0.0
220
0.0
230
1.0
 70
     8
 71
     3
 72
     9
 73
     5
 74
     0
 42
0.000000001
 43
0.00000001
 40
0.0
 40
0.0
 40
0.0
 40
0.0
 40
0.5004555266310945
 40
1.0
 40
1.0
 40
1.0
 40
1.0
 10
227.0625522928246
 20
145.5900309439887
 30
0.0
 10
227.0927141025101
 20
146.5308856396322
 30
0.0
 10
227.1529828138749
 20
148.4108822538707
 30
0.0
 10
227.2353325640546
 20
150.2901232221504
 30
0.0
 10
227.2764699266402
 20
151.228887661983
 30
0.0
  0
SPLINE
  5
1BC
330
1F
100
AcDbEntity
  8
0
  6
Continuous
 62
     7
370
    15
100
AcDbSpline
210
0.0
220
0.0
230
1.0
 70
     8
 71
     3
 72
    11
 73
     7
 74
     0
 42
0.000000001
 43
0.00000001
 40
0.0
 40
0.0
 40
0.0
 40
0.0
 40
0.4260996113679025
 40
0.727511968423129
 40
0.9300683243085233
 40
0.9999999999999999
 40
0.9999999999999999
 40
0.9999999999999999
 40
0.9999999999999999
 10
175.9730112396779
 20
155.5335376141433
 30
0.0
 10
176.1599834421949
 20
155.1426249582019
 30
0.0
 10
176.4792151698579
 20
154.4751903297298
 30
0.0
 10
176.7126769312544
 20
153.5581107112992
 30
0.0
 10
176.7710344244324
 20
153.2909527770211
 30
0.0
 10
176.7957770624442
 20
153.0951773743341
 30
0.0
 10
176.8021270445963
 20
153.044933325486
 30
0.0
  0
LINE
  5
1BD
330
1F
100
AcDbEntity
  8
0
  6
Continuous
 62
     7
370
    15
100
AcDbLine
 10
176.9386363317
 20
151.4958631535
 30
0.0
 11
176.9713262798
 21
150.9709219439
 31
0.0
  0
LINE
  5
1BE
330
1F
100
AcDbEntity
  8
0
  6
Continuous
 62
     7
370
    15
100
AcDbLine
 10
227.2633671193
 20
150.9709219439
 30
0.0
 11
227.2800707023
 21
151.278978331
 31
0.0
  0
SPLINE
  5
1BF
330
1F
100
AcDbEntity
  8
0
  6
Continuous
 62
     7
370
    15
100
AcDbSpline
210
0.0
220
0.0
230
1.0
 70
     8
 71
     3
 72
    11
 73
     7
 74
     0
 42
0.000000001
 43
0.00000001
 40
0.0
 40
0.0
 40
0.0
 40
0.0
 40
0.0357950829110416
 40
0.2606650109039
 40
0.5756746647934323
 40
1.0
 40
1.0
 40
1.0
 40
1.0
 10
227.4359280393215
 20
153.0830808088426
 30
0.0
 10
227.4395989549112
 20
153.1092089395252
 30
0.0
 10
227.466331097273
 20
153.2994777953402
 30
0.0
 10
227.5654184283185
 20
153.7617982024521
 30
0.0
 10
227.8044391432049
 20
154.5895614878033
 30
0.0
 10
228.0949498303116
 20
155.1893194794602
 30
0.0
 10
228.2616821593717
 20
155.5335376141433
 30
0.0
  0
ARC
  5
1C0
330
1F
100
AcDbEntity
  8
0
  6
Continuous
 62
     7
370
    15
100
AcDbCircle
 10
341.441803176
 20
163.6335314791
 30
0.0
 40
1.450000000000217
100
AcDbArc
 50
270.5
 51
357.0416025162
  0
ARC
  5
1C1
330
1F
100
AcDbEntity
  8
0
  6
Continuous
 62
     7
370
    15
100
AcDbCircle
 10
341.441803176
 20
209.9336131053
 30
0.0
 40
1.450000000000329
100
AcDbArc
 50
2.9583974838
 51
89.5
  0
ARC
  5
1C2
330
1F
100
AcDbEntity
  8
0
  6
Continuous
 62
     7
370
    15
100
AcDbCircle
 10
62.792890223
 20
209.9336131053
 30
0.0
 40
1.450000000000278
100
AcDbArc
 50
90.5
 51
177.0416025162
  0
ARC
  5
1C3
330
1F
100
AcDbEntity
  8
0
  6
Continuous
 62
     7
370
    15
100
AcDbCircle
 10
62.792890223
 20
163.6335314791
 30
0.0
 40
1.450000000000279
100
AcDbArc
 50
182.9583974838
 51
269.5
  0
SPLINE
  5
1C4
330
1F
100
AcDbEntity
  8
0
  6
Continuous
 62
     7
370
    15
100
AcDbSpline
210
0.0
220
0.0
230
1.0
 70
     8
 71
     3
 72
    14
 73
    10
 74
     0
 42
0.000000001
 43
0.00000001
 40
0.0
 40
0.0
 40
0.0
 40
0.0
 40
0.1014962008285425
 40
0.2544709216692384
 40
0.4138696817573921
 40
0.5769226998802426
 40
0.7402386699828912
 40
0.9054551799457419
 40
0.9999999999999999
 40
0.9999999999999999
 40
0.9999999999999999
 40
0.9999999999999999
 10
220.6084196699213
 20
86.91401226051872
 30
0.0
 10
220.9081801189455
 20
87.00670292556312
 30
0.0
 10
221.6597384740414
 20
87.23909663854394
 30
0.0
 10
222.7675800939312
 20
87.9043100876061
 30
0.0
 10
223.8774482002739
 20
88.8764355093403
 30
0.0
 10
224.7846960068707
 20
90.08913918457048
 30
0.0
 10
225.4321693876655
 20
91.47255911703665
 30
0.0
 10
225.7675191073277
 20
92.75277666370174
 30
0.0
 10
225.7945804029256
 20
93.55715753308345
 30
0.0
 10
225.8044298494254
 20
93.84992645502335
 30
0.0
  0
SPLINE
  5
1C5
330
1F
100
AcDbEntity
  8
0
  6
Continuous
 62
     7
370
    15
100
AcDbSpline
210
0.0
220
0.0
230
1.0
 70
     8
 71
     3
 72
    13
 73
     9
 74
     0
 42
0.000000001
 43
0.00000001
 40
0.0
 40
0.0
 40
0.0
 40
0.0
 40
0.1682494351246735
 40
0.3659220864403153
 40
0.5645838505049294
 40
0.7605458909396927
 40
0.9566551290756325
 40
0.9999999999999999
 40
0.9999999999999999
 40
0.9999999999999999
 40
0.9999999999999999
 10
178.6029098010295
 20
92.38400941183313
 30
0.0
 10
178.714166003325
 20
91.95948322557228
 30
0.0
 10
178.9561347305498
 20
91.03619033183983
 30
0.0
 10
179.6769716767915
 20
89.73962012624747
 30
0.0
 10
180.6703776338859
 20
88.55165060265372
 30
0.0
 10
181.8937317910081
 20
87.6108273755755
 30
0.0
 10
182.9181846909092
 20
87.10342407280805
 30
0.0
 10
183.5144796439236
 20
86.93117861348456
 30
0.0
 10
183.6224181874412
 20
86.89999954025427
 30
0.0
  0
SPLINE
  5
1C6
330
1F
100
AcDbEntity
  8
0
  6
Continuous
 62
     7
370
    15
100
AcDbSpline
210
0.0
220
0.0
230
1.0
 70
     8
 71
     3
 72
     9
 73
     5
 74
     0
 42
0.000000001
 43
0.00000001
 40
0.0
 40
0.0
 40
0.0
 40
0.0
 40
0.9017406019319939
 40
1.0
 40
1.0
 40
1.0
 40
1.0
 10
178.4274522878269
 20
93.84992412733648
 30
0.0
 10
178.4336618027104
 20
93.39998398217679
 30
0.0
 10
178.4405479458763
 20
92.90101549368278
 30
0.0
 10
178.5883835623425
 20
92.43026506554247
 30
0.0
 10
178.6029098010295
 20
92.38400941183315
 30
0.0
  0
ARC
  5
1C7
330
1F
100
AcDbEntity
  8
0
  6
Continuous
 62
     7
370
    15
100
AcDbCircle
 10
-106.5104019869
 20
186.7835722922
 30
0.0
 40
450.0000000000002
100
AcDbArc
 50
2.7849290165
 51
2.958397484
  0
ARC
  5
1C8
330
1F
100
AcDbEntity
  8
0
  6
Continuous
 62
     7
370
    15
100
AcDbCircle
 10
-106.5104019869
 20
186.7835722922
 30
0.0
 40
450.0000000000003
100
AcDbArc
 50
357.041602516
 51
357.2150709835
  0
ARC
  5
1C9
330
1F
100
AcDbEntity
  8
0
  6
Continuous
 62
     7
370
    15
100
AcDbCircle
 10
510.745095386
 20
186.7835722922
 30
0.0
 40
450.0000000000003
100
AcDbArc
 50
182.7849290165
 51
182.958397484
  0
ARC
  5
1CA
330
1F
100
AcDbEntity
  8
0
  6
Continuous
 62
     7
370
    15
100
AcDbCircle
 10
510.745095386
 20
186.7835722922
 30
0.0
 40
450.0000000000002
100
AcDbArc
 50
177.041602516
 51
177.2150709835
  0
LINE
  5
1CB
330
1F
100
AcDbEntity
  8
0
  6
Continuous
 62
     7
370
    15
100
AcDbLine
 10
293.1173466995
 20
163.8835722906
 30
0.0
 11
295.6173466995
 21
163.8835722906
 31
0.0
  0
LINE
  5
1CC
330
1F
100
AcDbEntity
  8
0
  6
Continuous
 62
     7
370
    15
100
AcDbLine
 10
295.6173466995
 20
209.6835722938
 30
0.0
 11
293.1173466995
 21
209.6835722938
 31
0.0
  0
LINE
  5
1CD
330
1F
100
AcDbEntity
  8
0
  6
Continuous
 62
     7
370
    15
100
AcDbLine
 10
108.6173466995
 20
164.2835722922
 30
0.0
 11
111.1173466995
 21
164.2835722922
 31
0.0
  0
LINE
  5
1CE
330
1F
100
AcDbEntity
  8
0
  6
Continuous
 62
     7
370
    15
100
AcDbLine
 10
111.1173466995
 20
209.2835722922
 30
0.0
 11
108.6173466995
 21
209.2835722922
 31
0.0
  0
ARC
  5
1CF
330
1F
100
AcDbEntity
  8
0
  6
Continuous
 62
     7
370
    15
100
AcDbCircle
 10
342.9044076644
 20
165.3085437817
 30
0.0
 40
0.2000000000007406
100
AcDbArc
 50
285.5806232578
 51
357.2634583701
  0
ARC
  5
1D0
330
1F
100
AcDbEntity
  8
0
  6
Continuous
 62
     7
370
    15
100
AcDbCircle
 10
342.9044076644
 20
208.2586008028
 30
0.0
 40
0.2000000000007392
100
AcDbArc
 50
2.7365416299
 51
74.4193767422
  0
ARC
  5
1D1
330
1F
100
AcDbEntity
  8
0
  6
Continuous
 62
     7
370
    15
100
AcDbCircle
 10
61.3302857346
 20
208.2586008028
 30
0.0
 40
0.2000000000007547
100
AcDbArc
 50
105.5806232578
 51
177.2634583701
  0
ARC
  5
1D2
330
1F
100
AcDbEntity
  8
0
  6
Continuous
 62
     7
370
    15
100
AcDbCircle
 10
61.3302857346
 20
165.3085437817
 30
0.0
 40
0.2000000000007534
100
AcDbArc
 50
182.7365416299
 51
254.4193767422
  0
ARC
  5
1D3
330
1F
100
AcDbEntity
  8
0
  6
Continuous
 62
     7
370
    15
100
AcDbCircle
 10
-106.3826533005
 20
186.7835722922
 30
0.0
 40
450.0
100
AcDbArc
 50
357.2634583656
 51
2.7365416344
  0
ARC
  5
1D4
330
1F
100
AcDbEntity
  8
0
  6
Continuous
 62
     7
370
    15
100
AcDbCircle
 10
510.6173466995
 20
186.7835722922
 30
0.0
 40
450.0000000000001
100
AcDbArc
 50
177.2634583656
 51
182.7365416344
  0
ARC
  5
1D5
330
1F
100
AcDbEntity
  8
0
  6
Continuous
 62
     7
370
    15
100
AcDbCircle
 10
117.1173466995
 20
226.9021992588
 30
0.0
 40
6.0
100
AcDbArc
 50
213.5296143098
 51
221.4096221093
  0
ARC
  5
1D6
330
1F
100
AcDbEntity
  8
0
  6
Continuous
 62
     7
370
    15
100
AcDbCircle
 10
137.1173466995
 20
226.9021992588
 30
0.0
 40
6.000000000000053
100
AcDbArc
 50
318.5903778907
 51
326.7073833481
  0
ARC
  5
1D7
330
1F
100
AcDbEntity
  8
0
  6
Continuous
 62
     7
370
    15
100
AcDbCircle
 10
117.1173466994
 20
235.9649453257
 30
0.0
 40
5.999999999875698
100
AcDbArc
 50
138.5903778903
 51
146.4506089259
  0
ARC
  5
1D8
330
1F
100
AcDbEntity
  8
0
  6
Continuous
 62
     7
370
    15
100
AcDbCircle
 10
137.1173466996
 20
235.9649453257
 30
0.0
 40
5.999999999875687
100
AcDbArc
 50
33.2806108536
 51
41.4096221097
  0
ARC
  5
1D9
330
1F
100
AcDbEntity
  8
0
  6
Continuous
 62
     7
370
    15
100
AcDbCircle
 10
267.1173466994
 20
235.9649453257
 30
0.0
 40
5.999999999875791
100
AcDbArc
 50
138.5903778903
 51
180.0000000009
  0
ARC
  5
1DA
330
1F
100
AcDbEntity
  8
0
  6
Continuous
 62
     7
370
    15
100
AcDbCircle
 10
287.1173466996
 20
235.9649453257
 30
0.0
 40
5.999999999875748
100
AcDbArc
 50
359.9999999991
 51
41.4096221097
  0
ARC
  5
1DB
330
1F
100
AcDbEntity
  8
0
  6
Continuous
 62
     7
370
    15
100
AcDbCircle
 10
267.1173466995
 20
226.9021992588
 30
0.0
 40
6.000000000000075
100
AcDbArc
 50
180.0
 51
221.4096221093
  0
ARC
  5
1DC
330
1F
100
AcDbEntity
  8
0
  6
Continuous
 62
     7
370
    15
100
AcDbCircle
 10
287.1173466995
 20
226.9021992588
 30
0.0
 40
6.000000000000075
100
AcDbArc
 50
318.5903778907
 51
360.0
  0
LINE
  5
1DD
330
1F
100
AcDbEntity
  8
0
  6
Continuous
 62
     7
370
    15
100
AcDbLine
 10
116.6173466995
 20
222.9335722922
 30
0.0
 11
116.6173466995
 21
211.7261808745
 31
0.0
  0
LINE
  5
1DE
330
1F
100
AcDbEntity
  8
0
  6
Continuous
 62
     7
370
    15
100
AcDbLine
 10
137.6173466995
 20
211.7835722922
 30
0.0
 11
137.6173466995
 21
222.9335722922
 31
0.0
  0
LINE
  5
1DF
330
1F
100
AcDbEntity
  8
0
  6
Continuous
 62
     7
370
    15
100
AcDbLine
 10
266.6173466995
 20
222.9335722922
 30
0.0
 11
266.6173466995
 21
211.7835722922
 31
0.0
  0
LINE
  5
1E0
330
1F
100
AcDbEntity
  8
0
  6
Continuous
 62
     7
370
    15
100
AcDbLine
 10
287.6173466995
 20
211.7835722922
 30
0.0
 11
287.6173466995
 21
222.9335722922
 31
0.0
  0
LINE
  5
1E1
330
1F
100
AcDbEntity
  8
0
  6
Continuous
 62
     7
370
    15
100
AcDbLine
 10
293.1173466995
 20
226.9021992588
 30
0.0
 11
293.1173466995
 21
235.9649453256
 31
0.0
  0
LINE
  5
1E2
330
1F
100
AcDbEntity
  8
0
  6
Continuous
 62
     7
370
    15
100
AcDbLine
 10
261.1173466995
 20
235.9649453256
 30
0.0
 11
261.1173466995
 21
226.9021992588
 31
0.0
  0
LINE
  5
1E3
330
1F
100
AcDbEntity
  8
0
  6
Continuous
 62
     7
370
    15
100
AcDbLine
 10
92.1173466995
 20
265.9429565407
 30
0.0
 11
92.5355647812
 21
241.9832586888
 31
0.0
  0
LINE
  5
1E4
330
1F
100
AcDbEntity
  8
0
  6
Continuous
 62
     7
370
    15
100
AcDbLine
 10
161.6991286179
 20
241.9832586888
 30
0.0
 11
162.1173466995
 21
265.9429565407
 31
0.0
  0
ARC
  5
1E5
330
1F
100
AcDbEntity
  8
0
  6
Continuous
 62
     7
370
    15
100
AcDbCircle
 10
94.5352601715
 20
242.0181635017
 30
0.0
 40
1.999999999999855
100
AcDbArc
 50
181.0
 51
269.3191140165
  0
ARC
  5
1E6
330
1F
100
AcDbEntity
  8
0
  6
Continuous
 62
     7
370
    15
100
AcDbCircle
 10
159.6994332275
 20
242.0181635017
 30
0.0
 40
1.999999999999855
100
AcDbArc
 50
270.6808859836
 51
359.0
  0
ARC
  5
1E7
330
1F
100
AcDbEntity
  8
0
  6
Continuous
 62
     7
370
    15
100
AcDbCircle
 10
108.7716003709
 20
1439.9335722922
 30
0.0
 40
1200.0
100
AcDbArc
 50
269.3191140165
 51
270.0
  0
ARC
  5
1E8
330
1F
100
AcDbEntity
  8
0
  6
Continuous
 62
     7
370
    15
100
AcDbCircle
 10
145.4630930281
 20
1439.9335722922
 30
0.0
 40
1200.0
100
AcDbArc
 50
270.0
 51
270.6808859835
  0
LINE
  5
1E9
330
1F
100
AcDbEntity
  8
0
  6
Continuous
 62
     7
370
    15
100
AcDbLine
 10
108.7716003709
 20
239.9335722922
 30
0.0
 11
145.4630930281
 21
239.9335722922
 31
0.0
  0
LINE
  5
1EA
330
1F
100
AcDbEntity
  8
0
  6
Continuous
 62
     7
370
    15
100
AcDbLine
 10
242.1173466995
 20
265.9429565407
 30
0.0
 11
242.5355647812
 21
241.9832586888
 31
0.0
  0
LINE
  5
1EB
330
1F
100
AcDbEntity
  8
0
  6
Continuous
 62
     7
370
    15
100
AcDbLine
 10
311.6991286179
 20
241.9832586888
 30
0.0
 11
312.1173466995
 21
265.9429565407
 31
0.0
  0
ARC
  5
1EC
330
1F
100
AcDbEntity
  8
0
  6
Continuous
 62
     7
370
    15
100
AcDbCircle
 10
244.5352601715
 20
242.0181635017
 30
0.0
 40
1.999999999999855
100
AcDbArc
 50
181.0
 51
269.3191140165
  0
ARC
  5
1ED
330
1F
100
AcDbEntity
  8
0
  6
Continuous
 62
     7
370
    15
100
AcDbCircle
 10
309.6994332275
 20
242.0181635017
 30
0.0
 40
1.999999999999855
100
AcDbArc
 50
270.6808859835
 51
359.0
  0
ARC
  5
1EE
330
1F
100
AcDbEntity
  8
0
  6
Continuous
 62
     7
370
    15
100
AcDbCircle
 10
258.7716003709
 20
1439.9335722922
 30
0.0
 40
1200.0
100
AcDbArc
 50
269.3191140165
 51
270.0
  0
ARC
  5
1EF
330
1F
100
AcDbEntity
  8
0
  6
Continuous
 62
     7
370
    15
100
AcDbCircle
 10
295.4630930281
 20
1439.9335722922
 30
0.0
 40
1200.0
100
AcDbArc
 50
270.0
 51
270.6808859835
  0
LINE
  5
1F0
330
1F
100
AcDbEntity
  8
0
  6
Continuous
 62
     7
370
    15
100
AcDbLine
 10
258.7716003709
 20
239.9335722922
 30
0.0
 11
295.4630930281
 21
239.9335722922
 31
0.0
  0
LINE
  5
1F1
330
1F
100
AcDbEntity
  8
0
  6
Continuous
 62
     7
370
    15
100
AcDbLine
 10
153.3245819375
 20
161.8418144946
 30
0.0
 11
153.4502134763
 21
161.8390304824
 31
0.0
  0
SPLINE
  5
1F2
330
1F
100
AcDbEntity
  8
0
  6
Continuous
 62
     7
370
    15
100
AcDbSpline
210
0.0
220
0.0
230
1.0
 70
     8
 71
     3
 72
     9
 73
     5
 74
     0
 42
0.000000001
 43
0.00000001
 40
0.0
 40
0.0
 40
0.0
 40
0.0
 40
0.5617010322752837
 40
1.0
 40
1.0
 40
1.0
 40
1.0
 10
175.9298521712111
 20
155.5112427090976
 30
0.0
 10
175.8272360330014
 20
155.7513424317532
 30
0.0
 10
175.6445478549255
 20
156.1787935291511
 30
0.0
 10
175.3563338916432
 20
156.5426474020368
 30
0.0
 10
175.2300100090528
 20
156.7021241789253
 30
0.0
  0
LINE
  5
1F3
330
1F
100
AcDbEntity
  8
0
  6
Continuous
 62
     7
370
    15
100
AcDbLine
 10
228.3050126386
 20
155.511594549
 30
0.0
 11
228.6385796945
 21
156.1962785215
 31
0.0
  0
LINE
  5
1F4
330
1F
100
AcDbEntity
  8
0
  6
Continuous
 62
     7
370
    15
100
AcDbLine
 10
250.9712043499
 20
161.8431683214
 30
0.0
 11
250.7844799227
 21
161.8390304824
 31
0.0
  0
CIRCLE
  5
1F5
330
1F
100
AcDbEntity
  8
0
  6
Continuous
 62
     7
370
    15
100
AcDbCircle
 10
75.6173466995
 20
186.7835722922
 30
0.0
 40
5.247648292095477
  0
CIRCLE
  5
1F6
330
1F
100
AcDbEntity
  8
0
  6
Continuous
 62
     7
370
    15
100
AcDbCircle
 10
328.6173466995
 20
186.7835722922
 30
0.0
 40
5.247648292095477
  0
CIRCLE
  5
1F7
330
1F
100
AcDbEntity
  8
0
  6
Continuous
 62
     7
370
    15
100
AcDbCircle
 10
75.6173466995
 20
186.7835722922
 30
0.0
 40
5.929999999999978
  0
CIRCLE
  5
1F8
330
1F
100
AcDbEntity
  8
0
  6
Continuous
 62
     7
370
    15
100
AcDbCircle
 10
328.6173466995
 20
186.7835722922
 30
0.0
 40
5.930000000000007
  0
SPLINE
  5
1F9
330
1F
100
AcDbEntity
  8
0
  6
Continuous
 62
     7
370
    15
100
AcDbSpline
210
0.0
220
0.0
230
1.0
 70
     8
 71
     3
 72
    10
 73
     6
 74
     0
 42
0.000000001
 43
0.00000001
 40
0.0
 40
0.0
 40
0.0
 40
0.0
 40
0.5
 40
0.5
 40
1.0
 40
1.0
 40
1.0
 40
1.0
 10
220.3200940955233
 20
88.40716461631249
 30
0.0
 10
217.3535491907514
 20
87.54901015720907
 30
0.0
 10
214.3534273445524
 20
86.90858893828776
 30
0.0
 10
208.2862943753696
 20
86.05008334389694
 30
0.0
 10
205.2192864119866
 20
85.83187381346856
 30
0.0
 10
202.1173466995248
 20
85.83187381346856
 30
0.0
  0
SPLINE
  5
1FA
330
1F
100
AcDbEntity
  8
0
  6
Continuous
 62
     7
370
    15
100
AcDbSpline
210
0.0
220
0.0
230
1.0
 70
     8
 71
     3
 72
    10
 73
     6
 74
     0
 42
0.000000001
 43
0.00000001
 40
0.0
 40
0.0
 40
0.0
 40
0.0
 40
0.5
 40
0.5
 40
1.0
 40
1.0
 40
1.0
 40
1.0
 10
183.9145993035263
 20
88.40716461631249
 30
0.0
 10
186.8811442098009
 20
87.54901015677439
 30
0.0
 10
189.8812660483846
 20
86.90858893937255
 30
0.0
 10
195.9483990205726
 20
86.0500833441168
 30
0.0
 10
199.0154069854917
 20
85.83187381346858
 30
0.0
 10
202.1173466995248
 20
85.83187381346856
 30
0.0
  0
LINE
  5
1FB
330
1F
100
AcDbEntity
  8
0
  6
Continuous
 62
     7
370
    15
100
AcDbLine
 10
108.6173466995
 20
161.7835722922
 30
0.0
 11
108.6173466995
 21
211.7835722922
 31
0.0
  0
LINE
  5
1FC
330
1F
100
AcDbEntity
  8
0
  6
Continuous
 62
     7
370
    15
100
AcDbLine
 10
295.6173466995
 20
211.7835722922
 30
0.0
 11
295.6173466995
 21
161.7835722922
 31
0.0
  0
LINE
  5
1FD
330
1F
100
AcDbEntity
  8
0
  6
Continuous
 62
     7
370
    15
100
AcDbLine
 10
242.1822154393
 20
186.7835722922
 30
0.0
 11
259.1173466995
 21
186.7835722922
 31
0.0
  0
SPLINE
  5
1FE
330
1F
100
AcDbEntity
  8
0
  6
Continuous
 62
     7
370
    15
100
AcDbSpline
210
0.0
220
0.0
230
1.0
 70
     8
 71
     3
 72
    17
 73
    13
 74
     0
 42
0.000000001
 43
0.00000001
 40
0.0
 40
0.0
 40
0.0
 40
0.0
 40
0.0554395820775896
 40
0.1118119278658621
 40
0.1676689458710397
 40
0.2481864529181667
 40
0.2911870485917369
 40
0.4311225038672144
 40
0.5711260643364254
 40
0.7127826696838441
 40
0.8558308528933984
 40
1.0
 40
1.0
 40
1.0
 40
1.0
 10
259.1098644142455
 20
180.1938404211252
 30
0.0
 10
259.1103777792389
 20
180.3128564498896
 30
0.0
 10
259.1114131465247
 20
180.5528909365214
 30
0.0
 10
259.1125460464939
 20
180.914595222882
 30
0.0
 10
259.1136310135581
 20
181.3317768670667
 30
0.0
 10
259.1143538947965
 20
181.7216554391648
 30
0.0
 10
259.1152427474087
 20
182.2961701797127
 30
0.0
 10
259.1159691383494
 20
183.0037719602661
 30
0.0
 10
259.1166386138415
 20
183.9327884250795
 30
0.0
 10
259.1170973295036
 20
184.8727280024883
 30
0.0
 10
259.1173110172199
 20
185.8246541931861
 30
0.0
 10
259.1173348221907
 20
186.4631023053842
 30
0.0
 10
259.1173467711296
 20
186.7835722425781
 30
0.0
  0
SPLINE
  5
1FF
330
1F
100
AcDbEntity
  8
0
  6
Continuous
 62
     7
370
    15
100
AcDbSpline
210
0.0
220
0.0
230
1.0
 70
     8
 71
     3
 72
    66
 73
    62
 74
     0
 42
0.000000001
 43
0.00000001
 40
0.0
 40
0.0
 40
0.0
 40
0.0
 40
0.0149019015297356
 40
0.0298009771279724
 40
0.0446977331064562
 40
0.059593869317321
 40
0.0640371828647013
 40
0.0773689503292006
 40
0.1129282290753545
 40
0.1218230305926282
 40
0.1480348577837105
 40
0.2000431778365552
 40
0.2171879342102514
 40
0.2515323368121118
 40
0.285862471725103
 40
0.3030134863212699
 40
0.3605310313269187
 40
0.3837392004105041
 40
0.4074817964482419
 40
0.431287120219543
 40
0.448283227887044
 40
0.4653115319457926
 40
0.4909131371482892
 40
0.508018258342733
 40
0.5165813974238426
 40
0.5423151451813927
 40
0.5552072851232476
 40
0.559508310114032
 40
0.5681147279788946
 40
0.5823945922240519
 40
0.5871588125412536
 40
0.5966925979722519
 40
0.6062335970053178
 40
0.6157828318639091
 40
0.6253398583897948
 40
0.6349028161826481
 40
0.6444724783996978
 40
0.6599879466868085
 40
0.6755192371944514
 40
0.6806996878431626
 40
0.6910655442863407
 40
0.7066256628221755
 40
0.7118149813938547
 40
0.7221977317205227
 40
0.7332909814185045
 40
0.7391919895725608
 40
0.7509982604666875
 40
0.7628112844593077
 40
0.7746293665430498
 40
0.8041932766426584
 40
0.8160260150800135
 40
0.8219443626790809
 40
0.8477856999649159
 40
0.8671751247207515
 40
0.8736395024312179
 40
0.886571064480987
 40
0.8995047153519432
 40
0.9253766633029108
 40
0.9440316565642856
 40
0.96268842411552
 40
1.0
 40
1.0
 40
1.0
 40
1.0
 10
230.9582737285192
 20
168.0777766392429
 30
0.0
 10
231.0320652980209
 20
168.2225060639763
 30
0.0
 10
231.1796344435135
 20
168.5119374675873
 30
0.0
 10
231.4120079166238
 20
168.9402437476691
 30
0.0
 10
231.6521894390305
 20
169.3641359169335
 30
0.0
 10
231.8431023504007
 20
169.6848416415816
 30
0.0
 10
232.0293911410985
 20
169.988377795602
 30
0.0
 10
232.3398124627213
 20
170.4799721347661
 30
0.0
 10
232.6950299885258
 20
171.0006113033961
 30
0.0
 10
233.1502563938189
 20
171.6220166190639
 30
0.0
 10
233.7318256523158
 20
172.3729595723564
 30
0.0
 10
234.4184966587454
 20
173.1553857275478
 30
0.0
 10
235.2089558866975
 20
173.9604844871261
 30
0.0
 10
235.8922366747697
 20
174.600287553475
 30
0.0
 10
236.6112085556083
 20
175.1998980493161
 30
0.0
 10
237.5556449323159
 20
175.9211134560603
 30
0.0
 10
238.443975823185
 20
176.5160175850197
 30
0.0
 10
239.4306187484435
 20
177.085417425389
 30
0.0
 10
240.1131955837211
 20
177.4453749127206
 30
0.0
 10
240.7478264002541
 20
177.7499324162501
 30
0.0
 10
241.3247770501384
 20
178.0045517617265
 30
0.0
 10
241.9263073853661
 20
178.2514673026367
 30
0.0
 10
242.5366767750656
 20
178.4794263383497
 30
0.0
 10
243.066270130539
 20
178.6587740774475
 30
0.0
 10
243.6003438850075
 20
178.828982865844
 30
0.0
 10
244.0943246089231
 20
178.9736487893992
 30
0.0
 10
244.5467826028289
 20
179.0938335797676
 30
0.0
 10
244.8194857728711
 20
179.1630760272364
 30
0.0
 10
245.1074483450014
 20
179.2336973413438
 30
0.0
 10
245.4013210822802
 20
179.3013685150491
 30
0.0
 10
245.7058098504267
 20
179.3678488372931
 30
0.0
 10
245.9602737046211
 20
179.4211591098964
 30
0.0
 10
246.2665004394395
 20
179.481804662992
 30
0.0
 10
246.5736067392042
 20
179.5392327406073
 30
0.0
 10
246.8815315189622
 20
179.5935030023912
 30
0.0
 10
247.1902074989853
 20
179.644711943536
 30
0.0
 10
247.5635771963698
 20
179.7029228074499
 30
0.0
 10
248.0021117373889
 20
179.7655690415876
 30
0.0
 10
248.3940172359313
 20
179.8158332799061
 30
0.0
 10
248.7305834869974
 20
179.8558863051716
 30
0.0
 10
249.0677322858285
 20
179.8936774456513
 30
0.0
 10
249.4053726180949
 20
179.9278416217046
 30
0.0
 10
249.7434528260108
 20
179.9592873063814
 30
0.0
 10
250.0331826549249
 20
179.9845086784517
 30
0.0
 10
250.3308379779208
 20
180.0080934712408
 30
0.0
 10
250.6441078606534
 20
180.0310736513126
 30
0.0
 10
250.9653438895712
 20
180.0527290302705
 30
0.0
 10
251.3511490578015
 20
180.0758927002859
 30
0.0
 10
251.9305068746463
 20
180.1066564600878
 30
0.0
 10
252.5104166117663
 20
180.1308291643487
 30
0.0
 10
253.0261898145798
 20
180.1475080734713
 30
0.0
 10
253.5014376474841
 20
180.1611032231706
 30
0.0
 10
254.0591680732763
 20
180.1735431122574
 30
0.0
 10
254.6229231686585
 20
180.1819375232914
 30
0.0
 10
255.0459098927104
 20
180.1867584265521
 30
0.0
 10
255.3985000298632
 20
180.1899462105202
 30
0.0
 10
255.9627630109004
 20
180.1934748255814
 30
0.0
 10
256.589458746738
 20
180.1951833155512
 30
0.0
 10
257.2785745569814
 20
180.1953892722549
 30
0.0
 10
258.0924567536492
 20
180.1945989489451
 30
0.0
 10
258.7028775955192
 20
180.1941409451566
 30
0.0
 10
259.1098177006709
 20
180.1938356146419
 30
0.0
  0
SPLINE
  5
200
330
1F
100
AcDbEntity
  8
0
  6
Continuous
 62
     7
370
    15
100
AcDbSpline
210
0.0
220
0.0
230
1.0
 70
     8
 71
     3
 72
    40
 73
    36
 74
     0
 42
0.000000001
 43
0.00000001
 40
0.0
 40
0.0
 40
0.0
 40
0.0
 40
0.0220862378552625
 40
0.0441397642586654
 40
0.0660528874323102
 40
0.0879853456741044
 40
0.1136782208349562
 40
0.1265101284924426
 40
0.163912973212238
 40
0.2129654761239383
 40
0.2374418208941249
 40
0.2623242148387027
 40
0.287174156451453
 40
0.3367753273953535
 40
0.3737070850148359
 40
0.410584348775737
 40
0.4351436440678282
 40
0.4841432549546387
 40
0.5249618590127175
 40
0.5494526955572807
 40
0.6108230834200518
 40
0.6356434517119454
 40
0.648055291316896
 40
0.697715985913581
 40
0.7356816973470601
 40
0.7483443220908599
 40
0.7736771949858886
 40
0.7990260984956373
 40
0.8238470726653958
 40
0.86111071865051
 40
0.8859752567489688
 40
0.8984138538169413
 40
0.9474031510931401
 40
0.9736910233274864
 40
1.0
 40
1.0
 40
1.0
 40
1.0
 10
242.1822066706029
 20
186.7835783088819
 30
0.0
 10
242.0192031298188
 20
186.7177557487473
 30
0.0
 10
241.6934374692891
 20
186.5862081168561
 30
0.0
 10
241.2102283211239
 20
186.3789990378754
 30
0.0
 10
240.7315572993261
 20
186.1645258051543
 30
0.0
 10
240.230685297949
 20
185.9289697934269
 30
0.0
 10
239.7993639010928
 20
185.7155542718805
 30
0.0
 10
239.2623267072267
 20
185.4384211924094
 30
0.0
 10
238.568186784166
 20
185.0604151244838
 30
0.0
 10
237.8100793706472
 20
184.607124713295
 30
0.0
 10
237.1527279596827
 20
184.1810988437929
 30
0.0
 10
236.6651853731739
 20
183.8475739063801
 30
0.0
 10
236.024311031736
 20
183.3844882713311
 30
0.0
 10
235.3263943790115
 20
182.8370607079172
 30
0.0
 10
234.5829768170993
 20
182.1947211218913
 30
0.0
 10
234.012026589939
 20
181.6586400099665
 30
0.0
 10
233.3925300793065
 20
181.0349676197159
 30
0.0
 10
232.7782625840221
 20
180.3623871582193
 30
0.0
 10
232.1997703771023
 20
179.6597527263916
 30
0.0
 10
231.5880456707118
 20
178.8581730181457
 30
0.0
 10
231.0874108942517
 20
178.1323200147667
 30
0.0
 10
230.6723363855033
 20
177.4662138865596
 30
0.0
 10
230.3182204890312
 20
176.872149508651
 30
0.0
 10
229.9327266500501
 20
176.175027666061
 30
0.0
 10
229.5769943971519
 20
175.4602783835745
 30
0.0
 10
229.3207304622026
 20
174.9126874829782
 30
0.0
 10
229.1150725589573
 20
174.4523250906535
 30
0.0
 10
228.8825283339468
 20
173.8981599404593
 30
0.0
 10
228.6272003311185
 20
173.2507576598898
 30
0.0
 10
228.3899529875797
 20
172.6005419420682
 30
0.0
 10
228.2001505192742
 20
172.03819750133
 30
0.0
 10
227.9896673363254
 20
171.3844382915004
 30
0.0
 10
227.7909500592258
 20
170.7150221459857
 30
0.0
 10
227.5795434082197
 20
169.9345821305666
 30
0.0
 10
227.4785980833605
 20
169.5283079446141
 30
0.0
 10
227.4281051688207
 20
169.3250893430626
 30
0.0
  0
SPLINE
  5
201
330
1F
100
AcDbEntity
  8
0
  6
Continuous
 62
     7
370
    15
100
AcDbSpline
210
0.0
220
0.0
230
1.0
 70
     8
 71
     3
 72
    37
 73
    33
 74
     0
 42
0.000000001
 43
0.00000001
 40
0.0
 40
0.0
 40
0.0
 40
0.0
 40
0.0155684669042078
 40
0.0309318005031692
 40
0.0460908809189519
 40
0.0610468465847827
 40
0.0758007920311703
 40
0.0903539650083285
 40
0.104707776327349
 40
0.1188637795238475
 40
0.1328236521358692
 40
0.1465891769419413
 40
0.1601621742755409
 40
0.1735438035708905
 40
0.1867347116396869
 40
0.1997355692071986
 40
0.2125470813698282
 40
0.2251699834433638
 40
0.2376050363653452
 40
0.2498530217462154
 40
0.3132321470762481
 40
0.374039686959124
 40
0.4360690280664378
 40
0.4994620542312495
 40
0.5551682708475281
 40
0.6247736371100867
 40
0.6874595049230265
 40
0.749951125653532
 40
0.816159473315226
 40
0.8749086876422366
 40
0.9393728397780945
 40
1.0
 40
1.0
 40
1.0
 40
1.0
 10
173.2765051650684
 20
168.0778353017854
 30
0.0
 10
173.199319850861
 20
168.2289666610395
 30
0.0
 10
173.0459662319385
 20
168.5292380418366
 30
0.0
 10
172.8058888183672
 20
168.970605005282
 30
0.0
 10
172.5606173184742
 20
169.4014088000986
 30
0.0
 10
172.309568554728
 20
169.8211589285996
 30
0.0
 10
172.0532633924182
 20
170.2299372834643
 30
0.0
 10
171.7919524399182
 20
170.6277025140604
 30
0.0
 10
171.5259543958849
 20
171.014461440742
 30
0.0
 10
171.2555669034391
 20
171.3902244849792
 30
0.0
 10
170.981089215722
 20
171.7550162951989
 30
0.0
 10
170.7028189451843
 20
172.1088739889226
 30
0.0
 10
170.4210492105666
 20
172.4518334501019
 30
0.0
 10
170.1361194115518
 20
172.7839633764368
 30
0.0
 10
169.8483930518499
 20
173.105352383295
 30
0.0
 10
169.5582221245579
 20
173.4160886585242
 30
0.0
 10
169.2659498478957
 20
173.7162708792582
 30
0.0
 10
168.9719127142323
 20
174.0060043693184
 30
0.0
 10
168.6764268735252
 20
174.28540818866
 30
0.0
 10
167.9656301805965
 20
174.9305241192391
 30
0.0
 10
166.8008034754007
 20
175.8603054190983
 30
0.0
 10
165.0894595950148
 20
176.9582523830112
 30
0.0
 10
163.2757995695573
 20
177.8783609109522
 30
0.0
 10
161.4333453184263
 20
178.5978054629795
 30
0.0
 10
159.4577408423872
 20
179.179572495355
 30
0.0
 10
157.449296973204
 20
179.6023145265003
 30
0.0
 10
155.3437741685308
 20
179.8918391283327
 30
0.0
 10
153.263262931372
 20
180.0667173609448
 30
0.0
 10
151.2206139059315
 20
180.1563763762084
 30
0.0
 10
149.155073599962
 20
180.1919413938908
 30
0.0
 10
147.1501860299457
 20
180.196746326892
 30
0.0
 10
145.7860110926555
 20
180.1947719212447
 30
0.0
 10
145.1248456533062
 20
180.1938149994148
 30
0.0
  0
SPLINE
  5
202
330
1F
100
AcDbEntity
  8
0
  6
Continuous
 62
     7
370
    15
100
AcDbSpline
210
0.0
220
0.0
230
1.0
 70
     8
 71
     3
 72
    17
 73
    13
 74
     0
 42
0.000000001
 43
0.00000001
 40
0.0
 40
0.0
 40
0.0
 40
0.0
 40
0.054350085222861
 40
0.1136817552689066
 40
0.1844489863097861
 40
0.2666516491965769
 40
0.360289575185098
 40
0.4653625615933641
 40
0.5818703746828515
 40
0.7098127512524247
 40
0.8491893995786622
 40
1.0
 40
1.0
 40
1.0
 40
1.0
 10
145.1248604338325
 20
180.1938609436327
 30
0.0
 10
145.1243462672991
 20
180.3105296194818
 30
0.0
 10
145.12327080709
 20
180.5545605129209
 30
0.0
 10
145.121986863892
 20
180.9524733333368
 30
0.0
 10
145.1208977543886
 20
181.412259044153
 30
0.0
 10
145.1199472782393
 20
181.9488051371245
 30
0.0
 10
145.1191427808863
 20
182.5628259637112
 30
0.0
 10
145.1184839870231
 20
183.2549941377486
 30
0.0
 10
145.117971705044
 20
184.0257571433658
 30
0.0
 10
145.1176088109981
 20
184.8752701054799
 30
0.0
 10
145.1173850998718
 20
185.8032748846083
 30
0.0
 10
145.1173598315149
 20
186.4483342838925
 30
0.0
 10
145.1173466995248
 20
186.7835722922245
 30
0.0
  0
LINE
  5
203
330
1F
100
AcDbEntity
  8
0
  6
Continuous
 62
     7
370
    15
100
AcDbLine
 10
162.0524779598
 20
186.7835722922
 30
0.0
 11
145.1173466995
 21
186.7835722922
 31
0.0
  0
SPLINE
  5
204
330
1F
100
AcDbEntity
  8
0
  6
Continuous
 62
     7
370
    15
100
AcDbSpline
210
0.0
220
0.0
230
1.0
 70
     8
 71
     3
 72
    27
 73
    23
 74
     0
 42
0.000000001
 43
0.00000001
 40
0.0
 40
0.0
 40
0.0
 40
0.0
 40
0.0239212178407026
 40
0.0475820817608422
 40
0.0709907062980869
 40
0.094155473935166
 40
0.1170850375846791
 40
0.1397883221668939
 40
0.1622745251822338
 40
0.1845531161809152
 40
0.2066338350347594
 40
0.228526688920971
 40
0.2502419479346663
 40
0.3764749231956922
 40
0.5004627715258163
 40
0.6233925670133404
 40
0.7506456992267945
 40
0.7977701204882168
 40
0.8461924207477677
 40
0.8959910439224704
 40
0.9472381513531045
 40
1.0
 40
1.0
 40
1.0
 40
1.0
 10
162.0524779597963
 20
186.7835722922245
 30
0.0
 10
162.2289378778555
 20
186.7122426533306
 30
0.0
 10
162.5799371582648
 20
186.5703597135731
 30
0.0
 10
163.0986106115702
 20
186.3466110080411
 30
0.0
 10
163.6077918790623
 20
186.1163231977465
 30
0.0
 10
164.1071445980928
 20
185.8786527672338
 30
0.0
 10
164.5967563703537
 20
185.6338214472898
 30
0.0
 10
165.0766030347106
 20
185.3817698663578
 30
0.0
 10
165.5466895828367
 20
185.1225131930237
 30
0.0
 10
166.0070143781346
 20
184.8560453294452
 30
0.0
 10
166.4575734496346
 20
184.5823715011398
 30
0.0
 10
166.8983783313094
 20
184.3014728114576
 30
0.0
 10
168.0218618784027
 20
183.5505995548174
 30
0.0
 10
169.7298341604473
 20
182.2100208547764
 30
0.0
 10
171.792521883642
 20
180.0609453803366
 30
0.0
 10
173.5341722191707
 20
177.635066433628
 30
0.0
 10
174.64927443245
 20
175.5409427870129
 30
0.0
 10
175.3519789505872
 20
173.913208503208
 30
0.0
 10
175.7663282358366
 20
172.8331870832976
 30
0.0
 10
176.1478921040053
 20
171.7066238551575
 30
0.0
 10
176.5001155492371
 20
170.5342825835308
 30
0.0
 10
176.7034566890951
 20
169.7320571950054
 30
0.0
 10
176.8066079450012
 20
169.3251028698556
 30
0.0
  0
SPLINE
  5
205
330
1F
100
AcDbEntity
  8
0
  6
Continuous
 62
     7
370
    15
100
AcDbSpline
210
0.0
220
0.0
230
1.0
 70
     8
 71
     3
 72
    22
 73
    18
 74
     0
 42
0.000000001
 43
0.00000001
 40
0.0
 40
0.0
 40
0.0
 40
0.0
 40
0.025669051098673
 40
0.051874430161218
 40
0.0786218296935956
 40
0.1059166060012113
 40
0.1337638025197695
 40
0.1621681714811845
 40
0.1911341940165721
 40
0.2206660987976768
 40
0.2507678793157823
 40
0.368492316928093
 40
0.5004119245286082
 40
0.6157847505178562
 40
0.7501276130977915
 40
0.8750590855092271
 40
0.9999999999999999
 40
0.9999999999999999
 40
0.9999999999999999
 40
0.9999999999999999
 10
227.4280854540617
 20
169.3251028699097
 30
0.0
 10
227.3807280684107
 20
169.1266940361374
 30
0.0
 10
227.2850238140879
 20
168.7257308236162
 30
0.0
 10
227.1517212180278
 20
168.1153160306803
 30
0.0
 10
227.0239633771336
 20
167.4905464734428
 30
0.0
 10
226.9026469956952
 20
166.8512041680694
 30
0.0
 10
226.787526891081
 20
166.1973488035652
 30
0.0
 10
226.6786735632531
 20
165.528963312405
 30
0.0
 10
226.5760698935202
 20
164.8460521459262
 30
0.0
 10
226.4797251569269
 20
164.1486126950176
 30
0.0
 10
226.3027938242658
 20
162.750386248399
 30
0.0
 10
226.0828604699971
 20
160.5377740453393
 30
0.0
 10
225.8876421753708
 20
157.6434828264807
 30
0.0
 10
225.7523917631173
 20
154.6138364530595
 30
0.0
 10
225.6616863361615
 20
151.6381803771791
 30
0.0
 10
225.5976455816508
 20
148.5858890930618
 30
0.0
 10
225.5560399164687
 20
146.6008779914819
 30
0.0
 10
225.5352362977884
 20
145.6083349362831
 30
0.0
  0
SPLINE
  5
206
330
1F
100
AcDbEntity
  8
0
  6
Continuous
 62
     7
370
    15
100
AcDbSpline
210
0.0
220
0.0
230
1.0
 70
     8
 71
     3
 72
     8
 73
     4
 74
     0
 42
0.000000001
 43
0.00000001
 40
0.0
 40
0.0
 40
0.0
 40
0.0
 40
1.0
 40
1.0
 40
1.0
 40
1.0
 10
225.5352362977884
 20
145.6083349362831
 30
0.0
 10
225.1486344142313
 20
128.3567592412361
 30
0.0
 10
224.7757003003236
 20
111.1063525629772
 30
0.0
 10
224.4013989888613
 20
93.85550382145554
 30
0.0
  0
SPLINE
  5
207
330
1F
100
AcDbEntity
  8
0
  6
Continuous
 62
     7
370
    15
100
AcDbSpline
210
0.0
220
0.0
230
1.0
 70
     8
 71
     3
 72
    20
 73
    16
 74
     0
 42
0.000000001
 43
0.00000001
 40
0.0
 40
0.0
 40
0.0
 40
0.0
 40
0.25
 40
0.25
 40
0.375
 40
0.375
 40
0.5
 40
0.5
 40
0.625
 40
0.625
 40
0.75
 40
0.75
 40
0.875
 40
0.875
 40
1.0
 40
1.0
 40
1.0
 40
1.0
 10
224.4014079693098
 20
93.85550364472986
 30
0.0
 10
224.388093012123
 20
93.24255990863313
 30
0.0
 10
224.2833717403387
 20
92.64721657280876
 30
0.0
 10
223.9897160046244
 20
91.7805000028606
 30
0.0
 10
223.8690280559026
 20
91.49846791404605
 30
0.0
 10
223.5891075811108
 20
90.96265502210291
 30
0.0
 10
223.4291204689916
 20
90.7066201054513
 30
0.0
 10
223.0681595981655
 20
90.218835838923
 30
0.0
 10
222.8659040523407
 20
89.98639632212455
 30
0.0
 10
222.4338096405777
 20
89.5632133636464
 30
0.0
 10
222.2025498125435
 20
89.37017189640727
 30
0.0
 10
221.7090804455985
 20
89.02178232739097
 30
0.0
 10
221.4446030011919
 20
88.86548142571402
 30
0.0
 10
220.8970980020226
 20
88.60105790463554
 30
0.0
 10
220.6136349803746
 20
88.49207925056794
 30
0.0
 10
220.3200941244992
 20
88.40716451474361
 30
0.0
  0
LINE
  5
208
330
1F
100
AcDbEntity
  8
0
  6
Continuous
 62
     7
370
    15
100
AcDbLine
 10
202.1173466995
 20
186.7835722922
 30
0.0
 11
242.1822154393
 21
186.7835722922
 31
0.0
  0
SPLINE
  5
209
330
1F
100
AcDbEntity
  8
0
  6
Continuous
 62
     7
370
    15
100
AcDbSpline
210
0.0
220
0.0
230
1.0
 70
     8
 71
     3
 72
    20
 73
    16
 74
     0
 42
0.000000001
 43
0.00000001
 40
0.0
 40
0.0
 40
0.0
 40
0.0
 40
0.2499999999999963
 40
0.2499999999999963
 40
0.3749999999999969
 40
0.3749999999999969
 40
0.4999999999999976
 40
0.4999999999999976
 40
0.6249999999999981
 40
0.6249999999999981
 40
0.7499999999999988
 40
0.7499999999999988
 40
0.8749999999999993
 40
0.8749999999999993
 40
1.0
 40
1.0
 40
1.0
 40
1.0
 10
179.8332854297398
 20
93.85550364472986
 30
0.0
 10
179.8466003869153
 20
93.24255990915037
 30
0.0
 10
179.951321658538
 20
92.64721657381429
 30
0.0
 10
180.2449773937684
 20
91.78050000455198
 30
0.0
 10
180.3656653423041
 20
91.49846791591494
 30
0.0
 10
180.645585816656
 20
90.96265502430317
 30
0.0
 10
180.8055729285219
 20
90.70662010779749
 30
0.0
 10
181.1665337987652
 20
90.2188358415159
 30
0.0
 10
181.3687893442859
 20
89.98639632478172
 30
0.0
 10
181.8008837554258
 20
89.56321336634556
 30
0.0
 10
182.0321435831243
 20
89.37017189909784
 30
0.0
 10
182.5256129493378
 20
89.02178232999177
 30
0.0
 10
182.7900903933533
 20
88.86548142822163
 30
0.0
 10
183.3375953918296
 20
88.60105790681351
 30
0.0
 10
183.6210584189227
 20
88.4920792504963
 30
0.0
 10
183.9145992745504
 20
88.40716451474361
 30
0.0
  0
SPLINE
  5
20A
330
1F
100
AcDbEntity
  8
0
  6
Continuous
 62
     7
370
    15
100
AcDbSpline
210
0.0
220
0.0
230
1.0
 70
     8
 71
     3
 72
     8
 73
     4
 74
     0
 42
0.000000001
 43
0.00000001
 40
0.0
 40
0.0
 40
0.0
 40
0.0
 40
1.0
 40
1.0
 40
1.0
 40
1.0
 10
178.6994571012612
 20
145.6083349362831
 30
0.0
 10
179.0860589848183
 20
128.3567592412361
 30
0.0
 10
179.458993098726
 20
111.1063525629772
 30
0.0
 10
179.8332944101883
 20
93.85550382145554
 30
0.0
  0
SPLINE
  5
20B
330
1F
100
AcDbEntity
  8
0
  6
Continuous
 62
     7
370
    15
100
AcDbSpline
210
0.0
220
0.0
230
1.0
 70
     8
 71
     3
 72
    12
 73
     8
 74
     0
 42
0.000000001
 43
0.00000001
 40
0.0
 40
0.0
 40
0.0
 40
0.0
 40
0.4999999999999998
 40
0.7499999999999999
 40
0.7499999999999999
 40
0.90625
 40
1.0
 40
1.0
 40
1.0
 40
1.0
 10
178.6994571012612
 20
145.6083349362831
 30
0.0
 10
178.6104966041274
 20
149.5781051435952
 30
0.0
 10
178.5378331378823
 20
155.5370787423446
 30
0.0
 10
178.081751302695
 20
161.4695380738999
 30
0.0
 10
177.6940923519633
 20
164.6731855359012
 30
0.0
 10
177.4003773884046
 20
166.64860096893
 30
0.0
 10
176.9833140649873
 20
168.5995398958699
 30
0.0
 10
176.806607944988
 20
169.3251028699097
 30
0.0
  0
LINE
  5
20C
330
1F
100
AcDbEntity
  8
0
  6
Continuous
 62
     7
370
    15
100
AcDbLine
 10
202.1173466995
 20
186.7835722922
 30
0.0
 11
162.0524779598
 21
186.7835722922
 31
0.0
  0
SPLINE
  5
20D
330
1F
100
AcDbEntity
  8
0
  6
Continuous
 62
     7
370
    15
100
AcDbSpline
210
0.0
220
0.0
230
1.0
 70
     8
 71
     3
 72
    13
 73
     9
 74
     0
 42
0.000000001
 43
0.00000001
 40
0.0
 40
0.0
 40
0.0
 40
0.0
 40
0.2014617961054137
 40
0.4024671118479419
 40
0.614998927991595
 40
0.7245603857178731
 40
0.8376414490988677
 40
1.0
 40
1.0
 40
1.0
 40
1.0
 10
277.1173466995248
 20
209.4716749013014
 30
0.0
 10
278.2387128806967
 20
209.5220633892012
 30
0.0
 10
280.4789044057639
 20
209.6227261927076
 30
0.0
 10
283.4944508449751
 20
210.3081935103147
 30
0.0
 10
285.5084574553395
 20
210.9602244049281
 30
0.0
 10
286.6814323190604
 20
211.401617978782
 30
0.0
 10
287.4542711764897
 20
211.7138385836853
 30
0.0
 10
287.4927103874118
 20
211.7310588095771
 30
0.0
 10
287.5153684738287
 20
211.7412093136332
 30
0.0
  0
SPLINE
  5
20E
330
1F
100
AcDbEntity
  8
0
  6
Continuous
 62
     7
370
    15
100
AcDbSpline
210
0.0
220
0.0
230
1.0
 70
     8
 71
     3
 72
    14
 73
    10
 74
     0
 42
0.000000001
 43
0.00000001
 40
0.0
 40
0.0
 40
0.0
 40
0.0
 40
0.1248757124313755
 40
0.3210421975129831
 40
0.5261900073819307
 40
0.7455501450422217
 40
0.85313001725382
 40
0.9644159722691898
 40
1.0
 40
1.0
 40
1.0
 40
1.0
 10
266.7473208552463
 20
211.7293236769069
 30
0.0
 10
266.7364408336007
 20
211.7336577458162
 30
0.0
 10
266.7084694531769
 20
211.7448001767959
 30
0.0
 10
267.8487219118221
 20
211.2765269953115
 30
0.0
 10
269.925778106121
 20
210.5436308898869
 30
0.0
 10
272.4091026894848
 20
209.9083767595288
 30
0.0
 10
274.7036318230992
 20
209.577939403735
 30
0.0
 10
276.1061912701782
 20
209.4798204939188
 30
0.0
 10
276.9201409338419
 20
209.4732635372148
 30
0.0
 10
277.1173466995248
 20
209.4716749013014
 30
0.0
  0
LINE
  5
20F
330
1F
100
AcDbEntity
  8
0
  6
Continuous
 62
     7
370
    15
100
AcDbLine
 10
293.1173466995
 20
211.7835722922
 30
0.0
 11
293.1173466995
 21
186.7835722922
 31
0.0
  0
SPLINE
  5
210
330
1F
100
AcDbEntity
  8
0
  6
Continuous
 62
     7
370
    15
100
AcDbSpline
210
0.0
220
0.0
230
1.0
 70
     8
 71
     3
 72
    20
 73
    16
 74
     0
 42
0.000000001
 43
0.00000001
 40
0.0
 40
0.0
 40
0.0
 40
0.0
 40
0.0431866535158888
 40
0.1412818180367724
 40
0.2424838206104023
 40
0.3510233983347624
 40
0.4053736470912255
 40
0.4615657582289074
 40
0.5630396318321165
 40
0.6597194828520929
 40
0.7623047146932269
 40
0.8725078980994762
 40
0.9259556505344856
 40
0.9812009319857524
 40
1.0
 40
1.0
 40
1.0
 40
1.0
 10
116.7549018878868
 20
211.7261463357682
 30
0.0
 10
116.7214419243168
 20
211.7400709196973
 30
0.0
 10
116.6119802249317
 20
211.7856241259021
 30
0.0
 10
117.5543789562223
 20
211.3927561311105
 30
0.0
 10
119.4347318255032
 20
210.7033603473131
 30
0.0
 10
121.7873608113634
 20
210.0470833259512
 30
0.0
 10
124.0180082469007
 20
209.6608073257897
 30
0.0
 10
126.3180378550549
 20
209.4334803292929
 30
0.0
 10
129.200303293028
 20
209.4880431466641
 30
0.0
 10
132.3400367630831
 20
210.0083125967367
 30
0.0
 10
135.0156992697152
 20
210.7723754894236
 30
0.0
 10
136.6275073213916
 20
211.3786628513427
 30
0.0
 10
137.3824286583998
 20
211.6848681512232
 30
0.0
 10
137.5984156059046
 20
211.7756350231583
 30
0.0
 10
137.6135135046015
 20
211.7819651426271
 30
0.0
 10
137.6173466995248
 20
211.7835722922245
 30
0.0
  0
LINE
  5
211
330
1F
100
AcDbEntity
  8
0
  6
Continuous
 62
     7
370
    15
100
AcDbLine
 10
111.1173466995
 20
211.7835722922
 30
0.0
 11
111.1173466995
 21
186.7835722922
 31
0.0
  0
SPLINE
  5
212
330
1F
100
AcDbEntity
  8
0
  6
Continuous
 62
     7
370
    15
100
AcDbSpline
210
0.0
220
0.0
230
1.0
 70
     8
 71
     3
 72
    10
 73
     6
 74
     0
 42
0.000000001
 43
0.00000001
 40
0.0
 40
0.0
 40
0.0
 40
0.0
 40
0.2356314489744573
 40
0.4856314489744573
 40
0.7356314489744573
 40
0.7356314489744573
 40
0.7356314489744573
 40
0.7356314489744573
 10
259.1098477455546
 20
180.1938149574376
 30
0.0
 10
259.1012530349363
 20
178.2827748570164
 30
0.0
 10
259.0621036257498
 20
174.4726778593469
 30
0.0
 10
258.7510745283296
 20
169.4407468008914
 30
0.0
 10
258.1462237577061
 20
166.7743779467228
 30
0.0
 10
257.6860979612332
 20
165.6753741546301
 30
0.0
  0
LINE
  5
213
330
1F
100
AcDbEntity
  8
0
  6
Continuous
 62
     7
370
    15
100
AcDbLine
 10
293.1173466995
 20
186.7835722922
 30
0.0
 11
293.1173466995
 21
161.7835722922
 31
0.0
  0
LINE
  5
214
330
1F
100
AcDbEntity
  8
0
  6
Continuous
 62
     7
370
    15
100
AcDbLine
 10
111.1173466995
 20
186.7835722922
 30
0.0
 11
111.1173466995
 21
161.7835722922
 31
0.0
  0
SPLINE
  5
215
330
1F
100
AcDbEntity
  8
0
  6
Continuous
 62
     7
370
    15
100
AcDbSpline
210
0.0
220
0.0
230
1.0
 70
     8
 71
     3
 72
    28
 73
    24
 74
     0
 42
0.000000001
 43
0.00000001
 40
0.0
 40
0.0
 40
0.0
 40
0.0
 40
0.0262582037981333
 40
0.0528809834362782
 40
0.0798719013318065
 40
0.1072343760753349
 40
0.1349716888364461
 40
0.1630869895100404
 40
0.1915833026067042
 40
0.2204635328917769
 40
0.249730470778767
 40
0.2793867974835683
 40
0.3094350899465301
 40
0.3398778255298762
 40
0.4225449968297751
 40
0.5097741913219394
 40
0.591382043123636
 40
0.6796953374565415
 40
0.761226252645508
 40
0.8496055934559998
 40
0.8949700960389997
 40
0.9451015005812246
 40
0.9999999999999999
 40
0.9999999999999999
 40
0.9999999999999999
 40
0.9999999999999999
 10
146.5485954378164
 20
165.6753741546301
 30
0.0
 10
146.5136030282571
 20
165.7610839194401
 30
0.0
 10
146.4431323652779
 20
165.9336934660828
 30
0.0
 10
146.343927449753
 20
166.2050666687714
 30
0.0
 10
146.2485247186269
 20
166.4880959828076
 30
0.0
 10
146.157464343808
 20
166.7838281113173
 30
0.0
 10
146.0705985113689
 20
167.0923090558568
 30
0.0
 10
145.9879675921692
 20
167.4138475049209
 30
0.0
 10
145.9095604605994
 20
167.7486681712465
 30
0.0
 10
145.8353802274295
 20
168.0970052735082
 30
0.0
 10
145.7654255519557
 20
168.4590762111041
 30
0.0
 10
145.6996984658511
 20
168.8350857007144
 30
0.0
 10
145.6381918991318
 20
169.2252301616276
 30
0.0
 10
145.5484392411367
 20
169.8591773193298
 30
0.0
 10
145.4423894888941
 20
170.7833121837423
 30
0.0
 10
145.3403771294169
 20
172.007708746318
 30
0.0
 10
145.263291505166
 20
173.3193660093422
 30
0.0
 10
145.208968991048
 20
174.6556374938029
 30
0.0
 10
145.1703361374346
 20
176.0768565169776
 30
0.0
 10
145.1491162310284
 20
177.2980443011661
 30
0.0
 10
145.1370563246753
 20
178.3619843293385
 30
0.0
 10
145.1297673398635
 20
179.2427399382365
 30
0.0
 10
145.1265448236732
 20
179.8673703712362
 30
0.0
 10
145.1248604338325
 20
180.1938609436327
 30
0.0
  0
SPLINE
  5
216
330
1F
100
AcDbEntity
  8
0
  6
Continuous
 62
     7
370
    15
100
AcDbSpline
210
0.0
220
0.0
230
1.0
 70
     8
 71
     3
 72
    11
 73
     7
 74
     0
 42
0.000000001
 43
0.00000001
 40
0.0
 40
0.0
 40
0.0
 40
0.0
 40
0.331831546595435
 40
0.658211704023203
 40
0.9846428030724187
 40
1.0
 40
1.0
 40
1.0
 40
1.0
 10
173.2765051649471
 20
168.0778353020263
 30
0.0
 10
174.0347777038169
 20
166.2880266034568
 30
0.0
 10
175.5388657419924
 20
162.7378125100473
 30
0.0
 10
176.5235753866403
 20
157.0379369043161
 30
0.0
 10
176.8931836343235
 20
153.1525840450079
 30
0.0
 10
176.9588229803537
 20
151.1572626202005
 30
0.0
 10
176.9617722807687
 20
151.0676090410251
 30
0.0
  0
SPLINE
  5
217
330
1F
100
AcDbEntity
  8
0
  6
Continuous
 62
     7
370
    15
100
AcDbSpline
210
0.0
220
0.0
230
1.0
 70
     8
 71
     3
 72
    11
 73
     7
 74
     0
 42
0.000000001
 43
0.00000001
 40
0.0
 40
0.0
 40
0.0
 40
0.0
 40
0.3320184598915254
 40
0.658582459969666
 40
0.9851974303635316
 40
1.0
 40
1.0
 40
1.0
 40
1.0
 10
230.9581882341025
 20
168.0778353020263
 30
0.0
 10
230.1999108494538
 20
166.288026911509
 30
0.0
 10
228.6958131993277
 20
162.7378134291432
 30
0.0
 10
227.7111747403542
 20
157.0379332980499
 30
0.0
 10
227.3416940933363
 20
153.155865700057
 30
0.0
 10
227.276098570163
 20
151.1638348624246
 30
0.0
 10
227.2732545970633
 20
151.077467960509
 30
0.0
  0
SPLINE
  5
218
330
1F
100
AcDbEntity
  8
0
  6
Continuous
 62
     7
370
    15
100
AcDbSpline
210
0.0
220
0.0
230
1.0
 70
     8
 71
     3
 72
    10
 73
     6
 74
     0
 42
0.000000001
 43
0.00000001
 40
0.0
 40
0.0
 40
0.0
 40
0.0
 40
0.5
 40
0.5
 40
1.0
 40
1.0
 40
1.0
 40
1.0
 10
225.8226427157138
 20
93.85011025598234
 30
0.0
 10
226.0333303960906
 20
102.4740528088128
 30
0.0
 10
226.2439953078851
 20
111.0978707619532
 30
0.0
 10
226.6656999868961
 20
128.3457169239427
 30
0.0
 10
226.8769679365299
 20
136.9697414879263
 30
0.0
 10
227.0877749525613
 20
145.5941468001208
 30
0.0
  0
SPLINE
  5
219
330
1F
100
AcDbEntity
  8
0
  6
Continuous
 62
     7
370
    15
100
AcDbSpline
210
0.0
220
0.0
230
1.0
 70
     8
 71
     3
 72
    10
 73
     6
 74
     0
 42
0.000000001
 43
0.00000001
 40
0.0
 40
0.0
 40
0.0
 40
0.0
 40
0.5
 40
0.5
 40
1.0
 40
1.0
 40
1.0
 40
1.0
 10
178.4120506833358
 20
93.85011025598234
 30
0.0
 10
178.201363002959
 20
102.4740528088128
 30
0.0
 10
177.9906980911645
 20
111.0978707619532
 30
0.0
 10
177.5689934121535
 20
128.3457169239427
 30
0.0
 10
177.3577254625197
 20
136.9697414879263
 30
0.0
 10
177.1469184464883
 20
145.5941468001208
 30
0.0
  0
LINE
  5
21A
330
1F
100
AcDbEntity
  8
0
  6
Continuous
 62
     7
370
    15
100
AcDbLine
 10
342.9581264795
 20
208.647742028
 30
0.0
 11
342.9581264795
 21
164.9194025565
 31
0.0
  0
LINE
  5
21B
330
1F
100
AcDbEntity
  8
0
  6
Continuous
 62
     7
370
    15
100
AcDbLine
 10
61.2765669196
 20
164.9194025565
 30
0.0
 11
61.2765669196
 21
208.647742028
 31
0.0
  0
SPLINE
  5
21C
330
1F
100
AcDbEntity
  8
0
  6
Continuous
 62
     7
370
    15
100
AcDbSpline
210
0.0
220
0.0
230
1.0
 70
     8
 71
     3
 72
    40
 73
    36
 74
     0
 42
0.000000001
 43
0.00000001
 40
0.0
 40
0.0
 40
0.0
 40
0.0
 40
0.0312500000000007
 40
0.0312500000000007
 40
0.0625000000000015
 40
0.0625000000000015
 40
0.0937500000000022
 40
0.0937500000000022
 40
0.1250000000000029
 40
0.1250000000000029
 40
0.1875000000000038
 40
0.1875000000000038
 40
0.2500000000000047
 40
0.2500000000000047
 40
0.3750000000000058
 40
0.3750000000000058
 40
0.5000000000000069
 40
0.5000000000000069
 40
0.562500000000006
 40
0.562500000000006
 40
0.6250000000000051
 40
0.6250000000000051
 40
0.6875000000000043
 40
0.6875000000000043
 40
0.7500000000000034
 40
0.7500000000000034
 40
0.8125000000000026
 40
0.8125000000000026
 40
0.8750000000000017
 40
0.8750000000000017
 40
0.9062500000000013
 40
0.9062500000000013
 40
0.937500000000001
 40
0.937500000000001
 40
1.0
 40
1.0
 40
1.0
 40
1.0
 10
124.4391720800217
 20
226.9021992588209
 30
0.0
 10
124.4391720800216
 20
226.7515879484542
 30
0.0
 10
124.4251436019319
 20
226.6038737563037
 30
0.0
 10
124.3712457221558
 20
226.3137819601915
 30
0.0
 10
124.3307473775946
 20
226.1700033400339
 30
0.0
 10
124.2278683159946
 20
225.8959417524418
 30
0.0
 10
124.1658415988877
 20
225.7655760068608
 30
0.0
 10
124.0234491500378
 20
225.5163896432921
 30
0.0
 10
123.9428916480323
 20
225.3976751505824
 30
0.0
 10
123.6847907478639
 20
225.0667916833867
 30
0.0
 10
123.4883423669686
 20
224.8747843790987
 30
0.0
 10
123.0619337744754
 20
224.5356377951299
 30
0.0
 10
122.8377064390968
 20
224.3929710771503
 30
0.0
 10
122.1410103337519
 20
224.0235878917074
 30
0.0
 10
121.6408014078
 20
223.854676859247
 30
0.0
 10
120.6390038231084
 20
223.6369819286085
 30
0.0
 10
120.1316020980218
 20
223.5856472704113
 30
0.0
 10
119.3618052845144
 20
223.5855381798916
 30
0.0
 10
119.1043174944151
 20
223.5987816178218
 30
0.0
 10
118.5961359936685
 20
223.651838999195
 30
0.0
 10
118.3442581212718
 20
223.6916190366122
 30
0.0
 10
117.8453219466288
 20
223.8000400770456
 30
0.0
 10
117.5982555478874
 20
223.8686325959316
 30
0.0
 10
117.1098705573644
 20
224.0402371470126
 30
0.0
 10
116.8667457964331
 20
224.1441398185865
 30
0.0
 10
116.3982235987509
 20
224.392087180754
 30
0.0
 10
116.1731272707855
 20
224.5354272213144
 30
0.0
 10
115.7474215423384
 20
224.8738513827371
 30
0.0
 10
115.550259424826
 20
225.0666768590501
 30
0.0
 10
115.2938108166011
 20
225.3949304481749
 30
0.0
 10
115.2145578721949
 20
225.5112021335986
 30
0.0
 10
115.0713646397605
 20
225.7605916505835
 30
0.0
 10
115.008269824897
 20
225.8927493396935
 30
0.0
 10
114.8539114937526
 20
226.3020058600679
 30
0.0
 10
114.795521319028
 20
226.6004134685724
 30
0.0
 10
114.7955213190279
 20
226.9021992588209
 30
0.0
  0
LINE
  5
21D
330
1F
100
AcDbEntity
  8
0
  6
Continuous
 62
     7
370
    15
100
AcDbLine
 10
114.795521319
 20
226.9021992588
 30
0.0
 11
114.795521319
 21
235.9649453256
 31
0.0
  0
SPLINE
  5
21E
330
1F
100
AcDbEntity
  8
0
  6
Continuous
 62
     7
370
    15
100
AcDbSpline
210
0.0
220
0.0
230
1.0
 70
     8
 71
     3
 72
    40
 73
    36
 74
     0
 42
0.000000001
 43
0.00000001
 40
0.0
 40
0.0
 40
0.0
 40
0.0
 40
0.0312500000000006
 40
0.0312500000000006
 40
0.0625000000000011
 40
0.0625000000000011
 40
0.0937500000000017
 40
0.0937500000000017
 40
0.1250000000000022
 40
0.1250000000000022
 40
0.1875000000000033
 40
0.1875000000000033
 40
0.2500000000000044
 40
0.2500000000000044
 40
0.3750000000000065
 40
0.3750000000000065
 40
0.5000000000000085
 40
0.5000000000000085
 40
0.5625000000000083
 40
0.5625000000000083
 40
0.6250000000000081
 40
0.6250000000000081
 40
0.6875000000000079
 40
0.6875000000000079
 40
0.7500000000000077
 40
0.7500000000000077
 40
0.8125000000000074
 40
0.8125000000000074
 40
0.8750000000000072
 40
0.8750000000000072
 40
0.9062500000000058
 40
0.9062500000000058
 40
0.9375000000000043
 40
0.9375000000000043
 40
1.0
 40
1.0
 40
1.0
 40
1.0
 10
114.795521319028
 20
235.9649453255851
 30
0.0
 10
114.7955213190224
 20
236.1155566359533
 30
0.0
 10
114.8095497971071
 20
236.2632708281058
 30
0.0
 10
114.8634476768749
 20
236.553362624223
 30
0.0
 10
114.9039460214327
 20
236.6971412443839
 30
0.0
 10
115.0068250830273
 20
236.9712028319811
 30
0.0
 10
115.0688518001322
 20
237.1015685775649
 30
0.0
 10
115.2112442489797
 20
237.3507549411395
 30
0.0
 10
115.2918017509843
 20
237.4694694338514
 30
0.0
 10
115.549902651151
 20
237.8003529010532
 30
0.0
 10
115.7463510320493
 20
237.9923602053468
 30
0.0
 10
116.1727596245428
 20
238.3315067893193
 30
0.0
 10
116.3969869599227
 20
238.4741735073007
 30
0.0
 10
117.0936830652741
 20
238.8435566927483
 30
0.0
 10
117.5938919912308
 20
239.0124677252099
 30
0.0
 10
118.59568957593
 20
239.2301626558495
 30
0.0
 10
119.1030913010222
 20
239.2814973140474
 30
0.0
 10
119.8728881145411
 20
239.281606404567
 30
0.0
 10
120.1303759046402
 20
239.2683629666366
 30
0.0
 10
120.6385574053896
 20
239.2153055852633
 30
0.0
 10
120.8904352777885
 20
239.175525547846
 30
0.0
 10
121.3893714524372
 20
239.0671045074117
 30
0.0
 10
121.6364378511822
 20
238.9985119885249
 30
0.0
 10
122.124822841714
 20
238.8269074374406
 30
0.0
 10
122.3679476026509
 20
238.7230047658635
 30
0.0
 10
122.8364698003324
 20
238.4750574036945
 30
0.0
 10
123.0615661282991
 20
238.3317173631325
 30
0.0
 10
123.4872718567513
 20
237.9932932017011
 30
0.0
 10
123.6844339742579
 20
237.8004677253903
 30
0.0
 10
123.9408825824814
 20
237.4722141362591
 30
0.0
 10
124.0201355268874
 20
237.3559424508323
 30
0.0
 10
124.1633287593212
 20
237.1065529338379
 30
0.0
 10
124.2264235741809
 20
236.9743952447285
 30
0.0
 10
124.3807819053168
 20
236.5651387243464
 30
0.0
 10
124.4391720800328
 20
236.2667311158362
 30
0.0
 10
124.4391720800217
 20
235.9649453255851
 30
0.0
  0
LINE
  5
21F
330
1F
100
AcDbEntity
  8
0
  6
Continuous
 62
     7
370
    15
100
AcDbLine
 10
124.43917208
 20
235.9649453256
 30
0.0
 11
124.43917208
 21
226.9021992588
 31
0.0
  0
LINE
  5
220
330
1F
100
AcDbEntity
  8
0
  6
Continuous
 62
     7
370
    15
100
AcDbLine
 10
112.6173466995
 20
222.9335722922
 30
0.0
 11
141.6173466995
 21
222.9335722922
 31
0.0
  0
LINE
  5
221
330
1F
100
AcDbEntity
  8
0
  6
Continuous
 62
     7
370
    15
100
AcDbLine
 10
139.43917208
 20
226.9021992588
 30
0.0
 11
142.1173466995
 21
226.9021992588
 31
0.0
  0
SPLINE
  5
222
330
1F
100
AcDbEntity
  8
0
  6
Continuous
 62
     7
370
    15
100
AcDbSpline
210
0.0
220
0.0
230
1.0
 70
    24
 71
     3
 72
    14
 73
    10
 74
     0
 42
0.000000001
 43
0.00000001
 40
0.0
 40
0.0
 40
0.0
 40
0.0
 40
0.033530860130019
 40
0.2440146374371176
 40
0.4608732413897887
 40
0.6414226157562756
 40
0.8236897832047918
 40
0.9314096724265136
 40
1.0
 40
1.0
 40
1.0
 40
1.0
 10
142.1173466995248
 20
223.6190422953752
 30
0.0
 10
142.1173466995248
 20
223.607561639356
 30
0.0
 10
142.1173466995248
 20
223.5240132870263
 30
0.0
 10
142.1173466995248
 20
223.7274340539933
 30
0.0
 10
142.1173466995248
 20
224.0747070836403
 30
0.0
 10
142.1173466995248
 20
224.7250509225418
 30
0.0
 10
142.1173466995248
 20
225.5272390857311
 30
0.0
 10
142.1173466995248
 20
226.3213226957197
 30
0.0
 10
142.1173466995248
 20
226.7395107117391
 30
0.0
 10
142.1173466995248
 20
226.9021992588209
 30
0.0
  0
SPLINE
  5
223
330
1F
100
AcDbEntity
  8
0
  6
Continuous
 62
     7
370
    15
100
AcDbSpline
210
0.0
220
0.0
230
1.0
 70
    24
 71
     3
 72
    22
 73
    18
 74
     0
 42
0.000000001
 43
0.00000001
 40
0.0
 40
0.0
 40
0.0
 40
0.0
 40
0.0625000000000007
 40
0.0625000000000007
 40
0.1250000000000015
 40
0.1250000000000015
 40
0.1875000000000022
 40
0.1875000000000022
 40
0.2500000000000029
 40
0.2500000000000029
 40
0.3750000000000024
 40
0.3750000000000024
 40
0.500000000000002
 40
0.500000000000002
 40
0.750000000000001
 40
0.750000000000001
 40
1.0
 40
1.0
 40
1.0
 40
1.0
 10
112.1173466995248
 20
226.9021992588209
 30
0.0
 10
112.1173466995248
 20
226.7516714748853
 30
0.0
 10
112.1173466995248
 20
226.6040376145859
 30
0.0
 10
112.1173466995248
 20
226.3141007465609
 30
0.0
 10
112.1173466995248
 20
226.1703982192231
 30
0.0
 10
112.1173466995248
 20
225.8964588617262
 30
0.0
 10
112.1173466995248
 20
225.766148167012
 30
0.0
 10
112.1173466995248
 20
225.5170613297688
 30
0.0
 10
112.1173466995248
 20
225.3983809251824
 30
0.0
 10
112.1173466995248
 20
225.0675824890722
 30
0.0
 10
112.1173466995248
 20
224.8756283042225
 30
0.0
 10
112.1173466995248
 20
224.5364870897318
 30
0.0
 10
112.1173466995248
 20
224.3938111608819
 30
0.0
 10
112.1173466995248
 20
224.0243668521016
 30
0.0
 10
112.1173466995248
 20
223.8553453995409
 30
0.0
 10
112.1173466995248
 20
223.6371615329186
 30
0.0
 10
112.1173466995248
 20
223.5855744684659
 30
0.0
 10
112.1173466995248
 20
223.5855744684659
 30
0.0
  0
LINE
  5
224
330
1F
100
AcDbEntity
  8
0
  6
Continuous
 62
     7
370
    15
100
AcDbLine
 10
112.1173466995
 20
226.9021992588
 30
0.0
 11
114.795521319
 21
226.9021992588
 31
0.0
  0
LINE
  5
225
330
1F
100
AcDbEntity
  8
0
  6
Continuous
 62
     7
370
    15
100
AcDbLine
 10
124.43917208
 20
226.9021992588
 30
0.0
 11
129.795521319
 21
226.9021992588
 31
0.0
  0
SPLINE
  5
226
330
1F
100
AcDbEntity
  8
0
  6
Continuous
 62
     7
370
    15
100
AcDbSpline
210
0.0
220
0.0
230
1.0
 70
     8
 71
     3
 72
    40
 73
    36
 74
     0
 42
0.000000001
 43
0.00000001
 40
0.0
 40
0.0
 40
0.0
 40
0.0
 40
0.0312499999999994
 40
0.0312499999999994
 40
0.0624999999999988
 40
0.0624999999999988
 40
0.0937499999999982
 40
0.0937499999999982
 40
0.1249999999999976
 40
0.1249999999999976
 40
0.1874999999999974
 40
0.1874999999999974
 40
0.2499999999999973
 40
0.2499999999999973
 40
0.3749999999999976
 40
0.3749999999999976
 40
0.499999999999998
 40
0.499999999999998
 40
0.5624999999999982
 40
0.5624999999999982
 40
0.6249999999999984
 40
0.6249999999999984
 40
0.6874999999999987
 40
0.6874999999999987
 40
0.7499999999999989
 40
0.7499999999999989
 40
0.8124999999999991
 40
0.8124999999999991
 40
0.8749999999999993
 40
0.8749999999999993
 40
0.9062499999999997
 40
0.9062499999999997
 40
0.9375000000000001
 40
0.9375000000000001
 40
1.0
 40
1.0
 40
1.0
 40
1.0
 10
139.4391720800214
 20
226.9021992588209
 30
0.0
 10
139.4391720800214
 20
226.7515879484542
 30
0.0
 10
139.4251436019317
 20
226.6038737563037
 30
0.0
 10
139.3712457221555
 20
226.3137819601915
 30
0.0
 10
139.3307473775944
 20
226.1700033400339
 30
0.0
 10
139.2278683159943
 20
225.8959417524419
 30
0.0
 10
139.1658415988875
 20
225.7655760068609
 30
0.0
 10
139.0234491500375
 20
225.5163896432921
 30
0.0
 10
138.942891648032
 20
225.3976751505824
 30
0.0
 10
138.6847907478637
 20
225.0667916833868
 30
0.0
 10
138.4883423669684
 20
224.8747843790988
 30
0.0
 10
138.0619337744752
 20
224.53563779513
 30
0.0
 10
137.8377064390966
 20
224.3929710771504
 30
0.0
 10
137.1410103337518
 20
224.0235878917076
 30
0.0
 10
136.6408014077998
 20
223.8546768592471
 30
0.0
 10
135.6390038231083
 20
223.6369819286087
 30
0.0
 10
135.1316020980218
 20
223.5856472704115
 30
0.0
 10
134.3618052845144
 20
223.5855381798917
 30
0.0
 10
134.104317494415
 20
223.5987816178219
 30
0.0
 10
133.5961359936685
 20
223.6518389991951
 30
0.0
 10
133.3442581212718
 20
223.6916190366123
 30
0.0
 10
132.8453219466288
 20
223.8000400770457
 30
0.0
 10
132.5982555478874
 20
223.8686325959317
 30
0.0
 10
132.1098705573645
 20
224.0402371470127
 30
0.0
 10
131.8667457964332
 20
224.1441398185866
 30
0.0
 10
131.3982235987511
 20
224.3920871807541
 30
0.0
 10
131.1731272707856
 20
224.5354272213145
 30
0.0
 10
130.7474215423386
 20
224.8738513827372
 30
0.0
 10
130.5502594248261
 20
225.0666768590502
 30
0.0
 10
130.2938108166013
 20
225.394930448175
 30
0.0
 10
130.2145578721951
 20
225.5112021335987
 30
0.0
 10
130.0713646397606
 20
225.7605916505835
 30
0.0
 10
130.0082698248971
 20
225.8927493396936
 30
0.0
 10
129.8539114937529
 20
226.302005860068
 30
0.0
 10
129.7955213190282
 20
226.6004134685724
 30
0.0
 10
129.795521319028
 20
226.9021992588209
 30
0.0
  0
LINE
  5
227
330
1F
100
AcDbEntity
  8
0
  6
Continuous
 62
     7
370
    15
100
AcDbLine
 10
129.795521319
 20
226.9021992588
 30
0.0
 11
129.795521319
 21
235.9649453256
 31
0.0
  0
SPLINE
  5
228
330
1F
100
AcDbEntity
  8
0
  6
Continuous
 62
     7
370
    15
100
AcDbSpline
210
0.0
220
0.0
230
1.0
 70
     8
 71
     3
 72
    40
 73
    36
 74
     0
 42
0.000000001
 43
0.00000001
 40
0.0
 40
0.0
 40
0.0
 40
0.0
 40
0.0312500000000006
 40
0.0312500000000006
 40
0.0625000000000012
 40
0.0625000000000012
 40
0.0937500000000018
 40
0.0937500000000018
 40
0.1250000000000024
 40
0.1250000000000024
 40
0.1875000000000021
 40
0.1875000000000021
 40
0.2500000000000017
 40
0.2500000000000017
 40
0.375000000000001
 40
0.375000000000001
 40
0.5000000000000003
 40
0.5000000000000003
 40
0.5624999999999999
 40
0.5624999999999999
 40
0.6249999999999994
 40
0.6249999999999994
 40
0.687499999999999
 40
0.687499999999999
 40
0.7499999999999984
 40
0.7499999999999984
 40
0.812499999999998
 40
0.812499999999998
 40
0.8749999999999976
 40
0.8749999999999976
 40
0.9062499999999979
 40
0.9062499999999979
 40
0.9374999999999981
 40
0.9374999999999981
 40
1.0
 40
1.0
 40
1.0
 40
1.0
 10
129.795521319028
 20
235.9649453255851
 30
0.0
 10
129.7955213190224
 20
236.1155566359533
 30
0.0
 10
129.8095497971071
 20
236.2632708281058
 30
0.0
 10
129.863447676875
 20
236.553362624223
 30
0.0
 10
129.9039460214327
 20
236.6971412443838
 30
0.0
 10
130.0068250830273
 20
236.9712028319811
 30
0.0
 10
130.0688518001322
 20
237.1015685775649
 30
0.0
 10
130.2112442489797
 20
237.3507549411395
 30
0.0
 10
130.2918017509843
 20
237.4694694338514
 30
0.0
 10
130.549902651151
 20
237.8003529010532
 30
0.0
 10
130.7463510320493
 20
237.9923602053468
 30
0.0
 10
131.1727596245428
 20
238.3315067893193
 30
0.0
 10
131.3969869599227
 20
238.4741735073006
 30
0.0
 10
132.0936830652741
 20
238.8435566927483
 30
0.0
 10
132.5938919912308
 20
239.0124677252098
 30
0.0
 10
133.5956895759299
 20
239.2301626558495
 30
0.0
 10
134.1030913010222
 20
239.2814973140474
 30
0.0
 10
134.8728881145411
 20
239.2816064045669
 30
0.0
 10
135.1303759046402
 20
239.2683629666366
 30
0.0
 10
135.6385574053896
 20
239.2153055852633
 30
0.0
 10
135.8904352777885
 20
239.175525547846
 30
0.0
 10
136.3893714524372
 20
239.0671045074117
 30
0.0
 10
136.6364378511822
 20
238.9985119885249
 30
0.0
 10
137.1248228417139
 20
238.8269074374406
 30
0.0
 10
137.3679476026508
 20
238.7230047658634
 30
0.0
 10
137.8364698003323
 20
238.4750574036945
 30
0.0
 10
138.0615661282991
 20
238.3317173631325
 30
0.0
 10
138.4872718567513
 20
237.9932932017011
 30
0.0
 10
138.6844339742578
 20
237.8004677253903
 30
0.0
 10
138.9408825824813
 20
237.4722141362591
 30
0.0
 10
139.0201355268873
 20
237.3559424508323
 30
0.0
 10
139.1633287593212
 20
237.1065529338379
 30
0.0
 10
139.2264235741808
 20
236.9743952447285
 30
0.0
 10
139.3807819053167
 20
236.5651387243463
 30
0.0
 10
139.4391720800328
 20
236.2667311158362
 30
0.0
 10
139.4391720800216
 20
235.9649453255851
 30
0.0
  0
LINE
  5
229
330
1F
100
AcDbEntity
  8
0
  6
Continuous
 62
     7
370
    15
100
AcDbLine
 10
139.43917208
 20
235.9649453256
 30
0.0
 11
139.43917208
 21
226.9021992588
 31
0.0
  0
LINE
  5
22A
330
1F
100
AcDbEntity
  8
0
  6
Continuous
 62
     7
370
    15
100
AcDbLine
 10
124.43917208
 20
235.9649453256
 30
0.0
 11
129.795521319
 21
235.9649453256
 31
0.0
  0
LINE
  5
22B
330
1F
100
AcDbEntity
  8
0
  6
Continuous
 62
     7
370
    15
100
AcDbLine
 10
112.1173466995
 20
235.9649453256
 30
0.0
 11
114.795521319
 21
235.9649453256
 31
0.0
  0
SPLINE
  5
22C
330
1F
100
AcDbEntity
  8
0
  6
Continuous
 62
     7
370
    15
100
AcDbSpline
210
0.0
220
0.0
230
1.0
 70
    24
 71
     3
 72
    22
 73
    18
 74
     0
 42
0.000000001
 43
0.00000001
 40
0.0
 40
0.0
 40
0.0
 40
0.0
 40
0.2499999999999994
 40
0.2499999999999994
 40
0.3749999999999991
 40
0.3749999999999991
 40
0.4999999999999987
 40
0.4999999999999987
 40
0.6249999999999983
 40
0.6249999999999983
 40
0.7499999999999979
 40
0.7499999999999979
 40
0.8749999999999976
 40
0.8749999999999976
 40
0.9374999999999987
 40
0.9374999999999987
 40
1.0
 40
1.0
 40
1.0
 40
1.0
 10
112.1173466995248
 20
239.2815701159926
 30
0.0
 10
112.1173466995248
 20
239.2815701159926
 30
0.0
 10
112.1173466995248
 20
239.2299297829492
 30
0.0
 10
112.1173466995249
 20
239.0672689833073
 30
0.0
 10
112.1173466995248
 20
238.9985845919069
 30
0.0
 10
112.1173466995248
 20
238.8262876075011
 30
0.0
 10
112.1173466995248
 20
238.7219604398957
 30
0.0
 10
112.1173466995248
 20
238.4744516381552
 30
0.0
 10
112.1173466995248
 20
238.3309132029025
 30
0.0
 10
112.1173466995248
 20
237.9916599375031
 30
0.0
 10
112.1173466995248
 20
237.8008276565054
 30
0.0
 10
112.1173466995248
 20
237.363161026372
 30
0.0
 10
112.1173466995248
 20
237.1108216282541
 30
0.0
 10
112.1173466995248
 20
236.701517792358
 30
0.0
 10
112.1173466995248
 20
236.5580812644754
 30
0.0
 10
112.1173466995248
 20
236.2646066002719
 30
0.0
 10
112.1173466995248
 20
236.1158436396749
 30
0.0
 10
112.1173466995248
 20
235.9649453255851
 30
0.0
  0
SPLINE
  5
22D
330
1F
100
AcDbEntity
  8
0
  6
Continuous
 62
     7
370
    15
100
AcDbSpline
210
0.0
220
0.0
230
1.0
 70
    24
 71
     3
 72
    12
 73
     8
 74
     0
 42
0.000000001
 43
0.00000001
 40
0.0
 40
0.0
 40
0.0
 40
0.0
 40
0.1057452640192233
 40
0.2110374577976494
 40
0.3724809531898905
 40
0.6244443968619174
 40
1.0
 40
1.0
 40
1.0
 40
1.0
 10
142.1173466995248
 20
235.9649453255851
 30
0.0
 10
142.1173466995248
 20
236.2153418930558
 30
0.0
 10
142.1173466995248
 20
236.7150621928762
 30
0.0
 10
142.1173466995248
 20
237.4921466380613
 30
0.0
 10
142.1173466995248
 20
238.3257456692379
 30
0.0
 10
142.1173466995248
 20
239.1159981931879
 30
0.0
 10
142.1173466995248
 20
239.198633326206
 30
0.0
 10
142.1173466995248
 20
239.248088537771
 30
0.0
  0
LINE
  5
22E
330
1F
100
AcDbEntity
  8
0
  6
Continuous
 62
     7
370
    15
100
AcDbLine
 10
139.43917208
 20
235.9649453256
 30
0.0
 11
142.1173466995
 21
235.9649453256
 31
0.0
  0
SPLINE
  5
22F
330
1F
100
AcDbEntity
  8
0
  6
Continuous
 62
     7
370
    15
100
AcDbSpline
210
0.0
220
0.0
230
1.0
 70
     8
 71
     3
 72
    40
 73
    36
 74
     0
 42
0.000000001
 43
0.00000001
 40
0.0
 40
0.0
 40
0.0
 40
0.0
 40
0.0312500000000012
 40
0.0312500000000012
 40
0.0625000000000025
 40
0.0625000000000025
 40
0.0937500000000037
 40
0.0937500000000037
 40
0.1250000000000049
 40
0.1250000000000049
 40
0.1875000000000062
 40
0.1875000000000062
 40
0.2500000000000076
 40
0.2500000000000076
 40
0.3750000000000082
 40
0.3750000000000082
 40
0.5000000000000089
 40
0.5000000000000089
 40
0.5625000000000078
 40
0.5625000000000078
 40
0.6250000000000067
 40
0.6250000000000067
 40
0.6875000000000056
 40
0.6875000000000056
 40
0.7500000000000044
 40
0.7500000000000044
 40
0.8125000000000034
 40
0.8125000000000034
 40
0.8750000000000023
 40
0.8750000000000023
 40
0.9062500000000018
 40
0.9062500000000018
 40
0.9375000000000012
 40
0.9375000000000012
 40
1.0
 40
1.0
 40
1.0
 40
1.0
 10
282.6851110623549
 20
226.9021992588208
 30
0.0
 10
282.6851110623548
 20
226.7515879484541
 30
0.0
 10
282.6689123711521
 20
226.6038737563037
 30
0.0
 10
282.606676460357
 20
226.3137819601915
 30
0.0
 10
282.5599130000888
 20
226.1700033400339
 30
0.0
 10
282.4411184922713
 20
225.8959417524418
 30
0.0
 10
282.3694962086341
 20
225.7655760068609
 30
0.0
 10
282.205075571286
 20
225.5163896432921
 30
0.0
 10
282.1120557803497
 20
225.3976751505824
 30
0.0
 10
281.8140265319691
 20
225.0667916833868
 30
0.0
 10
281.5871874807856
 20
224.8747843790988
 30
0.0
 10
281.0948132494642
 20
224.53563779513
 30
0.0
 10
280.8358978245833
 20
224.3929710771504
 30
0.0
 10
280.0314224566549
 20
224.0235878917076
 30
0.0
 10
279.453830940556
 20
223.8546768592471
 30
0.0
 10
278.2970547301657
 20
223.6369819286087
 30
0.0
 10
277.7111576850338
 20
223.5856472704114
 30
0.0
 10
276.8222728900341
 20
223.5855381798917
 30
0.0
 10
276.5249516001803
 20
223.5987816178219
 30
0.0
 10
275.938154147674
 20
223.6518389991951
 30
0.0
 10
275.6473106328116
 20
223.6916190366123
 30
0.0
 10
275.0711887633345
 20
223.8000400770457
 30
0.0
 10
274.7859010596924
 20
223.8686325959317
 30
0.0
 10
274.2219626481993
 20
224.0402371470127
 30
0.0
 10
273.9412263558585
 20
224.1441398185866
 30
0.0
 10
273.4002235219524
 20
224.3920871807541
 30
0.0
 10
273.1403046708635
 20
224.5354272213145
 30
0.0
 10
272.6487420370347
 20
224.8738513827371
 30
0.0
 10
272.421078833795
 20
225.0666768590502
 30
0.0
 10
272.1249574878112
 20
225.394930448175
 30
0.0
 10
272.0334440702372
 20
225.5112021335986
 30
0.0
 10
271.8680987676528
 20
225.7605916505835
 30
0.0
 10
271.795243150961
 20
225.8927493396935
 30
0.0
 10
271.6170055028855
 20
226.3020058600679
 30
0.0
 10
271.5495823366948
 20
226.6004134685724
 30
0.0
 10
271.5495823366947
 20
226.9021992588208
 30
0.0
  0
LINE
  5
230
330
1F
100
AcDbEntity
  8
0
  6
Continuous
 62
     7
370
    15
100
AcDbLine
 10
271.5495823367
 20
226.9021992588
 30
0.0
 11
271.5495823367
 21
235.9649453256
 31
0.0
  0
SPLINE
  5
231
330
1F
100
AcDbEntity
  8
0
  6
Continuous
 62
     7
370
    15
100
AcDbSpline
210
0.0
220
0.0
230
1.0
 70
     8
 71
     3
 72
    40
 73
    36
 74
     0
 42
0.000000001
 43
0.00000001
 40
0.0
 40
0.0
 40
0.0
 40
0.0
 40
0.0312500000000001
 40
0.0312500000000001
 40
0.0625000000000001
 40
0.0625000000000001
 40
0.0937500000000002
 40
0.0937500000000002
 40
0.1250000000000003
 40
0.1250000000000003
 40
0.1874999999999985
 40
0.1874999999999985
 40
0.2499999999999967
 40
0.2499999999999967
 40
0.3749999999999951
 40
0.3749999999999951
 40
0.4999999999999934
 40
0.4999999999999934
 40
0.5624999999999941
 40
0.5624999999999941
 40
0.6249999999999948
 40
0.6249999999999948
 40
0.6874999999999956
 40
0.6874999999999956
 40
0.7499999999999962
 40
0.7499999999999962
 40
0.8124999999999969
 40
0.8124999999999969
 40
0.8749999999999976
 40
0.8749999999999976
 40
0.9062499999999979
 40
0.9062499999999979
 40
0.9374999999999982
 40
0.9374999999999982
 40
1.0
 40
1.0
 40
1.0
 40
1.0
 10
271.5495823366946
 20
235.9649453255851
 30
0.0
 10
271.5495823366882
 20
236.1155566359532
 30
0.0
 10
271.5657810278851
 20
236.2632708281057
 30
0.0
 10
271.6280169386706
 20
236.5533626242229
 30
0.0
 10
271.6747803989349
 20
236.6971412443837
 30
0.0
 10
271.7935749067461
 20
236.971202831981
 30
0.0
 10
271.865197190381
 20
237.1015685775648
 30
0.0
 10
272.0296178277264
 20
237.3507549411394
 30
0.0
 10
272.1226376186615
 20
237.4694694338513
 30
0.0
 10
272.4206668670403
 20
237.8003529010531
 30
0.0
 10
272.6475059182272
 20
237.9923602053467
 30
0.0
 10
273.139880149549
 20
238.3315067893191
 30
0.0
 10
273.3987955744315
 20
238.4741735073005
 30
0.0
 10
274.2032709423675
 20
238.8435566927481
 30
0.0
 10
274.7808624584719
 20
239.0124677252097
 30
0.0
 10
275.9376386688708
 20
239.2301626558493
 30
0.0
 10
276.5235357140094
 20
239.2814973140472
 30
0.0
 10
277.4124205090222
 20
239.2816064045668
 30
0.0
 10
277.7097417988758
 20
239.2683629666365
 30
0.0
 10
278.2965392513855
 20
239.2153055852631
 30
0.0
 10
278.5873827662503
 20
239.1755255478458
 30
0.0
 10
279.1635046357341
 20
239.0671045074116
 30
0.0
 10
279.4487923393803
 20
238.9985119885248
 30
0.0
 10
280.0127307508836
 20
238.8269074374404
 30
0.0
 10
280.2934670432308
 20
238.7230047658633
 30
0.0
 10
280.8344698771362
 20
238.4750574036943
 30
0.0
 10
281.0943887282266
 20
238.3317173631324
 30
0.0
 10
281.5859513620615
 20
237.9932932017009
 30
0.0
 10
281.8136145652943
 20
237.8004677253902
 30
0.0
 10
282.1097359112766
 20
237.472214136259
 30
0.0
 10
282.2012493288503
 20
237.3559424508322
 30
0.0
 10
282.3665946314339
 20
237.1065529338379
 30
0.0
 10
282.4394502481213
 20
236.9743952447284
 30
0.0
 10
282.6176878961872
 20
236.5651387243463
 30
0.0
 10
282.6851110623679
 20
236.2667311158361
 30
0.0
 10
282.6851110623551
 20
235.9649453255851
 30
0.0
  0
LINE
  5
232
330
1F
100
AcDbEntity
  8
0
  6
Continuous
 62
     7
370
    15
100
AcDbLine
 10
282.6851110624
 20
235.9649453256
 30
0.0
 11
282.6851110624
 21
226.9021992588
 31
0.0
  0
SPLINE
  5
233
330
1F
100
AcDbEntity
  8
0
  6
Continuous
 62
     7
370
    15
100
AcDbSpline
210
0.0
220
0.0
230
1.0
 70
     8
 71
     3
 72
    40
 73
    36
 74
     0
 42
0.000000001
 43
0.00000001
 40
0.0
 40
0.0
 40
0.0
 40
0.0
 40
0.0312499999999997
 40
0.0312499999999997
 40
0.0624999999999994
 40
0.0624999999999994
 40
0.0937499999999991
 40
0.0937499999999991
 40
0.1249999999999988
 40
0.1249999999999988
 40
0.1874999999999984
 40
0.1874999999999984
 40
0.2499999999999981
 40
0.2499999999999981
 40
0.3749999999999969
 40
0.3749999999999969
 40
0.4999999999999959
 40
0.4999999999999959
 40
0.5624999999999962
 40
0.5624999999999962
 40
0.6249999999999964
 40
0.6249999999999964
 40
0.6874999999999968
 40
0.6874999999999968
 40
0.749999999999997
 40
0.749999999999997
 40
0.8124999999999973
 40
0.8124999999999973
 40
0.8749999999999977
 40
0.8749999999999977
 40
0.9062499999999982
 40
0.9062499999999982
 40
0.9374999999999988
 40
0.9374999999999988
 40
1.0
 40
1.0
 40
1.0
 40
1.0
 10
287.3238455748762
 20
235.9649453255851
 30
0.0
 10
287.3238455748731
 20
236.1155566359533
 30
0.0
 10
287.3319449204715
 20
236.2632708281057
 30
0.0
 10
287.3630628758642
 20
236.553362624223
 30
0.0
 10
287.3864446059964
 20
236.6971412443837
 30
0.0
 10
287.445841859902
 20
236.971202831981
 30
0.0
 10
287.4816530017195
 20
237.1015685775649
 30
0.0
 10
287.5638633203922
 20
237.3507549411395
 30
0.0
 10
287.6103732158597
 20
237.4694694338513
 30
0.0
 10
287.759387840049
 20
237.8003529010532
 30
0.0
 10
287.8728073656426
 20
237.9923602053468
 30
0.0
 10
288.1189944813034
 20
238.3315067893191
 30
0.0
 10
288.2484521937448
 20
238.4741735073005
 30
0.0
 10
288.6506898777127
 20
238.8435566927482
 30
0.0
 10
288.9394856357649
 20
239.0124677252097
 30
0.0
 10
289.5178737409644
 20
239.2301626558494
 30
0.0
 10
289.8108222635337
 20
239.2814973140473
 30
0.0
 10
290.2552646610401
 20
239.2816064045668
 30
0.0
 10
290.4039253059669
 20
239.2683629666365
 30
0.0
 10
290.6973240322217
 20
239.2153055852632
 30
0.0
 10
290.8427457896541
 20
239.1755255478459
 30
0.0
 10
291.1308067243961
 20
239.0671045074116
 30
0.0
 10
291.2734505762191
 20
238.9985119885249
 30
0.0
 10
291.5554197819708
 20
238.8269074374404
 30
0.0
 10
291.6957879281444
 20
238.7230047658633
 30
0.0
 10
291.9662893450971
 20
238.4750574036944
 30
0.0
 10
292.0962487706423
 20
238.3317173631324
 30
0.0
 10
292.3420300875597
 20
237.993293201701
 30
0.0
 10
292.4558616891761
 20
237.8004677253903
 30
0.0
 10
292.6039223621673
 20
237.472214136259
 30
0.0
 10
292.6496790709542
 20
237.3559424508323
 30
0.0
 10
292.732351722246
 20
237.1065529338379
 30
0.0
 10
292.7687795305897
 20
236.9743952447284
 30
0.0
 10
292.8578983546226
 20
236.5651387243463
 30
0.0
 10
292.891609937713
 20
236.2667311158361
 30
0.0
 10
292.8916099377065
 20
235.9649453255851
 30
0.0
  0
LINE
  5
234
330
1F
100
AcDbEntity
  8
0
  6
Continuous
 62
     7
370
    15
100
AcDbLine
 10
282.6851110624
 20
235.9649453256
 30
0.0
 11
287.3238455749
 21
235.9649453256
 31
0.0
  0
LINE
  5
235
330
1F
100
AcDbEntity
  8
0
  6
Continuous
 62
     7
370
    15
100
AcDbLine
 10
266.9108478242
 20
235.9649453256
 30
0.0
 11
271.5495823367
 21
235.9649453256
 31
0.0
  0
SPLINE
  5
236
330
1F
100
AcDbEntity
  8
0
  6
Continuous
 62
     7
370
    15
100
AcDbSpline
210
0.0
220
0.0
230
1.0
 70
     8
 71
     3
 72
    40
 73
    36
 74
     0
 42
0.000000001
 43
0.00000001
 40
0.0
 40
0.0
 40
0.0
 40
0.0
 40
0.0312500000000004
 40
0.0312500000000004
 40
0.0625000000000008
 40
0.0625000000000008
 40
0.0937500000000012
 40
0.0937500000000012
 40
0.1250000000000016
 40
0.1250000000000016
 40
0.187500000000002
 40
0.187500000000002
 40
0.2500000000000023
 40
0.2500000000000023
 40
0.3750000000000028
 40
0.3750000000000028
 40
0.5000000000000034
 40
0.5000000000000034
 40
0.5625000000000037
 40
0.5625000000000037
 40
0.6250000000000031
 40
0.6250000000000031
 40
0.6875000000000027
 40
0.6875000000000027
 40
0.7500000000000021
 40
0.7500000000000021
 40
0.8125000000000016
 40
0.8125000000000016
 40
0.875000000000001
 40
0.875000000000001
 40
0.9062500000000008
 40
0.9062500000000008
 40
0.9375000000000006
 40
0.9375000000000006
 40
1.0
 40
1.0
 40
1.0
 40
1.0
 10
261.343083461343
 20
235.9649453255851
 30
0.0
 10
261.3430834613399
 20
236.1155566359533
 30
0.0
 10
261.3511828069384
 20
236.2632708281058
 30
0.0
 10
261.3823007623311
 20
236.553362624223
 30
0.0
 10
261.4056824924632
 20
236.6971412443838
 30
0.0
 10
261.4650797463689
 20
236.9712028319811
 30
0.0
 10
261.5008908881863
 20
237.1015685775649
 30
0.0
 10
261.5831012068589
 20
237.3507549411395
 30
0.0
 10
261.6296111023265
 20
237.4694694338513
 30
0.0
 10
261.7786257265159
 20
237.8003529010532
 30
0.0
 10
261.8920452521094
 20
237.9923602053468
 30
0.0
 10
262.1382323677703
 20
238.3315067893192
 30
0.0
 10
262.2676900802115
 20
238.4741735073006
 30
0.0
 10
262.6699277641796
 20
238.8435566927482
 30
0.0
 10
262.9587235222317
 20
239.0124677252098
 30
0.0
 10
263.5371116274312
 20
239.2301626558494
 30
0.0
 10
263.8300601500005
 20
239.2814973140473
 30
0.0
 10
264.2745025475069
 20
239.2816064045669
 30
0.0
 10
264.4231631924337
 20
239.2683629666365
 30
0.0
 10
264.7165619186886
 20
239.2153055852632
 30
0.0
 10
264.861983676121
 20
239.1755255478459
 30
0.0
 10
265.1500446108629
 20
239.0671045074116
 30
0.0
 10
265.292688462686
 20
238.9985119885248
 30
0.0
 10
265.5746576684377
 20
238.8269074374404
 30
0.0
 10
265.7150258146112
 20
238.7230047658634
 30
0.0
 10
265.985527231564
 20
238.4750574036944
 30
0.0
 10
266.1154866571092
 20
238.3317173631324
 30
0.0
 10
266.3612679740266
 20
237.993293201701
 30
0.0
 10
266.475099575643
 20
237.8004677253903
 30
0.0
 10
266.6231602486341
 20
237.472214136259
 30
0.0
 10
266.668916957421
 20
237.3559424508323
 30
0.0
 10
266.7515896087129
 20
237.1065529338379
 30
0.0
 10
266.7880174170565
 20
236.9743952447284
 30
0.0
 10
266.8771362410895
 20
236.5651387243463
 30
0.0
 10
266.9108478241798
 20
236.2667311158361
 30
0.0
 10
266.9108478241734
 20
235.9649453255851
 30
0.0
  0
LINE
  5
237
330
1F
100
AcDbEntity
  8
0
  6
Continuous
 62
     7
370
    15
100
AcDbLine
 10
282.6851110624
 20
226.9021992588
 30
0.0
 11
287.3238455749
 21
226.9021992588
 31
0.0
  0
LINE
  5
238
330
1F
100
AcDbEntity
  8
0
  6
Continuous
 62
     7
370
    15
100
AcDbLine
 10
287.3238455749
 20
226.9021992588
 30
0.0
 11
287.3238455749
 21
235.9649453256
 31
0.0
  0
LINE
  5
239
330
1F
100
AcDbEntity
  8
0
  6
Continuous
 62
     7
370
    15
100
AcDbLine
 10
266.9108478242
 20
226.9021992588
 30
0.0
 11
271.5495823367
 21
226.9021992588
 31
0.0
  0
LINE
  5
23A
330
1F
100
AcDbEntity
  8
0
  6
Continuous
 62
     7
370
    15
100
AcDbLine
 10
266.9108478242
 20
235.9649453256
 30
0.0
 11
266.9108478242
 21
226.9021992588
 31
0.0
  0
LINE
  5
23B
330
1F
100
AcDbEntity
  8
0
  6
Continuous
 62
     7
370
    15
100
AcDbLine
 10
262.6173466995
 20
222.9335722922
 30
0.0
 11
291.6173466995
 21
222.9335722922
 31
0.0
  0
SPLINE
  5
23C
330
1F
100
AcDbEntity
  8
0
  6
Continuous
 62
     7
370
    15
100
AcDbSpline
210
0.0
220
0.0
230
1.0
 70
     8
 71
     3
 72
    40
 73
    36
 74
     0
 42
0.000000001
 43
0.00000001
 40
0.0
 40
0.0
 40
0.0
 40
0.0
 40
0.0312499999999999
 40
0.0312499999999999
 40
0.0624999999999997
 40
0.0624999999999997
 40
0.0937499999999996
 40
0.0937499999999996
 40
0.1249999999999994
 40
0.1249999999999994
 40
0.1874999999999992
 40
0.1874999999999992
 40
0.2499999999999988
 40
0.2499999999999988
 40
0.3749999999999997
 40
0.3749999999999997
 40
0.5000000000000004
 40
0.5000000000000004
 40
0.5624999999999999
 40
0.5624999999999999
 40
0.6249999999999994
 40
0.6249999999999994
 40
0.6874999999999989
 40
0.6874999999999989
 40
0.7499999999999984
 40
0.7499999999999984
 40
0.8124999999999979
 40
0.8124999999999979
 40
0.8749999999999974
 40
0.8749999999999974
 40
0.9062499999999981
 40
0.9062499999999981
 40
0.9374999999999987
 40
0.9374999999999987
 40
1.0
 40
1.0
 40
1.0
 40
1.0
 10
292.8916099377065
 20
226.9021992588209
 30
0.0
 10
292.8916099377064
 20
226.7515879484542
 30
0.0
 10
292.8835105921052
 20
226.6038737563037
 30
0.0
 10
292.8523926367076
 20
226.3137819601915
 30
0.0
 10
292.8290109065735
 20
226.1700033400339
 30
0.0
 10
292.7696136526647
 20
225.8959417524419
 30
0.0
 10
292.7338025108461
 20
225.7655760068609
 30
0.0
 10
292.6515921921721
 20
225.5163896432921
 30
0.0
 10
292.6050822967039
 20
225.3976751505824
 30
0.0
 10
292.4560676725137
 20
225.0667916833868
 30
0.0
 10
292.3426481469219
 20
224.8747843790988
 30
0.0
 10
292.0964610312612
 20
224.53563779513
 30
0.0
 10
291.9670033188207
 20
224.3929710771504
 30
0.0
 10
291.5647656348565
 20
224.0235878917076
 30
0.0
 10
291.275969876807
 20
223.8546768592471
 30
0.0
 10
290.6975817716119
 20
223.6369819286086
 30
0.0
 10
290.4046332490458
 20
223.5856472704114
 30
0.0
 10
289.9601908515461
 20
223.5855381798917
 30
0.0
 10
289.8115302066192
 20
223.5987816178219
 30
0.0
 10
289.518131480366
 20
223.6518389991951
 30
0.0
 10
289.3727097229348
 20
223.6916190366123
 30
0.0
 10
289.0846487881963
 20
223.8000400770457
 30
0.0
 10
288.9420049363752
 20
223.8686325959317
 30
0.0
 10
288.6600357306286
 20
224.0402371470127
 30
0.0
 10
288.5196675844583
 20
224.1441398185866
 30
0.0
 10
288.2491661675052
 20
224.3920871807541
 30
0.0
 10
288.1192067419608
 20
224.5354272213145
 30
0.0
 10
287.8734254250463
 20
224.8738513827371
 30
0.0
 10
287.7595938234264
 20
225.0666768590502
 30
0.0
 10
287.6115331504345
 20
225.394930448175
 30
0.0
 10
287.5657764416476
 20
225.5112021335987
 30
0.0
 10
287.4831037903554
 20
225.7605916505835
 30
0.0
 10
287.4466759820095
 20
225.8927493396935
 30
0.0
 10
287.3575571579717
 20
226.3020058600679
 30
0.0
 10
287.3238455748763
 20
226.6004134685724
 30
0.0
 10
287.3238455748763
 20
226.9021992588208
 30
0.0
  0
SPLINE
  5
23D
330
1F
100
AcDbEntity
  8
0
  6
Continuous
 62
     7
370
    15
100
AcDbSpline
210
0.0
220
0.0
230
1.0
 70
     8
 71
     3
 72
    40
 73
    36
 74
     0
 42
0.000000001
 43
0.00000001
 40
0.0
 40
0.0
 40
0.0
 40
0.0
 40
0.0312500000000009
 40
0.0312500000000009
 40
0.0625000000000019
 40
0.0625000000000019
 40
0.0937500000000028
 40
0.0937500000000028
 40
0.1250000000000037
 40
0.1250000000000037
 40
0.1875000000000044
 40
0.1875000000000044
 40
0.2500000000000051
 40
0.2500000000000051
 40
0.3750000000000051
 40
0.3750000000000051
 40
0.500000000000005
 40
0.500000000000005
 40
0.5625000000000047
 40
0.5625000000000047
 40
0.6250000000000042
 40
0.6250000000000042
 40
0.6875000000000039
 40
0.6875000000000039
 40
0.7500000000000036
 40
0.7500000000000036
 40
0.8125000000000032
 40
0.8125000000000032
 40
0.8750000000000028
 40
0.8750000000000028
 40
0.9062500000000019
 40
0.9062500000000019
 40
0.9375000000000009
 40
0.9375000000000009
 40
1.0
 40
1.0
 40
1.0
 40
1.0
 10
266.9108478241733
 20
226.9021992588208
 30
0.0
 10
266.9108478241733
 20
226.7515879484542
 30
0.0
 10
266.9027484785719
 20
226.6038737563037
 30
0.0
 10
266.8716305231744
 20
226.3137819601915
 30
0.0
 10
266.8482487930403
 20
226.1700033400338
 30
0.0
 10
266.7888515391315
 20
225.8959417524418
 30
0.0
 10
266.7530403973129
 20
225.7655760068608
 30
0.0
 10
266.6708300786389
 20
225.5163896432921
 30
0.0
 10
266.6243201831708
 20
225.3976751505824
 30
0.0
 10
266.4753055589805
 20
225.0667916833867
 30
0.0
 10
266.3618860333887
 20
224.8747843790988
 30
0.0
 10
266.115698917728
 20
224.5356377951299
 30
0.0
 10
265.9862412052876
 20
224.3929710771503
 30
0.0
 10
265.5840035213233
 20
224.0235878917075
 30
0.0
 10
265.2952077632739
 20
223.854676859247
 30
0.0
 10
264.7168196580786
 20
223.6369819286086
 30
0.0
 10
264.4238711355127
 20
223.5856472704114
 30
0.0
 10
263.9794287380129
 20
223.5855381798916
 30
0.0
 10
263.830768093086
 20
223.5987816178219
 30
0.0
 10
263.5373693668328
 20
223.6518389991951
 30
0.0
 10
263.3919476094016
 20
223.6916190366123
 30
0.0
 10
263.103886674663
 20
223.8000400770457
 30
0.0
 10
262.961242822842
 20
223.8686325959316
 30
0.0
 10
262.6792736170954
 20
224.0402371470126
 30
0.0
 10
262.538905470925
 20
224.1441398185866
 30
0.0
 10
262.268404053972
 20
224.3920871807541
 30
0.0
 10
262.1384446284275
 20
224.5354272213144
 30
0.0
 10
261.892663311513
 20
224.8738513827371
 30
0.0
 10
261.7788317098932
 20
225.0666768590502
 30
0.0
 10
261.6307710369013
 20
225.394930448175
 30
0.0
 10
261.5850143281143
 20
225.5112021335986
 30
0.0
 10
261.5023416768222
 20
225.7605916505835
 30
0.0
 10
261.4659138684762
 20
225.8927493396935
 30
0.0
 10
261.3767950444384
 20
226.3020058600679
 30
0.0
 10
261.3430834613431
 20
226.6004134685724
 30
0.0
 10
261.343083461343
 20
226.9021992588209
 30
0.0
  0
LINE
  5
23E
330
1F
100
AcDbEntity
  8
0
  6
Continuous
 62
     7
370
    15
100
AcDbLine
 10
261.3430834613
 20
226.9021992588
 30
0.0
 11
261.3430834613
 21
235.9649453256
 31
0.0
  0
LINE
  5
23F
330
1F
100
AcDbEntity
  8
0
  6
Continuous
 62
     7
370
    15
100
AcDbLine
 10
292.8916099377
 20
235.9649453256
 30
0.0
 11
292.8916099377
 21
226.9021992588
 31
0.0
  0
LINE
  5
240
330
1F
100
AcDbEntity
  8
0
  6
Continuous
 62
     7
370
    15
100
AcDbLine
 10
142.1173466995
 20
226.9021992588
 30
0.0
 11
142.1173466995
 21
235.9649453256
 31
0.0
  0
LINE
  5
241
330
1F
100
AcDbEntity
  8
0
  6
Continuous
 62
     7
370
    15
100
AcDbLine
 10
112.1173466995
 20
235.9649453256
 30
0.0
 11
112.1173466995
 21
226.9021992588
 31
0.0
  0
LINE
  5
242
330
1F
100
AcDbEntity
  8
0
  6
Continuous
 62
     7
370
    15
100
AcDbLine
 10
127.1173466995
 20
265.9429565407
 30
0.0
 11
162.1173466995
 21
265.9429565407
 31
0.0
  0
LINE
  5
243
330
1F
100
AcDbEntity
  8
0
  6
Continuous
 62
     7
370
    15
100
AcDbLine
 10
92.1173466995
 20
265.9429565407
 30
0.0
 11
127.1173466995
 21
265.9429565407
 31
0.0
  0
LINE
  5
244
330
1F
100
AcDbEntity
  8
0
  6
Continuous
 62
     7
370
    15
100
AcDbLine
 10
277.1173466995
 20
265.9429565407
 30
0.0
 11
312.1173466995
 21
265.9429565407
 31
0.0
  0
LINE
  5
245
330
1F
100
AcDbEntity
  8
0
  6
Continuous
 62
     7
370
    15
100
AcDbLine
 10
242.1173466995
 20
265.9429565407
 30
0.0
 11
277.1173466995
 21
265.9429565407
 31
0.0
  0
SPLINE
  5
246
330
1F
100
AcDbEntity
  8
0
  6
Continuous
 62
     8
370
    15
100
AcDbSpline
210
0.0
220
0.0
230
1.0
 70
     8
 71
     3
 72
    11
 73
     7
 74
     0
 42
0.000000001
 43
0.00000001
 40
0.0
 40
0.0
 40
0.0
 40
0.0
 40
0.2792333712821686
 40
0.5575803500048105
 40
0.8359348244826471
 40
1.0
 40
1.0
 40
1.0
 40
1.0
 10
146.5485954378287
 20
165.6753741546007
 30
0.0
 10
146.9114934320736
 20
164.9753996741006
 30
0.0
 10
147.636137444779
 20
163.5776726974159
 30
0.0
 10
149.3971272012497
 20
162.3901749824585
 30
0.0
 10
151.290876775675
 20
161.8247565959886
 30
0.0
 10
152.7744277039635
 20
161.8372000228081
 30
0.0
 10
153.3245819374864
 20
161.8418144946228
 30
0.0
  0
SPLINE
  5
247
330
1F
100
AcDbEntity
  8
0
  6
Continuous
 62
     8
370
    15
100
AcDbSpline
210
0.0
220
0.0
230
1.0
 70
     8
 71
     3
 72
    15
 73
    11
 74
     0
 42
0.000000001
 43
0.00000001
 40
0.0
 40
0.0
 40
0.0
 40
0.0
 40
0.073242994567777
 40
0.1658492051935409
 40
0.2584790404678762
 40
0.381963789727696
 40
0.505522357604414
 40
0.6291312232618139
 40
0.8145441771906982
 40
1.0
 40
1.0
 40
1.0
 40
1.0
 10
175.2300100090528
 20
156.7021241789253
 30
0.0
 10
174.7986000489987
 20
157.3379279474318
 30
0.0
 10
173.8217284804649
 20
158.7776226279694
 30
0.0
 10
171.7982478424666
 20
160.6111644661322
 30
0.0
 10
169.088249141398
 20
162.3856157005882
 30
0.0
 10
165.7931443759758
 20
163.7755008465373
 30
0.0
 10
162.0281038425434
 20
164.7421314077218
 30
0.0
 10
157.5427385834743
 20
165.3950019635711
 30
0.0
 10
152.3699528326941
 20
165.6735524772136
 30
0.0
 10
148.4891974288342
 20
165.6747668820334
 30
0.0
 10
146.5485954378164
 20
165.6753741546301
 30
0.0
  0
SPLINE
  5
248
330
1F
100
AcDbEntity
  8
0
  6
Continuous
 62
     8
370
    15
100
AcDbSpline
210
0.0
220
0.0
230
1.0
 70
     8
 71
     3
 72
    16
 73
    12
 74
     0
 42
0.000000001
 43
0.00000001
 40
0.0
 40
0.0
 40
0.0
 40
0.0
 40
0.0005280305603744
 40
0.0913257213570243
 40
0.1821250151794431
 40
0.2729474726902646
 40
0.3940228082953556
 40
0.5151705221809099
 40
0.6363675524453103
 40
0.818162760007638
 40
1.0
 40
1.0
 40
1.0
 40
1.0
 10
228.6385796944809
 20
156.1962785214818
 30
0.0
 10
228.6410454706038
 20
156.2013457471683
 30
0.0
 10
229.0675146942366
 20
157.0777496446343
 30
0.0
 10
230.3268858180121
 20
158.6013384011331
 30
0.0
 10
232.41905930663
 20
160.621502367302
 30
0.0
 10
235.1528577823335
 20
162.3818022051829
 30
0.0
 10
238.4396283032285
 20
163.7766429106391
 30
0.0
 10
242.2070975350697
 20
164.7418293625884
 30
0.0
 10
246.6917419802744
 20
165.3951285158933
 30
0.0
 10
251.8648023736497
 20
165.6735157264652
 30
0.0
 10
255.7455165742343
 20
165.6747546308399
 30
0.0
 10
257.6860979612332
 20
165.6753741546301
 30
0.0
  0
SPLINE
  5
249
330
1F
100
AcDbEntity
  8
0
  6
Continuous
 62
     8
370
    15
100
AcDbSpline
210
0.0
220
0.0
230
1.0
 70
     8
 71
     3
 72
    11
 73
     7
 74
     0
 42
0.000000001
 43
0.00000001
 40
0.0
 40
0.0
 40
0.0
 40
0.0
 40
0.2809867107299754
 40
0.561081463136441
 40
0.8411837583648362
 40
0.9999999999999999
 40
0.9999999999999999
 40
0.9999999999999999
 40
0.9999999999999999
 10
257.686097961221
 20
165.6753741546007
 30
0.0
 10
257.323244342014
 20
164.9753499963743
 30
0.0
 10
256.5986889385216
 20
163.577523821933
 30
0.0
 10
254.837036224253
 20
162.3907682863055
 30
0.0
 10
252.9618357806525
 20
161.8278332476988
 30
0.0
 10
251.500108830065
 20
161.8390938408125
 30
0.0
 10
250.9712043498668
 20
161.8431683214432
 30
0.0
  0
LINE
  5
24A
330
1F
100
AcDbEntity
  8
0
  6
Continuous
 62
     8
370
    15
100
AcDbLine
 10
342.8898707214
 20
210.0084488186
 30
0.0
 11
342.8898707214
 21
163.5586957659
 31
0.0
  0
LINE
  5
24B
330
1F
100
AcDbEntity
  8
0
  6
Continuous
 62
     8
370
    15
100
AcDbLine
 10
61.3448226777
 20
163.5586957659
 30
0.0
 11
61.3448226777
 21
210.0084488186
 31
0.0
  0
LINE
  5
24C
330
1F
100
AcDbEntity
  8
0
  6
Continuous
 62
     8
370
    15
100
AcDbLine
 10
343.1041795901
 20
208.2681495037
 30
0.0
 11
343.1041795901
 21
165.2989950807
 31
0.0
  0
LINE
  5
24D
330
1F
100
AcDbEntity
  8
0
  6
Continuous
 62
     8
370
    15
100
AcDbLine
 10
61.1305138089
 20
165.2989950807
 30
0.0
 11
61.1305138089
 21
208.2681495037
 31
0.0
  0
LINE
  5
24E
330
1F
100
AcDbEntity
  8
0
  6
Continuous
 62
     8
370
    15
100
AcDbLine
 10
261.1173466995
 20
235.9649453256
 30
0.0
 11
261.3430834613
 21
235.9649453256
 31
0.0
  0
LINE
  5
24F
330
1F
100
AcDbEntity
  8
0
  6
Continuous
 62
     8
370
    15
100
AcDbLine
 10
292.8916099377
 20
235.9649453256
 30
0.0
 11
293.1173466995
 21
235.9649453256
 31
0.0
  0
LINE
  5
250
330
1F
100
AcDbEntity
  8
0
  6
Continuous
 62
     8
370
    15
100
AcDbLine
 10
292.8916099377
 20
226.9021992588
 30
0.0
 11
293.1173466995
 21
226.9021992588
 31
0.0
  0
LINE
  5
251
330
1F
100
AcDbEntity
  8
0
  6
Continuous
 62
     8
370
    15
100
AcDbLine
 10
261.1173466995
 20
226.9021992588
 30
0.0
 11
261.3430834613
 21
226.9021992588
 31
0.0
  0
LINE
  5
252
330
1F
100
AcDbEntity
  8
0
  6
Continuous
 62
     8
370
    15
100
AcDbLine
 10
127.1173466995
 20
240.0183047224
 30
0.0
 11
159.7232000726
 21
240.0183047224
 31
0.0
  0
LINE
  5
253
330
1F
100
AcDbEntity
  8
0
  6
Continuous
 62
     8
370
    15
100
AcDbLine
 10
94.5114933264
 20
240.0183047224
 30
0.0
 11
127.1173466995
 21
240.0183047224
 31
0.0
  0
LINE
  5
254
330
1F
100
AcDbEntity
  8
0
  6
Continuous
 62
     8
370
    15
100
AcDbLine
 10
277.1173466995
 20
240.0183047224
 30
0.0
 11
309.7232000726
 21
240.0183047224
 31
0.0
  0
LINE
  5
255
330
1F
100
AcDbEntity
  8
0
  6
Continuous
 62
     8
370
    15
100
AcDbLine
 10
244.5114933264
 20
240.0183047224
 30
0.0
 11
277.1173466995
 21
240.0183047224
 31
0.0
  0
ENDSEC
  0
SECTION
  2
OBJECTS
  0
DICTIONARY
  5
C
330
0
100
AcDbDictionary
281
     1
  3
ACAD_DETAILVIEWSTYLE
350
25A
  3
ACAD_GROUP
350
D
  3
ACAD_LAYOUT
350
1A
  3
ACAD_MATERIAL
350
43
  3
ACAD_MLEADERSTYLE
350
259
  3
ACAD_MLINESTYLE
350
17
  3
ACAD_PLOTSETTINGS
350
19
  3
ACAD_PLOTSTYLENAME
350
E
  3
ACAD_SCALELIST
350
47
  3
ACAD_SECTIONVIEWSTYLE
350
25B
  3
ACAD_TABLESTYLE
350
258
  3
ACAD_VISUALSTYLE
350
2A
  3
AcDbVariableDictionary
350
256
  0
SUN
  5
69
330
29
100
AcDbSun
 90
        1
290
     0
 63
     7
421
 16777215
 40
1.0
291
     1
 91
  2455826
 92
 54000000
292
     0
 70
     2
 71
   256
280
     1
  0
DICTIONARY
  5
25A
102
{ACAD_REACTORS
330
C
102
}
330
C
100
AcDbDictionary
281
     1
  0
DICTIONARY
  5
D
102
{ACAD_REACTORS
330
C
102
}
330
C
100
AcDbDictionary
281
     1
  0
DICTIONARY
  5
1A
102
{ACAD_REACTORS
330
C
102
}
330
C
100
AcDbDictionary
281
     1
  3
Layout1
350
1E
  3
Layout2
350
26
  3
Model
350
22
  0
DICTIONARY
  5
43
102
{ACAD_REACTORS
330
C
102
}
330
C
100
AcDbDictionary
281
     1
  3
ByBlock
350
45
  3
ByLayer
350
44
  3
Global
350
46
  0
DICTIONARY
  5
259
102
{ACAD_REACTORS
330
C
102
}
330
C
100
AcDbDictionary
281
     1
  0
DICTIONARY
  5
17
102
{ACAD_REACTORS
330
C
102
}
330
C
100
AcDbDictionary
281
     1
  3
Standard
350
18
  0
DICTIONARY
  5
19
102
{ACAD_REACTORS
330
C
102
}
330
C
100
AcDbDictionary
281
     1
  0
ACDBDICTIONARYWDFLT
  5
E
102
{ACAD_REACTORS
330
C
102
}
330
C
100
AcDbDictionary
281
     1
  3
Normal
350
F
100
AcDbDictionaryWithDefault
340
F
  0
DICTIONARY
  5
47
102
{ACAD_REACTORS
330
C
102
}
330
C
100
AcDbDictionary
281
     1
  3
A0
350
48
  3
A1
350
49
  3
A2
350
4A
  3
A3
350
4B
  3
A4
350
4C
  3
A5
350
4D
  3
A6
350
4E
  3
A7
350
4F
  3
A8
350
50
  3
A9
350
51
  3
B0
350
52
  3
B1
350
53
  3
B2
350
54
  3
B3
350
55
  3
B4
350
56
  3
B5
350
57
  3
B6
350
58
  3
B7
350
59
  3
B8
350
5A
  3
B9
350
5B
  3
C0
350
5C
  3
C1
350
5D
  3
C2
350
5E
  3
C3
350
5F
  3
C4
350
60
  3
C5
350
61
  3
C6
350
62
  3
C7
350
63
  3
C8
350
64
  3
C9
350
65
  3
D0
350
66
  3
D1
350
67
  3
D2
350
68
  0
DICTIONARY
  5
25B
102
{ACAD_REACTORS
330
C
102
}
330
C
100
AcDbDictionary
281
     1
  0
DICTIONARY
  5
258
102
{ACAD_REACTORS
330
C
102
}
330
C
100
AcDbDictionary
281
     1
  0
DICTIONARY
  5
2A
102
{ACAD_REACTORS
330
C
102
}
330
C
100
AcDbDictionary
281
     1
  3
2dWireframe
350
2F
  3
Basic
350
32
  3
Brighten
350
36
  3
ColorChange
350
3A
  3
Conceptual
350
34
  3
Dim
350
35
  3
EdgeColorOff
350
3D
  3
Facepattern
350
39
  3
Flat
350
2B
  3
FlatWithEdges
350
2C
  3
Gouraud
350
2D
  3
GouraudWithEdges
350
2E
  3
Hidden
350
31
  3
JitterOff
350
3B
  3
Linepattern
350
38
  3
OverhangOff
350
3C
  3
Realistic
350
33
  3
Shaded
350
42
  3
Shaded with edges
350
41
  3
Shades of Gray
350
3E
  3
Sketchy
350
3F
  3
Thicken
350
37
  3
Wireframe
350
30
  3
X-Ray
350
40
  0
DICTIONARY
  5
256
102
{ACAD_REACTORS
330
C
102
}
330
C
100
AcDbDictionary
281
     1
  3
CANNOSCALE
350
257
  0
LAYOUT
  5
1E
102
{ACAD_REACTORS
330
1A
102
}
330
1A
100
AcDbPlotSettings
  1

  2
none_device
  4

  6

 40
0.0
 41
0.0
 42
0.0
 43
0.0
 44
0.0
 45
0.0
 46
0.0
 47
0.0
 48
0.0
 49
0.0
140
0.0
141
0.0
142
1.0
143
1.0
 70
   688
 72
     1
 73
     0
 74
     5
  7

 75
    16
 76
     0
 77
     2
 78
   300
147
1.0
148
0.0
149
0.0
100
AcDbLayout
  1
Layout1
 70
     1
 71
     1
 10
0.0
 20
0.0
 11
420.0
 21
297.0
 12
0.0
 22
0.0
 32
0.0
 14
1.0000000000E+20
 24
1.0000000000E+20
 34
1.0000000000E+20
 15
-1.0000000000E+20
 25
-1.0000000000E+20
 35
-1.0000000000E+20
146
0.0
 13
0.0
 23
0.0
 33
0.0
 16
1.0
 26
0.0
 36
0.0
 17
0.0
 27
1.0
 37
0.0
 76
     0
330
1B
  0
LAYOUT
  5
26
102
{ACAD_REACTORS
330
1A
102
}
330
1A
100
AcDbPlotSettings
  1

  2
none_device
  4

  6

 40
0.0
 41
0.0
 42
0.0
 43
0.0
 44
0.0
 45
0.0
 46
0.0
 47
0.0
 48
0.0
 49
0.0
140
0.0
141
0.0
142
1.0
143
1.0
 70
   688
 72
     1
 73
     0
 74
     5
  7

 75
    16
 76
     0
 77
     2
 78
   300
147
1.0
148
0.0
149
0.0
100
AcDbLayout
  1
Layout2
 70
     1
 71
     2
 10
0.0
 20
0.0
 11
0.0
 21
0.0
 12
0.0
 22
0.0
 32
0.0
 14
0.0
 24
0.0
 34
0.0
 15
0.0
 25
0.0
 35
0.0
146
0.0
 13
0.0
 23
0.0
 33
0.0
 16
1.0
 26
0.0
 36
0.0
 17
0.0
 27
1.0
 37
0.0
 76
     0
330
23
  0
LAYOUT
  5
22
102
{ACAD_REACTORS
330
1A
102
}
330
1A
100
AcDbPlotSettings
  1

  2
none_device
  4
Letter_(8.50_x_11.00_Inches)
  6

 40
6.35
 41
6.35
 42
6.35000508
 43
6.35000508
 44
215.9
 45
279.4
 46
0.0
 47
0.0
 48
0.0
 49
0.0
140
0.0
141
0.0
142
1.0
143
1.0
 70
  1712
 72
     1
 73
     0
 74
     0
  7

 75
     0
 76
     0
 77
     2
 78
   300
147
1.0
148
0.0
149
0.0
100
AcDbLayout
  1
Model
 70
     1
 71
     0
 10
0.0
 20
0.0
 11
594.0
 21
841.0
 12
0.0
 22
0.0
 32
0.0
 14
0.0
 24
0.0
 34
0.0
 15
594.0
 25
841.0
 35
0.0
146
0.0
 13
0.0
 23
0.0
 33
0.0
 16
1.0
 26
0.0
 36
0.0
 17
0.0
 27
1.0
 37
0.0
 76
     0
330
1F
331
29
  0
MATERIAL
  5
45
102
{ACAD_REACTORS
330
43
102
}
330
43
100
AcDbMaterial
  1
ByBlock
 72
     1
 94
      127
  0
MATERIAL
  5
44
102
{ACAD_REACTORS
330
43
102
}
330
43
100
AcDbMaterial
  1
ByLayer
 72
     1
 94
      127
  0
MATERIAL
  5
46
102
{ACAD_REACTORS
330
43
102
}
330
43
100
AcDbMaterial
  1
Global
 72
     1
 94
      127
  0
MLINESTYLE
  5
18
102
{ACAD_REACTORS
330
17
102
}
330
17
100
AcDbMlineStyle
  2
Standard
 70
     0
  3

 62
   256
 51
90.0
 52
90.0
 71
     2
 49
0.5
 62
   256
  6
BYLAYER
 49
-0.5
 62
   256
  6
BYLAYER
  0
ACDBPLACEHOLDER
  5
F
102
{ACAD_REACTORS
330
E
102
}
330
E
  0
SCALE
  5
48
102
{ACAD_REACTORS
330
47
102
}
330
47
100
AcDbScale
 70
     0
300
1:1
140
1.0
141
1.0
290
     1
  0
SCALE
  5
49
102
{ACAD_REACTORS
330
47
102
}
330
47
100
AcDbScale
 70
     0
300
1:2
140
1.0
141
2.0
290
     0
  0
SCALE
  5
4A
102
{ACAD_REACTORS
330
47
102
}
330
47
100
AcDbScale
 70
     0
300
1:4
140
1.0
141
4.0
290
     0
  0
SCALE
  5
4B
102
{ACAD_REACTORS
330
47
102
}
330
47
100
AcDbScale
 70
     0
300
1:5
140
1.0
141
5.0
290
     0
  0
SCALE
  5
4C
102
{ACAD_REACTORS
330
47
102
}
330
47
100
AcDbScale
 70
     0
300
1:8
140
1.0
141
8.0
290
     0
  0
SCALE
  5
4D
102
{ACAD_REACTORS
330
47
102
}
330
47
100
AcDbScale
 70
     0
300
1:10
140
1.0
141
10.0
290
     0
  0
SCALE
  5
4E
102
{ACAD_REACTORS
330
47
102
}
330
47
100
AcDbScale
 70
     0
300
1:16
140
1.0
141
16.0
290
     0
  0
SCALE
  5
4F
102
{ACAD_REACTORS
330
47
102
}
330
47
100
AcDbScale
 70
     0
300
1:20
140
1.0
141
20.0
290
     0
  0
SCALE
  5
50
102
{ACAD_REACTORS
330
47
102
}
330
47
100
AcDbScale
 70
     0
300
1:30
140
1.0
141
30.0
290
     0
  0
SCALE
  5
51
102
{ACAD_REACTORS
330
47
102
}
330
47
100
AcDbScale
 70
     0
300
1:40
140
1.0
141
40.0
290
     0
  0
SCALE
  5
52
102
{ACAD_REACTORS
330
47
102
}
330
47
100
AcDbScale
 70
     0
300
1:50
140
1.0
141
50.0
290
     0
  0
SCALE
  5
53
102
{ACAD_REACTORS
330
47
102
}
330
47
100
AcDbScale
 70
     0
300
1:100
140
1.0
141
100.0
290
     0
  0
SCALE
  5
54
102
{ACAD_REACTORS
330
47
102
}
330
47
100
AcDbScale
 70
     0
300
2:1
140
2.0
141
1.0
290
     0
  0
SCALE
  5
55
102
{ACAD_REACTORS
330
47
102
}
330
47
100
AcDbScale
 70
     0
300
4:1
140
4.0
141
1.0
290
     0
  0
SCALE
  5
56
102
{ACAD_REACTORS
330
47
102
}
330
47
100
AcDbScale
 70
     0
300
8:1
140
8.0
141
1.0
290
     0
  0
SCALE
  5
57
102
{ACAD_REACTORS
330
47
102
}
330
47
100
AcDbScale
 70
     0
300
10:1
140
10.0
141
1.0
290
     0
  0
SCALE
  5
58
102
{ACAD_REACTORS
330
47
102
}
330
47
100
AcDbScale
 70
     0
300
100:1
140
100.0
141
1.0
290
     0
  0
SCALE
  5
59
102
{ACAD_REACTORS
330
47
102
}
330
47
100
AcDbScale
 70
     0
300
1/128" = 1'-0"
140
0.0078125
141
12.0
290
     0
  0
SCALE
  5
5A
102
{ACAD_REACTORS
330
47
102
}
330
47
100
AcDbScale
 70
     0
300
1/64" = 1'-0"
140
0.015625
141
12.0
290
     0
  0
SCALE
  5
5B
102
{ACAD_REACTORS
330
47
102
}
330
47
100
AcDbScale
 70
     0
300
1/32" = 1'-0"
140
0.03125
141
12.0
290
     0
  0
SCALE
  5
5C
102
{ACAD_REACTORS
330
47
102
}
330
47
100
AcDbScale
 70
     0
300
1/16" = 1'-0"
140
0.0625
141
12.0
290
     0
  0
SCALE
  5
5D
102
{ACAD_REACTORS
330
47
102
}
330
47
100
AcDbScale
 70
     0
300
3/32" = 1'-0"
140
0.09375
141
12.0
290
     0
  0
SCALE
  5
5E
102
{ACAD_REACTORS
330
47
102
}
330
47
100
AcDbScale
 70
     0
300
1/8" = 1'-0"
140
0.125
141
12.0
290
     0
  0
SCALE
  5
5F
102
{ACAD_REACTORS
330
47
102
}
330
47
100
AcDbScale
 70
     0
300
3/16" = 1'-0"
140
0.1875
141
12.0
290
     0
  0
SCALE
  5
60
102
{ACAD_REACTORS
330
47
102
}
330
47
100
AcDbScale
 70
     0
300
1/4" = 1'-0"
140
0.25
141
12.0
290
     0
  0
SCALE
  5
61
102
{ACAD_REACTORS
330
47
102
}
330
47
100
AcDbScale
 70
     0
300
3/8" = 1'-0"
140
0.375
141
12.0
290
     0
  0
SCALE
  5
62
102
{ACAD_REACTORS
330
47
102
}
330
47
100
AcDbScale
 70
     0
300
1/2" = 1'-0"
140
0.5
141
12.0
290
     0
  0
SCALE
  5
63
102
{ACAD_REACTORS
330
47
102
}
330
47
100
AcDbScale
 70
     0
300
3/4" = 1'-0"
140
0.75
141
12.0
290
     0
  0
SCALE
  5
64
102
{ACAD_REACTORS
330
47
102
}
330
47
100
AcDbScale
 70
     0
300
1" = 1'-0"
140
1.0
141
12.0
290
     0
  0
SCALE
  5
65
102
{ACAD_REACTORS
330
47
102
}
330
47
100
AcDbScale
 70
     0
300
1-1/2" = 1'-0"
140
1.5
141
12.0
290
     0
  0
SCALE
  5
66
102
{ACAD_REACTORS
330
47
102
}
330
47
100
AcDbScale
 70
     0
300
3" = 1'-0"
140
3.0
141
12.0
290
     0
  0
SCALE
  5
67
102
{ACAD_REACTORS
330
47
102
}
330
47
100
AcDbScale
 70
     0
300
6" = 1'-0"
140
6.0
141
12.0
290
     0
  0
SCALE
  5
68
102
{ACAD_REACTORS
330
47
102
}
330
47
100
AcDbScale
 70
     0
300
1'-0" = 1'-0"
140
12.0
141
12.0
290
     0
  0
VISUALSTYLE
  5
2F
102
{ACAD_REACTORS
330
2A
102
}
330
2A
100
AcDbVisualStyle
  2
2dWireframe
 70
     4
177
     2
291
     0
 71
     0
176
     1
 72
     2
176
     1
 73
     0
176
     1
 90
        0
176
     1
 40
0.6
176
     1
 41
30.0
176
     1
 62
     5
 63
     7
421
 16777215
176
     1
 74
     1
176
     1
 91
        4
176
     1
 64
     7
176
     1
 65
   257
176
     1
 75
     1
176
     1
175
     1
176
     1
 42
1.0
176
     1
 92
        0
176
     1
 66
   257
176
     1
 43
1.0
176
     1
 76
     1
176
     1
 77
     6
176
     1
 78
     2
176
     1
 67
     7
176
     1
 79
     5
176
     1
170
     0
176
     1
171
     0
176
     1
290
     0
176
     1
 93
        1
176
     1
 44
0.0
176
     1
173
     0
176
     1
  0
VISUALSTYLE
  5
32
102
{ACAD_REACTORS
330
2A
102
}
330
2A
100
AcDbVisualStyle
  2
Basic
 70
     7
177
     2
291
     1
 71
     1
176
     1
 72
     0
176
     1
 73
     1
176
     1
 90
        0
176
     1
 40
0.6
176
     1
 41
30.0
176
     1
 62
     5
 63
     7
421
 16777215
176
     1
 74
     0
176
     1
 91
        4
176
     1
 64
     7
176
     1
 65
   257
176
     1
 75
     1
176
     1
175
     1
176
     1
 42
1.0
176
     1
 92
        8
176
     1
 66
     7
176
     1
 43
1.0
176
     1
 76
     1
176
     1
 77
     6
176
     1
 78
     2
176
     1
 67
     7
176
     1
 79
     5
176
     1
170
     0
176
     1
171
     0
176
     1
290
     0
176
     1
 93
        1
176
     1
 44
0.0
176
     1
173
     0
176
     1
  0
VISUALSTYLE
  5
36
102
{ACAD_REACTORS
330
2A
102
}
330
2A
100
AcDbVisualStyle
  2
Brighten
 70
    12
177
     2
291
     1
 71
     2
176
     1
 72
     2
176
     1
 73
     0
176
     1
 90
        0
176
     1
 40
0.6
176
     1
 41
30.0
176
     1
 62
     5
 63
     7
421
 16777215
176
     1
 74
     1
176
     1
 91
        4
176
     1
 64
     7
176
     1
 65
   257
176
     1
 75
     1
176
     1
175
     1
176
     1
 42
1.0
176
     1
 92
        8
176
     1
 66
     7
176
     1
 43
1.0
176
     1
 76
     1
176
     1
 77
     6
176
     1
 78
     2
176
     1
 67
     7
176
     1
 79
     5
176
     1
170
     0
176
     1
171
     0
176
     1
290
     0
176
     1
 93
        1
176
     1
 44
50.0
176
     1
173
     0
176
     1
  0
VISUALSTYLE
  5
3A
102
{ACAD_REACTORS
330
2A
102
}
330
2A
100
AcDbVisualStyle
  2
ColorChange
 70
    16
177
     2
291
     1
 71
     2
176
     1
 72
     2
176
     1
 73
     3
176
     1
 90
        0
176
     1
 40
0.6
176
     1
 41
30.0
176
     1
 62
     5
 63
     8
421
  8421504
176
     1
 74
     1
176
     1
 91
        4
176
     1
 64
     7
176
     1
 65
   257
176
     1
 75
     1
176
     1
175
     1
176
     1
 42
1.0
176
     1
 92
        8
176
     1
 66
     8
424
  8421504
176
     1
 43
1.0
176
     1
 76
     1
176
     1
 77
     6
176
     1
 78
     2
176
     1
 67
     7
176
     1
 79
     5
176
     1
170
     0
176
     1
171
     0
176
     1
290
     0
176
     1
 93
        1
176
     1
 44
0.0
176
     1
173
     0
176
     1
  0
VISUALSTYLE
  5
34
102
{ACAD_REACTORS
330
2A
102
}
330
2A
100
AcDbVisualStyle
  2
Conceptual
 70
     9
177
     2
291
     0
 71
     3
176
     1
 72
     2
176
     1
 73
     0
176
     1
 90
        0
176
     1
 40
0.6
176
     1
 41
30.0
176
     1
 62
     5
 63
     7
421
 16777215
176
     1
 74
     2
176
     1
 91
        2
176
     1
 64
     7
176
     1
 65
   257
176
     1
 75
     1
176
     1
175
     1
176
     1
 42
179.0
176
     1
 92
        8
176
     1
 66
     7
176
     1
 43
1.0
176
     1
 76
     1
176
     1
 77
     6
176
     1
 78
     2
176
     1
 67
     7
176
     1
 79
     3
176
     1
170
     0
176
     1
171
     0
176
     1
290
     0
176
     1
 93
        1
176
     1
 44
0.0
176
     1
173
     0
176
     1
  0
VISUALSTYLE
  5
35
102
{ACAD_REACTORS
330
2A
102
}
330
2A
100
AcDbVisualStyle
  2
Dim
 70
    11
177
     2
291
     1
 71
     2
176
     1
 72
     2
176
     1
 73
     0
176
     1
 90
        0
176
     1
 40
0.6
176
     1
 41
30.0
176
     1
 62
     5
 63
     7
421
 16777215
176
     1
 74
     1
176
     1
 91
        4
176
     1
 64
     7
176
     1
 65
   257
176
     1
 75
     1
176
     1
175
     1
176
     1
 42
1.0
176
     1
 92
        8
176
     1
 66
     7
176
     1
 43
1.0
176
     1
 76
     1
176
     1
 77
     6
176
     1
 78
     2
176
     1
 67
     7
176
     1
 79
     5
176
     1
170
     0
176
     1
171
     0
176
     1
290
     0
176
     1
 93
        1
176
     1
 44
-50.0
176
     1
173
     0
176
     1
  0
VISUALSTYLE
  5
3D
102
{ACAD_REACTORS
330
2A
102
}
330
2A
100
AcDbVisualStyle
  2
EdgeColorOff
 70
    22
177
     2
291
     1
 71
     2
176
     0
 72
     2
176
     0
 73
     0
176
     0
 90
        0
176
     0
 40
0.6
176
     0
 41
30.0
176
     0
 62
     5
 63
     7
421
 16777215
176
     0
 74
     1
176
     0
 91
        4
176
     0
 64
     7
176
     0
 65
   257
176
     0
 75
     1
176
     0
175
     1
176
     0
 42
1.0
176
     0
 92
        8
176
     2
 66
     7
176
     0
 43
1.0
176
     0
 76
     1
176
     0
 77
     6
176
     0
 78
     2
176
     0
 67
     7
176
     0
 79
     5
176
     0
170
     0
176
     0
171
     0
176
     0
290
     0
176
     0
 93
        1
176
     0
 44
0.0
176
     0
173
     0
176
     0
  0
VISUALSTYLE
  5
39
102
{ACAD_REACTORS
330
2A
102
}
330
2A
100
AcDbVisualStyle
  2
Facepattern
 70
    15
177
     2
291
     1
 71
     2
176
     1
 72
     2
176
     1
 73
     0
176
     1
 90
        0
176
     1
 40
0.6
176
     1
 41
30.0
176
     1
 62
     5
 63
     7
421
 16777215
176
     1
 74
     1
176
     1
 91
        4
176
     1
 64
     7
176
     1
 65
   257
176
     1
 75
     1
176
     1
175
     1
176
     1
 42
1.0
176
     1
 92
        8
176
     1
 66
     7
176
     1
 43
1.0
176
     1
 76
     1
176
     1
 77
     6
176
     1
 78
     2
176
     1
 67
     7
176
     1
 79
     5
176
     1
170
     0
176
     1
171
     0
176
     1
290
     0
176
     1
 93
        1
176
     1
 44
0.0
176
     1
173
     0
176
     1
  0
VISUALSTYLE
  5
2B
102
{ACAD_REACTORS
330
2A
102
}
330
2A
100
AcDbVisualStyle
  2
Flat
 70
     0
177
     2
291
     1
 71
     2
176
     1
 72
     1
176
     1
 73
     1
176
     1
 90
        2
176
     1
 40
0.6
176
     1
 41
30.0
176
     1
 62
     5
 63
     7
421
 16777215
176
     1
 74
     0
176
     1
 91
        0
176
     1
 64
     7
176
     1
 65
   257
176
     1
 75
     1
176
     1
175
     1
176
     1
 42
1.0
176
     1
 92
        8
176
     1
 66
     7
176
     1
 43
1.0
176
     1
 76
     1
176
     1
 77
     6
176
     1
 78
     2
176
     1
 67
     7
176
     1
 79
     5
176
     1
170
     0
176
     1
171
     0
176
     1
290
     0
176
     1
 93
       13
176
     1
 44
0.0
176
     1
173
     0
176
     1
  0
VISUALSTYLE
  5
2C
102
{ACAD_REACTORS
330
2A
102
}
330
2A
100
AcDbVisualStyle
  2
FlatWithEdges
 70
     1
177
     2
291
     1
 71
     2
176
     1
 72
     1
176
     1
 73
     1
176
     1
 90
        2
176
     1
 40
0.6
176
     1
 41
30.0
176
     1
 62
     5
 63
     7
421
 16777215
176
     1
 74
     1
176
     1
 91
        0
176
     1
 64
     7
176
     1
 65
   257
176
     1
 75
     1
176
     1
175
     1
176
     1
 42
1.0
176
     1
 92
        0
176
     1
 66
   257
176
     1
 43
1.0
176
     1
 76
     1
176
     1
 77
     6
176
     1
 78
     2
176
     1
 67
     7
176
     1
 79
     5
176
     1
170
     0
176
     1
171
     0
176
     1
290
     0
176
     1
 93
       13
176
     1
 44
0.0
176
     1
173
     0
176
     1
  0
VISUALSTYLE
  5
2D
102
{ACAD_REACTORS
330
2A
102
}
330
2A
100
AcDbVisualStyle
  2
Gouraud
 70
     2
177
     2
291
     1
 71
     2
176
     1
 72
     2
176
     1
 73
     1
176
     1
 90
        2
176
     1
 40
0.6
176
     1
 41
30.0
176
     1
 62
     5
 63
     7
421
 16777215
176
     1
 74
     0
176
     1
 91
        0
176
     1
 64
     7
176
     1
 65
   257
176
     1
 75
     1
176
     1
175
     1
176
     1
 42
1.0
176
     1
 92
        0
176
     1
 66
     7
176
     1
 43
1.0
176
     1
 76
     1
176
     1
 77
     6
176
     1
 78
     2
176
     1
 67
     7
176
     1
 79
     5
176
     1
170
     0
176
     1
171
     0
176
     1
290
     0
176
     1
 93
       13
176
     1
 44
0.0
176
     1
173
     0
176
     1
  0
VISUALSTYLE
  5
2E
102
{ACAD_REACTORS
330
2A
102
}
330
2A
100
AcDbVisualStyle
  2
GouraudWithEdges
 70
     3
177
     2
291
     1
 71
     2
176
     1
 72
     2
176
     1
 73
     1
176
     1
 90
        2
176
     1
 40
0.6
176
     1
 41
30.0
176
     1
 62
     5
 63
     7
421
 16777215
176
     1
 74
     1
176
     1
 91
        0
176
     1
 64
     7
176
     1
 65
   257
176
     1
 75
     1
176
     1
175
     1
176
     1
 42
1.0
176
     1
 92
        0
176
     1
 66
   257
176
     1
 43
1.0
176
     1
 76
     1
176
     1
 77
     6
176
     1
 78
     2
176
     1
 67
     7
176
     1
 79
     5
176
     1
170
     0
176
     1
171
     0
176
     1
290
     0
176
     1
 93
       13
176
     1
 44
0.0
176
     1
173
     0
176
     1
  0
VISUALSTYLE
  5
31
102
{ACAD_REACTORS
330
2A
102
}
330
2A
100
AcDbVisualStyle
  2
Hidden
 70
     6
177
     2
291
     0
 71
     1
176
     1
 72
     2
176
     1
 73
     2
176
     1
 90
        0
176
     1
 40
0.6
176
     1
 41
30.0
176
     1
 62
     5
 63
     7
421
 16777215
176
     1
 74
     2
176
     1
 91
        2
176
     1
 64
     7
176
     1
 65
   257
176
     1
 75
     2
176
     1
175
     1
176
     1
 42
40.0
176
     1
 92
        0
176
     1
 66
   257
176
     1
 43
1.0
176
     1
 76
     1
176
     1
 77
     6
176
     1
 78
     2
176
     1
 67
     7
176
     1
 79
     3
176
     1
170
     0
176
     1
171
     0
176
     1
290
     0
176
     1
 93
        1
176
     1
 44
0.0
176
     1
173
     0
176
     1
  0
VISUALSTYLE
  5
3B
102
{ACAD_REACTORS
330
2A
102
}
330
2A
100
AcDbVisualStyle
  2
JitterOff
 70
    20
177
     2
291
     1
 71
     2
176
     0
 72
     2
176
     0
 73
     0
176
     0
 90
        0
176
     0
 40
0.6
176
     0
 41
30.0
176
     0
 62
     5
 63
     7
421
 16777215
176
     0
 74
     1
176
     0
 91
        4
176
     0
 64
     7
176
     0
 65
   257
176
     0
 75
     1
176
     0
175
     1
176
     0
 42
1.0
176
     0
 92
       10
176
     2
 66
     7
176
     0
 43
1.0
176
     0
 76
     1
176
     0
 77
     6
176
     0
 78
     2
176
     0
 67
     7
176
     0
 79
     5
176
     0
170
     0
176
     0
171
     0
176
     0
290
     0
176
     0
 93
        1
176
     0
 44
0.0
176
     0
173
     0
176
     0
  0
VISUALSTYLE
  5
38
102
{ACAD_REACTORS
330
2A
102
}
330
2A
100
AcDbVisualStyle
  2
Linepattern
 70
    14
177
     2
291
     1
 71
     2
176
     1
 72
     2
176
     1
 73
     0
176
     1
 90
        0
176
     1
 40
0.6
176
     1
 41
30.0
176
     1
 62
     5
 63
     7
421
 16777215
176
     1
 74
     1
176
     1
 91
        4
176
     1
 64
     7
176
     1
 65
   257
176
     1
 75
     7
176
     1
175
     7
176
     1
 42
1.0
176
     1
 92
        8
176
     1
 66
     7
176
     1
 43
1.0
176
     1
 76
     1
176
     1
 77
     6
176
     1
 78
     2
176
     1
 67
     7
176
     1
 79
     5
176
     1
170
     0
176
     1
171
     0
176
     1
290
     0
176
     1
 93
        1
176
     1
 44
0.0
176
     1
173
     0
176
     1
  0
VISUALSTYLE
  5
3C
102
{ACAD_REACTORS
330
2A
102
}
330
2A
100
AcDbVisualStyle
  2
OverhangOff
 70
    21
177
     2
291
     1
 71
     2
176
     0
 72
     2
176
     0
 73
     0
176
     0
 90
        0
176
     0
 40
0.6
176
     0
 41
30.0
176
     0
 62
     5
 63
     7
421
 16777215
176
     0
 74
     1
176
     0
 91
        4
176
     0
 64
     7
176
     0
 65
   257
176
     0
 75
     1
176
     0
175
     1
176
     0
 42
1.0
176
     0
 92
        9
176
     2
 66
     7
176
     0
 43
1.0
176
     0
 76
     1
176
     0
 77
     6
176
     0
 78
     2
176
     0
 67
     7
176
     0
 79
     5
176
     0
170
     0
176
     0
171
     0
176
     0
290
     0
176
     0
 93
        1
176
     0
 44
0.0
176
     0
173
     0
176
     0
  0
VISUALSTYLE
  5
33
102
{ACAD_REACTORS
330
2A
102
}
330
2A
100
AcDbVisualStyle
  2
Realistic
 70
     8
177
     2
291
     0
 71
     2
176
     1
 72
     3
176
     1
 73
     0
176
     1
 90
        2
176
     1
 40
0.6
176
     1
 41
30.0
176
     1
 62
     5
 63
     7
421
 16777215
176
     1
 74
     0
176
     1
 91
        0
176
     1
 64
     7
176
     1
 65
   257
176
     1
 75
     1
176
     1
175
     1
176
     1
 42
1.0
176
     1
 92
        8
176
     1
 66
   257
176
     1
 43
1.0
176
     1
 76
     1
176
     1
 77
     6
176
     1
 78
     2
176
     1
 67
     7
176
     1
 79
     3
176
     1
170
     0
176
     1
171
     0
176
     1
290
     0
176
     1
 93
       13
176
     1
 44
0.0
176
     1
173
     0
176
     1
  0
VISUALSTYLE
  5
42
102
{ACAD_REACTORS
330
2A
102
}
330
2A
100
AcDbVisualStyle
  2
Shaded
 70
    27
177
     2
291
     0
 71
     2
176
     1
 72
     2
176
     1
 73
     1
176
     1
 90
        2
176
     1
 40
0.6
176
     1
 41
30.0
176
     1
 62
     5
 63
     7
421
 16777215
176
     1
 74
     0
176
     1
 91
        4
176
     1
 64
     7
176
     1
 65
   257
176
     1
 75
     1
176
     1
175
     1
176
     1
 42
1.0
176
     1
 92
        8
176
     1
 66
   257
176
     1
 43
1.0
176
     1
 76
     1
176
     1
 77
     6
176
     1
 78
     2
176
     1
 67
     8
425
  7895160
176
     1
 79
     3
176
     1
170
     0
176
     1
171
     0
176
     1
290
     0
176
     1
 93
        5
176
     1
 44
0.0
176
     1
173
     0
176
     1
  0
VISUALSTYLE
  5
41
102
{ACAD_REACTORS
330
2A
102
}
330
2A
100
AcDbVisualStyle
  2
Shaded with edges
 70
    26
177
     2
291
     0
 71
     2
176
     1
 72
     2
176
     1
 73
     1
176
     1
 90
        2
176
     1
 40
0.6
176
     1
 41
30.0
176
     1
 62
     5
 63
     7
421
 16777215
176
     1
 74
     1
176
     1
 91
       10
176
     1
 64
     7
176
     1
 65
   257
176
     1
 75
     2
176
     1
175
     1
176
     1
 42
1.0
176
     1
 92
        8
176
     1
 66
   257
176
     1
 43
1.0
176
     1
 76
     1
176
     1
 77
     6
176
     1
 78
     2
176
     1
 67
     7
176
     1
 79
     3
176
     1
170
     0
176
     1
171
     0
176
     1
290
     0
176
     1
 93
        5
176
     1
 44
0.0
176
     1
173
     0
176
     1
  0
VISUALSTYLE
  5
3E
102
{ACAD_REACTORS
330
2A
102
}
330
2A
100
AcDbVisualStyle
  2
Shades of Gray
 70
    23
177
     2
291
     0
 71
     2
176
     1
 72
     2
176
     1
 73
     3
176
     1
 90
        0
176
     1
 40
0.6
176
     1
 41
30.0
176
     1
 62
     5
 63
     7
421
 16777215
176
     1
 74
     2
176
     1
 91
        2
176
     1
 64
     7
176
     1
 65
     7
176
     1
 75
     1
176
     1
175
     1
176
     1
 42
40.0
176
     1
 92
        8
176
     1
 66
     7
176
     1
 43
1.0
176
     1
 76
     1
176
     1
 77
     6
176
     1
 78
     2
176
     1
 67
     7
176
     1
 79
     3
176
     1
170
     0
176
     1
171
     0
176
     1
290
     0
176
     1
 93
        1
176
     1
 44
0.0
176
     1
173
     0
176
     1
  0
VISUALSTYLE
  5
3F
102
{ACAD_REACTORS
330
2A
102
}
330
2A
100
AcDbVisualStyle
  2
Sketchy
 70
    24
177
     2
291
     0
 71
     1
176
     1
 72
     2
176
     1
 73
     2
176
     1
 90
        0
176
     1
 40
0.6
176
     1
 41
30.0
176
     1
 62
     5
 63
     7
421
 16777215
176
     1
 74
     2
176
     1
 91
        2
176
     1
 64
     7
176
     1
 65
     7
176
     1
 75
     1
176
     1
175
     1
176
     1
 42
40.0
176
     1
 92
       11
176
     1
 66
     7
176
     1
 43
1.0
176
     1
 76
     1
176
     1
 77
     6
176
     1
 78
     2
176
     1
 67
     7
176
     1
 79
     6
176
     1
170
     0
176
     1
171
     0
176
     1
290
     0
176
     1
 93
        1
176
     1
 44
0.0
176
     1
173
     0
176
     1
  0
VISUALSTYLE
  5
37
102
{ACAD_REACTORS
330
2A
102
}
330
2A
100
AcDbVisualStyle
  2
Thicken
 70
    13
177
     2
291
     1
 71
     2
176
     1
 72
     2
176
     1
 73
     0
176
     1
 90
        0
176
     1
 40
0.6
176
     1
 41
30.0
176
     1
 62
     5
 63
     7
421
 16777215
176
     1
 74
     1
176
     1
 91
        4
176
     1
 64
     7
176
     1
 65
   257
176
     1
 75
     1
176
     1
175
     1
176
     1
 42
1.0
176
     1
 92
       12
176
     1
 66
     7
176
     1
 43
1.0
176
     1
 76
     1
176
     1
 77
     6
176
     1
 78
     2
176
     1
 67
     7
176
     1
 79
     5
176
     1
170
     0
176
     1
171
     0
176
     1
290
     0
176
     1
 93
        1
176
     1
 44
0.0
176
     1
173
     0
176
     1
  0
VISUALSTYLE
  5
30
102
{ACAD_REACTORS
330
2A
102
}
330
2A
100
AcDbVisualStyle
  2
Wireframe
 70
     5
177
     2
291
     0
 71
     0
176
     1
 72
     2
176
     1
 73
     0
176
     1
 90
        0
176
     1
 40
0.6
176
     1
 41
30.0
176
     1
 62
     5
 63
     7
421
 16777215
176
     1
 74
     1
176
     1
 91
        4
176
     1
 64
     7
176
     1
 65
   257
176
     1
 75
     1
176
     1
175
     1
176
     1
 42
1.0
176
     1
 92
        0
176
     1
 66
   257
176
     1
 43
1.0
176
     1
 76
     1
176
     1
 77
     6
176
     1
 78
     2
176
     1
 67
     7
176
     1
 79
     3
176
     1
170
     0
176
     1
171
     0
176
     1
290
     0
176
     1
 93
        1
176
     1
 44
0.0
176
     1
173
     0
176
     1
  0
VISUALSTYLE
  5
40
102
{ACAD_REACTORS
330
2A
102
}
330
2A
100
AcDbVisualStyle
  2
X-Ray
 70
    25
177
     2
291
     0
 71
     2
176
     1
 72
     2
176
     1
 73
     1
176
     1
 90
        1
176
     1
 40
0.5
176
     1
 41
30.0
176
     1
 62
     5
 63
     7
421
 16777215
176
     1
 74
     1
176
     1
 91
        0
176
     1
 64
     7
176
     1
 65
   257
176
     1
 75
     1
176
     1
175
     1
176
     1
 42
1.0
176
     1
 92
        8
176
     1
 66
     7
176
     1
 43
1.0
176
     1
 76
     1
176
     1
 77
     6
176
     1
 78
     2
176
     1
 67
     7
176
     1
 79
     3
176
     1
170
     0
176
     1
171
     0
176
     1
290
     0
176
     1
 93
       13
176
     1
 44
0.0
176
     1
173
     0
176
     1
  0
DICTIONARYVAR
  5
257
102
{ACAD_REACTORS
330
256
102
}
330
256
100
DictionaryVariables
280
     0
  1
1:1
  0
ENDSEC
  0
EOF
