  0
SECTION
  2
HEADER
  9
$ACADVER
  1
AC1032
  9
$ACADMAINTVER
 90
        4
  9
$DWGCODEPAGE
  3
ANSI_1252
  9
$LASTSAVEDBY
  1
MKramer
  9
$REQUIREDVERSIONS
160
                 0
  9
$INSBASE
 10
0.0
 20
0.0
 30
0.0
  9
$EXTMIN
 10
35.33953294529994
 20
36.92722307970001
 30
0.0
  9
$EXTMAX
 10
517.6919298245666
 20
404.8343213296
 30
0.1
  9
$LIMMIN
 10
0.0
 20
0.0
  9
$LIMMAX
 10
594.0
 20
841.0
  9
$ORTHOMODE
 70
     0
  9
$REGENMODE
 70
     1
  9
$FILLMODE
 70
     1
  9
$QTEXTMODE
 70
     0
  9
$MIRRTEXT
 70
     1
  9
$LTSCALE
 40
1.0
  9
$ATTMODE
 70
     1
  9
$TEXTSIZE
 40
10.0
  9
$TRACEWID
 40
1.0
  9
$TEXTSTYLE
  7
Standard
  9
$CLAYER
  8
0
  9
$CELTYPE
  6
ByLayer
  9
$CECOLOR
 62
   256
  9
$CELTSCALE
 40
1.0
  9
$DISPSILH
 70
     0
  9
$DIMSCALE
 40
1.0
  9
$DIMASZ
 40
2.5
  9
$DIMEXO
 40
0.0
  9
$DIMDLI
 40
3.75
  9
$DIMRND
 40
0.0
  9
$DIMDLE
 40
0.0
  9
$DIMEXE
 40
1.0
  9
$DIMTP
 40
0.0
  9
$DIMTM
 40
0.0
  9
$DIMTXT
 40
3.5
  9
$DIMCEN
 40
2.5
  9
$DIMTSZ
 40
0.0
  9
$DIMTOL
 70
     0
  9
$DIMLIM
 70
     0
  9
$DIMTIH
 70
     1
  9
$DIMTOH
 70
     1
  9
$DIMSE1
 70
     0
  9
$DIMSE2
 70
     0
  9
$DIMTAD
 70
     1
  9
$DIMZIN
 70
     0
  9
$DIMBLK
  1

  9
$DIMASO
 70
     1
  9
$DIMSHO
 70
     1
  9
$DIMPOST
  1

  9
$DIMAPOST
  1

  9
$DIMALT
 70
     0
  9
$DIMALTD
 70
     3
  9
$DIMALTF
 40
0.0393700787
  9
$DIMLFAC
 40
1.0
  9
$DIMTOFL
 70
     1
  9
$DIMTVP
 40
0.0
  9
$DIMTIX
 70
     0
  9
$DIMSOXD
 70
     0
  9
$DIMSAH
 70
     0
  9
$DIMBLK1
  1

  9
$DIMBLK2
  1

  9
$DIMSTYLE
  2
ISO-25
  9
$DIMCLRD
 70
     0
  9
$DIMCLRE
 70
     0
  9
$DIMCLRT
 70
     0
  9
$DIMTFAC
 40
1.0
  9
$DIMGAP
 40
1.5
  9
$DIMJUST
 70
     0
  9
$DIMSD1
 70
     0
  9
$DIMSD2
 70
     0
  9
$DIMTOLJ
 70
     0
  9
$DIMTZIN
 70
     0
  9
$DIMALTZ
 70
     0
  9
$DIMALTTZ
 70
     0
  9
$DIMUPT
 70
     0
  9
$DIMDEC
 70
     2
  9
$DIMTDEC
 70
     2
  9
$DIMALTU
 70
     2
  9
$DIMALTTD
 70
     3
  9
$DIMTXSTY
  7
Standard
  9
$DIMAUNIT
 70
     0
  9
$DIMADEC
 70
     2
  9
$DIMALTRND
 40
0.0
  9
$DIMAZIN
 70
     0
  9
$DIMDSEP
 70
    44
  9
$DIMATFIT
 70
     3
  9
$DIMFRAC
 70
     0
  9
$DIMLDRBLK
  1

  9
$DIMLUNIT
 70
     2
  9
$DIMLWD
 70
    -2
  9
$DIMLWE
 70
    -2
  9
$DIMTMOVE
 70
     0
  9
$DIMFXL
 40
1.0
  9
$DIMFXLON
 70
     0
  9
$DIMJOGANG
 40
0.7853981634
  9
$DIMTFILL
 70
     0
  9
$DIMTFILLCLR
 70
     0
  9
$DIMARCSYM
 70
     0
  9
$DIMLTYPE
  6

  9
$DIMLTEX1
  6

  9
$DIMLTEX2
  6

  9
$DIMTXTDIRECTION
 70
     0
  9
$LUNITS
 70
     2
  9
$LUPREC
 70
     2
  9
$SKETCHINC
 40
1.0
  9
$FILLETRAD
 40
10.0
  9
$AUNITS
 70
     0
  9
$AUPREC
 70
     2
  9
$MENU
  1
.
  9
$ELEVATION
 40
0.0
  9
$PELEVATION
 40
0.0
  9
$THICKNESS
 40
0.0
  9
$LIMCHECK
 70
     0
  9
$CHAMFERA
 40
10.0
  9
$CHAMFERB
 40
10.0
  9
$CHAMFERC
 40
20.0
  9
$CHAMFERD
 40
0.0
  9
$SKPOLY
 70
     0
  9
$TDCREATE
 40
2456485.273309583
  9
$TDUCREATE
 40
2456485.231642917
  9
$TDUPDATE
 40
2459915.628382246
  9
$TDUUPDATE
 40
2459915.586715579
  9
$TDINDWG
 40
0.0002821181
  9
$TDUSRTIMER
 40
0.0002821065
  9
$USRTIMER
 70
     1
  9
$ANGBASE
 50
0.0
  9
$ANGDIR
 70
     0
  9
$PDMODE
 70
     0
  9
$PDSIZE
 40
-1.0
  9
$PLINEWID
 40
0.0
  9
$SPLFRAME
 70
     0
  9
$SPLINETYPE
 70
     6
  9
$SPLINESEGS
 70
     8
  9
$HANDSEED
  5
1B7
  9
$SURFTAB1
 70
     6
  9
$SURFTAB2
 70
     6
  9
$SURFTYPE
 70
     6
  9
$SURFU
 70
     6
  9
$SURFV
 70
     6
  9
$UCSBASE
  2

  9
$UCSNAME
  2

  9
$UCSORG
 10
0.0
 20
0.0
 30
0.0
  9
$UCSXDIR
 10
1.0
 20
0.0
 30
0.0
  9
$UCSYDIR
 10
0.0
 20
1.0
 30
0.0
  9
$UCSORTHOREF
  2

  9
$UCSORTHOVIEW
 70
     0
  9
$UCSORGTOP
 10
0.0
 20
0.0
 30
0.0
  9
$UCSORGBOTTOM
 10
0.0
 20
0.0
 30
0.0
  9
$UCSORGLEFT
 10
0.0
 20
0.0
 30
0.0
  9
$UCSORGRIGHT
 10
0.0
 20
0.0
 30
0.0
  9
$UCSORGFRONT
 10
0.0
 20
0.0
 30
0.0
  9
$UCSORGBACK
 10
0.0
 20
0.0
 30
0.0
  9
$PUCSBASE
  2

  9
$PUCSNAME
  2

  9
$PUCSORG
 10
0.0
 20
0.0
 30
0.0
  9
$PUCSXDIR
 10
1.0
 20
0.0
 30
0.0
  9
$PUCSYDIR
 10
0.0
 20
1.0
 30
0.0
  9
$PUCSORTHOREF
  2

  9
$PUCSORTHOVIEW
 70
     0
  9
$PUCSORGTOP
 10
0.0
 20
0.0
 30
0.0
  9
$PUCSORGBOTTOM
 10
0.0
 20
0.0
 30
0.0
  9
$PUCSORGLEFT
 10
0.0
 20
0.0
 30
0.0
  9
$PUCSORGRIGHT
 10
0.0
 20
0.0
 30
0.0
  9
$PUCSORGFRONT
 10
0.0
 20
0.0
 30
0.0
  9
$PUCSORGBACK
 10
0.0
 20
0.0
 30
0.0
  9
$USERI1
 70
     0
  9
$USERI2
 70
     0
  9
$USERI3
 70
     0
  9
$USERI4
 70
     0
  9
$USERI5
 70
     0
  9
$USERR1
 40
0.0
  9
$USERR2
 40
0.0
  9
$USERR3
 40
0.0
  9
$USERR4
 40
0.0
  9
$USERR5
 40
0.0
  9
$WORLDVIEW
 70
     1
  9
$SHADEDGE
 70
     3
  9
$SHADEDIF
 70
    70
  9
$TILEMODE
 70
     1
  9
$MAXACTVP
 70
    64
  9
$PINSBASE
 10
0.0
 20
0.0
 30
0.0
  9
$PLIMCHECK
 70
     0
  9
$PEXTMIN
 10
1.000000000000000E+20
 20
1.000000000000000E+20
 30
1.000000000000000E+20
  9
$PEXTMAX
 10
-1.000000000000000E+20
 20
-1.000000000000000E+20
 30
-1.000000000000000E+20
  9
$PLIMMIN
 10
0.0
 20
0.0
  9
$PLIMMAX
 10
0.0
 20
0.0
  9
$UNITMODE
 70
     0
  9
$VISRETAIN
 70
     1
  9
$PLINEGEN
 70
     0
  9
$PSLTSCALE
 70
     1
  9
$TREEDEPTH
 70
  3020
  9
$CMLSTYLE
  2
Standard
  9
$CMLJUST
 70
     0
  9
$CMLSCALE
 40
20.0
  9
$PROXYGRAPHICS
 70
     1
  9
$MEASUREMENT
 70
     1
  9
$CELWEIGHT
370
    -1
  9
$ENDCAPS
280
     0
  9
$JOINSTYLE
280
     0
  9
$LWDISPLAY
290
     1
  9
$INSUNITS
 70
     4
  9
$HYPERLINKBASE
  1

  9
$STYLESHEET
  1

  9
$XEDIT
290
     1
  9
$CEPSNTYPE
380
     0
  9
$PSTYLEMODE
290
     1
  9
$FINGERPRINTGUID
  2
{BFE1FA6C-6575-4B68-B8FF-34AE0C515227}
  9
$VERSIONGUID
  2
{FAEB1C32-E019-11D5-929B-00C0DF256EC4}
  9
$EXTNAMES
290
     1
  9
$PSVPSCALE
 40
0.0
  9
$OLESTARTUP
290
     0
  9
$SORTENTS
280
   127
  9
$INDEXCTL
280
     0
  9
$HIDETEXT
280
     1
  9
$XCLIPFRAME
280
     2
  9
$HALOGAP
280
     0
  9
$OBSCOLOR
 70
   257
  9
$OBSLTYPE
280
     0
  9
$INTERSECTIONDISPLAY
280
     0
  9
$INTERSECTIONCOLOR
 70
   257
  9
$DIMASSOC
280
     2
  9
$PROJECTNAME
  1

  9
$CAMERADISPLAY
290
     0
  9
$LENSLENGTH
 40
50.0
  9
$CAMERAHEIGHT
 40
0.0
  9
$STEPSPERSEC
 40
2.0
  9
$STEPSIZE
 40
6.0
  9
$3DDWFPREC
 40
2.0
  9
$PSOLWIDTH
 40
5.0
  9
$PSOLHEIGHT
 40
80.0
  9
$LOFTANG1
 40
1.5707963268
  9
$LOFTANG2
 40
1.5707963268
  9
$LOFTMAG1
 40
0.0
  9
$LOFTMAG2
 40
0.0
  9
$LOFTPARAM
 70
     7
  9
$LOFTNORMALS
280
     1
  9
$LATITUDE
 40
37.795
  9
$LONGITUDE
 40
-122.394
  9
$NORTHDIRECTION
 40
0.0
  9
$TIMEZONE
 70
 -8000
  9
$LIGHTGLYPHDISPLAY
280
     1
  9
$TILEMODELIGHTSYNCH
280
     1
  9
$SOLIDHIST
280
     1
  9
$SHOWHIST
280
     1
  9
$DWFFRAME
280
     2
  9
$DGNFRAME
280
     2
  9
$REALWORLDSCALE
290
     1
  9
$INTERFERECOLOR
 62
   256
  9
$CSHADOW
280
     0
  9
$SHADOWPLANELOCATION
 40
0.0
  0
ENDSEC
  0
SECTION
  2
CLASSES
  0
CLASS
  1
ACDBDICTIONARYWDFLT
  2
AcDbDictionaryWithDefault
  3
ObjectDBX Classes
 90
        0
 91
        3
280
     0
281
     0
  0
CLASS
  1
VISUALSTYLE
  2
AcDbVisualStyle
  3
ObjectDBX Classes
 90
     4095
 91
        3
280
     0
281
     0
  0
CLASS
  1
MATERIAL
  2
AcDbMaterial
  3
ObjectDBX Classes
 90
     1153
 91
        3
280
     0
281
     0
  0
CLASS
  1
SCALE
  2
AcDbScale
  3
ObjectDBX Classes
 90
     1153
 91
        3
280
     0
281
     0
  0
CLASS
  1
TABLESTYLE
  2
AcDbTableStyle
  3
ObjectDBX Classes
 90
     4095
 91
        3
280
     0
281
     0
  0
CLASS
  1
MLEADERSTYLE
  2
AcDbMLeaderStyle
  3
ACDB_MLEADERSTYLE_CLASS
 90
     4095
 91
        3
280
     0
281
     0
  0
CLASS
  1
SUN
  2
AcDbSun
  3
SCENEOE
 90
     1153
 91
        3
280
     0
281
     0
  0
CLASS
  1
DICTIONARYVAR
  2
AcDbDictionaryVar
  3
ObjectDBX Classes
 90
        0
 91
        3
280
     0
281
     0
  0
CLASS
  1
CELLSTYLEMAP
  2
AcDbCellStyleMap
  3
ObjectDBX Classes
 90
     1152
 91
        3
280
     0
281
     0
  0
ENDSEC
  0
SECTION
  2
TABLES
  0
TABLE
  2
VPORT
  5
8
330
0
100
AcDbSymbolTable
 70
     1
  0
VPORT
  5
29
330
8
100
AcDbSymbolTableRecord
100
AcDbViewportTableRecord
  2
*Active
 70
     0
 10
0.0
 20
0.0
 11
1.0
 21
1.0
 12
297.0
 22
420.5
 13
0.0
 23
0.0
 14
10.0
 24
10.0
 15
10.0
 25
10.0
 16
0.0
 26
0.0
 36
1.0
 17
0.0
 27
0.0
 37
0.0
 40
841.0
 41
0.7063020214
 42
50.0
 43
0.0
 44
0.0
 50
0.0
 51
0.0
 71
     0
 72
  2000
 73
     1
 74
     3
 75
     0
 76
     0
 77
     0
 78
     0
281
     0
 65
     1
110
0.0
120
0.0
130
0.0
111
1.0
121
0.0
131
0.0
112
0.0
122
1.0
132
0.0
 79
     0
146
0.0
348
2F
 60
     3
 61
     5
292
     1
282
     1
141
0.0
142
0.0
 63
   250
361
1AB
  0
ENDTAB
  0
TABLE
  2
LTYPE
  5
5
330
0
100
AcDbSymbolTable
 70
     6
  0
LTYPE
  5
14
330
5
100
AcDbSymbolTableRecord
100
AcDbLinetypeTableRecord
  2
ByBlock
 70
     0
  3

 72
    65
 73
     0
 40
0.0
  0
LTYPE
  5
15
330
5
100
AcDbSymbolTableRecord
100
AcDbLinetypeTableRecord
  2
ByLayer
 70
     0
  3

 72
    65
 73
     0
 40
0.0
  0
LTYPE
  5
16
330
5
100
AcDbSymbolTableRecord
100
AcDbLinetypeTableRecord
  2
Continuous
 70
     0
  3
Solid line
 72
    65
 73
     0
 40
0.0
  0
LTYPE
  5
3F
330
5
100
AcDbSymbolTableRecord
100
AcDbLinetypeTableRecord
  2
HIDDEN
 70
     0
  3
Hidden __ __ __ __ __ __ __ __ __ __ __ __ __ __
 72
    65
 73
     2
 40
1.905
 49
1.27
 74
     0
 49
-0.635
 74
     0
  0
LTYPE
  5
40
330
5
100
AcDbSymbolTableRecord
100
AcDbLinetypeTableRecord
  2
PHANTOM
 70
     0
  3
Phantom ______  __  __  ______  __  __  ______
 72
    65
 73
     6
 40
12.7
 49
6.35
 74
     0
 49
-1.27
 74
     0
 49
1.27
 74
     0
 49
-1.27
 74
     0
 49
1.27
 74
     0
 49
-1.27
 74
     0
  0
LTYPE
  5
41
330
5
100
AcDbSymbolTableRecord
100
AcDbLinetypeTableRecord
  2
CENTER
 70
     0
  3
Center ____ _ ____ _ ____ _ ____ _ ____ _ ____
 72
    65
 73
     4
 40
10.16
 49
6.35
 74
     0
 49
-1.27
 74
     0
 49
1.27
 74
     0
 49
-1.27
 74
     0
  0
LTYPE
  5
42
330
5
100
AcDbSymbolTableRecord
100
AcDbLinetypeTableRecord
  2
CENTERX2
 70
     0
  3
Center (2x) ________  __  ________  __  _____
 72
    65
 73
     4
 40
20.32
 49
12.7
 74
     0
 49
-2.54
 74
     0
 49
2.54
 74
     0
 49
-2.54
 74
     0
  0
LTYPE
  5
43
330
5
100
AcDbSymbolTableRecord
100
AcDbLinetypeTableRecord
  2
DOT2
 70
     0
  3
Dot (.5x) ........................................
 72
    65
 73
     2
 40
0.635
 49
0.0
 74
     0
 49
-0.635
 74
     0
  0
ENDTAB
  0
TABLE
  2
LAYER
  5
2
330
0
100
AcDbSymbolTable
 70
     1
  0
LAYER
  5
10
330
2
100
AcDbSymbolTableRecord
100
AcDbLayerTableRecord
  2
0
 70
     0
 62
     7
  6
Continuous
370
    -3
390
F
347
3E
348
0
  0
ENDTAB
  0
TABLE
  2
STYLE
  5
3
330
0
100
AcDbSymbolTable
 70
     3
  0
STYLE
  5
11
330
3
100
AcDbSymbolTableRecord
100
AcDbTextStyleTableRecord
  2
Standard
 70
     0
 40
0.0
 41
1.0
 50
0.0
 71
     0
 42
10.0
  3
txt
  4

  0
STYLE
  5
47
330
3
100
AcDbSymbolTableRecord
100
AcDbTextStyleTableRecord
  2
SLDTEXTSTYLE0
 70
     0
 40
0.0
 41
0.96
 50
0.0
 71
     0
 42
0.2
  3
ISOCP3
  4

  0
STYLE
  5
5E
330
3
100
AcDbSymbolTableRecord
100
AcDbTextStyleTableRecord
  2
SLDTEXTSTYLE1
 70
     0
 40
0.0
 41
0.605
 50
0.0
 71
     0
 42
0.2
  3
TXT
  4

  0
ENDTAB
  0
TABLE
  2
VIEW
  5
6
330
0
100
AcDbSymbolTable
 70
     0
  0
ENDTAB
  0
TABLE
  2
UCS
  5
7
330
0
100
AcDbSymbolTable
 70
     0
  0
ENDTAB
  0
TABLE
  2
APPID
  5
9
330
0
100
AcDbSymbolTable
 70
     1
  0
APPID
  5
12
330
9
100
AcDbSymbolTableRecord
100
AcDbRegAppTableRecord
  2
ACAD
 70
     0
  0
ENDTAB
  0
TABLE
  2
DIMSTYLE
  5
A
330
0
100
AcDbSymbolTable
 70
     2
100
AcDbDimStyleTable
  0
DIMSTYLE
105
27
330
A
100
AcDbSymbolTableRecord
100
AcDbDimStyleTableRecord
  2
ISO-25
 70
     0
 41
2.5
 42
0.625
 43
3.75
 44
1.25
 73
     0
 74
     0
 77
     1
 78
     8
140
2.5
141
2.5
143
0.0393700787
147
0.625
171
     3
172
     1
178
     0
271
     2
272
     2
274
     3
278
    44
283
     0
284
     8
340
11
  0
DIMSTYLE
105
48
102
{ACAD_REACTORS
330
46
330
53
102
}
330
A
100
AcDbSymbolTableRecord
100
AcDbDimStyleTableRecord
  2
SLDDIMSTYLE0
 70
     0
 41
2.5
 44
0.0
 45
0.000000001
 73
     0
 74
     0
 77
     1
 78
    12
 79
     3
140
6.0
147
1.5
173
     1
178
     0
271
     2
272
     2
276
     2
284
    12
340
47
  0
ENDTAB
  0
TABLE
  2
BLOCK_RECORD
  5
1
330
0
100
AcDbSymbolTable
 70
     3
  0
BLOCK_RECORD
  5
1F
102
{ACAD_XDICTIONARY
360
1AC
102
}
330
1
100
AcDbSymbolTableRecord
100
AcDbBlockTableRecord
  2
*Model_Space
340
22
 70
     0
280
     1
281
     0
  0
BLOCK_RECORD
  5
1B
330
1
100
AcDbSymbolTableRecord
100
AcDbBlockTableRecord
  2
*Paper_Space
340
1E
 70
     0
280
     1
281
     0
  0
BLOCK_RECORD
  5
23
330
1
100
AcDbSymbolTableRecord
100
AcDbBlockTableRecord
  2
*Paper_Space0
340
26
 70
     0
280
     1
281
     0
  0
BLOCK_RECORD
  5
49
330
1
100
AcDbSymbolTableRecord
100
AcDbBlockTableRecord
  2
_D
340
0
 70
     0
280
     1
281
     0
  0
BLOCK_RECORD
  5
54
330
1
100
AcDbSymbolTableRecord
100
AcDbBlockTableRecord
  2
_D_1
340
0
 70
     0
280
     1
281
     0
  0
ENDTAB
  0
ENDSEC
  0
SECTION
  2
BLOCKS
  0
BLOCK
  5
20
330
1F
100
AcDbEntity
  8
0
100
AcDbBlockBegin
  2
*Model_Space
 70
     0
 10
0.0
 20
0.0
 30
0.0
  3
*Model_Space
  1

  0
ENDBLK
  5
21
330
1F
100
AcDbEntity
  8
0
100
AcDbBlockEnd
  0
BLOCK
  5
1C
330
1B
100
AcDbEntity
 67
     1
  8
0
100
AcDbBlockBegin
  2
*Paper_Space
 70
     0
 10
0.0
 20
0.0
 30
0.0
  3
*Paper_Space
  1

  0
ENDBLK
  5
1D
330
1B
100
AcDbEntity
 67
     1
  8
0
100
AcDbBlockEnd
  0
BLOCK
  5
24
330
23
100
AcDbEntity
  8
0
100
AcDbBlockBegin
  2
*Paper_Space0
 70
     0
 10
0.0
 20
0.0
 30
0.0
  3
*Paper_Space0
  1

  0
ENDBLK
  5
25
330
23
100
AcDbEntity
  8
0
100
AcDbBlockEnd
  0
BLOCK
  5
4A
330
49
100
AcDbEntity
  8
0
100
AcDbBlockBegin
  2
_D
 70
     0
 10
0.0
 20
0.0
 30
0.0
  3
_D
  1

  0
SOLID
  5
4C
330
49
100
AcDbEntity
  8
0
  6
Continuous
 62
     7
370
     0
100
AcDbTrace
 10
42.7614395004
 20
152.0299240879
 30
0.0
 11
42.4614395004
 21
149.5299240879
 31
0.0
 12
43.0614395004
 22
149.5299240879
 32
0.0
 13
43.0614395004
 23
149.5299240879
 33
0.0
  0
SOLID
  5
4D
330
49
100
AcDbEntity
  8
0
  6
Continuous
 62
     7
370
     0
100
AcDbTrace
 10
42.7614395004
 20
52.0299240879
 30
0.0
 11
43.0614395004
 21
54.5299240879
 31
0.0
 12
42.4614395004
 22
54.5299240879
 32
0.0
 13
42.4614395004
 23
54.5299240879
 33
0.0
  0
LINE
  5
4E
330
49
100
AcDbEntity
  8
0
  6
Continuous
 62
     7
370
     0
100
AcDbLine
 10
56.6850079902
 20
152.0299240879
 30
0.0
 11
41.7614395004
 21
152.0299240879
 31
0.0
  0
LINE
  5
4F
330
49
100
AcDbEntity
  8
0
  6
Continuous
 62
     7
370
     0
100
AcDbLine
 10
56.6850079902
 20
52.0299240879
 30
0.0
 11
41.7614395004
 21
52.0299240879
 31
0.0
  0
LINE
  5
50
330
49
100
AcDbEntity
  8
0
  6
Continuous
 62
     7
370
     0
100
AcDbLine
 10
42.7614395004
 20
152.0299240879
 30
0.0
 11
42.7614395004
 21
52.0299240879
 31
0.0
  0
MTEXT
  5
51
330
49
100
AcDbEntity
  8
0
  6
Continuous
 62
     7
370
     0
100
AcDbMText
 10
35.0270329453
 20
91.6722208134
 30
0.1
 40
6.0
 41
0.0
 46
0.0
 71
     1
 72
     1
  1
100
  7
SLDTEXTSTYLE0
 11
-7.044195017643634E-15
 21
1.0
 31
0.0
 73
     1
 44
1.0
  0
MTEXT
  5
52
330
49
100
AcDbEntity
  8
0
  6
Continuous
 62
     7
370
     0
100
AcDbMText
 10
35.0270329453
 20
108.4388881795
 30
0.1
 40
6.0
 41
0.0
 46
0.0
 71
     1
 72
     1
  1
mm
  7
SLDTEXTSTYLE0
 11
-7.044195017643634E-15
 21
1.0
 31
0.0
 73
     1
 44
1.0
  0
ENDBLK
  5
4B
330
49
100
AcDbEntity
  8
0
100
AcDbBlockEnd
  0
BLOCK
  5
55
330
54
100
AcDbEntity
  8
0
100
AcDbBlockBegin
  2
_D_1
 70
     0
 10
0.0
 20
0.0
 30
0.0
  3
_D_1
  1

  0
SOLID
  5
57
330
54
100
AcDbEntity
  8
0
  6
Continuous
 62
     7
370
     0
100
AcDbTrace
 10
56.6850079902
 20
38.4602342313
 30
0.0
 11
59.1850079902
 21
38.1602342313
 31
0.0
 12
59.1850079902
 22
38.7602342313
 32
0.0
 13
59.1850079902
 23
38.7602342313
 33
0.0
  0
SOLID
  5
58
330
54
100
AcDbEntity
  8
0
  6
Continuous
 62
     7
370
     0
100
AcDbTrace
 10
156.6850079902
 20
38.4602342313
 30
0.0
 11
154.1850079902
 21
38.7602342313
 31
0.0
 12
154.1850079902
 22
38.1602342313
 32
0.0
 13
154.1850079902
 23
38.1602342313
 33
0.0
  0
LINE
  5
59
330
54
100
AcDbEntity
  8
0
  6
Continuous
 62
     7
370
     0
100
AcDbLine
 10
56.6850079902
 20
52.0299240879
 30
0.0
 11
56.6850079902
 21
37.4602342313
 31
0.0
  0
LINE
  5
5A
330
54
100
AcDbEntity
  8
0
  6
Continuous
 62
     7
370
     0
100
AcDbLine
 10
156.6850079902
 20
52.0299240879
 30
0.0
 11
156.6850079902
 21
37.4602342313
 31
0.0
  0
LINE
  5
5B
330
54
100
AcDbEntity
  8
0
  6
Continuous
 62
     7
370
     0
100
AcDbLine
 10
56.6850079902
 20
38.4602342313
 30
0.0
 11
156.6850079902
 21
38.4602342313
 31
0.0
  0
MTEXT
  5
5C
330
54
100
AcDbEntity
  8
0
  6
Continuous
 62
     7
370
     0
100
AcDbMText
 10
91.2668151533
 20
46.1946407863
 30
0.1
 40
6.0
 41
0.0
 46
0.0
 71
     1
 72
     1
  1
100
  7
SLDTEXTSTYLE0
 73
     1
 44
1.0
  0
MTEXT
  5
5D
330
54
100
AcDbEntity
  8
0
  6
Continuous
 62
     7
370
     0
100
AcDbMText
 10
108.0334825193
 20
46.1946407863
 30
0.1
 40
6.0
 41
0.0
 46
0.0
 71
     1
 72
     1
  1
mm
  7
SLDTEXTSTYLE0
 73
     1
 44
1.0
  0
ENDBLK
  5
56
330
54
100
AcDbEntity
  8
0
100
AcDbBlockEnd
  0
ENDSEC
  0
SECTION
  2
ENTITIES
  0
LINE
  5
44
330
1F
100
AcDbEntity
  8
0
  6
Continuous
 62
     7
370
     0
100
AcDbLine
 10
56.6850079902
 20
152.0299240879
 30
0.0
 11
56.6850079902
 21
52.0299240879
 31
0.0
  0
LINE
  5
45
330
1F
100
AcDbEntity
  8
0
  6
Continuous
 62
     7
370
     0
100
AcDbLine
 10
56.6850079902
 20
52.0299240879
 30
0.0
 11
156.6850079902
 21
52.0299240879
 31
0.0
  0
DIMENSION
  5
46
330
1F
100
AcDbEntity
  8
0
  6
Continuous
 62
     7
370
     0
100
AcDbDimension
280
     0
  2
_D
 10
42.7614395004
 20
52.0299240879
 30
0.0
 11
42.7614395004
 21
105.4472211621
 31
0.0
 70
   160
  1
<>mm
 71
     2
 42
-1.0
 73
     0
 74
     0
 75
     0
  3
SLDDIMSTYLE0
100
AcDbAlignedDimension
 13
56.6850079902
 23
152.0299240879
 33
0.0
 14
56.6850079902
 24
52.0299240879
 34
0.0
 50
90.0
100
AcDbRotatedDimension
  0
DIMENSION
  5
53
330
1F
100
AcDbEntity
  8
0
  6
Continuous
 62
     7
370
     0
100
AcDbDimension
280
     0
  2
_D_1
 10
156.6850079902
 20
38.4602342313
 30
0.0
 11
105.0418155019
 21
38.4602342313
 31
0.0
 70
   160
  1
<>mm
 71
     2
 42
-1.0
 73
     0
 74
     0
 75
     0
  3
SLDDIMSTYLE0
100
AcDbAlignedDimension
 13
56.6850079902
 23
52.0299240879
 33
0.0
 14
156.6850079902
 24
52.0299240879
 34
0.0
100
AcDbRotatedDimension
  0
MTEXT
  5
5F
330
1F
100
AcDbEntity
  8
0
  6
Continuous
 62
     7
370
     0
100
AcDbMText
 10
277.5390513397
 20
46.9272230797
 30
0.0
 40
10.0
 41
0.0
 46
10.0
 71
     1
 72
     1
  1
{38 200 ..}
  7
SLDTEXTSTYLE1
 73
     1
 44
1.0
  0
MTEXT
  5
60
330
1F
100
AcDbEntity
  8
0
  6
Continuous
 62
     7
370
     0
100
AcDbMText
 10
412.8252631579
 20
48.4342449499
 30
0.0
 40
10.0
 41
0.0
 46
0.0
 71
     1
 72
     1
  1
KLUDI GmbH & Co KG
  7
SLDTEXTSTYLE1
 73
     1
 44
1.0
  0
LINE
  5
61
330
1F
100
AcDbEntity
  8
0
  6
Continuous
 62
     7
370
    15
100
AcDbLine
 10
135.5519898508
 20
358.257126553
 30
0.0
 11
135.5519898508
 21
359.6128813864
 31
0.0
  0
LINE
  5
62
330
1F
100
AcDbEntity
  8
0
  6
Continuous
 62
     7
370
    15
100
AcDbLine
 10
111.5519898508
 20
359.6128813864
 30
0.0
 11
111.5519898508
 21
358.257126553
 31
0.0
  0
LINE
  5
63
330
1F
100
AcDbEntity
  8
0
  6
Continuous
 62
     7
370
    15
100
AcDbLine
 10
112.5519898508
 20
354.1068797958
 30
0.0
 11
112.8828697661
 21
353.9233956806
 31
0.0
  0
LINE
  5
64
330
1F
100
AcDbEntity
  8
0
  6
Continuous
 62
     7
370
    15
100
AcDbLine
 10
134.2211099356
 20
353.9233956806
 30
0.0
 11
134.5519898508
 21
354.1068797958
 31
0.0
  0
SPLINE
  5
65
330
1F
100
AcDbEntity
  8
0
  6
Continuous
 62
     7
370
    15
100
AcDbSpline
210
0.0
220
0.0
230
1.0
 70
     8
 71
     3
 72
     9
 73
     5
 74
     0
 42
0.000000001
 43
0.00000001
 12
1.0
 22
0.0
 32
0.0
 13
1.0
 23
0.0
 33
0.0
 40
0.0
 40
0.0
 40
0.0
 40
0.0
 40
0.4071003750023863
 40
1.0
 40
1.0
 40
1.0
 40
1.0
 10
111.1296317461954
 20
358.9666412557384
 30
0.0
 10
111.0646952437241
 20
358.9665339933012
 30
0.0
 10
110.9051854361711
 20
358.966270514209
 30
0.0
 10
110.7594195403227
 20
358.9656840720669
 30
0.0
 10
110.6729949953368
 20
358.9653363707408
 30
0.0
  0
LINE
  5
66
330
1F
100
AcDbEntity
  8
0
  6
Continuous
 62
     7
370
    15
100
AcDbLine
 10
135.6948828886
 20
358.9673280533
 30
0.0
 11
135.5519898508
 21
358.9676238728
 31
0.0
  0
LINE
  5
67
330
1F
100
AcDbEntity
  8
0
  6
Continuous
 62
     7
370
    15
100
AcDbLine
 10
111.5519898508
 20
358.9674645806
 30
0.0
 11
111.1296317462
 21
358.9666412557
 31
0.0
  0
SPLINE
  5
68
330
1F
100
AcDbEntity
  8
0
  6
Continuous
 62
     7
370
    15
100
AcDbSpline
210
0.0
220
0.0
230
1.0
 70
     8
 71
     3
 72
    20
 73
    16
 74
     0
 42
0.000000001
 43
0.00000001
 12
1.0
 22
0.0
 32
0.0
 13
1.0
 23
0.0
 33
0.0
 40
0.0
 40
0.0
 40
0.0
 40
0.0
 40
0.0268795805657641
 40
0.0776827985427886
 40
0.13402711600454
 40
0.2011791349276496
 40
0.2808942931711215
 40
0.3627277416232508
 40
0.4445424083606732
 40
0.5678476356224039
 40
0.6924800869288792
 40
0.8103746466214933
 40
0.9181859204271586
 40
0.9869700441994422
 40
0.9999999999999999
 40
0.9999999999999999
 40
0.9999999999999999
 40
0.9999999999999999
 10
109.7234731254746
 20
377.8585308425669
 30
0.0
 10
109.9320044315411
 20
377.8684725833369
 30
0.0
 10
110.5346661955291
 20
377.8972045140125
 30
0.0
 10
111.5607726817862
 20
377.941146938845
 30
0.0
 10
113.0259520414956
 20
378.0005645983827
 30
0.0
 10
114.8268374760609
 20
378.0706043549798
 30
0.0
 10
116.9007366917744
 20
378.1539662072967
 30
0.0
 10
119.1260159486858
 20
378.238976119563
 30
0.0
 10
121.7644702669207
 20
378.3043309457397
 30
0.0
 10
124.8053274240617
 20
378.3052476673695
 30
0.0
 10
128.1742041274977
 20
378.2237630440746
 30
0.0
 10
131.3781511137653
 20
378.1040482448046
 30
0.0
 10
134.0006361390429
 20
378.004216841273
 30
0.0
 10
135.575173352443
 20
377.941329992659
 30
0.0
 10
136.2236289569693
 20
377.9106423064984
 30
0.0
 10
136.326903942274
 20
377.9057548935203
 30
0.0
  0
LINE
  5
69
330
1F
100
AcDbEntity
  8
0
  6
Continuous
 62
     7
370
    15
100
AcDbLine
 10
101.0519898508
 20
402.8343213296
 30
0.0
 11
101.0519898508
 21
279.3343213296
 31
0.0
  0
LINE
  5
6A
330
1F
100
AcDbEntity
  8
0
  6
Continuous
 62
     7
370
    15
100
AcDbLine
 10
146.0519898508
 20
341.8331261749
 30
0.0
 11
146.0519898508
 21
402.8343213296
 31
0.0
  0
LINE
  5
6B
330
1F
100
AcDbEntity
  8
0
  6
Continuous
 62
     7
370
    15
100
AcDbLine
 10
146.0519898508
 20
279.3343213296
 30
0.0
 11
146.0519898508
 21
331.9661541698
 31
0.0
  0
ARC
  5
6C
330
1F
100
AcDbEntity
  8
0
  6
Continuous
 62
     7
370
    15
100
AcDbCircle
 10
101.2519898508
 20
404.6343213296
 30
0.0
 40
0.1999999999999886
100
AcDbArc
 50
90.0
 51
180.0
  0
ARC
  5
6D
330
1F
100
AcDbEntity
  8
0
  6
Continuous
 62
     7
370
    15
100
AcDbCircle
 10
145.8519898508
 20
404.6343213296
 30
0.0
 40
0.1999999999999886
100
AcDbArc
 50
0.0
 51
90.0
  0
LINE
  5
6E
330
1F
100
AcDbEntity
  8
0
  6
Continuous
 62
     7
370
    15
100
AcDbLine
 10
101.0519898508
 20
404.6343213296
 30
0.0
 11
101.0519898508
 21
403.0343213296
 31
0.0
  0
LINE
  5
6F
330
1F
100
AcDbEntity
  8
0
  6
Continuous
 62
     7
370
    15
100
AcDbLine
 10
146.0519898508
 20
403.0343213296
 30
0.0
 11
146.0519898508
 21
404.6343213296
 31
0.0
  0
ARC
  5
70
330
1F
100
AcDbEntity
  8
0
  6
Continuous
 62
     7
370
    15
100
AcDbCircle
 10
145.8519898508
 20
403.0343213296
 30
0.0
 40
0.2000000000000455
100
AcDbArc
 50
270.0
 51
0.0
  0
ARC
  5
71
330
1F
100
AcDbEntity
  8
0
  6
Continuous
 62
     7
370
    15
100
AcDbCircle
 10
101.2519898508
 20
403.0343213296
 30
0.0
 40
0.2000000000000455
100
AcDbArc
 50
180.0
 51
270.0
  0
ARC
  5
72
330
1F
100
AcDbEntity
  8
0
  6
Continuous
 62
     7
370
    15
100
AcDbCircle
 10
164.2519898508
 20
343.8986806836
 30
0.0
 40
0.5
100
AcDbArc
 50
0.0
 51
90.0
  0
ARC
  5
73
330
1F
100
AcDbEntity
  8
0
  6
Continuous
 62
     7
370
    15
100
AcDbCircle
 10
164.2519898508
 20
329.8986806836
 30
0.0
 40
0.5
100
AcDbArc
 50
270.0
 51
0.0
  0
ARC
  5
74
330
1F
100
AcDbEntity
  8
0
  6
Continuous
 62
     7
370
    15
100
AcDbCircle
 10
147.7519898508
 20
329.8986806836
 30
0.0
 40
0.5
100
AcDbArc
 50
180.0
 51
270.0
  0
ARC
  5
75
330
1F
100
AcDbEntity
  8
0
  6
Continuous
 62
     7
370
    15
100
AcDbCircle
 10
147.7519898508
 20
343.8986806836
 30
0.0
 40
0.5
100
AcDbArc
 50
90.0
 51
180.0
  0
LINE
  5
76
330
1F
100
AcDbEntity
  8
0
  6
Continuous
 62
     7
370
    15
100
AcDbLine
 10
153.7519898508
 20
344.3986806836
 30
0.0
 11
147.7519898508
 21
344.3986806836
 31
0.0
  0
LINE
  5
77
330
1F
100
AcDbEntity
  8
0
  6
Continuous
 62
     7
370
    15
100
AcDbLine
 10
164.2519898508
 20
344.3986806836
 30
0.0
 11
161.7378629327
 21
344.3986806836
 31
0.0
  0
LINE
  5
78
330
1F
100
AcDbEntity
  8
0
  6
Continuous
 62
     7
370
    15
100
AcDbLine
 10
147.7519898508
 20
329.3986806836
 30
0.0
 11
164.2519898508
 21
329.3986806836
 31
0.0
  0
LINE
  5
79
330
1F
100
AcDbEntity
  8
0
  6
Continuous
 62
     7
370
    15
100
AcDbLine
 10
146.0481538206
 20
331.9486806836
 30
0.0
 11
147.2519898508
 21
331.9486806836
 31
0.0
  0
LINE
  5
7A
330
1F
100
AcDbEntity
  8
0
  6
Continuous
 62
     7
370
    15
100
AcDbLine
 10
147.2519898508
 20
341.8486806836
 30
0.0
 11
146.0485756375
 21
341.8486806836
 31
0.0
  0
ARC
  5
7B
330
1F
100
AcDbEntity
  8
0
  6
Continuous
 62
     7
370
    15
100
AcDbCircle
 10
160.7519898508
 20
360.8986806836
 30
0.0
 40
1.000000000000114
100
AcDbArc
 50
0.0
 51
90.0
  0
ARC
  5
7C
330
1F
100
AcDbEntity
  8
0
  6
Continuous
 62
     7
370
    15
100
AcDbCircle
 10
154.7519898508
 20
360.8986806836
 30
0.0
 40
0.9999999999999716
100
AcDbArc
 50
90.0
 51
180.0
  0
LINE
  5
7D
330
1F
100
AcDbEntity
  8
0
  6
Continuous
 62
     7
370
    15
100
AcDbLine
 10
161.7519898508
 20
344.3911558609
 30
0.0
 11
161.7519898508
 21
360.8986806836
 31
0.0
  0
LINE
  5
7E
330
1F
100
AcDbEntity
  8
0
  6
Continuous
 62
     7
370
    15
100
AcDbLine
 10
153.7519898508
 20
360.8986806836
 30
0.0
 11
153.7519898508
 21
344.3986806836
 31
0.0
  0
SPLINE
  5
7F
330
1F
100
AcDbEntity
  8
0
  6
Continuous
 62
     7
370
    15
100
AcDbSpline
210
0.0
220
0.0
230
1.0
 70
     8
 71
     3
 72
    36
 73
    32
 74
     0
 42
0.000000001
 43
0.00000001
 12
1.0
 22
0.0
 32
0.0
 13
1.0
 23
0.0
 33
0.0
 40
0.0
 40
0.0
 40
0.0
 40
0.0
 40
0.0078124999999996
 40
0.0078124999999996
 40
0.0156249999999993
 40
0.0156249999999993
 40
0.0312499999999986
 40
0.0312499999999986
 40
0.0468749999999979
 40
0.0468749999999979
 40
0.0624999999999972
 40
0.0624999999999972
 40
0.0781249999999964
 40
0.0781249999999964
 40
0.0859374999999962
 40
0.0859374999999962
 40
0.0937499999999959
 40
0.0937499999999959
 40
0.1015624999999956
 40
0.1015624999999956
 40
0.1093749999999957
 40
0.1093749999999957
 40
0.1249999999999958
 40
0.1249999999999958
 40
0.1874999999999959
 40
0.1874999999999959
 40
0.2499999999999961
 40
0.2499999999999961
 40
0.4999999999999976
 40
0.4999999999999976
 40
1.0
 40
1.0
 40
1.0
 40
1.0
 10
133.2383348375679
 20
361.0418846085004
 30
0.0
 10
133.5394370403444
 20
361.0418599819124
 30
0.0
 10
133.8464363702955
 20
361.0418445616396
 30
0.0
 10
134.4568029652314
 20
361.0417101756274
 30
0.0
 10
134.7612673920025
 20
361.0415494562607
 30
0.0
 10
135.6542286526174
 20
361.0408232216561
 30
0.0
 10
136.2249525824592
 20
361.0401314598942
 30
0.0
 10
137.2919506043438
 20
361.0380716757748
 30
0.0
 10
137.7865635475045
 20
361.0366684394833
 30
0.0
 10
138.6621055929941
 20
361.0335802571397
 30
0.0
 10
139.0414111655533
 20
361.0319049499204
 30
0.0
 10
139.659612593245
 20
361.0283019064873
 30
0.0
 10
139.9015937192603
 20
361.0263316819536
 30
0.0
 10
140.145271444693
 20
361.0235609036442
 30
0.0
 10
140.2041667451972
 20
361.0227313582597
 30
0.0
 10
140.278362744373
 20
361.0206383039173
 30
0.0
 10
140.2960669947936
 20
361.0193669799809
 30
0.0
 10
140.3135643581929
 20
361.0164165878295
 30
0.0
 10
140.3133745977468
 20
361.0147434347098
 30
0.0
 10
140.3154846811684
 20
361.0112873797864
 30
0.0
 10
140.3186773015243
 20
361.0095341603428
 30
0.0
 10
140.3305497776006
 20
361.0043581034682
 30
0.0
 10
140.3398356557071
 20
361.000977893123
 30
0.0
 10
140.3726475906736
 20
360.9845462502714
 30
0.0
 10
140.3892916849709
 20
360.9724432151298
 30
0.0
 10
140.4289078376045
 20
360.9493598980074
 30
0.0
 10
140.4497509825423
 20
360.9384944640085
 30
0.0
 10
140.5534193835208
 20
360.8885715137703
 30
0.0
 10
140.6388554633976
 20
360.8617220273395
 30
0.0
 10
140.9011220907808
 20
360.8066496196068
 30
0.0
 10
141.0832461610181
 20
360.8043310058177
 30
0.0
 10
141.263321780597
 20
360.8053313041067
 30
0.0
  0
SPLINE
  5
80
330
1F
100
AcDbEntity
  8
0
  6
Continuous
 62
     7
370
    15
100
AcDbSpline
210
0.0
220
0.0
230
1.0
 70
     8
 71
     3
 72
    14
 73
    10
 74
     0
 42
0.000000001
 43
0.00000001
 12
1.0
 22
0.0
 32
0.0
 13
1.0
 23
0.0
 33
0.0
 40
0.0
 40
0.0
 40
0.0
 40
0.0
 40
0.0005842952070931
 40
0.0005842952070931
 40
0.0005842952070931
 40
0.0033842809732692
 40
0.0033842809732692
 40
0.0033842809732692
 40
0.0096857313326998
 40
0.0096857313326998
 40
0.0096857313326998
 40
0.0096857313326998
 10
133.2383348375681
 20
361.0418846085004
 30
0.0
 10
133.0435848130085
 20
361.0419005371526
 30
0.0
 10
132.8488024410627
 20
361.0419026938897
 30
0.0
 10
132.654039630877
 20
361.0419023303726
 30
0.0
 10
131.7207141297962
 20
361.0419005883581
 30
0.0
 10
130.7873742545318
 20
361.0418830541067
 30
0.0
 10
129.8540379568661
 20
361.0418763033367
 30
0.0
 10
127.7535344583229
 20
361.0418611105107
 30
0.0
 10
125.6530340840437
 20
361.0418972937358
 30
0.0
 10
123.5525305223542
 20
361.0418975335413
 30
0.0
  0
SPLINE
  5
81
330
1F
100
AcDbEntity
  8
0
  6
Continuous
 62
     7
370
    15
100
AcDbSpline
210
0.0
220
0.0
230
1.0
 70
     8
 71
     3
 72
    20
 73
    16
 74
     0
 42
0.000000001
 43
0.00000001
 12
1.0
 22
0.0
 32
0.0
 13
1.0
 23
0.0
 33
0.0
 40
0.0
 40
0.0
 40
0.0
 40
0.0
 40
0.1250000000000002
 40
0.1250000000000002
 40
0.1875000000000001
 40
0.1875000000000001
 40
0.2500000000000001
 40
0.2500000000000001
 40
0.3125
 40
0.3125
 40
0.3749999999999999
 40
0.3749999999999999
 40
0.4999999999999999
 40
0.4999999999999999
 40
1.0
 40
1.0
 40
1.0
 40
1.0
 10
136.1346426144104
 20
375.6313517587402
 30
0.0
 10
135.6539707469879
 20
375.6367914183746
 30
0.0
 10
135.1515024184029
 20
375.6397442083306
 30
0.0
 10
134.3808655094808
 20
375.643134036051
 30
0.0
 10
134.1212458974792
 20
375.644251313359
 30
0.0
 10
133.59031828745
 20
375.6470485770737
 30
0.0
 10
133.323809651623
 20
375.6489583020954
 30
0.0
 10
132.7942839839367
 20
375.6525849708851
 30
0.0
 10
132.531560556033
 20
375.6541297408476
 30
0.0
 10
132.0034637784446
 20
375.656082837784
 30
0.0
 10
131.7390635399419
 20
375.6566698936719
 30
0.0
 10
130.946442448595
 20
375.6579127915892
 30
0.0
 10
130.4193730129655
 20
375.6580932807661
 30
0.0
 10
127.7779140087761
 20
375.6577892287712
 30
0.0
 10
125.6662267463758
 20
375.6540981341231
 30
0.0
 10
123.5533796482344
 20
375.6541368737834
 30
0.0
  0
SPLINE
  5
82
330
1F
100
AcDbEntity
  8
0
  6
Continuous
 62
     7
370
    15
100
AcDbSpline
210
0.0
220
0.0
230
1.0
 70
     8
 71
     3
 72
    32
 73
    28
 74
     0
 42
0.000000001
 43
0.00000001
 12
1.0
 22
0.0
 32
0.0
 13
1.0
 23
0.0
 33
0.0
 40
0.0
 40
0.0
 40
0.0
 40
0.0
 40
0.4999999999999986
 40
0.4999999999999986
 40
0.749999999999998
 40
0.749999999999998
 40
0.8749999999999979
 40
0.8749999999999979
 40
0.9062499999999979
 40
0.9062499999999979
 40
0.921874999999998
 40
0.921874999999998
 40
0.9374999999999984
 40
0.9374999999999984
 40
0.9453124999999986
 40
0.9453124999999986
 40
0.9531249999999988
 40
0.9531249999999988
 40
0.960937499999999
 40
0.960937499999999
 40
0.9687499999999992
 40
0.9687499999999992
 40
0.9765624999999994
 40
0.9765624999999994
 40
0.9843749999999996
 40
0.9843749999999996
 40
1.0
 40
1.0
 40
1.0
 40
1.0
 10
141.2598552331634
 20
375.8826855291591
 30
0.0
 10
141.0849531063274
 20
375.8776753004303
 30
0.0
 10
140.9083754011535
 20
375.8696477224634
 30
0.0
 10
140.6526267604031
 20
375.8094015854905
 30
0.0
 10
140.5691460540471
 20
375.7814750909204
 30
0.0
 10
140.4469076960459
 20
375.7211141417864
 30
0.0
 10
140.4067145128791
 20
375.6977909209255
 30
0.0
 10
140.3581969405141
 20
375.6654925906525
 30
0.0
 10
140.3481099985875
 20
375.6588250564753
 30
0.0
 10
140.326216439528
 20
375.6481755809266
 30
0.0
 10
140.3150441800787
 20
375.6445542662011
 30
0.0
 10
140.3133255604585
 20
375.6366453289565
 30
0.0
 10
140.3234980783321
 20
375.6323815047168
 30
0.0
 10
140.2387000638299
 20
375.6274652363653
 30
0.0
 10
140.1921738493091
 20
375.6261601240361
 30
0.0
 10
140.0536410487612
 20
375.6235816637107
 30
0.0
 10
139.9630658136675
 20
375.6222759381164
 30
0.0
 10
139.743501254991
 20
375.6198136700459
 30
0.0
 10
139.6155916573132
 20
375.618709144137
 30
0.0
 10
139.3261872041474
 20
375.6170248931595
 30
0.0
 10
139.1643795322897
 20
375.616433633411
 30
0.0
 10
138.8041162492166
 20
375.6159424814798
 30
0.0
 10
138.6047354195501
 20
375.616053879053
 30
0.0
 10
138.1790742432523
 20
375.6169915774851
 30
0.0
 10
137.9528383191674
 20
375.6178018503376
 30
0.0
 10
137.2373776737
 20
375.6212289362572
 30
0.0
 10
136.7119096097756
 20
375.6249170356796
 30
0.0
 10
136.1348847686923
 20
375.6313591908983
 30
0.0
  0
SPLINE
  5
83
330
1F
100
AcDbEntity
  8
0
  6
Continuous
 62
     7
370
    15
100
AcDbSpline
210
0.0
220
0.0
230
1.0
 70
     8
 71
     3
 72
     8
 73
     4
 74
     0
 42
0.000000001
 43
0.00000001
 12
1.0
 22
0.0
 32
0.0
 13
1.0
 23
0.0
 33
0.0
 40
0.0943514823238665
 40
0.0943514823238665
 40
0.0943514823238665
 40
0.0943514823238665
 40
0.8992676120841631
 40
0.8992676120841631
 40
0.8992676120841631
 40
0.8992676120841631
 10
141.2598595439381
 20
375.8825810366683
 30
0.0
 10
141.450774987194
 20
370.8553562545964
 30
0.0
 10
141.4519334320972
 20
365.8327387876241
 30
0.0
 10
141.2633343230158
 20
360.8056094212338
 30
0.0
  0
SPLINE
  5
84
330
1F
100
AcDbEntity
  8
0
  6
Continuous
 62
     7
370
    15
100
AcDbSpline
210
0.0
220
0.0
230
1.0
 70
     8
 71
     3
 72
    34
 73
    30
 74
     0
 42
0.000000001
 43
0.00000001
 12
1.0
 22
0.0
 32
0.0
 13
1.0
 23
0.0
 33
0.0
 40
0.0
 40
0.0
 40
0.0
 40
0.0
 40
0.0078125
 40
0.0078125
 40
0.015625
 40
0.015625
 40
0.0234374999999999
 40
0.0234374999999999
 40
0.0312499999999999
 40
0.0312499999999999
 40
0.0390624999999999
 40
0.0390624999999999
 40
0.0468749999999999
 40
0.0468749999999999
 40
0.0546874999999998
 40
0.0546874999999998
 40
0.0624999999999998
 40
0.0624999999999998
 40
0.0781249999999998
 40
0.0781249999999998
 40
0.0937499999999997
 40
0.0937499999999997
 40
0.1249999999999996
 40
0.1249999999999996
 40
0.2499999999999996
 40
0.2499999999999996
 40
0.4999999999999999
 40
0.4999999999999999
 40
1.0
 40
1.0
 40
1.0
 40
1.0
 10
110.9690952390032
 20
375.6313591943148
 30
0.0
 10
110.6865521235472
 20
375.6282047602421
 30
0.0
 10
110.4235144388531
 20
375.625795350493
 30
0.0
 10
109.9169843109034
 20
375.6218665743778
 30
0.0
 10
109.6721847185599
 20
375.6203440538251
 30
0.0
 10
109.2030508793667
 20
375.6179962486412
 30
0.0
 10
108.9782761404038
 20
375.6171541084133
 30
0.0
 10
108.5587138400147
 20
375.6161112812389
 30
0.0
 10
108.3649911564321
 20
375.615922235993
 30
0.0
 10
108.0089661827693
 20
375.6162147128073
 30
0.0
 10
107.8464840601008
 20
375.6166969516968
 30
0.0
 10
107.5527062039103
 20
375.6181801804083
 30
0.0
 10
107.4219267256567
 20
375.6191858460567
 30
0.0
 10
107.1973488016404
 20
375.6214594182489
 30
0.0
 10
107.1024185194462
 20
375.6227056240404
 30
0.0
 10
106.9494245827222
 20
375.6251943168904
 30
0.0
 10
106.8926525295057
 20
375.6264371455969
 30
0.0
 10
106.7850830206526
 20
375.6310609099715
 30
0.0
 10
106.7892661370109
 20
375.635251361453
 30
0.0
 10
106.7902541355948
 20
375.6432238515553
 30
0.0
 10
106.780203227776
 20
375.6469043491762
 30
0.0
 10
106.7574695652098
 20
375.6576045446988
 30
0.0
 10
106.7472500450385
 20
375.6642970243511
 30
0.0
 10
106.6983786518724
 20
375.6966598750145
 30
0.0
 10
106.6583566923198
 20
375.7200188700057
 30
0.0
 10
106.5359330045045
 20
375.780557034036
 30
0.0
 10
106.4523313099394
 20
375.8085865527802
 30
0.0
 10
106.1961862794682
 20
375.8691532847939
 30
0.0
 10
106.0193124130802
 20
375.8773972102741
 30
0.0
 10
105.8441222222177
 20
375.8826266085372
 30
0.0
  0
SPLINE
  5
85
330
1F
100
AcDbEntity
  8
0
  6
Continuous
 62
     7
370
    15
100
AcDbSpline
210
0.0
220
0.0
230
1.0
 70
     8
 71
     3
 72
    20
 73
    16
 74
     0
 42
0.000000001
 43
0.00000001
 12
1.0
 22
0.0
 32
0.0
 13
1.0
 23
0.0
 33
0.0
 40
0.0
 40
0.0
 40
0.0
 40
0.0
 40
0.5000000000000009
 40
0.5000000000000009
 40
0.6250000000000011
 40
0.6250000000000011
 40
0.6875000000000012
 40
0.6875000000000012
 40
0.7500000000000013
 40
0.7500000000000013
 40
0.8125000000000014
 40
0.8125000000000014
 40
0.8750000000000016
 40
0.8750000000000016
 40
1.0
 40
1.0
 40
1.0
 40
1.0
 10
123.55060005345
 20
375.6541369276872
 30
0.0
 10
121.4384510715584
 20
375.6541800679619
 30
0.0
 10
119.3250114707684
 20
375.6575343613799
 30
0.0
 10
116.6851175711819
 20
375.6580464500746
 30
0.0
 10
116.1571501208157
 20
375.6578314432869
 30
0.0
 10
115.3647714479104
 20
375.6566055240681
 30
0.0
 10
115.1006139677123
 20
375.6560423461286
 30
0.0
 10
114.572648468269
 20
375.6541906842395
 30
0.0
 10
114.3091723808548
 20
375.6527285000492
 30
0.0
 10
113.7798460058972
 20
375.6492155996054
 30
0.0
 10
113.5141513327749
 20
375.6473050553278
 30
0.0
 10
112.9825055040771
 20
375.6444725965043
 30
0.0
 10
112.7230702107128
 20
375.6433273697888
 30
0.0
 10
111.9522560602587
 20
375.6397907176213
 30
0.0
 10
111.4500362164696
 20
375.6367984640109
 30
0.0
 10
110.9693547681499
 20
375.6313542192709
 30
0.0
  0
SPLINE
  5
86
330
1F
100
AcDbEntity
  8
0
  6
Continuous
 62
     7
370
    15
100
AcDbSpline
210
0.0
220
0.0
230
1.0
 70
     8
 71
     3
 72
    15
 73
    11
 74
     0
 42
0.000000001
 43
0.00000001
 12
1.0
 22
0.0
 32
0.0
 13
1.0
 23
0.0
 33
0.0
 40
0.0
 40
0.0
 40
0.0
 40
0.0
 40
0.5
 40
0.5
 40
0.7500000000000001
 40
0.7500000000000001
 40
0.8750000000000003
 40
0.9375000000000002
 40
0.9375000000000002
 40
1.0
 40
1.0
 40
1.0
 40
1.0
 10
123.5514491793163
 20
361.0418975335413
 30
0.0
 10
121.9371439579312
 20
361.041897349243
 30
0.0
 10
120.3228420531572
 20
361.0418832425426
 30
0.0
 10
117.9013887080792
 20
361.0418717181697
 30
0.0
 10
117.0942378654013
 20
361.0418764617955
 30
0.0
 10
115.8835125571058
 20
361.0418923109659
 30
0.0
 10
115.2781501458349
 20
361.0418997153088
 30
0.0
 10
114.6727882131772
 20
361.0419018902612
 30
0.0
 10
114.2692137086958
 20
361.041902689481
 30
0.0
 10
114.0674264791057
 20
361.0419011124928
 30
0.0
 10
113.8656391563152
 20
361.0418846080336
 30
0.0
  0
SPLINE
  5
87
330
1F
100
AcDbEntity
  8
0
  6
Continuous
 62
     7
370
    15
100
AcDbSpline
210
0.0
220
0.0
230
1.0
 70
     8
 71
     3
 72
    36
 73
    32
 74
     0
 42
0.000000001
 43
0.00000001
 12
1.0
 22
0.0
 32
0.0
 13
1.0
 23
0.0
 33
0.0
 40
0.0
 40
0.0
 40
0.0
 40
0.0
 40
0.499999999999999
 40
0.499999999999999
 40
0.7499999999999984
 40
0.7499999999999984
 40
0.8124999999999984
 40
0.8124999999999984
 40
0.8749999999999984
 40
0.8749999999999984
 40
0.8906249999999988
 40
0.8906249999999988
 40
0.8984374999999991
 40
0.8984374999999991
 40
0.9062499999999994
 40
0.9062499999999994
 40
0.9140624999999998
 40
0.9140624999999998
 40
0.921875
 40
0.921875
 40
0.9375
 40
0.9375
 40
0.953125
 40
0.953125
 40
0.96875
 40
0.96875
 40
0.9843749999999999
 40
0.9843749999999999
 40
0.9921875
 40
0.9921875
 40
1.0
 40
1.0
 40
1.0
 40
1.0
 10
105.8406579211354
 20
360.8053313025015
 30
0.0
 10
106.0207335320654
 20
360.8043309978945
 30
0.0
 10
106.2028575933846
 20
360.8066496049061
 30
0.0
 10
106.465124209094
 20
360.861722003057
 30
0.0
 10
106.5505602854385
 20
360.8885714864476
 30
0.0
 10
106.6542286818798
 20
360.9384944321741
 30
0.0
 10
106.6750718248959
 20
360.9493598652451
 30
0.0
 10
106.7146879813119
 20
360.9724431813789
 30
0.0
 10
106.7313320801143
 20
360.9845462161982
 30
0.0
 10
106.7641439860485
 20
361.000977857381
 30
0.0
 10
106.7734298452095
 20
361.0043580673063
 30
0.0
 10
106.7853023371699
 20
361.0095341238115
 30
0.0
 10
106.7884949892197
 20
361.0112873428217
 30
0.0
 10
106.7906050953786
 20
361.014743398737
 30
0.0
 10
106.7904152964998
 20
361.0164165537415
 30
0.0
 10
106.8079124537781
 20
361.0193669504794
 30
0.0
 10
106.8256165411704
 20
361.020638277288
 30
0.0
 10
106.8998120879336
 20
361.022731336746
 30
0.0
 10
106.9587070938269
 20
361.0235608825393
 30
0.0
 10
107.2023840566403
 20
361.0263316594929
 30
0.0
 10
107.444364785916
 20
361.0283018848548
 30
0.0
 10
108.0625653622359
 20
361.0319049304152
 30
0.0
 10
108.44187051702
 20
361.0335802386157
 30
0.0
 10
109.3174118338395
 20
361.0366684232764
 30
0.0
 10
109.8120244642639
 20
361.0380716615522
 30
0.0
 10
110.8790219567476
 20
361.0401314502255
 30
0.0
 10
111.4497456788597
 20
361.0408232136768
 30
0.0
 10
112.3427066904315
 20
361.0415494516975
 30
0.0
 10
112.6471710384142
 20
361.0417101728212
 30
0.0
 10
113.2575375518376
 20
361.0418445608552
 30
0.0
 10
113.5645368836243
 20
361.041859981104
 30
0.0
 10
113.8656391563151
 20
361.0418846080336
 30
0.0
  0
SPLINE
  5
88
330
1F
100
AcDbEntity
  8
0
  6
Continuous
 62
     7
370
    15
100
AcDbSpline
210
0.0
220
0.0
230
1.0
 70
     8
 71
     3
 72
     8
 73
     4
 74
     0
 42
0.000000001
 43
0.00000001
 12
1.0
 22
0.0
 32
0.0
 13
1.0
 23
0.0
 33
0.0
 40
0.0943514823238665
 40
0.0943514823238665
 40
0.0943514823238665
 40
0.0943514823238665
 40
0.899267612084163
 40
0.899267612084163
 40
0.899267612084163
 40
0.899267612084163
 10
105.8406453786547
 20
360.8056094212338
 30
0.0
 10
105.6520462695732
 20
365.8327387876241
 30
0.0
 10
105.6532047144764
 20
370.8553562545964
 30
0.0
 10
105.8441201577324
 20
375.8825810366683
 30
0.0
  0
SPLINE
  5
89
330
1F
100
AcDbEntity
  8
0
  6
Continuous
 62
     7
370
    15
100
AcDbSpline
210
0.0
220
0.0
230
1.0
 70
     8
 71
     3
 72
    20
 73
    16
 74
     0
 42
0.000000001
 43
0.00000001
 12
1.0
 22
0.0
 32
0.0
 13
1.0
 23
0.0
 33
0.0
 40
0.0
 40
0.0
 40
0.0
 40
0.0
 40
0.4999999999999989
 40
0.4999999999999989
 40
0.6249999999999988
 40
0.6249999999999988
 40
0.687499999999999
 40
0.687499999999999
 40
0.7499999999999992
 40
0.7499999999999992
 40
0.8124999999999994
 40
0.8124999999999994
 40
0.8749999999999996
 40
0.8749999999999996
 40
1.0
 40
1.0
 40
1.0
 40
1.0
 10
123.5534048338989
 20
377.0037589450856
 30
0.0
 10
125.6623504375418
 20
377.0037200908131
 30
0.0
 10
127.7729784248261
 20
377.0069964491518
 30
0.0
 10
130.4208502771473
 20
377.0076587909361
 30
0.0
 10
130.9493688872959
 20
377.0075804918806
 30
0.0
 10
131.7456981681122
 20
377.006670207397
 30
0.0
 10
132.0116179676101
 20
377.0062298308941
 30
0.0
 10
132.5439138855403
 20
377.004654939905
 30
0.0
 10
132.8159947326898
 20
377.0033471682473
 30
0.0
 10
133.3170277641742
 20
377.0001798554942
 30
0.0
 10
133.5503768311863
 20
376.9985004639365
 30
0.0
 10
133.9720628482481
 20
376.9960518035968
 30
0.0
 10
134.1828290943826
 20
376.9950800152195
 30
0.0
 10
134.8080910687457
 20
376.9919546999528
 30
0.0
 10
135.2234697938111
 20
376.989046675685
 30
0.0
 10
135.6207918403749
 20
376.9834558657059
 30
0.0
  0
SPLINE
  5
8A
330
1F
100
AcDbEntity
  8
0
  6
Continuous
 62
     7
370
    15
100
AcDbSpline
210
0.0
220
0.0
230
1.0
 70
     8
 71
     3
 72
    20
 73
    16
 74
     0
 42
0.000000001
 43
0.00000001
 12
1.0
 22
0.0
 32
0.0
 13
1.0
 23
0.0
 33
0.0
 40
0.0
 40
0.0
 40
0.0
 40
0.0
 40
0.125
 40
0.125
 40
0.1875
 40
0.1875
 40
0.25
 40
0.25
 40
0.3125
 40
0.3125
 40
0.375
 40
0.375
 40
0.5
 40
0.5
 40
1.0
 40
1.0
 40
1.0
 40
1.0
 10
111.4831621890111
 20
376.983456426959
 30
0.0
 10
111.8804814620438
 20
376.9890466713293
 30
0.0
 10
112.295386942507
 20
376.9919964681626
 30
0.0
 10
112.9208321785219
 20
376.9952979734524
 30
0.0
 10
113.1316414696199
 20
376.996287789531
 30
0.0
 10
113.5538667892839
 20
376.9987614031481
 30
0.0
 10
113.7868239881139
 20
377.0004508791018
 30
0.0
 10
114.2879006138863
 20
377.0035003908347
 30
0.0
 10
114.5606235293018
 20
377.0047258512165
 30
0.0
 10
115.0926199069224
 20
377.0062071529547
 30
0.0
 10
115.3582011610145
 20
377.0066250600371
 30
0.0
 10
116.1541287040824
 20
377.0075116142667
 30
0.0
 10
116.6836619502834
 20
377.0076206566832
 30
0.0
 10
119.3303376338892
 20
377.0067730879396
 30
0.0
 10
121.441794349088
 20
377.0037990853057
 30
0.0
 10
123.5506283293759
 20
377.0037589970523
 30
0.0
  0
LWPOLYLINE
  5
8B
330
1F
100
AcDbEntity
  8
0
  6
Continuous
 62
     7
370
    15
100
AcDbPolyline
 90
        9
 70
   128
 43
0.0
 10
123.5525307
 20
359.7024259842
 10
123.5525307336
 20
359.7294855592
 10
123.552530766
 20
359.8059964696
 10
123.552530796
 20
359.9292028342
 10
123.5525308226
 20
360.0946668271
 10
123.5525308447
 20
360.2964285255
 10
123.5525308616
 20
360.5272205833
 10
123.5525308728
 20
360.7787299966
 10
123.5525308776
 20
361.0418975337
  0
SPLINE
  5
8C
330
1F
100
AcDbEntity
  8
0
  6
Continuous
 62
     7
370
    15
100
AcDbSpline
210
0.0
220
0.0
230
1.0
 70
     8
 71
     3
 72
    15
 73
    11
 74
     0
 42
0.000000001
 43
0.00000001
 12
1.0
 22
0.0
 32
0.0
 13
1.0
 23
0.0
 33
0.0
 40
0.0
 40
0.0
 40
0.0
 40
0.0
 40
0.0624999999999997
 40
0.0624999999999997
 40
0.1249999999999994
 40
0.2499999999999994
 40
0.2499999999999994
 40
0.4999999999999997
 40
0.4999999999999997
 40
1.0
 40
1.0
 40
1.0
 40
1.0
 10
113.8830188599647
 20
359.7024267909859
 30
0.0
 10
114.0844676644494
 20
359.7024442731088
 30
0.0
 10
114.2859156512018
 20
359.7024312307915
 30
0.0
 10
114.6888119555375
 20
359.7024179440596
 30
0.0
 10
115.2931564124826
 20
359.7024007166141
 30
0.0
 10
115.897500870629
 20
359.7023908418273
 30
0.0
 10
117.1061897881412
 20
359.7023785546434
 30
0.0
 10
117.9119824014154
 20
359.7023801528596
 30
0.0
 10
120.3293602432913
 20
359.7023975137363
 30
0.0
 10
121.9409454739695
 20
359.7024259855977
 30
0.0
 10
123.5525306999955
 20
359.7024259841683
 30
0.0
  0
SPLINE
  5
8D
330
1F
100
AcDbEntity
  8
0
  6
Continuous
 62
     7
370
    15
100
AcDbSpline
210
0.0
220
0.0
230
1.0
 70
     8
 71
     3
 72
    15
 73
    11
 74
     0
 42
0.000000001
 43
0.00000001
 12
1.0
 22
0.0
 32
0.0
 13
1.0
 23
0.0
 33
0.0
 40
0.0
 40
0.0
 40
0.0
 40
0.0
 40
0.5000000000000006
 40
0.5000000000000006
 40
0.7500000000000007
 40
0.7500000000000007
 40
0.8750000000000007
 40
0.9375000000000003
 40
0.9375000000000003
 40
1.0
 40
1.0
 40
1.0
 40
1.0
 10
123.5525306999955
 20
359.7024259841693
 30
0.0
 10
125.1639347840197
 20
359.7024259855985
 30
0.0
 10
126.7753388727936
 20
359.7023975048351
 30
0.0
 10
129.192445001724
 20
359.7023801515126
 30
0.0
 10
129.998147044002
 20
359.702378556086
 30
0.0
 10
131.206700104971
 20
359.7023908451712
 30
0.0
 10
131.8109766348336
 20
359.7024007203397
 30
0.0
 10
132.41525316347
 20
359.7024179466893
 30
0.0
 10
132.8181041822606
 20
359.7024312323021
 30
0.0
 10
133.0195295265378
 20
359.7024442710344
 30
0.0
 10
133.2209556872965
 20
359.7024267914332
 30
0.0
  0
SPLINE
  5
8E
330
1F
100
AcDbEntity
  8
0
  6
Continuous
 62
     7
370
    15
100
AcDbSpline
210
0.0
220
0.0
230
1.0
 70
     8
 71
     3
 72
    42
 73
    38
 74
     0
 42
0.000000001
 43
0.00000001
 12
1.0
 22
0.0
 32
0.0
 13
1.0
 23
0.0
 33
0.0
 40
0.0
 40
0.0
 40
0.0
 40
0.0
 40
0.0078124999999986
 40
0.0078124999999986
 40
0.0156249999999973
 40
0.0156249999999973
 40
0.031249999999995
 40
0.031249999999995
 40
0.0468749999999928
 40
0.0468749999999928
 40
0.0624999999999906
 40
0.0624999999999906
 40
0.070312499999989
 40
0.070312499999989
 40
0.0781249999999876
 40
0.0781249999999876
 40
0.085937499999986
 40
0.085937499999986
 40
0.0937499999999845
 40
0.0937499999999845
 40
0.101562499999983
 40
0.101562499999983
 40
0.1054687499999826
 40
0.1054687499999826
 40
0.1093749999999826
 40
0.1093749999999826
 40
0.1249999999999829
 40
0.1249999999999829
 40
0.1562499999999835
 40
0.1562499999999835
 40
0.1874999999999841
 40
0.1874999999999841
 40
0.2499999999999852
 40
0.2499999999999852
 40
0.4999999999999903
 40
0.4999999999999903
 40
1.0
 40
1.0
 40
1.0
 40
1.0
 10
113.8830188599647
 20
359.7024267909859
 30
0.0
 10
113.6169871054734
 20
359.7024037043004
 30
0.0
 10
113.3848896102752
 20
359.7023223670198
 30
0.0
 10
112.9217039759539
 20
359.7019308463102
 30
0.0
 10
112.6879424894851
 20
359.7016176377539
 30
0.0
 10
111.9984046852216
 20
359.7003698642374
 30
0.0
 10
111.5530944000998
 20
359.6991202707915
 30
0.0
 10
110.7140376145997
 20
359.6958855479571
 30
0.0
 10
110.322383773283
 20
359.6939023775097
 30
0.0
 10
109.6269740189636
 20
359.6893606708638
 30
0.0
 10
109.3243732490418
 20
359.6868049721303
 30
0.0
 10
108.9454025774613
 20
359.6825984971371
 30
0.0
 10
108.8314460569143
 20
359.6811357457454
 30
0.0
 10
108.6291570937469
 20
359.678105486046
 30
0.0
 10
108.5405033317664
 20
359.6765322789671
 30
0.0
 10
108.3942463123772
 20
359.673365589915
 30
0.0
 10
108.3371670049997
 20
359.6717858543326
 30
0.0
 10
108.2579720161883
 20
359.668635183783
 30
0.0
 10
108.233579040998
 20
359.6669730227846
 30
0.0
 10
108.2040453997498
 20
359.6633927486977
 30
0.0
 10
108.1993850931015
 20
359.6614896968553
 30
0.0
 10
108.1971749454956
 20
359.6584785049211
 30
0.0
 10
108.1971414314992
 20
359.6574501691831
 30
0.0
 10
108.1963778243636
 20
359.6553537415385
 30
0.0
 10
108.1954923913951
 20
359.6542889360576
 30
0.0
 10
108.1894755483413
 20
359.6490426404515
 30
0.0
 10
108.1797397196641
 20
359.6449473383716
 30
0.0
 10
108.1618879298553
 20
359.6325878551556
 30
0.0
 10
108.1544431620192
 20
359.6243361007025
 30
0.0
 10
108.139255559614
 20
359.6078215152914
 30
0.0
 10
108.1322904955241
 20
359.5995585963986
 30
0.0
 10
108.1119141686443
 20
359.5747668517258
 30
0.0
 10
108.0983012072834
 20
359.5582420457633
 30
0.0
 10
108.0337394074619
 20
359.4756161181193
 30
0.0
 10
107.9920912519428
 20
359.4095008993297
 30
0.0
 10
107.8871351532602
 20
359.2111417124235
 30
0.0
 10
107.8442601851345
 20
359.0788745921484
 30
0.0
 10
107.8079012021011
 20
358.946619433565
 30
0.0
  0
SPLINE
  5
8F
330
1F
100
AcDbEntity
  8
0
  6
Continuous
 62
     7
370
    15
100
AcDbSpline
210
0.0
220
0.0
230
1.0
 70
     8
 71
     3
 72
    19
 73
    15
 74
     0
 42
0.000000001
 43
0.00000001
 12
1.0
 22
0.0
 32
0.0
 13
1.0
 23
0.0
 33
0.0
 40
0.0
 40
0.0
 40
0.0
 40
0.0
 40
0.0548699156547024
 40
0.1148355272996287
 40
0.1799430646747024
 40
0.2502334852848296
 40
0.3053228964358088
 40
0.3751541999005159
 40
0.5005514366190744
 40
0.6379691996893103
 40
0.750161176308888
 40
0.8402347527363064
 40
0.9235368810579616
 40
1.0
 40
1.0
 40
1.0
 40
1.0
 10
107.8079012221879
 20
358.9466195066305
 30
0.0
 10
107.7718762496286
 20
358.9467290137204
 30
0.0
 10
107.696480713287
 20
358.946958197678
 30
0.0
 10
107.5785056811103
 20
358.9559412021607
 30
0.0
 10
107.4508178663221
 20
358.9733161572099
 30
0.0
 10
107.3272096693516
 20
358.9990553921749
 30
0.0
 10
107.2019531446097
 20
359.0335917216032
 30
0.0
 10
107.0432330542655
 20
359.088535119154
 30
0.0
 10
106.8377910732309
 20
359.1836798916599
 30
0.0
 10
106.6173618771299
 20
359.3257683108471
 30
0.0
 10
106.4318569183181
 20
359.4845104545925
 30
0.0
 10
106.2878395626155
 20
359.6400249454054
 30
0.0
 10
106.1718177247438
 20
359.7912573153633
 30
0.0
 10
106.107479574732
 20
359.9002908729079
 30
0.0
 10
106.0766875489246
 20
359.9524739729375
 30
0.0
  0
SPLINE
  5
90
330
1F
100
AcDbEntity
  8
0
  6
Continuous
 62
     7
370
    15
100
AcDbSpline
210
0.0
220
0.0
230
1.0
 70
     8
 71
     3
 72
    15
 73
    11
 74
     0
 42
0.000000001
 43
0.00000001
 12
1.0
 22
0.0
 32
0.0
 13
1.0
 23
0.0
 33
0.0
 40
0.0
 40
0.0
 40
0.0
 40
0.0
 40
0.0832154929985164
 40
0.1665783322918773
 40
0.2505318485970968
 40
0.3762872916724225
 40
0.5007395814976239
 40
0.6707649381837605
 40
0.8359937618843537
 40
1.0
 40
1.0
 40
1.0
 40
1.0
 10
106.0766875489246
 20
359.9524739729375
 30
0.0
 10
106.0684460815086
 20
359.9676390437409
 30
0.0
 10
106.0519485538449
 20
359.9979960375227
 30
0.0
 10
106.0257438779625
 20
360.0507321949345
 30
0.0
 10
105.9948538917168
 20
360.1181087283022
 30
0.0
 10
105.9601609065179
 20
360.2033380562585
 30
0.0
 10
105.919464993121
 20
360.3219692243188
 30
0.0
 10
105.8817608209755
 20
360.4648149256667
 30
0.0
 10
105.8516710272264
 20
360.6325285901483
 30
0.0
 10
105.844319857664
 20
360.7478731723846
 30
0.0
 10
105.8406579218451
 20
360.8053313024975
 30
0.0
  0
SPLINE
  5
91
330
1F
100
AcDbEntity
  8
0
  6
Continuous
 62
     7
370
    15
100
AcDbSpline
210
0.0
220
0.0
230
1.0
 70
     8
 71
     3
 72
    18
 73
    14
 74
     0
 42
0.000000001
 43
0.00000001
 12
1.0
 22
0.0
 32
0.0
 13
1.0
 23
0.0
 33
0.0
 40
0.0
 40
0.0
 40
0.0
 40
0.0
 40
0.0567083921986876
 40
0.1172711835274069
 40
0.1816653971178233
 40
0.2498570858799371
 40
0.3620506010068481
 40
0.4994702323205409
 40
0.6248692635546897
 40
0.6947015704622379
 40
0.7497917622857747
 40
0.8851735481232368
 40
1.0
 40
1.0
 40
1.0
 40
1.0
 10
141.0272921521284
 20
359.9524739729375
 30
0.0
 10
141.0046812480308
 20
359.9135178906223
 30
0.0
 10
140.9579226047094
 20
359.8329579293614
 30
0.0
 10
140.8769999825661
 20
359.7185324735302
 30
0.0
 10
140.7848694561432
 20
359.6053647563303
 30
0.0
 10
140.6601035626599
 20
359.4743662694472
 30
0.0
 10
140.4866456085575
 20
359.3257366469296
 30
0.0
 10
140.2661813213128
 20
359.1836826408497
 30
0.0
 10
140.0607478287786
 20
359.0885508808684
 30
0.0
 10
139.9020264115761
 20
359.0335616768004
 30
0.0
 10
139.7350061601229
 20
358.9876807436331
 30
0.0
 10
139.5357446335275
 20
358.9515646913273
 30
0.0
 10
139.3714686112403
 20
358.9481750793714
 30
0.0
 10
139.296078476447
 20
358.9466195066305
 30
0.0
  0
SPLINE
  5
92
330
1F
100
AcDbEntity
  8
0
  6
Continuous
 62
     7
370
    15
100
AcDbSpline
210
0.0
220
0.0
230
1.0
 70
     8
 71
     3
 72
    42
 73
    38
 74
     0
 42
0.000000001
 43
0.00000001
 12
1.0
 22
0.0
 32
0.0
 13
1.0
 23
0.0
 33
0.0
 40
0.0
 40
0.0
 40
0.0
 40
0.0
 40
0.5000000000000089
 40
0.5000000000000089
 40
0.7500000000000131
 40
0.7500000000000131
 40
0.8125000000000142
 40
0.8125000000000142
 40
0.8437500000000148
 40
0.8437500000000148
 40
0.8750000000000153
 40
0.8750000000000153
 40
0.8906250000000153
 40
0.8906250000000153
 40
0.8945312500000154
 40
0.8945312500000154
 40
0.8984375000000151
 40
0.8984375000000151
 40
0.9062500000000137
 40
0.9062500000000137
 40
0.9140625000000122
 40
0.9140625000000122
 40
0.9218750000000108
 40
0.9218750000000108
 40
0.9296875000000094
 40
0.9296875000000094
 40
0.937500000000008
 40
0.937500000000008
 40
0.9531250000000059
 40
0.9531250000000059
 40
0.9687500000000039
 40
0.9687500000000039
 40
0.9843750000000018
 40
0.9843750000000018
 40
0.992187500000001
 40
0.992187500000001
 40
1.0
 40
1.0
 40
1.0
 40
1.0
 10
139.2960784965346
 20
358.9466194335649
 30
0.0
 10
139.259719505492
 20
359.0788745989106
 30
0.0
 10
139.2168445291477
 20
359.2111417259466
 30
0.0
 10
139.1118884198219
 20
359.4095009229938
 30
0.0
 10
139.0702402609701
 20
359.47561614516
 30
0.0
 10
139.0056784568952
 20
359.5582420770257
 30
0.0
 10
138.9920654946868
 20
359.5747668838349
 30
0.0
 10
138.9716891704439
 20
359.5995586297752
 30
0.0
 10
138.9647241068545
 20
359.607821549087
 30
0.0
 10
138.9495364992382
 20
359.6243361353116
 30
0.0
 10
138.9420917257912
 20
359.6325878901555
 30
0.0
 10
138.9242399165248
 20
359.6449473739552
 30
0.0
 10
138.9145040672408
 20
359.6490426765035
 30
0.0
 10
138.9084872650033
 20
359.6542889730036
 30
0.0
 10
138.9076018487666
 20
359.6553537788525
 30
0.0
 10
138.9068382553549
 20
359.6574502062766
 30
0.0
 10
138.9068047368536
 20
359.6584785414209
 30
0.0
 10
138.9045945406519
 20
359.6614897312174
 30
0.0
 10
138.8999341510734
 20
359.6633927817713
 30
0.0
 10
138.8704002744532
 20
359.6669730533867
 30
0.0
 10
138.8460071514428
 20
359.6686352128259
 30
0.0
 10
138.7668117808458
 20
359.6717858823797
 30
0.0
 10
138.7097322508717
 20
359.6733656186087
 30
0.0
 10
138.5634748518332
 20
359.6765323075356
 30
0.0
 10
138.4748209202342
 20
359.6781055142255
 30
0.0
 10
138.2725316289365
 20
359.6811357728785
 30
0.0
 10
138.1585749525317
 20
359.6825985236105
 30
0.0
 10
137.779603816488
 20
359.6868049964723
 30
0.0
 10
137.4770027124261
 20
359.6893606938113
 30
0.0
 10
136.7815923798233
 20
359.6939023970825
 30
0.0
 10
136.3899382900522
 20
359.6958855655631
 30
0.0
 10
135.5508811116368
 20
359.699120283953
 30
0.0
 10
135.1055706899667
 20
359.7003698749047
 30
0.0
 10
134.4160327401644
 20
359.7016176444189
 30
0.0
 10
134.1822712665622
 20
359.7019308515667
 30
0.0
 10
133.7190854779064
 20
359.7023223694724
 30
0.0
 10
133.4869877049736
 20
359.7024037054601
 30
0.0
 10
133.2209556872963
 20
359.7024267914331
 30
0.0
  0
SPLINE
  5
93
330
1F
100
AcDbEntity
  8
0
  6
Continuous
 62
     7
370
    15
100
AcDbSpline
210
0.0
220
0.0
230
1.0
 70
     8
 71
     3
 72
    17
 73
    13
 74
     0
 42
0.000000001
 43
0.00000001
 12
1.0
 22
0.0
 32
0.0
 13
1.0
 23
0.0
 33
0.0
 40
0.0
 40
0.0
 40
0.0
 40
0.0
 40
0.0822156645170376
 40
0.1642895324078556
 40
0.2466673515894998
 40
0.3297983901916003
 40
0.4141297969719763
 40
0.5001010756116222
 40
0.6245603398993542
 40
0.750319590734535
 40
0.8755754730952351
 40
1.0
 40
1.0
 40
1.0
 40
1.0
 10
141.263321779885
 20
360.8053313041028
 30
0.0
 10
141.2618666547629
 20
360.7765345498581
 30
0.0
 10
141.25895891416
 20
360.718990706875
 30
0.0
 10
141.2497534280231
 20
360.6335709016973
 30
0.0
 10
141.2371843953283
 20
360.5495466996259
 30
0.0
 10
141.2210765560671
 20
360.4672338155142
 30
0.0
 10
141.2017314744722
 20
360.3869040086284
 30
0.0
 10
141.1762071616614
 20
360.2978111291799
 30
0.0
 10
141.1436315565571
 20
360.2027965016798
 30
0.0
 10
141.1046864374911
 20
360.107303522388
 30
0.0
 10
141.0647154151352
 20
360.021939969462
 30
0.0
 10
141.0397388518232
 20
359.9755778481283
 30
0.0
 10
141.0272921521284
 20
359.9524739729375
 30
0.0
  0
SPLINE
  5
94
330
1F
100
AcDbEntity
  8
0
  6
Continuous
 62
     7
370
    15
100
AcDbSpline
210
0.0
220
0.0
230
1.0
 70
     8
 71
     3
 72
    40
 73
    36
 74
     0
 42
0.000000001
 43
0.00000001
 12
1.0
 22
0.0
 32
0.0
 13
1.0
 23
0.0
 33
0.0
 40
0.0
 40
0.0
 40
0.0
 40
0.0
 40
0.4999999999999917
 40
0.4999999999999917
 40
0.7499999999999878
 40
0.7499999999999878
 40
0.8749999999999856
 40
0.8749999999999856
 40
0.9062499999999851
 40
0.9062499999999851
 40
0.9140624999999851
 40
0.9140624999999851
 40
0.9179687499999853
 40
0.9179687499999853
 40
0.9218749999999855
 40
0.9218749999999855
 40
0.9374999999999876
 40
0.9374999999999876
 40
0.9414062499999883
 40
0.9414062499999883
 40
0.9453124999999891
 40
0.9453124999999891
 40
0.9531249999999907
 40
0.9531249999999907
 40
0.9609374999999922
 40
0.9609374999999922
 40
0.9687499999999938
 40
0.9687499999999938
 40
0.9765624999999953
 40
0.9765624999999953
 40
0.9843749999999969
 40
0.9843749999999969
 40
0.9921874999999984
 40
0.9921874999999984
 40
1.0
 40
1.0
 40
1.0
 40
1.0
 10
107.6866238471664
 20
377.7520673162891
 30
0.0
 10
107.7274666541864
 20
377.6115361875612
 30
0.0
 10
107.7736723630442
 20
377.4713730754813
 30
0.0
 10
107.8832635140844
 20
377.2642385100598
 30
0.0
 10
107.9262890832864
 20
377.1956955404576
 30
0.0
 10
108.0059887042427
 20
377.0940144907062
 30
0.0
 10
108.0343607997042
 20
377.0602991544789
 30
0.0
 10
108.0739744200533
 20
377.0183775282316
 30
0.0
 10
108.0825962483157
 20
377.0100090321356
 30
0.0
 10
108.1002862780699
 20
376.9995774981071
 30
0.0
 10
108.1042755524186
 20
376.9974861319444
 30
0.0
 10
108.1086960797719
 20
376.9943096808844
 30
0.0
 10
108.1098599563917
 20
376.9932459294143
 30
0.0
 10
108.1106472397135
 20
376.9911213066651
 30
0.0
 10
108.1102837723475
 20
376.9900658391939
 30
0.0
 10
108.1087919525298
 20
376.9849433322565
 30
0.0
 10
108.1138240039613
 20
376.9810356713946
 30
0.0
 10
108.1923934392845
 20
376.9773734722688
 30
0.0
 10
108.2115613875397
 20
376.9767185274235
 30
0.0
 10
108.2586498342709
 20
376.9754664713656
 30
0.0
 10
108.2863012555584
 20
376.9748764458901
 30
0.0
 10
108.380951713767
 20
376.9731699842631
 30
0.0
 10
108.4594586998941
 20
376.9720857767129
 30
0.0
 10
108.6437747686935
 20
376.9702135372685
 30
0.0
 10
108.7501651421298
 20
376.9694369534811
 30
0.0
 10
108.9867226581823
 20
376.9683430782957
 30
0.0
 10
109.1164482252669
 20
376.9680216660311
 30
0.0
 10
109.3990639825735
 20
376.9679539776068
 30
0.0
 10
109.5528261071562
 20
376.9682107626714
 30
0.0
 10
109.8876056111316
 20
376.9693335298512
 30
0.0
 10
110.0673430973266
 20
376.970188489479
 30
0.0
 10
110.4432653251821
 20
376.972558279516
 30
0.0
 10
110.6397103801371
 20
376.9740890266449
 30
0.0
 10
111.0461889065555
 20
376.9779721431843
 30
0.0
 10
111.2572619538687
 20
376.9803280077026
 30
0.0
 10
111.483038175588
 20
376.9834397632164
 30
0.0
  0
SPLINE
  5
95
330
1F
100
AcDbEntity
  8
0
  6
Continuous
 62
     7
370
    15
100
AcDbSpline
210
0.0
220
0.0
230
1.0
 70
     8
 71
     3
 72
    10
 73
     6
 74
     0
 42
0.000000001
 43
0.00000001
 12
1.0
 22
0.0
 32
0.0
 13
1.0
 23
0.0
 33
0.0
 40
0.0
 40
0.0
 40
0.0
 40
0.0
 40
0.3393214065225685
 40
0.6799078825735417
 40
1.0
 40
1.0
 40
1.0
 40
1.0
 10
107.6866237987966
 20
377.7520674827186
 30
0.0
 10
107.4731189272538
 20
377.7184492641876
 30
0.0
 10
107.0453131880949
 20
377.6510874905475
 30
0.0
 10
106.470094603655
 20
377.309257367222
 30
0.0
 10
106.2024731394561
 20
376.9048738216295
 30
0.0
 10
106.0728132382728
 20
376.7089540708778
 30
0.0
  0
SPLINE
  5
96
330
1F
100
AcDbEntity
  8
0
  6
Continuous
 62
     7
370
    15
100
AcDbSpline
210
0.0
220
0.0
230
1.0
 70
     8
 71
     3
 72
    34
 73
    30
 74
     0
 42
0.000000001
 43
0.00000001
 12
1.0
 22
0.0
 32
0.0
 13
1.0
 23
0.0
 33
0.0
 40
0.0
 40
0.0
 40
0.0
 40
0.0
 40
0.0156250000000008
 40
0.0156250000000008
 40
0.0234375000000008
 40
0.0234375000000008
 40
0.0312500000000009
 40
0.0312500000000009
 40
0.0468750000000012
 40
0.0468750000000012
 40
0.0546875000000013
 40
0.0546875000000013
 40
0.0625000000000014
 40
0.0625000000000014
 40
0.0781250000000017
 40
0.0781250000000017
 40
0.0820312500000018
 40
0.0820312500000018
 40
0.0859375000000019
 40
0.0859375000000019
 40
0.093750000000002
 40
0.093750000000002
 40
0.1250000000000021
 40
0.1250000000000021
 40
0.250000000000002
 40
0.250000000000002
 40
0.5000000000000013
 40
0.5000000000000013
 40
1.0
 40
1.0
 40
1.0
 40
1.0
 10
135.6209227322419
 20
376.9834400222433
 30
0.0
 10
136.0822643374857
 20
376.9770815295377
 30
0.0
 10
136.5050315739757
 20
376.9734317970709
 30
0.0
 10
137.0783853319595
 20
376.9699765917044
 30
0.0
 10
137.2592847862765
 20
376.9691449328321
 30
0.0
 10
137.5983112183991
 20
376.9681041859469
 30
0.0
 10
137.7563843107748
 20
376.9679025892709
 30
0.0
 10
138.1860843703926
 20
376.9682306896337
 30
0.0
 10
138.4200380487235
 20
376.969615499411
 30
0.0
 10
138.6909642240471
 20
376.9726821331156
 30
0.0
 10
138.7662250967744
 20
376.9738335987824
 30
0.0
 10
138.8809629026536
 20
376.9762275790746
 30
0.0
 10
138.9197124077145
 20
376.9774890911631
 30
0.0
 10
138.9969280379198
 20
376.9821676832539
 30
0.0
 10
138.9947772856173
 20
376.9861118024366
 30
0.0
 10
138.9935412612019
 20
376.9913249400138
 30
0.0
 10
138.9938312721012
 20
376.9923930216659
 30
0.0
 10
138.9956677496591
 20
376.994519175549
 30
0.0
 10
138.9971683084351
 20
376.9955761455799
 30
0.0
 10
139.0022665563477
 20
376.9987359156427
 30
0.0
 10
139.0061027495448
 20
377.0008163051985
 30
0.0
 10
139.0229772994251
 20
377.0112218193271
 30
0.0
 10
139.0315048049125
 20
377.019583439666
 30
0.0
 10
139.0707009338743
 20
377.0614362913552
 30
0.0
 10
139.0992884455196
 20
377.0950920567635
 30
0.0
 10
139.1788090138357
 20
377.1966035107621
 30
0.0
 10
139.2217200254506
 20
377.2650324480242
 30
0.0
 10
139.3309379358411
 20
377.4718252281031
 30
0.0
 10
139.3768658631836
 20
377.6117602292231
 30
0.0
 10
139.4174330598989
 20
377.7520630723701
 30
0.0
  0
SPLINE
  5
97
330
1F
100
AcDbEntity
  8
0
  6
Continuous
 62
     7
370
    15
100
AcDbSpline
210
0.0
220
0.0
230
1.0
 70
     8
 71
     3
 72
    20
 73
    16
 74
     0
 42
0.000000001
 43
0.00000001
 12
1.0
 22
0.0
 32
0.0
 13
1.0
 23
0.0
 33
0.0
 40
0.0
 40
0.0
 40
0.0
 40
0.0
 40
0.0383840025439242
 40
0.0801401775095997
 40
0.125333310213866
 40
0.1758474426101634
 40
0.2505693349853372
 40
0.37471104171353
 40
0.4996720838170634
 40
0.6242401599295757
 40
0.7494555701351695
 40
0.8139126222989033
 40
0.8749354508892935
 40
0.9382913003314445
 40
1.0
 40
1.0
 40
1.0
 40
1.0
 10
139.4174331081287
 20
377.7520632391742
 30
0.0
 10
139.4508313290397
 20
377.7497278162796
 30
0.0
 10
139.520561924468
 20
377.7448517952049
 30
0.0
 10
139.6285974706354
 20
377.7299413764036
 30
0.0
 10
139.7459685993448
 20
377.7072062068781
 30
0.0
 10
139.8892761287827
 20
377.6696756973178
 30
0.0
 10
140.0948563535763
 20
377.5970905236019
 30
0.0
 10
140.3503375621897
 20
377.4664967376689
 30
0.0
 10
140.6230442495884
 20
377.2621467707898
 30
0.0
 10
140.866458853471
 20
377.0012030293634
 30
0.0
 10
141.0359029882957
 20
376.7329038999094
 30
0.0
 10
141.1412343939116
 20
376.4906998463709
 30
0.0
 10
141.2026346505138
 20
376.2954382005317
 30
0.0
 10
141.2451975416581
 20
376.0929048220753
 30
0.0
 10
141.2550124246213
 20
375.9521406534654
 30
0.0
 10
141.2598552331499
 20
375.8826855291587
 30
0.0
  0
LINE
  5
98
330
1F
100
AcDbEntity
  8
0
  6
Continuous
 62
     7
370
    15
100
AcDbLine
 10
107.6866780928
 20
377.7520693826
 30
0.0
 11
109.7235889365
 21
377.8521237729
 31
0.0
  0
ELLIPSE
  5
99
330
1F
100
AcDbEntity
  8
0
  6
Continuous
 62
     7
370
    15
100
AcDbEllipse
 10
123.5519898508
 20
359.6128813864
 30
0.0
 11
11.99999999999998
 21
0.0
 31
0.0
210
0.0
220
0.0
230
1.0
 40
0.0070431304
 41
1.570796326794897
 42
3.141592653589776
  0
ELLIPSE
  5
9A
330
1F
100
AcDbEntity
  8
0
  6
Continuous
 62
     7
370
    15
100
AcDbEllipse
 10
123.5519898508
 20
359.6128813864
 30
0.0
 11
11.99999999999998
 21
0.0
 31
0.0
210
0.0
220
0.0
230
1.0
 40
0.0070431304
 41
0.0
 42
1.57079632679491
  0
SPLINE
  5
9B
330
1F
100
AcDbEntity
  8
0
  6
Continuous
 62
     7
370
    15
100
AcDbSpline
210
0.0
220
0.0
230
1.0
 70
     8
 71
     3
 72
    19
 73
    15
 74
     0
 42
0.000000001
 43
0.00000001
 12
1.0
 22
0.0
 32
0.0
 13
1.0
 23
0.0
 33
0.0
 40
0.0
 40
0.0
 40
0.0
 40
0.0
 40
0.0690904089796495
 40
0.1400718603785193
 40
0.2132918343366075
 40
0.2891053450512976
 40
0.3679504642361266
 40
0.4504235556943082
 40
0.5102651444176185
 40
0.5205404207777183
 40
0.7075117151167333
 40
0.8122473759443453
 40
0.9030201392226028
 40
1.0
 40
1.0
 40
1.0
 40
1.0
 10
110.4708490247661
 20
358.9648784356332
 30
0.0
 10
110.3935427763399
 20
358.9646111898429
 30
0.0
 10
110.2368143650328
 20
358.9640693835981
 30
0.0
 10
110.005105858593
 20
358.9631152289671
 30
0.0
 10
109.7721806453446
 20
358.9620653738922
 30
0.0
 10
109.5384977558939
 20
358.9609010400081
 30
0.0
 10
109.3039288251072
 20
358.9595940217593
 30
0.0
 10
109.0940573118013
 20
358.9582899666358
 30
0.0
 10
108.954874141288
 20
358.9573609836196
 30
0.0
 10
108.7252424390219
 20
358.9557732820854
 30
0.0
 10
108.471478523188
 20
358.9538505325246
 30
0.0
 10
108.1847180063821
 20
358.9509076667169
 30
0.0
 10
107.9824136776085
 20
358.9489535120135
 30
0.0
 10
107.8673906168258
 20
358.9474134759063
 30
0.0
 10
107.8079777565422
 20
358.9466180010731
 30
0.0
  0
SPLINE
  5
9C
330
1F
100
AcDbEntity
  8
0
  6
Continuous
 62
     7
370
    15
100
AcDbSpline
210
0.0
220
0.0
230
1.0
 70
     8
 71
     3
 72
    21
 73
    17
 74
     0
 42
0.000000001
 43
0.00000001
 12
1.0
 22
0.0
 32
0.0
 13
1.0
 23
0.0
 33
0.0
 40
0.0
 40
0.0
 40
0.0
 40
0.0
 40
0.0641482860479645
 40
0.1260519952257314
 40
0.1848882976795316
 40
0.2409161096865375
 40
0.2946468898020418
 40
0.3462341407263082
 40
0.3958143659347783
 40
0.5000448619681791
 40
0.5101869944483607
 40
0.5402293756252787
 40
0.6642886867882676
 40
0.7805612727457374
 40
0.8927045288659825
 40
0.9999999999999999
 40
0.9999999999999999
 40
0.9999999999999999
 40
0.9999999999999999
 10
139.2960224962113
 20
358.9465898315562
 30
0.0
 10
139.2571385808468
 20
358.9471550919335
 30
0.0
 10
139.1807313154958
 20
358.9482658339776
 30
0.0
 10
139.0589104647967
 20
358.94948218349
 30
0.0
 10
138.9359855327332
 20
358.9508152423512
 30
0.0
 10
138.8123665448712
 20
358.9520741819949
 30
0.0
 10
138.6885439503613
 20
358.9531580211724
 30
0.0
 10
138.5646614577194
 20
358.9542550348855
 30
0.0
 10
138.3942276327209
 20
358.9556560326614
 30
0.0
 10
138.2508955168956
 20
358.956703322975
 30
0.0
 10
138.1203263485349
 20
358.9575841936233
 30
0.0
 10
137.9700558030005
 20
358.9585708351662
 30
0.0
 10
137.7116183243
 20
358.9601140185216
 30
0.0
 10
137.3540150759304
 20
358.9619677772977
 30
0.0
 10
136.9975006330249
 20
358.9635820093325
 30
0.0
 10
136.7527885027614
 20
358.9644353793607
 30
0.0
 10
136.6331354969435
 20
358.9648526381573
 30
0.0
  0
ARC
  5
9D
330
1F
100
AcDbEntity
  8
0
  6
Continuous
 62
     7
370
    15
100
AcDbCircle
 10
123.5519898508
 20
300.8746820962
 30
0.0
 40
55.75640065646287
100
AcDbArc
 50
78.6216588106
 51
101.3783411894
  0
SPLINE
  5
9E
330
1F
100
AcDbEntity
  8
0
  6
Continuous
 62
     7
370
    15
100
AcDbSpline
210
0.0
220
0.0
230
1.0
 70
    24
 71
     3
 72
    10
 73
     6
 74
     0
 42
0.000000001
 43
0.00000001
 12
1.0
 22
0.0
 32
0.0
 13
1.0
 23
0.0
 33
0.0
 40
0.0
 40
0.0
 40
0.0
 40
0.0
 40
0.5
 40
0.5
 40
1.0
 40
1.0
 40
1.0
 40
1.0
 10
134.5519898508364
 20
354.296054278038
 30
0.0
 10
134.5519898508364
 20
354.4084191397272
 30
0.0
 10
134.5519898508364
 20
354.574548952007
 30
0.0
 10
134.5519898508364
 20
354.9945436252858
 30
0.0
 10
134.5519898508364
 20
355.2481839270445
 30
0.0
 10
134.5519898508364
 20
355.5352365588772
 30
0.0
  0
LWPOLYLINE
  5
9F
330
1F
100
AcDbEntity
  8
0
  6
Continuous
 62
     7
370
    15
100
AcDbPolyline
 90
       23
 70
   128
 43
0.0
 10
134.5519898508
 20
354.296054278
 10
134.4400257115
 20
354.5139246489
 10
134.1064125606
 20
354.7273598074
 10
133.5579417997
 20
354.932014829
 10
132.805778712
 20
355.1237235278
 10
131.8652351687
 20
355.2985832675
 10
130.7554579242
 20
355.453034408
 10
129.4990388428
 20
355.5839327695
 10
128.1215549939
 20
355.6886136388
 10
126.6510479761
 20
355.7649460154
 10
125.1174530718
 20
355.8113759921
 10
123.5519898508
 20
355.8269583886
 10
121.9865266298
 20
355.8113759921
 10
120.4529317256
 20
355.7649460154
 10
118.9824247078
 20
355.6886136388
 10
117.6049408588
 20
355.5839327695
 10
116.3485217774
 20
355.453034408
 10
115.2387445329
 20
355.2985832675
 10
114.2982009897
 20
355.1237235278
 10
113.5460379019
 20
354.932014829
 10
112.9975671411
 20
354.7273598074
 10
112.6639539901
 20
354.5139246489
 10
112.5519898508
 20
354.296054278
  0
SPLINE
  5
A0
330
1F
100
AcDbEntity
  8
0
  6
Continuous
 62
     7
370
    15
100
AcDbSpline
210
0.0
220
0.0
230
1.0
 70
    24
 71
     3
 72
    10
 73
     6
 74
     0
 42
0.000000001
 43
0.00000001
 12
1.0
 22
0.0
 32
0.0
 13
1.0
 23
0.0
 33
0.0
 40
0.0
 40
0.0
 40
0.0
 40
0.0
 40
0.5
 40
0.5
 40
1.0
 40
1.0
 40
1.0
 40
1.0
 10
112.5519898508364
 20
354.2960542780381
 30
0.0
 10
112.5519898508364
 20
354.4084191397272
 30
0.0
 10
112.5519898508364
 20
354.574548952007
 30
0.0
 10
112.5519898508364
 20
354.9945436252857
 30
0.0
 10
112.5519898508364
 20
355.2481839270444
 30
0.0
 10
112.5519898508364
 20
355.535236558877
 30
0.0
  0
LINE
  5
A1
330
1F
100
AcDbEntity
  8
0
  6
Continuous
 62
     7
370
    15
100
AcDbLine
 10
134.5519898508
 20
355.5352365589
 30
0.0
 11
134.5519898508
 21
358.9245772978
 31
0.0
  0
LINE
  5
A2
330
1F
100
AcDbEntity
  8
0
  6
Continuous
 62
     7
370
    15
100
AcDbLine
 10
112.5519898508
 20
355.5352365589
 30
0.0
 11
112.5519898508
 21
358.9245772978
 31
0.0
  0
LWPOLYLINE
  5
A3
330
1F
100
AcDbEntity
  8
0
  6
Continuous
 62
     7
370
    15
100
AcDbPolyline
 90
        9
 70
   128
 43
0.0
 10
112.5519898508
 20
357.5896758082
 10
112.1179747808
 20
357.7502746396
 10
111.8046497264
 20
357.9162234697
 10
111.6153219428
 20
358.0857706507
 10
111.5519898508
 20
358.257126553
 10
111.6153219428
 20
358.4284824553
 10
111.8046497264
 20
358.5980296363
 10
112.1179747808
 20
358.7639784664
 10
112.5519898508
 20
358.9245772978
  0
LWPOLYLINE
  5
A4
330
1F
100
AcDbEntity
  8
0
  6
Continuous
 62
     7
370
    15
100
AcDbPolyline
 90
        9
 70
   128
 43
0.0
 10
134.5519898508
 20
358.9245772978
 10
134.9860049209
 20
358.7639784664
 10
135.2993299753
 20
358.5980296363
 10
135.4886577589
 20
358.4284824553
 10
135.5519898508
 20
358.257126553
 10
135.4886577589
 20
358.0857706507
 10
135.2993299753
 20
357.9162234697
 10
134.9860049209
 20
357.7502746396
 10
134.5519898508
 20
357.5896758082
  0
LWPOLYLINE
  5
A5
330
1F
100
AcDbEntity
  8
0
  6
Continuous
 62
     7
370
    15
100
AcDbPolyline
 90
       23
 70
   128
 43
0.0
 10
112.5519898508
 20
354.296054278
 10
112.6639539901
 20
354.0781839071
 10
112.9975671411
 20
353.8647487487
 10
113.5460379019
 20
353.660093727
 10
114.2982009897
 20
353.4683850283
 10
115.2387445329
 20
353.2935252886
 10
116.3485217774
 20
353.1390741481
 10
117.6049408588
 20
353.0081757866
 10
118.9824247078
 20
352.9034949173
 10
120.4529317256
 20
352.8271625407
 10
121.9865266298
 20
352.7807325639
 10
123.5519898508
 20
352.7651501675
 10
125.1174530718
 20
352.7807325639
 10
126.6510479761
 20
352.8271625407
 10
128.1215549939
 20
352.9034949173
 10
129.4990388428
 20
353.0081757866
 10
130.7554579242
 20
353.1390741481
 10
131.8652351687
 20
353.2935252886
 10
132.805778712
 20
353.4683850283
 10
133.5579417997
 20
353.660093727
 10
134.1064125606
 20
353.8647487487
 10
134.4400257115
 20
354.0781839071
 10
134.5519898508
 20
354.296054278
  0
SPLINE
  5
A6
330
1F
100
AcDbEntity
  8
0
  6
Continuous
 62
     7
370
     0
100
AcDbSpline
210
0.0
220
0.0
230
1.0
 70
     8
 71
     3
 72
     9
 73
     5
 74
     0
 42
0.000000001
 43
0.00000001
 12
1.0
 22
0.0
 32
0.0
 13
1.0
 23
0.0
 33
0.0
 40
0.0
 40
0.0
 40
0.0
 40
0.0
 40
0.5026324984746275
 40
1.0
 40
1.0
 40
1.0
 40
1.0
 10
143.4330154165948
 20
360.1021074824158
 30
0.0
 10
143.4282820835458
 20
359.9944783812618
 30
0.0
 10
143.4188649983725
 20
359.7803475769852
 30
0.0
 10
143.4043087881956
 20
359.56753149049
 30
0.0
 10
143.3970690023083
 20
359.4616836852655
 30
0.0
  0
SPLINE
  5
A7
330
1F
100
AcDbEntity
  8
0
  6
Continuous
 62
     7
370
     0
100
AcDbSpline
210
0.0
220
0.0
230
1.0
 70
     8
 71
     3
 72
     9
 73
     5
 74
     0
 42
0.000000001
 43
0.00000001
 12
1.0
 22
0.0
 32
0.0
 13
1.0
 23
0.0
 33
0.0
 40
0.0
 40
0.0
 40
0.0
 40
0.0
 40
0.4937563368102585
 40
1.0
 40
1.0
 40
1.0
 40
1.0
 10
143.3969997091118
 20
359.4617063844946
 30
0.0
 10
143.3498930324509
 20
358.7878255689459
 30
0.0
 10
143.2544883294647
 20
357.4230211799997
 30
0.0
 10
143.1589495015598
 20
356.0572148569245
 30
0.0
 10
143.1105835753444
 20
355.3657840607231
 30
0.0
  0
SPLINE
  5
A8
330
1F
100
AcDbEntity
  8
0
  6
Continuous
 62
     7
370
     0
100
AcDbSpline
210
0.0
220
0.0
230
1.0
 70
     8
 71
     3
 72
    46
 73
    42
 74
     0
 42
0.000000001
 43
0.00000001
 12
1.0
 22
0.0
 32
0.0
 13
1.0
 23
0.0
 33
0.0
 40
0.0
 40
0.0
 40
0.0
 40
0.0
 40
0.0126889404387956
 40
0.0261978269821296
 40
0.0406082174401729
 40
0.0652756182885492
 40
0.0705264644882981
 40
0.112339792198302
 40
0.124678667604535
 40
0.1288523647989282
 40
0.180338672053498
 40
0.1890286894911299
 40
0.1976824573760239
 40
0.2331128012344841
 40
0.2465876097903735
 40
0.2510392398061413
 40
0.3000478480375651
 40
0.314079235190269
 40
0.3413652922158507
 40
0.3741942412490927
 40
0.3932537000711335
 40
0.4214707561460848
 40
0.4420388903794677
 40
0.4752769216205621
 40
0.501032337801025
 40
0.5032417301656938
 40
0.509839722944139
 40
0.5185679554660628
 40
0.563183119356477
 40
0.5724962218429044
 40
0.5817274360906609
 40
0.674230110236427
 40
0.7117230691315672
 40
0.736607922062193
 40
0.7549479834982407
 40
0.8084230712406232
 40
0.8574741558656079
 40
0.8754182884012961
 40
0.9048286089909829
 40
0.9531976045701646
 40
1.0
 40
1.0
 40
1.0
 40
1.0
 10
143.1105835753444
 20
355.3657840607231
 30
0.0
 10
143.1069121863886
 20
355.3180339714601
 30
0.0
 10
143.0993321671497
 20
355.2194482319393
 30
0.0
 10
143.0829687295805
 20
355.0682929060776
 30
0.0
 10
143.0572652043842
 20
354.8747970867975
 30
0.0
 10
143.0299924157768
 20
354.7148296969336
 30
0.0
 10
142.9796754656852
 20
354.4607751388291
 30
0.0
 10
142.9299265593077
 20
354.256321140342
 30
0.0
 10
142.8734632403959
 20
354.0636008480221
 30
0.0
 10
142.8050284848601
 20
353.8416192419928
 30
0.0
 10
142.7319954132836
 20
353.6400422441715
 30
0.0
 10
142.6461730172868
 20
353.434482616816
 30
0.0
 10
142.5786816740499
 20
353.2789662265952
 30
0.0
 10
142.5005023322716
 20
353.1150893095455
 30
0.0
 10
142.4238437676314
 20
352.9688487962587
 30
0.0
 10
142.3258086428679
 20
352.7879046826238
 30
0.0
 10
142.2213530454995
 20
352.6128737713627
 30
0.0
 10
142.073734708384
 20
352.3896897210036
 30
0.0
 10
141.948398893218
 20
352.2121959382294
 30
0.0
 10
141.8083674580994
 20
352.031277493768
 30
0.0
 10
141.6615334434188
 20
351.8554174400393
 30
0.0
 10
141.5332454450956
 20
351.7119159252441
 30
0.0
 10
141.373402061914
 20
351.5450491378807
 30
0.0
 10
141.2133488198594
 20
351.3901330106202
 30
0.0
 10
141.0861101073842
 20
351.2767523058265
 30
0.0
 10
141.0131759783504
 20
351.2142501881339
 30
0.0
 10
140.9759992924469
 20
351.182783331779
 30
0.0
 10
140.8478972182254
 20
351.076674707782
 30
0.0
 10
140.710250363613
 20
350.9710207292059
 30
0.0
 10
140.5678410815296
 20
350.8698953514203
 30
0.0
 10
140.3152429143141
 20
350.6953548623599
 30
0.0
 10
139.9830472537893
 20
350.4987025338273
 30
0.0
 10
139.5932233928444
 20
350.3132249333063
 30
0.0
 10
139.3850126032491
 20
350.2250840101643
 30
0.0
 10
139.1314906863241
 20
350.1267241800299
 30
0.0
 10
138.8061583558573
 20
350.0189252716286
 30
0.0
 10
138.4705332245113
 20
349.9344933792392
 30
0.0
 10
138.1964762391358
 20
349.8794714905196
 30
0.0
 10
137.9205112386914
 20
349.8341159852365
 30
0.0
 10
137.5541948902583
 20
349.7931270812765
 30
0.0
 10
137.2666889177947
 20
349.7872237940509
 30
0.0
 10
137.1253022251234
 20
349.7843207369437
 30
0.0
  0
SPLINE
  5
A9
330
1F
100
AcDbEntity
  8
0
  6
Continuous
 62
     7
370
     0
100
AcDbSpline
210
0.0
220
0.0
230
1.0
 70
     8
 71
     3
 72
    33
 73
    29
 74
     0
 42
0.000000001
 43
0.00000001
 12
1.0
 22
0.0
 32
0.0
 13
1.0
 23
0.0
 33
0.0
 40
0.0
 40
0.0
 40
0.0
 40
0.0
 40
0.0326490432006013
 40
0.0652167200136202
 40
0.0976864219012566
 40
0.1300861352432506
 40
0.1624463724147851
 40
0.1947572201420583
 40
0.22694778194353
 40
0.2589734386876123
 40
0.2908158860672842
 40
0.3224646909467532
 40
0.3539162702109245
 40
0.3851726236660497
 40
0.4162399023224326
 40
0.4471269097716097
 40
0.4778436226556124
 40
0.5083997940492998
 40
0.5388036785468587
 40
0.5690608946713458
 40
0.5991734211314615
 40
0.657575114642476
 40
0.7154899446986906
 40
0.7729789447386161
 40
0.830101453368423
 40
0.8869230495488075
 40
0.9435228598043656
 40
1.0
 40
1.0
 40
1.0
 40
1.0
 10
137.125302225123
 20
349.7843207369486
 30
0.0
 10
136.9982795351917
 20
349.784323389265
 30
0.0
 10
136.744550715216
 20
349.7843286872877
 30
0.0
 10
136.3569192200375
 20
349.7843500676386
 30
0.0
 10
135.9650206883851
 20
349.784357097066
 30
0.0
 10
135.5683657235955
 20
349.7843400947088
 30
0.0
 10
135.1671044404868
 20
349.7843138355087
 30
0.0
 10
134.7616144713897
 20
349.7843102272366
 30
0.0
 10
134.3526548219174
 20
349.7843157356727
 30
0.0
 10
133.9410315686098
 20
349.7843194748247
 30
0.0
 10
133.5273104300503
 20
349.7843214621278
 30
0.0
 10
133.1118820766872
 20
349.7843203713265
 30
0.0
 10
132.6950466112699
 20
349.7843168092101
 30
0.0
 10
132.2770262397547
 20
349.784311906405
 30
0.0
 10
131.8579816926696
 20
349.784306959313
 30
0.0
 10
131.4380304360415
 20
349.7843028837781
 30
0.0
 10
131.0172656855038
 20
349.7842999843462
 30
0.0
 10
130.5957748957667
 20
349.7842980307045
 30
0.0
 10
130.1736585906019
 20
349.7842965593221
 30
0.0
 10
129.7510438591406
 20
349.784295830261
 30
0.0
 10
129.1949783044783
 20
349.7842970072309
 30
0.0
 10
128.5041326349479
 20
349.7843179995218
 30
0.0
 10
127.677139964169
 20
349.7843503973554
 30
0.0
 10
126.8504926937483
 20
349.7843472424762
 30
0.0
 10
126.0245729884572
 20
349.7843404161838
 30
0.0
 10
125.1995882446633
 20
349.7843321470529
 30
0.0
 10
124.3755066830225
 20
349.7843285310247
 30
0.0
 10
123.8262963293729
 20
349.7843298694555
 30
0.0
 10
123.5519890544049
 20
349.7843305379449
 30
0.0
  0
SPLINE
  5
AA
330
1F
100
AcDbEntity
  8
0
  6
Continuous
 62
     7
370
     0
100
AcDbSpline
210
0.0
220
0.0
230
1.0
 70
     8
 71
     3
 72
    34
 73
    30
 74
     0
 42
0.000000001
 43
0.00000001
 12
1.0
 22
0.0
 32
0.0
 13
1.0
 23
0.0
 33
0.0
 40
0.0
 40
0.0
 40
0.0
 40
0.0
 40
0.0334089084045165
 40
0.066846859473089
 40
0.1003393131794545
 40
0.1339081691667674
 40
0.167572164840689
 40
0.2013472678630149
 40
0.2352470702818854
 40
0.2692831997672955
 40
0.3034657887765189
 40
0.3378041228660362
 40
0.3723075482031524
 40
0.4069861067875005
 40
0.4418509930875358
 40
0.4769150871784756
 40
0.5121933554031116
 40
0.5476961158716507
 40
0.583427187508526
 40
0.6193936925618274
 40
0.6556039282748107
 40
0.6920639673474253
 40
0.7287741931671418
 40
0.7657260198151665
 40
0.8028990621990598
 40
0.8519683102540224
 40
0.9011376822149413
 40
0.9504639888415373
 40
1.0
 40
1.0
 40
1.0
 40
1.0
 10
123.5519890544049
 20
349.7843305379449
 30
0.0
 10
123.3897241777974
 20
349.7843304188126
 30
0.0
 10
123.0650533662681
 20
349.7843301804445
 30
0.0
 10
122.5779409875107
 20
349.7843323812924
 30
0.0
 10
122.0905113205868
 20
349.7843387736428
 30
0.0
 10
121.6026761792943
 20
349.7843476312333
 30
0.0
 10
121.1143969227101
 20
349.7843566273261
 30
0.0
 10
120.62567985809
 20
349.7843634859257
 30
0.0
 10
120.1365717565595
 20
349.7843665286039
 30
0.0
 10
119.6471552426715
 20
349.7843641220305
 30
0.0
 10
119.1575426254819
 20
349.7843551548582
 30
0.0
 10
118.6678684269595
 20
349.7843335017121
 30
0.0
 10
118.1782741114783
 20
349.7843096520189
 30
0.0
 10
117.6888971453544
 20
349.7842962690834
 30
0.0
 10
117.1998674677098
 20
349.7842957177945
 30
0.0
 10
116.7113025923782
 20
349.7843044105205
 30
0.0
 10
116.2233367756948
 20
349.7843163608463
 30
0.0
 10
115.7361592077228
 20
349.7843300039415
 30
0.0
 10
115.2500068562779
 20
349.7843423094179
 30
0.0
 10
114.765136391046
 20
349.7843498065433
 30
0.0
 10
114.2818048022685
 20
349.7843499186296
 30
0.0
 10
113.8003089305642
 20
349.7843423875847
 30
0.0
 10
113.3210313360719
 20
349.7843296299564
 30
0.0
 10
112.844470397234
 20
349.7843179680135
 30
0.0
 10
112.3216052232265
 20
349.7843076716071
 30
0.0
 10
111.7559144451798
 20
349.7843201488554
 30
0.0
 10
111.1516908805771
 20
349.7843635562235
 30
0.0
 10
110.5571821460534
 20
349.7843382035417
 30
0.0
 10
110.1716056829882
 20
349.7843268903987
 30
0.0
 10
109.9784085133814
 20
349.7843212218286
 30
0.0
  0
SPLINE
  5
AB
330
1F
100
AcDbEntity
  8
0
  6
Continuous
 62
     7
370
     0
100
AcDbSpline
210
0.0
220
0.0
230
1.0
 70
     8
 71
     3
 72
    49
 73
    45
 74
     0
 42
0.000000001
 43
0.00000001
 12
1.0
 22
0.0
 32
0.0
 13
1.0
 23
0.0
 33
0.0
 40
0.0
 40
0.0
 40
0.0
 40
0.0
 40
0.0234075449274016
 40
0.047201106442562
 40
0.0713958635114994
 40
0.096004711741601
 40
0.1210474879266014
 40
0.1388458643439743
 40
0.1629427313752177
 40
0.2358798714531722
 40
0.2537178858950579
 40
0.2597190185291446
 40
0.3203597316780082
 40
0.3557041818540828
 40
0.4046189194174492
 40
0.4334278102419501
 40
0.4511043156096909
 40
0.4751617432754936
 40
0.50204500987755
 40
0.508755402540199
 40
0.5177770891712327
 40
0.555962564592931
 40
0.5639812553421508
 40
0.5666716790123244
 40
0.6224001119642647
 40
0.6311085704703021
 40
0.6399140836346706
 40
0.6834671835978385
 40
0.696633125966379
 40
0.7100269454657773
 40
0.744512908190802
 40
0.7658986622380848
 40
0.8013934074635827
 40
0.8148804970612956
 40
0.8374042157085889
 40
0.8718747120427918
 40
0.88023976564653
 40
0.9043936182443789
 40
0.9265958816781596
 40
0.942113550653846
 40
0.9636103895896477
 40
0.983186732111176
 40
0.9917593818197553
 40
1.0
 40
1.0
 40
1.0
 40
1.0
 10
109.9784085133813
 20
349.784321221829
 30
0.0
 10
109.9075144754391
 20
349.7850488740505
 30
0.0
 10
109.7645572776024
 20
349.7865161782925
 30
0.0
 10
109.5509927692773
 20
349.7983504292042
 30
0.0
 10
109.3360988785128
 20
349.817436684953
 30
0.0
 10
109.1202152394859
 20
349.8446691331155
 30
0.0
 10
108.9256504943096
 20
349.8764141457193
 30
0.0
 10
108.7349348794929
 20
349.9136400358091
 30
0.0
 10
108.4118688321978
 20
349.9869024351424
 30
0.0
 10
108.098385642707
 20
350.0816113719847
 30
0.0
 10
107.8428946902954
 20
350.1768800526969
 30
0.0
 10
107.6218160862619
 20
350.2635419097755
 30
0.0
 10
107.3614894105333
 20
350.3799896414215
 30
0.0
 10
107.0059442616059
 20
350.56835820297
 30
0.0
 10
106.7383581140878
 20
350.7307906308365
 30
0.0
 10
106.5205276076501
 20
350.8795965530434
 30
0.0
 10
106.3629985477063
 20
350.994790730917
 30
0.0
 10
106.2128946888779
 20
351.1113561597408
 30
0.0
 10
106.0900273340111
 20
351.2139327736106
 30
0.0
 10
106.0008152915544
 20
351.2920148528303
 30
0.0
 10
105.8889011109882
 20
351.3921520955338
 30
0.0
 10
105.7772153400656
 20
351.4988994245117
 30
0.0
 10
105.680983288259
 20
351.5970604532574
 30
0.0
 10
105.5510578036974
 20
351.731599814687
 30
0.0
 10
105.4243409319206
 20
351.8740204256093
 30
0.0
 10
105.2919918699856
 20
352.0374656089572
 30
0.0
 10
105.1829838329363
 20
352.1756026671924
 30
0.0
 10
105.0703386426459
 20
352.3299209314705
 30
0.0
 10
104.9551975995071
 20
352.5024164060178
 30
0.0
 10
104.8571857799511
 20
352.6556991234425
 30
0.0
 10
104.7506568322717
 20
352.8361471564061
 30
0.0
 10
104.6179387087361
 20
353.0846478924859
 30
0.0
 10
104.5221392975481
 20
353.2847107026342
 30
0.0
 10
104.4310677630056
 20
353.4959211696278
 30
0.0
 10
104.3460256263697
 20
353.7099988679996
 30
0.0
 10
104.2746479722846
 20
353.9175553075008
 30
0.0
 10
104.2080900211425
 20
354.1371646722062
 30
0.0
 10
104.1579187470651
 20
354.3209454902494
 30
0.0
 10
104.1086613271403
 20
354.535571714219
 30
0.0
 10
104.0678471261619
 20
354.745948015509
 30
0.0
 10
104.0350928773174
 20
354.9514008186409
 30
0.0
 10
104.0130002454966
 20
355.1352911503268
 30
0.0
 10
104.0001377813028
 20
355.2714337685198
 30
0.0
 10
103.9954257244379
 20
355.3347494958779
 30
0.0
 10
103.9931162232913
 20
355.3657821742016
 30
0.0
  0
SPLINE
  5
AC
330
1F
100
AcDbEntity
  8
0
  6
Continuous
 62
     7
370
     0
100
AcDbSpline
210
0.0
220
0.0
230
1.0
 70
     8
 71
     3
 72
     9
 73
     5
 74
     0
 42
0.000000001
 43
0.00000001
 12
1.0
 22
0.0
 32
0.0
 13
1.0
 23
0.0
 33
0.0
 40
0.0
 40
0.0
 40
0.0
 40
0.0
 40
0.5059315730489901
 40
1.0
 40
1.0
 40
1.0
 40
1.0
 10
103.9931162232913
 20
355.3657821742016
 30
0.0
 10
103.9441920932071
 20
356.0651820428837
 30
0.0
 10
103.8474910120919
 20
357.4475821656259
 30
0.0
 10
103.7509359374554
 20
358.8289245246438
 30
0.0
 10
103.7032311236156
 20
359.5114021710445
 30
0.0
  0
SPLINE
  5
AD
330
1F
100
AcDbEntity
  8
0
  6
Continuous
 62
     7
370
     0
100
AcDbSpline
210
0.0
220
0.0
230
1.0
 70
     8
 71
     3
 72
     9
 73
     5
 74
     0
 42
0.000000001
 43
0.00000001
 12
1.0
 22
0.0
 32
0.0
 13
1.0
 23
0.0
 33
0.0
 40
0.0
 40
0.0
 40
0.0
 40
0.0
 40
0.4975453002822975
 40
1.0
 40
1.0
 40
1.0
 40
1.0
 10
103.7033534141716
 20
359.511440772306
 30
0.0
 10
103.6968986743437
 20
359.6091305164327
 30
0.0
 10
103.6839255042136
 20
359.8054739329442
 30
0.0
 10
103.6752998832955
 20
360.0029063773079
 30
0.0
 10
103.6709658995272
 20
360.1021072368553
 30
0.0
  0
SPLINE
  5
AE
330
1F
100
AcDbEntity
  8
0
  6
Continuous
 62
     7
370
     0
100
AcDbSpline
210
0.0
220
0.0
230
1.0
 70
     8
 71
     3
 72
    35
 73
    31
 74
     0
 42
0.000000001
 43
0.00000001
 12
1.0
 22
0.0
 32
0.0
 13
1.0
 23
0.0
 33
0.0
 40
0.0
 40
0.0
 40
0.0
 40
0.0
 40
0.0334738834135567
 40
0.0665822652413456
 40
0.0995060516759312
 40
0.1324358997640919
 40
0.1655811834779254
 40
0.1991805413052133
 40
0.2335036511564906
 40
0.2558619322100981
 40
0.2865313031290344
 40
0.4014583855833661
 40
0.4145342942382448
 40
0.4277965612601756
 40
0.5256617585504981
 40
0.5661802079667136
 40
0.5706098703972313
 40
0.5967186570130832
 40
0.6521208309243574
 40
0.6692717011560128
 40
0.6726806497457423
 40
0.682762071118711
 40
0.6958751372667741
 40
0.746384843313045
 40
0.7560992139849291
 40
0.7592731673648073
 40
0.827886321319362
 40
0.8894569593496154
 40
0.9463134274264942
 40
1.0
 40
1.0
 40
1.0
 40
1.0
 10
103.6749610070312
 20
376.5932884184581
 30
0.0
 10
103.679107332817
 20
376.6892141373184
 30
0.0
 10
103.687354710626
 20
376.8800181613905
 30
0.0
 10
103.7050681972054
 20
377.1639751666027
 30
0.0
 10
103.7266097593663
 20
377.4451118682964
 30
0.0
 10
103.7526548708717
 20
377.7246725106122
 30
0.0
 10
103.7835556508971
 20
378.0040730376961
 30
0.0
 10
103.8199661447065
 20
378.2848236941106
 30
0.0
 10
103.8573006309334
 20
378.5328685508438
 30
0.0
 10
103.8974498642111
 20
378.7702813878452
 30
0.0
 10
103.9821774848602
 20
379.2214153571158
 30
0.0
 10
104.0831569451812
 20
379.633098025226
 30
0.0
 10
104.1920791423946
 20
379.9784396283824
 30
0.0
 10
104.2913474717617
 20
380.278234377309
 30
0.0
 10
104.4316012567603
 20
380.6243280625131
 30
0.0
 10
104.5874065224842
 20
380.9154474454165
 30
0.0
 10
104.6687674884359
 20
381.0542361039774
 30
0.0
 10
104.7703305476315
 20
381.2170625643118
 30
0.0
 10
104.8966239986818
 20
381.3878492106219
 30
0.0
 10
105.0000331919611
 20
381.507225441654
 30
0.0
 10
105.0424455070681
 20
381.5539987043406
 30
0.0
 10
105.0796659240015
 20
381.5938203696002
 30
0.0
 10
105.1846330889756
 20
381.7003581566718
 30
0.0
 10
105.2941515471389
 20
381.7960347234346
 30
0.0
 10
105.3924441682498
 20
381.8701476811112
 30
0.0
 10
105.5197993163054
 20
381.9630981698805
 30
0.0
 10
105.737387690554
 20
382.0940219252751
 30
0.0
 10
106.061881826213
 20
382.2246917280294
 30
0.0
 10
106.3733452246535
 20
382.3069812784078
 30
0.0
 10
106.5817762276628
 20
382.332683695808
 30
0.0
 10
106.6830032800742
 20
382.3451663875175
 30
0.0
  0
SPLINE
  5
AF
330
1F
100
AcDbEntity
  8
0
  6
Continuous
 62
     7
370
     0
100
AcDbSpline
210
0.0
220
0.0
230
1.0
 70
     8
 71
     3
 72
    38
 73
    34
 74
     0
 42
0.000000001
 43
0.00000001
 12
1.0
 22
0.0
 32
0.0
 13
1.0
 23
0.0
 33
0.0
 40
0.0
 40
0.0
 40
0.0
 40
0.0
 40
0.0202441099826072
 40
0.0404133547856224
 40
0.0608821555381693
 40
0.0730801034538686
 40
0.0974456172924858
 40
0.1285082873306243
 40
0.1471225968000921
 40
0.19657512263542
 40
0.2539819706110324
 40
0.2731259341744794
 40
0.2986649192104989
 40
0.3637664009634753
 40
0.3767671644558067
 40
0.4027076216329323
 40
0.5001870833793965
 40
0.5010593726890996
 40
0.5019313373843262
 40
0.5071563163151918
 40
0.5904559320911497
 40
0.6158298401399059
 40
0.6252783010012348
 40
0.6409501783939359
 40
0.7149504483409398
 40
0.7457481662379042
 40
0.7641064277599041
 40
0.8126909354515
 40
0.8690817229884413
 40
0.887794135997674
 40
0.9126965461799651
 40
0.9563753821422146
 40
1.0
 40
1.0
 40
1.0
 40
1.0
 10
106.6830022569331
 20
382.3451899788556
 30
0.0
 10
106.7685525546122
 20
382.3533289239168
 30
0.0
 10
106.93933677457
 20
382.3695767152308
 30
0.0
 10
107.2028413515582
 20
382.3942343137278
 30
0.0
 10
107.4354100562586
 20
382.4156286997358
 30
0.0
 10
107.6901212291935
 20
382.4387485236129
 30
0.0
 10
107.9968436687114
 20
382.466150547739
 30
0.0
 10
108.3403332246735
 20
382.4961498800933
 30
0.0
 10
108.8090857779925
 20
382.5361099979703
 30
0.0
 10
109.4176756883637
 20
382.5863267731943
 30
0.0
 10
110.0517215842567
 20
382.6357809366774
 30
0.0
 10
110.5778369988848
 20
382.6749099091797
 30
0.0
 10
111.1512991693188
 20
382.7164368648998
 30
0.0
 10
111.7070678784554
 20
382.7544881945735
 30
0.0
 10
112.2761026074949
 20
382.7913914098752
 30
0.0
 10
113.0294340249706
 20
382.8388997471386
 30
0.0
 10
113.7365132804018
 20
382.8794591647716
 30
0.0
 10
114.3114937222918
 20
382.909548051167
 30
0.0
 10
114.3518926788044
 20
382.9116586230452
 30
0.0
 10
114.8707016562146
 20
382.9386048216549
 30
0.0
 10
115.5431790568748
 20
382.9706071026213
 30
0.0
 10
116.2521049593364
 20
383.0004121356356
 30
0.0
 10
116.5567009964948
 20
383.01267241826
 30
0.0
 10
117.1567282447929
 20
383.0360478114466
 30
0.0
 10
117.895123462564
 20
383.0614262813477
 30
0.0
 10
118.6581862699274
 20
383.0834440196352
 30
0.0
 10
119.266604795448
 20
383.0994125554379
 30
0.0
 10
120.0388952269892
 20
383.1169490835087
 30
0.0
 10
120.8190835509755
 20
383.1303167437843
 30
0.0
 10
121.4520714152323
 20
383.1386148216957
 30
0.0
 10
122.0055992588191
 20
383.1445368971877
 30
0.0
 10
122.7186937448296
 20
383.1497808846623
 30
0.0
 10
123.2742964621589
 20
383.1505333689911
 30
0.0
 10
123.5519252977167
 20
383.1509093774977
 30
0.0
  0
SPLINE
  5
B0
330
1F
100
AcDbEntity
  8
0
  6
Continuous
 62
     7
370
     0
100
AcDbSpline
210
0.0
220
0.0
230
1.0
 70
     8
 71
     3
 72
    40
 73
    36
 74
     0
 42
0.000000001
 43
0.00000001
 12
1.0
 22
0.0
 32
0.0
 13
1.0
 23
0.0
 33
0.0
 40
0.0
 40
0.0
 40
0.0
 40
0.0
 40
0.0233561060231357
 40
0.0467255402476401
 40
0.0701131870735152
 40
0.0935247907221529
 40
0.1169719340683667
 40
0.129441440518375
 40
0.1544322829404092
 40
0.2290252913141776
 40
0.2473723313837667
 40
0.25350637633751
 40
0.3504955004231225
 40
0.3806520872828528
 40
0.3867254420308505
 40
0.448745188087394
 40
0.4868085234004249
 40
0.4996325587725157
 40
0.5005040105346181
 40
0.5031202769368872
 40
0.5066130978800202
 40
0.5933139301351286
 40
0.6242962986907459
 40
0.6277473217913406
 40
0.6484759637998455
 40
0.7447802452603164
 40
0.7514123503562381
 40
0.7845517326938466
 40
0.8647646545623885
 40
0.8715467618264945
 40
0.8918846500884762
 40
0.9327288576335518
 40
0.9395474810994011
 40
0.9698996575333575
 40
1.0
 40
1.0
 40
1.0
 40
1.0
 10
123.5519252977172
 20
383.1509093774981
 30
0.0
 10
123.7005555328179
 20
383.1508015854803
 30
0.0
 10
123.9979008191142
 20
383.1505859399331
 30
0.0
 10
124.4438967067871
 20
383.1488373307309
 30
0.0
 10
124.8898885823282
 20
383.146040974749
 30
0.0
 10
125.3358391829331
 20
383.1420974984344
 30
0.0
 10
125.7118776130963
 20
383.1378308795325
 30
0.0
 10
126.0973277524324
 20
383.1327124321322
 30
0.0
 10
126.8051773674367
 20
383.1218890010697
 30
0.0
 10
127.5462423311162
 20
383.1066227584579
 30
0.0
 10
128.1636831140244
 20
383.0908674488399
 30
0.0
 10
128.9189996074247
 20
383.0706063000697
 30
0.0
 10
129.7402501849465
 20
383.0440148401392
 30
0.0
 10
130.5470853441076
 20
383.0127248823146
 30
0.0
 10
131.1390718910196
 20
382.9886604106406
 30
0.0
 10
131.7724854242428
 20
382.9606733028658
 30
0.0
 10
132.4345265256374
 20
382.9280962958031
 30
0.0
 10
132.7351355092495
 20
382.9125467235731
 30
0.0
 10
132.82962200641
 20
382.9075950061155
 30
0.0
 10
132.8700299371986
 20
382.9054703248865
 30
0.0
 10
133.4066307393485
 20
382.8770921062539
 30
0.0
 10
134.0952776443015
 20
382.8375484695974
 30
0.0
 10
134.7647091691696
 20
382.7954112784645
 30
0.0
 10
135.0669653688304
 20
382.7759016864597
 30
0.0
 10
135.7231097367114
 20
382.7327920101004
 30
0.0
 10
136.3766319184885
 20
382.6864277954608
 30
0.0
 10
137.0727964543487
 20
382.6339113905112
 30
0.0
 10
137.6789972243673
 20
382.5870196895208
 30
0.0
 10
138.2635519106361
 20
382.5389125879062
 30
0.0
 10
138.7687723570894
 20
382.495600836849
 30
0.0
 10
139.0853485056924
 20
382.4680881379867
 30
0.0
 10
139.3944713363844
 20
382.440518510655
 30
0.0
 10
139.7418799881302
 20
382.4089031173141
 30
0.0
 10
140.0372281526727
 20
382.3815832473425
 30
0.0
 10
140.2933744980857
 20
382.3572709100453
 30
0.0
 10
140.4209141417387
 20
382.3451653817378
 30
0.0
  0
SPLINE
  5
B1
330
1F
100
AcDbEntity
  8
0
  6
Continuous
 62
     7
370
     0
100
AcDbSpline
210
0.0
220
0.0
230
1.0
 70
     8
 71
     3
 72
    32
 73
    28
 74
     0
 42
0.000000001
 43
0.00000001
 12
1.0
 22
0.0
 32
0.0
 13
1.0
 23
0.0
 33
0.0
 40
0.0
 40
0.0
 40
0.0
 40
0.0
 40
0.0301271789740068
 40
0.061252027823851
 40
0.0935195390160354
 40
0.1271216448732765
 40
0.162361217118821
 40
0.1996541380386774
 40
0.2400114482996054
 40
0.2442311357378238
 40
0.2661013614181258
 40
0.3142863147552371
 40
0.3315205809165997
 40
0.3350682529743488
 40
0.34588210265343
 40
0.3607081482861288
 40
0.4567379779278853
 40
0.5560724089193988
 40
0.5897371781860877
 40
0.596316246387341
 40
0.6581910002992196
 40
0.7551365247867853
 40
0.770288537232833
 40
0.7852717127341265
 40
0.8574548421723396
 40
0.9283435641303206
 40
1.0
 40
1.0
 40
1.0
 40
1.0
 10
140.4209135380247
 20
382.3451519929906
 30
0.0
 10
140.4779067393228
 20
382.3388180365358
 30
0.0
 10
140.5937804875649
 20
382.325940372904
 30
0.0
 10
140.7669559305014
 20
382.2939587506314
 30
0.0
 10
140.943240730216
 20
382.2503199542384
 30
0.0
 10
141.1227462705038
 20
382.191845182441
 30
0.0
 10
141.3061062387843
 20
382.1157415531307
 30
0.0
 10
141.494820734578
 20
382.0175093197146
 30
0.0
 10
141.6262890169666
 20
381.9323554583001
 30
0.0
 10
141.7301623318901
 20
381.8566613954766
 30
0.0
 10
141.8444316531153
 20
381.7677445500915
 30
0.0
 10
141.9726960219239
 20
381.6494716427075
 30
0.0
 10
142.0690850257262
 20
381.5460713138746
 30
0.0
 10
142.1125182111073
 20
381.4972634800397
 30
0.0
 10
142.1521750451335
 20
381.4512530719965
 30
0.0
 10
142.313950530234
 20
381.2527266724885
 30
0.0
 10
142.5670535879964
 20
380.8585703792737
 30
0.0
 10
142.7878191755049
 20
380.3478951640408
 30
0.0
 10
142.9011093683342
 20
380.0128205072291
 30
0.0
 10
142.9796278765769
 20
379.7629440433434
 30
0.0
 10
143.0947628824169
 20
379.3452555909802
 30
0.0
 10
143.1889647248076
 20
378.8812580685616
 30
0.0
 10
143.2458231612346
 20
378.534923857898
 30
0.0
 10
143.2891317576901
 20
378.2544795616604
 30
0.0
 10
143.3447675327207
 20
377.8144373955348
 30
0.0
 10
143.3994835482456
 20
377.2067693457357
 30
0.0
 10
143.4191387138283
 20
376.7985574969684
 30
0.0
 10
143.4290192256152
 20
376.5933523072011
 30
0.0
  0
SPLINE
  5
B2
330
1F
100
AcDbEntity
  8
0
  6
Continuous
 62
     7
370
    15
100
AcDbSpline
210
0.0
220
0.0
230
1.0
 70
     8
 71
     3
 72
    27
 73
    23
 74
     0
 42
0.000000001
 43
0.00000001
 12
1.0
 22
0.0
 32
0.0
 13
1.0
 23
0.0
 33
0.0
 40
0.0
 40
0.0
 40
0.0
 40
0.0
 40
0.0222974623106019
 40
0.0739590617985225
 40
0.1271072998228276
 40
0.1790386677388647
 40
0.2324158488395974
 40
0.2854278436126575
 40
0.3399572438974061
 40
0.3932419897288111
 40
0.4481307204865817
 40
0.5003861898927224
 40
0.5542028549549535
 40
0.6057415246287177
 40
0.6587386412220161
 40
0.7109763125950487
 40
0.7646696225815912
 40
0.8179353859182577
 40
0.8727543810768397
 40
0.9257955703527507
 40
0.980440311154863
 40
1.0
 40
1.0
 40
1.0
 40
1.0
 10
146.0481529819165
 20
331.9661541698462
 30
0.0
 10
146.0490976854254
 20
331.9618487088577
 30
0.0
 10
146.0522311982986
 20
331.9475678077004
 30
0.0
 10
146.0258679840315
 20
332.0676234387743
 30
0.0
 10
145.9735380461032
 20
332.3150920773696
 30
0.0
 10
145.8976764001344
 20
332.6982488846008
 30
0.0
 10
145.8092035631773
 20
333.1927147943941
 30
0.0
 10
145.715389181932
 20
333.7989873813303
 30
0.0
 10
145.6281311706436
 20
334.4930603542105
 30
0.0
 10
145.5566179594964
 20
335.2654955962935
 30
0.0
 10
145.5109547323862
 20
336.0758437093185
 30
0.0
 10
145.4954903933803
 20
336.9128159222766
 30
0.0
 10
145.5115564313852
 20
337.7323854281923
 30
0.0
 10
145.5568746646966
 20
338.5311894788354
 30
0.0
 10
145.625326281806
 20
339.2767790204933
 30
0.0
 10
145.7108987856474
 20
339.9658829339463
 30
0.0
 10
145.8036506355365
 20
340.571572981686
 30
0.0
 10
145.8945241972409
 20
341.082974046195
 30
0.0
 10
145.9723480313231
 20
341.476603222194
 30
0.0
 10
146.0266688747373
 20
341.7335413161613
 30
0.0
 10
146.0527978269699
 20
341.8523644157973
 30
0.0
 10
146.0494553563963
 20
341.837139373258
 30
0.0
 10
146.0485743081259
 20
341.8331261749067
 30
0.0
  0
LINE
  5
B3
330
1F
100
AcDbEntity
  8
0
  6
Continuous
 62
     7
370
    15
100
AcDbLine
 10
123.5519898508
 20
402.8343213296
 30
0.0
 11
101.0519898508
 21
402.8343213296
 31
0.0
  0
LINE
  5
B4
330
1F
100
AcDbEntity
  8
0
  6
Continuous
 62
     7
370
    15
100
AcDbLine
 10
146.0519898508
 20
402.8343213296
 30
0.0
 11
123.5519898508
 21
402.8343213296
 31
0.0
  0
LINE
  5
B5
330
1F
100
AcDbEntity
  8
0
  6
Continuous
 62
     7
370
    15
100
AcDbLine
 10
123.5519898508
 20
279.3343213296
 30
0.0
 11
101.0519898508
 21
279.3343213296
 31
0.0
  0
LINE
  5
B6
330
1F
100
AcDbEntity
  8
0
  6
Continuous
 62
     7
370
    15
100
AcDbLine
 10
146.0519898508
 20
279.3343213296
 30
0.0
 11
123.5519898508
 21
279.3343213296
 31
0.0
  0
SPLINE
  5
B7
330
1F
100
AcDbEntity
  8
0
  6
Continuous
 62
     7
370
    15
100
AcDbSpline
210
0.0
220
0.0
230
1.0
 70
     8
 71
     3
 72
    22
 73
    18
 74
     0
 42
0.000000001
 43
0.00000001
 12
1.0
 22
0.0
 32
0.0
 13
1.0
 23
0.0
 33
0.0
 40
0.0
 40
0.0
 40
0.0
 40
0.0
 40
0.125
 40
0.125
 40
0.25
 40
0.25
 40
0.375
 40
0.375
 40
0.5
 40
0.5
 40
0.625
 40
0.625
 40
0.75
 40
0.75
 40
0.875
 40
0.875
 40
1.0
 40
1.0
 40
1.0
 40
1.0
 10
126.5519898508352
 20
294.0343213296398
 30
0.0
 10
126.8200711498337
 20
294.0343213296398
 30
0.0
 10
127.0886438225894
 20
294.0606626070587
 30
0.0
 10
127.6174834355213
 20
294.1660198926957
 30
0.0
 10
127.8723505401281
 20
294.2436404540635
 30
0.0
 10
128.3639853140462
 20
294.4468530292055
 30
0.0
 10
128.6029485120277
 20
294.5742073357844
 30
0.0
 10
129.0460250255713
 20
294.8692590597367
 30
0.0
 10
129.251426257153
 20
295.0368638198332
 30
0.0
 10
129.6301278051133
 20
295.4128756345646
 30
0.0
 10
129.8030711186318
 20
295.6220265585018
 30
0.0
 10
130.1011885542625
 20
296.0644558773711
 30
0.0
 10
130.2286508725359
 20
296.2997184306593
 30
0.0
 10
130.4383302563822
 20
296.8001690453581
 30
0.0
 10
130.5179502517616
 20
297.0601633424939
 30
0.0
 10
130.6244448403673
 20
297.5886404326858
 30
0.0
 10
130.6519898508353
 20
297.861486404769
 30
0.0
 10
130.6519898508353
 20
298.1343213296399
 30
0.0
  0
LINE
  5
B8
330
1F
100
AcDbEntity
  8
0
  6
Continuous
 62
     7
370
    15
100
AcDbLine
 10
130.6519898508
 20
310.5343213296
 30
0.0
 11
130.6519898508
 21
298.1343213296
 31
0.0
  0
SPLINE
  5
B9
330
1F
100
AcDbEntity
  8
0
  6
Continuous
 62
     7
370
    15
100
AcDbSpline
210
0.0
220
0.0
230
1.0
 70
     8
 71
     3
 72
    22
 73
    18
 74
     0
 42
0.000000001
 43
0.00000001
 12
1.0
 22
0.0
 32
0.0
 13
1.0
 23
0.0
 33
0.0
 40
0.0
 40
0.0
 40
0.0
 40
0.0
 40
0.125
 40
0.125
 40
0.25
 40
0.25
 40
0.375
 40
0.375
 40
0.5
 40
0.5
 40
0.625
 40
0.625
 40
0.75
 40
0.75
 40
0.875
 40
0.875
 40
1.0
 40
1.0
 40
1.0
 40
1.0
 10
126.5519898508352
 20
314.6343213296399
 30
0.0
 10
126.8224468061442
 20
314.6343213296399
 30
0.0
 10
127.0920353861614
 20
314.6073447618072
 30
0.0
 10
127.6152872773537
 20
314.5030198117583
 30
0.0
 10
127.8730785448329
 20
314.4249004332144
 30
0.0
 10
128.3684861247829
 20
314.2197280080559
 30
0.0
 10
128.6025904488596
 20
314.0945971247749
 30
0.0
 10
129.0447465837071
 20
313.8003112899374
 30
0.0
 10
129.25455835639
 20
313.6290082380181
 30
0.0
 10
129.6322890379337
 20
313.2532771045771
 30
0.0
 10
129.801743399201
 20
313.0484726756464
 30
0.0
 10
130.1014304179812
 20
312.6039412889659
 30
0.0
 10
130.2310671433864
 20
312.3636341456729
 30
0.0
 10
130.4381002774346
 20
311.8685405229301
 30
0.0
 10
130.5174427092437
 20
311.6112359760169
 30
0.0
 10
130.6252315142284
 20
311.0758597672777
 30
0.0
 10
130.6519898508353
 20
310.8046578358523
 30
0.0
 10
130.6519898508353
 20
310.5343213296398
 30
0.0
  0
LINE
  5
BA
330
1F
100
AcDbEntity
  8
0
  6
Continuous
 62
     7
370
    15
100
AcDbLine
 10
120.5519898508
 20
314.6343213296
 30
0.0
 11
126.5519898508
 21
314.6343213296
 31
0.0
  0
SPLINE
  5
BB
330
1F
100
AcDbEntity
  8
0
  6
Continuous
 62
     7
370
    15
100
AcDbSpline
210
0.0
220
0.0
230
1.0
 70
     8
 71
     3
 72
    22
 73
    18
 74
     0
 42
0.000000001
 43
0.00000001
 12
1.0
 22
0.0
 32
0.0
 13
1.0
 23
0.0
 33
0.0
 40
0.0
 40
0.0
 40
0.0
 40
0.0
 40
0.1250000000000002
 40
0.1250000000000002
 40
0.2500000000000002
 40
0.2500000000000002
 40
0.3750000000000002
 40
0.3750000000000002
 40
0.5000000000000001
 40
0.5000000000000001
 40
0.6250000000000001
 40
0.6250000000000001
 40
0.7500000000000001
 40
0.7500000000000001
 40
0.875
 40
0.875
 40
1.0
 40
1.0
 40
1.0
 40
1.0
 10
120.5519898508353
 20
314.6343213296399
 30
0.0
 10
120.2815328955263
 20
314.6343213296399
 30
0.0
 10
120.0119443155091
 20
314.6073447618072
 30
0.0
 10
119.4886924243168
 20
314.5030198117583
 30
0.0
 10
119.2309011568376
 20
314.4249004332144
 30
0.0
 10
118.7354935768876
 20
314.2197280080559
 30
0.0
 10
118.5013892528109
 20
314.0945971247749
 30
0.0
 10
118.0592331179634
 20
313.8003112899374
 30
0.0
 10
117.8494213452804
 20
313.6290082380181
 30
0.0
 10
117.4716906637368
 20
313.2532771045771
 30
0.0
 10
117.3022363024695
 20
313.0484726756464
 30
0.0
 10
117.0025492836892
 20
312.6039412889659
 30
0.0
 10
116.8729125582841
 20
312.3636341456729
 30
0.0
 10
116.6658794242359
 20
311.8685405229301
 30
0.0
 10
116.5865369924268
 20
311.6112359760169
 30
0.0
 10
116.4787481874421
 20
311.0758597672777
 30
0.0
 10
116.4519898508352
 20
310.8046578358523
 30
0.0
 10
116.4519898508352
 20
310.5343213296398
 30
0.0
  0
LINE
  5
BC
330
1F
100
AcDbEntity
  8
0
  6
Continuous
 62
     7
370
    15
100
AcDbLine
 10
116.4519898508
 20
310.5343213296
 30
0.0
 11
116.4519898508
 21
298.1343213296
 31
0.0
  0
SPLINE
  5
BD
330
1F
100
AcDbEntity
  8
0
  6
Continuous
 62
     7
370
    15
100
AcDbSpline
210
0.0
220
0.0
230
1.0
 70
     8
 71
     3
 72
    22
 73
    18
 74
     0
 42
0.000000001
 43
0.00000001
 12
1.0
 22
0.0
 32
0.0
 13
1.0
 23
0.0
 33
0.0
 40
0.0
 40
0.0
 40
0.0
 40
0.0
 40
0.125
 40
0.125
 40
0.2499999999999999
 40
0.2499999999999999
 40
0.3749999999999999
 40
0.3749999999999999
 40
0.4999999999999999
 40
0.4999999999999999
 40
0.6249999999999999
 40
0.6249999999999999
 40
0.7499999999999998
 40
0.7499999999999998
 40
0.8749999999999998
 40
0.8749999999999998
 40
1.0
 40
1.0
 40
1.0
 40
1.0
 10
116.4519898508352
 20
298.1343213296399
 30
0.0
 10
116.4519898508352
 20
297.8641457703994
 30
0.0
 10
116.4791631369826
 20
297.5903956091208
 30
0.0
 10
116.586506680079
 20
297.0578846835882
 30
0.0
 10
116.6656429906562
 20
296.800525603555
 30
0.0
 10
116.8737925952909
 20
296.3030463896454
 30
0.0
 10
117.0036437486347
 20
296.0629545340542
 30
0.0
 10
117.3023283503933
 20
295.6201573343121
 30
0.0
 10
117.472170649534
 20
295.4145536830126
 30
0.0
 10
117.8541005736227
 20
295.0353189397979
 30
0.0
 10
118.0601890888863
 20
294.8676355576027
 30
0.0
 10
118.5017113785616
 20
294.5738908561422
 30
0.0
 10
118.7398487567244
 20
294.4468463358813
 30
0.0
 10
119.2335320309166
 20
294.2429210480374
 30
0.0
 10
119.4878690111921
 20
294.1658205358891
 30
0.0
 10
120.011779076903
 20
294.0612973877645
 30
0.0
 10
120.2836826875766
 20
294.0343213296398
 30
0.0
 10
120.5519898508353
 20
294.0343213296398
 30
0.0
  0
LINE
  5
BE
330
1F
100
AcDbEntity
  8
0
  6
Continuous
 62
     7
370
    15
100
AcDbLine
 10
120.5519898508
 20
294.0343213296
 30
0.0
 11
126.5519898508
 21
294.0343213296
 31
0.0
  0
SPLINE
  5
BF
330
1F
100
AcDbEntity
  8
0
  6
Continuous
 62
     7
370
     0
100
AcDbSpline
210
0.0
220
0.0
230
1.0
 70
     8
 71
     3
 72
    10
 73
     6
 74
     0
 42
0.000000001
 43
0.00000001
 12
1.0
 22
0.0
 32
0.0
 13
1.0
 23
0.0
 33
0.0
 40
0.0
 40
0.0
 40
0.0
 40
0.0
 40
0.5
 40
0.5
 40
1.0
 40
1.0
 40
1.0
 40
1.0
 10
143.4289365455223
 20
376.5932714324148
 30
0.0
 10
143.53743906765
 20
373.8778725545699
 30
0.0
 10
143.5909948694311
 20
371.1141334792395
 30
0.0
 10
143.5923143119968
 20
365.5833890425185
 30
0.0
 10
143.5400775835296
 20
362.8189205999586
 30
0.0
 10
143.4329408431859
 20
360.1023680023546
 30
0.0
  0
SPLINE
  5
C0
330
1F
100
AcDbEntity
  8
0
  6
Continuous
 62
     7
370
     0
100
AcDbSpline
210
0.0
220
0.0
230
1.0
 70
     8
 71
     3
 72
    10
 73
     6
 74
     0
 42
0.000000001
 43
0.00000001
 12
1.0
 22
0.0
 32
0.0
 13
1.0
 23
0.0
 33
0.0
 40
0.0
 40
0.0
 40
0.0
 40
0.0
 40
0.5
 40
0.5
 40
1.0
 40
1.0
 40
1.0
 40
1.0
 10
103.6710388584846
 20
360.1023680023546
 30
0.0
 10
103.5639021192019
 20
362.8189205698284
 30
0.0
 10
103.5116657244507
 20
365.5833624563435
 30
0.0
 10
103.5129844847822
 20
371.1141069000619
 30
0.0
 10
103.5665406326958
 20
373.8778725212577
 30
0.0
 10
103.6750431561481
 20
376.5932714324148
 30
0.0
  0
LINE
  5
C1
330
1F
100
AcDbEntity
  8
0
  6
Continuous
 62
     7
370
    15
100
AcDbLine
 10
101.2519898508
 20
404.8343213296
 30
0.0
 11
145.8519898142
 21
404.8343213296
 31
0.0
  0
LWPOLYLINE
  5
C2
330
1F
100
AcDbEntity
  8
0
  6
Continuous
 62
     7
370
    15
100
AcDbPolyline
 90
        9
 70
   128
 43
0.0
 10
120.5318556226
 20
294.3343213296
 10
121.2852081006
 20
294.3343213296
 10
122.0400011981
 20
294.3343213296
 10
122.7957552177
 20
294.3343213296
 10
123.5519898511
 20
294.3343213296
 10
124.3082244844
 20
294.3343213296
 10
125.063978504
 20
294.3343213296
 10
125.8187716016
 20
294.3343213296
 10
126.5721240795
 20
294.3343220138
  0
SPLINE
  5
C3
330
1F
100
AcDbEntity
  8
0
  6
Continuous
 62
     7
370
    15
100
AcDbSpline
210
0.0
220
0.0
230
1.0
 70
     8
 71
     3
 72
    10
 73
     6
 74
     0
 42
0.000000001
 43
0.00000001
 12
1.0
 22
0.0
 32
0.0
 13
1.0
 23
0.0
 33
0.0
 40
0.0
 40
0.0
 40
0.0
 40
0.0
 40
0.5
 40
0.5
 40
1.0
 40
1.0
 40
1.0
 40
1.0
 10
126.5519898500452
 20
294.1343215380898
 30
0.0
 10
126.5567355633937
 20
294.1343215522008
 30
0.0
 10
126.5622955170922
 20
294.1538480741966
 30
0.0
 10
126.570158429193
 20
294.2319538589854
 30
0.0
 10
126.5721241177823
 20
294.2871828101137
 30
0.0
 10
126.5721240743672
 20
294.3343233821398
 30
0.0
  0
SPLINE
  5
C4
330
1F
100
AcDbEntity
  8
0
  6
Continuous
 62
     7
370
    15
100
AcDbSpline
210
0.0
220
0.0
230
1.0
 70
    24
 71
     3
 72
    18
 73
    14
 74
     0
 42
0.000000001
 43
0.00000001
 12
1.0
 22
0.0
 32
0.0
 13
1.0
 23
0.0
 33
0.0
 40
0.0
 40
0.0
 40
0.0
 40
0.0
 40
0.0911387243835163
 40
0.1821397985320155
 40
0.2730336672671808
 40
0.3638508832267612
 40
0.4546220764501147
 40
0.5453779235745421
 40
0.636149116796248
 40
0.7269663327525346
 40
0.8178602014827637
 40
0.9088612756246889
 40
1.0
 40
1.0
 40
1.0
 40
1.0
 10
126.5519898546532
 20
294.1343213296398
 30
0.0
 10
126.3702325146441
 20
294.1343213296398
 30
0.0
 10
126.0069923495561
 20
294.1343213296398
 30
0.0
 10
125.4613903595782
 20
294.1343213296398
 30
0.0
 10
124.9158595704242
 20
294.1343213296398
 30
0.0
 10
124.3703090734955
 20
294.1343213296398
 30
0.0
 10
123.824763538217
 20
294.1343213296398
 30
0.0
 10
123.2792161634077
 20
294.1343213296398
 30
0.0
 10
122.7336706281391
 20
294.1343213296398
 30
0.0
 10
122.1881201312301
 20
294.1343213296398
 30
0.0
 10
121.6425893421057
 20
294.1343213296398
 30
0.0
 10
121.0969873521672
 20
294.1343213296398
 30
0.0
 10
120.7337471871089
 20
294.1343213296398
 30
0.0
 10
120.5519898471162
 20
294.1343213296398
 30
0.0
  0
ARC
  5
C5
330
1F
100
AcDbEntity
  8
0
  6
Continuous
 62
     7
370
    15
100
AcDbCircle
 10
121.0436230753
 20
294.2848280702
 30
0.0
 40
0.5141551403222477
100
AcDbArc
 50
174.4760783528
 51
197.0212473429
  0
LINE
  5
C6
330
1F
100
AcDbEntity
  8
0
  6
Continuous
 62
     7
370
    15
100
AcDbLine
 10
120.5318556228
 20
314.4343213296
 30
0.0
 11
126.572124079
 21
314.4343213296
 31
0.0
  0
SPLINE
  5
C7
330
1F
100
AcDbEntity
  8
0
  6
Continuous
 62
     7
370
    15
100
AcDbSpline
210
0.0
220
0.0
230
1.0
 70
     8
 71
     3
 72
    10
 73
     6
 74
     0
 42
0.000000001
 43
0.00000001
 12
1.0
 22
0.0
 32
0.0
 13
1.0
 23
0.0
 33
0.0
 40
0.0
 40
0.0
 40
0.0
 40
0.0
 40
0.5
 40
0.5
 40
1.0
 40
1.0
 40
1.0
 40
1.0
 10
120.5519898516252
 20
314.6343211211898
 30
0.0
 10
120.5472441382768
 20
314.6343211070787
 30
0.0
 10
120.5416841845783
 20
314.6147945850829
 30
0.0
 10
120.5338212724775
 20
314.5366888002942
 30
0.0
 10
120.5318555838882
 20
314.4814598491658
 30
0.0
 10
120.5318556273032
 20
314.4343192771398
 30
0.0
  0
SPLINE
  5
C8
330
1F
100
AcDbEntity
  8
0
  6
Continuous
 62
     7
370
    15
100
AcDbSpline
210
0.0
220
0.0
230
1.0
 70
     8
 71
     3
 72
    10
 73
     6
 74
     0
 42
0.000000001
 43
0.00000001
 12
1.0
 22
0.0
 32
0.0
 13
1.0
 23
0.0
 33
0.0
 40
0.0
 40
0.0
 40
0.0
 40
0.0
 40
0.5
 40
0.5
 40
1.0
 40
1.0
 40
1.0
 40
1.0
 10
126.5721240744182
 20
314.4343193126398
 30
0.0
 10
126.5721241175914
 20
314.4814598847483
 30
0.0
 10
126.5701584287298
 20
314.5366888340748
 30
0.0
 10
126.5622955164565
 20
314.6147946133638
 30
0.0
 10
126.5567355628635
 20
314.634321132344
 30
0.0
 10
126.5519898496462
 20
314.6343211448898
 30
0.0
  0
SPLINE
  5
C9
330
1F
100
AcDbEntity
  8
0
  6
Continuous
 62
     7
370
    15
100
AcDbSpline
210
0.0
220
0.0
230
1.0
 70
     8
 71
     3
 72
    14
 73
    10
 74
     0
 42
0.000000001
 43
0.00000001
 12
1.0
 22
0.0
 32
0.0
 13
1.0
 23
0.0
 33
0.0
 40
0.0
 40
0.0
 40
0.0
 40
0.0
 40
0.25
 40
0.25
 40
0.5
 40
0.5
 40
0.75
 40
0.75
 40
1.0
 40
1.0
 40
1.0
 40
1.0
 10
130.3976254542733
 20
310.6343213296828
 30
0.0
 10
130.3976235712713
 20
311.135218814009
 30
0.0
 10
130.2964350636421
 20
311.6357510688722
 30
0.0
 10
129.9098228608103
 20
312.5570495003963
 30
0.0
 10
129.624886427668
 20
312.9775327407577
 30
0.0
 10
128.9169283683756
 20
313.6775114160644
 30
0.0
 10
128.4941602367083
 20
313.9570327830909
 30
0.0
 10
127.5720681002873
 20
314.3355257570736
 30
0.0
 10
127.0728259094846
 20
314.434317331209
 30
0.0
 10
126.5721240744182
 20
314.4343193126398
 30
0.0
  0
LINE
  5
CA
330
1F
100
AcDbEntity
  8
0
  6
Continuous
 62
     7
370
    15
100
AcDbLine
 10
130.3976267735
 20
298.1343213296
 30
0.0
 11
130.3976267725
 21
310.6343213297
 31
0.0
  0
SPLINE
  5
CB
330
1F
100
AcDbEntity
  8
0
  6
Continuous
 62
     7
370
    15
100
AcDbSpline
210
0.0
220
0.0
230
1.0
 70
     8
 71
     3
 72
    14
 73
    10
 74
     0
 42
0.000000001
 43
0.00000001
 12
1.0
 22
0.0
 32
0.0
 13
1.0
 23
0.0
 33
0.0
 40
0.0
 40
0.0
 40
0.0
 40
0.0
 40
0.25
 40
0.25
 40
0.5
 40
0.5
 40
0.75
 40
0.75
 40
1.0
 40
1.0
 40
1.0
 40
1.0
 10
126.5721240743672
 20
294.3343233821397
 30
0.0
 10
127.0728290954915
 20
294.3343252551846
 30
0.0
 10
127.5720665901408
 20
294.4331167766592
 30
0.0
 10
128.4941612767044
 20
294.8116097919006
 30
0.0
 10
128.9169313631487
 20
295.0911334342609
 30
0.0
 10
129.6248914819534
 20
295.7911157253522
 30
0.0
 10
129.9098261933636
 20
296.2115995229418
 30
0.0
 10
130.2964355643323
 20
297.1328944402304
 30
0.0
 10
130.3976234589644
 20
297.6334268514472
 30
0.0
 10
130.3976254569322
 20
298.1343213295477
 30
0.0
  0
SPLINE
  5
CC
330
1F
100
AcDbEntity
  8
0
  6
Continuous
 62
     7
370
    15
100
AcDbSpline
210
0.0
220
0.0
230
1.0
 70
     8
 71
     3
 72
    14
 73
    10
 74
     0
 42
0.000000001
 43
0.00000001
 12
1.0
 22
0.0
 32
0.0
 13
1.0
 23
0.0
 33
0.0
 40
0.0
 40
0.0
 40
0.0
 40
0.0
 40
0.25
 40
0.25
 40
0.5
 40
0.5
 40
0.75
 40
0.75
 40
1.0
 40
1.0
 40
1.0
 40
1.0
 10
116.7063542473972
 20
298.1343213295968
 30
0.0
 10
116.7063561303992
 20
297.6334238452703
 30
0.0
 10
116.8075446380284
 20
297.1328915904078
 30
0.0
 10
117.1941568408606
 20
296.2115931588834
 30
0.0
 10
117.4790932740012
 20
295.7911099185215
 30
0.0
 10
118.187051333295
 20
295.0911312432153
 30
0.0
 10
118.6098194649635
 20
294.8116098761893
 30
0.0
 10
119.5319116013826
 20
294.4331169022055
 30
0.0
 10
120.0311537921859
 20
294.3343253280705
 30
0.0
 10
120.5318556272522
 20
294.3343233466397
 30
0.0
  0
LINE
  5
CD
330
1F
100
AcDbEntity
  8
0
  6
Continuous
 62
     7
370
    15
100
AcDbLine
 10
116.7063529281
 20
310.6343213297
 30
0.0
 11
116.7063529292
 21
298.1343213296
 31
0.0
  0
SPLINE
  5
CE
330
1F
100
AcDbEntity
  8
0
  6
Continuous
 62
     7
370
    15
100
AcDbSpline
210
0.0
220
0.0
230
1.0
 70
     8
 71
     3
 72
    14
 73
    10
 74
     0
 42
0.000000001
 43
0.00000001
 12
1.0
 22
0.0
 32
0.0
 13
1.0
 23
0.0
 33
0.0
 40
0.0
 40
0.0
 40
0.0
 40
0.0
 40
0.25
 40
0.25
 40
0.5
 40
0.5
 40
0.75
 40
0.75
 40
1.0
 40
1.0
 40
1.0
 40
1.0
 10
120.5318556273032
 20
314.4343192771398
 30
0.0
 10
120.031150606179
 20
314.4343174040951
 30
0.0
 10
119.5319131115297
 20
314.3355258826206
 30
0.0
 10
118.6098184249653
 20
313.9570328673796
 30
0.0
 10
118.1870483385219
 20
313.6775092250187
 30
0.0
 10
117.4790882197163
 20
312.9775269339275
 30
0.0
 10
117.194153508308
 20
312.557043136337
 30
0.0
 10
116.8075441373369
 20
311.6357482190498
 30
0.0
 10
116.7063562427061
 20
311.1352158078321
 30
0.0
 10
116.7063542447382
 20
310.6343213297318
 30
0.0
  0
SPLINE
  5
CF
330
1F
100
AcDbEntity
  8
0
  6
Continuous
 62
     7
370
    15
100
AcDbSpline
210
0.0
220
0.0
230
1.0
 70
     8
 71
     3
 72
    21
 73
    17
 74
     0
 42
0.000000001
 43
0.00000001
 12
1.0
 22
0.0
 32
0.0
 13
1.0
 23
0.0
 33
0.0
 40
0.0
 40
0.0
 40
0.0
 40
0.0
 40
0.0307388019309325
 40
0.0693791836148576
 40
0.1159223716104777
 40
0.1778455844949661
 40
0.2497675216380773
 40
0.3066759568960588
 40
0.4080161515753469
 40
0.5439933425945698
 40
0.6657861009971083
 40
0.7735381270529604
 40
0.831944890187264
 40
0.8891442450279486
 40
0.9451556913770787
 40
1.0
 40
1.0
 40
1.0
 40
1.0
 10
120.5519898508352
 20
294.1343213296398
 30
0.0
 10
120.4875707436266
 20
294.1352363423557
 30
0.0
 10
120.3421732399315
 20
294.1373015768878
 30
0.0
 10
120.1002075762716
 20
294.157101072315
 30
0.0
 10
119.7955303644757
 20
294.2014787948802
 30
0.0
 10
119.4280297761262
 20
294.2878418362007
 30
0.0
 10
119.0512072102502
 20
294.4191855457892
 30
0.0
 10
118.6156241688618
 20
294.6222710655483
 30
0.0
 10
118.0936052061673
 20
294.9495098416541
 30
0.0
 10
117.5390873648651
 20
295.46183359419
 30
0.0
 10
117.0906419738779
 20
296.0863574262427
 30
0.0
 10
116.8310956270227
 20
296.6347162080496
 30
0.0
 10
116.6870991543893
 20
297.0818295172172
 30
0.0
 10
116.6086680789746
 20
297.4344284203044
 30
0.0
 10
116.5607332375421
 20
297.7854458331927
 30
0.0
 10
116.5548837845402
 20
298.0188486195984
 30
0.0
 10
116.5519898508352
 20
298.1343213296468
 30
0.0
  0
SPLINE
  5
D0
330
1F
100
AcDbEntity
  8
0
  6
Continuous
 62
     7
370
    15
100
AcDbSpline
210
0.0
220
0.0
230
1.0
 70
    24
 71
     3
 72
    10
 73
     6
 74
     0
 42
0.000000001
 43
0.00000001
 12
1.0
 22
0.0
 32
0.0
 13
1.0
 23
0.0
 33
0.0
 40
0.0
 40
0.0
 40
0.0
 40
0.0
 40
0.5
 40
0.5
 40
1.0
 40
1.0
 40
1.0
 40
1.0
 10
116.5519900487481
 20
298.1343213296688
 30
0.0
 10
116.5519900321244
 20
298.1343213296651
 30
0.0
 10
116.5676735277784
 20
298.1343213296554
 30
0.0
 10
116.6263551098465
 20
298.1343213296282
 30
0.0
 10
116.6676188587145
 20
298.1343213296114
 30
0.0
 10
116.7063542473972
 20
298.1343213295968
 30
0.0
  0
SPLINE
  5
D1
330
1F
100
AcDbEntity
  8
0
  6
Continuous
 62
     7
370
    15
100
AcDbSpline
210
0.0
220
0.0
230
1.0
 70
     8
 71
     3
 72
    21
 73
    17
 74
     0
 42
0.000000001
 43
0.00000001
 12
1.0
 22
0.0
 32
0.0
 13
1.0
 23
0.0
 33
0.0
 40
0.0
 40
0.0
 40
0.0
 40
0.0
 40
0.0307402334681764
 40
0.0693806149697421
 40
0.1159223713218043
 40
0.1778455841981852
 40
0.2497675213937364
 40
0.3066759565227563
 40
0.4080161513826021
 40
0.5439933424463206
 40
0.6657861008657986
 40
0.7735381269795238
 40
0.8319448901341235
 40
0.8891442449938114
 40
0.9451556913606527
 40
1.0
 40
1.0
 40
1.0
 40
1.0
 10
126.5519898545542
 20
314.6343213296398
 30
0.0
 10
126.6164119557709
 20
314.633406235007
 30
0.0
 10
126.7618124454802
 20
314.6313408691586
 30
0.0
 10
127.0037780753519
 20
314.6115408092305
 30
0.0
 10
127.3084522530404
 20
314.5671631806451
 30
0.0
 10
127.6759499257672
 20
314.4808008225049
 30
0.0
 10
128.0527724910205
 20
314.3494571137417
 30
0.0
 10
128.4883555325689
 20
314.1463715938245
 30
0.0
 10
129.0103744952698
 20
313.8191328178575
 30
0.0
 10
129.5648923367775
 20
313.30680906511
 30
0.0
 10
130.013337727769
 20
312.6822852330766
 30
0.0
 10
130.272884074636
 20
312.1339264512686
 30
0.0
 10
130.4168805472839
 20
311.6868131420529
 30
0.0
 10
130.4953116226979
 20
311.3342142389636
 30
0.0
 10
130.5432464641288
 20
310.9831968260792
 30
0.0
 10
130.5490959171304
 20
310.749794039678
 30
0.0
 10
130.5519898508352
 20
310.6343213296328
 30
0.0
  0
SPLINE
  5
D2
330
1F
100
AcDbEntity
  8
0
  6
Continuous
 62
     7
370
    15
100
AcDbSpline
210
0.0
220
0.0
230
1.0
 70
    24
 71
     3
 72
    10
 73
     6
 74
     0
 42
0.000000001
 43
0.00000001
 12
1.0
 22
0.0
 32
0.0
 13
1.0
 23
0.0
 33
0.0
 40
0.0
 40
0.0
 40
0.0
 40
0.0
 40
0.5
 40
0.5
 40
1.0
 40
1.0
 40
1.0
 40
1.0
 10
130.5519896529224
 20
310.6343213296105
 30
0.0
 10
130.5519896695461
 20
310.634321329614
 30
0.0
 10
130.536306173892
 20
310.6343213296237
 30
0.0
 10
130.4776245918239
 20
310.6343213296512
 30
0.0
 10
130.436360842956
 20
310.6343213296682
 30
0.0
 10
130.3976254542733
 20
310.6343213296828
 30
0.0
  0
SPLINE
  5
D3
330
1F
100
AcDbEntity
  8
0
  6
Continuous
 62
     7
370
    15
100
AcDbSpline
210
0.0
220
0.0
230
1.0
 70
    24
 71
     3
 72
    10
 73
     6
 74
     0
 42
0.000000001
 43
0.00000001
 12
1.0
 22
0.0
 32
0.0
 13
1.0
 23
0.0
 33
0.0
 40
0.0
 40
0.0
 40
0.0
 40
0.0
 40
0.5
 40
0.5
 40
1.0
 40
1.0
 40
1.0
 40
1.0
 10
130.3976254569322
 20
298.1343213295477
 30
0.0
 10
130.4363608466139
 20
298.1343213295658
 30
0.0
 10
130.4776245978395
 20
298.1343213295864
 30
0.0
 10
130.5363061852985
 20
298.1343213296199
 30
0.0
 10
130.5519896836284
 20
298.1343213296319
 30
0.0
 10
130.5519896684149
 20
298.1343213296364
 30
0.0
  0
SPLINE
  5
D4
330
1F
100
AcDbEntity
  8
0
  6
Continuous
 62
     7
370
    15
100
AcDbSpline
210
0.0
220
0.0
230
1.0
 70
     8
 71
     3
 72
    22
 73
    18
 74
     0
 42
0.000000001
 43
0.00000001
 12
1.0
 22
0.0
 32
0.0
 13
1.0
 23
0.0
 33
0.0
 40
0.0
 40
0.0
 40
0.0
 40
0.0
 40
0.02803723728773
 40
0.0569903452894257
 40
0.0868639063465261
 40
0.1176620901409084
 40
0.149388699987838
 40
0.2287692691546664
 40
0.2977819606487307
 40
0.4115675186724623
 40
0.5515552328358764
 40
0.6786186888032842
 40
0.7441575495073082
 40
0.8090882795381629
 40
0.8793091839802849
 40
0.942944490662517
 40
1.0
 40
1.0
 40
1.0
 40
1.0
 10
130.5519898508352
 20
298.1343213296388
 30
0.0
 10
130.5512337728653
 20
298.0753048644331
 30
0.0
 10
130.5496969187121
 20
297.9553440888647
 30
0.0
 10
130.5369677576866
 20
297.7728807226254
 30
0.0
 10
130.5157256516023
 20
297.5854558471612
 30
0.0
 10
130.4844419916764
 20
297.3935639526119
 30
0.0
 10
130.4220512302015
 20
297.1017732734925
 30
0.0
 10
130.3104737724034
 20
296.7389897220657
 30
0.0
 10
130.0882073569978
 20
296.2348774667141
 30
0.0
 10
129.7281489779353
 20
295.6592655002748
 30
0.0
 10
129.1770344428674
 20
295.0773946167175
 30
0.0
 10
128.6020204965205
 20
294.6813367524405
 30
0.0
 10
128.1183051548614
 20
294.4462239597616
 30
0.0
 10
127.7241921305178
 20
294.3019734678671
 30
0.0
 10
127.3204508955975
 20
294.2018431187221
 30
0.0
 10
126.924438858704
 20
294.144055518877
 30
0.0
 10
126.6715437589314
 20
294.1374459462742
 30
0.0
 10
126.5519898508352
 20
294.1343213296398
 30
0.0
  0
LINE
  5
D5
330
1F
100
AcDbEntity
  8
0
  6
Continuous
 62
     7
370
    15
100
AcDbLine
 10
116.7063529292
 20
310.6343213297
 30
0.0
 11
116.5519898508
 21
310.6343213297
 31
0.0
  0
SPLINE
  5
D6
330
1F
100
AcDbEntity
  8
0
  6
Continuous
 62
     7
370
    15
100
AcDbSpline
210
0.0
220
0.0
230
1.0
 70
     8
 71
     3
 72
    24
 73
    20
 74
     0
 42
0.000000001
 43
0.00000001
 12
1.0
 22
0.0
 32
0.0
 13
1.0
 23
0.0
 33
0.0
 40
0.0
 40
0.0
 40
0.0
 40
0.0
 40
0.0311789240615557
 40
0.0627024379497546
 40
0.0945744877167864
 40
0.1267988912778844
 40
0.1593793425806898
 40
0.1923194156930706
 40
0.2256225688033199
 40
0.3331406096205051
 40
0.4546067745771091
 40
0.5908578058667816
 40
0.6933058575846527
 40
0.7498543373280824
 40
0.8181259796549221
 40
0.8766322711952224
 40
0.9259814864801789
 40
0.9671035687539625
 40
0.9999999999999999
 40
0.9999999999999999
 40
0.9999999999999999
 40
0.9999999999999999
 10
116.5519898508352
 20
310.6343213296407
 30
0.0
 10
116.5529235706214
 20
310.6999564266822
 30
0.0
 10
116.5548013296756
 20
310.831952020611
 30
0.0
 10
116.5701029174177
 20
311.0305323067008
 30
0.0
 10
116.5948750674372
 20
311.2302629448113
 30
0.0
 10
116.6302799752761
 20
311.4305994005776
 30
0.0
 10
116.6763014055736
 20
311.6309634385686
 30
0.0
 10
116.7332159778647
 20
311.8307649935692
 30
0.0
 10
116.8513516780527
 20
312.1760856044355
 30
0.0
 10
117.0871076718829
 20
312.6760702922998
 30
0.0
 10
117.5339370525181
 20
313.3009859714107
 30
0.0
 10
118.0891132596203
 20
313.8159990235958
 30
0.0
 10
118.6127257281403
 20
314.1449048397101
 30
0.0
 10
119.0427684300087
 20
314.3455756817205
 30
0.0
 10
119.4044088848496
 20
314.4730302378352
 30
0.0
 10
119.7623711032552
 20
314.5605630906049
 30
0.0
 10
120.0705028549438
 20
314.6084142113291
 30
0.0
 10
120.3279133090783
 20
314.6309162017885
 30
0.0
 10
120.4830442151385
 20
314.6332736131162
 30
0.0
 10
120.5519898470172
 20
314.6343213296398
 30
0.0
  0
LINE
  5
D7
330
1F
100
AcDbEntity
  8
0
  6
Continuous
 62
     7
370
    15
100
AcDbLine
 10
116.5519898508
 20
310.6343213296
 30
0.0
 11
116.5519898508
 21
298.1343213296
 31
0.0
  0
LINE
  5
D8
330
1F
100
AcDbEntity
  8
0
  6
Continuous
 62
     7
370
    15
100
AcDbLine
 10
130.5519898508
 20
310.6343213296
 30
0.0
 11
130.5519898508
 21
298.1343213296
 31
0.0
  0
LINE
  5
D9
330
1F
100
AcDbEntity
  8
0
  6
Continuous
 62
     7
370
    15
100
AcDbLine
 10
164.7519898508
 20
343.8986806836
 30
0.0
 11
164.7519898508
 21
329.8986806836
 31
0.0
  0
LINE
  5
DA
330
1F
100
AcDbEntity
  8
0
  6
Continuous
 62
     7
370
    15
100
AcDbLine
 10
147.2519898508
 20
336.8986806836
 30
0.0
 11
147.2519898508
 21
343.8986806836
 31
0.0
  0
LINE
  5
DB
330
1F
100
AcDbEntity
  8
0
  6
Continuous
 62
     7
370
    15
100
AcDbLine
 10
147.2519898508
 20
329.8986806836
 30
0.0
 11
147.2519898508
 21
336.8986806836
 31
0.0
  0
ARC
  5
DC
330
1F
100
AcDbEntity
  8
0
  6
Continuous
 62
     7
370
    15
100
AcDbCircle
 10
157.7514136118
 20
351.2796123608
 30
0.0
 40
7.958807144623143
100
AcDbArc
 50
239.833437432
 51
300.0585867562
  0
LINE
  5
DD
330
1F
100
AcDbEntity
  8
0
  6
Continuous
 62
     7
370
    15
100
AcDbLine
 10
154.7519898508
 20
361.8986806836
 30
0.0
 11
160.7519894895
 21
361.8986806836
 31
0.0
  0
LINE
  5
DE
330
1F
100
AcDbEntity
  8
0
  6
Continuous
 62
     7
370
    15
100
AcDbLine
 10
165.4519898508
 20
339.2651125968
 30
0.0
 11
165.4519898508
 21
334.5322487703
 31
0.0
  0
SPLINE
  5
DF
330
1F
100
AcDbEntity
  8
0
  6
Continuous
 62
     7
370
    15
100
AcDbSpline
210
0.0
220
0.0
230
1.0
 70
     8
 71
     3
 72
    10
 73
     6
 74
     0
 42
0.000000001
 43
0.00000001
 12
1.0
 22
0.0
 32
0.0
 13
1.0
 23
0.0
 33
0.0
 40
0.0
 40
0.0
 40
0.0
 40
0.0
 40
0.5
 40
0.5
 40
1.0
 40
1.0
 40
1.0
 40
1.0
 10
165.4519898508352
 20
334.5322487703449
 30
0.0
 10
165.4519898508352
 20
334.3728752701254
 30
0.0
 10
165.3881594742514
 20
334.2167356557765
 30
0.0
 10
165.1673673238149
 20
333.9920970881774
 30
0.0
 10
165.0114202571087
 20
333.9254669341211
 30
0.0
 10
164.8519898508353
 20
333.9254669341211
 30
0.0
  0
SPLINE
  5
E0
330
1F
100
AcDbEntity
  8
0
  6
Continuous
 62
     7
370
    15
100
AcDbSpline
210
0.0
220
0.0
230
1.0
 70
     8
 71
     3
 72
    10
 73
     6
 74
     0
 42
0.000000001
 43
0.00000001
 12
1.0
 22
0.0
 32
0.0
 13
1.0
 23
0.0
 33
0.0
 40
0.0
 40
0.0
 40
0.0
 40
0.0
 40
0.5
 40
0.5
 40
1.0
 40
1.0
 40
1.0
 40
1.0
 10
164.8519898508353
 20
339.8718944330485
 30
0.0
 10
165.0113887084479
 20
339.8718944330485
 30
0.0
 10
165.1670804007566
 20
339.8053904800248
 30
0.0
 10
165.3878236807237
 20
339.5811326082718
 30
0.0
 10
165.4519898508352
 20
339.4244604147468
 30
0.0
 10
165.4519898508352
 20
339.2651125968246
 30
0.0
  0
LINE
  5
E1
330
1F
100
AcDbEntity
  8
0
  6
Continuous
 62
     7
370
    15
100
AcDbLine
 10
164.8519898508
 20
333.9254669341
 30
0.0
 11
164.7519898508
 21
333.9254669341
 31
0.0
  0
LINE
  5
E2
330
1F
100
AcDbEntity
  8
0
  6
Continuous
 62
     7
370
    15
100
AcDbLine
 10
164.8519898508
 20
339.871894433
 30
0.0
 11
164.7519898508
 21
339.871894433
 31
0.0
  0
SPLINE
  5
E3
330
1F
100
AcDbEntity
  8
0
  6
Continuous
 62
     8
370
    15
100
AcDbSpline
210
0.0
220
0.0
230
1.0
 70
     8
 71
     3
 72
    10
 73
     6
 74
     0
 42
0.000000001
 43
0.00000001
 12
1.0
 22
0.0
 32
0.0
 13
1.0
 23
0.0
 33
0.0
 40
0.0
 40
0.0
 40
0.0
 40
0.0
 40
0.0558901297362472
 40
0.527147307383357
 40
1.0
 40
1.0
 40
1.0
 40
1.0
 10
106.0728132382728
 20
376.7089540708778
 30
0.0
 10
106.0638830110941
 20
376.6975824723812
 30
0.0
 10
105.9796544499193
 20
376.5903272636992
 30
0.0
 10
105.8936027098563
 20
376.2994892062172
 30
0.0
 10
105.860634289946
 20
376.0217372720178
 30
0.0
 10
105.8441222222122
 20
375.8826266090513
 30
0.0
  0
SPLINE
  5
E4
330
1F
100
AcDbEntity
  8
0
  6
Continuous
 62
     8
370
    15
100
AcDbSpline
210
0.0
220
0.0
230
1.0
 70
     8
 71
     3
 72
    15
 73
    11
 74
     0
 42
0.000000001
 43
0.00000001
 12
1.0
 22
0.0
 32
0.0
 13
1.0
 23
0.0
 33
0.0
 40
0.0
 40
0.0
 40
0.0
 40
0.0
 40
0.0567805263464062
 40
0.191770530233945
 40
0.3260896158855203
 40
0.4611132650160473
 40
0.5954027077090277
 40
0.7304643327285346
 40
0.8647313314687568
 40
1.0
 40
1.0
 40
1.0
 40
1.0
 10
109.7235889364645
 20
377.8521237728623
 30
0.0
 10
110.2134421898607
 20
377.8770246883738
 30
0.0
 10
111.8678724000973
 20
377.9611250318935
 30
0.0
 10
115.0899198105124
 20
378.0753916469443
 30
0.0
 10
119.2434459788276
 20
378.1717261996877
 30
0.0
 10
123.5419906376093
 20
378.2046286561679
 30
0.0
 10
127.8441256397684
 20
378.1717672542632
 30
0.0
 10
132.0040175984563
 20
378.0766709695777
 30
0.0
 10
135.9560089892592
 20
377.9318157642363
 30
0.0
 10
138.2607337937722
 20
377.8121302825547
 30
0.0
 10
139.4173786964426
 20
377.7520651493815
 30
0.0
  0
LINE
  5
E5
330
1F
100
AcDbEntity
  8
0
  6
Continuous
 62
     8
370
    15
100
AcDbLine
 10
136.63313954
 20
358.9648198844
 30
0.0
 11
135.5519898508
 21
358.9680991585
 31
0.0
  0
LINE
  5
E6
330
1F
100
AcDbEntity
  8
0
  6
Continuous
 62
     8
370
    15
100
AcDbLine
 10
111.5519898508
 20
358.9680991585
 30
0.0
 11
110.4708401617
 21
358.9648198844
 31
0.0
  0
ARC
  5
E7
330
1F
100
AcDbEntity
  8
0
  6
Continuous
 62
     7
370
    15
100
AcDbCircle
 10
251.186597512
 20
403.0343213296
 30
0.0
 40
0.2000000000000455
100
AcDbArc
 50
270.0
 51
0.0
  0
ARC
  5
E8
330
1F
100
AcDbEntity
  8
0
  6
Continuous
 62
     7
370
    15
100
AcDbCircle
 10
206.586597512
 20
403.0343213296
 30
0.0
 40
0.2000000000000455
100
AcDbArc
 50
180.0
 51
270.0
  0
LINE
  5
E9
330
1F
100
AcDbEntity
  8
0
  6
Continuous
 62
     7
370
    15
100
AcDbLine
 10
206.386597512
 20
393.683974366
 30
0.0
 11
206.386597512
 21
279.3343213296
 31
0.0
  0
LINE
  5
EA
330
1F
100
AcDbEntity
  8
0
  6
Continuous
 62
     7
370
    15
100
AcDbLine
 10
206.386597512
 20
402.8343213296
 30
0.0
 11
206.386597512
 21
401.5846682933
 31
0.0
  0
LINE
  5
EB
330
1F
100
AcDbEntity
  8
0
  6
Continuous
 62
     7
370
    15
100
AcDbLine
 10
251.386597512
 20
383.1509075373
 30
0.0
 11
251.386597512
 21
402.8343213296
 31
0.0
  0
LINE
  5
EC
330
1F
100
AcDbEntity
  8
0
  6
Continuous
 62
     7
370
    15
100
AcDbLine
 10
251.386597512
 20
314.6343213296
 30
0.0
 11
251.386597512
 21
349.7843213296
 31
0.0
  0
LINE
  5
ED
330
1F
100
AcDbEntity
  8
0
  6
Continuous
 62
     7
370
    15
100
AcDbLine
 10
251.386597512
 20
279.3343213296
 30
0.0
 11
251.386597512
 21
294.0343213296
 31
0.0
  0
LINE
  5
EE
330
1F
100
AcDbEntity
  8
0
  6
Continuous
 62
     7
370
    15
100
AcDbLine
 10
206.386597512
 20
404.6343213296
 30
0.0
 11
206.386597512
 21
403.0343213296
 31
0.0
  0
LINE
  5
EF
330
1F
100
AcDbEntity
  8
0
  6
Continuous
 62
     7
370
    15
100
AcDbLine
 10
251.386597512
 20
403.0343213296
 30
0.0
 11
251.386597512
 21
404.6343213296
 31
0.0
  0
ARC
  5
F0
330
1F
100
AcDbEntity
  8
0
  6
Continuous
 62
     7
370
    15
100
AcDbCircle
 10
206.586597512
 20
404.6343213296
 30
0.0
 40
0.2000000000000171
100
AcDbArc
 50
90.0
 51
180.0
  0
ARC
  5
F1
330
1F
100
AcDbEntity
  8
0
  6
Continuous
 62
     7
370
    15
100
AcDbCircle
 10
251.186597512
 20
404.6343213296
 30
0.0
 40
0.2000000000000171
100
AcDbArc
 50
0.0
 51
90.0
  0
SPLINE
  5
F2
330
1F
100
AcDbEntity
  8
0
  6
Continuous
 62
     7
370
    15
100
AcDbSpline
210
0.0
220
0.0
230
1.0
 70
     8
 71
     3
 72
    16
 73
    12
 74
     0
 42
0.000000001
 43
0.00000001
 12
1.0
 22
0.0
 32
0.0
 13
1.0
 23
0.0
 33
0.0
 40
0.0
 40
0.0
 40
0.0
 40
0.0
 40
0.0974353387626051
 40
0.2039314430623419
 40
0.2909719573099313
 40
0.4114817295166074
 40
0.5753880725279128
 40
0.6668204181265907
 40
0.7633545126362018
 40
0.8708541582900658
 40
1.0
 40
1.0
 40
1.0
 40
1.0
 10
251.4006703514831
 20
349.7838824744415
 30
0.0
 10
251.4056797452515
 20
350.1757742345865
 30
0.0
 10
251.4161643693421
 20
350.996000788787
 30
0.0
 10
251.5714821994623
 20
352.1570263677319
 30
0.0
 10
251.791159080713
 20
353.4007354642106
 30
0.0
 10
252.148738659484
 20
354.8473632796236
 30
0.0
 10
252.6698000978513
 20
356.2352963349914
 30
0.0
 10
253.4157889482618
 20
357.3715308434735
 30
0.0
 10
254.2465361369954
 20
358.1424636519059
 30
0.0
 10
255.3995482438527
 20
358.7254678573289
 30
0.0
 10
256.3165624013942
 20
358.8628594615163
 30
0.0
 10
256.8170095747373
 20
358.93783893636
 30
0.0
  0
SPLINE
  5
F3
330
1F
100
AcDbEntity
  8
0
  6
Continuous
 62
     7
370
    15
100
AcDbSpline
210
0.0
220
0.0
230
1.0
 70
     8
 71
     3
 72
    12
 73
     8
 74
     0
 42
0.000000001
 43
0.00000001
 12
1.0
 22
0.0
 32
0.0
 13
1.0
 23
0.0
 33
0.0
 40
0.0
 40
0.0
 40
0.0
 40
0.0
 40
0.1768327851273933
 40
0.3401530482957385
 40
0.6388089132281591
 40
0.8754687532642877
 40
1.0
 40
1.0
 40
1.0
 40
1.0
 10
253.8145154663526
 20
378.45876558736
 30
0.0
 10
253.5161240967668
 20
378.6052501939151
 30
0.0
 10
252.9421426720179
 20
378.8870259144763
 30
0.0
 10
252.1650112395243
 20
379.8204653617285
 30
0.0
 10
251.6637024564904
 20
381.0350951743779
 30
0.0
 10
251.4080992093965
 20
382.2459460204869
 30
0.0
 10
251.4028246598092
 20
382.9192839524451
 30
0.0
 10
251.4010061037592
 20
383.151437001654
 30
0.0
  0
SPLINE
  5
F4
330
1F
100
AcDbEntity
  8
0
  6
Continuous
 62
     7
370
    15
100
AcDbSpline
210
0.0
220
0.0
230
1.0
 70
     8
 71
     3
 72
    18
 73
    14
 74
     0
 42
0.000000001
 43
0.00000001
 12
1.0
 22
0.0
 32
0.0
 13
1.0
 23
0.0
 33
0.0
 40
0.0
 40
0.0
 40
0.0
 40
0.0
 40
0.0875665590694936
 40
0.170169683135335
 40
0.2486968002463196
 40
0.2897075183481368
 40
0.3352762303859601
 40
0.3883965215896983
 40
0.4517058448413039
 40
0.5261754796032199
 40
0.6093290196032005
 40
0.7967846618664015
 40
1.0
 40
1.0
 40
1.0
 40
1.0
 10
361.7757250567838
 20
360.9541068690008
 30
0.0
 10
361.7931282702986
 20
361.3492651793565
 30
0.0
 10
361.8269482509035
 20
362.11718349402
 30
0.0
 10
361.8702762035375
 20
363.3134749634488
 30
0.0
 10
361.9004253073346
 20
364.3612389703779
 30
0.0
 10
361.9189960262803
 20
365.1639122687167
 30
0.0
 10
361.9297283549873
 20
365.7675092751292
 30
0.0
 10
361.9382564705573
 20
366.3603653850693
 30
0.0
 10
361.9449757528735
 20
366.9397966707136
 30
0.0
 10
361.9507879546815
 20
367.5036717454865
 30
0.0
 10
361.9583782918081
 20
368.3002490436897
 30
0.0
 10
361.9673221637471
 20
369.247880164446
 30
0.0
 10
361.9676484748264
 20
369.9742374974268
 30
0.0
 10
361.9678182120725
 20
370.3520668178375
 30
0.0
  0
LWPOLYLINE
  5
F5
330
1F
100
AcDbEntity
  8
0
  6
Continuous
 62
     7
370
    15
100
AcDbPolyline
 90
        4
 70
   128
 43
0.0
 10
339.3388913495
 20
377.5592382075
 10
329.7152440582
 20
377.6316249318
 10
305.0653642606
 20
377.8175652488
 10
255.3863489476
 20
378.1937298388
  0
SPLINE
  5
F6
330
1F
100
AcDbEntity
  8
0
  6
Continuous
 62
     7
370
    15
100
AcDbSpline
210
0.0
220
0.0
230
1.0
 70
     8
 71
     3
 72
    11
 73
     7
 74
     0
 42
0.000000001
 43
0.00000001
 12
1.0
 22
0.0
 32
0.0
 13
1.0
 23
0.0
 33
0.0
 40
0.0
 40
0.0
 40
0.0
 40
0.0
 40
0.3178367722614204
 40
0.6004829915546782
 40
0.8271856418749651
 40
1.0
 40
1.0
 40
1.0
 40
1.0
 10
361.3085628586517
 20
376.7407600622738
 30
0.0
 10
361.3044448742679
 20
376.7444422004979
 30
0.0
 10
361.2966648443982
 20
376.7513987944764
 30
0.0
 10
361.1780169938781
 20
376.8248217475754
 30
0.0
 10
360.9993187588557
 20
376.9321132365966
 30
0.0
 10
360.7401253701272
 20
376.9847342759574
 30
0.0
 10
360.6280091443934
 20
377.0074959380362
 30
0.0
  0
SPLINE
  5
F7
330
1F
100
AcDbEntity
  8
0
  6
Continuous
 62
     7
370
    15
100
AcDbSpline
210
0.0
220
0.0
230
1.0
 70
     8
 71
     3
 72
    22
 73
    18
 74
     0
 42
0.000000001
 43
0.00000001
 12
1.0
 22
0.0
 32
0.0
 13
1.0
 23
0.0
 33
0.0
 40
0.0
 40
0.0
 40
0.0
 40
0.0
 40
0.0800054612710276
 40
0.1575717021471429
 40
0.2186663482486165
 40
0.2659141030430812
 40
0.2860484191416023
 40
0.3296729011288834
 40
0.3687658703076182
 40
0.4027559566196665
 40
0.4294928254864834
 40
0.4676855624121614
 40
0.5203124519333577
 40
0.5873754178317698
 40
0.6992510643656853
 40
0.8367939567813052
 40
1.0
 40
1.0
 40
1.0
 40
1.0
 10
360.6285532402418
 20
377.006230187994
 30
0.0
 10
360.4122960155203
 20
377.029641253586
 30
0.0
 10
359.9863748538943
 20
377.0757496241371
 30
0.0
 10
359.2035477071259
 20
377.1458833602151
 30
0.0
 10
358.3501186225955
 20
377.2121730490372
 30
0.0
 10
357.5466049546119
 20
377.2640287383207
 30
0.0
 10
356.693685644674
 20
377.3101766807855
 30
0.0
 10
355.8257564122425
 20
377.3489263993349
 30
0.0
 10
354.8696960991721
 20
377.3817942078073
 30
0.0
 10
354.0454804628442
 20
377.4045713766099
 30
0.0
 10
353.2301403464003
 20
377.4233905133298
 30
0.0
 10
352.2606770011724
 20
377.4419934852951
 30
0.0
 10
350.9587480570844
 20
377.4618860431925
 30
0.0
 10
349.0490552426209
 20
377.4851865326062
 30
0.0
 10
346.4390211367416
 20
377.5093506758997
 30
0.0
 10
343.0360208411867
 20
377.5334407723554
 30
0.0
 10
340.5556839966646
 20
377.5507804552719
 30
0.0
 10
339.2096909962565
 20
377.5601901013393
 30
0.0
  0
LINE
  5
F8
330
1F
100
AcDbEntity
  8
0
  6
Continuous
 62
     7
370
    15
100
AcDbLine
 10
360.1172516889
 20
356.5378630256
 30
0.0
 11
359.6732078726
 21
359.6973989511
 31
0.0
  0
LINE
  5
F9
330
1F
100
AcDbEntity
  8
0
  6
Continuous
 62
     7
370
    15
100
AcDbLine
 10
335.4611024704
 20
359.5283638217
 30
0.0
 11
336.3508180391
 21
353.1977086026
 31
0.0
  0
LINE
  5
FA
330
1F
100
AcDbEntity
  8
0
  6
Continuous
 62
     7
370
    15
100
AcDbLine
 10
336.3508180391
 20
353.1977086026
 30
0.0
 11
337.4214377351
 21
352.7651501675
 31
0.0
  0
LINE
  5
FB
330
1F
100
AcDbEntity
  8
0
  6
Continuous
 62
     7
370
    15
100
AcDbLine
 10
359.2073352474
 20
355.8269583886
 30
0.0
 11
360.1172516889
 21
356.5378630256
 31
0.0
  0
LINE
  5
FC
330
1F
100
AcDbEntity
  8
0
  6
Continuous
 62
     7
370
    15
100
AcDbLine
 10
251.3850052925
 20
294.3343213296
 30
0.0
 11
251.3850052925
 21
314.4343213296
 31
0.0
  0
LINE
  5
FD
330
1F
100
AcDbEntity
  8
0
  6
Continuous
 62
     7
370
    15
100
AcDbLine
 10
206.286597512
 20
393.6343213296
 30
0.0
 11
206.3953175126
 21
393.6343213296
 31
0.0
  0
LINE
  5
FE
330
1F
100
AcDbEntity
  8
0
  6
Continuous
 62
     7
370
    15
100
AcDbLine
 10
206.3953175126
 20
401.6343213296
 30
0.0
 11
206.286597512
 21
401.6343213296
 31
0.0
  0
ARC
  5
FF
330
1F
100
AcDbEntity
  8
0
  6
Continuous
 62
     7
370
    15
100
AcDbCircle
 10
251.1850052925
 20
294.3343213296
 30
0.0
 40
0.1999999999999886
100
AcDbArc
 50
270.0
 51
0.0
  0
ARC
  5
100
330
1F
100
AcDbEntity
  8
0
  6
Continuous
 62
     7
370
    15
100
AcDbCircle
 10
251.1850052925
 20
314.4343213296
 30
0.0
 40
0.1999999999999886
100
AcDbArc
 50
0.0
 51
90.0
  0
SPLINE
  5
101
330
1F
100
AcDbEntity
  8
0
  6
Continuous
 62
     7
370
    15
100
AcDbSpline
210
0.0
220
0.0
230
1.0
 70
     8
 71
     3
 72
    11
 73
     7
 74
     0
 42
0.000000001
 43
0.00000001
 12
1.0
 22
0.0
 32
0.0
 13
1.0
 23
0.0
 33
0.0
 40
0.0
 40
0.0
 40
0.0
 40
0.0
 40
0.2499962351288595
 40
0.4999950735184804
 40
0.7499965189975103
 40
1.0
 40
1.0
 40
1.0
 40
1.0
 10
360.3942793103454
 20
359.702433061191
 30
0.0
 10
360.5717414282417
 20
359.7233670496943
 30
0.0
 10
360.9266675119827
 20
359.7652352446908
 30
0.0
 10
361.3777056696919
 20
360.0726532905024
 30
0.0
 10
361.7013110088632
 20
360.5122024604526
 30
0.0
 10
361.7560384203667
 20
360.8653340216112
 30
0.0
 10
361.7834022375164
 20
361.041900520991
 30
0.0
  0
SPLINE
  5
102
330
1F
100
AcDbEntity
  8
0
  6
Continuous
 62
     7
370
    15
100
AcDbSpline
210
0.0
220
0.0
230
1.0
 70
     8
 71
     3
 72
    10
 73
     6
 74
     0
 42
0.000000001
 43
0.00000001
 12
1.0
 22
0.0
 32
0.0
 13
1.0
 23
0.0
 33
0.0
 40
0.0
 40
0.0
 40
0.0
 40
0.0
 40
0.1989125357376759
 40
0.7926998404637529
 40
1.0
 40
1.0
 40
1.0
 40
1.0
 10
206.3953444479033
 20
393.6839743660195
 30
0.0
 10
206.3929032454248
 20
393.6701581294585
 30
0.0
 10
206.383174643816
 20
393.6150981078406
 30
0.0
 10
206.4296828261132
 20
393.8737788581995
 30
0.0
 10
206.4748972261393
 20
394.166050182624
 30
0.0
 10
206.4865975120093
 20
394.2416822389024
 30
0.0
  0
SPLINE
  5
103
330
1F
100
AcDbEntity
  8
0
  6
Continuous
 62
     7
370
    15
100
AcDbSpline
210
0.0
220
0.0
230
1.0
 70
     8
 71
     3
 72
    22
 73
    18
 74
     0
 42
0.000000001
 43
0.00000001
 12
1.0
 22
0.0
 32
0.0
 13
1.0
 23
0.0
 33
0.0
 40
0.0
 40
0.0
 40
0.0
 40
0.0
 40
0.125
 40
0.125
 40
0.25
 40
0.25
 40
0.375
 40
0.375
 40
0.5
 40
0.5
 40
0.625
 40
0.625
 40
0.75
 40
0.75
 40
0.875
 40
0.875
 40
1.0
 40
1.0
 40
1.0
 40
1.0
 10
206.4865975120093
 20
394.2416822389024
 30
0.0
 10
206.5116746039712
 20
394.4368209524782
 30
0.0
 10
206.5388459823557
 20
394.6644853334811
 30
0.0
 10
206.5914373450499
 20
395.1726907989343
 30
0.0
 10
206.6163408723463
 20
395.4480560638086
 30
0.0
 10
206.6591867368964
 20
396.0395167753678
 30
0.0
 10
206.6765981889612
 20
396.3494973433811
 30
0.0
 10
206.7002328924254
 20
396.9847522649509
 30
0.0
 10
206.7065066074343
 20
397.3154572379388
 30
0.0
 10
206.7063321672365
 20
397.9670845612858
 30
0.0
 10
206.7001069424903
 20
398.2906245405138
 30
0.0
 10
206.675955308967
 20
398.9329669130709
 30
0.0
 10
206.6584681349326
 20
399.2402138103214
 30
0.0
 10
206.6159364380667
 20
399.8249701713231
 30
0.0
 10
206.5905052348253
 20
400.1055184684797
 30
0.0
 10
206.5384793163247
 20
400.607127009357
 30
0.0
 10
206.5116695761824
 20
400.8318608308047
 30
0.0
 10
206.4865975120093
 20
401.0269604203773
 30
0.0
  0
SPLINE
  5
104
330
1F
100
AcDbEntity
  8
0
  6
Continuous
 62
     7
370
    15
100
AcDbSpline
210
0.0
220
0.0
230
1.0
 70
     8
 71
     3
 72
     9
 73
     5
 74
     0
 42
0.000000001
 43
0.00000001
 12
1.0
 22
0.0
 32
0.0
 13
1.0
 23
0.0
 33
0.0
 40
0.0
 40
0.0
 40
0.0
 40
0.0
 40
0.5995984502690707
 40
1.0
 40
1.0
 40
1.0
 40
1.0
 10
206.4865975120093
 20
401.0269604203773
 30
0.0
 10
206.4521982558799
 20
401.2392545068082
 30
0.0
 10
206.394827767157
 20
401.5933149389786
 30
0.0
 10
206.3951967190097
 20
401.5871405344158
 30
0.0
 10
206.3953444479033
 20
401.5846682932602
 30
0.0
  0
LINE
  5
105
330
1F
100
AcDbEntity
  8
0
  6
Continuous
 62
     7
370
    15
100
AcDbLine
 10
251.386597512
 20
402.8343213296
 30
0.0
 11
206.386597512
 21
402.8343213296
 31
0.0
  0
LINE
  5
106
330
1F
100
AcDbEntity
  8
0
  6
Continuous
 62
     7
370
    15
100
AcDbLine
 10
251.386597512
 20
279.3343213296
 30
0.0
 11
206.386597512
 21
279.3343213296
 31
0.0
  0
LINE
  5
107
330
1F
100
AcDbEntity
  8
0
  6
Continuous
 62
     7
370
    15
100
AcDbLine
 10
251.185700633
 20
314.6343213296
 30
0.0
 11
251.386597512
 21
314.6343213296
 31
0.0
  0
SPLINE
  5
108
330
1F
100
AcDbEntity
  8
0
  6
Continuous
 62
     7
370
    15
100
AcDbSpline
210
0.0
220
0.0
230
1.0
 70
     8
 71
     3
 72
    22
 73
    18
 74
     0
 42
0.000000001
 43
0.00000001
 12
1.0
 22
0.0
 32
0.0
 13
1.0
 23
0.0
 33
0.0
 40
0.0
 40
0.0
 40
0.0
 40
0.0
 40
0.1250000000000002
 40
0.1250000000000002
 40
0.2500000000000002
 40
0.2500000000000002
 40
0.3750000000000002
 40
0.3750000000000002
 40
0.5000000000000001
 40
0.5000000000000001
 40
0.6250000000000001
 40
0.6250000000000001
 40
0.7500000000000001
 40
0.7500000000000001
 40
0.875
 40
0.875
 40
1.0
 40
1.0
 40
1.0
 40
1.0
 10
251.1857006329871
 20
314.6343213296399
 30
0.0
 10
251.1493148258304
 20
314.6343213296399
 30
0.0
 10
251.1079506945818
 20
314.6073447618072
 30
0.0
 10
251.0182507191345
 20
314.5030198117583
 30
0.0
 10
250.969219375469
 20
314.4249004332144
 30
0.0
 10
250.8664828508592
 20
314.2197280080559
 30
0.0
 10
250.8135933840352
 20
314.0945971247749
 30
0.0
 10
250.7070314638375
 20
313.8003112899374
 30
0.0
 10
250.6528330190374
 20
313.6290082380181
 30
0.0
 10
250.5503519766289
 20
313.2532771045771
 30
0.0
 10
250.5017544617231
 20
313.0484726756464
 30
0.0
 10
250.4128432978748
 20
312.6039412889659
 30
0.0
 10
250.3726793622991
 20
312.3636341456729
 30
0.0
 10
250.3072247192109
 20
311.8685405229301
 30
0.0
 10
250.2813558480418
 20
311.6112359760169
 30
0.0
 10
250.2459624405642
 20
311.0758597672777
 30
0.0
 10
250.2370073441413
 20
310.8046578358523
 30
0.0
 10
250.2370073441413
 20
310.5343213296398
 30
0.0
  0
LINE
  5
109
330
1F
100
AcDbEntity
  8
0
  6
Continuous
 62
     7
370
    15
100
AcDbLine
 10
250.2370073441
 20
310.5343213296
 30
0.0
 11
250.2370073441
 21
298.1343213296
 31
0.0
  0
SPLINE
  5
10A
330
1F
100
AcDbEntity
  8
0
  6
Continuous
 62
     7
370
    15
100
AcDbSpline
210
0.0
220
0.0
230
1.0
 70
     8
 71
     3
 72
    22
 73
    18
 74
     0
 42
0.000000001
 43
0.00000001
 12
1.0
 22
0.0
 32
0.0
 13
1.0
 23
0.0
 33
0.0
 40
0.0
 40
0.0
 40
0.0
 40
0.0
 40
0.125
 40
0.125
 40
0.2499999999999999
 40
0.2499999999999999
 40
0.3749999999999999
 40
0.3749999999999999
 40
0.4999999999999999
 40
0.4999999999999999
 40
0.6249999999999999
 40
0.6249999999999999
 40
0.7499999999999998
 40
0.7499999999999998
 40
0.8749999999999998
 40
0.8749999999999998
 40
1.0
 40
1.0
 40
1.0
 40
1.0
 10
250.2370073441413
 20
298.1343213296399
 30
0.0
 10
250.2370073441413
 20
297.8641457703994
 30
0.0
 10
250.2460992268745
 20
297.5903956091208
 30
0.0
 10
250.281345358839
 20
297.0578846835882
 30
0.0
 10
250.3071516839615
 20
296.800525603555
 30
0.0
 10
250.3729558709373
 20
296.3030463896454
 30
0.0
 10
250.4131724637418
 20
296.0629545340542
 30
0.0
 10
250.5017772928175
 20
295.6201573343121
 30
0.0
 10
250.5505063898243
 20
295.4145536830126
 30
0.0
 10
250.6540780086449
 20
295.0353189397979
 30
0.0
 10
250.7072686720668
 20
294.8676355576027
 30
0.0
 10
250.8136641839743
 20
294.5738908561422
 30
0.0
 10
250.8674265470781
 20
294.4468463358813
 30
0.0
 10
250.9697238539958
 20
294.2429210480374
 30
0.0
 10
251.01810354673
 20
294.1658205358891
 30
0.0
 10
251.1079283731488
 20
294.0612973877645
 30
0.0
 10
251.1496040471553
 20
294.0343213296398
 30
0.0
 10
251.1857006329871
 20
294.0343213296398
 30
0.0
  0
LINE
  5
10B
330
1F
100
AcDbEntity
  8
0
  6
Continuous
 62
     7
370
    15
100
AcDbLine
 10
251.185700633
 20
294.0343213296
 30
0.0
 11
251.386597512
 21
294.0343213296
 31
0.0
  0
SPLINE
  5
10C
330
1F
100
AcDbEntity
  8
0
  6
Continuous
 62
     7
370
    15
100
AcDbSpline
210
0.0
220
0.0
230
1.0
 70
     8
 71
     3
 72
    38
 73
    34
 74
     0
 42
0.000000001
 43
0.00000001
 12
1.0
 22
0.0
 32
0.0
 13
1.0
 23
0.0
 33
0.0
 40
0.0
 40
0.0
 40
0.0
 40
0.0
 40
0.0202441099826072
 40
0.0404133547856224
 40
0.0608821555381693
 40
0.0730801034538686
 40
0.0974456172924858
 40
0.1285082873306243
 40
0.1471225968000921
 40
0.19657512263542
 40
0.2539819706110324
 40
0.2731259341744794
 40
0.2986649192104989
 40
0.3637664009634753
 40
0.3767671644558067
 40
0.4027076216329323
 40
0.5001870833793965
 40
0.5010593726890996
 40
0.5019313373843262
 40
0.5071563163151918
 40
0.5904559320911497
 40
0.6158298401399059
 40
0.6252783010012348
 40
0.6409501783939359
 40
0.7149504483409398
 40
0.7457481662379042
 40
0.7641064277599041
 40
0.8126909354515
 40
0.8690817229884413
 40
0.887794135997674
 40
0.9126965461799651
 40
0.9563753821422146
 40
1.0
 40
1.0
 40
1.0
 40
1.0
 10
243.7759082647701
 20
382.3451899788556
 30
0.0
 10
243.871888449959
 20
382.3533289239168
 30
0.0
 10
244.0634938739445
 20
382.3695767152308
 30
0.0
 10
244.3464873029116
 20
382.3942343137278
 30
0.0
 10
244.5883874654807
 20
382.4156286997358
 30
0.0
 10
244.8459033190939
 20
382.4387485236129
 30
0.0
 10
245.1465677043337
 20
382.466150547739
 30
0.0
 10
245.4677943601501
 20
382.4961498800933
 30
0.0
 10
245.8880821997819
 20
382.5361099979703
 30
0.0
 10
246.4029095033685
 20
382.5863267731943
 30
0.0
 10
246.8918508548291
 20
382.6357809366774
 30
0.0
 10
247.2710183273375
 20
382.6749099091797
 30
0.0
 10
247.6679521170065
 20
382.7164368648998
 30
0.0
 10
248.0218339376179
 20
382.7544881945735
 30
0.0
 10
248.3583098526813
 20
382.7913914098752
 30
0.0
 10
248.7871783468767
 20
382.8388997471386
 30
0.0
 10
249.142137139669
 20
382.8794591647716
 30
0.0
 10
249.4013527798965
 20
382.909548051167
 30
0.0
 10
249.419529775688
 20
382.9116586230452
 30
0.0
 10
249.6513530122641
 20
382.9386048216549
 30
0.0
 10
249.9221015263006
 20
382.9706071026213
 30
0.0
 10
250.1703025915481
 20
383.0004121356356
 30
0.0
 10
250.2719278961106
 20
383.01267241826
 30
0.0
 10
250.4650503031475
 20
383.0360478114466
 30
0.0
 10
250.6720793500925
 20
383.0614262813477
 30
0.0
 10
250.8497733694002
 20
383.0834440196352
 30
0.0
 10
250.9781158632274
 20
383.0994125554379
 30
0.0
 10
251.1182114833879
 20
383.1169490835087
 30
0.0
 10
251.2240614972145
 20
383.1303167437843
 30
0.0
 10
251.2896162617286
 20
383.1386148216957
 30
0.0
 10
251.3363639530143
 20
383.1445368971877
 30
0.0
 10
251.3777379992479
 20
383.1497808846623
 30
0.0
 10
251.3837041503214
 20
383.1505333689911
 30
0.0
 10
251.3866853732774
 20
383.1509093774977
 30
0.0
  0
SPLINE
  5
10D
330
1F
100
AcDbEntity
  8
0
  6
Continuous
 62
     7
370
    15
100
AcDbSpline
210
0.0
220
0.0
230
1.0
 70
     8
 71
     3
 72
    35
 73
    31
 74
     0
 42
0.000000001
 43
0.00000001
 12
1.0
 22
0.0
 32
0.0
 13
1.0
 23
0.0
 33
0.0
 40
0.0
 40
0.0
 40
0.0
 40
0.0
 40
0.0334738834135567
 40
0.0665822652413456
 40
0.0995060516759312
 40
0.1324358997640919
 40
0.1655811834779254
 40
0.1991805413052133
 40
0.2335036511564906
 40
0.2558619322100981
 40
0.2865313031290344
 40
0.4014583855833661
 40
0.4145342942382448
 40
0.4277965612601756
 40
0.5256617585504981
 40
0.5661802079667136
 40
0.5706098703972313
 40
0.5967186570130832
 40
0.6521208309243574
 40
0.6692717011560128
 40
0.6726806497457423
 40
0.682762071118711
 40
0.6958751372667741
 40
0.746384843313045
 40
0.7560992139849291
 40
0.7592731673648073
 40
0.827886321319362
 40
0.8894569593496154
 40
0.9463134274264942
 40
1.0
 40
1.0
 40
1.0
 40
1.0
 10
239.4297437609116
 20
376.5932884184581
 30
0.0
 10
239.4375367306046
 20
376.6892141373184
 30
0.0
 10
239.4530375784957
 20
376.8800181613905
 30
0.0
 10
239.4859465451812
 20
377.1639751666027
 30
0.0
 10
239.5261346333392
 20
377.4451118682964
 30
0.0
 10
239.5746628370207
 20
377.7246725106122
 30
0.0
 10
239.6319299578135
 20
378.0040730376961
 30
0.0
 10
239.698815560822
 20
378.2848236941106
 30
0.0
 10
239.7666676023485
 20
378.5328685508438
 30
0.0
 10
239.8389438562328
 20
378.7702813878452
 30
0.0
 10
239.9901254734844
 20
379.2214153571158
 30
0.0
 10
240.1667787355819
 20
379.633098025226
 30
0.0
 10
240.3514970525014
 20
379.9784396283824
 30
0.0
 10
240.5188027334474
 20
380.278234377309
 30
0.0
 10
240.7494149515655
 20
380.6243280625131
 30
0.0
 10
240.9945531892632
 20
380.9154474454165
 30
0.0
 10
241.120756929548
 20
381.0542361039774
 30
0.0
 10
241.2768525065021
 20
381.2170625643118
 30
0.0
 10
241.466148810549
 20
381.3878492106219
 30
0.0
 10
241.6172897974346
 20
381.507225441654
 30
0.0
 10
241.6788357676334
 20
381.5539987043406
 30
0.0
 10
241.7325959670186
 20
381.5938203696002
 30
0.0
 10
241.8829806058508
 20
381.7003581566718
 30
0.0
 10
242.0364253032502
 20
381.7960347234346
 30
0.0
 10
242.171061304119
 20
381.8701476811112
 30
0.0
 10
242.344677621866
 20
381.9630981698805
 30
0.0
 10
242.6337703523885
 20
382.0940219252751
 30
0.0
 10
243.0436053543661
 20
382.2246917280294
 30
0.0
 10
243.4207264762778
 20
382.3069812784078
 30
0.0
 10
243.6598003040426
 20
382.332683695808
 30
0.0
 10
243.7759094171012
 20
382.3451663875175
 30
0.0
  0
SPLINE
  5
10E
330
1F
100
AcDbEntity
  8
0
  6
Continuous
 62
     7
370
    15
100
AcDbSpline
210
0.0
220
0.0
230
1.0
 70
     8
 71
     3
 72
    10
 73
     6
 74
     0
 42
0.000000001
 43
0.00000001
 12
1.0
 22
0.0
 32
0.0
 13
1.0
 23
0.0
 33
0.0
 40
0.0
 40
0.0
 40
0.0
 40
0.0
 40
0.5
 40
0.5
 40
1.0
 40
1.0
 40
1.0
 40
1.0
 10
239.422146270368
 20
360.1023680023546
 30
0.0
 10
239.2199754758501
 20
362.8189205698284
 30
0.0
 10
239.1157426870713
 20
365.5833624563435
 30
0.0
 10
239.1183259115683
 20
371.1141069000619
 30
0.0
 10
239.2251388607149
 20
373.8778725212577
 30
0.0
 10
239.4296990526646
 20
376.5932714324148
 30
0.0
  0
SPLINE
  5
10F
330
1F
100
AcDbEntity
  8
0
  6
Continuous
 62
     7
370
    15
100
AcDbSpline
210
0.0
220
0.0
230
1.0
 70
     8
 71
     3
 72
     9
 73
     5
 74
     0
 42
0.000000001
 43
0.00000001
 12
1.0
 22
0.0
 32
0.0
 13
1.0
 23
0.0
 33
0.0
 40
0.0
 40
0.0
 40
0.0
 40
0.0
 40
0.4975453002822975
 40
1.0
 40
1.0
 40
1.0
 40
1.0
 10
239.4827082352482
 20
359.511440772306
 30
0.0
 10
239.4706068329658
 20
359.6091305164327
 30
0.0
 10
239.4462846209469
 20
359.8054739329442
 30
0.0
 10
239.4302601249925
 20
360.0029063773079
 30
0.0
 10
239.4222085416896
 20
360.1021072368553
 30
0.0
  0
SPLINE
  5
110
330
1F
100
AcDbEntity
  8
0
  6
Continuous
 62
     7
370
    15
100
AcDbSpline
210
0.0
220
0.0
230
1.0
 70
     8
 71
     3
 72
     9
 73
     5
 74
     0
 42
0.000000001
 43
0.00000001
 12
1.0
 22
0.0
 32
0.0
 13
1.0
 23
0.0
 33
0.0
 40
0.0
 40
0.0
 40
0.0
 40
0.0
 40
0.5059315730489901
 40
1.0
 40
1.0
 40
1.0
 40
1.0
 10
240.0084983929197
 20
355.3657821742016
 30
0.0
 10
239.9219088753501
 20
356.0651820428837
 30
0.0
 10
239.7507602019282
 20
357.4475821656259
 30
0.0
 10
239.5711963217497
 20
358.8289245246438
 30
0.0
 10
239.4824794779327
 20
359.5114021710445
 30
0.0
  0
SPLINE
  5
111
330
1F
100
AcDbEntity
  8
0
  6
Continuous
 62
     7
370
    15
100
AcDbSpline
210
0.0
220
0.0
230
1.0
 70
     8
 71
     3
 72
    49
 73
    45
 74
     0
 42
0.000000001
 43
0.00000001
 12
1.0
 22
0.0
 32
0.0
 13
1.0
 23
0.0
 33
0.0
 40
0.0
 40
0.0
 40
0.0
 40
0.0
 40
0.0234075449274016
 40
0.047201106442562
 40
0.0713958635114994
 40
0.096004711741601
 40
0.1210474879266014
 40
0.1388458643439743
 40
0.1629427313752177
 40
0.2358798714531722
 40
0.2537178858950579
 40
0.2597190185291446
 40
0.3203597316780082
 40
0.3557041818540828
 40
0.4046189194174492
 40
0.4334278102419501
 40
0.4511043156096909
 40
0.4751617432754936
 40
0.50204500987755
 40
0.508755402540199
 40
0.5177770891712327
 40
0.555962564592931
 40
0.5639812553421508
 40
0.5666716790123244
 40
0.6224001119642647
 40
0.6311085704703021
 40
0.6399140836346706
 40
0.6834671835978385
 40
0.696633125966379
 40
0.7100269454657773
 40
0.744512908190802
 40
0.7658986622380848
 40
0.8013934074635827
 40
0.8148804970612956
 40
0.8374042157085889
 40
0.8718747120427918
 40
0.88023976564653
 40
0.9043936182443789
 40
0.9265958816781596
 40
0.942113550653846
 40
0.9636103895896477
 40
0.983186732111176
 40
0.9917593818197553
 40
1.0
 40
1.0
 40
1.0
 40
1.0
 10
246.8311780820181
 20
349.784321221829
 30
0.0
 10
246.7771411172427
 20
349.7850488740505
 30
0.0
 10
246.668176057724
 20
349.7865161782925
 30
0.0
 10
246.5002434346036
 20
349.7983504292042
 30
0.0
 10
246.3273297015058
 20
349.817436684953
 30
0.0
 10
246.149127206333
 20
349.8446691331155
 30
0.0
 10
245.9844204386564
 20
349.8764141457193
 30
0.0
 10
245.8194169826445
 20
349.9136400358091
 30
0.0
 10
245.533927108987
 20
349.9869024351424
 30
0.0
 10
245.2429886012411
 20
350.0816113719847
 30
0.0
 10
244.9950742120589
 20
350.1768800526969
 30
0.0
 10
244.7780372595782
 20
350.2635419097755
 30
0.0
 10
244.5139275913167
 20
350.3799896414215
 30
0.0
 10
244.1362319963403
 20
350.56835820297
 30
0.0
 10
243.8403009270181
 20
350.7307906308365
 30
0.0
 10
243.5904712197928
 20
350.8795965530434
 30
0.0
 10
243.4058549052334
 20
350.994790730917
 30
0.0
 10
243.2264954139982
 20
351.1113561597408
 30
0.0
 10
243.0761905270394
 20
351.2139327736106
 30
0.0
 10
242.9653777301997
 20
351.2920148528303
 30
0.0
 10
242.8253643490463
 20
351.3921520955338
 30
0.0
 10
242.68257275682
 20
351.4988994245117
 30
0.0
 10
242.5569890549643
 20
351.5970604532574
 30
0.0
 10
242.386623759769
 20
351.731599814687
 30
0.0
 10
242.2159732684668
 20
351.8740204256093
 30
0.0
 10
242.0327821918773
 20
352.0374656089572
 30
0.0
 10
241.8807548546013
 20
352.1756026671924
 30
0.0
 10
241.7200139872346
 20
352.3299209314705
 30
0.0
 10
241.5518579402971
 20
352.5024164060178
 30
0.0
 10
241.4071483763613
 20
352.6556991234425
 30
0.0
 10
241.2467260894014
 20
352.8361471564061
 30
0.0
 10
241.0424853909504
 20
353.0846478924859
 30
0.0
 10
240.8917704680413
 20
353.2847107026342
 30
0.0
 10
240.7459872666275
 20
353.4959211696278
 30
0.0
 10
240.6080905056089
 20
353.7099988679996
 30
0.0
 10
240.490052701073
 20
353.9175553075008
 30
0.0
 10
240.3786161232683
 20
354.1371646722062
 30
0.0
 10
240.293779683966
 20
354.3209454902494
 30
0.0
 10
240.2094795973209
 20
354.535571714219
 30
0.0
 10
240.1390510355202
 20
354.745948015509
 30
0.0
 10
240.0821062791347
 20
354.9514008186409
 30
0.0
 10
240.0434461259829
 20
355.1352911503268
 30
0.0
 10
240.020860480133
 20
355.2714337685198
 30
0.0
 10
240.0125644783307
 20
355.3347494958779
 30
0.0
 10
240.0084983929197
 20
355.3657821742016
 30
0.0
  0
SPLINE
  5
112
330
1F
100
AcDbEntity
  8
0
  6
Continuous
 62
     7
370
    15
100
AcDbSpline
210
0.0
220
0.0
230
1.0
 70
     8
 71
     3
 72
    34
 73
    30
 74
     0
 42
0.000000001
 43
0.00000001
 12
1.0
 22
0.0
 32
0.0
 13
1.0
 23
0.0
 33
0.0
 40
0.0
 40
0.0
 40
0.0
 40
0.0
 40
0.0334089084045165
 40
0.066846859473089
 40
0.1003393131794545
 40
0.1339081691667674
 40
0.167572164840689
 40
0.2013472678630149
 40
0.2352470702818854
 40
0.2692831997672955
 40
0.3034657887765189
 40
0.3378041228660362
 40
0.3723075482031524
 40
0.4069861067875005
 40
0.4418509930875358
 40
0.4769150871784756
 40
0.5121933554031116
 40
0.5476961158716507
 40
0.583427187508526
 40
0.6193936925618274
 40
0.6556039282748107
 40
0.6920639673474253
 40
0.7287741931671418
 40
0.7657260198151665
 40
0.8028990621990598
 40
0.8519683102540224
 40
0.9011376822149413
 40
0.9504639888415373
 40
1.0
 40
1.0
 40
1.0
 40
1.0
 10
251.3866757739566
 20
349.7843305379449
 30
0.0
 10
251.3856608939022
 20
349.7843304188126
 30
0.0
 10
251.3836302515492
 20
349.7843301804445
 30
0.0
 10
251.3671835770609
 20
349.7843323812924
 30
0.0
 10
251.3408891083373
 20
349.7843387736428
 30
0.0
 10
251.3037293299384
 20
349.7843476312333
 30
0.0
 10
251.2558922222119
 20
349.7843566273261
 30
0.0
 10
251.1972217528905
 20
349.7843634859257
 30
0.0
 10
251.1276347189014
 20
349.7843665286039
 30
0.0
 10
251.0470081595591
 20
349.7843641220305
 30
0.0
 10
250.9552110160063
 20
349.7843551548582
 30
0.0
 10
250.8520923486483
 20
349.7843335017121
 30
0.0
 10
250.7375108124526
 20
349.7843096520189
 30
0.0
 10
250.6113337164551
 20
349.7842962690834
 30
0.0
 10
250.4734174167486
 20
349.7842957177945
 30
0.0
 10
250.3236028212484
 20
349.7843044105205
 30
0.0
 10
250.1617196683892
 20
349.7843163608463
 30
0.0
 10
249.9876017180858
 20
349.7843300039415
 30
0.0
 10
249.8010924183302
 20
349.7843423094179
 30
0.0
 10
249.6020407300249
 20
349.7843498065433
 30
0.0
 10
249.3902947384067
 20
349.7843499186296
 30
0.0
 10
249.1657200116148
 20
349.7843423875847
 30
0.0
 10
248.9282212242838
 20
349.7843296299564
 30
0.0
 10
248.6777773517733
 20
349.7843179680135
 30
0.0
 10
248.3867834472305
 20
349.7843076716071
 30
0.0
 10
248.051086329276
 20
349.7843201488554
 30
0.0
 10
247.6654665037086
 20
349.7843635562235
 30
0.0
 10
247.2608150623333
 20
349.7843382035417
 30
0.0
 10
246.9745927848824
 20
349.7843268903987
 30
0.0
 10
246.8311780820182
 20
349.7843212218286
 30
0.0
  0
LINE
  5
113
330
1F
100
AcDbEntity
  8
0
  6
Continuous
 62
     7
370
    15
100
AcDbLine
 10
228.886597512
 20
404.8343213296
 30
0.0
 11
251.186597512
 21
404.8343213296
 31
0.0
  0
LINE
  5
114
330
1F
100
AcDbEntity
  8
0
  6
Continuous
 62
     7
370
    15
100
AcDbLine
 10
206.586597512
 20
404.8343213296
 30
0.0
 11
228.886597512
 21
404.8343213296
 31
0.0
  0
SPLINE
  5
115
330
1F
100
AcDbEntity
  8
0
  6
Continuous
 62
     7
370
    15
100
AcDbSpline
210
0.0
220
0.0
230
1.0
 70
     8
 71
     3
 72
    15
 73
    11
 74
     0
 42
0.000000001
 43
0.00000001
 12
1.0
 22
0.0
 32
0.0
 13
1.0
 23
0.0
 33
0.0
 40
0.0
 40
0.0
 40
0.0
 40
0.0
 40
0.0832154929985164
 40
0.1665783322918773
 40
0.2505318485970968
 40
0.3762872916724225
 40
0.5007395814976239
 40
0.6707649381837605
 40
0.8359937618843537
 40
1.0
 40
1.0
 40
1.0
 40
1.0
 10
248.5123279899614
 20
359.9524739729375
 30
0.0
 10
248.4888082512898
 20
359.9676390437409
 30
0.0
 10
248.4417271285003
 20
359.9979960375227
 30
0.0
 10
248.3764270555675
 20
360.0507321949345
 30
0.0
 10
248.3052505584806
 20
360.1181087283022
 30
0.0
 10
248.2323490067465
 20
360.2033380562585
 30
0.0
 10
248.1544699432442
 20
360.3219692243188
 30
0.0
 10
248.088629219905
 20
360.4648149256667
 30
0.0
 10
248.0424952654236
 20
360.6325285901483
 30
0.0
 10
248.036836293968
 20
360.7478731723846
 30
0.0
 10
248.0340173152878
 20
360.8053313024975
 30
0.0
  0
SPLINE
  5
116
330
1F
100
AcDbEntity
  8
0
  6
Continuous
 62
     7
370
    15
100
AcDbSpline
210
0.0
220
0.0
230
1.0
 70
     8
 71
     3
 72
    19
 73
    15
 74
     0
 42
0.000000001
 43
0.00000001
 12
1.0
 22
0.0
 32
0.0
 13
1.0
 23
0.0
 33
0.0
 40
0.0
 40
0.0
 40
0.0
 40
0.0
 40
0.0548699156547024
 40
0.1148355272996287
 40
0.1799430646747024
 40
0.2502334852848296
 40
0.3053228964358088
 40
0.3751541999005159
 40
0.5005514366190744
 40
0.6379691996893103
 40
0.750161176308888
 40
0.8402347527363064
 40
0.9235368810579616
 40
1.0
 40
1.0
 40
1.0
 40
1.0
 10
252.1337212363507
 20
358.9466195066305
 30
0.0
 10
252.0660867035434
 20
358.9467290137204
 30
0.0
 10
251.9245365089438
 20
358.946958197678
 30
0.0
 10
251.7027841885119
 20
358.9559412021607
 30
0.0
 10
251.4622683999462
 20
358.9733161572099
 30
0.0
 10
251.228058818151
 20
358.9990553921749
 30
0.0
 10
250.9883646865956
 20
359.0335917216032
 30
0.0
 10
250.6817166851261
 20
359.088535119154
 30
0.0
 10
250.2756886824423
 20
359.1836798916599
 30
0.0
 10
249.8218109656447
 20
359.3257683108471
 30
0.0
 10
249.4146576141699
 20
359.4845104545925
 30
0.0
 10
249.0766558409791
 20
359.6400249454054
 30
0.0
 10
248.784074351577
 20
359.7912573153633
 30
0.0
 10
248.6002876821187
 20
359.9002908729079
 30
0.0
 10
248.5123279899614
 20
359.9524739729375
 30
0.0
  0
SPLINE
  5
117
330
1F
100
AcDbEntity
  8
0
  6
Continuous
 62
     7
370
    15
100
AcDbSpline
210
0.0
220
0.0
230
1.0
 70
     8
 71
     3
 72
    18
 73
    14
 74
     0
 42
0.000000001
 43
0.00000001
 12
1.0
 22
0.0
 32
0.0
 13
1.0
 23
0.0
 33
0.0
 40
0.0
 40
0.0
 40
0.0
 40
0.0
 40
0.0404737644095329
 40
0.0865644045772922
 40
0.1387414044418928
 40
0.1962005730170535
 40
0.3319343511525966
 40
0.4676290395795221
 40
0.5989623898582501
 40
0.6993114873836896
 40
0.796479379097907
 40
0.9007908936023938
 40
1.0
 40
1.0
 40
1.0
 40
1.0
 10
248.0340210196491
 20
360.8053273352235
 30
0.0
 10
247.9130047097958
 20
360.7965613338046
 30
0.0
 10
247.6541776656743
 20
360.7778128011581
 30
0.0
 10
247.2396447007955
 20
360.7473166118749
 30
0.0
 10
246.7748484688328
 20
360.7127768895467
 30
0.0
 10
246.0440707425842
 20
360.6576713956262
 30
0.0
 10
245.0689062035505
 20
360.5824623687686
 30
0.0
 10
243.8880313989733
 20
360.4883057787869
 30
0.0
 10
242.8270719173226
 20
360.4009567915292
 30
0.0
 10
241.8933509348963
 20
360.3219799932263
 30
0.0
 10
241.0513572647394
 20
360.2489054406814
 30
0.0
 10
240.2272710685419
 20
360.1758218482483
 30
0.0
 10
239.6860414386279
 20
360.1262413655322
 30
0.0
 10
239.4222111314007
 20
360.102072633326
 30
0.0
  0
SPLINE
  5
118
330
1F
100
AcDbEntity
  8
0
  6
Continuous
 62
     7
370
    15
100
AcDbSpline
210
0.0
220
0.0
230
1.0
 70
     8
 71
     3
 72
    10
 73
     6
 74
     0
 42
0.000000001
 43
0.00000001
 12
1.0
 22
0.0
 32
0.0
 13
1.0
 23
0.0
 33
0.0
 40
0.0
 40
0.0
 40
0.0
 40
0.0
 40
0.0879191322290052
 40
0.5427666271815074
 40
1.0
 40
1.0
 40
1.0
 40
1.0
 10
253.578006230874
 20
378.0405931685469
 30
0.0
 10
253.6959130746456
 20
378.0499386346471
 30
0.0
 10
254.4238081106068
 20
378.1076326426065
 30
0.0
 10
255.1383258931552
 20
378.1723697707566
 30
0.0
 10
255.3036959982278
 20
378.1865568368338
 30
0.0
 10
255.3865973434676
 20
378.1936689255772
 30
0.0
  0
LINE
  5
119
330
1F
100
AcDbEntity
  8
0
  6
Continuous
 62
     7
370
    15
100
AcDbLine
 10
253.7153043945
 20
378.0515215725
 30
0.0
 11
253.6424380404
 21
378.0457194612
 31
0.0
  0
SPLINE
  5
11A
330
1F
100
AcDbEntity
  8
0
  6
Continuous
 62
     7
370
    15
100
AcDbSpline
210
0.0
220
0.0
230
1.0
 70
     8
 71
     3
 72
    21
 73
    17
 74
     0
 42
0.000000001
 43
0.00000001
 12
1.0
 22
0.0
 32
0.0
 13
1.0
 23
0.0
 33
0.0
 40
0.0
 40
0.0
 40
0.0
 40
0.0
 40
0.0309084594669681
 40
0.0622001077138364
 40
0.0939125571282403
 40
0.1260791534221006
 40
0.1870924770904235
 40
0.2515496353217422
 40
0.3763605012194864
 40
0.5015773560069889
 40
0.6260963434843019
 40
0.7512462969875666
 40
0.8248939542869312
 40
0.8753059907103117
 40
0.9414385177895344
 40
1.0
 40
1.0
 40
1.0
 40
1.0
 10
248.034017268086
 20
375.8826266090513
 30
0.0
 10
248.0359100900232
 20
375.9174390754865
 30
0.0
 10
248.0397192002282
 20
375.987495597209
 30
0.0
 10
248.0526539647716
 20
376.0921019323931
 30
0.0
 10
248.0708760349888
 20
376.1964978680853
 30
0.0
 10
248.1019751528129
 20
376.3305785691564
 30
0.0
 10
248.1535287783314
 20
376.4934831817465
 30
0.0
 10
248.2573537653288
 20
376.7350311612045
 30
0.0
 10
248.4226109090043
 20
377.0032719852882
 30
0.0
 10
248.6535539308949
 20
377.2637067596755
 30
0.0
 10
248.9057818028941
 20
377.4683186312312
 30
0.0
 10
249.1339348708832
 20
377.5982163748295
 30
0.0
 10
249.312403282254
 20
377.6704897479775
 30
0.0
 10
249.4495546672935
 20
377.7120281008929
 30
0.0
 10
249.5757960457535
 20
377.7396657370002
 30
0.0
 10
249.6652871766428
 20
377.7481043566736
 30
0.0
 10
249.7073159260544
 20
377.7520674827186
 30
0.0
  0
SPLINE
  5
11B
330
1F
100
AcDbEntity
  8
0
  6
Continuous
 62
     7
370
    15
100
AcDbSpline
210
0.0
220
0.0
230
1.0
 70
     8
 71
     3
 72
    10
 73
     6
 74
     0
 42
0.000000001
 43
0.00000001
 12
1.0
 22
0.0
 32
0.0
 13
1.0
 23
0.0
 33
0.0
 40
0.0
 40
0.0
 40
0.0
 40
0.0
 40
0.5
 40
0.5
 40
1.0
 40
1.0
 40
1.0
 40
1.0
 10
239.4296990526646
 20
376.5932714324148
 30
0.0
 10
240.7359540522152
 20
376.4713292336422
 30
0.0
 10
242.1450068008122
 20
376.3476147359969
 30
0.0
 10
245.0547977164164
 20
376.107274936197
 30
0.0
 10
246.5543415529603
 20
375.9907482820735
 30
0.0
 10
248.034017276581
 20
375.8825811528279
 30
0.0
  0
SPLINE
  5
11C
330
1F
100
AcDbEntity
  8
0
  6
Continuous
 62
     7
370
    15
100
AcDbSpline
210
0.0
220
0.0
230
1.0
 70
     8
 71
     3
 72
    34
 73
    30
 74
     0
 42
0.000000001
 43
0.00000001
 12
1.0
 22
0.0
 32
0.0
 13
1.0
 23
0.0
 33
0.0
 40
0.0
 40
0.0
 40
0.0
 40
0.0
 40
0.0078125
 40
0.0078125
 40
0.015625
 40
0.015625
 40
0.0234374999999999
 40
0.0234374999999999
 40
0.0312499999999999
 40
0.0312499999999999
 40
0.0390624999999999
 40
0.0390624999999999
 40
0.0468749999999999
 40
0.0468749999999999
 40
0.0546874999999998
 40
0.0546874999999998
 40
0.0624999999999998
 40
0.0624999999999998
 40
0.0781249999999998
 40
0.0781249999999998
 40
0.0937499999999997
 40
0.0937499999999997
 40
0.1249999999999996
 40
0.1249999999999996
 40
0.2499999999999996
 40
0.2499999999999996
 40
0.4999999999999999
 40
0.4999999999999999
 40
1.0
 40
1.0
 40
1.0
 40
1.0
 10
361.2534635539467
 20
375.6313591943148
 30
0.0
 10
361.125204928804
 20
375.6282047602421
 30
0.0
 10
360.9845592079892
 20
375.625795350493
 30
0.0
 10
360.6735647964185
 20
375.6218665743778
 30
0.0
 10
360.5022898490503
 20
375.6203440538251
 30
0.0
 10
360.1282245199236
 20
375.6179962486412
 30
0.0
 10
359.9248075873344
 20
375.6171541084133
 30
0.0
 10
359.4930725785403
 20
375.6161112812389
 30
0.0
 10
359.2657705106485
 20
375.615922235993
 30
0.0
 10
358.7876929339865
 20
375.6162147128073
 30
0.0
 10
358.5366101985546
 20
375.6166969516968
 30
0.0
 10
358.0117309901578
 20
375.6181801804083
 30
0.0
 10
357.7383376933386
 20
375.6191858460567
 30
0.0
 10
357.1827644495194
 20
375.6214594182489
 30
0.0
 10
356.8994144113273
 20
375.6227056240404
 30
0.0
 10
356.320382852941
 20
375.6251943168904
 30
0.0
 10
356.0236521555346
 20
375.6264371455969
 30
0.0
 10
355.1248341733335
 20
375.6310609099715
 30
0.0
 10
354.5236156854589
 20
375.635251361453
 30
0.0
 10
353.3269329537093
 20
375.6432238515553
 30
0.0
 10
352.7288620522001
 20
375.6469043491762
 30
0.0
 10
350.9338143856612
 20
375.6576045446988
 30
0.0
 10
349.7371935593383
 20
375.6642970243511
 30
0.0
 10
343.7546741595182
 20
375.6966598750145
 30
0.0
 10
338.9689620559225
 20
375.7200188700057
 30
0.0
 10
324.6109042733177
 20
375.780557034036
 30
0.0
 10
315.0389127022159
 20
375.8085865527802
 30
0.0
 10
286.3227276499561
 20
375.8691532847939
 30
0.0
 10
267.178383485993
 20
375.8773972102741
 30
0.0
 10
248.0340172708143
 20
375.8826266085372
 30
0.0
  0
SPLINE
  5
11D
330
1F
100
AcDbEntity
  8
0
  6
Continuous
 62
     7
370
    15
100
AcDbSpline
210
0.0
220
0.0
230
1.0
 70
     8
 71
     3
 72
    20
 73
    16
 74
     0
 42
0.000000001
 43
0.00000001
 12
1.0
 22
0.0
 32
0.0
 13
1.0
 23
0.0
 33
0.0
 40
0.0
 40
0.0
 40
0.0
 40
0.0
 40
0.5000000000000009
 40
0.5000000000000009
 40
0.6250000000000011
 40
0.6250000000000011
 40
0.6875000000000012
 40
0.6875000000000012
 40
0.7500000000000013
 40
0.7500000000000013
 40
0.8125000000000014
 40
0.8125000000000014
 40
0.8750000000000016
 40
0.8750000000000016
 40
1.0
 40
1.0
 40
1.0
 40
1.0
 10
361.879482071448
 20
375.6541369276872
 30
0.0
 10
361.879478953479
 20
375.6541800679619
 30
0.0
 10
361.8720962433509
 20
375.6575343613799
 30
0.0
 10
361.8728836611968
 20
375.6580464500746
 30
0.0
 10
361.8735327125248
 20
375.6578314432869
 30
0.0
 10
361.8756497406158
 20
375.6566055240681
 30
0.0
 10
361.8765465110237
 20
375.6560423461286
 30
0.0
 10
361.8787918260758
 20
375.6541906842395
 30
0.0
 10
361.8813721528291
 20
375.6527285000492
 30
0.0
 10
361.88035664354
 20
375.6492155996054
 30
0.0
 10
361.8751540739747
 20
375.6473050553278
 30
0.0
 10
361.8313721241742
 20
375.6444725965043
 30
0.0
 10
361.7939883884544
 20
375.6433273697888
 30
0.0
 10
361.6364354888055
 20
375.6397907176213
 30
0.0
 10
361.4717583880866
 20
375.6367984640109
 30
0.0
 10
361.2535816249266
 20
375.6313542192709
 30
0.0
  0
LINE
  5
11E
330
1F
100
AcDbEntity
  8
0
  6
Continuous
 62
     7
370
    15
100
AcDbLine
 10
361.9408311971
 20
370.3099282549
 30
0.0
 11
361.8794820297
 21
375.6541383248
 31
0.0
  0
SPLINE
  5
11F
330
1F
100
AcDbEntity
  8
0
  6
Continuous
 62
     7
370
    15
100
AcDbSpline
210
0.0
220
0.0
230
1.0
 70
     8
 71
     3
 72
    36
 73
    32
 74
     0
 42
0.000000001
 43
0.00000001
 12
1.0
 22
0.0
 32
0.0
 13
1.0
 23
0.0
 33
0.0
 40
0.0
 40
0.0
 40
0.0
 40
0.0
 40
0.499999999999999
 40
0.499999999999999
 40
0.7499999999999984
 40
0.7499999999999984
 40
0.8124999999999984
 40
0.8124999999999984
 40
0.8749999999999984
 40
0.8749999999999984
 40
0.8906249999999988
 40
0.8906249999999988
 40
0.8984374999999991
 40
0.8984374999999991
 40
0.9062499999999994
 40
0.9062499999999994
 40
0.9140624999999998
 40
0.9140624999999998
 40
0.921875
 40
0.921875
 40
0.9375
 40
0.9375
 40
0.953125
 40
0.953125
 40
0.96875
 40
0.96875
 40
0.9843749999999999
 40
0.9843749999999999
 40
0.9921875
 40
0.9921875
 40
1.0
 40
1.0
 40
1.0
 40
1.0
 10
248.0340172379347
 20
360.8053313025015
 30
0.0
 10
267.6613449738545
 20
360.8043309978945
 30
0.0
 10
287.2908865420343
 20
360.8066496049061
 30
0.0
 10
316.7286705944619
 20
360.861722003057
 30
0.0
 10
326.5406096122998
 20
360.8885714864476
 30
0.0
 10
338.8029701056083
 20
360.9384944321741
 30
0.0
 10
341.2553917800466
 20
360.9493598652451
 30
0.0
 10
346.1596373502296
 20
360.9724431813789
 30
0.0
 10
348.6114370661239
 20
360.9845462161982
 30
0.0
 10
351.6773059661411
 20
361.000977857381
 30
0.0
 10
352.2903516406468
 20
361.0043580673063
 30
0.0
 10
353.2104117632717
 20
361.0095341238115
 30
0.0
 10
353.5170447918392
 20
361.0112873428217
 30
0.0
 10
354.1316435604731
 20
361.014743398737
 30
0.0
 10
354.4397167244714
 20
361.0164165537415
 30
0.0
 10
355.0541235925099
 20
361.0193669504794
 30
0.0
 10
355.3606079556496
 20
361.020638277288
 30
0.0
 10
355.9693260914468
 20
361.022731336746
 30
0.0
 10
356.2728775246398
 20
361.0235608825393
 30
0.0
 10
357.1673563284791
 20
361.0263316594929
 30
0.0
 10
357.7407892615028
 20
361.0283018848548
 30
0.0
 10
358.8050317031497
 20
361.0319049304152
 30
0.0
 10
359.2954307732886
 20
361.0335802386157
 30
0.0
 10
360.1592440583281
 20
361.0366684232764
 30
0.0
 10
360.5338862754097
 20
361.0380716615522
 30
0.0
 10
361.1474448306211
 20
361.0401314502255
 30
0.0
 10
361.385841383851
 20
361.0408232136768
 30
0.0
 10
361.625938796288
 20
361.0415494516975
 30
0.0
 10
361.6868714918126
 20
361.0417101728212
 30
0.0
 10
361.7633541537996
 20
361.0418445608552
 30
0.0
 10
361.7784484900668
 20
361.041859981104
 30
0.0
 10
361.7821912463436
 20
361.0418846080336
 30
0.0
  0
ARC
  5
120
330
1F
100
AcDbEntity
  8
0
  6
Continuous
 62
     7
370
    15
100
AcDbCircle
 10
360.3835573962
 20
361.1023317883
 30
0.0
 40
1.399939465918738
100
AcDbArc
 50
270.4020646771
 51
357.5252891502001
  0
SPLINE
  5
121
330
1F
100
AcDbEntity
  8
0
  6
Continuous
 62
     7
370
    15
100
AcDbSpline
210
0.0
220
0.0
230
1.0
 70
    24
 71
     3
 72
    42
 73
    38
 74
     0
 42
0.000000001
 43
0.00000001
 12
1.0
 22
0.0
 32
0.0
 13
1.0
 23
0.0
 33
0.0
 40
0.0
 40
0.0
 40
0.0
 40
0.0
 40
0.0078124999999986
 40
0.0078124999999986
 40
0.0156249999999973
 40
0.0156249999999973
 40
0.031249999999995
 40
0.031249999999995
 40
0.0468749999999928
 40
0.0468749999999928
 40
0.0624999999999906
 40
0.0624999999999906
 40
0.070312499999989
 40
0.070312499999989
 40
0.0781249999999876
 40
0.0781249999999876
 40
0.085937499999986
 40
0.085937499999986
 40
0.0937499999999845
 40
0.0937499999999845
 40
0.101562499999983
 40
0.101562499999983
 40
0.1054687499999826
 40
0.1054687499999826
 40
0.1093749999999826
 40
0.1093749999999826
 40
0.1249999999999829
 40
0.1249999999999829
 40
0.1562499999999835
 40
0.1562499999999835
 40
0.1874999999999841
 40
0.1874999999999841
 40
0.2499999999999852
 40
0.2499999999999852
 40
0.4999999999999903
 40
0.4999999999999903
 40
1.0
 40
1.0
 40
1.0
 40
1.0
 10
360.3933811842214
 20
359.7024267909859
 30
0.0
 10
360.3900743138444
 20
359.7024037043004
 30
0.0
 10
360.3784237958895
 20
359.7023223670198
 30
0.0
 10
360.3223434963642
 20
359.7019308463102
 30
0.0
 10
360.2774804042888
 20
359.7016176377539
 30
0.0
 10
360.0987529172801
 20
359.7003698642374
 30
0.0
 10
359.9197647488393
 20
359.6991202707915
 30
0.0
 10
359.4564323606415
 20
359.6958855479571
 30
0.0
 10
359.1723687339682
 20
359.6939023775097
 30
0.0
 10
358.5218277465481
 20
359.6893606708638
 30
0.0
 10
358.1557568161044
 20
359.6868049721303
 30
0.0
 10
357.5532334457048
 20
359.6825984971371
 30
0.0
 10
357.3437131466338
 20
359.6811357457454
 30
0.0
 10
356.9096674693937
 20
359.678105486046
 30
0.0
 10
356.6843258156156
 20
359.6765322789671
 30
0.0
 10
356.2307383905666
 20
359.673365589915
 30
0.0
 10
356.0044616127459
 20
359.6717858543326
 30
0.0
 10
355.5531686318869
 20
359.668635183783
 30
0.0
 10
355.3150854747365
 20
359.6669730227846
 30
0.0
 10
354.8022573197359
 20
359.6633927486977
 30
0.0
 10
354.5296696514431
 20
359.6614896968553
 30
0.0
 10
354.0983551859931
 20
359.6584785049211
 30
0.0
 10
353.9510593347736
 20
359.6574501691831
 30
0.0
 10
353.6507730731708
 20
359.6553537415385
 30
0.0
 10
353.498253400947
 20
359.6542889360576
 30
0.0
 10
352.7467891188989
 20
359.6490426404515
 30
0.0
 10
352.1601898366148
 20
359.6449473383716
 30
0.0
 10
350.3898530354354
 20
359.6325878551556
 30
0.0
 10
349.2078954788521
 20
359.6243361007025
 30
0.0
 10
346.8423937989962
 20
359.6078215152914
 30
0.0
 10
345.6588370801987
 20
359.5995585963986
 30
0.0
 10
342.1077389321071
 20
359.5747668517258
 30
0.0
 10
339.7407732898955
 20
359.5582420457633
 30
0.0
 10
327.9056732389029
 20
359.4756161181193
 30
0.0
 10
318.4355196009252
 20
359.4095008993297
 30
0.0
 10
290.0231206117904
 20
359.2111417124235
 30
0.0
 10
271.0775590120787
 20
359.0788745921484
 30
0.0
 10
252.1337107706533
 20
358.946619433565
 30
0.0
  0
SPLINE
  5
122
330
1F
100
AcDbEntity
  8
0
  6
Continuous
 62
     7
370
    15
100
AcDbSpline
210
0.0
220
0.0
230
1.0
 70
     8
 71
     3
 72
    40
 73
    36
 74
     0
 42
0.000000001
 43
0.00000001
 12
1.0
 22
0.0
 32
0.0
 13
1.0
 23
0.0
 33
0.0
 40
0.0
 40
0.0
 40
0.0
 40
0.0
 40
0.4999999999999917
 40
0.4999999999999917
 40
0.7499999999999878
 40
0.7499999999999878
 40
0.8749999999999856
 40
0.8749999999999856
 40
0.9062499999999851
 40
0.9062499999999851
 40
0.9140624999999851
 40
0.9140624999999851
 40
0.9179687499999853
 40
0.9179687499999853
 40
0.9218749999999855
 40
0.9218749999999855
 40
0.9374999999999876
 40
0.9374999999999876
 40
0.9414062499999883
 40
0.9414062499999883
 40
0.9453124999999891
 40
0.9453124999999891
 40
0.9531249999999907
 40
0.9531249999999907
 40
0.9609374999999922
 40
0.9609374999999922
 40
0.9687499999999938
 40
0.9687499999999938
 40
0.9765624999999953
 40
0.9765624999999953
 40
0.9843749999999969
 40
0.9843749999999969
 40
0.9921874999999984
 40
0.9921874999999984
 40
1.0
 40
1.0
 40
1.0
 40
1.0
 10
249.7073382677686
 20
377.7520673162891
 30
0.0
 10
268.5724080545807
 20
377.6115361875612
 30
0.0
 10
287.4376488773358
 20
377.4713730754813
 30
0.0
 10
315.735342550843
 20
377.2642385100598
 30
0.0
 10
325.1678831124286
 20
377.1956955404576
 30
0.0
 10
339.3166128827989
 20
377.0940144907062
 30
0.0
 10
344.0348539044485
 20
377.0602991544789
 30
0.0
 10
349.9271880157904
 20
377.0183775282316
 30
0.0
 10
351.1050736435619
 20
377.0100090321356
 30
0.0
 10
352.5739286736937
 20
376.9995774981071
 30
0.0
 10
352.8682581503022
 20
376.9974861319444
 30
0.0
 10
353.3166675062596
 20
376.9943096808844
 30
0.0
 10
353.4671415639916
 20
376.9932459294143
 30
0.0
 10
353.769503753962
 20
376.9911213066651
 30
0.0
 10
353.9206263262253
 20
376.9900658391939
 30
0.0
 10
354.6530035942051
 20
376.9849433322565
 30
0.0
 10
355.1874458331559
 20
376.9810356713946
 30
0.0
 10
355.7786478479651
 20
376.9773734722688
 30
0.0
 10
355.892343417378
 20
376.9767185274235
 30
0.0
 10
356.1222469423275
 20
376.9754664713656
 30
0.0
 10
356.2371149722061
 20
376.9748764458901
 30
0.0
 10
356.5810731916484
 20
376.9731699842631
 30
0.0
 10
356.8097114483309
 20
376.9720857767129
 30
0.0
 10
357.2565193438488
 20
376.9702135372685
 30
0.0
 10
357.475361375585
 20
376.9694369534811
 30
0.0
 10
357.8934284005691
 20
376.9683430782957
 30
0.0
 10
358.0923743903824
 20
376.9680216660311
 30
0.0
 10
358.4705612213575
 20
376.9679539776068
 30
0.0
 10
358.6509356611691
 20
376.9682107626714
 30
0.0
 10
358.9967055876047
 20
376.9693335298512
 30
0.0
 10
359.1606849910678
 20
376.970188489479
 30
0.0
 10
359.4635561628721
 20
376.972558279516
 30
0.0
 10
359.6028965605437
 20
376.9740890266449
 30
0.0
 10
359.8569400333355
 20
376.9779721431843
 30
0.0
 10
359.9723448762002
 20
376.9803280077026
 30
0.0
 10
360.0774444492977
 20
376.9834397632164
 30
0.0
  0
LINE
  5
123
330
1F
100
AcDbEntity
  8
0
  6
Continuous
 62
     7
370
    15
100
AcDbLine
 10
360.6281341637
 20
377.0074511429
 30
0.0
 11
360.6280080854
 21
377.0073941216
 31
0.0
  0
SPLINE
  5
124
330
1F
100
AcDbEntity
  8
0
  6
Continuous
 62
     7
370
    15
100
AcDbSpline
210
0.0
220
0.0
230
1.0
 70
     8
 71
     3
 72
    10
 73
     6
 74
     0
 42
0.000000001
 43
0.00000001
 12
1.0
 22
0.0
 32
0.0
 13
1.0
 23
0.0
 33
0.0
 40
0.0
 40
0.0
 40
0.0
 40
0.0
 40
0.3820447712204015
 40
0.789894613797408
 40
1.0
 40
1.0
 40
1.0
 40
1.0
 10
361.8794820744393
 20
375.654136888024
 30
0.0
 10
361.8573690358392
 20
375.8135604143463
 30
0.0
 10
361.811649341707
 20
376.1431756695225
 30
0.0
 10
361.5876452596748
 20
376.5258100632878
 30
0.0
 10
361.3705342948069
 20
376.6707416635562
 30
0.0
 10
361.2967163529918
 20
376.720018550342
 30
0.0
  0
LINE
  5
125
330
1F
100
AcDbEntity
  8
0
  6
Continuous
 62
     7
370
    15
100
AcDbLine
 10
360.1172516889
 20
356.5378630256
 30
0.0
 11
352.9831936846
 21
355.5352365589
 31
0.0
  0
LINE
  5
126
330
1F
100
AcDbEntity
  8
0
  6
Continuous
 62
     7
370
    15
100
AcDbLine
 10
352.9831936846
 20
355.5352365589
 30
0.0
 11
352.506852908
 21
358.9245772978
 31
0.0
  0
LINE
  5
127
330
1F
100
AcDbEntity
  8
0
  6
Continuous
 62
     7
370
    15
100
AcDbLine
 10
343.0085352668
 20
357.5896758082
 30
0.0
 11
352.506852908
 21
358.9245772978
 31
0.0
  0
LINE
  5
128
330
1F
100
AcDbEntity
  8
0
  6
Continuous
 62
     7
370
    15
100
AcDbLine
 10
343.0085352668
 20
357.5896758082
 30
0.0
 11
343.4848760434
 21
354.2003350693
 31
0.0
  0
LINE
  5
129
330
1F
100
AcDbEntity
  8
0
  6
Continuous
 62
     7
370
    15
100
AcDbLine
 10
343.4848760434
 20
354.2003350693
 30
0.0
 11
336.3508180391
 21
353.1977086026
 31
0.0
  0
LINE
  5
12A
330
1F
100
AcDbEntity
  8
0
  6
Continuous
 62
     7
370
    15
100
AcDbLine
 10
348.3143864913
 20
354.296054278
 30
0.0
 11
337.4214377351
 21
352.7651501675
 31
0.0
  0
SPLINE
  5
12B
330
1F
100
AcDbEntity
  8
0
  6
Continuous
 62
     7
370
    15
100
AcDbSpline
210
0.0
220
0.0
230
1.0
 70
     8
 71
     3
 72
     8
 73
     4
 74
     0
 42
0.000000001
 43
0.00000001
 12
1.0
 22
0.0
 32
0.0
 13
1.0
 23
0.0
 33
0.0
 40
0.0
 40
0.0
 40
0.0
 40
0.0
 40
1.0
 40
1.0
 40
1.0
 40
1.0
 10
343.4848760433561
 20
354.2003350693145
 30
0.0
 10
345.1010417549342
 20
354.0591377875335
 30
0.0
 10
346.7116187263228
 20
354.0707999585197
 30
0.0
 10
348.3143864912603
 20
354.2960542780381
 30
0.0
  0
SPLINE
  5
12C
330
1F
100
AcDbEntity
  8
0
  6
Continuous
 62
     7
370
    15
100
AcDbSpline
210
0.0
220
0.0
230
1.0
 70
     8
 71
     3
 72
    10
 73
     6
 74
     0
 42
0.000000001
 43
0.00000001
 12
1.0
 22
0.0
 32
0.0
 13
1.0
 23
0.0
 33
0.0
 40
0.0
 40
0.0
 40
0.0
 40
0.0
 40
0.5
 40
0.5
 40
1.0
 40
1.0
 40
1.0
 40
1.0
 10
348.3143864912603
 20
354.2960542780381
 30
0.0
 10
349.1139040259837
 20
354.4084191397272
 30
0.0
 10
349.9154196567114
 20
354.574548952007
 30
0.0
 10
351.473601404953
 20
354.9945436252857
 30
0.0
 10
352.2351229414594
 20
355.2481839270444
 30
0.0
 10
352.9831936845574
 20
355.535236558877
 30
0.0
  0
LINE
  5
12D
330
1F
100
AcDbEntity
  8
0
  6
Continuous
 62
     7
370
    15
100
AcDbLine
 10
359.2073352474
 20
355.8269583886
 30
0.0
 11
348.3143864913
 21
354.296054278
 31
0.0
  0
SPLINE
  5
12E
330
1F
100
AcDbEntity
  8
0
  6
Continuous
 62
     7
370
    15
100
AcDbSpline
210
0.0
220
0.0
230
1.0
 70
     8
 71
     3
 72
    14
 73
    10
 74
     0
 42
0.000000001
 43
0.00000001
 12
1.0
 22
0.0
 32
0.0
 13
1.0
 23
0.0
 33
0.0
 40
0.0
 40
0.0
 40
0.0
 40
0.0
 40
0.25
 40
0.25
 40
0.5
 40
0.5
 40
0.75
 40
0.75
 40
1.0
 40
1.0
 40
1.0
 40
1.0
 10
250.5935190318074
 20
298.1343213295968
 30
0.0
 10
250.5935198056376
 20
297.6334238452703
 30
0.0
 10
250.617722335507
 20
297.1328915904078
 30
0.0
 10
250.7042337500425
 20
296.2115931588834
 30
0.0
 10
250.7661213474213
 20
295.7911099185215
 30
0.0
 10
250.9035994067737
 20
295.0911312432153
 30
0.0
 10
250.9787947121187
 20
294.8116098761893
 30
0.0
 10
251.1180896155517
 20
294.4331169022055
 30
0.0
 10
251.1819336666074
 20
294.3343253280705
 30
0.0
 10
251.2325979266534
 20
294.3343233466397
 30
0.0
  0
ARC
  5
12F
330
1F
100
AcDbEntity
  8
0
  6
Continuous
 62
     7
370
    15
100
AcDbCircle
 10
251.0331047073
 20
294.3338145958
 30
0.0
 40
0.1994939163548648
100
AcDbArc
 50
270.146285877
 51
0.145536984
  0
SPLINE
  5
130
330
1F
100
AcDbEntity
  8
0
  6
Continuous
 62
     7
370
    15
100
AcDbSpline
210
0.0
220
0.0
230
1.0
 70
    24
 71
     3
 72
    10
 73
     6
 74
     0
 42
0.000000001
 43
0.00000001
 12
1.0
 22
0.0
 32
0.0
 13
1.0
 23
0.0
 33
0.0
 40
0.0
 40
0.0
 40
0.0
 40
0.0
 40
0.5
 40
0.5
 40
1.0
 40
1.0
 40
1.0
 40
1.0
 10
250.3987951173489
 20
298.1343213296688
 30
0.0
 10
250.4419058593473
 20
298.1343213296651
 30
0.0
 10
250.489249486067
 20
298.1343213296554
 30
0.0
 10
250.5611849138581
 20
298.1343213296282
 30
0.0
 10
250.5844409439515
 20
298.1343213296114
 30
0.0
 10
250.5935190318074
 20
298.1343213295968
 30
0.0
  0
SPLINE
  5
131
330
1F
100
AcDbEntity
  8
0
  6
Continuous
 62
     7
370
    15
100
AcDbSpline
210
0.0
220
0.0
230
1.0
 70
     8
 71
     3
 72
    14
 73
    10
 74
     0
 42
0.000000001
 43
0.00000001
 12
1.0
 22
0.0
 32
0.0
 13
1.0
 23
0.0
 33
0.0
 40
0.0
 40
0.0
 40
0.0
 40
0.0
 40
0.25
 40
0.25
 40
0.5
 40
0.5
 40
0.75
 40
0.75
 40
1.0
 40
1.0
 40
1.0
 40
1.0
 10
251.2325979199425
 20
314.4343192771398
 30
0.0
 10
251.1819333659234
 20
314.4343174040951
 30
0.0
 10
251.1180896440147
 20
314.3355258826206
 30
0.0
 10
250.9787947665323
 20
313.9570328673796
 30
0.0
 10
250.9035988395367
 20
313.6775092250187
 30
0.0
 10
250.7661203453717
 20
312.9775269339275
 30
0.0
 10
250.7042330282899
 20
312.557043136337
 30
0.0
 10
250.6177222009781
 20
311.6357482190498
 30
0.0
 10
250.5935198453468
 20
311.1352158078321
 30
0.0
 10
250.5935190284724
 20
310.6343213297318
 30
0.0
  0
LINE
  5
132
330
1F
100
AcDbEntity
  8
0
  6
Continuous
 62
     7
370
    15
100
AcDbLine
 10
250.5935186942
 20
310.6343213297
 30
0.0
 11
250.3987951173
 21
310.6343213297
 31
0.0
  0
LINE
  5
133
330
1F
100
AcDbEntity
  8
0
  6
Continuous
 62
     7
370
    15
100
AcDbLine
 10
250.3987951173
 20
310.6343213296
 30
0.0
 11
250.3987951173
 21
298.1343213296
 31
0.0
  0
LINE
  5
134
330
1F
100
AcDbEntity
  8
0
  6
Continuous
 62
     7
370
    15
100
AcDbLine
 10
250.5935186939
 20
310.6343213297
 30
0.0
 11
250.5935186942
 21
298.1343213296
 31
0.0
  0
LINE
  5
135
330
1F
100
AcDbEntity
  8
0
  6
Continuous
 62
     7
370
    15
100
AcDbLine
 10
206.486597512
 20
394.2416822389
 30
0.0
 11
206.486597512
 21
401.0269604204
 31
0.0
  0
LINE
  5
136
330
1F
100
AcDbEntity
  8
0
  6
Continuous
 62
     7
370
    15
100
AcDbLine
 10
206.286597512
 20
393.6343213296
 30
0.0
 11
206.286597512
 21
401.6343213296
 31
0.0
  0
SPLINE
  5
137
330
1F
100
AcDbEntity
  8
0
  6
Continuous
 62
     8
370
    15
100
AcDbSpline
210
0.0
220
0.0
230
1.0
 70
     8
 71
     3
 72
     9
 73
     5
 74
     0
 42
0.000000001
 43
0.00000001
 12
1.0
 22
0.0
 32
0.0
 13
1.0
 23
0.0
 33
0.0
 40
0.0
 40
0.0
 40
0.0
 40
0.0
 40
0.5520599784637967
 40
0.9999999999999999
 40
0.9999999999999999
 40
0.9999999999999999
 40
0.9999999999999999
 10
249.7073605099168
 20
377.752069382623
 30
0.0
 10
250.573664584488
 20
377.8127021393348
 30
0.0
 10
252.1428855176587
 20
377.9225321561394
 30
0.0
 10
253.1340320374522
 20
378.0040693818888
 30
0.0
 10
253.578006230874
 20
378.0405931685469
 30
0.0
  0
SPLINE
  5
138
330
1F
100
AcDbEntity
  8
0
  6
Continuous
 62
     8
370
    15
100
AcDbSpline
210
0.0
220
0.0
230
1.0
 70
     8
 71
     3
 72
    22
 73
    18
 74
     0
 42
0.000000001
 43
0.00000001
 12
1.0
 22
0.0
 32
0.0
 13
1.0
 23
0.0
 33
0.0
 40
0.0
 40
0.0
 40
0.0
 40
0.0
 40
0.0003427292646008
 40
0.0316898198136686
 40
0.0485800238344535
 40
0.0666498733101727
 40
0.0868966978436956
 40
0.108927608051837
 40
0.1329028584083814
 40
0.2271525242754771
 40
0.3258595825616253
 40
0.4253870553724954
 40
0.5260311172961174
 40
0.6430389485554604
 40
0.7636420783699428
 40
0.8822303661206823
 40
1.0
 40
1.0
 40
1.0
 40
1.0
 10
339.3388910668999
 20
377.559200636377
 30
0.0
 10
339.3384551302776
 20
377.5592079903841
 30
0.0
 10
339.2981470666248
 20
377.5598879648837
 30
0.0
 10
339.416716277719
 20
377.557899799773
 30
0.0
 10
339.6063469774871
 20
377.554664643881
 30
0.0
 10
339.8268433180584
 20
377.5508707630367
 30
0.0
 10
340.1097304348402
 20
377.5459552686648
 30
0.0
 10
340.4613067612853
 20
377.5397822417937
 30
0.0
 10
341.2720946209447
 20
377.5253928652646
 30
0.0
 10
342.7079369000739
 20
377.4992695313493
 30
0.0
 10
344.7774355894983
 20
377.460143605705
 30
0.0
 10
346.968933664305
 20
377.4170602653825
 30
0.0
 10
349.3393765082586
 20
377.3690682198988
 30
0.0
 10
351.9003231579629
 20
377.3134797456411
 30
0.0
 10
354.6194835449378
 20
377.2564124000191
 30
0.0
 10
357.3584213466951
 20
377.1812949175462
 30
0.0
 10
359.1731127356437
 20
377.049247270596
 30
0.0
 10
360.0773157300113
 20
376.9834521285136
 30
0.0
  0
SPLINE
  5
139
330
1F
100
AcDbEntity
  8
0
  6
Continuous
 62
     8
370
    15
100
AcDbSpline
210
0.0
220
0.0
230
1.0
 70
     8
 71
     3
 72
    11
 73
     7
 74
     0
 42
0.000000001
 43
0.00000001
 12
1.0
 22
0.0
 32
0.0
 13
1.0
 23
0.0
 33
0.0
 40
0.0
 40
0.0
 40
0.0
 40
0.0
 40
0.2517980723743902
 40
0.5333259706300976
 40
0.7696048977551507
 40
0.9999999999999999
 40
0.9999999999999999
 40
0.9999999999999999
 40
0.9999999999999999
 10
360.6280080853716
 20
377.0073941216436
 30
0.0
 10
360.6266357168896
 20
377.0074990949292
 30
0.0
 10
360.6237289442292
 20
377.0077214357077
 30
0.0
 10
360.6394092132943
 20
377.0029379670798
 30
0.0
 10
360.5674968225596
 20
376.9949582753927
 30
0.0
 10
360.239237743485
 20
376.9872580148156
 30
0.0
 10
360.0771775487312
 20
376.983456426959
 30
0.0
  0
SPLINE
  5
13A
330
1F
100
AcDbEntity
  8
0
  6
Continuous
 62
     8
370
    15
100
AcDbSpline
210
0.0
220
0.0
230
1.0
 70
     8
 71
     3
 72
    13
 73
     9
 74
     0
 42
0.000000001
 43
0.00000001
 12
1.0
 22
0.0
 32
0.0
 13
1.0
 23
0.0
 33
0.0
 40
0.0
 40
0.0
 40
0.0
 40
0.0
 40
0.0557834615056585
 40
0.1774341341382413
 40
0.2733304246778341
 40
0.4679150962563119
 40
0.6400673069213798
 40
1.0
 40
1.0
 40
1.0
 40
1.0
 10
250.7456734737957
 20
294.804399438383
 30
0.0
 10
250.7356982766636
 20
294.8435198507313
 30
0.0
 10
250.7039695094229
 20
294.9679527257233
 30
0.0
 10
250.6554739808731
 20
295.2037947812002
 30
0.0
 10
250.5855068952863
 20
295.59071507024
 30
0.0
 10
250.5158982708452
 20
296.086847949016
 30
0.0
 10
250.4256752865947
 20
296.951250732974
 30
0.0
 10
250.4096413738843
 20
297.6569475788604
 30
0.0
 10
250.3987951173154
 20
298.1343213296468
 30
0.0
  0
SPLINE
  5
13B
330
1F
100
AcDbEntity
  8
0
  6
Continuous
 62
     8
370
    15
100
AcDbSpline
210
0.0
220
0.0
230
1.0
 70
     8
 71
     3
 72
    14
 73
    10
 74
     0
 42
0.000000001
 43
0.00000001
 12
1.0
 22
0.0
 32
0.0
 13
1.0
 23
0.0
 33
0.0
 40
0.0
 40
0.0
 40
0.0
 40
0.0
 40
0.1963303321977187
 40
0.400341927870048
 40
0.5913620505398587
 40
0.8071628738611607
 40
0.8753579071308001
 40
0.9561814907470048
 40
1.0
 40
1.0
 40
1.0
 40
1.0
 10
250.3987951173154
 20
310.6343213296407
 30
0.0
 10
250.4015019622878
 20
310.8672182483398
 30
0.0
 10
250.4070215553253
 20
311.3421239869654
 30
0.0
 10
250.4490929136572
 20
312.0210954312806
 30
0.0
 10
250.5145674123088
 20
312.6757292121615
 30
0.0
 10
250.5793154144398
 20
313.1342455574598
 30
0.0
 10
250.6341940288861
 20
313.448292864629
 30
0.0
 10
250.6641396890113
 20
313.606600466423
 30
0.0
 10
250.6840619290529
 20
313.697549891099
 30
0.0
 10
250.6910656854847
 20
313.729523585659
 30
0.0
  0
SPLINE
  5
13C
330
1F
100
AcDbEntity
  8
0
  6
Continuous
 62
     8
370
    15
100
AcDbSpline
210
0.0
220
0.0
230
1.0
 70
     8
 71
     3
 72
    10
 73
     6
 74
     0
 42
0.000000001
 43
0.00000001
 12
1.0
 22
0.0
 32
0.0
 13
1.0
 23
0.0
 33
0.0
 40
0.0
 40
0.0
 40
0.0
 40
0.0
 40
0.393167368887988
 40
0.7863347377759893
 40
0.9999999999999999
 40
0.9999999999999999
 40
0.9999999999999999
 40
0.9999999999999999
 10
251.2325979800764
 20
314.4343213296398
 30
0.0
 10
251.2294576601075
 20
314.4602576829236
 30
0.0
 10
251.2231770201695
 20
314.5121303894912
 30
0.0
 10
251.1860633116144
 20
314.5716256557951
 30
0.0
 10
251.1514293477067
 20
314.5920959619127
 30
0.0
 10
251.1392347579619
 20
314.5993035395877
 30
0.0
  0
LINE
  5
13D
330
1F
100
AcDbEntity
  8
0
  6
Continuous
 62
     8
370
    15
100
AcDbLine
 10
250.3987951173
 20
298.1343213296
 30
0.0
 11
250.2370073441
 21
298.1343213296
 31
0.0
  0
LINE
  5
13E
330
1F
100
AcDbEntity
  8
0
  6
Continuous
 62
     8
370
    15
100
AcDbLine
 10
250.2400404389
 20
310.6343213296
 30
0.0
 11
250.3987951173
 21
310.6343213296
 31
0.0
  0
LINE
  5
13F
330
1F
100
AcDbEntity
  8
0
  6
Continuous
 62
     8
370
    15
100
AcDbLine
 10
251.2325979801
 20
314.4343213296
 30
0.0
 11
251.3850052925
 21
314.4343213296
 31
0.0
  0
LINE
  5
140
330
1F
100
AcDbEntity
  8
0
  6
Continuous
 62
     8
370
    15
100
AcDbLine
 10
251.2325979801
 20
294.3343213296
 30
0.0
 11
251.3850052925
 21
294.3343213296
 31
0.0
  0
LINE
  5
141
330
1F
100
AcDbEntity
  8
0
  6
Continuous
 62
     7
370
    15
100
AcDbLine
 10
119.5519898508
 20
235.8028683437
 30
0.0
 11
119.5519898508
 21
235.6028683437
 31
0.0
  0
LINE
  5
142
330
1F
100
AcDbEntity
  8
0
  6
Continuous
 62
     7
370
    15
100
AcDbLine
 10
127.5519898508
 20
235.6028683437
 30
0.0
 11
127.5519898508
 21
235.8028683437
 31
0.0
  0
LINE
  5
143
330
1F
100
AcDbEntity
  8
0
  6
Continuous
 62
     7
370
    15
100
AcDbLine
 10
119.5519898508
 20
235.6028683437
 30
0.0
 11
119.7718126564
 21
235.3830455382
 31
0.0
  0
LINE
  5
144
330
1F
100
AcDbEntity
  8
0
  6
Continuous
 62
     7
370
    15
100
AcDbLine
 10
127.3321670453
 20
235.3830455382
 30
0.0
 11
127.5519898508
 21
235.6028683437
 31
0.0
  0
SPLINE
  5
145
330
1F
100
AcDbEntity
  8
0
  6
Continuous
 62
     7
370
    15
100
AcDbSpline
210
0.0
220
0.0
230
1.0
 70
     8
 71
     3
 72
    13
 73
     9
 74
     0
 42
0.000000001
 43
0.00000001
 12
1.0
 22
0.0
 32
0.0
 13
1.0
 23
0.0
 33
0.0
 40
0.0
 40
0.0
 40
0.0
 40
0.0
 40
0.1615080474755661
 40
0.3300229281654084
 40
0.4904003957242518
 40
0.6486816927877878
 40
0.8108595002715758
 40
1.0
 40
1.0
 40
1.0
 40
1.0
 10
104.7186224498723
 20
200.4602391289856
 30
0.0
 10
104.710798307766
 20
200.4634206092796
 30
0.0
 10
104.6948105825183
 20
200.4699215945801
 30
0.0
 10
104.7044592186039
 20
200.4101240344564
 30
0.0
 10
104.7265419879566
 20
200.3229195776152
 30
0.0
 10
104.7653842973888
 20
200.1971879238235
 30
0.0
 10
104.8178788592994
 20
200.0403531679692
 30
0.0
 10
104.8623319652364
 20
199.8980650762441
 30
0.0
 10
104.8862643436488
 20
199.8214609249039
 30
0.0
  0
SPLINE
  5
146
330
1F
100
AcDbEntity
  8
0
  6
Continuous
 62
     7
370
    15
100
AcDbSpline
210
0.0
220
0.0
230
1.0
 70
     8
 71
     3
 72
    13
 73
     9
 74
     0
 42
0.000000001
 43
0.00000001
 12
1.0
 22
0.0
 32
0.0
 13
1.0
 23
0.0
 33
0.0
 40
0.0
 40
0.0
 40
0.0
 40
0.0
 40
0.1033187820816387
 40
0.2819656442322108
 40
0.4561784142967182
 40
0.6325442993348832
 40
0.8178914182163752
 40
1.0
 40
1.0
 40
1.0
 40
1.0
 10
142.2684658994548
 20
199.9805855097624
 30
0.0
 10
142.2818969033127
 20
200.0213465013809
 30
0.0
 10
142.3185512422352
 20
200.1325866750425
 30
0.0
 10
142.367866393941
 20
200.2781307672977
 30
0.0
 10
142.4142839680718
 20
200.4230567608068
 30
0.0
 10
142.441452333842
 20
200.5241705291472
 30
0.0
 10
142.4543710909676
 20
200.5942604866284
 30
0.0
 10
142.4365297583775
 20
200.5867415853192
 30
0.0
 10
142.4276877135563
 20
200.5830152682379
 30
0.0
  0
SPLINE
  5
147
330
1F
100
AcDbEntity
  8
0
  6
Continuous
 62
     7
370
    15
100
AcDbSpline
210
0.0
220
0.0
230
1.0
 70
     8
 71
     3
 72
    11
 73
     7
 74
     0
 42
0.000000001
 43
0.00000001
 12
1.0
 22
0.0
 32
0.0
 13
1.0
 23
0.0
 33
0.0
 40
0.0
 40
0.0
 40
0.0
 40
0.0
 40
0.2491612707262912
 40
0.500000005210575
 40
0.7508387372239913
 40
1.0
 40
1.0
 40
1.0
 40
1.0
 10
141.4039198692235
 20
194.0554485791335
 30
0.0
 10
141.436391596324
 20
194.8246996788993
 30
0.0
 10
141.5015536645383
 20
196.3683808167021
 30
0.0
 10
141.9419077161416
 20
198.6503265304512
 30
0.0
 10
142.6077091064015
 20
200.8769582542299
 30
0.0
 10
143.2644071471176
 20
202.2755044412501
 30
0.0
 10
143.5916545767026
 20
202.9724315165299
 30
0.0
  0
LINE
  5
148
330
1F
100
AcDbEntity
  8
0
  6
Continuous
 62
     7
370
    15
100
AcDbLine
 10
143.5062083496
 20
202.8033371846
 30
0.0
 11
142.93726737
 21
201.6618309057
 31
0.0
  0
LINE
  5
149
330
1F
100
AcDbEntity
  8
0
  6
Continuous
 62
     7
370
    15
100
AcDbLine
 10
143.5506711454
 20
202.8925460172
 30
0.0
 11
143.5062083496
 21
202.8033371846
 31
0.0
  0
LINE
  5
14A
330
1F
100
AcDbEntity
  8
0
  6
Continuous
 62
     7
370
    15
100
AcDbLine
 10
104.1627778333
 20
201.6683586601
 30
0.0
 11
103.7389756424
 21
202.5195187909
 31
0.0
  0
SPLINE
  5
14B
330
1F
100
AcDbEntity
  8
0
  6
Continuous
 62
     7
370
    15
100
AcDbSpline
210
0.0
220
0.0
230
1.0
 70
     8
 71
     3
 72
    11
 73
     7
 74
     0
 42
0.000000001
 43
0.00000001
 12
1.0
 22
0.0
 32
0.0
 13
1.0
 23
0.0
 33
0.0
 40
0.0
 40
0.0
 40
0.0
 40
0.0
 40
0.2491612629259489
 40
0.4999999947882608
 40
0.7508387291228716
 40
1.0
 40
1.0
 40
1.0
 40
1.0
 10
103.5123250674191
 20
202.9724316292574
 30
0.0
 10
103.8395725040662
 20
202.2755045329284
 30
0.0
 10
104.4962705585571
 20
200.8769583045129
 30
0.0
 10
105.1620719648819
 20
198.6503265492157
 30
0.0
 10
105.6024260283142
 20
196.3683808180766
 30
0.0
 10
105.6675881005114
 20
194.8246996796659
 30
0.0
 10
105.7000598296162
 20
194.0554485791333
 30
0.0
  0
SPLINE
  5
14C
330
1F
100
AcDbEntity
  8
0
  6
Continuous
 62
     7
370
    15
100
AcDbSpline
210
0.0
220
0.0
230
1.0
 70
     8
 71
     3
 72
    36
 73
    32
 74
     0
 42
0.000000001
 43
0.00000001
 12
1.0
 22
0.0
 32
0.0
 13
1.0
 23
0.0
 33
0.0
 40
0.0
 40
0.0
 40
0.0
 40
0.0
 40
0.0244225534468086
 40
0.0459146474952161
 40
0.0646272402693902
 40
0.0801846960986998
 40
0.0931641129508192
 40
0.1031629101412451
 40
0.1203890586951277
 40
0.1294615895471175
 40
0.1387578736697533
 40
0.1471957176121136
 40
0.1544188386288959
 40
0.170196712395405
 40
0.1851417532640753
 40
0.1997956367360239
 40
0.2152667106710323
 40
0.2364815293493135
 40
0.2633082469748801
 40
0.2957186686862432
 40
0.3343327445675409
 40
0.3785928921135361
 40
0.4285563235298044
 40
0.4842556620625991
 40
0.5456606305242443
 40
0.6127655157818717
 40
0.681265960951516
 40
0.7548391288750546
 40
0.8334841095908938
 40
0.9172002742981399
 40
1.0
 40
1.0
 40
1.0
 40
1.0
 10
123.5541605768639
 20
80.12050040585555
 30
0.0
 10
124.594294480261
 20
80.12214340925519
 30
0.0
 10
126.5497567387966
 20
80.1252322722642
 30
0.0
 10
129.3025719615799
 20
80.12214613818882
 30
0.0
 10
131.6758722316291
 20
80.1439615259013
 30
0.0
 10
133.6915449063764
 20
80.06428489724878
 30
0.0
 10
135.3205413444516
 20
80.37272626347303
 30
0.0
 10
136.8995404366906
 20
81.04782466690908
 30
0.0
 10
138.1610721706911
 20
81.97578062630868
 30
0.0
 10
139.1365452408026
 20
83.12846191010192
 30
0.0
 10
139.7155567358105
 20
84.10428111267049
 30
0.0
 10
140.1102817820141
 20
85.08368481522605
 30
0.0
 10
140.4374821364771
 20
86.37803607686642
 30
0.0
 10
140.4465613761101
 20
88.00235220497783
 30
0.0
 10
140.46715913585
 20
89.92849410546214
 30
0.0
 10
140.4901408632154
 20
91.84867931728239
 30
0.0
 10
140.5070100737726
 20
94.0350310752942
 30
0.0
 10
140.5290763873701
 20
96.74012783150256
 30
0.0
 10
140.5581459192848
 20
100.1665448056165
 30
0.0
 10
140.594440337604
 20
104.3340330460829
 30
0.0
 10
140.6369399441864
 20
109.2439962586729
 30
0.0
 10
140.6859093902956
 20
114.9015466891945
 30
0.0
 10
140.741810984782
 20
121.2867503056854
 30
0.0
 10
140.8050361767901
 20
128.4021426784975
 30
0.0
 10
140.8753155041668
 20
136.2475819609309
 30
0.0
 10
140.9510727737421
 20
144.6382129655537
 30
0.0
 10
141.0321419477987
 20
153.5470794730255
 30
0.0
 10
141.1181514721291
 20
162.9474318247333
 30
0.0
 10
141.2104224855448
 20
172.9958149665761
 30
0.0
 10
141.3064759704289
 20
183.437153255338
 30
0.0
 10
141.371550380204
 20
190.5290235906277
 30
0.0
 10
141.4039085129105
 20
194.05544330368
 30
0.0
  0
SPLINE
  5
14D
330
1F
100
AcDbEntity
  8
0
  6
Continuous
 62
     7
370
    15
100
AcDbSpline
210
0.0
220
0.0
230
1.0
 70
     8
 71
     3
 72
    39
 73
    35
 74
     0
 42
0.000000001
 43
0.00000001
 12
1.0
 22
0.0
 32
0.0
 13
1.0
 23
0.0
 33
0.0
 40
0.0
 40
0.0
 40
0.0
 40
0.0
 40
0.0815570889805646
 40
0.163982184850041
 40
0.2412878035595591
 40
0.3134731559659886
 40
0.3805376740645577
 40
0.4424776346033052
 40
0.4961902809395663
 40
0.545357217701416
 40
0.5899594457267018
 40
0.6299875041382312
 40
0.6654746245199916
 40
0.6949193697232422
 40
0.7203180250997517
 40
0.7429415685573003
 40
0.7642426708242357
 40
0.7841905582705045
 40
0.8028514481370036
 40
0.8161052638057978
 40
0.8296512031968394
 40
0.8373766095502734
 40
0.8457416374285954
 40
0.8546738089745257
 40
0.8631571197538664
 40
0.8709045446213157
 40
0.8782208349768894
 40
0.8886061582339986
 40
0.9030789258007611
 40
0.9175996688129746
 40
0.9342936957751461
 40
0.9537472818030108
 40
0.9755973563117031
 40
1.0
 40
1.0
 40
1.0
 40
1.0
 10
105.7000710621003
 20
194.0554432863903
 30
0.0
 10
105.7319425897641
 20
190.5819930014865
 30
0.0
 10
105.7960248517251
 20
183.5981247221483
 30
0.0
 10
105.8905584172632
 20
173.3218750406906
 30
0.0
 10
105.981265532829
 20
163.444758509588
 30
0.0
 10
106.0656747435625
 20
154.2218338209731
 30
0.0
 10
106.1436869111799
 20
145.6533164707315
 30
0.0
 10
106.2140343487416
 20
137.8715326501463
 30
0.0
 10
106.2770234151242
 20
130.8519890396331
 30
0.0
 10
106.3330392125232
 20
124.570843652129
 30
0.0
 10
106.3833745479355
 20
118.8725108313996
 30
0.0
 10
106.4279724158438
 20
113.7567869143583
 30
0.0
 10
106.4666753540789
 20
109.2866082178301
 30
0.0
 10
106.499961245027
 20
105.4394866794822
 30
0.0
 10
106.5286604674418
 20
102.1402181888897
 30
0.0
 10
106.5541784212508
 20
99.18778142217265
 30
0.0
 10
106.5771271190516
 20
96.46748709097709
 30
0.0
 10
106.597921971527
 20
93.91601415263803
 30
0.0
 10
106.6149309748705
 20
91.70720830172475
 30
0.0
 10
106.6386273088806
 20
89.77145724649526
 30
0.0
 10
106.6560400776889
 20
88.3006848282866
 30
0.0
 10
106.6588013364658
 20
87.04315284583538
 30
0.0
 10
106.753692044193
 20
85.98467861476652
 30
0.0
 10
107.040954842011
 20
84.93009945359967
 30
0.0
 10
107.4695661569596
 20
83.95482480708674
 30
0.0
 10
107.9957899879383
 20
83.10693890156753
 30
0.0
 10
108.6846349805628
 20
82.27661965336117
 30
0.0
 10
109.7193896521136
 20
81.37062979535678
 30
0.0
 10
111.1988568112535
 20
80.54917126479036
 30
0.0
 10
113.1092994881365
 20
80.06247885162574
 30
0.0
 10
115.2762776692652
 20
80.14284140779088
 30
0.0
 10
117.7423493312507
 20
80.12277357497902
 30
0.0
 10
120.5412378798363
 20
80.12504569837445
 30
0.0
 10
122.5107283301475
 20
80.12207023935208
 30
0.0
 10
123.5498191248064
 20
80.12050040585552
 30
0.0
  0
SPLINE
  5
14E
330
1F
100
AcDbEntity
  8
0
  6
Continuous
 62
     7
370
    15
100
AcDbSpline
210
0.0
220
0.0
230
1.0
 70
     8
 71
     3
 72
    13
 73
     9
 74
     0
 42
0.000000001
 43
0.00000001
 12
1.0
 22
0.0
 32
0.0
 13
1.0
 23
0.0
 33
0.0
 40
0.0
 40
0.0
 40
0.0
 40
0.0
 40
0.0990648323523889
 40
0.2071440724501488
 40
0.3166795154279652
 40
0.556312084033915
 40
0.8462919853201473
 40
1.0
 40
1.0
 40
1.0
 40
1.0
 10
104.3384523058042
 20
201.4124017713477
 30
0.0
 10
104.3335281863268
 20
201.416804331924
 30
0.0
 10
104.3232318769548
 20
201.4260100642239
 30
0.0
 10
104.3458675493396
 20
201.3575354664058
 30
0.0
 10
104.3965394367999
 20
201.2154596729159
 30
0.0
 10
104.5161846653978
 20
200.8958848185703
 30
0.0
 10
104.6706360935589
 20
200.4823685570364
 30
0.0
 10
104.768620904182
 20
200.1873393116454
 30
0.0
 10
104.802566049334
 20
200.0851315256101
 30
0.0
  0
SPLINE
  5
14F
330
1F
100
AcDbEntity
  8
0
  6
Continuous
 62
     7
370
    15
100
AcDbSpline
210
0.0
220
0.0
230
1.0
 70
     8
 71
     3
 72
    12
 73
     8
 74
     0
 42
0.000000001
 43
0.00000001
 12
1.0
 22
0.0
 32
0.0
 13
1.0
 23
0.0
 33
0.0
 40
0.0
 40
0.0
 40
0.0
 40
0.0
 40
0.0403446346700292
 40
0.359612376795812
 40
0.6186138030591485
 40
0.8416194713969805
 40
1.0
 40
1.0
 40
1.0
 40
1.0
 10
142.3837162940757
 20
200.3296109809378
 30
0.0
 10
142.3917544697593
 20
200.3535580823373
 30
0.0
 10
142.4634028434855
 20
200.5670108529984
 30
0.0
 10
142.5920262864379
 20
200.9045956091188
 30
0.0
 10
142.7326210254179
 20
201.2773958631745
 30
0.0
 10
142.8105251900257
 20
201.4797618469344
 30
0.0
 10
142.8052005621947
 20
201.4859565687154
 30
0.0
 10
142.8029893721274
 20
201.4885290879048
 30
0.0
  0
ARC
  5
150
330
1F
100
AcDbEntity
  8
0
  6
Continuous
 62
     7
370
    15
100
AcDbCircle
 10
147.7519898508
 20
206.2028683437
 30
0.0
 40
0.5
100
AcDbArc
 50
180.0
 51
270.0
  0
ARC
  5
151
330
1F
100
AcDbEntity
  8
0
  6
Continuous
 62
     7
370
    15
100
AcDbCircle
 10
147.7519898508
 20
220.2028683437
 30
0.0
 40
0.5
100
AcDbArc
 50
90.0
 51
180.0
  0
LINE
  5
152
330
1F
100
AcDbEntity
  8
0
  6
Continuous
 62
     7
370
    15
100
AcDbLine
 10
164.2519898508
 20
220.7028683437
 30
0.0
 11
147.7519898508
 21
220.7028683437
 31
0.0
  0
LINE
  5
153
330
1F
100
AcDbEntity
  8
0
  6
Continuous
 62
     7
370
    15
100
AcDbLine
 10
147.7519898508
 20
205.7028683437
 30
0.0
 11
164.2519898508
 21
205.7028683437
 31
0.0
  0
ARC
  5
154
330
1F
100
AcDbEntity
  8
0
  6
Continuous
 62
     7
370
    15
100
AcDbCircle
 10
164.2519898508
 20
220.2028683437
 30
0.0
 40
0.5
100
AcDbArc
 50
0.0
 51
90.0
  0
ARC
  5
155
330
1F
100
AcDbEntity
  8
0
  6
Continuous
 62
     7
370
    15
100
AcDbCircle
 10
164.2519898508
 20
206.2028683437
 30
0.0
 40
0.5
100
AcDbArc
 50
270.0
 51
0.0
  0
LINE
  5
156
330
1F
100
AcDbEntity
  8
0
  6
Continuous
 62
     7
370
    15
100
AcDbLine
 10
145.5008466515
 20
208.2528683437
 30
0.0
 11
147.2519898508
 21
208.2528683437
 31
0.0
  0
LINE
  5
157
330
1F
100
AcDbEntity
  8
0
  6
Continuous
 62
     7
370
    15
100
AcDbLine
 10
147.2519898508
 20
218.1528683437
 30
0.0
 11
145.5029892732
 21
218.1528683437
 31
0.0
  0
ARC
  5
158
330
1F
100
AcDbEntity
  8
0
  6
Continuous
 62
     7
370
    15
100
AcDbCircle
 10
164.7519898508
 20
215.5028683437
 30
0.0
 40
0.700000000000017
100
AcDbArc
 50
0.0
 51
90.0
  0
ARC
  5
159
330
1F
100
AcDbEntity
  8
0
  6
Continuous
 62
     7
370
    15
100
AcDbCircle
 10
164.8519898508
 20
210.8028683437
 30
0.0
 40
0.6000000000000227
100
AcDbArc
 50
270.0
 51
0.0
  0
LINE
  5
15A
330
1F
100
AcDbEntity
  8
0
  6
Continuous
 62
     7
370
    15
100
AcDbLine
 10
164.7519898508
 20
210.2028683437
 30
0.0
 11
164.8519898508
 21
210.2028683437
 31
0.0
  0
CIRCLE
  5
15B
330
1F
100
AcDbEntity
  8
0
  6
Continuous
 62
     7
370
    15
100
AcDbCircle
 10
123.5519898508
 20
213.2028683437
 30
0.0
 40
22.50000000000001
  0
LINE
  5
15C
330
1F
100
AcDbEntity
  8
0
  6
Continuous
 62
     7
370
    15
100
AcDbLine
 10
125.6709518609
 20
235.6028683437
 30
0.0
 11
127.5519898508
 21
235.6028683437
 31
0.0
  0
LINE
  5
15D
330
1F
100
AcDbEntity
  8
0
  6
Continuous
 62
     7
370
    15
100
AcDbLine
 10
119.5519898508
 20
235.6028683437
 30
0.0
 11
121.4330278408
 21
235.6028683437
 31
0.0
  0
LINE
  5
15E
330
1F
100
AcDbEntity
  8
0
  6
Continuous
 62
     7
370
    15
100
AcDbLine
 10
123.5519898508
 20
235.8028683437
 30
0.0
 11
127.5519898508
 21
235.8028683437
 31
0.0
  0
LINE
  5
15F
330
1F
100
AcDbEntity
  8
0
  6
Continuous
 62
     7
370
    15
100
AcDbLine
 10
119.5519898508
 20
235.8028683437
 30
0.0
 11
123.5519898508
 21
235.8028683437
 31
0.0
  0
SPLINE
  5
160
330
1F
100
AcDbEntity
  8
0
  6
Continuous
 62
     7
370
    15
100
AcDbSpline
210
0.0
220
0.0
230
1.0
 70
     8
 71
     3
 72
    20
 73
    16
 74
     0
 42
0.000000001
 43
0.00000001
 12
1.0
 22
0.0
 32
0.0
 13
1.0
 23
0.0
 33
0.0
 40
0.0
 40
0.0
 40
0.0
 40
0.0
 40
0.0422377424056747
 40
0.0853343856079606
 40
0.1293696732847748
 40
0.1741862745781754
 40
0.2194173913593153
 40
0.264662472652533
 40
0.3095906625455761
 40
0.3539301860209008
 40
0.3975359590368794
 40
0.6574422707714758
 40
0.8940247255014339
 40
0.9476816534536909
 40
1.0
 40
1.0
 40
1.0
 40
1.0
 10
141.2599001137114
 20
194.0554453929377
 30
0.0
 10
141.2613975485119
 20
194.181606236843
 30
0.0
 10
141.2644228683183
 20
194.4364933943772
 30
0.0
 10
141.279127957235
 20
194.8226706295731
 30
0.0
 10
141.3021915764367
 20
195.2161031613861
 30
0.0
 10
141.3337416945079
 20
195.6153222574413
 30
0.0
 10
141.3744946073847
 20
196.0173306068199
 30
0.0
 10
141.4240870275877
 20
196.4186533832377
 30
0.0
 10
141.4816742179601
 20
196.8161960625444
 30
0.0
 10
141.547407044563
 20
197.2075043665247
 30
0.0
 10
141.7409881670172
 20
198.227922728409
 30
0.0
 10
142.1562696097021
 20
199.7909315515915
 30
0.0
 10
142.767312944434
 20
201.319158172368
 30
0.0
 10
143.2104175404837
 20
202.2407920676924
 30
0.0
 10
143.3567676122375
 20
202.5212547923817
 30
0.0
 10
143.4290183689099
 20
202.6597148821814
 30
0.0
  0
SPLINE
  5
161
330
1F
100
AcDbEntity
  8
0
  6
Continuous
 62
     7
370
    15
100
AcDbSpline
210
0.0
220
0.0
230
1.0
 70
     8
 71
     3
 72
    20
 73
    16
 74
     0
 42
0.000000001
 43
0.00000001
 12
1.0
 22
0.0
 32
0.0
 13
1.0
 23
0.0
 33
0.0
 40
0.0
 40
0.0
 40
0.0
 40
0.0
 40
0.0383840025439242
 40
0.0801401775095997
 40
0.125333310213866
 40
0.1758474426101634
 40
0.2505693349853372
 40
0.37471104171353
 40
0.4996720838170634
 40
0.6242401599295757
 40
0.7494555701351695
 40
0.8139126222989033
 40
0.8749354508892935
 40
0.9382913003314445
 40
1.0
 40
1.0
 40
1.0
 40
1.0
 10
139.4174331081287
 20
192.3822133276454
 30
0.0
 10
139.4508313290397
 20
192.4097333424268
 30
0.0
 10
139.520561924468
 20
192.4671911040846
 30
0.0
 10
139.6285974706354
 20
192.5574385628394
 30
0.0
 10
139.7459685993448
 20
192.6564547515832
 30
0.0
 10
139.8892761287827
 20
192.7793724520509
 30
0.0
 10
140.0948563535763
 20
192.9578978868115
 30
0.0
 10
140.3503375621897
 20
193.1862989082033
 30
0.0
 10
140.6230442495884
 20
193.4375611271784
 30
0.0
 10
140.866458853471
 20
193.6684059350162
 30
0.0
 10
141.0359029882957
 20
193.8332634301071
 30
0.0
 10
141.1412343939116
 20
193.9370617893388
 30
0.0
 10
141.2026346505138
 20
193.9981976281506
 30
0.0
 10
141.2451975416581
 20
194.0406634740139
 30
0.0
 10
141.2550124246213
 20
194.0505621703426
 30
0.0
 10
141.2598552331499
 20
194.0554463336263
 30
0.0
  0
SPLINE
  5
162
330
1F
100
AcDbEntity
  8
0
  6
Continuous
 62
     7
370
    15
100
AcDbSpline
210
0.0
220
0.0
230
1.0
 70
     8
 71
     3
 72
    42
 73
    38
 74
     0
 42
0.000000001
 43
0.00000001
 12
1.0
 22
0.0
 32
0.0
 13
1.0
 23
0.0
 33
0.0
 40
0.0
 40
0.0
 40
0.0
 40
0.0
 40
0.0131423660258453
 40
0.0261895445771664
 40
0.0391211314528096
 40
0.0518685717918359
 40
0.0643499242804044
 40
0.0764955567209643
 40
0.1070884924078702
 40
0.133844700479746
 40
0.1509270817103371
 40
0.2256607466001206
 40
0.2443914538795876
 40
0.250644132274386
 40
0.3603730827515915
 40
0.4209148422833908
 40
0.4604956431814106
 40
0.4900669875961918
 40
0.4999152677536957
 40
0.500193950114908
 40
0.5010299950938585
 40
0.5043741684263588
 40
0.5928457776594379
 40
0.6218020637106974
 40
0.6314960542902203
 40
0.644455444979675
 40
0.7480819897970002
 40
0.7606511914997871
 40
0.7732140158319882
 40
0.8231548496737574
 40
0.8659399739607896
 40
0.8704602625768786
 40
0.8940851188699502
 40
0.918390185121189
 40
0.9443537546953111
 40
0.9718207046141679
 40
1.0
 40
1.0
 40
1.0
 40
1.0
 10
107.6866924862493
 20
192.3821076846234
 30
0.0
 10
107.803454624661
 20
192.2872050988578
 30
0.0
 10
108.0361332171493
 20
192.098087287384
 30
0.0
 10
108.3901909052557
 20
191.8236481920735
 30
0.0
 10
108.744966897852
 20
191.557693569398
 30
0.0
 10
109.0993569901018
 20
191.3020845313968
 30
0.0
 10
109.4507130073802
 20
191.0577548699499
 30
0.0
 10
109.9758530944292
 20
190.7055692054623
 30
0.0
 10
110.6497197038829
 20
190.2818636206823
 30
0.0
 10
111.388727613263
 20
189.8567815393344
 30
0.0
 10
112.585569312949
 20
189.2154093235152
 30
0.0
 10
113.7397409953603
 20
188.6877678418514
 30
0.0
 10
114.807005836314
 20
188.2807347723281
 30
0.0
 10
116.2579875026352
 20
187.7556274099865
 30
0.0
 10
118.2178980376873
 20
187.2183294716645
 30
0.0
 10
120.5974645191809
 20
186.8577337695564
 30
0.0
 10
122.0794825962946
 20
186.7365485522162
 30
0.0
 10
122.9845171560068
 20
186.7059452761904
 30
0.0
 10
123.4394358056671
 20
186.7028509881652
 30
0.0
 10
123.5650650587094
 20
186.702863986778
 30
0.0
 10
123.6161614282897
 20
186.7029081638807
 30
0.0
 10
124.6778621541143
 20
186.7068431977017
 30
0.0
 10
126.0634380010147
 20
186.7994686791351
 30
0.0
 10
127.5043015155
 20
187.0140551399419
 30
0.0
 10
128.0867362227072
 20
187.1165357933527
 30
0.0
 10
129.5076042395067
 20
187.3892915580961
 30
0.0
 10
130.9404609359217
 20
187.7859572642618
 30
0.0
 10
132.3258314748362
 20
188.2917838215365
 30
0.0
 10
133.1285082226215
 20
188.6003937987462
 30
0.0
 10
134.2353945450656
 20
189.0816696517078
 30
0.0
 10
135.2269275358875
 20
189.5902353199349
 30
0.0
 10
135.9372122697629
 20
189.9842628580268
 30
0.0
 10
136.4567873335801
 20
190.2858125760974
 30
0.0
 10
137.174515674754
 20
190.7341900230793
 30
0.0
 10
137.9124553784519
 20
191.2321374559123
 30
0.0
 10
138.6688346327389
 20
191.7813244178134
 30
0.0
 10
139.1657420170663
 20
192.1801852137673
 30
0.0
 10
139.4173762447792
 20
192.3821685843519
 30
0.0
  0
SPLINE
  5
163
330
1F
100
AcDbEntity
  8
0
  6
Continuous
 62
     7
370
    15
100
AcDbSpline
210
0.0
220
0.0
230
1.0
 70
     8
 71
     3
 72
    21
 73
    17
 74
     0
 42
0.000000001
 43
0.00000001
 12
1.0
 22
0.0
 32
0.0
 13
1.0
 23
0.0
 33
0.0
 40
0.0
 40
0.0
 40
0.0
 40
0.0
 40
0.0309084594669681
 40
0.0622001077138364
 40
0.0939125571282403
 40
0.1260791534221006
 40
0.1870924770904235
 40
0.2515496353217422
 40
0.3763605012194864
 40
0.5015773560069889
 40
0.6260963434843019
 40
0.7512462969875666
 40
0.8248939542869312
 40
0.8753059907103117
 40
0.9414385177895344
 40
1.0
 40
1.0
 40
1.0
 40
1.0
 10
105.8441222222122
 20
194.0554485876286
 30
0.0
 10
105.846000760629
 20
194.0535557656914
 30
0.0
 10
105.8497811267128
 20
194.0497466554864
 30
0.0
 10
105.8626564700874
 20
194.036811890943
 30
0.0
 10
105.8808971249559
 20
194.0185898207259
 30
0.0
 10
105.9121026473643
 20
193.9874907029017
 30
0.0
 10
105.9638786631907
 20
193.9359370773832
 30
0.0
 10
106.0692547830729
 20
193.8321120903858
 30
0.0
 10
106.239132131983
 20
193.6668549467103
 30
0.0
 10
106.4826966139977
 20
193.4359119248197
 30
0.0
 10
106.7565120587666
 20
193.1836840528205
 30
0.0
 10
107.0118174519697
 20
192.9555309848314
 30
0.0
 10
107.2173556967065
 20
192.7770625734606
 30
0.0
 10
107.3773677865335
 20
192.6399111884211
 30
0.0
 10
107.5272994527636
 20
192.5136698099611
 30
0.0
 10
107.6357098000972
 20
192.4241786790718
 30
0.0
 10
107.6866237987966
 20
192.3821499296602
 30
0.0
  0
SPLINE
  5
164
330
1F
100
AcDbEntity
  8
0
  6
Continuous
 62
     7
370
    15
100
AcDbSpline
210
0.0
220
0.0
230
1.0
 70
     8
 71
     3
 72
    10
 73
     6
 74
     0
 42
0.000000001
 43
0.00000001
 12
1.0
 22
0.0
 32
0.0
 13
1.0
 23
0.0
 33
0.0
 40
0.0
 40
0.0
 40
0.0
 40
0.0
 40
0.5
 40
0.5
 40
1.0
 40
1.0
 40
1.0
 40
1.0
 10
103.6750431561481
 20
202.65976680305
 30
0.0
 10
104.3679050584207
 20
201.3535118034993
 30
0.0
 10
104.9128245164576
 20
199.9444590549024
 30
0.0
 10
105.6463585230656
 20
197.0346681392982
 30
0.0
 10
105.834671990894
 20
195.5351243027543
 30
0.0
 10
105.8441199743735
 20
194.0554485791336
 30
0.0
  0
SPLINE
  5
165
330
1F
100
AcDbEntity
  8
0
  6
Continuous
 62
     7
370
    15
100
AcDbSpline
210
0.0
220
0.0
230
1.0
 70
     8
 71
     3
 72
    34
 73
    30
 74
     0
 42
0.000000001
 43
0.00000001
 12
1.0
 22
0.0
 32
0.0
 13
1.0
 23
0.0
 33
0.0
 40
0.0
 40
0.0
 40
0.0
 40
0.0
 40
0.0156250000000008
 40
0.0156250000000008
 40
0.0234375000000008
 40
0.0234375000000008
 40
0.0312500000000009
 40
0.0312500000000009
 40
0.0468750000000012
 40
0.0468750000000012
 40
0.0546875000000013
 40
0.0546875000000013
 40
0.0625000000000014
 40
0.0625000000000014
 40
0.0781250000000017
 40
0.0781250000000017
 40
0.0820312500000018
 40
0.0820312500000018
 40
0.0859375000000019
 40
0.0859375000000019
 40
0.093750000000002
 40
0.093750000000002
 40
0.1250000000000021
 40
0.1250000000000021
 40
0.250000000000002
 40
0.250000000000002
 40
0.5000000000000013
 40
0.5000000000000013
 40
1.0
 40
1.0
 40
1.0
 40
1.0
 10
135.6209227322419
 20
82.01201265786199
 30
0.0
 10
136.0822643374857
 20
82.2267667457878
 30
0.0
 10
136.5050315739757
 20
82.49494767796067
 30
0.0
 10
137.0783853319595
 20
82.9654462538621
 30
0.0
 10
137.2592847862765
 20
83.1334055997999
 30
0.0
 10
137.5983112183991
 20
83.49175445516016
 30
0.0
 10
137.7563843107748
 20
83.68232026825997
 30
0.0
 10
138.1860843703926
 20
84.2772839298031
 30
0.0
 10
138.4200380487235
 20
84.71049206639958
 30
0.0
 10
138.6909642240471
 20
85.41043171333926
 30
0.0
 10
138.7662250967744
 20
85.64797526625645
 30
0.0
 10
138.8809629026536
 20
86.11396894058193
 30
0.0
 10
138.9197124077145
 20
86.33810796972755
 30
0.0
 10
138.9969280379198
 20
87.06156441780885
 30
0.0
 10
138.9947772856173
 20
87.60517001484858
 30
0.0
 10
138.9935412612019
 20
88.35041359212117
 30
0.0
 10
138.9938312721012
 20
88.50263539816693
 30
0.0
 10
138.9956677496591
 20
88.8040653231994
 30
0.0
 10
138.9971683084351
 20
88.95324120294072
 30
0.0
 10
139.0022665563477
 20
89.3986976516704
 30
0.0
 10
139.0061027495448
 20
89.69162693787513
 30
0.0
 10
139.0229772994251
 20
91.15719583768987
 30
0.0
 10
139.0315048049125
 20
92.33393128089803
 30
0.0
 10
139.0707009338743
 20
98.21667654121495
 30
0.0
 10
139.0992884455196
 20
102.9264986447586
 30
0.0
 10
139.1788090138357
 20
117.0509783931983
 30
0.0
 10
139.2217200254506
 20
126.467352020211
 30
0.0
 10
139.3309379358411
 20
154.7165455274235
 30
0.0
 10
139.3768658631836
 20
173.5494534052655
 30
0.0
 10
139.4174330598989
 20
192.3821909376569
 30
0.0
  0
SPLINE
  5
166
330
1F
100
AcDbEntity
  8
0
  6
Continuous
 62
     7
370
    15
100
AcDbSpline
210
0.0
220
0.0
230
1.0
 70
     8
 71
     3
 72
    40
 73
    36
 74
     0
 42
0.000000001
 43
0.00000001
 12
1.0
 22
0.0
 32
0.0
 13
1.0
 23
0.0
 33
0.0
 40
0.0
 40
0.0
 40
0.0
 40
0.0
 40
0.4999999999999917
 40
0.4999999999999917
 40
0.7499999999999878
 40
0.7499999999999878
 40
0.8749999999999856
 40
0.8749999999999856
 40
0.9062499999999851
 40
0.9062499999999851
 40
0.9140624999999851
 40
0.9140624999999851
 40
0.9179687499999853
 40
0.9179687499999853
 40
0.9218749999999855
 40
0.9218749999999855
 40
0.9374999999999876
 40
0.9374999999999876
 40
0.9414062499999883
 40
0.9414062499999883
 40
0.9453124999999891
 40
0.9453124999999891
 40
0.9531249999999907
 40
0.9531249999999907
 40
0.9609374999999922
 40
0.9609374999999922
 40
0.9687499999999938
 40
0.9687499999999938
 40
0.9765624999999953
 40
0.9765624999999953
 40
0.9843749999999969
 40
0.9843749999999969
 40
0.9921874999999984
 40
0.9921874999999984
 40
1.0
 40
1.0
 40
1.0
 40
1.0
 10
107.6866238471664
 20
192.382127587946
 30
0.0
 10
107.7274666541864
 20
173.5170578011339
 30
0.0
 10
107.7736723630442
 20
154.6518169783788
 30
0.0
 10
107.8832635140844
 20
126.3541233048716
 30
0.0
 10
107.9262890832864
 20
116.921582743286
 30
0.0
 10
108.0059887042427
 20
102.7728529729156
 30
0.0
 10
108.0343607997042
 20
98.05461195126608
 30
0.0
 10
108.0739744200533
 20
92.16227783992417
 30
0.0
 10
108.0825962483157
 20
90.9843922121527
 30
0.0
 10
108.1002862780699
 20
89.51553718202086
 30
0.0
 10
108.1042755524186
 20
89.22120770541235
 30
0.0
 10
108.1086960797719
 20
88.772798349455
 30
0.0
 10
108.1098599563917
 20
88.62232429172296
 30
0.0
 10
108.1106472397135
 20
88.31996210175257
 30
0.0
 10
108.1102837723475
 20
88.16883952948923
 30
0.0
 10
108.1087919525298
 20
87.43646226150945
 30
0.0
 10
108.1138240039613
 20
86.90202002255876
 30
0.0
 10
108.1923934392845
 20
86.3108180077495
 30
0.0
 10
108.2115613875397
 20
86.19712243833663
 30
0.0
 10
108.2586498342709
 20
85.96721891338707
 30
0.0
 10
108.2863012555584
 20
85.85235088350845
 30
0.0
 10
108.380951713767
 20
85.5083926640662
 30
0.0
 10
108.4594586998941
 20
85.27975440738375
 30
0.0
 10
108.6437747686935
 20
84.8329465118658
 30
0.0
 10
108.7501651421298
 20
84.61410448012957
 30
0.0
 10
108.9867226581823
 20
84.19603745514543
 30
0.0
 10
109.1164482252669
 20
83.99709146533219
 30
0.0
 10
109.3990639825735
 20
83.61890463435712
 30
0.0
 10
109.5528261071562
 20
83.4385301945455
 30
0.0
 10
109.8876056111316
 20
83.09276026810991
 30
0.0
 10
110.0673430973266
 20
82.92878086464678
 30
0.0
 10
110.4432653251821
 20
82.6259096928425
 30
0.0
 10
110.6397103801371
 20
82.48656929517092
 30
0.0
 10
111.0461889065555
 20
82.232525822379
 30
0.0
 10
111.2572619538687
 20
82.11712097951443
 30
0.0
 10
111.483038175588
 20
82.01202140641689
 30
0.0
  0
SPLINE
  5
167
330
1F
100
AcDbEntity
  8
0
  6
Continuous
 62
     7
370
    15
100
AcDbSpline
210
0.0
220
0.0
230
1.0
 70
     8
 71
     3
 72
    34
 73
    30
 74
     0
 42
0.000000001
 43
0.00000001
 12
1.0
 22
0.0
 32
0.0
 13
1.0
 23
0.0
 33
0.0
 40
0.0
 40
0.0
 40
0.0
 40
0.0
 40
0.0078125
 40
0.0078125
 40
0.015625
 40
0.015625
 40
0.0234374999999999
 40
0.0234374999999999
 40
0.0312499999999999
 40
0.0312499999999999
 40
0.0390624999999999
 40
0.0390624999999999
 40
0.0468749999999999
 40
0.0468749999999999
 40
0.0546874999999998
 40
0.0546874999999998
 40
0.0624999999999998
 40
0.0624999999999998
 40
0.0781249999999998
 40
0.0781249999999998
 40
0.0937499999999997
 40
0.0937499999999997
 40
0.1249999999999996
 40
0.1249999999999996
 40
0.2499999999999996
 40
0.2499999999999996
 40
0.4999999999999999
 40
0.4999999999999999
 40
1.0
 40
1.0
 40
1.0
 40
1.0
 10
110.9690952390032
 20
80.83600230176788
 30
0.0
 10
110.6865521235472
 20
80.96426092691064
 30
0.0
 10
110.4235144388531
 20
81.1049066477254
 30
0.0
 10
109.9169843109034
 20
81.4159010592961
 30
0.0
 10
109.6721847185599
 20
81.58717600666427
 30
0.0
 10
109.2030508793667
 20
81.961241335791
 30
0.0
 10
108.9782761404038
 20
82.16465826838021
 30
0.0
 10
108.5587138400147
 20
82.5963932771743
 30
0.0
 10
108.3649911564321
 20
82.82369534506617
 30
0.0
 10
108.0089661827693
 20
83.30177292172804
 30
0.0
 10
107.8464840601008
 20
83.55285565715995
 30
0.0
 10
107.5527062039103
 20
84.07773486555678
 30
0.0
 10
107.4219267256567
 20
84.35112816237603
 30
0.0
 10
107.1973488016404
 20
84.90670140619527
 30
0.0
 10
107.1024185194462
 20
85.19005144438727
 30
0.0
 10
106.9494245827222
 20
85.76908300277364
 30
0.0
 10
106.8926525295057
 20
86.06581370017999
 30
0.0
 10
106.7850830206526
 20
86.96463168238108
 30
0.0
 10
106.7892661370109
 20
87.5658501702557
 30
0.0
 10
106.7902541355948
 20
88.7625329020053
 30
0.0
 10
106.780203227776
 20
89.36060380351448
 30
0.0
 10
106.7574695652098
 20
91.15565147005347
 30
0.0
 10
106.7472500450385
 20
92.35227229637634
 30
0.0
 10
106.6983786518724
 20
98.3347916961964
 30
0.0
 10
106.6583566923198
 20
103.1205037997921
 30
0.0
 10
106.5359330045045
 20
117.4785615823969
 30
0.0
 10
106.4523313099394
 20
127.0505531534987
 30
0.0
 10
106.1961862794682
 20
155.7667382057585
 30
0.0
 10
106.0193124130802
 20
174.9110823697216
 30
0.0
 10
105.8441222222177
 20
194.0554485849003
 30
0.0
  0
SPLINE
  5
168
330
1F
100
AcDbEntity
  8
0
  6
Continuous
 62
     7
370
    15
100
AcDbSpline
210
0.0
220
0.0
230
1.0
 70
     8
 71
     3
 72
    32
 73
    28
 74
     0
 42
0.000000001
 43
0.00000001
 12
1.0
 22
0.0
 32
0.0
 13
1.0
 23
0.0
 33
0.0
 40
0.0
 40
0.0
 40
0.0
 40
0.0
 40
0.4999999999999986
 40
0.4999999999999986
 40
0.749999999999998
 40
0.749999999999998
 40
0.8749999999999979
 40
0.8749999999999979
 40
0.9062499999999979
 40
0.9062499999999979
 40
0.921874999999998
 40
0.921874999999998
 40
0.9374999999999984
 40
0.9374999999999984
 40
0.9453124999999986
 40
0.9453124999999986
 40
0.9531249999999988
 40
0.9531249999999988
 40
0.960937499999999
 40
0.960937499999999
 40
0.9687499999999992
 40
0.9687499999999992
 40
0.9765624999999994
 40
0.9765624999999994
 40
0.9843749999999996
 40
0.9843749999999996
 40
1.0
 40
1.0
 40
1.0
 40
1.0
 10
141.2598552331634
 20
194.0554463351029
 30
0.0
 10
141.0849531063274
 20
174.9434276385617
 30
0.0
 10
140.9083754011535
 20
155.8314313192573
 30
0.0
 10
140.6526267604031
 20
127.1637669519366
 30
0.0
 10
140.5691460540471
 20
117.6079513884275
 30
0.0
 10
140.4469076960459
 20
103.274152314012
 30
0.0
 10
140.4067145128791
 20
98.49648292175182
 30
0.0
 10
140.3581969405141
 20
92.52412724135723
 30
0.0
 10
140.3481099985875
 20
91.32953259311469
 30
0.0
 10
140.326216439528
 20
89.53749459945509
 30
0.0
 10
140.3150441800787
 20
88.94051357765014
 30
0.0
 10
140.3133255604585
 20
87.74511858339714
 30
0.0
 10
140.3234980783321
 20
87.14549610191501
 30
0.0
 10
140.2387000638299
 20
86.25222249773373
 30
0.0
 10
140.1921738493091
 20
85.95481497466787
 30
0.0
 10
140.0536410487612
 20
85.36426786265936
 30
0.0
 10
139.9630658136675
 20
85.06983037319701
 30
0.0
 10
139.743501254991
 20
84.48976691961163
 30
0.0
 10
139.6155916573132
 20
84.20769361908897
 30
0.0
 10
139.3261872041474
 20
83.66591663388579
 30
0.0
 10
139.1643795322897
 20
83.40520591063944
 30
0.0
 10
138.8041162492166
 20
82.9041894044624
 30
0.0
 10
138.6047354195501
 20
82.66350014877017
 30
0.0
 10
138.1790742432523
 20
82.21488158259868
 30
0.0
 10
137.9528383191674
 20
82.00645789904345
 30
0.0
 10
137.2373776737
 20
81.42529629436396
 30
0.0
 10
136.7119096097756
 20
81.09793917843488
 30
0.0
 10
136.1348847686923
 20
80.83600244068595
 30
0.0
  0
SPLINE
  5
169
330
1F
100
AcDbEntity
  8
0
  6
Continuous
 62
     7
370
    15
100
AcDbSpline
210
0.0
220
0.0
230
1.0
 70
     8
 71
     3
 72
    20
 73
    16
 74
     0
 42
0.000000001
 43
0.00000001
 12
1.0
 22
0.0
 32
0.0
 13
1.0
 23
0.0
 33
0.0
 40
0.0
 40
0.0
 40
0.0
 40
0.0
 40
0.125
 40
0.125
 40
0.1875
 40
0.1875
 40
0.25
 40
0.25
 40
0.3125
 40
0.3125
 40
0.375
 40
0.375
 40
0.5
 40
0.5
 40
1.0
 40
1.0
 40
1.0
 40
1.0
 10
111.4831621890111
 20
82.0122883069834
 30
0.0
 10
111.8804814620438
 20
81.82784137132188
 30
0.0
 10
112.295386942507
 20
81.6855925693993
 30
0.0
 10
112.9208321785219
 20
81.54997931987884
 30
0.0
 10
113.1316414696199
 20
81.51733238927153
 30
0.0
 10
113.5538667892839
 20
81.47778330026262
 30
0.0
 10
113.7868239881139
 20
81.46986553443308
 30
0.0
 10
114.2879006138863
 20
81.46406432844374
 30
0.0
 10
114.5606235293018
 20
81.46437543044527
 30
0.0
 10
115.0926199069224
 20
81.46318906476604
 30
0.0
 10
115.3582011610145
 20
81.46279068613687
 30
0.0
 10
116.1541287040824
 20
81.46193305956534
 30
0.0
 10
116.6836619502834
 20
81.46173975812809
 30
0.0
 10
119.3303376338892
 20
81.45969942744297
 30
0.0
 10
121.441794349088
 20
81.45514577720716
 30
0.0
 10
123.5506283293759
 20
81.45515416745485
 30
0.0
  0
SPLINE
  5
16A
330
1F
100
AcDbEntity
  8
0
  6
Continuous
 62
     7
370
    15
100
AcDbSpline
210
0.0
220
0.0
230
1.0
 70
     8
 71
     3
 72
    20
 73
    16
 74
     0
 42
0.000000001
 43
0.00000001
 12
1.0
 22
0.0
 32
0.0
 13
1.0
 23
0.0
 33
0.0
 40
0.0
 40
0.0
 40
0.0
 40
0.0
 40
0.4999999999999989
 40
0.4999999999999989
 40
0.6249999999999988
 40
0.6249999999999988
 40
0.687499999999999
 40
0.687499999999999
 40
0.7499999999999992
 40
0.7499999999999992
 40
0.8124999999999994
 40
0.8124999999999994
 40
0.8749999999999996
 40
0.8749999999999996
 40
1.0
 40
1.0
 40
1.0
 40
1.0
 10
123.5534048338989
 20
81.4551541798233
 30
0.0
 10
125.6623504375418
 20
81.45516457957952
 30
0.0
 10
127.7729784248261
 20
81.45944069444727
 30
0.0
 10
130.4208502771473
 20
81.46166542135855
 30
0.0
 10
130.9493688872959
 20
81.4618277663986
 30
0.0
 10
131.7456981681122
 20
81.4626203815576
 30
0.0
 10
132.0116179676101
 20
81.46302842785185
 30
0.0
 10
132.5439138855403
 20
81.46428471965916
 30
0.0
 10
132.8159947326898
 20
81.46398546601658
 30
0.0
 10
133.3170277641742
 20
81.46971399731662
 30
0.0
 10
133.5503768311863
 20
81.47772531499132
 30
0.0
 10
133.9720628482481
 20
81.51712491106089
 30
0.0
 10
134.1828290943826
 20
81.54961875087055
 30
0.0
 10
134.8080910687457
 20
81.68546839121957
 30
0.0
 10
135.2234697938111
 20
81.82792083811182
 30
0.0
 10
135.6207918403749
 20
82.01229520691697
 30
0.0
  0
SPLINE
  5
16B
330
1F
100
AcDbEntity
  8
0
  6
Continuous
 62
     7
370
    15
100
AcDbSpline
210
0.0
220
0.0
230
1.0
 70
     8
 71
     3
 72
    20
 73
    16
 74
     0
 42
0.000000001
 43
0.00000001
 12
1.0
 22
0.0
 32
0.0
 13
1.0
 23
0.0
 33
0.0
 40
0.0
 40
0.0
 40
0.0
 40
0.0
 40
0.1250000000000002
 40
0.1250000000000002
 40
0.1875000000000001
 40
0.1875000000000001
 40
0.2500000000000001
 40
0.2500000000000001
 40
0.3125
 40
0.3125
 40
0.3749999999999999
 40
0.3749999999999999
 40
0.4999999999999999
 40
0.4999999999999999
 40
1.0
 40
1.0
 40
1.0
 40
1.0
 10
136.1346426144104
 20
80.8358921797589
 30
0.0
 10
135.6539707469879
 20
80.61771806394951
 30
0.0
 10
135.1515024184029
 20
80.4529752491662
 30
0.0
 10
134.3808655094808
 20
80.29546676456664
 30
0.0
 10
134.1212458974792
 20
80.25807376422637
 30
0.0
 10
133.59031828745
 20
80.2143390010714
 30
0.0
 10
133.323809651623
 20
80.20909571392149
 30
0.0
 10
132.7942839839367
 20
80.20809343120008
 30
0.0
 10
132.531560556033
 20
80.21067116610945
 30
0.0
 10
132.0034637784446
 20
80.21292023843893
 30
0.0
 10
131.7390635399419
 20
80.21381852720089
 30
0.0
 10
130.946442448595
 20
80.21593638314573
 30
0.0
 10
130.4193730129655
 20
80.2165833182335
 30
0.0
 10
127.7779140087761
 20
80.21737806001303
 30
0.0
 10
125.6662267463758
 20
80.20998445194586
 30
0.0
 10
123.5533796482344
 20
80.20998378265412
 30
0.0
  0
SPLINE
  5
16C
330
1F
100
AcDbEntity
  8
0
  6
Continuous
 62
     7
370
    15
100
AcDbSpline
210
0.0
220
0.0
230
1.0
 70
     8
 71
     3
 72
    20
 73
    16
 74
     0
 42
0.000000001
 43
0.00000001
 12
1.0
 22
0.0
 32
0.0
 13
1.0
 23
0.0
 33
0.0
 40
0.0
 40
0.0
 40
0.0
 40
0.0
 40
0.5000000000000009
 40
0.5000000000000009
 40
0.6250000000000011
 40
0.6250000000000011
 40
0.6875000000000012
 40
0.6875000000000012
 40
0.7500000000000013
 40
0.7500000000000013
 40
0.8125000000000014
 40
0.8125000000000014
 40
0.8750000000000016
 40
0.8750000000000016
 40
1.0
 40
1.0
 40
1.0
 40
1.0
 10
123.55060005345
 20
80.20998378426656
 30
0.0
 10
121.4384510715584
 20
80.20998690223568
 30
0.0
 10
119.3250114707684
 20
80.21736961236373
 30
0.0
 10
116.6851175711819
 20
80.2165821945178
 30
0.0
 10
116.1571501208157
 20
80.21593314318979
 30
0.0
 10
115.3647714479104
 20
80.21381611509884
 30
0.0
 10
115.1006139677123
 20
80.21291934469099
 30
0.0
 10
114.572648468269
 20
80.2106740296388
 30
0.0
 10
114.3091723808548
 20
80.2080937028855
 30
0.0
 10
113.7798460058972
 20
80.20910921217455
 30
0.0
 10
113.5141513327749
 20
80.21431178173988
 30
0.0
 10
112.9825055040771
 20
80.25809373154044
 30
0.0
 10
112.7230702107128
 20
80.29547746726026
 30
0.0
 10
111.9522560602587
 20
80.45303036690906
 30
0.0
 10
111.4500362164696
 20
80.61770746762795
 30
0.0
 10
110.9693547681499
 20
80.83588423078797
 30
0.0
  0
CIRCLE
  5
16D
330
1F
100
AcDbEntity
  8
0
  6
Continuous
 62
     7
370
    15
100
AcDbCircle
 10
157.7519898508
 20
213.2028683437
 30
0.0
 40
4.000000000000085
  0
CIRCLE
  5
16E
330
1F
100
AcDbEntity
  8
0
  6
Continuous
 62
     7
370
    15
100
AcDbCircle
 10
157.7519898508
 20
213.2028683437
 30
0.0
 40
3.000000000000028
  0
LINE
  5
16F
330
1F
100
AcDbEntity
  8
0
  6
Continuous
 62
     7
370
    15
100
AcDbLine
 10
147.2519898508
 20
206.2028683437
 30
0.0
 11
147.2519898508
 21
220.202868254
 31
0.0
  0
LINE
  5
170
330
1F
100
AcDbEntity
  8
0
  6
Continuous
 62
     7
370
    15
100
AcDbLine
 10
164.7519898508
 20
220.2028683437
 30
0.0
 11
164.7519898508
 21
206.2028684334
 31
0.0
  0
LINE
  5
171
330
1F
100
AcDbEntity
  8
0
  6
Continuous
 62
     7
370
    15
100
AcDbLine
 10
165.4519898508
 20
215.5028683437
 30
0.0
 11
165.4519898508
 21
213.6028683437
 31
0.0
  0
SPLINE
  5
172
330
1F
100
AcDbEntity
  8
0
  6
Continuous
 62
     7
370
    15
100
AcDbSpline
210
0.0
220
0.0
230
1.0
 70
    24
 71
     3
 72
    12
 73
     8
 74
     0
 42
0.000000001
 43
0.00000001
 12
1.0
 22
0.0
 32
0.0
 13
1.0
 23
0.0
 33
0.0
 40
0.0
 40
0.0
 40
0.0
 40
0.0
 40
0.2499999999999967
 40
0.2499999999999967
 40
0.4999999999999933
 40
0.4999999999999933
 40
1.0
 40
1.0
 40
1.0
 40
1.0
 10
165.4519898508352
 20
213.6028683437053
 30
0.0
 10
165.4519898508352
 20
213.6028683437053
 30
0.0
 10
165.4341718097504
 20
213.6028683437053
 30
0.0
 10
165.3647072141096
 20
213.6028683437053
 30
0.0
 10
165.3132304062634
 20
213.6028683437053
 30
0.0
 10
165.1200368423634
 20
213.6028683437053
 30
0.0
 10
164.9380479743417
 20
213.6028683437053
 30
0.0
 10
164.7519898508352
 20
213.6028683437053
 30
0.0
  0
LINE
  5
173
330
1F
100
AcDbEntity
  8
0
  6
Continuous
 62
     7
370
    15
100
AcDbLine
 10
165.4519898508
 20
212.8028683437
 30
0.0
 11
165.4519898508
 21
210.8028683437
 31
0.0
  0
SPLINE
  5
174
330
1F
100
AcDbEntity
  8
0
  6
Continuous
 62
     7
370
    15
100
AcDbSpline
210
0.0
220
0.0
230
1.0
 70
    24
 71
     3
 72
    10
 73
     6
 74
     0
 42
0.000000001
 43
0.00000001
 12
1.0
 22
0.0
 32
0.0
 13
1.0
 23
0.0
 33
0.0
 40
0.0
 40
0.0
 40
0.0
 40
0.0
 40
0.5
 40
0.5
 40
1.0
 40
1.0
 40
1.0
 40
1.0
 10
164.8519898508353
 20
212.8028683437053
 30
0.0
 10
165.0113887084479
 20
212.8028683437053
 30
0.0
 10
165.1670804007566
 20
212.8028683437053
 30
0.0
 10
165.3878236807237
 20
212.8028683437053
 30
0.0
 10
165.4519898508352
 20
212.8028683437053
 30
0.0
 10
165.4519898508352
 20
212.8028683437053
 30
0.0
  0
LINE
  5
175
330
1F
100
AcDbEntity
  8
0
  6
Continuous
 62
     7
370
    15
100
AcDbLine
 10
164.8519898508
 20
212.8028683437
 30
0.0
 11
164.7519898508
 21
212.8028683437
 31
0.0
  0
SPLINE
  5
176
330
1F
100
AcDbEntity
  8
0
  6
Continuous
 62
     8
370
    15
100
AcDbSpline
210
0.0
220
0.0
230
1.0
 70
     8
 71
     3
 72
     9
 73
     5
 74
     0
 42
0.000000001
 43
0.00000001
 12
1.0
 22
0.0
 32
0.0
 13
1.0
 23
0.0
 33
0.0
 40
0.0
 40
0.0
 40
0.0
 40
0.0
 40
0.004503302319271
 40
0.9999999999999999
 40
0.9999999999999999
 40
0.9999999999999999
 40
0.9999999999999999
 10
141.4032789384077
 20
194.0554486793139
 30
0.0
 10
141.4034918888903
 20
194.0554486484193
 30
0.0
 10
141.4507795164016
 20
194.0554417879793
 30
0.0
 10
141.3551041025132
 20
194.0554349200937
 30
0.0
 10
141.2598595439381
 20
194.0554280831364
 30
0.0
  0
SPLINE
  5
177
330
1F
100
AcDbEntity
  8
0
  6
Continuous
 62
     8
370
    15
100
AcDbSpline
210
0.0
220
0.0
230
1.0
 70
     8
 71
     3
 72
     9
 73
     5
 74
     0
 42
0.000000001
 43
0.00000001
 12
1.0
 22
0.0
 32
0.0
 13
1.0
 23
0.0
 33
0.0
 40
0.0
 40
0.0
 40
0.0
 40
0.0
 40
0.995489610949046
 40
1.0
 40
1.0
 40
1.0
 40
1.0
 10
105.8441201577324
 20
194.0554280831364
 30
0.0
 10
105.7488759353502
 20
194.0554349200936
 30
0.0
 10
105.6532001780801
 20
194.0554417880278
 30
0.0
 10
105.7004884799399
 20
194.055448648517
 30
0.0
 10
105.7007017685789
 20
194.0554486794605
 30
0.0
  0
LINE
  5
178
330
1F
100
AcDbEntity
  8
0
  6
Continuous
 62
     8
370
    15
100
AcDbLine
 10
123.5500010249
 20
80.1413435893
 30
0.0
 11
123.5506000538
 21
80.2099838261
 31
0.0
  0
LINE
  5
179
330
1F
100
AcDbEntity
  8
0
  6
Continuous
 62
     8
370
    15
100
AcDbLine
 10
164.8519898508
 20
210.2028683437
 30
0.0
 11
164.8519898508
 21
212.8028683437
 31
0.0
  0
ENDSEC
  0
SECTION
  2
OBJECTS
  0
DICTIONARY
  5
C
330
0
100
AcDbDictionary
281
     1
  3
ACAD_DETAILVIEWSTYLE
350
1B5
  3
ACAD_GROUP
350
D
  3
ACAD_LAYOUT
350
1A
  3
ACAD_MATERIAL
350
3B
  3
ACAD_MLEADERSTYLE
350
17B
  3
ACAD_MLINESTYLE
350
17
  3
ACAD_PLOTSETTINGS
350
19
  3
ACAD_PLOTSTYLENAME
350
E
  3
ACAD_SCALELIST
350
17C
  3
ACAD_SECTIONVIEWSTYLE
350
1B6
  3
ACAD_TABLESTYLE
350
17A
  3
ACAD_VISUALSTYLE
350
2A
  3
ACDB_RECOMPOSE_DATA
350
1B2
  3
AcDbVariableDictionary
350
1AE
  3
APPDATA
350
1AA
  0
SUN
  5
1AB
330
29
100
AcDbSun
 90
        1
290
     0
 63
     7
421
 16777215
 40
1.0
291
     1
 91
  2455826
 92
 54000000
292
     0
 70
     2
 71
   256
280
     1
  0
DICTIONARY
  5
1AC
330
1F
100
AcDbDictionary
280
     1
281
     1
  3
DIM_BOUNDING_BOXES_V1
360
1AD
  0
DICTIONARY
  5
1B5
102
{ACAD_REACTORS
330
C
102
}
330
C
100
AcDbDictionary
281
     1
  0
DICTIONARY
  5
D
102
{ACAD_REACTORS
330
C
102
}
330
C
100
AcDbDictionary
281
     1
  0
DICTIONARY
  5
1A
102
{ACAD_REACTORS
330
C
102
}
330
C
100
AcDbDictionary
281
     1
  3
Layout1
350
1E
  3
Layout2
350
26
  3
Model
350
22
  0
DICTIONARY
  5
3B
102
{ACAD_REACTORS
330
C
102
}
330
C
100
AcDbDictionary
281
     1
  3
ByBlock
350
3D
  3
ByLayer
350
3C
  3
Global
350
3E
  0
DICTIONARY
  5
17B
102
{ACAD_REACTORS
330
C
102
}
330
C
100
AcDbDictionary
281
     1
  3
Standard
350
1A9
  0
DICTIONARY
  5
17
102
{ACAD_REACTORS
330
C
102
}
330
C
100
AcDbDictionary
281
     1
  3
Standard
350
18
  0
DICTIONARY
  5
19
102
{ACAD_REACTORS
330
C
102
}
330
C
100
AcDbDictionary
281
     1
  0
ACDBDICTIONARYWDFLT
  5
E
102
{ACAD_REACTORS
330
C
102
}
330
C
100
AcDbDictionary
281
     1
  3
Normal
350
F
100
AcDbDictionaryWithDefault
340
F
  0
DICTIONARY
  5
17C
102
{ACAD_REACTORS
330
C
102
}
330
C
100
AcDbDictionary
281
     1
  3
A0
350
17D
  3
A1
350
17E
  3
A2
350
17F
  3
A3
350
180
  3
A4
350
181
  3
A5
350
182
  3
A6
350
183
  3
A7
350
184
  3
A8
350
185
  3
A9
350
186
  3
B0
350
187
  3
B1
350
188
  3
B2
350
189
  3
B3
350
18A
  3
B4
350
18B
  3
B5
350
18C
  3
B6
350
18D
  3
B7
350
18E
  3
B8
350
18F
  3
B9
350
190
  3
C0
350
191
  3
C1
350
192
  3
C2
350
193
  3
C3
350
194
  3
C4
350
195
  3
C5
350
196
  3
C6
350
197
  3
C7
350
198
  3
C8
350
199
  3
C9
350
19A
  3
D0
350
19B
  3
D1
350
19C
  3
D2
350
19D
  0
DICTIONARY
  5
1B6
102
{ACAD_REACTORS
330
C
102
}
330
C
100
AcDbDictionary
281
     1
  0
DICTIONARY
  5
17A
102
{ACAD_REACTORS
330
C
102
}
330
C
100
AcDbDictionary
281
     1
  3
Standard
350
1A8
  0
DICTIONARY
  5
2A
102
{ACAD_REACTORS
330
C
102
}
330
C
100
AcDbDictionary
281
     1
  3
2dWireframe
350
2F
  3
3D Hidden
350
31
  3
3dWireframe
350
30
  3
Basic
350
32
  3
Brighten
350
36
  3
ColorChange
350
3A
  3
Conceptual
350
34
  3
Dim
350
35
  3
EdgeColorOff
350
1A2
  3
Facepattern
350
39
  3
Flat
350
2B
  3
FlatWithEdges
350
2C
  3
Gouraud
350
2D
  3
GouraudWithEdges
350
2E
  3
Hidden
350
19F
  3
JitterOff
350
1A0
  3
Linepattern
350
38
  3
OverhangOff
350
1A1
  3
Realistic
350
33
  3
Shaded
350
1A7
  3
Shaded with edges
350
1A6
  3
Shades of Gray
350
1A3
  3
Sketchy
350
1A4
  3
Thicken
350
37
  3
Wireframe
350
19E
  3
X-Ray
350
1A5
  0
XRECORD
  5
1B2
102
{ACAD_REACTORS
330
C
102
}
330
C
100
AcDbXrecord
280
     1
 90
        1
330
1A8
  0
DICTIONARY
  5
1AE
102
{ACAD_REACTORS
330
C
102
}
330
C
100
AcDbDictionary
281
     1
  3
CANNOSCALE
350
1AF
  3
CMLEADERSTYLE
350
1B4
  3
CTABLESTYLE
350
1B3
  0
DICTIONARY
  5
1AA
102
{ACAD_REACTORS
330
C
102
}
330
C
100
AcDbDictionary
281
     1
  0
DICTIONARY
  5
1AD
102
{ACAD_REACTORS
330
1AC
102
}
330
1AC
100
AcDbDictionary
281
     1
  0
LAYOUT
  5
1E
102
{ACAD_REACTORS
330
1A
102
}
330
1A
100
AcDbPlotSettings
  1

  2
none_device
  4

  6

 40
0.0
 41
0.0
 42
0.0
 43
0.0
 44
0.0
 45
0.0
 46
0.0
 47
0.0
 48
0.0
 49
0.0
140
0.0
141
0.0
142
1.0
143
1.0
 70
   688
 72
     0
 73
     0
 74
     5
  7

 75
    16
 76
     0
 77
     2
 78
   300
147
1.0
148
0.0
149
0.0
100
AcDbLayout
  1
Layout1
 70
     1
 71
     1
 10
0.0
 20
0.0
 11
420.0
 21
297.0
 12
0.0
 22
0.0
 32
0.0
 14
1.000000000000000E+20
 24
1.000000000000000E+20
 34
1.000000000000000E+20
 15
-1.000000000000000E+20
 25
-1.000000000000000E+20
 35
-1.000000000000000E+20
146
0.0
 13
0.0
 23
0.0
 33
0.0
 16
1.0
 26
0.0
 36
0.0
 17
0.0
 27
1.0
 37
0.0
 76
     0
330
1B
  0
LAYOUT
  5
26
102
{ACAD_REACTORS
330
1A
102
}
330
1A
100
AcDbPlotSettings
  1

  2
none_device
  4

  6

 40
0.0
 41
0.0
 42
0.0
 43
0.0
 44
0.0
 45
0.0
 46
0.0
 47
0.0
 48
0.0
 49
0.0
140
0.0
141
0.0
142
1.0
143
1.0
 70
   688
 72
     0
 73
     0
 74
     5
  7

 75
    16
 76
     0
 77
     2
 78
   300
147
1.0
148
0.0
149
0.0
100
AcDbLayout
  1
Layout2
 70
     1
 71
     2
 10
0.0
 20
0.0
 11
0.0
 21
0.0
 12
0.0
 22
0.0
 32
0.0
 14
0.0
 24
0.0
 34
0.0
 15
0.0
 25
0.0
 35
0.0
146
0.0
 13
0.0
 23
0.0
 33
0.0
 16
1.0
 26
0.0
 36
0.0
 17
0.0
 27
1.0
 37
0.0
 76
     0
330
23
  0
LAYOUT
  5
22
102
{ACAD_REACTORS
330
1A
102
}
330
1A
100
AcDbPlotSettings
  1

  2
none_device
  4

  6

 40
0.0
 41
0.0
 42
0.0
 43
0.0
 44
0.0
 45
0.0
 46
0.0
 47
0.0
 48
0.0
 49
0.0
140
0.0
141
0.0
142
1.0
143
1.0
 70
  1712
 72
     0
 73
     0
 74
     0
  7

 75
     0
 76
     0
 77
     2
 78
   300
147
1.0
148
0.0
149
0.0
100
AcDbLayout
  1
Model
 70
     1
 71
     0
 10
0.0
 20
0.0
 11
594.0
 21
841.0
 12
0.0
 22
0.0
 32
0.0
 14
35.33953294529994
 24
36.92722307970001
 34
0.0
 15
517.6919298245666
 25
404.8343213296
 35
0.1
146
0.0
 13
0.0
 23
0.0
 33
0.0
 16
1.0
 26
0.0
 36
0.0
 17
0.0
 27
1.0
 37
0.0
 76
     0
330
1F
331
29
  0
MATERIAL
  5
3D
102
{ACAD_REACTORS
330
3B
102
}
330
3B
100
AcDbMaterial
  1
ByBlock
 72
     1
 94
      127
  0
MATERIAL
  5
3C
102
{ACAD_REACTORS
330
3B
102
}
330
3B
100
AcDbMaterial
  1
ByLayer
 72
     1
 94
      127
  0
MATERIAL
  5
3E
102
{ACAD_REACTORS
330
3B
102
}
330
3B
100
AcDbMaterial
  1
Global
 72
     1
 94
      127
  0
MLEADERSTYLE
  5
1A9
102
{ACAD_REACTORS
330
17B
102
}
330
17B
100
AcDbMLeaderStyle
179
     2
170
     2
171
     1
172
     0
 90
        2
 40
0.0
 41
0.0
173
     1
 91
-1056964608
340
14
 92
       -2
290
     1
 42
2.0
291
     1
 43
8.0
  3
Standard
341
0
 44
4.0
300

342
11
174
     1
178
     1
175
     1
176
     0
 93
-1056964608
 45
4.0
292
     0
297
     0
 46
4.0
343
0
 94
-1056964608
 47
1.0
 49
1.0
140
1.0
293
     1
141
0.0
294
     1
177
     0
142
1.0
295
     0
296
     0
143
3.75
271
     0
272
     9
273
     9
298
     0
  0
MLINESTYLE
  5
18
102
{ACAD_REACTORS
330
17
102
}
330
17
100
AcDbMlineStyle
  2
Standard
 70
     0
  3

 62
   256
 51
90.0
 52
90.0
 71
     2
 49
0.5
 62
   256
  6
BYLAYER
 49
-0.5
 62
   256
  6
BYLAYER
  0
ACDBPLACEHOLDER
  5
F
102
{ACAD_REACTORS
330
E
102
}
330
E
  0
SCALE
  5
17D
102
{ACAD_REACTORS
330
17C
102
}
330
17C
100
AcDbScale
 70
     0
300
1:1
140
1.0
141
1.0
290
     1
  0
SCALE
  5
17E
102
{ACAD_REACTORS
330
17C
102
}
330
17C
100
AcDbScale
 70
     0
300
1:2
140
1.0
141
2.0
290
     0
  0
SCALE
  5
17F
102
{ACAD_REACTORS
330
17C
102
}
330
17C
100
AcDbScale
 70
     0
300
1:4
140
1.0
141
4.0
290
     0
  0
SCALE
  5
180
102
{ACAD_REACTORS
330
17C
102
}
330
17C
100
AcDbScale
 70
     0
300
1:5
140
1.0
141
5.0
290
     0
  0
SCALE
  5
181
102
{ACAD_REACTORS
330
17C
102
}
330
17C
100
AcDbScale
 70
     0
300
1:8
140
1.0
141
8.0
290
     0
  0
SCALE
  5
182
102
{ACAD_REACTORS
330
17C
102
}
330
17C
100
AcDbScale
 70
     0
300
1:10
140
1.0
141
10.0
290
     0
  0
SCALE
  5
183
102
{ACAD_REACTORS
330
17C
102
}
330
17C
100
AcDbScale
 70
     0
300
1:16
140
1.0
141
16.0
290
     0
  0
SCALE
  5
184
102
{ACAD_REACTORS
330
17C
102
}
330
17C
100
AcDbScale
 70
     0
300
1:20
140
1.0
141
20.0
290
     0
  0
SCALE
  5
185
102
{ACAD_REACTORS
330
17C
102
}
330
17C
100
AcDbScale
 70
     0
300
1:30
140
1.0
141
30.0
290
     0
  0
SCALE
  5
186
102
{ACAD_REACTORS
330
17C
102
}
330
17C
100
AcDbScale
 70
     0
300
1:40
140
1.0
141
40.0
290
     0
  0
SCALE
  5
187
102
{ACAD_REACTORS
330
17C
102
}
330
17C
100
AcDbScale
 70
     0
300
1:50
140
1.0
141
50.0
290
     0
  0
SCALE
  5
188
102
{ACAD_REACTORS
330
17C
102
}
330
17C
100
AcDbScale
 70
     0
300
1:100
140
1.0
141
100.0
290
     0
  0
SCALE
  5
189
102
{ACAD_REACTORS
330
17C
102
}
330
17C
100
AcDbScale
 70
     0
300
2:1
140
2.0
141
1.0
290
     0
  0
SCALE
  5
18A
102
{ACAD_REACTORS
330
17C
102
}
330
17C
100
AcDbScale
 70
     0
300
4:1
140
4.0
141
1.0
290
     0
  0
SCALE
  5
18B
102
{ACAD_REACTORS
330
17C
102
}
330
17C
100
AcDbScale
 70
     0
300
8:1
140
8.0
141
1.0
290
     0
  0
SCALE
  5
18C
102
{ACAD_REACTORS
330
17C
102
}
330
17C
100
AcDbScale
 70
     0
300
10:1
140
10.0
141
1.0
290
     0
  0
SCALE
  5
18D
102
{ACAD_REACTORS
330
17C
102
}
330
17C
100
AcDbScale
 70
     0
300
100:1
140
100.0
141
1.0
290
     0
  0
SCALE
  5
18E
102
{ACAD_REACTORS
330
17C
102
}
330
17C
100
AcDbScale
 70
     0
300
1/128" = 1'-0"
140
0.0078125
141
12.0
290
     0
  0
SCALE
  5
18F
102
{ACAD_REACTORS
330
17C
102
}
330
17C
100
AcDbScale
 70
     0
300
1/64" = 1'-0"
140
0.015625
141
12.0
290
     0
  0
SCALE
  5
190
102
{ACAD_REACTORS
330
17C
102
}
330
17C
100
AcDbScale
 70
     0
300
1/32" = 1'-0"
140
0.03125
141
12.0
290
     0
  0
SCALE
  5
191
102
{ACAD_REACTORS
330
17C
102
}
330
17C
100
AcDbScale
 70
     0
300
1/16" = 1'-0"
140
0.0625
141
12.0
290
     0
  0
SCALE
  5
192
102
{ACAD_REACTORS
330
17C
102
}
330
17C
100
AcDbScale
 70
     0
300
3/32" = 1'-0"
140
0.09375
141
12.0
290
     0
  0
SCALE
  5
193
102
{ACAD_REACTORS
330
17C
102
}
330
17C
100
AcDbScale
 70
     0
300
1/8" = 1'-0"
140
0.125
141
12.0
290
     0
  0
SCALE
  5
194
102
{ACAD_REACTORS
330
17C
102
}
330
17C
100
AcDbScale
 70
     0
300
3/16" = 1'-0"
140
0.1875
141
12.0
290
     0
  0
SCALE
  5
195
102
{ACAD_REACTORS
330
17C
102
}
330
17C
100
AcDbScale
 70
     0
300
1/4" = 1'-0"
140
0.25
141
12.0
290
     0
  0
SCALE
  5
196
102
{ACAD_REACTORS
330
17C
102
}
330
17C
100
AcDbScale
 70
     0
300
3/8" = 1'-0"
140
0.375
141
12.0
290
     0
  0
SCALE
  5
197
102
{ACAD_REACTORS
330
17C
102
}
330
17C
100
AcDbScale
 70
     0
300
1/2" = 1'-0"
140
0.5
141
12.0
290
     0
  0
SCALE
  5
198
102
{ACAD_REACTORS
330
17C
102
}
330
17C
100
AcDbScale
 70
     0
300
3/4" = 1'-0"
140
0.75
141
12.0
290
     0
  0
SCALE
  5
199
102
{ACAD_REACTORS
330
17C
102
}
330
17C
100
AcDbScale
 70
     0
300
1" = 1'-0"
140
1.0
141
12.0
290
     0
  0
SCALE
  5
19A
102
{ACAD_REACTORS
330
17C
102
}
330
17C
100
AcDbScale
 70
     0
300
1-1/2" = 1'-0"
140
1.5
141
12.0
290
     0
  0
SCALE
  5
19B
102
{ACAD_REACTORS
330
17C
102
}
330
17C
100
AcDbScale
 70
     0
300
3" = 1'-0"
140
3.0
141
12.0
290
     0
  0
SCALE
  5
19C
102
{ACAD_REACTORS
330
17C
102
}
330
17C
100
AcDbScale
 70
     0
300
6" = 1'-0"
140
6.0
141
12.0
290
     0
  0
SCALE
  5
19D
102
{ACAD_REACTORS
330
17C
102
}
330
17C
100
AcDbScale
 70
     0
300
1'-0" = 1'-0"
140
12.0
141
12.0
290
     0
  0
TABLESTYLE
  5
1A8
102
{ACAD_REACTORS
330
17A
102
}
102
{ACAD_XDICTIONARY
360
1B0
102
}
330
17A
100
AcDbTableStyle
  3
Standard
 70
     0
 71
     0
 40
0.06
 41
0.06
280
     0
281
     0
  7
Standard
140
4.5
170
     2
 62
     0
 63
   257
283
     0
 90
        4
 91
        0
  1

274
    -2
284
     1
 64
     0
275
    -2
285
     1
 65
     0
276
    -2
286
     1
 66
     0
277
    -2
287
     1
 67
     0
278
    -2
288
     1
 68
     0
279
    -2
289
     1
 69
     0
  7
Standard
140
6.0
170
     5
 62
     0
 63
   257
283
     0
 90
        4
 91
        0
  1

274
    -2
284
     1
 64
     0
275
    -2
285
     1
 65
     0
276
    -2
286
     1
 66
     0
277
    -2
287
     1
 67
     0
278
    -2
288
     1
 68
     0
279
    -2
289
     1
 69
     0
  7
Standard
140
4.5
170
     5
 62
     0
 63
   257
283
     0
 90
        4
 91
        0
  1

274
    -2
284
     1
 64
     0
275
    -2
285
     1
 65
     0
276
    -2
286
     1
 66
     0
277
    -2
287
     1
 67
     0
278
    -2
288
     1
 68
     0
279
    -2
289
     1
 69
     0
  0
VISUALSTYLE
  5
2F
102
{ACAD_REACTORS
330
2A
102
}
330
2A
100
AcDbVisualStyle
  2
2dWireframe
 70
     4
177
     3
291
     0
 70
    58
 90
        0
176
     1
 90
        2
176
     1
 90
        0
176
     1
 90
        0
176
     1
 40
-0.6
176
     1
 40
-30.0
176
     1
 62
     7
420
 16777215
176
     1
 90
        1
176
     1
 90
        4
176
     1
 62
     7
176
     1
 62
   257
176
     1
 90
        1
176
     1
 90
        1
176
     1
 40
1.0
176
     1
 90
        0
176
     1
 62
   257
176
     1
 40
1.0
176
     1
 90
        1
176
     1
 90
        6
176
     1
 90
        2
176
     1
 62
     7
176
     1
 90
        5
176
     1
 90
        0
176
     1
 90
        0
176
     1
290
     0
176
     1
 90
        1
176
     1
 40
0.0
176
     1
 90
        0
176
     1
290
     1
176
     1
290
     1
176
     1
290
     0
176
     1
290
     0
176
     1
290
     0
176
     1
290
     0
176
     1
290
     0
176
     1
290
     0
176
     1
290
     0
176
     1
 90
       50
176
     1
 40
0.0
176
     1
 40
1.0
176
     1
 90
        0
176
     1
 62
    18
420
        0
176
     1
 90
       50
176
     1
 90
        3
176
     1
 62
     5
420
      255
176
     1
290
     0
176
     1
 90
       50
176
     1
 90
       50
176
     1
 90
       50
176
     1
290
     0
176
     1
 90
       50
176
     1
 62
   256
176
     0
 40
1.0
176
     0
 90
        2
176
     1
  1
strokes_ogs.tif
176
     1
290
     0
176
     1
 40
1.0
176
     1
 40
1.0
176
     1
  0
VISUALSTYLE
  5
31
102
{ACAD_REACTORS
330
2A
102
}
330
2A
100
AcDbVisualStyle
  2
3D Hidden
 70
     6
177
     3
291
     0
 70
    58
 90
        1
176
     1
 90
        2
176
     1
 90
        2
176
     1
 90
        0
176
     1
 40
-0.6
176
     1
 40
-30.0
176
     1
 62
     7
420
 16777215
176
     1
 90
        2
176
     1
 90
        2
176
     1
 62
     7
176
     1
 62
   257
176
     1
 90
        2
176
     1
 90
        1
176
     1
 40
40.0
176
     1
 90
        0
176
     1
 62
   257
176
     1
 40
1.0
176
     1
 90
        1
176
     1
 90
        6
176
     1
 90
        2
176
     1
 62
     7
176
     1
 90
        3
176
     1
 90
        0
176
     1
 90
        0
176
     1
290
     0
176
     1
 90
        1
176
     1
 40
0.0
176
     1
 90
        0
176
     1
290
     0
176
     1
290
     1
176
     1
290
     1
176
     1
290
     0
176
     1
290
     0
176
     1
290
     0
176
     1
290
     0
176
     1
290
     0
176
     1
290
     0
176
     1
 90
       50
176
     1
 40
0.0
176
     1
 40
1.0
176
     1
 90
        0
176
     1
 62
    18
420
        0
176
     1
 90
       50
176
     1
 90
        3
176
     1
 62
     5
420
      255
176
     1
290
     0
176
     1
 90
       50
176
     1
 90
       50
176
     1
 90
       50
176
     1
290
     0
176
     1
 90
       50
176
     1
 62
   256
176
     0
 40
1.0
176
     0
 90
        2
176
     1
  1
strokes_ogs.tif
176
     1
290
     0
176
     1
 40
1.0
176
     1
 40
1.0
176
     1
  0
VISUALSTYLE
  5
30
102
{ACAD_REACTORS
330
2A
102
}
330
2A
100
AcDbVisualStyle
  2
3dWireframe
 70
     5
177
     3
291
     0
 70
    58
 90
        0
176
     1
 90
        2
176
     1
 90
        0
176
     1
 90
        0
176
     1
 40
-0.6
176
     1
 40
-30.0
176
     1
 62
     7
420
 16777215
176
     1
 90
        1
176
     1
 90
        4
176
     1
 62
     7
176
     1
 62
   257
176
     1
 90
        1
176
     1
 90
        1
176
     1
 40
1.0
176
     1
 90
        0
176
     1
 62
   257
176
     1
 40
1.0
176
     1
 90
        1
176
     1
 90
        6
176
     1
 90
        2
176
     1
 62
     7
176
     1
 90
        5
176
     1
 90
        0
176
     1
 90
        0
176
     1
290
     0
176
     1
 90
        1
176
     1
 40
0.0
176
     1
 90
        0
176
     1
290
     0
176
     1
290
     1
176
     1
290
     1
176
     1
290
     0
176
     1
290
     0
176
     1
290
     0
176
     1
290
     0
176
     1
290
     0
176
     1
290
     0
176
     1
 90
       50
176
     1
 40
0.0
176
     1
 40
1.0
176
     1
 90
        0
176
     1
 62
    18
420
        0
176
     1
 90
       50
176
     1
 90
        3
176
     1
 62
     5
420
      255
176
     1
290
     0
176
     1
 90
       50
176
     1
 90
       50
176
     1
 90
       50
176
     1
290
     0
176
     1
 90
       50
176
     1
 62
   256
176
     0
 40
1.0
176
     0
 90
        2
176
     1
  1
strokes_ogs.tif
176
     1
290
     0
176
     1
 40
1.0
176
     1
 40
1.0
176
     1
  0
VISUALSTYLE
  5
32
102
{ACAD_REACTORS
330
2A
102
}
330
2A
100
AcDbVisualStyle
  2
Basic
 70
     7
177
     3
291
     1
 70
    58
 90
        1
176
     1
 90
        0
176
     1
 90
        1
176
     1
 90
        0
176
     1
 40
-0.6
176
     1
 40
-30.0
176
     1
 62
     7
420
 16777215
176
     1
 90
        0
176
     1
 90
        4
176
     1
 62
     7
176
     1
 62
   257
176
     1
 90
        1
176
     1
 90
        1
176
     1
 40
1.0
176
     1
 90
        8
176
     1
 62
     7
176
     1
 40
1.0
176
     1
 90
        1
176
     1
 90
        6
176
     1
 90
        2
176
     1
 62
     7
176
     1
 90
        5
176
     1
 90
        0
176
     1
 90
        0
176
     1
290
     0
176
     1
 90
        1
176
     1
 40
0.0
176
     1
 90
        0
176
     1
290
     0
176
     1
290
     1
176
     1
290
     1
176
     1
290
     0
176
     1
290
     0
176
     1
290
     0
176
     1
290
     0
176
     1
290
     0
176
     1
290
     0
176
     1
 90
       50
176
     1
 40
0.0
176
     1
 40
1.0
176
     1
 90
        0
176
     1
 62
    18
420
        0
176
     1
 90
       50
176
     1
 90
        3
176
     1
 62
     5
420
      255
176
     1
290
     0
176
     1
 90
       50
176
     1
 90
       50
176
     1
 90
       50
176
     1
290
     0
176
     1
 90
       50
176
     1
 62
   256
176
     0
 40
1.0
176
     0
 90
        2
176
     1
  1
strokes_ogs.tif
176
     1
290
     0
176
     1
 40
1.0
176
     1
 40
1.0
176
     1
  0
VISUALSTYLE
  5
36
102
{ACAD_REACTORS
330
2A
102
}
330
2A
100
AcDbVisualStyle
  2
Brighten
 70
    12
177
     3
291
     1
 70
    58
 90
        2
176
     1
 90
        2
176
     1
 90
        0
176
     1
 90
        0
176
     1
 40
-0.6
176
     1
 40
-30.0
176
     1
 62
     7
420
 16777215
176
     1
 90
        1
176
     1
 90
        4
176
     1
 62
     7
176
     1
 62
   257
176
     1
 90
        1
176
     1
 90
        1
176
     1
 40
1.0
176
     1
 90
        8
176
     1
 62
     7
176
     1
 40
1.0
176
     1
 90
        1
176
     1
 90
        6
176
     1
 90
        2
176
     1
 62
     7
176
     1
 90
        5
176
     1
 90
        0
176
     1
 90
        0
176
     1
290
     0
176
     1
 90
        1
176
     1
 40
50.0
176
     1
 90
        0
176
     1
290
     0
176
     1
290
     1
176
     1
290
     1
176
     1
290
     0
176
     1
290
     0
176
     1
290
     0
176
     1
290
     0
176
     1
290
     0
176
     1
290
     0
176
     1
 90
       50
176
     1
 40
0.0
176
     1
 40
1.0
176
     1
 90
        0
176
     1
 62
    18
420
        0
176
     1
 90
       50
176
     1
 90
        3
176
     1
 62
     5
420
      255
176
     1
290
     0
176
     1
 90
       50
176
     1
 90
       50
176
     1
 90
       50
176
     1
290
     0
176
     1
 90
       50
176
     1
 62
   256
176
     0
 40
1.0
176
     0
 90
        2
176
     1
  1
strokes_ogs.tif
176
     1
290
     0
176
     1
 40
1.0
176
     1
 40
1.0
176
     1
  0
VISUALSTYLE
  5
3A
102
{ACAD_REACTORS
330
2A
102
}
330
2A
100
AcDbVisualStyle
  2
ColorChange
 70
    16
177
     3
291
     1
 70
    58
 90
        2
176
     1
 90
        2
176
     1
 90
        3
176
     1
 90
        0
176
     1
 40
-0.6
176
     1
 40
-30.0
176
     1
 62
     8
420
  8421504
176
     1
 90
        1
176
     1
 90
        4
176
     1
 62
     7
176
     1
 62
   257
176
     1
 90
        1
176
     1
 90
        1
176
     1
 40
1.0
176
     1
 90
        8
176
     1
 62
     8
420
  8421504
176
     1
 40
1.0
176
     1
 90
        1
176
     1
 90
        6
176
     1
 90
        2
176
     1
 62
     7
176
     1
 90
        5
176
     1
 90
        0
176
     1
 90
        0
176
     1
290
     0
176
     1
 90
        1
176
     1
 40
0.0
176
     1
 90
        0
176
     1
290
     0
176
     1
290
     1
176
     1
290
     1
176
     1
290
     0
176
     1
290
     0
176
     1
290
     0
176
     1
290
     0
176
     1
290
     0
176
     1
290
     0
176
     1
 90
       50
176
     1
 40
0.0
176
     1
 40
1.0
176
     1
 90
        0
176
     1
 62
    18
420
        0
176
     1
 90
       50
176
     1
 90
        3
176
     1
 62
     5
420
      255
176
     1
290
     0
176
     1
 90
       50
176
     1
 90
       50
176
     1
 90
       50
176
     1
290
     0
176
     1
 90
       50
176
     1
 62
   256
176
     0
 40
1.0
176
     0
 90
        2
176
     1
  1
strokes_ogs.tif
176
     1
290
     0
176
     1
 40
1.0
176
     1
 40
1.0
176
     1
  0
VISUALSTYLE
  5
34
102
{ACAD_REACTORS
330
2A
102
}
330
2A
100
AcDbVisualStyle
  2
Conceptual
 70
     9
177
     3
291
     0
 70
    58
 90
        3
176
     1
 90
        2
176
     1
 90
        0
176
     1
 90
        0
176
     1
 40
-0.6
176
     1
 40
-30.0
176
     1
 62
     7
420
 16777215
176
     1
 90
        2
176
     1
 90
        2
176
     1
 62
     7
176
     1
 62
   257
176
     1
 90
        1
176
     1
 90
        1
176
     1
 40
40.0
176
     1
 90
        8
176
     1
 62
     7
176
     1
 40
1.0
176
     1
 90
        1
176
     1
 90
        6
176
     1
 90
        2
176
     1
 62
     7
176
     1
 90
        3
176
     1
 90
        0
176
     1
 90
        0
176
     1
290
     0
176
     1
 90
        1
176
     1
 40
0.0
176
     1
 90
        0
176
     1
290
     0
176
     1
290
     1
176
     1
290
     1
176
     1
290
     0
176
     1
290
     0
176
     1
290
     0
176
     1
290
     0
176
     1
290
     0
176
     1
290
     0
176
     1
 90
       50
176
     1
 40
0.0
176
     1
 40
1.0
176
     1
 90
        0
176
     1
 62
    18
420
        0
176
     1
 90
       50
176
     1
 90
        3
176
     1
 62
     5
420
      255
176
     1
290
     0
176
     1
 90
       50
176
     1
 90
       50
176
     1
 90
       50
176
     1
290
     0
176
     1
 90
       50
176
     1
 62
   256
176
     0
 40
1.0
176
     0
 90
        2
176
     1
  1
strokes_ogs.tif
176
     1
290
     0
176
     1
 40
1.0
176
     1
 40
1.0
176
     1
  0
VISUALSTYLE
  5
35
102
{ACAD_REACTORS
330
2A
102
}
330
2A
100
AcDbVisualStyle
  2
Dim
 70
    11
177
     3
291
     1
 70
    58
 90
        2
176
     1
 90
        2
176
     1
 90
        0
176
     1
 90
        0
176
     1
 40
-0.6
176
     1
 40
-30.0
176
     1
 62
     7
420
 16777215
176
     1
 90
        1
176
     1
 90
        4
176
     1
 62
     7
176
     1
 62
   257
176
     1
 90
        1
176
     1
 90
        1
176
     1
 40
1.0
176
     1
 90
        8
176
     1
 62
     7
176
     1
 40
1.0
176
     1
 90
        1
176
     1
 90
        6
176
     1
 90
        2
176
     1
 62
     7
176
     1
 90
        5
176
     1
 90
        0
176
     1
 90
        0
176
     1
290
     0
176
     1
 90
        1
176
     1
 40
-50.0
176
     1
 90
        0
176
     1
290
     0
176
     1
290
     1
176
     1
290
     1
176
     1
290
     0
176
     1
290
     0
176
     1
290
     0
176
     1
290
     0
176
     1
290
     0
176
     1
290
     0
176
     1
 90
       50
176
     1
 40
0.0
176
     1
 40
1.0
176
     1
 90
        0
176
     1
 62
    18
420
        0
176
     1
 90
       50
176
     1
 90
        3
176
     1
 62
     5
420
      255
176
     1
290
     0
176
     1
 90
       50
176
     1
 90
       50
176
     1
 90
       50
176
     1
290
     0
176
     1
 90
       50
176
     1
 62
   256
176
     0
 40
1.0
176
     0
 90
        2
176
     1
  1
strokes_ogs.tif
176
     1
290
     0
176
     1
 40
1.0
176
     1
 40
1.0
176
     1
  0
VISUALSTYLE
  5
1A2
102
{ACAD_REACTORS
330
2A
102
}
330
2A
100
AcDbVisualStyle
  2
EdgeColorOff
 70
    22
177
     3
291
     1
 70
    58
 90
        2
176
     0
 90
        2
176
     0
 90
        0
176
     0
 90
        0
176
     0
 40
0.6
176
     0
 40
30.0
176
     0
 62
     7
420
 16777215
176
     0
 90
        1
176
     0
 90
        4
176
     0
 62
     7
176
     0
 62
   257
176
     0
 90
        1
176
     0
 90
        1
176
     0
 40
1.0
176
     0
 90
        8
176
     2
 62
     7
176
     0
 40
1.0
176
     0
 90
        1
176
     0
 90
        6
176
     0
 90
        2
176
     0
 62
     7
176
     0
 90
        5
176
     0
 90
        0
176
     0
 90
        0
176
     0
290
     0
176
     0
 90
        1
176
     0
 40
0.0
176
     0
 90
        0
176
     0
290
     0
176
     0
290
     1
176
     0
290
     1
176
     0
290
     0
176
     0
290
     0
176
     0
290
     0
176
     0
290
     0
176
     0
290
     0
176
     0
290
     0
176
     0
 90
       50
176
     0
 40
0.0
176
     0
 40
1.0
176
     0
 90
        0
176
     0
 62
    18
420
        0
176
     0
 90
       50
176
     0
 90
        3
176
     0
 62
     5
420
      255
176
     0
290
     0
176
     0
 90
       50
176
     0
 90
       50
176
     0
 90
       50
176
     0
290
     0
176
     0
 90
       50
176
     0
 62
   256
176
     0
 40
1.0
176
     0
 90
        2
176
     0
  1
strokes_ogs.tif
176
     0
290
     0
176
     0
 40
1.0
176
     0
 40
1.0
176
     0
  0
VISUALSTYLE
  5
39
102
{ACAD_REACTORS
330
2A
102
}
330
2A
100
AcDbVisualStyle
  2
Facepattern
 70
    15
177
     3
291
     1
 70
    58
 90
        2
176
     1
 90
        2
176
     1
 90
        0
176
     1
 90
        0
176
     1
 40
-0.6
176
     1
 40
-30.0
176
     1
 62
     7
420
 16777215
176
     1
 90
        1
176
     1
 90
        4
176
     1
 62
     7
176
     1
 62
   257
176
     1
 90
        1
176
     1
 90
        1
176
     1
 40
1.0
176
     1
 90
        8
176
     1
 62
     7
176
     1
 40
1.0
176
     1
 90
        1
176
     1
 90
        6
176
     1
 90
        2
176
     1
 62
     7
176
     1
 90
        5
176
     1
 90
        0
176
     1
 90
        0
176
     1
290
     0
176
     1
 90
        1
176
     1
 40
0.0
176
     1
 90
        0
176
     1
290
     0
176
     1
290
     1
176
     1
290
     1
176
     1
290
     0
176
     1
290
     0
176
     1
290
     0
176
     1
290
     0
176
     1
290
     0
176
     1
290
     0
176
     1
 90
       50
176
     1
 40
0.0
176
     1
 40
1.0
176
     1
 90
        0
176
     1
 62
    18
420
        0
176
     1
 90
       50
176
     1
 90
        3
176
     1
 62
     5
420
      255
176
     1
290
     0
176
     1
 90
       50
176
     1
 90
       50
176
     1
 90
       50
176
     1
290
     0
176
     1
 90
       50
176
     1
 62
   256
176
     0
 40
1.0
176
     0
 90
        2
176
     1
  1
strokes_ogs.tif
176
     1
290
     0
176
     1
 40
1.0
176
     1
 40
1.0
176
     1
  0
VISUALSTYLE
  5
2B
102
{ACAD_REACTORS
330
2A
102
}
330
2A
100
AcDbVisualStyle
  2
Flat
 70
     0
177
     3
291
     1
 70
    58
 90
        2
176
     1
 90
        1
176
     1
 90
        1
176
     1
 90
        2
176
     1
 40
-0.6
176
     1
 40
30.0
176
     1
 62
     7
420
 16777215
176
     1
 90
        0
176
     1
 90
        4
176
     1
 62
     7
176
     1
 62
   257
176
     1
 90
        1
176
     1
 90
        1
176
     1
 40
1.0
176
     1
 90
        8
176
     1
 62
     7
176
     1
 40
1.0
176
     1
 90
        1
176
     1
 90
        6
176
     1
 90
        2
176
     1
 62
     7
176
     1
 90
        5
176
     1
 90
        0
176
     1
 90
        0
176
     1
290
     0
176
     1
 90
       13
176
     1
 40
0.0
176
     1
 90
        0
176
     1
290
     0
176
     1
290
     1
176
     1
290
     1
176
     1
290
     0
176
     1
290
     0
176
     1
290
     0
176
     1
290
     0
176
     1
290
     0
176
     1
290
     0
176
     1
 90
       50
176
     1
 40
0.0
176
     1
 40
1.0
176
     1
 90
        0
176
     1
 62
    18
420
        0
176
     1
 90
       50
176
     1
 90
        3
176
     1
 62
     5
420
      255
176
     1
290
     0
176
     1
 90
       50
176
     1
 90
       50
176
     1
 90
       50
176
     1
290
     0
176
     1
 90
       50
176
     1
 62
   256
176
     0
 40
1.0
176
     0
 90
        2
176
     1
  1
strokes_ogs.tif
176
     1
290
     0
176
     1
 40
1.0
176
     1
 40
1.0
176
     1
  0
VISUALSTYLE
  5
2C
102
{ACAD_REACTORS
330
2A
102
}
330
2A
100
AcDbVisualStyle
  2
FlatWithEdges
 70
     1
177
     3
291
     1
 70
    58
 90
        2
176
     1
 90
        1
176
     1
 90
        1
176
     1
 90
        2
176
     1
 40
-0.6
176
     1
 40
30.0
176
     1
 62
     7
420
 16777215
176
     1
 90
        1
176
     1
 90
        4
176
     1
 62
     7
176
     1
 62
   257
176
     1
 90
        1
176
     1
 90
        1
176
     1
 40
1.0
176
     1
 90
        0
176
     1
 62
   257
176
     1
 40
1.0
176
     1
 90
        1
176
     1
 90
        6
176
     1
 90
        2
176
     1
 62
     7
176
     1
 90
        5
176
     1
 90
        0
176
     1
 90
        0
176
     1
290
     0
176
     1
 90
       13
176
     1
 40
0.0
176
     1
 90
        0
176
     1
290
     0
176
     1
290
     1
176
     1
290
     1
176
     1
290
     0
176
     1
290
     0
176
     1
290
     0
176
     1
290
     0
176
     1
290
     0
176
     1
290
     0
176
     1
 90
       50
176
     1
 40
0.0
176
     1
 40
1.0
176
     1
 90
        0
176
     1
 62
    18
420
        0
176
     1
 90
       50
176
     1
 90
        3
176
     1
 62
     5
420
      255
176
     1
290
     0
176
     1
 90
       50
176
     1
 90
       50
176
     1
 90
       50
176
     1
290
     0
176
     1
 90
       50
176
     1
 62
   256
176
     0
 40
1.0
176
     0
 90
        2
176
     1
  1
strokes_ogs.tif
176
     1
290
     0
176
     1
 40
1.0
176
     1
 40
1.0
176
     1
  0
VISUALSTYLE
  5
2D
102
{ACAD_REACTORS
330
2A
102
}
330
2A
100
AcDbVisualStyle
  2
Gouraud
 70
     2
177
     3
291
     1
 70
    58
 90
        2
176
     1
 90
        2
176
     1
 90
        1
176
     1
 90
        2
176
     1
 40
-0.6
176
     1
 40
30.0
176
     1
 62
     7
420
 16777215
176
     1
 90
        0
176
     1
 90
        4
176
     1
 62
     7
176
     1
 62
   257
176
     1
 90
        1
176
     1
 90
        1
176
     1
 40
1.0
176
     1
 90
        0
176
     1
 62
     7
176
     1
 40
1.0
176
     1
 90
        1
176
     1
 90
        6
176
     1
 90
        2
176
     1
 62
     7
176
     1
 90
        5
176
     1
 90
        0
176
     1
 90
        0
176
     1
290
     0
176
     1
 90
       13
176
     1
 40
0.0
176
     1
 90
        0
176
     1
290
     0
176
     1
290
     1
176
     1
290
     1
176
     1
290
     0
176
     1
290
     0
176
     1
290
     0
176
     1
290
     0
176
     1
290
     0
176
     1
290
     0
176
     1
 90
       50
176
     1
 40
0.0
176
     1
 40
1.0
176
     1
 90
        0
176
     1
 62
    18
420
        0
176
     1
 90
       50
176
     1
 90
        3
176
     1
 62
     5
420
      255
176
     1
290
     0
176
     1
 90
       50
176
     1
 90
       50
176
     1
 90
       50
176
     1
290
     0
176
     1
 90
       50
176
     1
 62
   256
176
     0
 40
1.0
176
     0
 90
        2
176
     1
  1
strokes_ogs.tif
176
     1
290
     0
176
     1
 40
1.0
176
     1
 40
1.0
176
     1
  0
VISUALSTYLE
  5
2E
102
{ACAD_REACTORS
330
2A
102
}
330
2A
100
AcDbVisualStyle
  2
GouraudWithEdges
 70
     3
177
     3
291
     1
 70
    58
 90
        2
176
     1
 90
        2
176
     1
 90
        1
176
     1
 90
        2
176
     1
 40
-0.6
176
     1
 40
30.0
176
     1
 62
     7
420
 16777215
176
     1
 90
        1
176
     1
 90
        4
176
     1
 62
     7
176
     1
 62
   257
176
     1
 90
        1
176
     1
 90
        1
176
     1
 40
1.0
176
     1
 90
        0
176
     1
 62
   257
176
     1
 40
1.0
176
     1
 90
        1
176
     1
 90
        6
176
     1
 90
        2
176
     1
 62
     7
176
     1
 90
        5
176
     1
 90
        0
176
     1
 90
        0
176
     1
290
     0
176
     1
 90
       13
176
     1
 40
0.0
176
     1
 90
        0
176
     1
290
     0
176
     1
290
     1
176
     1
290
     1
176
     1
290
     0
176
     1
290
     0
176
     1
290
     0
176
     1
290
     0
176
     1
290
     0
176
     1
290
     0
176
     1
 90
       50
176
     1
 40
0.0
176
     1
 40
1.0
176
     1
 90
        0
176
     1
 62
    18
420
        0
176
     1
 90
       50
176
     1
 90
        3
176
     1
 62
     5
420
      255
176
     1
290
     0
176
     1
 90
       50
176
     1
 90
       50
176
     1
 90
       50
176
     1
290
     0
176
     1
 90
       50
176
     1
 62
   256
176
     0
 40
1.0
176
     0
 90
        2
176
     1
  1
strokes_ogs.tif
176
     1
290
     0
176
     1
 40
1.0
176
     1
 40
1.0
176
     1
  0
VISUALSTYLE
  5
19F
102
{ACAD_REACTORS
330
2A
102
}
330
2A
100
AcDbVisualStyle
  2
Hidden
 70
     6
177
     3
291
     0
 70
    58
 90
        1
176
     1
 90
        2
176
     1
 90
        2
176
     1
 90
        0
176
     1
 40
0.6
176
     1
 40
30.0
176
     1
 62
     7
420
 16777215
176
     1
 90
        2
176
     1
 90
        2
176
     1
 62
     7
176
     1
 62
   257
176
     1
 90
        2
176
     1
 90
        1
176
     1
 40
40.0
176
     1
 90
        0
176
     1
 62
   257
176
     1
 40
1.0
176
     1
 90
        1
176
     1
 90
        6
176
     1
 90
        2
176
     1
 62
     7
176
     1
 90
        3
176
     1
 90
        0
176
     1
 90
        0
176
     1
290
     0
176
     1
 90
        1
176
     1
 40
0.0
176
     1
 90
        0
176
     1
290
     0
176
     1
290
     1
176
     1
290
     1
176
     1
290
     0
176
     1
290
     0
176
     1
290
     0
176
     1
290
     0
176
     1
290
     0
176
     1
290
     0
176
     1
 90
       50
176
     1
 40
0.0
176
     1
 40
1.0
176
     1
 90
        0
176
     1
 62
    18
420
        0
176
     1
 90
       50
176
     1
 90
        3
176
     1
 62
     5
420
      255
176
     1
290
     0
176
     1
 90
       50
176
     1
 90
       50
176
     1
 90
       50
176
     1
290
     0
176
     1
 90
       50
176
     1
 62
   256
176
     0
 40
1.0
176
     0
 90
        2
176
     1
  1
strokes_ogs.tif
176
     1
290
     0
176
     1
 40
1.0
176
     1
 40
1.0
176
     1
  0
VISUALSTYLE
  5
1A0
102
{ACAD_REACTORS
330
2A
102
}
330
2A
100
AcDbVisualStyle
  2
JitterOff
 70
    20
177
     3
291
     1
 70
    58
 90
        2
176
     0
 90
        2
176
     0
 90
        0
176
     0
 90
        0
176
     0
 40
0.6
176
     0
 40
30.0
176
     0
 62
     7
420
 16777215
176
     0
 90
        1
176
     0
 90
        4
176
     0
 62
     7
176
     0
 62
   257
176
     0
 90
        1
176
     0
 90
        1
176
     0
 40
1.0
176
     0
 90
       10
176
     2
 62
     7
176
     0
 40
1.0
176
     0
 90
        1
176
     0
 90
        6
176
     0
 90
        2
176
     0
 62
     7
176
     0
 90
        5
176
     0
 90
        0
176
     0
 90
        0
176
     0
290
     0
176
     0
 90
        1
176
     0
 40
0.0
176
     0
 90
        0
176
     0
290
     0
176
     0
290
     1
176
     0
290
     1
176
     0
290
     0
176
     0
290
     0
176
     0
290
     0
176
     0
290
     0
176
     0
290
     0
176
     0
290
     0
176
     0
 90
       50
176
     0
 40
0.0
176
     0
 40
1.0
176
     0
 90
        0
176
     0
 62
    18
420
        0
176
     0
 90
       50
176
     0
 90
        3
176
     0
 62
     5
420
      255
176
     0
290
     0
176
     0
 90
       50
176
     0
 90
       50
176
     0
 90
       50
176
     0
290
     0
176
     0
 90
       50
176
     0
 62
   256
176
     0
 40
1.0
176
     0
 90
        2
176
     0
  1
strokes_ogs.tif
176
     0
290
     0
176
     0
 40
1.0
176
     0
 40
1.0
176
     0
  0
VISUALSTYLE
  5
38
102
{ACAD_REACTORS
330
2A
102
}
330
2A
100
AcDbVisualStyle
  2
Linepattern
 70
    14
177
     3
291
     1
 70
    58
 90
        2
176
     1
 90
        2
176
     1
 90
        0
176
     1
 90
        0
176
     1
 40
-0.6
176
     1
 40
-30.0
176
     1
 62
     7
420
 16777215
176
     1
 90
        1
176
     1
 90
        4
176
     1
 62
     7
176
     1
 62
   257
176
     1
 90
        7
176
     1
 90
        7
176
     1
 40
1.0
176
     1
 90
        8
176
     1
 62
     7
176
     1
 40
1.0
176
     1
 90
        1
176
     1
 90
        6
176
     1
 90
        2
176
     1
 62
     7
176
     1
 90
        5
176
     1
 90
        0
176
     1
 90
        0
176
     1
290
     0
176
     1
 90
        1
176
     1
 40
0.0
176
     1
 90
        0
176
     1
290
     0
176
     1
290
     1
176
     1
290
     1
176
     1
290
     0
176
     1
290
     0
176
     1
290
     0
176
     1
290
     0
176
     1
290
     0
176
     1
290
     0
176
     1
 90
       50
176
     1
 40
0.0
176
     1
 40
1.0
176
     1
 90
        0
176
     1
 62
    18
420
        0
176
     1
 90
       50
176
     1
 90
        3
176
     1
 62
     5
420
      255
176
     1
290
     0
176
     1
 90
       50
176
     1
 90
       50
176
     1
 90
       50
176
     1
290
     0
176
     1
 90
       50
176
     1
 62
   256
176
     0
 40
1.0
176
     0
 90
        2
176
     1
  1
strokes_ogs.tif
176
     1
290
     0
176
     1
 40
1.0
176
     1
 40
1.0
176
     1
  0
VISUALSTYLE
  5
1A1
102
{ACAD_REACTORS
330
2A
102
}
330
2A
100
AcDbVisualStyle
  2
OverhangOff
 70
    21
177
     3
291
     1
 70
    58
 90
        2
176
     0
 90
        2
176
     0
 90
        0
176
     0
 90
        0
176
     0
 40
0.6
176
     0
 40
30.0
176
     0
 62
     7
420
 16777215
176
     0
 90
        1
176
     0
 90
        4
176
     0
 62
     7
176
     0
 62
   257
176
     0
 90
        1
176
     0
 90
        1
176
     0
 40
1.0
176
     0
 90
        9
176
     2
 62
     7
176
     0
 40
1.0
176
     0
 90
        1
176
     0
 90
        6
176
     0
 90
        2
176
     0
 62
     7
176
     0
 90
        5
176
     0
 90
        0
176
     0
 90
        0
176
     0
290
     0
176
     0
 90
        1
176
     0
 40
0.0
176
     0
 90
        0
176
     0
290
     0
176
     0
290
     1
176
     0
290
     1
176
     0
290
     0
176
     0
290
     0
176
     0
290
     0
176
     0
290
     0
176
     0
290
     0
176
     0
290
     0
176
     0
 90
       50
176
     0
 40
0.0
176
     0
 40
1.0
176
     0
 90
        0
176
     0
 62
    18
420
        0
176
     0
 90
       50
176
     0
 90
        3
176
     0
 62
     5
420
      255
176
     0
290
     0
176
     0
 90
       50
176
     0
 90
       50
176
     0
 90
       50
176
     0
290
     0
176
     0
 90
       50
176
     0
 62
   256
176
     0
 40
1.0
176
     0
 90
        2
176
     0
  1
strokes_ogs.tif
176
     0
290
     0
176
     0
 40
1.0
176
     0
 40
1.0
176
     0
  0
VISUALSTYLE
  5
33
102
{ACAD_REACTORS
330
2A
102
}
330
2A
100
AcDbVisualStyle
  2
Realistic
 70
     8
177
     3
291
     0
 70
    58
 90
        2
176
     1
 90
        2
176
     1
 90
        0
176
     1
 90
        0
176
     1
 40
-0.6
176
     1
 40
-30.0
176
     1
 62
     7
420
 16777215
176
     1
 90
        1
176
     1
 90
        0
176
     1
 62
     7
176
     1
 62
   257
176
     1
 90
        1
176
     1
 90
        1
176
     1
 40
1.0
176
     1
 90
        8
176
     1
 62
     8
420
  7895160
176
     1
 40
1.0
176
     1
 90
        1
176
     1
 90
        6
176
     1
 90
        2
176
     1
 62
     7
176
     1
 90
        5
176
     1
 90
        0
176
     1
 90
        0
176
     1
290
     0
176
     1
 90
       13
176
     1
 40
0.0
176
     1
 90
        0
176
     1
290
     0
176
     1
290
     1
176
     1
290
     1
176
     1
290
     0
176
     1
290
     0
176
     1
290
     0
176
     1
290
     0
176
     1
290
     0
176
     1
290
     0
176
     1
 90
       50
176
     1
 40
0.0
176
     1
 40
1.0
176
     1
 90
        0
176
     1
 62
    18
420
        0
176
     1
 90
       50
176
     1
 90
        3
176
     1
 62
     5
420
      255
176
     1
290
     0
176
     1
 90
       50
176
     1
 90
       50
176
     1
 90
       50
176
     1
290
     0
176
     1
 90
       50
176
     1
 62
   256
176
     0
 40
1.0
176
     0
 90
        2
176
     1
  1
strokes_ogs.tif
176
     1
290
     0
176
     1
 40
1.0
176
     1
 40
1.0
176
     1
  0
VISUALSTYLE
  5
1A7
102
{ACAD_REACTORS
330
2A
102
}
330
2A
100
AcDbVisualStyle
  2
Shaded
 70
    27
177
     3
291
     0
 70
    58
 90
        2
176
     1
 90
        2
176
     1
 90
        1
176
     1
 90
        2
176
     1
 40
0.6
176
     1
 40
30.0
176
     1
 62
     7
420
 16777215
176
     1
 90
        0
176
     1
 90
        4
176
     1
 62
     7
176
     1
 62
   257
176
     1
 90
        1
176
     1
 90
        1
176
     1
 40
1.0
176
     1
 90
        8
176
     1
 62
   257
176
     1
 40
1.0
176
     1
 90
        1
176
     1
 90
        6
176
     1
 90
        2
176
     1
 62
     8
420
  7895160
176
     1
 90
        3
176
     1
 90
        0
176
     1
 90
        0
176
     1
290
     0
176
     1
 90
        5
176
     1
 40
0.0
176
     1
 90
        0
176
     1
290
     0
176
     1
290
     1
176
     1
290
     1
176
     1
290
     0
176
     1
290
     0
176
     1
290
     0
176
     1
290
     0
176
     1
290
     0
176
     1
290
     0
176
     1
 90
       50
176
     1
 40
0.0
176
     1
 40
1.0
176
     1
 90
        0
176
     1
 62
    18
420
        0
176
     1
 90
       50
176
     1
 90
        3
176
     1
 62
     5
420
      255
176
     1
290
     0
176
     1
 90
       50
176
     1
 90
       50
176
     1
 90
       50
176
     1
290
     0
176
     1
 90
       50
176
     1
 62
   256
176
     0
 40
1.0
176
     0
 90
        2
176
     1
  1
strokes_ogs.tif
176
     1
290
     0
176
     1
 40
1.0
176
     1
 40
1.0
176
     1
  0
VISUALSTYLE
  5
1A6
102
{ACAD_REACTORS
330
2A
102
}
330
2A
100
AcDbVisualStyle
  2
Shaded with edges
 70
    26
177
     3
291
     0
 70
    58
 90
        2
176
     1
 90
        2
176
     1
 90
        1
176
     1
 90
        2
176
     1
 40
0.6
176
     1
 40
30.0
176
     1
 62
     7
420
 16777215
176
     1
 90
        1
176
     1
 90
       10
176
     1
 62
     7
176
     1
 62
   257
176
     1
 90
        2
176
     1
 90
        1
176
     1
 40
1.0
176
     1
 90
        8
176
     1
 62
   257
176
     1
 40
1.0
176
     1
 90
        1
176
     1
 90
        6
176
     1
 90
        2
176
     1
 62
     7
176
     1
 90
        3
176
     1
 90
        0
176
     1
 90
        0
176
     1
290
     0
176
     1
 90
        5
176
     1
 40
0.0
176
     1
 90
        0
176
     1
290
     0
176
     1
290
     1
176
     1
290
     1
176
     1
290
     0
176
     1
290
     0
176
     1
290
     0
176
     1
290
     0
176
     1
290
     0
176
     1
290
     0
176
     1
 90
       50
176
     1
 40
0.0
176
     1
 40
1.0
176
     1
 90
        0
176
     1
 62
    18
420
        0
176
     1
 90
       50
176
     1
 90
        3
176
     1
 62
     5
420
      255
176
     1
290
     0
176
     1
 90
       50
176
     1
 90
       50
176
     1
 90
       50
176
     1
290
     0
176
     1
 90
       50
176
     1
 62
   256
176
     0
 40
1.0
176
     0
 90
        2
176
     1
  1
strokes_ogs.tif
176
     1
290
     0
176
     1
 40
1.0
176
     1
 40
1.0
176
     1
  0
VISUALSTYLE
  5
1A3
102
{ACAD_REACTORS
330
2A
102
}
330
2A
100
AcDbVisualStyle
  2
Shades of Gray
 70
    23
177
     3
291
     0
 70
    58
 90
        2
176
     1
 90
        2
176
     1
 90
        3
176
     1
 90
        0
176
     1
 40
0.6
176
     1
 40
30.0
176
     1
 62
     7
420
 16777215
176
     1
 90
        2
176
     1
 90
        2
176
     1
 62
     7
176
     1
 62
     7
176
     1
 90
        1
176
     1
 90
        1
176
     1
 40
40.0
176
     1
 90
        8
176
     1
 62
     7
176
     1
 40
1.0
176
     1
 90
        1
176
     1
 90
        6
176
     1
 90
        2
176
     1
 62
     7
176
     1
 90
        3
176
     1
 90
        0
176
     1
 90
        0
176
     1
290
     0
176
     1
 90
        1
176
     1
 40
0.0
176
     1
 90
        0
176
     1
290
     0
176
     1
290
     1
176
     1
290
     1
176
     1
290
     0
176
     1
290
     0
176
     1
290
     0
176
     1
290
     0
176
     1
290
     0
176
     1
290
     0
176
     1
 90
       50
176
     1
 40
0.0
176
     1
 40
1.0
176
     1
 90
        0
176
     1
 62
    18
420
        0
176
     1
 90
       50
176
     1
 90
        3
176
     1
 62
     5
420
      255
176
     1
290
     0
176
     1
 90
       50
176
     1
 90
       50
176
     1
 90
       50
176
     1
290
     0
176
     1
 90
       50
176
     1
 62
   256
176
     0
 40
1.0
176
     0
 90
        2
176
     1
  1
strokes_ogs.tif
176
     1
290
     0
176
     1
 40
1.0
176
     1
 40
1.0
176
     1
  0
VISUALSTYLE
  5
1A4
102
{ACAD_REACTORS
330
2A
102
}
330
2A
100
AcDbVisualStyle
  2
Sketchy
 70
    24
177
     3
291
     0
 70
    58
 90
        1
176
     1
 90
        2
176
     1
 90
        2
176
     1
 90
        0
176
     1
 40
0.6
176
     1
 40
30.0
176
     1
 62
     7
420
 16777215
176
     1
 90
        2
176
     1
 90
        2
176
     1
 62
     7
176
     1
 62
     7
176
     1
 90
        1
176
     1
 90
        1
176
     1
 40
40.0
176
     1
 90
       11
176
     1
 62
     7
176
     1
 40
1.0
176
     1
 90
        1
176
     1
 90
        6
176
     1
 90
        2
176
     1
 62
     7
176
     1
 90
        6
176
     1
 90
        0
176
     1
 90
        0
176
     1
290
     0
176
     1
 90
        1
176
     1
 40
0.0
176
     1
 90
        0
176
     1
290
     0
176
     1
290
     1
176
     1
290
     1
176
     1
290
     0
176
     1
290
     0
176
     1
290
     0
176
     1
290
     0
176
     1
290
     0
176
     1
290
     0
176
     1
 90
       50
176
     1
 40
0.0
176
     1
 40
1.0
176
     1
 90
        0
176
     1
 62
    18
420
        0
176
     1
 90
       50
176
     1
 90
        3
176
     1
 62
     5
420
      255
176
     1
290
     0
176
     1
 90
       50
176
     1
 90
       50
176
     1
 90
       50
176
     1
290
     0
176
     1
 90
       50
176
     1
 62
   256
176
     0
 40
1.0
176
     0
 90
        2
176
     1
  1
strokes_ogs.tif
176
     1
290
     0
176
     1
 40
1.0
176
     1
 40
1.0
176
     1
  0
VISUALSTYLE
  5
37
102
{ACAD_REACTORS
330
2A
102
}
330
2A
100
AcDbVisualStyle
  2
Thicken
 70
    13
177
     3
291
     1
 70
    58
 90
        2
176
     1
 90
        2
176
     1
 90
        0
176
     1
 90
        0
176
     1
 40
-0.6
176
     1
 40
-30.0
176
     1
 62
     7
420
 16777215
176
     1
 90
        1
176
     1
 90
        4
176
     1
 62
     7
176
     1
 62
   257
176
     1
 90
        1
176
     1
 90
        1
176
     1
 40
1.0
176
     1
 90
       12
176
     1
 62
     7
176
     1
 40
1.0
176
     1
 90
        1
176
     1
 90
        6
176
     1
 90
        2
176
     1
 62
     7
176
     1
 90
        5
176
     1
 90
        0
176
     1
 90
        0
176
     1
290
     0
176
     1
 90
        1
176
     1
 40
0.0
176
     1
 90
        0
176
     1
290
     0
176
     1
290
     1
176
     1
290
     1
176
     1
290
     0
176
     1
290
     0
176
     1
290
     0
176
     1
290
     0
176
     1
290
     0
176
     1
290
     0
176
     1
 90
       50
176
     1
 40
0.0
176
     1
 40
1.0
176
     1
 90
        0
176
     1
 62
    18
420
        0
176
     1
 90
       50
176
     1
 90
        3
176
     1
 62
     5
420
      255
176
     1
290
     0
176
     1
 90
       50
176
     1
 90
       50
176
     1
 90
       50
176
     1
290
     0
176
     1
 90
       50
176
     1
 62
   256
176
     0
 40
1.0
176
     0
 90
        2
176
     1
  1
strokes_ogs.tif
176
     1
290
     0
176
     1
 40
1.0
176
     1
 40
1.0
176
     1
  0
VISUALSTYLE
  5
19E
102
{ACAD_REACTORS
330
2A
102
}
330
2A
100
AcDbVisualStyle
  2
Wireframe
 70
     5
177
     3
291
     0
 70
    58
 90
        0
176
     1
 90
        2
176
     1
 90
        0
176
     1
 90
        0
176
     1
 40
0.6
176
     1
 40
30.0
176
     1
 62
     7
420
 16777215
176
     1
 90
        1
176
     1
 90
        4
176
     1
 62
     7
176
     1
 62
   257
176
     1
 90
        1
176
     1
 90
        1
176
     1
 40
1.0
176
     1
 90
        0
176
     1
 62
   257
176
     1
 40
1.0
176
     1
 90
        1
176
     1
 90
        6
176
     1
 90
        2
176
     1
 62
     7
176
     1
 90
        3
176
     1
 90
        0
176
     1
 90
        0
176
     1
290
     0
176
     1
 90
        1
176
     1
 40
0.0
176
     1
 90
        0
176
     1
290
     0
176
     1
290
     1
176
     1
290
     1
176
     1
290
     0
176
     1
290
     0
176
     1
290
     0
176
     1
290
     0
176
     1
290
     0
176
     1
290
     0
176
     1
 90
       50
176
     1
 40
0.0
176
     1
 40
1.0
176
     1
 90
        0
176
     1
 62
    18
420
        0
176
     1
 90
       50
176
     1
 90
        3
176
     1
 62
     5
420
      255
176
     1
290
     0
176
     1
 90
       50
176
     1
 90
       50
176
     1
 90
       50
176
     1
290
     0
176
     1
 90
       50
176
     1
 62
   256
176
     0
 40
1.0
176
     0
 90
        2
176
     1
  1
strokes_ogs.tif
176
     1
290
     0
176
     1
 40
1.0
176
     1
 40
1.0
176
     1
  0
VISUALSTYLE
  5
1A5
102
{ACAD_REACTORS
330
2A
102
}
330
2A
100
AcDbVisualStyle
  2
X-Ray
 70
    25
177
     3
291
     0
 70
    58
 90
        2
176
     1
 90
        2
176
     1
 90
        1
176
     1
 90
        1
176
     1
 40
0.5
176
     1
 40
30.0
176
     1
 62
     7
420
 16777215
176
     1
 90
        1
176
     1
 90
        0
176
     1
 62
     7
176
     1
 62
   257
176
     1
 90
        1
176
     1
 90
        1
176
     1
 40
1.0
176
     1
 90
        8
176
     1
 62
     7
176
     1
 40
1.0
176
     1
 90
        1
176
     1
 90
        6
176
     1
 90
        2
176
     1
 62
     7
176
     1
 90
        3
176
     1
 90
        0
176
     1
 90
        0
176
     1
290
     0
176
     1
 90
       13
176
     1
 40
0.0
176
     1
 90
        0
176
     1
290
     0
176
     1
290
     1
176
     1
290
     1
176
     1
290
     0
176
     1
290
     0
176
     1
290
     0
176
     1
290
     0
176
     1
290
     0
176
     1
290
     0
176
     1
 90
       50
176
     1
 40
0.0
176
     1
 40
1.0
176
     1
 90
        0
176
     1
 62
    18
420
        0
176
     1
 90
       50
176
     1
 90
        3
176
     1
 62
     5
420
      255
176
     1
290
     0
176
     1
 90
       50
176
     1
 90
       50
176
     1
 90
       50
176
     1
290
     0
176
     1
 90
       50
176
     1
 62
   256
176
     0
 40
1.0
176
     0
 90
        2
176
     1
  1
strokes_ogs.tif
176
     1
290
     0
176
     1
 40
1.0
176
     1
 40
1.0
176
     1
  0
DICTIONARYVAR
  5
1AF
102
{ACAD_REACTORS
330
1AE
102
}
330
1AE
100
DictionaryVariables
280
     0
  1
1:1
  0
DICTIONARYVAR
  5
1B4
102
{ACAD_REACTORS
330
1AE
102
}
330
1AE
100
DictionaryVariables
280
     0
  1
Standard
  0
DICTIONARYVAR
  5
1B3
102
{ACAD_REACTORS
330
1AE
102
}
330
1AE
100
DictionaryVariables
280
     0
  1
Standard
  0
DICTIONARY
  5
1B0
330
1A8
100
AcDbDictionary
280
     1
281
     1
  3
ACAD_ROUNDTRIP_2008_TABLESTYLE_CELLSTYLEMAP
360
1B1
  0
CELLSTYLEMAP
  5
1B1
102
{ACAD_REACTORS
330
1B0
102
}
330
1B0
100
AcDbCellStyleMap
 90
        3
300
CELLSTYLE
  1
TABLEFORMAT_BEGIN
 90
        5
170
     1
 91
        0
 92
    32768
 62
   257
 93
        1
300
CONTENTFORMAT
  1
CONTENTFORMAT_BEGIN
 90
        0
 91
        0
 92
        4
 93
        0
300

 40
0.0
140
1.0
 94
        5
 62
     0
340
11
144
6.0
309
CONTENTFORMAT_END
171
     1
301
MARGIN
  1
CELLMARGIN_BEGIN
 40
1.5
 40
1.5
 40
1.5
 40
1.5
 40
1.5
 40
1.5
309
CELLMARGIN_END
 94
        6
 95
        1
302
GRIDFORMAT
  1
GRIDFORMAT_BEGIN
 90
        0
 91
        1
 62
     0
 92
       -2
340
14
 93
        0
 40
0.045
309
GRIDFORMAT_END
 95
        2
302
GRIDFORMAT
  1
GRIDFORMAT_BEGIN
 90
        0
 91
        1
 62
     0
 92
       -2
340
14
 93
        0
 40
0.045
309
GRIDFORMAT_END
 95
        4
302
GRIDFORMAT
  1
GRIDFORMAT_BEGIN
 90
        0
 91
        1
 62
     0
 92
       -2
340
14
 93
        0
 40
0.045
309
GRIDFORMAT_END
 95
        8
302
GRIDFORMAT
  1
GRIDFORMAT_BEGIN
 90
        0
 91
        1
 62
     0
 92
       -2
340
14
 93
        0
 40
0.045
309
GRIDFORMAT_END
 95
       16
302
GRIDFORMAT
  1
GRIDFORMAT_BEGIN
 90
        0
 91
        1
 62
     0
 92
       -2
340
14
 93
        0
 40
0.045
309
GRIDFORMAT_END
 95
       32
302
GRIDFORMAT
  1
GRIDFORMAT_BEGIN
 90
        0
 91
        1
 62
     0
 92
       -2
340
14
 93
        0
 40
0.045
309
GRIDFORMAT_END
309
TABLEFORMAT_END
  1
CELLSTYLE_BEGIN
 90
        1
 91
        1
300
_TITLE
309
CELLSTYLE_END
300
CELLSTYLE
  1
TABLEFORMAT_BEGIN
 90
        5
170
     1
 91
        0
 92
        0
 62
   257
 93
        1
300
CONTENTFORMAT
  1
CONTENTFORMAT_BEGIN
 90
        0
 91
        0
 92
        4
 93
        0
300

 40
0.0
140
1.0
 94
        5
 62
     0
340
11
144
4.5
309
CONTENTFORMAT_END
171
     1
301
MARGIN
  1
CELLMARGIN_BEGIN
 40
1.5
 40
1.5
 40
1.5
 40
1.5
 40
1.5
 40
1.5
309
CELLMARGIN_END
 94
        6
 95
        1
302
GRIDFORMAT
  1
GRIDFORMAT_BEGIN
 90
        0
 91
        1
 62
     0
 92
       -2
340
14
 93
        0
 40
0.045
309
GRIDFORMAT_END
 95
        2
302
GRIDFORMAT
  1
GRIDFORMAT_BEGIN
 90
        0
 91
        1
 62
     0
 92
       -2
340
14
 93
        0
 40
0.045
309
GRIDFORMAT_END
 95
        4
302
GRIDFORMAT
  1
GRIDFORMAT_BEGIN
 90
        0
 91
        1
 62
     0
 92
       -2
340
14
 93
        0
 40
0.045
309
GRIDFORMAT_END
 95
        8
302
GRIDFORMAT
  1
GRIDFORMAT_BEGIN
 90
        0
 91
        1
 62
     0
 92
       -2
340
14
 93
        0
 40
0.045
309
GRIDFORMAT_END
 95
       16
302
GRIDFORMAT
  1
GRIDFORMAT_BEGIN
 90
        0
 91
        1
 62
     0
 92
       -2
340
14
 93
        0
 40
0.045
309
GRIDFORMAT_END
 95
       32
302
GRIDFORMAT
  1
GRIDFORMAT_BEGIN
 90
        0
 91
        1
 62
     0
 92
       -2
340
14
 93
        0
 40
0.045
309
GRIDFORMAT_END
309
TABLEFORMAT_END
  1
CELLSTYLE_BEGIN
 90
        2
 91
        1
300
_HEADER
309
CELLSTYLE_END
300
CELLSTYLE
  1
TABLEFORMAT_BEGIN
 90
        5
170
     1
 91
        0
 92
        0
 62
   257
 93
        1
300
CONTENTFORMAT
  1
CONTENTFORMAT_BEGIN
 90
        0
 91
        0
 92
        4
 93
        0
300

 40
0.0
140
1.0
 94
        2
 62
     0
340
11
144
4.5
309
CONTENTFORMAT_END
171
     1
301
MARGIN
  1
CELLMARGIN_BEGIN
 40
1.5
 40
1.5
 40
1.5
 40
1.5
 40
1.5
 40
1.5
309
CELLMARGIN_END
 94
        6
 95
        1
302
GRIDFORMAT
  1
GRIDFORMAT_BEGIN
 90
        0
 91
        1
 62
     0
 92
       -2
340
14
 93
        0
 40
0.045
309
GRIDFORMAT_END
 95
        2
302
GRIDFORMAT
  1
GRIDFORMAT_BEGIN
 90
        0
 91
        1
 62
     0
 92
       -2
340
14
 93
        0
 40
0.045
309
GRIDFORMAT_END
 95
        4
302
GRIDFORMAT
  1
GRIDFORMAT_BEGIN
 90
        0
 91
        1
 62
     0
 92
       -2
340
14
 93
        0
 40
0.045
309
GRIDFORMAT_END
 95
        8
302
GRIDFORMAT
  1
GRIDFORMAT_BEGIN
 90
        0
 91
        1
 62
     0
 92
       -2
340
14
 93
        0
 40
0.045
309
GRIDFORMAT_END
 95
       16
302
GRIDFORMAT
  1
GRIDFORMAT_BEGIN
 90
        0
 91
        1
 62
     0
 92
       -2
340
14
 93
        0
 40
0.045
309
GRIDFORMAT_END
 95
       32
302
GRIDFORMAT
  1
GRIDFORMAT_BEGIN
 90
        0
 91
        1
 62
     0
 92
       -2
340
14
 93
        0
 40
0.045
309
GRIDFORMAT_END
309
TABLEFORMAT_END
  1
CELLSTYLE_BEGIN
 90
        3
 91
        2
300
_DATA
309
CELLSTYLE_END
  0
ENDSEC
  0
EOF
