  0
SECTION
  2
HEADER
  9
$ACADVER
  1
AC1014
  9
$ACADMAINTVER
 70
     9
  9
$DWGCODEPAGE
  3
ANSI_1252
  9
$INSBASE
 10
0.0
 20
0.0
 30
0.0
  9
$EXTMIN
 10
0.0
 20
0.0
 30
0.0
  9
$EXTMAX
 10
841.0
 20
594.0
 30
0.0
  9
$LIMMIN
 10
0.0
 20
0.0
  9
$LIMMAX
 10
841.0
 20
594.0
  9
$ORTHOMODE
 70
     0
  9
$REGENMODE
 70
     1
  9
$FILLMODE
 70
     1
  9
$QTEXTMODE
 70
     0
  9
$MIRRTEXT
 70
     1
  9
$DRAGMODE
 70
     2
  9
$LTSCALE
 40
1.0
  9
$OSMODE
 70
    37
  9
$ATTMODE
 70
     1
  9
$TEXTSIZE
 40
10.0
  9
$TRACEWID
 40
1.0
  9
$TEXTSTYLE
  7
STANDARD
  9
$CLAYER
  8
0
  9
$CELTYPE
  6
BYLAYER
  9
$CECOLOR
 62
   256
  9
$CELTSCALE
 40
1.0
  9
$DELOBJ
 70
     1
  9
$DISPSILH
 70
     0
  9
$DIMSCALE
 40
1.0
  9
$DIMASZ
 40
2.5
  9
$DIMEXO
 40
0.0
  9
$DIMDLI
 40
3.75
  9
$DIMRND
 40
0.0
  9
$DIMDLE
 40
0.0
  9
$DIMEXE
 40
1.0
  9
$DIMTP
 40
0.0
  9
$DIMTM
 40
0.0
  9
$DIMTXT
 40
3.5
  9
$DIMCEN
 40
2.5
  9
$DIMTSZ
 40
0.0
  9
$DIMTOL
 70
     0
  9
$DIMLIM
 70
     0
  9
$DIMTIH
 70
     1
  9
$DIMTOH
 70
     1
  9
$DIMSE1
 70
     0
  9
$DIMSE2
 70
     0
  9
$DIMTAD
 70
     1
  9
$DIMZIN
 70
     0
  9
$DIMBLK
  1

  9
$DIMASO
 70
     1
  9
$DIMSHO
 70
     1
  9
$DIMPOST
  1

  9
$DIMAPOST
  1

  9
$DIMALT
 70
     0
  9
$DIMALTD
 70
     3
  9
$DIMALTF
 40
0.0393700787
  9
$DIMLFAC
 40
1.0
  9
$DIMTOFL
 70
     1
  9
$DIMTVP
 40
0.0
  9
$DIMTIX
 70
     0
  9
$DIMSOXD
 70
     0
  9
$DIMSAH
 70
     0
  9
$DIMBLK1
  1

  9
$DIMBLK2
  1

  9
$DIMSTYLE
  2
ISO-25
  9
$DIMCLRD
 70
     0
  9
$DIMCLRE
 70
     0
  9
$DIMCLRT
 70
     0
  9
$DIMTFAC
 40
1.0
  9
$DIMGAP
 40
1.5
  9
$DIMJUST
 70
     0
  9
$DIMSD1
 70
     0
  9
$DIMSD2
 70
     0
  9
$DIMTOLJ
 70
     0
  9
$DIMTZIN
 70
     0
  9
$DIMALTZ
 70
     0
  9
$DIMALTTZ
 70
     0
  9
$DIMFIT
 70
     3
  9
$DIMUPT
 70
     0
  9
$DIMUNIT
 70
     2
  9
$DIMDEC
 70
     2
  9
$DIMTDEC
 70
     2
  9
$DIMALTU
 70
     2
  9
$DIMALTTD
 70
     3
  9
$DIMTXSTY
  7
STANDARD
  9
$DIMAUNIT
 70
     0
  9
$LUNITS
 70
     2
  9
$LUPREC
 70
     2
  9
$SKETCHINC
 40
1.0
  9
$FILLETRAD
 40
10.0
  9
$AUNITS
 70
     0
  9
$AUPREC
 70
     2
  9
$MENU
  1
.
  9
$ELEVATION
 40
0.0
  9
$PELEVATION
 40
0.0
  9
$THICKNESS
 40
0.0
  9
$LIMCHECK
 70
     0
  9
$CHAMFERA
 40
0.0
  9
$CHAMFERB
 40
0.0
  9
$CHAMFERC
 40
0.0
  9
$CHAMFERD
 40
0.0
  9
$SKPOLY
 70
     0
  9
$TDCREATE
 40
2457351.695604896
  9
$TDUPDATE
 40
2457351.695605972
  9
$TDINDWG
 40
0.0000000116
  9
$TDUSRTIMER
 40
0.0000000116
  9
$USRTIMER
 70
     1
  9
$ANGBASE
 50
0.0
  9
$ANGDIR
 70
     0
  9
$PDMODE
 70
     0
  9
$PDSIZE
 40
-1.0
  9
$PLINEWID
 40
0.0
  9
$COORDS
 70
     1
  9
$SPLFRAME
 70
     0
  9
$SPLINETYPE
 70
     6
  9
$SPLINESEGS
 70
     8
  9
$ATTDIA
 70
     0
  9
$ATTREQ
 70
     1
  9
$HANDLING
 70
     1
  9
$HANDSEED
  5
37D
  9
$SURFTAB1
 70
     6
  9
$SURFTAB2
 70
     6
  9
$SURFTYPE
 70
     6
  9
$SURFU
 70
     6
  9
$SURFV
 70
     6
  9
$UCSNAME
  2

  9
$UCSORG
 10
0.0
 20
0.0
 30
0.0
  9
$UCSXDIR
 10
1.0
 20
0.0
 30
0.0
  9
$UCSYDIR
 10
0.0
 20
1.0
 30
0.0
  9
$PUCSNAME
  2

  9
$PUCSORG
 10
0.0
 20
0.0
 30
0.0
  9
$PUCSXDIR
 10
1.0
 20
0.0
 30
0.0
  9
$PUCSYDIR
 10
0.0
 20
1.0
 30
0.0
  9
$USERI1
 70
     0
  9
$USERI2
 70
     0
  9
$USERI3
 70
     0
  9
$USERI4
 70
     0
  9
$USERI5
 70
     0
  9
$USERR1
 40
0.0
  9
$USERR2
 40
0.0
  9
$USERR3
 40
0.0
  9
$USERR4
 40
0.0
  9
$USERR5
 40
0.0
  9
$WORLDVIEW
 70
     1
  9
$SHADEDGE
 70
     3
  9
$SHADEDIF
 70
    70
  9
$TILEMODE
 70
     1
  9
$MAXACTVP
 70
    64
  9
$PINSBASE
 10
0.0
 20
0.0
 30
0.0
  9
$PLIMCHECK
 70
     0
  9
$PEXTMIN
 10
1.0000000000E+20
 20
1.0000000000E+20
 30
1.0000000000E+20
  9
$PEXTMAX
 10
-1.0000000000E+20
 20
-1.0000000000E+20
 30
-1.0000000000E+20
  9
$PLIMMIN
 10
0.0
 20
0.0
  9
$PLIMMAX
 10
420.0
 20
297.0
  9
$UNITMODE
 70
     0
  9
$VISRETAIN
 70
     1
  9
$PLINEGEN
 70
     0
  9
$PSLTSCALE
 70
     1
  9
$TREEDEPTH
 70
  3020
  9
$PICKSTYLE
 70
     1
  9
$CMLSTYLE
  2
STANDARD
  9
$CMLJUST
 70
     0
  9
$CMLSCALE
 40
20.0
  9
$PROXYGRAPHICS
 70
     1
  9
$MEASUREMENT
 70
     1
  0
ENDSEC
  0
SECTION
  2
CLASSES
  0
CLASS
  1
ACDBDICTIONARYWDFLT
  2
AcDbDictionaryWithDefault
  3
ObjectDBX Classes
 90
        0
280
     0
281
     0
  0
CLASS
  1
VISUALSTYLE
  2
AcDbVisualStyle
  3
ObjectDBX Classes
 90
     4095
280
     0
281
     0
  0
CLASS
  1
MATERIAL
  2
AcDbMaterial
  3
ObjectDBX Classes
 90
     1153
280
     0
281
     0
  0
CLASS
  1
SCALE
  2
AcDbScale
  3
ObjectDBX Classes
 90
     1153
280
     0
281
     0
  0
CLASS
  1
SUN
  2
AcDbSun
  3
SCENEOE
 90
     1153
280
     0
281
     0
  0
CLASS
  1
XRECORD
  2
AcDbXrecord
  3
ObjectDBX Classes
 90
        0
280
     0
281
     0
  0
CLASS
  1
LWPOLYLINE
  2
AcDbPolyline
  3
ObjectDBX Classes
 90
        0
280
     0
281
     1
  0
CLASS
  1
HATCH
  2
AcDbHatch
  3
ObjectDBX Classes
 90
        0
280
     0
281
     1
  0
ENDSEC
  0
SECTION
  2
TABLES
  0
TABLE
  2
VPORT
  5
8
330
0
100
AcDbSymbolTable
 70
     1
  0
VPORT
  5
29
330
8
100
AcDbSymbolTableRecord
100
AcDbViewportTableRecord
  2
*ACTIVE
 70
     0
 10
0.0
 20
0.0
 11
1.0
 21
1.0
 12
420.5
 22
297.0
 13
0.0
 23
0.0
 14
10.0
 24
10.0
 15
10.0
 25
10.0
 16
0.0
 26
0.0
 36
1.0
 17
0.0
 27
0.0
 37
0.0
 40
594.0
 41
1.4158249158
 42
50.0
 43
0.0
 44
0.0
 50
0.0
 51
0.0
 71
     0
 72
  2000
 73
     1
 74
     3
 75
     0
 76
     0
 77
     0
 78
     0
  0
ENDTAB
  0
TABLE
  2
LTYPE
  5
5
330
0
100
AcDbSymbolTable
 70
     6
  0
LTYPE
  5
14
330
5
100
AcDbSymbolTableRecord
100
AcDbLinetypeTableRecord
  2
BYBLOCK
 70
     0
  3

 72
    65
 73
     0
 40
0.0
  0
LTYPE
  5
15
330
5
100
AcDbSymbolTableRecord
100
AcDbLinetypeTableRecord
  2
BYLAYER
 70
     0
  3

 72
    65
 73
     0
 40
0.0
  0
LTYPE
  5
16
330
5
100
AcDbSymbolTableRecord
100
AcDbLinetypeTableRecord
  2
CONTINUOUS
 70
     0
  3
Solid line
 72
    65
 73
     0
 40
0.0
  0
LTYPE
  5
6A
330
5
100
AcDbSymbolTableRecord
100
AcDbLinetypeTableRecord
  2
HIDDEN
 70
     0
  3
Hidden __ __ __ __ __ __ __ __ __ __ __ __ __ __
 72
    65
 73
     2
 40
1.905
 49
1.27
 74
     0
 49
-0.635
 74
     0
  0
LTYPE
  5
6B
330
5
100
AcDbSymbolTableRecord
100
AcDbLinetypeTableRecord
  2
PHANTOM
 70
     0
  3
Phantom ______  __  __  ______  __  __  ______
 72
    65
 73
     6
 40
12.7
 49
6.35
 74
     0
 49
-1.27
 74
     0
 49
1.27
 74
     0
 49
-1.27
 74
     0
 49
1.27
 74
     0
 49
-1.27
 74
     0
  0
LTYPE
  5
6C
330
5
100
AcDbSymbolTableRecord
100
AcDbLinetypeTableRecord
  2
CENTER
 70
     0
  3
Center ____ _ ____ _ ____ _ ____ _ ____ _ ____
 72
    65
 73
     4
 40
10.16
 49
6.35
 74
     0
 49
-1.27
 74
     0
 49
1.27
 74
     0
 49
-1.27
 74
     0
  0
LTYPE
  5
6D
330
5
100
AcDbSymbolTableRecord
100
AcDbLinetypeTableRecord
  2
CENTERX2
 70
     0
  3
Center (2x) ________  __  ________  __  _____
 72
    65
 73
     4
 40
20.32
 49
12.7
 74
     0
 49
-2.54
 74
     0
 49
2.54
 74
     0
 49
-2.54
 74
     0
  0
LTYPE
  5
6E
330
5
100
AcDbSymbolTableRecord
100
AcDbLinetypeTableRecord
  2
DOT2
 70
     0
  3
Dot (.5x) ........................................
 72
    65
 73
     2
 40
0.635
 49
0.0
 74
     0
 49
-0.635
 74
     0
  0
ENDTAB
  0
TABLE
  2
LAYER
  5
2
330
0
100
AcDbSymbolTable
 70
     1
  0
LAYER
  5
10
330
2
100
AcDbSymbolTableRecord
100
AcDbLayerTableRecord
  2
0
 70
     0
 62
     7
  6
CONTINUOUS
  0
ENDTAB
  0
TABLE
  2
STYLE
  5
3
330
0
100
AcDbSymbolTable
 70
     3
  0
STYLE
  5
11
330
3
100
AcDbSymbolTableRecord
100
AcDbTextStyleTableRecord
  2
STANDARD
 70
     0
 40
0.0
 41
1.0
 50
0.0
 71
     0
 42
10.0
  3
txt
  4

  0
STYLE
  5
72
330
3
100
AcDbSymbolTableRecord
100
AcDbTextStyleTableRecord
  2
SLDTEXTSTYLE0
 70
     0
 40
0.0
 41
0.96
 50
0.0
 71
     0
 42
10.0
  3
ISOCP3
  4

  0
STYLE
  5
89
330
3
100
AcDbSymbolTableRecord
100
AcDbTextStyleTableRecord
  2
SLDTEXTSTYLE1
 70
     0
 40
0.0
 41
0.605
 50
0.0
 71
     0
 42
10.0
  3
TXT
  4

  0
ENDTAB
  0
TABLE
  2
VIEW
  5
6
330
0
100
AcDbSymbolTable
 70
     0
  0
ENDTAB
  0
TABLE
  2
UCS
  5
7
330
0
100
AcDbSymbolTable
 70
     0
  0
ENDTAB
  0
TABLE
  2
APPID
  5
9
330
0
100
AcDbSymbolTable
 70
     1
  0
APPID
  5
12
330
9
100
AcDbSymbolTableRecord
100
AcDbRegAppTableRecord
  2
ACAD
 70
     0
  0
ENDTAB
  0
TABLE
  2
DIMSTYLE
  5
A
330
0
100
AcDbSymbolTable
 70
     2
  0
DIMSTYLE
105
27
330
A
100
AcDbSymbolTableRecord
100
AcDbDimStyleTableRecord
  2
ISO-25
 70
     0
  3

  4

  5

  6

  7

 40
1.0
 41
2.5
 42
0.625
 43
3.75
 44
1.25
 45
0.0
 46
0.0
 47
0.0
 48
0.0
140
2.5
141
2.5
142
0.0
143
0.0393700787
144
1.0
145
0.0
146
1.0
147
0.625
 71
     0
 72
     0
 73
     0
 74
     0
 75
     0
 76
     0
 77
     1
 78
     8
170
     0
171
     3
172
     1
173
     0
174
     0
175
     0
176
     0
177
     0
178
     0
270
     2
271
     2
272
     2
273
     2
274
     3
340
11
275
     0
280
     0
281
     0
282
     0
283
     0
284
     8
285
     0
286
     0
287
     3
288
     0
  0
DIMSTYLE
105
73
102
{ACAD_REACTORS
330
71
330
7E
102
}
330
A
100
AcDbSymbolTableRecord
100
AcDbDimStyleTableRecord
  2
SLDDIMSTYLE0
 70
     0
  3

  4

  5

  6

  7

 40
1.0
 41
2.5
 42
0.0625
 43
0.38
 44
0.0
 45
0.000000001
 46
0.0
 47
0.0
 48
0.0
140
6.0
141
0.09
142
0.0
143
25.4
144
1.0
145
0.0
146
1.0
147
1.5
 71
     0
 72
     0
 73
     0
 74
     0
 75
     0
 76
     0
 77
     1
 78
    12
170
     0
171
     2
172
     0
173
     1
174
     0
175
     0
176
     0
177
     0
178
     0
270
     2
271
     2
272
     2
273
     2
274
     2
340
72
275
     0
280
     0
281
     0
282
     0
283
     1
284
    12
285
     0
286
     0
287
     3
288
     0
  0
ENDTAB
  0
TABLE
  2
BLOCK_RECORD
  5
1
330
0
100
AcDbSymbolTable
 70
     3
  0
BLOCK_RECORD
  5
1F
330
1
100
AcDbSymbolTableRecord
100
AcDbBlockTableRecord
  2
*MODEL_SPACE
  0
BLOCK_RECORD
  5
1B
330
1
100
AcDbSymbolTableRecord
100
AcDbBlockTableRecord
  2
*PAPER_SPACE
  0
BLOCK_RECORD
  5
23
330
1
100
AcDbSymbolTableRecord
100
AcDbBlockTableRecord
  2
*PAPER_SPACE0
  0
BLOCK_RECORD
  5
74
330
1
100
AcDbSymbolTableRecord
100
AcDbBlockTableRecord
  2
_D
  0
BLOCK_RECORD
  5
7F
330
1
100
AcDbSymbolTableRecord
100
AcDbBlockTableRecord
  2
_D_1
  0
ENDTAB
  0
ENDSEC
  0
SECTION
  2
BLOCKS
  0
BLOCK
  5
20
330
1F
100
AcDbEntity
  8
0
100
AcDbBlockBegin
  2
*MODEL_SPACE
 70
     0
 10
0.0
 20
0.0
 30
0.0
  3
*MODEL_SPACE
  1

  0
ENDBLK
  5
21
330
1F
100
AcDbEntity
  8
0
100
AcDbBlockEnd
  0
BLOCK
  5
1C
330
1B
100
AcDbEntity
 67
     1
  8
0
100
AcDbBlockBegin
  2
*PAPER_SPACE
 70
     0
 10
0.0
 20
0.0
 30
0.0
  3
*PAPER_SPACE
  1

  0
ENDBLK
  5
1D
330
1B
100
AcDbEntity
 67
     1
  8
0
100
AcDbBlockEnd
  0
BLOCK
  5
24
330
23
100
AcDbEntity
  8
0
100
AcDbBlockBegin
  2
*PAPER_SPACE0
 70
     0
 10
0.0
 20
0.0
 30
0.0
  3
*PAPER_SPACE0
  1
*PAPER_SPACE0
  0
ENDBLK
  5
25
330
23
100
AcDbEntity
  8
0
100
AcDbBlockEnd
  0
BLOCK
  5
75
330
74
100
AcDbEntity
  8
0
100
AcDbBlockBegin
  2
_D
 70
     0
 10
0.0
 20
0.0
 30
0.0
  3
_D
  1
_D
  0
SOLID
  5
77
330
74
100
AcDbEntity
  8
0
  6
CONTINUOUS
 62
     7
100
AcDbTrace
 10
42.7614395004
 20
152.0299240879
 30
0.0
 11
42.4614395004
 21
149.5299240879
 31
0.0
 12
43.0614395004
 22
149.5299240879
 32
0.0
 13
43.0614395004
 23
149.5299240879
 33
0.0
  0
SOLID
  5
78
330
74
100
AcDbEntity
  8
0
  6
CONTINUOUS
 62
     7
100
AcDbTrace
 10
42.7614395004
 20
52.0299240879
 30
0.0
 11
43.0614395004
 21
54.5299240879
 31
0.0
 12
42.4614395004
 22
54.5299240879
 32
0.0
 13
42.4614395004
 23
54.5299240879
 33
0.0
  0
LINE
  5
79
330
74
100
AcDbEntity
  8
0
  6
CONTINUOUS
 62
     7
100
AcDbLine
 10
56.6850079902
 20
152.0299240879
 30
0.0
 11
41.7614395004
 21
152.0299240879
 31
0.0
  0
LINE
  5
7A
330
74
100
AcDbEntity
  8
0
  6
CONTINUOUS
 62
     7
100
AcDbLine
 10
56.6850079902
 20
52.0299240879
 30
0.0
 11
41.7614395004
 21
52.0299240879
 31
0.0
  0
LINE
  5
7B
330
74
100
AcDbEntity
  8
0
  6
CONTINUOUS
 62
     7
100
AcDbLine
 10
42.7614395004
 20
152.0299240879
 30
0.0
 11
42.7614395004
 21
52.0299240879
 31
0.0
  0
MTEXT
  5
7C
330
74
100
AcDbEntity
  8
0
  6
CONTINUOUS
 62
     7
100
AcDbMText
 10
35.0270332946
 20
94.3680541463
 30
0.0
 40
6.0
 41
0.0
 71
     1
 72
     1
  1
100
  7
SLDTEXTSTYLE0
 11
-7.044195017643634E-15
 21
1.0
 31
0.0
  0
MTEXT
  5
7D
330
74
100
AcDbEntity
  8
0
  6
CONTINUOUS
 62
     7
100
AcDbMText
 10
35.0270332946
 20
105.7430548466
 30
0.0
 40
6.0
 41
0.0
 71
     1
 72
     1
  1
mm
  7
SLDTEXTSTYLE0
 11
-7.044195017643634E-15
 21
1.0
 31
0.0
  0
ENDBLK
  5
76
330
74
100
AcDbEntity
  8
0
100
AcDbBlockEnd
  0
BLOCK
  5
80
330
7F
100
AcDbEntity
  8
0
100
AcDbBlockBegin
  2
_D_1
 70
     0
 10
0.0
 20
0.0
 30
0.0
  3
_D_1
  1
_D_1
  0
SOLID
  5
82
330
7F
100
AcDbEntity
  8
0
  6
CONTINUOUS
 62
     7
100
AcDbTrace
 10
56.6850079902
 20
38.4602342313
 30
0.0
 11
59.1850079902
 21
38.1602342313
 31
0.0
 12
59.1850079902
 22
38.7602342313
 32
0.0
 13
59.1850079902
 23
38.7602342313
 33
0.0
  0
SOLID
  5
83
330
7F
100
AcDbEntity
  8
0
  6
CONTINUOUS
 62
     7
100
AcDbTrace
 10
156.6850079902
 20
38.4602342313
 30
0.0
 11
154.1850079902
 21
38.7602342313
 31
0.0
 12
154.1850079902
 22
38.1602342313
 32
0.0
 13
154.1850079902
 23
38.1602342313
 33
0.0
  0
LINE
  5
84
330
7F
100
AcDbEntity
  8
0
  6
CONTINUOUS
 62
     7
100
AcDbLine
 10
56.6850079902
 20
52.0299240879
 30
0.0
 11
56.6850079902
 21
37.4602342313
 31
0.0
  0
LINE
  5
85
330
7F
100
AcDbEntity
  8
0
  6
CONTINUOUS
 62
     7
100
AcDbLine
 10
156.6850079902
 20
52.0299240879
 30
0.0
 11
156.6850079902
 21
37.4602342313
 31
0.0
  0
LINE
  5
86
330
7F
100
AcDbEntity
  8
0
  6
CONTINUOUS
 62
     7
100
AcDbLine
 10
56.6850079902
 20
38.4602342313
 30
0.0
 11
156.6850079902
 21
38.4602342313
 31
0.0
  0
MTEXT
  5
87
330
7F
100
AcDbEntity
  8
0
  6
CONTINUOUS
 62
     7
100
AcDbMText
 10
93.9626484861
 20
46.1946404371
 30
0.0
 40
6.0
 41
0.0
 71
     1
 72
     1
  1
100
  7
SLDTEXTSTYLE0
  0
MTEXT
  5
88
330
7F
100
AcDbEntity
  8
0
  6
CONTINUOUS
 62
     7
100
AcDbMText
 10
105.3376491864
 20
46.1946404371
 30
0.0
 40
6.0
 41
0.0
 71
     1
 72
     1
  1
mm
  7
SLDTEXTSTYLE0
  0
ENDBLK
  5
81
330
7F
100
AcDbEntity
  8
0
100
AcDbBlockEnd
  0
ENDSEC
  0
SECTION
  2
ENTITIES
  0
LINE
  5
6F
330
1F
100
AcDbEntity
  8
0
  6
CONTINUOUS
 62
     7
100
AcDbLine
 10
56.6850079902
 20
152.0299240879
 30
0.0
 11
56.6850079902
 21
52.0299240879
 31
0.0
  0
LINE
  5
70
330
1F
100
AcDbEntity
  8
0
  6
CONTINUOUS
 62
     7
100
AcDbLine
 10
56.6850079902
 20
52.0299240879
 30
0.0
 11
156.6850079902
 21
52.0299240879
 31
0.0
  0
DIMENSION
  5
71
330
1F
100
AcDbEntity
  8
0
  6
CONTINUOUS
 62
     7
100
AcDbDimension
  2
_D
 10
42.7614395004
 20
52.0299240879
 30
0.0
 11
42.7614395004
 21
105.4472211621
 31
0.0
 70
   160
  1
<>mm
  3
SLDDIMSTYLE0
100
AcDbAlignedDimension
 13
56.6850079902
 23
152.0299240879
 33
0.0
 14
56.6850079902
 24
52.0299240879
 34
0.0
 50
90.0
100
AcDbRotatedDimension
  0
DIMENSION
  5
7E
330
1F
100
AcDbEntity
  8
0
  6
CONTINUOUS
 62
     7
100
AcDbDimension
  2
_D_1
 10
156.6850079902
 20
38.4602342313
 30
0.0
 11
105.0418155019
 21
38.4602342313
 31
0.0
 70
   160
  1
<>mm
  3
SLDDIMSTYLE0
100
AcDbAlignedDimension
 13
56.6850079902
 23
52.0299240879
 33
0.0
 14
156.6850079902
 24
52.0299240879
 34
0.0
100
AcDbRotatedDimension
  0
MTEXT
  5
8A
330
1F
100
AcDbEntity
  8
0
  6
CONTINUOUS
 62
     7
100
AcDbMText
 10
347.5532847896
 20
48.6198453877
 30
0.0
 40
10.0
 41
0.0
 71
     1
 72
     1
  1
64 330 05-00
  7
SLDTEXTSTYLE1
  0
MTEXT
  5
8B
330
1F
100
AcDbEntity
  8
0
  6
CONTINUOUS
 62
     7
100
AcDbMText
 10
664.658399795
 20
48.4342449499
 30
0.0
 40
10.0
 41
0.0
 71
     1
 72
     1
  1
KLUDI GmbH & Co KG
  7
SLDTEXTSTYLE1
  0
LINE
  5
8C
330
1F
100
AcDbEntity
  8
0
  6
CONTINUOUS
 62
     7
100
AcDbLine
 10
84.8888928632
 20
445.1191454549
 30
0.0
 11
84.8888928632
 21
437.1191450749
 31
0.0
  0
LINE
  5
8D
330
1F
100
AcDbEntity
  8
0
  6
CONTINUOUS
 62
     7
100
AcDbLine
 10
385.8888919095
 20
437.1191450749
 30
0.0
 11
385.8888919095
 21
445.1191454549
 31
0.0
  0
ARC
  5
8E
330
1F
100
AcDbEntity
  8
0
  6
CONTINUOUS
 62
     7
100
AcDbCircle
 10
237.0388923864
 20
435.2191450749
 30
0.0
 40
0.1000000000000227
100
AcDbArc
 50
270.0
 51
0.0
  0
ARC
  5
8F
330
1F
100
AcDbEntity
  8
0
  6
CONTINUOUS
 62
     7
100
AcDbCircle
 10
233.7388923864
 20
435.2191450749
 30
0.0
 40
0.1000000000000227
100
AcDbArc
 50
180.0
 51
270.0
  0
LINE
  5
90
330
1F
100
AcDbEntity
  8
0
  6
CONTINUOUS
 62
     7
100
AcDbLine
 10
233.6388923324
 20
437.1191450749
 30
0.0
 11
233.6388923324
 21
435.2191450429
 31
0.0
  0
LINE
  5
91
330
1F
100
AcDbEntity
  8
0
  6
CONTINUOUS
 62
     7
100
AcDbLine
 10
237.1388924404
 20
435.2191450429
 30
0.0
 11
237.1388924404
 21
437.1191450749
 31
0.0
  0
ARC
  5
92
330
1F
100
AcDbEntity
  8
0
  6
CONTINUOUS
 62
     7
100
AcDbCircle
 10
204.6865117486
 20
435.2191450749
 30
0.0
 40
0.1000000000000227
100
AcDbArc
 50
270.0
 51
0.0
  0
ARC
  5
93
330
1F
100
AcDbEntity
  8
0
  6
CONTINUOUS
 62
     7
100
AcDbCircle
 10
201.3865117486
 20
435.2191450749
 30
0.0
 40
0.1000000000000227
100
AcDbArc
 50
180.0
 51
270.0
  0
ARC
  5
94
330
1F
100
AcDbEntity
  8
0
  6
CONTINUOUS
 62
     7
100
AcDbCircle
 10
269.3912730242
 20
435.2191450749
 30
0.0
 40
0.1000000000000227
100
AcDbArc
 50
270.0
 51
0.0
  0
ARC
  5
95
330
1F
100
AcDbEntity
  8
0
  6
CONTINUOUS
 62
     7
100
AcDbCircle
 10
266.0912730242
 20
435.2191450749
 30
0.0
 40
0.1000000000000227
100
AcDbArc
 50
180.0
 51
270.0
  0
LINE
  5
96
330
1F
100
AcDbEntity
  8
0
  6
CONTINUOUS
 62
     7
100
AcDbLine
 10
201.2865121107
 20
437.1191450749
 30
0.0
 11
201.2865121107
 21
435.2191450429
 31
0.0
  0
LINE
  5
97
330
1F
100
AcDbEntity
  8
0
  6
CONTINUOUS
 62
     7
100
AcDbLine
 10
204.786511753
 20
435.2191450429
 30
0.0
 11
204.786511753
 21
437.1191450749
 31
0.0
  0
LINE
  5
98
330
1F
100
AcDbEntity
  8
0
  6
CONTINUOUS
 62
     7
100
AcDbLine
 10
265.9912730197
 20
437.1191450749
 30
0.0
 11
265.9912730197
 21
435.2191450429
 31
0.0
  0
LINE
  5
99
330
1F
100
AcDbEntity
  8
0
  6
CONTINUOUS
 62
     7
100
AcDbLine
 10
269.4912726621
 20
435.2191450429
 30
0.0
 11
269.4912726621
 21
437.1191450749
 31
0.0
  0
ARC
  5
9A
330
1F
100
AcDbEntity
  8
0
  6
CONTINUOUS
 62
     7
100
AcDbCircle
 10
299.5388923864
 20
435.2191450749
 30
0.0
 40
0.1000000000000227
100
AcDbArc
 50
270.0
 51
0.0
  0
ARC
  5
9B
330
1F
100
AcDbEntity
  8
0
  6
CONTINUOUS
 62
     7
100
AcDbCircle
 10
296.2388923864
 20
435.2191450749
 30
0.0
 40
0.1000000000000227
100
AcDbArc
 50
180.0
 51
270.0
  0
LINE
  5
9C
330
1F
100
AcDbEntity
  8
0
  6
CONTINUOUS
 62
     7
100
AcDbLine
 10
296.1388925652
 20
437.1191450749
 30
0.0
 11
296.1388925652
 21
435.2191450429
 31
0.0
  0
LINE
  5
9D
330
1F
100
AcDbEntity
  8
0
  6
CONTINUOUS
 62
     7
100
AcDbLine
 10
299.6388922076
 20
435.2191450429
 30
0.0
 11
299.6388922076
 21
437.1191450749
 31
0.0
  0
LINE
  5
9E
330
1F
100
AcDbEntity
  8
0
  6
CONTINUOUS
 62
     7
100
AcDbLine
 10
171.1388925652
 20
437.1191450749
 30
0.0
 11
171.1388925652
 21
435.2191450429
 31
0.0
  0
LINE
  5
9F
330
1F
100
AcDbEntity
  8
0
  6
CONTINUOUS
 62
     7
100
AcDbLine
 10
174.6388922076
 20
435.2191450429
 30
0.0
 11
174.6388922076
 21
437.1191450749
 31
0.0
  0
ARC
  5
A0
330
1F
100
AcDbEntity
  8
0
  6
CONTINUOUS
 62
     7
100
AcDbCircle
 10
174.5388923864
 20
435.2191450749
 30
0.0
 40
0.1000000000000227
100
AcDbArc
 50
270.0
 51
0.0
  0
ARC
  5
A1
330
1F
100
AcDbEntity
  8
0
  6
CONTINUOUS
 62
     7
100
AcDbCircle
 10
171.2388923864
 20
435.2191450749
 30
0.0
 40
0.1000000000000227
100
AcDbArc
 50
180.0
 51
270.0
  0
LINE
  5
A2
330
1F
100
AcDbEntity
  8
0
  6
CONTINUOUS
 62
     7
100
AcDbLine
 10
205.9452539871
 20
437.1191450749
 30
0.0
 11
205.9452539871
 21
435.2191450429
 31
0.0
  0
LINE
  5
A3
330
1F
100
AcDbEntity
  8
0
  6
CONTINUOUS
 62
     7
100
AcDbLine
 10
209.4452536295
 20
435.2191450429
 30
0.0
 11
209.4452536295
 21
437.1191450749
 31
0.0
  0
ARC
  5
A4
330
1F
100
AcDbEntity
  8
0
  6
CONTINUOUS
 62
     7
100
AcDbCircle
 10
264.7325302124
 20
435.2191450749
 30
0.0
 40
0.1000000000000227
100
AcDbArc
 50
270.0
 51
0.0
  0
ARC
  5
A5
330
1F
100
AcDbEntity
  8
0
  6
CONTINUOUS
 62
     7
100
AcDbCircle
 10
261.4325302124
 20
435.2191450749
 30
0.0
 40
0.1000000000000227
100
AcDbArc
 50
180.0
 51
270.0
  0
LINE
  5
A6
330
1F
100
AcDbEntity
  8
0
  6
CONTINUOUS
 62
     7
100
AcDbLine
 10
261.3325311433
 20
437.1191450749
 30
0.0
 11
261.3325311433
 21
435.2191450429
 31
0.0
  0
LINE
  5
A7
330
1F
100
AcDbEntity
  8
0
  6
CONTINUOUS
 62
     7
100
AcDbLine
 10
264.8325307856
 20
435.2191450429
 30
0.0
 11
264.8325307856
 21
437.1191450749
 31
0.0
  0
ARC
  5
A8
330
1F
100
AcDbEntity
  8
0
  6
CONTINUOUS
 62
     7
100
AcDbCircle
 10
209.3452545604
 20
435.2191450749
 30
0.0
 40
0.1000000000000227
100
AcDbArc
 50
270.0
 51
0.0
  0
ARC
  5
A9
330
1F
100
AcDbEntity
  8
0
  6
CONTINUOUS
 62
     7
100
AcDbCircle
 10
206.0452545604
 20
435.2191450749
 30
0.0
 40
0.1000000000000227
100
AcDbArc
 50
180.0
 51
270.0
  0
LINE
  5
AA
330
1F
100
AcDbEntity
  8
0
  6
CONTINUOUS
 62
     7
100
AcDbLine
 10
287.1388929526
 20
437.1191450749
 30
0.0
 11
287.1388929526
 21
435.2191450429
 31
0.0
  0
LINE
  5
AB
330
1F
100
AcDbEntity
  8
0
  6
CONTINUOUS
 62
     7
100
AcDbLine
 10
290.638892595
 20
435.2191450429
 30
0.0
 11
290.638892595
 21
437.1191450749
 31
0.0
  0
ARC
  5
AC
330
1F
100
AcDbEntity
  8
0
  6
CONTINUOUS
 62
     7
100
AcDbCircle
 10
290.5388923864
 20
435.2191450749
 30
0.0
 40
0.1000000000000227
100
AcDbArc
 50
270.0
 51
0.0
  0
ARC
  5
AD
330
1F
100
AcDbEntity
  8
0
  6
CONTINUOUS
 62
     7
100
AcDbCircle
 10
287.2388923864
 20
435.2191450749
 30
0.0
 40
0.1000000000000227
100
AcDbArc
 50
180.0
 51
270.0
  0
LINE
  5
AE
330
1F
100
AcDbEntity
  8
0
  6
CONTINUOUS
 62
     7
100
AcDbLine
 10
180.1388921778
 20
437.1191450749
 30
0.0
 11
180.1388921778
 21
435.2191450429
 31
0.0
  0
LINE
  5
AF
330
1F
100
AcDbEntity
  8
0
  6
CONTINUOUS
 62
     7
100
AcDbLine
 10
183.6388918201
 20
435.2191450429
 30
0.0
 11
183.6388918201
 21
437.1191450749
 31
0.0
  0
ARC
  5
B0
330
1F
100
AcDbEntity
  8
0
  6
CONTINUOUS
 62
     7
100
AcDbCircle
 10
183.5388923864
 20
435.2191450749
 30
0.0
 40
0.1000000000000227
100
AcDbArc
 50
270.0
 51
0.0
  0
ARC
  5
B1
330
1F
100
AcDbEntity
  8
0
  6
CONTINUOUS
 62
     7
100
AcDbCircle
 10
180.2388923864
 20
435.2191450749
 30
0.0
 40
0.1000000000000227
100
AcDbArc
 50
180.0
 51
270.0
  0
LINE
  5
B2
330
1F
100
AcDbEntity
  8
0
  6
CONTINUOUS
 62
     7
100
AcDbLine
 10
322.0272387008
 20
437.1191450749
 30
0.0
 11
322.0272387008
 21
435.2191450429
 31
0.0
  0
LINE
  5
B3
330
1F
100
AcDbEntity
  8
0
  6
CONTINUOUS
 62
     7
100
AcDbLine
 10
325.5272383432
 20
435.2191450429
 30
0.0
 11
325.5272383432
 21
437.1191450749
 31
0.0
  0
ARC
  5
B4
330
1F
100
AcDbEntity
  8
0
  6
CONTINUOUS
 62
     7
100
AcDbCircle
 10
148.6505447381
 20
435.2191450749
 30
0.0
 40
0.1000000000000227
100
AcDbArc
 50
270.0
 51
0.0
  0
ARC
  5
B5
330
1F
100
AcDbEntity
  8
0
  6
CONTINUOUS
 62
     7
100
AcDbCircle
 10
145.3505447381
 20
435.2191450749
 30
0.0
 40
0.1000000000000227
100
AcDbArc
 50
180.0
 51
270.0
  0
LINE
  5
B6
330
1F
100
AcDbEntity
  8
0
  6
CONTINUOUS
 62
     7
100
AcDbLine
 10
145.2505464296
 20
437.1191450749
 30
0.0
 11
145.2505464296
 21
435.2191450429
 31
0.0
  0
LINE
  5
B7
330
1F
100
AcDbEntity
  8
0
  6
CONTINUOUS
 62
     7
100
AcDbLine
 10
148.750546072
 20
435.2191450429
 30
0.0
 11
148.750546072
 21
437.1191450749
 31
0.0
  0
ARC
  5
B8
330
1F
100
AcDbEntity
  8
0
  6
CONTINUOUS
 62
     7
100
AcDbCircle
 10
325.4272400347
 20
435.2191450749
 30
0.0
 40
0.1000000000000227
100
AcDbArc
 50
270.0
 51
0.0
  0
ARC
  5
B9
330
1F
100
AcDbEntity
  8
0
  6
CONTINUOUS
 62
     7
100
AcDbCircle
 10
322.1272400347
 20
435.2191450749
 30
0.0
 40
0.1000000000000796
100
AcDbArc
 50
180.0
 51
270.0
  0
ARC
  5
BA
330
1F
100
AcDbEntity
  8
0
  6
CONTINUOUS
 62
     7
100
AcDbCircle
 10
260.0737874005
 20
435.2191450749
 30
0.0
 40
0.1000000000000227
100
AcDbArc
 50
270.0
 51
0.0
  0
ARC
  5
BB
330
1F
100
AcDbEntity
  8
0
  6
CONTINUOUS
 62
     7
100
AcDbCircle
 10
256.7737874005
 20
435.2191450749
 30
0.0
 40
0.1000000000000227
100
AcDbArc
 50
180.0
 51
270.0
  0
ARC
  5
BC
330
1F
100
AcDbEntity
  8
0
  6
CONTINUOUS
 62
     7
100
AcDbCircle
 10
214.0039973723
 20
435.2191450749
 30
0.0
 40
0.1000000000000227
100
AcDbArc
 50
270.0
 51
0.0
  0
ARC
  5
BD
330
1F
100
AcDbEntity
  8
0
  6
CONTINUOUS
 62
     7
100
AcDbCircle
 10
210.7039973723
 20
435.2191450749
 30
0.0
 40
0.1000000000000227
100
AcDbArc
 50
180.0
 51
270.0
  0
LINE
  5
BE
330
1F
100
AcDbEntity
  8
0
  6
CONTINUOUS
 62
     7
100
AcDbLine
 10
210.6039977263
 20
437.1191450749
 30
0.0
 11
210.6039977263
 21
435.2191450429
 31
0.0
  0
LINE
  5
BF
330
1F
100
AcDbEntity
  8
0
  6
CONTINUOUS
 62
     7
100
AcDbLine
 10
214.1039973686
 20
435.2191450429
 30
0.0
 11
214.1039973686
 21
437.1191450749
 31
0.0
  0
LINE
  5
C0
330
1F
100
AcDbEntity
  8
0
  6
CONTINUOUS
 62
     7
100
AcDbLine
 10
256.6737874041
 20
437.1191450749
 30
0.0
 11
256.6737874041
 21
435.2191450429
 31
0.0
  0
LINE
  5
C1
330
1F
100
AcDbEntity
  8
0
  6
CONTINUOUS
 62
     7
100
AcDbLine
 10
260.1737870465
 20
435.2191450429
 30
0.0
 11
260.1737870465
 21
437.1191450749
 31
0.0
  0
ARC
  5
C2
330
1F
100
AcDbEntity
  8
0
  6
CONTINUOUS
 62
     7
100
AcDbCircle
 10
281.5388923864
 20
435.2191450749
 30
0.0
 40
0.1000000000000227
100
AcDbArc
 50
270.0
 51
0.0
  0
ARC
  5
C3
330
1F
100
AcDbEntity
  8
0
  6
CONTINUOUS
 62
     7
100
AcDbCircle
 10
278.2388923864
 20
435.2191450749
 30
0.0
 40
0.1000000000000227
100
AcDbArc
 50
180.0
 51
270.0
  0
LINE
  5
C4
330
1F
100
AcDbEntity
  8
0
  6
CONTINUOUS
 62
     7
100
AcDbLine
 10
278.1388933401
 20
437.1191450749
 30
0.0
 11
278.1388933401
 21
435.2191450429
 31
0.0
  0
LINE
  5
C5
330
1F
100
AcDbEntity
  8
0
  6
CONTINUOUS
 62
     7
100
AcDbLine
 10
281.6388929824
 20
435.2191450429
 30
0.0
 11
281.6388929824
 21
437.1191450749
 31
0.0
  0
LINE
  5
C6
330
1F
100
AcDbEntity
  8
0
  6
CONTINUOUS
 62
     7
100
AcDbLine
 10
189.1388917903
 20
437.1191450749
 30
0.0
 11
189.1388917903
 21
435.2191450429
 31
0.0
  0
LINE
  5
C7
330
1F
100
AcDbEntity
  8
0
  6
CONTINUOUS
 62
     7
100
AcDbLine
 10
192.6388914327
 20
435.2191450429
 30
0.0
 11
192.6388914327
 21
437.1191450749
 31
0.0
  0
ARC
  5
C8
330
1F
100
AcDbEntity
  8
0
  6
CONTINUOUS
 62
     7
100
AcDbCircle
 10
192.5388923864
 20
435.2191450749
 30
0.0
 40
0.1000000000000227
100
AcDbArc
 50
270.0
 51
0.0
  0
ARC
  5
C9
330
1F
100
AcDbEntity
  8
0
  6
CONTINUOUS
 62
     7
100
AcDbCircle
 10
189.2388923864
 20
435.2191450749
 30
0.0
 40
0.1000000000000227
100
AcDbArc
 50
180.0
 51
270.0
  0
ARC
  5
CA
330
1F
100
AcDbEntity
  8
0
  6
CONTINUOUS
 62
     7
100
AcDbCircle
 10
312.6993179733
 20
435.2191450749
 30
0.0
 40
0.1000000000000227
100
AcDbArc
 50
270.0
 51
0.0
  0
ARC
  5
CB
330
1F
100
AcDbEntity
  8
0
  6
CONTINUOUS
 62
     7
100
AcDbCircle
 10
309.3993179733
 20
435.2191450749
 30
0.0
 40
0.1000000000000227
100
AcDbArc
 50
180.0
 51
270.0
  0
LINE
  5
CC
330
1F
100
AcDbEntity
  8
0
  6
CONTINUOUS
 62
     7
100
AcDbLine
 10
309.2993150095
 20
437.1191450749
 30
0.0
 11
309.2993150095
 21
435.2191450429
 31
0.0
  0
LINE
  5
CD
330
1F
100
AcDbEntity
  8
0
  6
CONTINUOUS
 62
     7
100
AcDbLine
 10
312.7993146519
 20
435.2191450429
 30
0.0
 11
312.7993146519
 21
437.1191450749
 31
0.0
  0
LINE
  5
CE
330
1F
100
AcDbEntity
  8
0
  6
CONTINUOUS
 62
     7
100
AcDbLine
 10
157.9784701209
 20
437.1191450749
 30
0.0
 11
157.9784701209
 21
435.2191450429
 31
0.0
  0
LINE
  5
CF
330
1F
100
AcDbEntity
  8
0
  6
CONTINUOUS
 62
     7
100
AcDbLine
 10
161.4784697632
 20
435.2191450429
 30
0.0
 11
161.4784697632
 21
437.1191450749
 31
0.0
  0
ARC
  5
D0
330
1F
100
AcDbEntity
  8
0
  6
CONTINUOUS
 62
     7
100
AcDbCircle
 10
161.3784667994
 20
435.2191450749
 30
0.0
 40
0.1000000000000227
100
AcDbArc
 50
270.0
 51
0.0
  0
ARC
  5
D1
330
1F
100
AcDbEntity
  8
0
  6
CONTINUOUS
 62
     7
100
AcDbCircle
 10
158.0784667994
 20
435.2191450749
 30
0.0
 40
0.1000000000000227
100
AcDbArc
 50
180.0
 51
270.0
  0
ARC
  5
D2
330
1F
100
AcDbEntity
  8
0
  6
CONTINUOUS
 62
     7
100
AcDbCircle
 10
255.4150445887
 20
435.2191450749
 30
0.0
 40
0.1000000000000512
100
AcDbArc
 50
270.0
 51
0.0
  0
ARC
  5
D3
330
1F
100
AcDbEntity
  8
0
  6
CONTINUOUS
 62
     7
100
AcDbCircle
 10
252.1150445887
 20
435.2191450749
 30
0.0
 40
0.1000000000000227
100
AcDbArc
 50
180.0
 51
270.0
  0
ARC
  5
D4
330
1F
100
AcDbEntity
  8
0
  6
CONTINUOUS
 62
     7
100
AcDbCircle
 10
218.6627401841
 20
435.2191450749
 30
0.0
 40
0.1000000000000227
100
AcDbArc
 50
270.0
 51
0.0
  0
ARC
  5
D5
330
1F
100
AcDbEntity
  8
0
  6
CONTINUOUS
 62
     7
100
AcDbCircle
 10
215.3627401841
 20
435.2191450749
 30
0.0
 40
0.1000000000000227
100
AcDbArc
 50
180.0
 51
270.0
  0
LINE
  5
D6
330
1F
100
AcDbEntity
  8
0
  6
CONTINUOUS
 62
     7
100
AcDbLine
 10
255.51504517
 20
435.2191450429
 30
0.0
 11
255.51504517
 21
437.1191450749
 31
0.0
  0
LINE
  5
D7
330
1F
100
AcDbEntity
  8
0
  6
CONTINUOUS
 62
     7
100
AcDbLine
 10
252.015043665
 20
437.1191450749
 30
0.0
 11
252.015043665
 21
435.2191450429
 31
0.0
  0
LINE
  5
D8
330
1F
100
AcDbEntity
  8
0
  6
CONTINUOUS
 62
     7
100
AcDbLine
 10
218.7627411078
 20
435.2191450429
 30
0.0
 11
218.7627411078
 21
437.1191450749
 31
0.0
  0
LINE
  5
D9
330
1F
100
AcDbEntity
  8
0
  6
CONTINUOUS
 62
     7
100
AcDbLine
 10
215.2627396028
 20
437.1191450749
 30
0.0
 11
215.2627396028
 21
435.2191450429
 31
0.0
  0
ARC
  5
DA
330
1F
100
AcDbEntity
  8
0
  6
CONTINUOUS
 62
     7
100
AcDbCircle
 10
299.971395912
 20
435.2191450749
 30
0.0
 40
0.1000000000000227
100
AcDbArc
 50
270.0
 51
0.0
  0
ARC
  5
DB
330
1F
100
AcDbEntity
  8
0
  6
CONTINUOUS
 62
     7
100
AcDbCircle
 10
170.8063888608
 20
435.2191450749
 30
0.0
 40
0.1000000000000227
100
AcDbArc
 50
180.0
 51
270.0
  0
LINE
  5
DC
330
1F
100
AcDbEntity
  8
0
  6
CONTINUOUS
 62
     7
100
AcDbLine
 10
170.7063863615
 20
437.1191450749
 30
0.0
 11
170.7063863615
 21
435.2191450429
 31
0.0
  0
LINE
  5
DD
330
1F
100
AcDbEntity
  8
0
  6
CONTINUOUS
 62
     7
100
AcDbLine
 10
300.0713984112
 20
435.2191450429
 30
0.0
 11
300.0713984112
 21
437.1191450749
 31
0.0
  0
ARC
  5
DE
330
1F
100
AcDbEntity
  8
0
  6
CONTINUOUS
 62
     7
100
AcDbCircle
 10
128.7857169133
 20
435.2191450749
 30
0.0
 40
0.1000000000000227
100
AcDbArc
 50
270.0
 51
0.0
  0
ARC
  5
DF
330
1F
100
AcDbEntity
  8
0
  6
CONTINUOUS
 62
     7
100
AcDbCircle
 10
125.4857169133
 20
435.2191450749
 30
0.0
 40
0.1000000000000227
100
AcDbArc
 50
180.0
 51
270.0
  0
LINE
  5
E0
330
1F
100
AcDbEntity
  8
0
  6
CONTINUOUS
 62
     7
100
AcDbLine
 10
125.3857190351
 20
437.1191450749
 30
0.0
 11
125.3857190351
 21
435.2191450429
 31
0.0
  0
LINE
  5
E1
330
1F
100
AcDbEntity
  8
0
  6
CONTINUOUS
 62
     7
100
AcDbLine
 10
128.8857186775
 20
435.2191450429
 30
0.0
 11
128.8857186775
 21
437.1191450749
 31
0.0
  0
ARC
  5
E2
330
1F
100
AcDbEntity
  8
0
  6
CONTINUOUS
 62
     7
100
AcDbCircle
 10
345.2920678595
 20
435.2191450749
 30
0.0
 40
0.1000000000000227
100
AcDbArc
 50
270.0
 51
0.0
  0
ARC
  5
E3
330
1F
100
AcDbEntity
  8
0
  6
CONTINUOUS
 62
     7
100
AcDbCircle
 10
341.9920678595
 20
435.2191450749
 30
0.0
 40
0.1000000000000227
100
AcDbArc
 50
180.0
 51
270.0
  0
LINE
  5
E4
330
1F
100
AcDbEntity
  8
0
  6
CONTINUOUS
 62
     7
100
AcDbLine
 10
341.8920660953
 20
437.1191450749
 30
0.0
 11
341.8920660953
 21
435.2191450429
 31
0.0
  0
LINE
  5
E5
330
1F
100
AcDbEntity
  8
0
  6
CONTINUOUS
 62
     7
100
AcDbLine
 10
345.3920657377
 20
435.2191450429
 30
0.0
 11
345.3920657377
 21
437.1191450749
 31
0.0
  0
ARC
  5
E6
330
1F
100
AcDbEntity
  8
0
  6
CONTINUOUS
 62
     7
100
AcDbCircle
 10
198.2388923864
 20
435.2191450749
 30
0.0
 40
0.1000000000000227
100
AcDbArc
 50
180.0
 51
270.0
  0
ARC
  5
E7
330
1F
100
AcDbEntity
  8
0
  6
CONTINUOUS
 62
     7
100
AcDbCircle
 10
272.5388923864
 20
435.2191450749
 30
0.0
 40
0.1000000000000227
100
AcDbArc
 50
270.0
 51
0.0
  0
LINE
  5
E8
330
1F
100
AcDbEntity
  8
0
  6
CONTINUOUS
 62
     7
100
AcDbLine
 10
198.1388914029
 20
437.1191450749
 30
0.0
 11
198.1388914029
 21
435.2191450429
 31
0.0
  0
LINE
  5
E9
330
1F
100
AcDbEntity
  8
0
  6
CONTINUOUS
 62
     7
100
AcDbLine
 10
272.6388933699
 20
435.2191450429
 30
0.0
 11
272.6388933699
 21
437.1191450749
 31
0.0
  0
ARC
  5
EA
330
1F
100
AcDbEntity
  8
0
  6
CONTINUOUS
 62
     7
100
AcDbCircle
 10
144.3741741815
 20
435.2191450749
 30
0.0
 40
0.1000000000000227
100
AcDbArc
 50
270.0
 51
0.0
  0
ARC
  5
EB
330
1F
100
AcDbEntity
  8
0
  6
CONTINUOUS
 62
     7
100
AcDbCircle
 10
141.0741741815
 20
435.2191450749
 30
0.0
 40
0.1000000000000227
100
AcDbArc
 50
180.0
 51
270.0
  0
LINE
  5
EC
330
1F
100
AcDbEntity
  8
0
  6
CONTINUOUS
 62
     7
100
AcDbLine
 10
140.9741739373
 20
437.1191450749
 30
0.0
 11
140.9741739373
 21
435.2191450429
 31
0.0
  0
LINE
  5
ED
330
1F
100
AcDbEntity
  8
0
  6
CONTINUOUS
 62
     7
100
AcDbLine
 10
144.4741735796
 20
435.2191450429
 30
0.0
 11
144.4741735796
 21
437.1191450749
 31
0.0
  0
ARC
  5
EE
330
1F
100
AcDbEntity
  8
0
  6
CONTINUOUS
 62
     7
100
AcDbCircle
 10
329.7036105913
 20
435.2191450749
 30
0.0
 40
0.1000000000000227
100
AcDbArc
 50
270.0
 51
0.0
  0
ARC
  5
EF
330
1F
100
AcDbEntity
  8
0
  6
CONTINUOUS
 62
     7
100
AcDbCircle
 10
326.4036105913
 20
435.2191450749
 30
0.0
 40
0.1000000000000227
100
AcDbArc
 50
180.0
 51
270.0
  0
LINE
  5
F0
330
1F
100
AcDbEntity
  8
0
  6
CONTINUOUS
 62
     7
100
AcDbLine
 10
326.3036111931
 20
437.1191450749
 30
0.0
 11
326.3036111931
 21
435.2191450429
 31
0.0
  0
LINE
  5
F1
330
1F
100
AcDbEntity
  8
0
  6
CONTINUOUS
 62
     7
100
AcDbLine
 10
329.8036108355
 20
435.2191450429
 30
0.0
 11
329.8036108355
 21
437.1191450749
 31
0.0
  0
ARC
  5
F2
330
1F
100
AcDbEntity
  8
0
  6
CONTINUOUS
 62
     7
100
AcDbCircle
 10
283.9434738506
 20
435.2191450749
 30
0.0
 40
0.1000000000000227
100
AcDbArc
 50
180.0
 51
270.0
  0
ARC
  5
F3
330
1F
100
AcDbEntity
  8
0
  6
CONTINUOUS
 62
     7
100
AcDbCircle
 10
186.8343109221
 20
435.2191450749
 30
0.0
 40
0.1000000000000227
100
AcDbArc
 50
270.0
 51
0.0
  0
LINE
  5
F4
330
1F
100
AcDbEntity
  8
0
  6
CONTINUOUS
 62
     7
100
AcDbLine
 10
283.8434750776
 20
437.1191450749
 30
0.0
 11
283.8434750776
 21
435.2191450429
 31
0.0
  0
LINE
  5
F5
330
1F
100
AcDbEntity
  8
0
  6
CONTINUOUS
 62
     7
100
AcDbLine
 10
186.9343096952
 20
435.2191450429
 30
0.0
 11
186.9343096952
 21
437.1191450749
 31
0.0
  0
ARC
  5
F6
330
1F
100
AcDbEntity
  8
0
  6
CONTINUOUS
 62
     7
100
AcDbCircle
 10
260.2388923864
 20
435.2191450749
 30
0.0
 40
0.1000000000000318
100
AcDbArc
 50
214.3582527509
 51
270.0
  0
ARC
  5
F7
330
1F
100
AcDbEntity
  8
0
  6
CONTINUOUS
 62
     7
100
AcDbCircle
 10
210.5388923864
 20
435.2191450749
 30
0.0
 40
0.1000000000000308
100
AcDbArc
 50
270.0
 51
325.6417472878
  0
ARC
  5
F8
330
1F
100
AcDbEntity
  8
0
  6
CONTINUOUS
 62
     7
100
AcDbCircle
 10
156.6626314496
 20
435.2191450749
 30
0.0
 40
0.1000000000000227
100
AcDbArc
 50
180.0
 51
270.0
  0
LINE
  5
F9
330
1F
100
AcDbEntity
  8
0
  6
CONTINUOUS
 62
     7
100
AcDbLine
 10
156.5626288394
 20
437.1191450749
 30
0.0
 11
156.5626288394
 21
435.2191450429
 31
0.0
  0
ARC
  5
FA
330
1F
100
AcDbEntity
  8
0
  6
CONTINUOUS
 62
     7
100
AcDbCircle
 10
314.1151533232
 20
435.2191450749
 30
0.0
 40
0.1000000000000227
100
AcDbArc
 50
270.0
 51
0.0
  0
LINE
  5
FB
330
1F
100
AcDbEntity
  8
0
  6
CONTINUOUS
 62
     7
100
AcDbLine
 10
314.2151559333
 20
435.2191450429
 30
0.0
 11
314.2151559333
 21
437.1191450749
 31
0.0
  0
ARC
  5
FC
330
1F
100
AcDbEntity
  8
0
  6
CONTINUOUS
 62
     7
100
AcDbCircle
 10
295.2266960551
 20
435.2191450749
 30
0.0
 40
0.1000000000000227
100
AcDbArc
 50
180.0
 51
270.0
  0
ARC
  5
FD
330
1F
100
AcDbEntity
  8
0
  6
CONTINUOUS
 62
     7
100
AcDbCircle
 10
175.5510887177
 20
435.2191450749
 30
0.0
 40
0.1000000000000227
100
AcDbArc
 50
270.0
 51
0.0
  0
LINE
  5
FE
330
1F
100
AcDbEntity
  8
0
  6
CONTINUOUS
 62
     7
100
AcDbLine
 10
175.6510871093
 20
435.2191450429
 30
0.0
 11
175.6510871093
 21
437.1191450749
 31
0.0
  0
LINE
  5
FF
330
1F
100
AcDbEntity
  8
0
  6
CONTINUOUS
 62
     7
100
AcDbLine
 10
295.1266976635
 20
437.1191450749
 30
0.0
 11
295.1266976635
 21
435.2191450429
 31
0.0
  0
LINE
  5
100
330
1F
100
AcDbEntity
  8
0
  6
CONTINUOUS
 62
     7
100
AcDbLine
 10
354.3796191554
 20
437.1191450749
 30
0.0
 11
354.3796191554
 21
435.2191450429
 31
0.0
  0
LINE
  5
101
330
1F
100
AcDbEntity
  8
0
  6
CONTINUOUS
 62
     7
100
AcDbLine
 10
357.8796187977
 20
435.2191450429
 30
0.0
 11
357.8796187977
 21
437.1191450749
 31
0.0
  0
ARC
  5
102
330
1F
100
AcDbEntity
  8
0
  6
CONTINUOUS
 62
     7
100
AcDbCircle
 10
357.7796206725
 20
435.2191450749
 30
0.0
 40
0.1000000000000227
100
AcDbArc
 50
270.0
 51
0.0
  0
ARC
  5
103
330
1F
100
AcDbEntity
  8
0
  6
CONTINUOUS
 62
     7
100
AcDbCircle
 10
354.4796206725
 20
435.2191450749
 30
0.0
 40
0.1000000000000227
100
AcDbArc
 50
180.0
 51
270.0
  0
ARC
  5
104
330
1F
100
AcDbEntity
  8
0
  6
CONTINUOUS
 62
     7
100
AcDbCircle
 10
116.2981641003
 20
435.2191450749
 30
0.0
 40
0.1000000000000227
100
AcDbArc
 50
270.0
 51
0.0
  0
ARC
  5
105
330
1F
100
AcDbEntity
  8
0
  6
CONTINUOUS
 62
     7
100
AcDbCircle
 10
112.9981641003
 20
435.2191450749
 30
0.0
 40
0.1000000000000227
100
AcDbArc
 50
180.0
 51
270.0
  0
LINE
  5
106
330
1F
100
AcDbEntity
  8
0
  6
CONTINUOUS
 62
     7
100
AcDbLine
 10
112.898165975
 20
437.1191450749
 30
0.0
 11
112.898165975
 21
435.2191450429
 31
0.0
  0
LINE
  5
107
330
1F
100
AcDbEntity
  8
0
  6
CONTINUOUS
 62
     7
100
AcDbLine
 10
116.3981656174
 20
435.2191450429
 30
0.0
 11
116.3981656174
 21
437.1191450749
 31
0.0
  0
ARC
  5
108
330
1F
100
AcDbEntity
  8
0
  6
CONTINUOUS
 62
     7
100
AcDbCircle
 10
219.5388923864
 20
435.2191450749
 30
0.0
 40
0.1000000000000227
100
AcDbArc
 50
270.0
 51
0.0
  0
ARC
  5
109
330
1F
100
AcDbEntity
  8
0
  6
CONTINUOUS
 62
     7
100
AcDbCircle
 10
251.2388923864
 20
435.2191450749
 30
0.0
 40
0.1000000000000227
100
AcDbArc
 50
180.0
 51
270.0
  0
LINE
  5
10A
330
1F
100
AcDbEntity
  8
0
  6
CONTINUOUS
 62
     7
100
AcDbLine
 10
251.1388926397
 20
437.1191450749
 30
0.0
 11
251.1388926397
 21
435.2191450429
 31
0.0
  0
LINE
  5
10B
330
1F
100
AcDbEntity
  8
0
  6
CONTINUOUS
 62
     7
100
AcDbLine
 10
219.6388921331
 20
435.2191450429
 30
0.0
 11
219.6388921331
 21
437.1191450749
 31
0.0
  0
ARC
  5
10C
330
1F
100
AcDbEntity
  8
0
  6
CONTINUOUS
 62
     7
100
AcDbCircle
 10
340.3929557993
 20
435.2191450749
 30
0.0
 40
0.1000000000000227
100
AcDbArc
 50
270.0
 51
0.0
  0
ARC
  5
10D
330
1F
100
AcDbEntity
  8
0
  6
CONTINUOUS
 62
     7
100
AcDbCircle
 10
337.0929557993
 20
435.2191450749
 30
0.0
 40
0.1000000000000227
100
AcDbArc
 50
180.0
 51
270.0
  0
LINE
  5
10E
330
1F
100
AcDbEntity
  8
0
  6
CONTINUOUS
 62
     7
100
AcDbLine
 10
336.9929591755
 20
437.1191450749
 30
0.0
 11
336.9929591755
 21
435.2191450429
 31
0.0
  0
LINE
  5
10F
330
1F
100
AcDbEntity
  8
0
  6
CONTINUOUS
 62
     7
100
AcDbLine
 10
340.4929588179
 20
435.2191450429
 30
0.0
 11
340.4929588179
 21
437.1191450749
 31
0.0
  0
ARC
  5
110
330
1F
100
AcDbEntity
  8
0
  6
CONTINUOUS
 62
     7
100
AcDbCircle
 10
133.6848289735
 20
435.2191450749
 30
0.0
 40
0.1000000000000227
100
AcDbArc
 50
270.0
 51
0.0
  0
ARC
  5
111
330
1F
100
AcDbEntity
  8
0
  6
CONTINUOUS
 62
     7
100
AcDbCircle
 10
130.3848289735
 20
435.2191450749
 30
0.0
 40
0.1000000000000227
100
AcDbArc
 50
180.0
 51
270.0
  0
LINE
  5
112
330
1F
100
AcDbEntity
  8
0
  6
CONTINUOUS
 62
     7
100
AcDbLine
 10
130.2848259549
 20
437.1191450749
 30
0.0
 11
130.2848259549
 21
435.2191450429
 31
0.0
  0
LINE
  5
113
330
1F
100
AcDbEntity
  8
0
  6
CONTINUOUS
 62
     7
100
AcDbLine
 10
133.7848255972
 20
435.2191450429
 30
0.0
 11
133.7848255972
 21
437.1191450749
 31
0.0
  0
ARC
  5
114
330
1F
100
AcDbEntity
  8
0
  6
CONTINUOUS
 62
     7
100
AcDbCircle
 10
187.8395459858
 20
435.2191450749
 30
0.0
 40
0.1000000000000227
100
AcDbArc
 50
180.0
 51
270.0
  0
ARC
  5
115
330
1F
100
AcDbEntity
  8
0
  6
CONTINUOUS
 62
     7
100
AcDbCircle
 10
282.938238787
 20
435.2191450749
 30
0.0
 40
0.1000000000000227
100
AcDbArc
 50
270.0
 51
0.0
  0
LINE
  5
116
330
1F
100
AcDbEntity
  8
0
  6
CONTINUOUS
 62
     7
100
AcDbLine
 10
283.0382386784
 20
435.2191450429
 30
0.0
 11
283.0382386784
 21
437.1191450749
 31
0.0
  0
LINE
  5
117
330
1F
100
AcDbEntity
  8
0
  6
CONTINUOUS
 62
     7
100
AcDbLine
 10
187.7395460944
 20
437.1191450749
 30
0.0
 11
187.7395460944
 21
435.2191450429
 31
0.0
  0
LINE
  5
118
330
1F
100
AcDbEntity
  8
0
  6
CONTINUOUS
 62
     7
100
AcDbLine
 10
319.6062917451
 20
437.1191450749
 30
0.0
 11
319.6062917451
 21
435.2191450429
 31
0.0
  0
ARC
  5
119
330
1F
100
AcDbEntity
  8
0
  6
CONTINUOUS
 62
     7
100
AcDbCircle
 10
319.7062909261
 20
435.2191450749
 30
0.0
 40
0.1000000000000227
100
AcDbArc
 50
180.0
 51
270.0
  0
LINE
  5
11A
330
1F
100
AcDbEntity
  8
0
  6
CONTINUOUS
 62
     7
100
AcDbLine
 10
151.1714930276
 20
435.2191450429
 30
0.0
 11
151.1714930276
 21
437.1191450749
 31
0.0
  0
ARC
  5
11B
330
1F
100
AcDbEntity
  8
0
  6
CONTINUOUS
 62
     7
100
AcDbCircle
 10
151.0714938467
 20
435.2191450749
 30
0.0
 40
0.1000000000000227
100
AcDbArc
 50
270.0
 51
0.0
  0
ARC
  5
11C
330
1F
100
AcDbEntity
  8
0
  6
CONTINUOUS
 62
     7
100
AcDbCircle
 10
168.4581587199
 20
435.2191450749
 30
0.0
 40
0.1000000000000227
100
AcDbArc
 50
270.0
 51
0.0
  0
ARC
  5
11D
330
1F
100
AcDbEntity
  8
0
  6
CONTINUOUS
 62
     7
100
AcDbCircle
 10
165.1581587199
 20
435.2191450749
 30
0.0
 40
0.1000000000000512
100
AcDbArc
 50
180.0
 51
270.0
  0
ARC
  5
11E
330
1F
100
AcDbEntity
  8
0
  6
CONTINUOUS
 62
     7
100
AcDbCircle
 10
305.6196260529
 20
435.2191450749
 30
0.0
 40
0.1000000000000227
100
AcDbArc
 50
270.0
 51
0.0
  0
ARC
  5
11F
330
1F
100
AcDbEntity
  8
0
  6
CONTINUOUS
 62
     7
100
AcDbCircle
 10
302.3196260529
 20
435.2191450749
 30
0.0
 40
0.1000000000000227
100
AcDbArc
 50
180.0
 51
270.0
  0
LINE
  5
120
330
1F
100
AcDbEntity
  8
0
  6
CONTINUOUS
 62
     7
100
AcDbLine
 10
168.558160458
 20
435.2191450429
 30
0.0
 11
168.558160458
 21
437.1191450749
 31
0.0
  0
LINE
  5
121
330
1F
100
AcDbEntity
  8
0
  6
CONTINUOUS
 62
     7
100
AcDbLine
 10
165.0581608157
 20
437.1191450749
 30
0.0
 11
165.0581608157
 21
435.2191450429
 31
0.0
  0
LINE
  5
122
330
1F
100
AcDbEntity
  8
0
  6
CONTINUOUS
 62
     7
100
AcDbLine
 10
305.7196239571
 20
435.2191450429
 30
0.0
 11
305.7196239571
 21
437.1191450749
 31
0.0
  0
LINE
  5
123
330
1F
100
AcDbEntity
  8
0
  6
CONTINUOUS
 62
     7
100
AcDbLine
 10
302.2196243147
 20
437.1191450749
 30
0.0
 11
302.2196243147
 21
435.2191450429
 31
0.0
  0
ARC
  5
124
330
1F
100
AcDbEntity
  8
0
  6
CONTINUOUS
 62
     7
100
AcDbCircle
 10
250.8888923864
 20
453.6191450749
 30
0.0
 40
1.500000000000003
100
AcDbArc
 50
270.0
 51
289.6148291774
  0
ARC
  5
125
330
1F
100
AcDbEntity
  8
0
  6
CONTINUOUS
 62
     7
100
AcDbCircle
 10
219.8888923864
 20
453.6191450749
 30
0.0
 40
1.5
100
AcDbArc
 50
250.2327775076
 51
270.0
  0
ARC
  5
126
330
1F
100
AcDbEntity
  8
0
  6
CONTINUOUS
 62
     7
100
AcDbCircle
 10
235.3888923864
 20
465.8191450749
 30
0.0
 40
13.00000000000002
100
AcDbArc
 50
29.0678679536
 51
34.2288663278
  0
ARC
  5
127
330
1F
100
AcDbEntity
  8
0
  6
CONTINUOUS
 62
     7
100
AcDbCircle
 10
235.3888923864
 20
465.8191450749
 30
0.0
 40
13.00000000000001
100
AcDbArc
 50
145.1266560904
 51
150.7130335534
  0
ARC
  5
128
330
1F
100
AcDbEntity
  8
0
  6
CONTINUOUS
 62
     7
100
AcDbCircle
 10
235.3888923864
 20
465.8191450749
 30
0.0
 40
13.00000000000002
100
AcDbArc
 50
34.2288663278
 51
34.8733439096
  0
ARC
  5
129
330
1F
100
AcDbEntity
  8
0
  6
CONTINUOUS
 62
     7
100
AcDbCircle
 10
249.8888923864
 20
471.1191450749
 30
0.0
 40
1.0
100
AcDbArc
 50
0.0
 51
90.0
  0
ARC
  5
12A
330
1F
100
AcDbEntity
  8
0
  6
CONTINUOUS
 62
     7
100
AcDbCircle
 10
220.8888923864
 20
471.1191450749
 30
0.0
 40
1.0
100
AcDbArc
 50
90.0
 51
180.0
  0
LINE
  5
12B
330
1F
100
AcDbEntity
  8
0
  6
CONTINUOUS
 62
     7
100
AcDbLine
 10
250.8888921331
 20
460.1191451196
 30
0.0
 11
250.8888921331
 21
471.1191469227
 31
0.0
  0
LINE
  5
12C
330
1F
100
AcDbEntity
  8
0
  6
CONTINUOUS
 62
     7
100
AcDbLine
 10
219.8888926397
 20
471.1191469227
 30
0.0
 11
219.8888926397
 21
460.1191451196
 31
0.0
  0
LINE
  5
12D
330
1F
100
AcDbEntity
  8
0
  6
CONTINUOUS
 62
     7
100
AcDbLine
 10
247.3888924907
 20
478.869144002
 30
0.0
 11
247.3888924907
 21
486.6191448067
 31
0.0
  0
LINE
  5
12E
330
1F
100
AcDbEntity
  8
0
  6
CONTINUOUS
 62
     7
100
AcDbLine
 10
223.3888922821
 20
486.6191448067
 30
0.0
 11
223.3888922821
 21
478.869144002
 31
0.0
  0
ARC
  5
12F
330
1F
100
AcDbEntity
  8
0
  6
CONTINUOUS
 62
     7
100
AcDbCircle
 10
245.3888923864
 20
478.8691450749
 30
0.0
 40
2.0
100
AcDbArc
 50
308.7069637031
 51
0.0
  0
ARC
  5
130
330
1F
100
AcDbEntity
  8
0
  6
CONTINUOUS
 62
     7
100
AcDbCircle
 10
225.3888923864
 20
478.8691450749
 30
0.0
 40
2.0
100
AcDbArc
 50
180.0
 51
231.2930362969
  0
ARC
  5
131
330
1F
100
AcDbEntity
  8
0
  6
CONTINUOUS
 62
     7
100
AcDbCircle
 10
248.5155799108
 20
474.9673730256
 30
0.0
 40
3.000000000000016
100
AcDbArc
 50
128.7069637029
 51
214.8733439096
  0
ARC
  5
132
330
1F
100
AcDbEntity
  8
0
  6
CONTINUOUS
 62
     7
100
AcDbCircle
 10
222.262204862
 20
474.9673730256
 30
0.0
 40
3.000000000000016
100
AcDbArc
 50
325.1266560904
 51
51.2930362971
  0
ARC
  5
133
330
1F
100
AcDbEntity
  8
0
  6
CONTINUOUS
 62
     7
100
AcDbCircle
 10
222.316460522
 20
435.2191450749
 30
0.0
 40
0.1000000000000227
100
AcDbArc
 50
270.0
 51
0.0
  0
ARC
  5
134
330
1F
100
AcDbEntity
  8
0
  6
CONTINUOUS
 62
     7
100
AcDbCircle
 10
248.4613242507
 20
435.2191450749
 30
0.0
 40
0.1000000000000227
100
AcDbArc
 50
180.0
 51
270.0
  0
LINE
  5
135
330
1F
100
AcDbEntity
  8
0
  6
CONTINUOUS
 62
     7
100
AcDbLine
 10
248.3613245751
 20
437.1191450749
 30
0.0
 11
248.3613245751
 21
435.2191450429
 31
0.0
  0
LINE
  5
136
330
1F
100
AcDbEntity
  8
0
  6
CONTINUOUS
 62
     7
100
AcDbLine
 10
222.4164601977
 20
435.2191450429
 30
0.0
 11
222.4164601977
 21
437.1191450749
 31
0.0
  0
ARC
  5
137
330
1F
100
AcDbEntity
  8
0
  6
CONTINUOUS
 62
     7
100
AcDbCircle
 10
308.0388923864
 20
435.2191450749
 30
0.0
 40
0.1000000000000227
100
AcDbArc
 50
270.0
 51
0.0
  0
ARC
  5
138
330
1F
100
AcDbEntity
  8
0
  6
CONTINUOUS
 62
     7
100
AcDbCircle
 10
162.7388923864
 20
435.2191450749
 30
0.0
 40
0.1000000000000227
100
AcDbArc
 50
180.0
 51
270.0
  0
LINE
  5
139
330
1F
100
AcDbEntity
  8
0
  6
CONTINUOUS
 62
     7
100
AcDbLine
 10
358.6388925652
 20
437.1191450749
 30
0.0
 11
358.6388925652
 21
435.2191450429
 31
0.0
  0
LINE
  5
13A
330
1F
100
AcDbEntity
  8
0
  6
CONTINUOUS
 62
     7
100
AcDbLine
 10
362.1388996582
 20
435.2191450429
 30
0.0
 11
362.1388996582
 21
437.1191450749
 31
0.0
  0
ARC
  5
13B
330
1F
100
AcDbEntity
  8
0
  6
CONTINUOUS
 62
     7
100
AcDbCircle
 10
362.0388923864
 20
435.2191450749
 30
0.0
 40
0.1000000000000227
100
AcDbArc
 50
270.0
 51
0.0
  0
ARC
  5
13C
330
1F
100
AcDbEntity
  8
0
  6
CONTINUOUS
 62
     7
100
AcDbCircle
 10
358.7388923864
 20
435.2191450749
 30
0.0
 40
0.1000000000000227
100
AcDbArc
 50
180.0
 51
270.0
  0
LINE
  5
13D
330
1F
100
AcDbEntity
  8
0
  6
CONTINUOUS
 62
     7
100
AcDbLine
 10
308.1388945322
 20
435.2191450429
 30
0.0
 11
308.1388945322
 21
437.1191450749
 31
0.0
  0
LINE
  5
13E
330
1F
100
AcDbEntity
  8
0
  6
CONTINUOUS
 62
     7
100
AcDbLine
 10
340.6388933401
 20
437.1191450749
 30
0.0
 11
340.6388933401
 21
435.2191450429
 31
0.0
  0
ARC
  5
13F
330
1F
100
AcDbEntity
  8
0
  6
CONTINUOUS
 62
     7
100
AcDbCircle
 10
340.7388923864
 20
435.2191450749
 30
0.0
 40
0.1000000000000796
100
AcDbArc
 50
180.0
 51
270.0
  0
LINE
  5
140
330
1F
100
AcDbEntity
  8
0
  6
CONTINUOUS
 62
     7
100
AcDbLine
 10
326.1388937573
 20
435.2191450429
 30
0.0
 11
326.1388937573
 21
437.1191450749
 31
0.0
  0
ARC
  5
141
330
1F
100
AcDbEntity
  8
0
  6
CONTINUOUS
 62
     7
100
AcDbCircle
 10
326.0388923864
 20
435.2191450749
 30
0.0
 40
0.1000000000000227
100
AcDbArc
 50
270.0
 51
0.0
  0
LINE
  5
142
330
1F
100
AcDbEntity
  8
0
  6
CONTINUOUS
 62
     7
100
AcDbLine
 10
162.6388902406
 20
437.1191450749
 30
0.0
 11
162.6388902406
 21
435.2191450429
 31
0.0
  0
ARC
  5
143
330
1F
100
AcDbEntity
  8
0
  6
CONTINUOUS
 62
     7
100
AcDbCircle
 10
112.0388923864
 20
435.2191450749
 30
0.0
 40
0.1000000000000227
100
AcDbArc
 50
270.0
 51
0.0
  0
ARC
  5
144
330
1F
100
AcDbEntity
  8
0
  6
CONTINUOUS
 62
     7
100
AcDbCircle
 10
108.7388923864
 20
435.2191450749
 30
0.0
 40
0.1000000000000227
100
AcDbArc
 50
180.0
 51
270.0
  0
LINE
  5
145
330
1F
100
AcDbEntity
  8
0
  6
CONTINUOUS
 62
     7
100
AcDbLine
 10
130.1388914327
 20
435.2191450429
 30
0.0
 11
130.1388914327
 21
437.1191450749
 31
0.0
  0
ARC
  5
146
330
1F
100
AcDbEntity
  8
0
  6
CONTINUOUS
 62
     7
100
AcDbCircle
 10
130.0388923864
 20
435.2191450749
 30
0.0
 40
0.1000000000000227
100
AcDbArc
 50
270.0
 51
0.0
  0
ARC
  5
147
330
1F
100
AcDbEntity
  8
0
  6
CONTINUOUS
 62
     7
100
AcDbCircle
 10
144.7388923864
 20
435.2191450749
 30
0.0
 40
0.1000000000000227
100
AcDbArc
 50
180.0
 51
270.0
  0
LINE
  5
148
330
1F
100
AcDbEntity
  8
0
  6
CONTINUOUS
 62
     7
100
AcDbLine
 10
144.6388910155
 20
437.1191450749
 30
0.0
 11
144.6388910155
 21
435.2191450429
 31
0.0
  0
LINE
  5
149
330
1F
100
AcDbEntity
  8
0
  6
CONTINUOUS
 62
     7
100
AcDbLine
 10
108.6388851146
 20
437.1191450749
 30
0.0
 11
108.6388851146
 21
435.2191450429
 31
0.0
  0
LINE
  5
14A
330
1F
100
AcDbEntity
  8
0
  6
CONTINUOUS
 62
     7
100
AcDbLine
 10
112.1388922076
 20
435.2191450429
 30
0.0
 11
112.1388922076
 21
437.1191450749
 31
0.0
  0
LINE
  5
14B
330
1F
100
AcDbEntity
  8
0
  6
CONTINUOUS
 62
     7
100
AcDbLine
 10
235.3888923864
 20
445.1191454549
 30
0.0
 11
84.8888928632
 21
445.1191454549
 31
0.0
  0
LINE
  5
14C
330
1F
100
AcDbEntity
  8
0
  6
CONTINUOUS
 62
     7
100
AcDbLine
 10
385.8888919095
 20
445.1191454549
 30
0.0
 11
235.3888923864
 21
445.1191454549
 31
0.0
  0
LINE
  5
14D
330
1F
100
AcDbEntity
  8
0
  6
CONTINUOUS
 62
     7
100
AcDbLine
 10
235.3888923864
 20
437.1191450749
 30
0.0
 11
385.8888919095
 21
437.1191450749
 31
0.0
  0
LINE
  5
14E
330
1F
100
AcDbEntity
  8
0
  6
CONTINUOUS
 62
     7
100
AcDbLine
 10
84.8888928632
 20
437.1191450749
 30
0.0
 11
235.3888923864
 21
437.1191450749
 31
0.0
  0
LINE
  5
14F
330
1F
100
AcDbEntity
  8
0
  6
CONTINUOUS
 62
     7
100
AcDbLine
 10
237.0388923774
 20
435.1191449799
 30
0.0
 11
233.7388923953
 21
435.1191449799
 31
0.0
  0
LINE
  5
150
330
1F
100
AcDbEntity
  8
0
  6
CONTINUOUS
 62
     7
100
AcDbLine
 10
204.6865119229
 20
435.1191449799
 30
0.0
 11
201.3865100781
 21
435.1191449799
 31
0.0
  0
LINE
  5
151
330
1F
100
AcDbEntity
  8
0
  6
CONTINUOUS
 62
     7
100
AcDbLine
 10
269.3912746946
 20
435.1191449799
 30
0.0
 11
266.0912728499
 21
435.1191449799
 31
0.0
  0
LINE
  5
152
330
1F
100
AcDbEntity
  8
0
  6
CONTINUOUS
 62
     7
100
AcDbLine
 10
299.5388905148
 20
435.1191449799
 30
0.0
 11
296.2388905327
 21
435.1191449799
 31
0.0
  0
LINE
  5
153
330
1F
100
AcDbEntity
  8
0
  6
CONTINUOUS
 62
     7
100
AcDbLine
 10
174.5388942401
 20
435.1191449799
 30
0.0
 11
171.238894258
 21
435.1191449799
 31
0.0
  0
LINE
  5
154
330
1F
100
AcDbEntity
  8
0
  6
CONTINUOUS
 62
     7
100
AcDbLine
 10
264.7325309555
 20
435.1191449799
 30
0.0
 11
261.4325309734
 21
435.1191449799
 31
0.0
  0
LINE
  5
155
330
1F
100
AcDbEntity
  8
0
  6
CONTINUOUS
 62
     7
100
AcDbLine
 10
209.3452537994
 20
435.1191449799
 30
0.0
 11
206.0452538173
 21
435.1191449799
 31
0.0
  0
LINE
  5
156
330
1F
100
AcDbEntity
  8
0
  6
CONTINUOUS
 62
     7
100
AcDbLine
 10
290.5388909022
 20
435.1191449799
 30
0.0
 11
287.2388909201
 21
435.1191449799
 31
0.0
  0
LINE
  5
157
330
1F
100
AcDbEntity
  8
0
  6
CONTINUOUS
 62
     7
100
AcDbLine
 10
183.5388938527
 20
435.1191449799
 30
0.0
 11
180.2388938705
 21
435.1191449799
 31
0.0
  0
LINE
  5
158
330
1F
100
AcDbEntity
  8
0
  6
CONTINUOUS
 62
     7
100
AcDbLine
 10
148.6505443792
 20
435.1191449799
 30
0.0
 11
145.3505481224
 21
435.1191449799
 31
0.0
  0
LINE
  5
159
330
1F
100
AcDbEntity
  8
0
  6
CONTINUOUS
 62
     7
100
AcDbLine
 10
325.4272366504
 20
435.1191449799
 30
0.0
 11
322.1272403936
 21
435.1191449799
 31
0.0
  0
LINE
  5
15A
330
1F
100
AcDbEntity
  8
0
  6
CONTINUOUS
 62
     7
100
AcDbLine
 10
260.0737872164
 20
435.1191449799
 30
0.0
 11
256.7737872343
 21
435.1191449799
 31
0.0
  0
LINE
  5
15B
330
1F
100
AcDbEntity
  8
0
  6
CONTINUOUS
 62
     7
100
AcDbLine
 10
214.0039975385
 20
435.1191449799
 30
0.0
 11
210.7039975564
 21
435.1191449799
 31
0.0
  0
LINE
  5
15C
330
1F
100
AcDbEntity
  8
0
  6
CONTINUOUS
 62
     7
100
AcDbLine
 10
281.5388912897
 20
435.1191449799
 30
0.0
 11
278.2388913075
 21
435.1191449799
 31
0.0
  0
LINE
  5
15D
330
1F
100
AcDbEntity
  8
0
  6
CONTINUOUS
 62
     7
100
AcDbLine
 10
192.5388934652
 20
435.1191449799
 30
0.0
 11
189.2388934831
 21
435.1191449799
 31
0.0
  0
LINE
  5
15E
330
1F
100
AcDbEntity
  8
0
  6
CONTINUOUS
 62
     7
100
AcDbLine
 10
312.6993204097
 20
435.1191449799
 30
0.0
 11
309.3993167023
 21
435.1191449799
 31
0.0
  0
LINE
  5
15F
330
1F
100
AcDbEntity
  8
0
  6
CONTINUOUS
 62
     7
100
AcDbLine
 10
161.3784680705
 20
435.1191449799
 30
0.0
 11
158.078464363
 21
435.1191449799
 31
0.0
  0
SPLINE
  5
160
330
1F
100
AcDbEntity
  8
0
  6
CONTINUOUS
 62
     7
100
AcDbSpline
210
0.0
220
0.0
230
1.0
 70
    24
 71
     3
 72
    12
 73
     8
 74
     0
 42
0.000000001
 43
0.00000001
 40
0.0
 40
0.0
 40
0.0
 40
0.0
 40
0.3688669373533545
 40
0.5694037845403774
 40
0.7702593845504404
 40
0.9707982895994703
 40
1.0
 40
1.0
 40
1.0
 40
1.0
 10
254.1920958648416
 20
435.1191449799214
 30
0.0
 10
253.9861057534602
 20
435.1191449799214
 30
0.0
 10
253.6681278131219
 20
435.1191449799214
 30
0.0
 10
253.2422547380044
 20
435.1191449799214
 30
0.0
 10
252.9376440160592
 20
435.1191449799214
 30
0.0
 10
252.7307089254219
 20
435.1191449799214
 30
0.0
 10
252.645217420181
 20
435.1191449799214
 30
0.0
 10
252.6343508253786
 20
435.1191449799214
 30
0.0
  0
SPLINE
  5
161
330
1F
100
AcDbEntity
  8
0
  6
CONTINUOUS
 62
     7
100
AcDbSpline
210
0.0
220
0.0
230
1.0
 70
    24
 71
     3
 72
     9
 73
     5
 74
     0
 42
0.000000001
 43
0.00000001
 40
0.0
 40
0.0
 40
0.0
 40
0.0
 40
0.3441642752658685
 40
1.0
 40
1.0
 40
1.0
 40
1.0
 10
254.9884101937505
 20
435.1191449799214
 30
0.0
 10
254.9115422617029
 20
435.1191449799214
 30
0.0
 10
254.6881956287956
 20
435.1191449799214
 30
0.0
 10
254.3885887556357
 20
435.1191449799214
 30
0.0
 10
254.1920958648416
 20
435.1191449799214
 30
0.0
  0
LINE
  5
162
330
1F
100
AcDbEntity
  8
0
  6
CONTINUOUS
 62
     7
100
AcDbLine
 10
255.51504517
 20
435.2191450429
 30
0.0
 11
252.015043665
 21
435.2191450429
 31
0.0
  0
SPLINE
  5
163
330
1F
100
AcDbEntity
  8
0
  6
CONTINUOUS
 62
     7
100
AcDbSpline
210
0.0
220
0.0
230
1.0
 70
    24
 71
     3
 72
    14
 73
    10
 74
     0
 42
0.000000001
 43
0.00000001
 40
0.0
 40
0.0
 40
0.0
 40
0.0
 40
0.0335767266139978
 40
0.1619976013612608
 40
0.2902143488040708
 40
0.4186347241747818
 40
0.6544756874801391
 40
0.8903158281779214
 40
1.0
 40
1.0
 40
1.0
 40
1.0
 10
215.8457382212374
 20
435.1191449799214
 30
0.0
 10
215.8236621037928
 20
435.1191449799214
 30
0.0
 10
215.7171514806907
 20
435.1191449799214
 30
0.0
 10
215.5765244650748
 20
435.1191449799214
 30
0.0
 10
215.4341167719694
 20
435.1191449799214
 30
0.0
 10
215.3421288367408
 20
435.1191449799214
 30
0.0
 10
215.3821486859733
 20
435.1191449799214
 30
0.0
 10
215.6024202862482
 20
435.1191449799214
 30
0.0
 10
215.8145580340351
 20
435.1191449799214
 30
0.0
 10
215.8818996141645
 20
435.1191449799214
 30
0.0
  0
LINE
  5
164
330
1F
100
AcDbEntity
  8
0
  6
CONTINUOUS
 62
     7
100
AcDbLine
 10
299.9713967185
 20
435.1191449799
 30
0.0
 11
299.5388905148
 21
435.1191449799
 31
0.0
  0
LINE
  5
165
330
1F
100
AcDbEntity
  8
0
  6
CONTINUOUS
 62
     7
100
AcDbLine
 10
171.238894258
 20
435.1191449799
 30
0.0
 11
170.8063880543
 21
435.1191449799
 31
0.0
  0
LINE
  5
166
330
1F
100
AcDbEntity
  8
0
  6
CONTINUOUS
 62
     7
100
AcDbLine
 10
128.7857169847
 20
435.1191449799
 30
0.0
 11
125.4857132773
 21
435.1191449799
 31
0.0
  0
LINE
  5
167
330
1F
100
AcDbEntity
  8
0
  6
CONTINUOUS
 62
     7
100
AcDbLine
 10
345.2920714955
 20
435.1191449799
 30
0.0
 11
341.9920677881
 21
435.1191449799
 31
0.0
  0
SPLINE
  5
168
330
1F
100
AcDbEntity
  8
0
  6
CONTINUOUS
 62
     7
100
AcDbSpline
210
0.0
220
0.0
230
1.0
 70
    24
 71
     3
 72
    16
 73
    12
 74
     0
 42
0.000000001
 43
0.00000001
 40
0.0
 40
0.0
 40
0.0
 40
0.0
 40
0.0361498245330547
 40
0.1427734481822405
 40
0.2495665445595491
 40
0.3561897670701049
 40
0.4629817176081273
 40
0.6591045814648507
 40
0.8552256360143261
 40
0.9618486227320557
 40
1.0
 40
1.0
 40
1.0
 40
1.0
 10
198.6821057836506
 20
435.1191449799214
 30
0.0
 10
198.6523883039145
 20
435.1191449799214
 30
0.0
 10
198.535019351008
 20
435.1191449799214
 30
0.0
 10
198.4083431842487
 20
435.1191449799214
 30
0.0
 10
198.283194212492
 20
435.1191449799214
 30
0.0
 10
198.229808203409
 20
435.1191449799214
 30
0.0
 10
198.2494874080148
 20
435.1191449799214
 30
0.0
 10
198.4246327883606
 20
435.1191449799214
 30
0.0
 10
198.7793929619482
 20
435.1191449799214
 30
0.0
 10
199.0779409672948
 20
435.1191449799214
 30
0.0
 10
199.2216599662123
 20
435.1191449799214
 30
0.0
 10
199.2595332304928
 20
435.1191449799214
 30
0.0
  0
SPLINE
  5
169
330
1F
100
AcDbEntity
  8
0
  6
CONTINUOUS
 62
     7
100
AcDbSpline
210
0.0
220
0.0
230
1.0
 70
    24
 71
     3
 72
    11
 73
     7
 74
     0
 42
0.000000001
 43
0.00000001
 40
0.0
 40
0.0
 40
0.0
 40
0.0
 40
0.4101896921214607
 40
0.6331938208813767
 40
0.8565509726063439
 40
1.0
 40
1.0
 40
1.0
 40
1.0
 10
271.7138926128837
 20
435.1191449799214
 30
0.0
 10
271.5230053888646
 20
435.1191449799214
 30
0.0
 10
271.228340230145
 20
435.1191449799214
 30
0.0
 10
270.7934762419611
 20
435.1191449799214
 30
0.0
 10
270.4968402076437
 20
435.1191449799214
 30
0.0
 10
270.3263565880629
 20
435.1191449799214
 30
0.0
 10
270.2596845666858
 20
435.1191449799214
 30
0.0
  0
LINE
  5
16A
330
1F
100
AcDbEntity
  8
0
  6
CONTINUOUS
 62
     7
100
AcDbLine
 10
272.1378045718
 20
435.1191449799
 30
0.0
 11
271.7138926129
 21
435.1191449799
 31
0.0
  0
LINE
  5
16B
330
1F
100
AcDbEntity
  8
0
  6
CONTINUOUS
 62
     7
100
AcDbLine
 10
144.3741718869
 20
435.1191449799
 30
0.0
 11
141.07417563
 21
435.1191449799
 31
0.0
  0
LINE
  5
16C
330
1F
100
AcDbEntity
  8
0
  6
CONTINUOUS
 62
     7
100
AcDbLine
 10
329.7036091427
 20
435.1191449799
 30
0.0
 11
326.4036128859
 21
435.1191449799
 31
0.0
  0
SPLINE
  5
16D
330
1F
100
AcDbEntity
  8
0
  6
CONTINUOUS
 62
     7
100
AcDbSpline
210
0.0
220
0.0
230
1.0
 70
    24
 71
     3
 72
    12
 73
     8
 74
     0
 42
0.000000001
 43
0.00000001
 40
0.0
 40
0.0
 40
0.0
 40
0.0
 40
0.3322884947540438
 40
0.5129401443460452
 40
0.6938772970311359
 40
0.8745295364671597
 40
1.0
 40
1.0
 40
1.0
 40
1.0
 10
286.76019856734
 20
435.1191449799214
 30
0.0
 10
286.5978461966284
 20
435.1191449799214
 30
0.0
 10
286.3472294892116
 20
435.1191449799214
 30
0.0
 10
285.9298000100097
 20
435.1191449799214
 30
0.0
 10
285.5943568486464
 20
435.1191449799214
 30
0.0
 10
285.2892537811884
 20
435.1191449799214
 30
0.0
 10
285.1099840162559
 20
435.1191449799214
 30
0.0
 10
285.0365067462417
 20
435.1191449799214
 30
0.0
  0
SPLINE
  5
16E
330
1F
100
AcDbEntity
  8
0
  6
CONTINUOUS
 62
     7
100
AcDbSpline
210
0.0
220
0.0
230
1.0
 70
    24
 71
     3
 72
     9
 73
     5
 74
     0
 42
0.000000001
 43
0.00000001
 40
0.0
 40
0.0
 40
0.0
 40
0.0
 40
0.1206467492450639
 40
1.0
 40
1.0
 40
1.0
 40
1.0
 10
287.1334093253108
 20
435.1191449799214
 30
0.0
 10
287.1252989125387
 20
435.1191449799214
 30
0.0
 10
287.0580744508524
 20
435.1191449799214
 30
0.0
 10
286.8995753057914
 20
435.1191449799214
 30
0.0
 10
286.76019856734
 20
435.1191449799214
 30
0.0
  0
LINE
  5
16F
330
1F
100
AcDbEntity
  8
0
  6
CONTINUOUS
 62
     7
100
AcDbLine
 10
158.078464363
 20
435.1191449799
 30
0.0
 11
156.6626305322
 21
435.1191449799
 31
0.0
  0
LINE
  5
170
330
1F
100
AcDbEntity
  8
0
  6
CONTINUOUS
 62
     7
100
AcDbLine
 10
314.1151542406
 20
435.1191449799
 30
0.0
 11
312.6993204097
 21
435.1191449799
 31
0.0
  0
SPLINE
  5
171
330
1F
100
AcDbEntity
  8
0
  6
CONTINUOUS
 62
     7
100
AcDbSpline
210
0.0
220
0.0
230
1.0
 70
    24
 71
     3
 72
    13
 73
     9
 74
     0
 42
0.000000001
 43
0.00000001
 40
0.0
 40
0.0
 40
0.0
 40
0.0
 40
0.0018612575317985
 40
0.3601888995741258
 40
0.554996965979032
 40
0.7501166017166387
 40
0.9449226221037046
 40
1.0
 40
1.0
 40
1.0
 40
1.0
 10
296.0547270814869
 20
435.1191449799214
 30
0.0
 10
296.0537158634129
 20
435.1191449799214
 30
0.0
 10
295.8580258425284
 20
435.1191449799214
 30
0.0
 10
295.6296612622432
 20
435.1191449799214
 30
0.0
 10
295.3902957692599
 20
435.1191449799214
 30
0.0
 10
295.2756259340059
 20
435.1191449799214
 30
0.0
 10
295.2218719558692
 20
435.1191449799214
 30
0.0
 10
295.2313250301285
 20
435.1191449799214
 30
0.0
 10
295.2334086040946
 20
435.1191449799214
 30
0.0
  0
SPLINE
  5
172
330
1F
100
AcDbEntity
  8
0
  6
CONTINUOUS
 62
     7
100
AcDbSpline
210
0.0
220
0.0
230
1.0
 70
    24
 71
     3
 72
    12
 73
     8
 74
     0
 42
0.000000001
 43
0.00000001
 40
0.0
 40
0.0
 40
0.0
 40
0.0
 40
0.0580822314998314
 40
0.2650211268299147
 40
0.4716321948510583
 40
0.6785728508469754
 40
1.0
 40
1.0
 40
1.0
 40
1.0
 10
175.5444171468708
 20
435.1191449799214
 30
0.0
 10
175.5464849595993
 20
435.1191449799214
 30
0.0
 10
175.5559201008679
 20
435.1191449799214
 30
0.0
 10
175.5027015237474
 20
435.1191449799214
 30
0.0
 10
175.3859626705186
 20
435.1191449799214
 30
0.0
 10
175.1733647012511
 20
435.1191449799214
 30
0.0
 10
174.9401492572853
 20
435.1191449799214
 30
0.0
 10
174.7982750277015
 20
435.1191449799214
 30
0.0
  0
LINE
  5
173
330
1F
100
AcDbEntity
  8
0
  6
CONTINUOUS
 62
     7
100
AcDbLine
 10
357.779617105
 20
435.1191449799
 30
0.0
 11
354.4796208481
 21
435.1191449799
 31
0.0
  0
LINE
  5
174
330
1F
100
AcDbEntity
  8
0
  6
CONTINUOUS
 62
     7
100
AcDbLine
 10
116.2981639246
 20
435.1191449799
 30
0.0
 11
112.9981676678
 21
435.1191449799
 31
0.0
  0
SPLINE
  5
175
330
1F
100
AcDbEntity
  8
0
  6
CONTINUOUS
 62
     7
100
AcDbSpline
210
0.0
220
0.0
230
1.0
 70
    24
 71
     3
 72
    16
 73
    12
 74
     0
 42
0.000000001
 43
0.00000001
 40
0.0
 40
0.0
 40
0.0
 40
0.0
 40
0.0361498682203356
 40
0.1427728046197243
 40
0.2495656874646195
 40
0.3561889442053896
 40
0.4629816140068239
 40
0.6591039626192841
 40
0.8552256402264975
 40
0.9618485766258863
 40
1.0
 40
1.0
 40
1.0
 40
1.0
 10
216.6821050087902
 20
435.1191449799214
 30
0.0
 10
216.6523874993014
 20
435.1191449799214
 30
0.0
 10
216.5350190997772
 20
435.1191449799214
 30
0.0
 10
216.4083453008281
 20
435.1191449799214
 30
0.0
 10
216.2831918521686
 20
435.1191449799214
 30
0.0
 10
216.2298100965787
 20
435.1191449799214
 30
0.0
 10
216.2494880696967
 20
435.1191449799214
 30
0.0
 10
216.4246315593987
 20
435.1191449799214
 30
0.0
 10
216.7793949297186
 20
435.1191449799214
 30
0.0
 10
217.0779402179845
 20
435.1191449799214
 30
0.0
 10
217.2216591595844
 20
435.1191449799214
 30
0.0
 10
217.2595324556324
 20
435.1191449799214
 30
0.0
  0
SPLINE
  5
176
330
1F
100
AcDbEntity
  8
0
  6
CONTINUOUS
 62
     7
100
AcDbSpline
210
0.0
220
0.0
230
1.0
 70
    24
 71
     3
 72
    11
 73
     7
 74
     0
 42
0.000000001
 43
0.00000001
 40
0.0
 40
0.0
 40
0.0
 40
0.0
 40
0.4101906830026172
 40
0.6331942289101739
 40
0.8565535353496874
 40
1.0
 40
1.0
 40
1.0
 40
1.0
 10
253.7138915250989
 20
435.1191449799214
 30
0.0
 10
253.5230043567074
 20
435.1191449799214
 30
0.0
 10
253.2283398057874
 20
435.1191449799214
 30
0.0
 10
252.7934752094498
 20
435.1191449799214
 30
0.0
 10
252.4968423870634
 20
435.1191449799214
 30
0.0
 10
252.3263569548455
 20
435.1191449799214
 30
0.0
 10
252.2596853415462
 20
435.1191449799214
 30
0.0
  0
LINE
  5
177
330
1F
100
AcDbEntity
  8
0
  6
CONTINUOUS
 62
     7
100
AcDbLine
 10
340.3929571251
 20
435.1191449799
 30
0.0
 11
337.0929534177
 21
435.1191449799
 31
0.0
  0
LINE
  5
178
330
1F
100
AcDbEntity
  8
0
  6
CONTINUOUS
 62
     7
100
AcDbLine
 10
133.684831355
 20
435.1191449799
 30
0.0
 11
130.3848276476
 21
435.1191449799
 31
0.0
  0
SPLINE
  5
179
330
1F
100
AcDbEntity
  8
0
  6
CONTINUOUS
 62
     7
100
AcDbSpline
210
0.0
220
0.0
230
1.0
 70
    24
 71
     3
 72
    10
 73
     6
 74
     0
 42
0.000000001
 43
0.00000001
 40
0.0
 40
0.0
 40
0.0
 40
0.0
 40
0.2555576486688886
 40
0.518012390308249
 40
1.0
 40
1.0
 40
1.0
 40
1.0
 10
189.0547263066265
 20
435.1191449799214
 30
0.0
 10
188.9508874542276
 20
435.1191449799214
 30
0.0
 10
188.74040730457
 20
435.1191449799214
 30
0.0
 10
188.3738584167675
 20
435.1191449799214
 30
0.0
 10
188.1837124123971
 20
435.1191449799214
 30
0.0
 10
188.0606027881595
 20
435.1191449799214
 30
0.0
  0
SPLINE
  5
17A
330
1F
100
AcDbEntity
  8
0
  6
CONTINUOUS
 62
     7
100
AcDbSpline
210
0.0
220
0.0
230
1.0
 70
    24
 71
     3
 72
    10
 73
     6
 74
     0
 42
0.000000001
 43
0.00000001
 40
0.0
 40
0.0
 40
0.0
 40
0.0
 40
0.5142407122472851
 40
0.7938120651099362
 40
1.0
 40
1.0
 40
1.0
 40
1.0
 10
282.7171819846126
 20
435.1191449799214
 30
0.0
 10
282.5939215434689
 20
435.1191449799214
 30
0.0
 10
282.4036495113245
 20
435.1191449799214
 30
0.0
 10
282.0612139047303
 20
435.1191449799214
 30
0.0
 10
281.8766266688071
 20
435.1191449799214
 30
0.0
 10
281.7982758025619
 20
435.1191449799214
 30
0.0
  0
LINE
  5
17B
330
1F
100
AcDbEntity
  8
0
  6
CONTINUOUS
 62
     7
100
AcDbLine
 10
322.1272403936
 20
435.1191449799
 30
0.0
 11
319.7062934379
 21
435.1191449799
 31
0.0
  0
LINE
  5
17C
330
1F
100
AcDbEntity
  8
0
  6
CONTINUOUS
 62
     7
100
AcDbLine
 10
151.0714913349
 20
435.1191449799
 30
0.0
 11
148.6505443792
 21
435.1191449799
 31
0.0
  0
LINE
  5
17D
330
1F
100
AcDbEntity
  8
0
  6
CONTINUOUS
 62
     7
100
AcDbLine
 10
165.2143845896
 20
435.1191449799
 30
0.0
 11
168.4472287635
 21
435.1191449799
 31
0.0
  0
SPLINE
  5
17E
330
1F
100
AcDbEntity
  8
0
  6
CONTINUOUS
 62
     7
100
AcDbSpline
210
0.0
220
0.0
230
1.0
 70
    24
 71
     3
 72
    25
 73
    21
 74
     0
 42
0.000000001
 43
0.00000001
 40
0.0
 40
0.0
 40
0.0
 40
0.0
 40
0.0274374582645216
 40
0.0546490665568491
 40
0.0817911321047542
 40
0.1090211597410353
 40
0.136495141513849
 40
0.2102749616506231
 40
0.2841723679792708
 40
0.3579522410227648
 40
0.4318497003422776
 40
0.4999545371040216
 40
0.5681757949549203
 40
0.6362806664374021
 40
0.7045019465017425
 40
0.7782817666374797
 40
0.852179172966802
 40
0.9015555833678475
 40
0.9505194982179201
 40
0.9999999999999999
 40
0.9999999999999999
 40
0.9999999999999999
 40
0.9999999999999999
 10
305.5634036662861
 20
435.1191450749163
 30
0.0
 10
305.5517642414615
 20
435.1191450749163
 30
0.0
 10
305.5285812011159
 20
435.1191450749163
 30
0.0
 10
305.4826635512435
 20
435.1191450749163
 30
0.0
 10
305.4288218286655
 20
435.1191450749163
 30
0.0
 10
305.3662445220752
 20
435.1191450749163
 30
0.0
 10
305.2557455199957
 20
435.1191450749163
 30
0.0
 10
305.0754339495235
 20
435.1191450749163
 30
0.0
 10
304.800368707969
 20
435.1191450749163
 30
0.0
 10
304.4916218125424
 20
435.1191450749163
 30
0.0
 10
304.169128827345
 20
435.1191450749163
 30
0.0
 10
303.84810007117
 20
435.1191450749163
 30
0.0
 10
303.5402746099317
 20
435.1191450749163
 30
0.0
 10
303.2471043228227
 20
435.1191450749163
 30
0.0
 10
302.972967882775
 20
435.1191450749163
 30
0.0
 10
302.7286700125421
 20
435.1191450749163
 30
0.0
 10
302.5527189091065
 20
435.1191450749163
 30
0.0
 10
302.4372641485655
 20
435.1191450749163
 30
0.0
 10
302.3649119660617
 20
435.1191450749163
 30
0.0
 10
302.3420472717114
 20
435.1191450749163
 30
0.0
 10
302.3305549333112
 20
435.1191450749163
 30
0.0
  0
LINE
  5
17F
330
1F
100
AcDbEntity
  8
0
  6
CONTINUOUS
 62
     7
100
AcDbLine
 10
305.7196239571
 20
435.2191450429
 30
0.0
 11
302.2294665317
 21
435.2191450429
 31
0.0
  0
SPLINE
  5
180
330
1F
100
AcDbEntity
  8
0
  6
CONTINUOUS
 62
     7
100
AcDbSpline
210
0.0
220
0.0
230
1.0
 70
    24
 71
     3
 72
    15
 73
    11
 74
     0
 42
0.000000001
 43
0.00000001
 40
0.0
 40
0.0
 40
0.0
 40
0.0
 40
0.0046944986038364
 40
0.1298578283980286
 40
0.359717483045067
 40
0.5895763512593742
 40
0.7145407498177727
 40
0.8397049766504961
 40
0.964669178046889
 40
1.0
 40
1.0
 40
1.0
 40
1.0
 10
265.8074895481559
 20
435.1191449799214
 30
0.0
 10
265.8033359263892
 20
435.1191449799214
 30
0.0
 10
265.688439672682
 20
435.1191449799214
 30
0.0
 10
265.3617818854541
 20
435.1191449799214
 30
0.0
 10
264.8549936025915
 20
435.1191449799214
 30
0.0
 10
264.4490463238128
 20
435.1191449799214
 30
0.0
 10
264.2141141313992
 20
435.1191449799214
 30
0.0
 10
264.0985115358617
 20
435.1191449799214
 30
0.0
 10
264.0449640510779
 20
435.1191449799214
 30
0.0
 10
264.0544109985745
 20
435.1191449799214
 30
0.0
 10
264.056493211815
 20
435.1191449799214
 30
0.0
  0
SPLINE
  5
181
330
1F
100
AcDbEntity
  8
0
  6
CONTINUOUS
 62
     7
100
AcDbSpline
210
0.0
220
0.0
230
1.0
 70
    24
 71
     3
 72
    18
 73
    14
 74
     0
 42
0.000000001
 43
0.00000001
 40
0.0
 40
0.0
 40
0.0
 40
0.0
 40
0.0219531686212725
 40
0.1001677073363449
 40
0.1782582714592624
 40
0.256473041900763
 40
0.400111718394618
 40
0.543750886329841
 40
0.6218412044281523
 40
0.7000557431432247
 40
0.7781463072661422
 40
0.8563607132034669
 40
1.0
 40
1.0
 40
1.0
 40
1.0
 10
206.7213306765053
 20
435.1191449799214
 30
0.0
 10
206.7234017701103
 20
435.1191449799214
 30
0.0
 10
206.7328517361576
 20
435.1191449799214
 30
0.0
 10
206.6793661620015
 20
435.1191449799214
 30
0.0
 10
206.5637690699874
 20
435.1191449799214
 30
0.0
 10
206.3288198023567
 20
435.1191449799214
 30
0.0
 10
205.9231936649546
 20
435.1191449799214
 30
0.0
 10
205.4149893526235
 20
435.1191449799214
 30
0.0
 10
204.982562650005
 20
435.1191449799214
 30
0.0
 10
204.6479697187589
 20
435.1191449799214
 30
0.0
 10
204.3321311087765
 20
435.1191449799214
 30
0.0
 10
203.9618657685292
 20
435.1191449799214
 30
0.0
 10
203.7719939934684
 20
435.1191449799214
 30
0.0
 10
203.6490614156219
 20
435.1191449799214
 30
0.0
  0
SPLINE
  5
182
330
1F
100
AcDbEntity
  8
0
  6
CONTINUOUS
 62
     7
100
AcDbSpline
210
0.0
220
0.0
230
1.0
 70
    24
 71
     3
 72
    16
 73
    12
 74
     0
 42
0.000000001
 43
0.00000001
 40
0.0
 40
0.0
 40
0.0
 40
0.0
 40
0.1232483664699573
 40
0.3895903805379147
 40
0.5720004629095293
 40
0.6992440728603071
 40
0.8397512496093827
 40
0.8933093677629534
 40
0.9472629275476813
 40
0.9787411590876365
 40
1.0
 40
1.0
 40
1.0
 40
1.0
 10
251.3888931463453
 20
452.2200861368898
 30
0.0
 10
251.3888931463453
 20
452.2154692812596
 30
0.0
 10
251.3888931463453
 20
452.2008753146748
 30
0.0
 10
251.3888931463453
 20
452.2574624616438
 30
0.0
 10
251.3888931463453
 20
452.3781641304398
 30
0.0
 10
251.3888931463453
 20
452.5609985071239
 30
0.0
 10
251.3888931463453
 20
452.7779235295965
 30
0.0
 10
251.3888931463453
 20
453.0529845025919
 30
0.0
 10
251.3888931463453
 20
453.2613754230575
 30
0.0
 10
251.3888931463453
 20
453.4653593020354
 30
0.0
 10
251.3888931463453
 20
453.5749627431271
 30
0.0
 10
251.3888931463453
 20
453.6191449855093
 30
0.0
  0
SPLINE
  5
183
330
1F
100
AcDbEntity
  8
0
  6
CONTINUOUS
 62
     7
100
AcDbSpline
210
0.0
220
0.0
230
1.0
 70
    24
 71
     3
 72
    14
 73
    10
 74
     0
 42
0.000000001
 43
0.00000001
 40
0.0
 40
0.0
 40
0.0
 40
0.0
 40
0.0306706051530485
 40
0.0682339641501874
 40
0.1296115697904307
 40
0.2586680413640303
 40
0.4926185150832874
 40
0.7316303037015616
 40
1.0
 40
1.0
 40
1.0
 40
1.0
 10
219.3888916264269
 20
453.6191449855093
 30
0.0
 10
219.3888916264269
 20
453.5553261734049
 30
0.0
 10
219.3888916264269
 20
453.4133462380397
 30
0.0
 10
219.3888916264269
 20
453.1812925782024
 30
0.0
 10
219.3888916264269
 20
452.8778805338022
 30
0.0
 10
219.3888916264269
 20
452.5427291443488
 30
0.0
 10
219.3888916264269
 20
452.3296851493663
 30
0.0
 10
219.3888916264269
 20
452.2164443163311
 30
0.0
 10
219.3888916264269
 20
452.2188250374901
 30
0.0
 10
219.3888916264269
 20
452.2200842742447
 30
0.0
  0
LINE
  5
184
330
1F
100
AcDbEntity
  8
0
  6
CONTINUOUS
 62
     7
100
AcDbLine
 10
250.5263170789
 20
452.1191447396
 30
0.0
 11
250.8888921331
 21
452.1191447396
 31
0.0
  0
SPLINE
  5
185
330
1F
100
AcDbEntity
  8
0
  6
CONTINUOUS
 62
     7
100
AcDbSpline
210
0.0
220
0.0
230
1.0
 70
    24
 71
     3
 72
    16
 73
    12
 74
     0
 42
0.000000001
 43
0.00000001
 40
0.0
 40
0.0
 40
0.0
 40
0.0
 40
0.1027725353982649
 40
0.205380324798648
 40
0.3078935373004047
 40
0.410382536268925
 40
0.5129177349182257
 40
0.6155694513913371
 40
0.7184077648160668
 40
0.8593495270238121
 40
1.0
 40
1.0
 40
1.0
 40
1.0
 10
219.8888923863861
 20
452.1191450749163
 30
0.0
 10
219.8899024890063
 20
452.1191450749163
 30
0.0
 10
219.8919210750363
 20
452.1191450749163
 30
0.0
 10
219.9083504008968
 20
452.1191450749163
 30
0.0
 10
219.9345986729751
 20
452.1191450749163
 30
0.0
 10
219.9716179085784
 20
452.1191450749163
 30
0.0
 10
220.0191722915264
 20
452.1191450749163
 30
0.0
 10
220.0772536118125
 20
452.1191450749163
 30
0.0
 10
220.1545780278006
 20
452.1191450749163
 30
0.0
 10
220.2544375461467
 20
452.1191450749163
 30
0.0
 10
220.3440547389255
 20
452.1191450749163
 30
0.0
 10
220.388816983676
 20
452.1191450749163
 30
0.0
  0
SPLINE
  5
186
330
1F
100
AcDbEntity
  8
0
  6
CONTINUOUS
 62
     7
100
AcDbSpline
210
0.0
220
0.0
230
1.0
 70
    24
 71
     3
 72
    22
 73
    18
 74
     0
 42
0.000000001
 43
0.00000001
 40
0.0
 40
0.0
 40
0.0
 40
0.0
 40
0.2500000000000003
 40
0.2500000000000003
 40
0.5000000000000006
 40
0.5000000000000006
 40
0.6250000000000006
 40
0.6250000000000006
 40
0.7500000000000004
 40
0.7500000000000004
 40
0.8750000000000002
 40
0.8750000000000002
 40
0.9375000000000002
 40
0.9375000000000002
 40
0.9687500000000002
 40
0.9687500000000002
 40
1.0
 40
1.0
 40
1.0
 40
1.0
 10
219.3888923863861
 20
460.1191450749163
 30
0.0
 10
219.3888923863861
 20
460.1191450749163
 30
0.0
 10
219.3888923863863
 20
460.1200041318398
 30
0.0
 10
219.3888923863863
 20
460.1131117615831
 30
0.0
 10
219.3888923863861
 20
460.1055883886814
 30
0.0
 10
219.3888923863861
 20
460.063490661121
 30
0.0
 10
219.3888923863935
 20
460.0441738918732
 30
0.0
 10
219.3888923863935
 20
459.9868238441724
 30
0.0
 10
219.3888923863863
 20
459.9490666441486
 30
0.0
 10
219.3888923863863
 20
459.8390318713032
 30
0.0
 10
219.3888923863861
 20
459.769215677385
 30
0.0
 10
219.3888923863861
 20
459.6018760357865
 30
0.0
 10
219.3888923863861
 20
459.5354814867243
 30
0.0
 10
219.3888923863861
 20
459.4058877157635
 30
0.0
 10
219.3888923863861
 20
459.3565916820476
 30
0.0
 10
219.3888923863861
 20
459.2456540661061
 30
0.0
 10
219.3888923863861
 20
459.1833853240822
 30
0.0
 10
219.3888923863861
 20
459.1191450749163
 30
0.0
  0
SPLINE
  5
187
330
1F
100
AcDbEntity
  8
0
  6
CONTINUOUS
 62
     7
100
AcDbSpline
210
0.0
220
0.0
230
1.0
 70
    24
 71
     3
 72
    14
 73
    10
 74
     0
 42
0.000000001
 43
0.00000001
 40
0.0
 40
0.0
 40
0.0
 40
0.0
 40
0.25
 40
0.25
 40
0.5
 40
0.5
 40
0.75
 40
0.75
 40
1.0
 40
1.0
 40
1.0
 40
1.0
 10
219.3888923863861
 20
460.1191450749163
 30
0.0
 10
219.3888923863861
 20
460.1191450749163
 30
0.0
 10
221.0746867511134
 20
460.1191450749163
 30
0.0
 10
227.0756810236892
 20
460.1191450749163
 30
0.0
 10
231.1455486423861
 20
460.1191450749163
 30
0.0
 10
239.6322361303861
 20
460.1191450749163
 30
0.0
 10
243.7021037490829
 20
460.1191450749163
 30
0.0
 10
249.7030980216587
 20
460.1191450749163
 30
0.0
 10
251.3888923863861
 20
460.1191450749163
 30
0.0
 10
251.3888923863861
 20
460.1191450749163
 30
0.0
  0
SPLINE
  5
188
330
1F
100
AcDbEntity
  8
0
  6
CONTINUOUS
 62
     7
100
AcDbSpline
210
0.0
220
0.0
230
1.0
 70
    24
 71
     3
 72
    22
 73
    18
 74
     0
 42
0.000000001
 43
0.00000001
 40
0.0
 40
0.0
 40
0.0
 40
0.0
 40
0.0312499999999994
 40
0.0312499999999994
 40
0.0624999999999987
 40
0.0624999999999987
 40
0.1249999999999986
 40
0.1249999999999986
 40
0.2499999999999991
 40
0.2499999999999991
 40
0.3749999999999995
 40
0.3749999999999995
 40
0.4999999999999998
 40
0.4999999999999998
 40
0.7499999999999998
 40
0.7499999999999998
 40
1.0
 40
1.0
 40
1.0
 40
1.0
 10
251.3888923863861
 20
459.1191450749163
 30
0.0
 10
251.3888923863861
 20
459.1842585451328
 30
0.0
 10
251.3888923863861
 20
459.247338280187
 30
0.0
 10
251.3888923863861
 20
459.3591452303034
 30
0.0
 10
251.3888923863861
 20
459.408889588812
 30
0.0
 10
251.3888923863861
 20
459.5394222204203
 30
0.0
 10
251.3888923863861
 20
459.6059233356639
 30
0.0
 10
251.3888923863861
 20
459.7715087807447
 30
0.0
 10
251.3888923863861
 20
459.841967923339
 30
0.0
 10
251.3888923863861
 20
459.9509729084763
 30
0.0
 10
251.3888923863861
 20
459.988127081538
 30
0.0
 10
251.3888923863861
 20
460.0447755681814
 30
0.0
 10
251.3888923863861
 20
460.0638922778253
 30
0.0
 10
251.3888923863861
 20
460.10562792331
 30
0.0
 10
251.3888923863861
 20
460.1131487206237
 30
0.0
 10
251.3888923863861
 20
460.1199988259308
 30
0.0
 10
251.3888923863861
 20
460.1191450749163
 30
0.0
 10
251.3888923863861
 20
460.1191450749163
 30
0.0
  0
LINE
  5
189
330
1F
100
AcDbEntity
  8
0
  6
CONTINUOUS
 62
     7
100
AcDbLine
 10
219.3888916264
 20
459.1191449557
 30
0.0
 11
219.3888916264
 21
453.6191449855
 31
0.0
  0
LINE
  5
18A
330
1F
100
AcDbEntity
  8
0
  6
CONTINUOUS
 62
     7
100
AcDbLine
 10
251.3888931463
 20
453.6191449855
 30
0.0
 11
251.3888931463
 21
459.1191449557
 31
0.0
  0
LINE
  5
18B
330
1F
100
AcDbEntity
  8
0
  6
CONTINUOUS
 62
     7
100
AcDbLine
 10
250.3888920511
 20
445.1191454549
 30
0.0
 11
250.3888920511
 21
452.1191447396
 31
0.0
  0
LINE
  5
18C
330
1F
100
AcDbEntity
  8
0
  6
CONTINUOUS
 62
     7
100
AcDbLine
 10
220.3888927217
 20
452.1191447396
 30
0.0
 11
220.3888927217
 21
445.1191454549
 31
0.0
  0
LINE
  5
18D
330
1F
100
AcDbEntity
  8
0
  6
CONTINUOUS
 62
     7
100
AcDbLine
 10
250.3888920511
 20
452.1191447396
 30
0.0
 11
220.3888927217
 21
452.1191447396
 31
0.0
  0
SPLINE
  5
18E
330
1F
100
AcDbEntity
  8
0
  6
CONTINUOUS
 62
     7
100
AcDbSpline
210
0.0
220
0.0
230
1.0
 70
    24
 71
     3
 72
    10
 73
     6
 74
     0
 42
0.000000001
 43
0.00000001
 40
0.0
 40
0.0
 40
0.0
 40
0.0
 40
0.4999999999999999
 40
0.4999999999999999
 40
0.9999999999999999
 40
0.9999999999999999
 40
0.9999999999999999
 40
0.9999999999999999
 10
220.8888923863861
 20
472.1191450749163
 30
0.0
 10
220.888892386386
 20
472.1191450749163
 30
0.0
 10
222.4166435294202
 20
472.1191450749163
 30
0.0
 10
227.8550445889419
 20
472.1191450749163
 30
0.0
 10
231.5433621183861
 20
472.1191450749163
 30
0.0
 10
235.3888923863861
 20
472.1191450749163
 30
0.0
  0
SPLINE
  5
18F
330
1F
100
AcDbEntity
  8
0
  6
CONTINUOUS
 62
     7
100
AcDbSpline
210
0.0
220
0.0
230
1.0
 70
    24
 71
     3
 72
    10
 73
     6
 74
     0
 42
0.000000001
 43
0.00000001
 40
0.0
 40
0.0
 40
0.0
 40
0.0
 40
0.4999999999999997
 40
0.4999999999999997
 40
0.9999999999999999
 40
0.9999999999999999
 40
0.9999999999999999
 40
0.9999999999999999
 10
249.8888923863861
 20
472.1191450749163
 30
0.0
 10
249.888892386386
 20
472.1191450749163
 30
0.0
 10
248.3611412433519
 20
472.1191450749163
 30
0.0
 10
242.9227401838299
 20
472.1191450749163
 30
0.0
 10
239.2344226543861
 20
472.1191450749163
 30
0.0
 10
235.3888923863861
 20
472.1191450749163
 30
0.0
  0
LINE
  5
190
330
1F
100
AcDbEntity
  8
0
  6
CONTINUOUS
 62
     7
100
AcDbLine
 10
224.1388919394
 20
486.6191448067
 30
0.0
 11
223.3888922821
 21
486.6191448067
 31
0.0
  0
LINE
  5
191
330
1F
100
AcDbEntity
  8
0
  6
CONTINUOUS
 62
     7
100
AcDbLine
 10
224.1388919394
 20
493.1191468035
 30
0.0
 11
224.1388919394
 21
486.6191448067
 31
0.0
  0
LINE
  5
192
330
1F
100
AcDbEntity
  8
0
  6
CONTINUOUS
 62
     7
100
AcDbLine
 10
246.6388928334
 20
493.1191468035
 30
0.0
 11
224.1388919394
 21
493.1191468035
 31
0.0
  0
LINE
  5
193
330
1F
100
AcDbEntity
  8
0
  6
CONTINUOUS
 62
     7
100
AcDbLine
 10
246.6388928334
 20
486.6191448067
 30
0.0
 11
246.6388928334
 21
493.1191468035
 31
0.0
  0
LINE
  5
194
330
1F
100
AcDbEntity
  8
0
  6
CONTINUOUS
 62
     7
100
AcDbLine
 10
247.3888924907
 20
486.6191448067
 30
0.0
 11
246.6388928334
 21
486.6191448067
 31
0.0
  0
SPLINE
  5
195
330
1F
100
AcDbEntity
  8
0
  6
CONTINUOUS
 62
     7
100
AcDbSpline
210
0.0
220
0.0
230
1.0
 70
    24
 71
     3
 72
     8
 73
     4
 74
     0
 42
0.000000001
 43
0.00000001
 40
0.0
 40
0.0
 40
0.0
 40
0.0
 40
1.0
 40
1.0
 40
1.0
 40
1.0
 10
224.1388923863942
 20
493.6191450748505
 30
0.0
 10
224.1388923863942
 20
493.4929962725714
 30
0.0
 10
224.1388923863861
 20
493.3232520962202
 30
0.0
 10
224.1388923863861
 20
493.1191450748204
 30
0.0
  0
LINE
  5
196
330
1F
100
AcDbEntity
  8
0
  6
CONTINUOUS
 62
     7
100
AcDbLine
 10
246.6388928334
 20
493.6191440914
 30
0.0
 11
224.1388919394
 21
493.6191440914
 31
0.0
  0
SPLINE
  5
197
330
1F
100
AcDbEntity
  8
0
  6
CONTINUOUS
 62
     7
100
AcDbSpline
210
0.0
220
0.0
230
1.0
 70
    24
 71
     3
 72
     8
 73
     4
 74
     0
 42
0.000000001
 43
0.00000001
 40
0.0
 40
0.0
 40
0.0
 40
0.0
 40
1.0
 40
1.0
 40
1.0
 40
1.0
 10
246.6388923862399
 20
493.1191450757553
 30
0.0
 10
246.6388923862399
 20
493.323252096691
 30
0.0
 10
246.6388923863861
 20
493.4929962730172
 30
0.0
 10
246.6388923863861
 20
493.6191450752015
 30
0.0
  0
SPLINE
  5
198
330
1F
100
AcDbEntity
  8
0
  6
CONTINUOUS
 62
     7
100
AcDbSpline
210
0.0
220
0.0
230
1.0
 70
    24
 71
     3
 72
    18
 73
    14
 74
     0
 42
0.000000001
 43
0.00000001
 40
0.0
 40
0.0
 40
0.0
 40
0.0
 40
0.0219533855877287
 40
0.1001678926678665
 40
0.1782582574891784
 40
0.2564730309103646
 40
0.4001120180276562
 40
0.5437509159591866
 40
0.6218412370324421
 40
0.7000559922960872
 40
0.7781462803448115
 40
0.8563608715138158
 40
0.9999999999999999
 40
0.9999999999999999
 40
0.9999999999999999
 40
0.9999999999999999
 10
222.3097874413225
 20
435.1191449799214
 30
0.0
 10
222.3118585298621
 20
435.1191449799214
 30
0.0
 10
222.3213083968868
 20
435.1191449799214
 30
0.0
 10
222.2678244421237
 20
435.1191449799214
 30
0.0
 10
222.1522264131387
 20
435.1191449799214
 30
0.0
 10
221.9172773216756
 20
435.1191449799214
 30
0.0
 10
221.5116512178227
 20
435.1191449799214
 30
0.0
 10
221.0034466256134
 20
435.1191449799214
 30
0.0
 10
220.5710200437474
 20
435.1191449799214
 30
0.0
 10
220.2364272021605
 20
435.1191449799214
 30
0.0
 10
219.920588227604
 20
435.1191449799214
 30
0.0
 10
219.5503228250659
 20
435.1191449799214
 30
0.0
 10
219.3604507816353
 20
435.1191449799214
 30
0.0
 10
219.2375181804392
 20
435.1191449799214
 30
0.0
  0
SPLINE
  5
199
330
1F
100
AcDbEntity
  8
0
  6
CONTINUOUS
 62
     7
100
AcDbSpline
210
0.0
220
0.0
230
1.0
 70
    24
 71
     3
 72
    18
 73
    14
 74
     0
 42
0.000000001
 43
0.00000001
 40
0.0
 40
0.0
 40
0.0
 40
0.0
 40
0.1436391029931558
 40
0.2217291573327836
 40
0.2999437963256246
 40
0.3780342365548253
 40
0.4562489454937099
 40
0.5998878179322528
 40
0.743526779556541
 40
0.8216169505180927
 40
0.8998317917742436
 40
0.977922018440508
 40
1.0
 40
1.0
 40
1.0
 40
1.0
 10
251.540266592333
 20
435.1191449799214
 30
0.0
 10
251.4173354641194
 20
435.1191449799214
 30
0.0
 10
251.227572266628
 20
435.1191449799214
 30
0.0
 10
250.8573596305803
 20
435.1191449799214
 30
0.0
 10
250.5417014102819
 20
435.1191449799214
 30
0.0
 10
250.2069505259771
 20
435.1191449799214
 30
0.0
 10
249.7745089425387
 20
435.1191449799214
 30
0.0
 10
249.2661350473138
 20
435.1191449799214
 30
0.0
 10
248.8606433514217
 20
435.1191449799214
 30
0.0
 10
248.625646040097
 20
435.1191449799214
 30
0.0
 10
248.5100557864165
 20
435.1191449799214
 30
0.0
 10
248.4565081740287
 20
435.1191449799214
 30
0.0
 10
248.4659536476289
 20
435.1191449799214
 30
0.0
 10
248.4680355156752
 20
435.1191449799214
 30
0.0
  0
SPLINE
  5
19A
330
1F
100
AcDbEntity
  8
0
  6
CONTINUOUS
 62
     7
100
AcDbSpline
210
0.0
220
0.0
230
1.0
 70
    24
 71
     3
 72
     9
 73
     5
 74
     0
 42
0.000000001
 43
0.00000001
 40
0.0
 40
0.0
 40
0.0
 40
0.0
 40
0.6950504619035377
 40
1.0
 40
1.0
 40
1.0
 40
1.0
 10
184.038891140649
 20
435.1191449799214
 30
0.0
 10
184.0197969775008
 20
435.1191449799214
 30
0.0
 10
183.9923253560937
 20
435.1191449799214
 30
0.0
 10
183.8436217394731
 20
435.1191449799214
 30
0.0
 10
183.7982746402714
 20
435.1191449799214
 30
0.0
  0
SPLINE
  5
19B
330
1F
100
AcDbEntity
  8
0
  6
CONTINUOUS
 62
     7
100
AcDbSpline
210
0.0
220
0.0
230
1.0
 70
    24
 71
     3
 72
    25
 73
    21
 74
     0
 42
0.000000001
 43
0.00000001
 40
0.0
 40
0.0
 40
0.0
 40
0.0
 40
0.0241725869911614
 40
0.0481461986241983
 40
0.0720585426278755
 40
0.0960483818291053
 40
0.1202531462812504
 40
0.1852536686809624
 40
0.2503577853153909
 40
0.3153583543286445
 40
0.3804625176458846
 40
0.5000242376642717
 40
0.6195859576826537
 40
0.6845864800827002
 40
0.7496905967166159
 40
0.8146911657280459
 40
0.8797953290471919
 40
0.9199483208929043
 40
0.9598022275657004
 40
1.0
 40
1.0
 40
1.0
 40
1.0
 10
308.0388923863861
 20
435.1191450749163
 30
0.0
 10
308.0380102674797
 20
435.1191450749163
 30
0.0
 10
308.0362532907814
 20
435.1191450749163
 30
0.0
 10
308.021822291058
 20
435.1191450749163
 30
0.0
 10
307.9987233488221
 20
435.1191450749163
 30
0.0
 10
307.9661168451816
 20
435.1191450749163
 30
0.0
 10
307.901041485182
 20
435.1191450749163
 30
0.0
 10
307.7782216466157
 20
435.1191450749163
 30
0.0
 10
307.563667561795
 20
435.1191450749163
 30
0.0
 10
307.3014518762889
 20
435.1191450749163
 30
0.0
 10
306.9168225278722
 20
435.1191450749163
 30
0.0
 10
306.3888934876279
 20
435.1191450749163
 30
0.0
 10
305.8611386940864
 20
435.1191450749163
 30
0.0
 10
305.4764918025508
 20
435.1191450749163
 30
0.0
 10
305.2143642400216
 20
435.1191450749163
 30
0.0
 10
304.9996807679543
 20
435.1191450749163
 30
0.0
 10
304.8640472972115
 20
435.1191450749163
 30
0.0
 10
304.7865414924038
 20
435.1191450749163
 30
0.0
 10
304.7461940093036
 20
435.1191450749163
 30
0.0
 10
304.7413332206076
 20
435.1191450749163
 30
0.0
 10
304.7388923863861
 20
435.1191450749163
 30
0.0
  0
SPLINE
  5
19C
330
1F
100
AcDbEntity
  8
0
  6
CONTINUOUS
 62
     7
100
AcDbSpline
210
0.0
220
0.0
230
1.0
 70
    24
 71
     3
 72
    25
 73
    21
 74
     0
 42
0.000000001
 43
0.00000001
 40
0.0
 40
0.0
 40
0.0
 40
0.0
 40
0.0241725869924801
 40
0.0481461986261711
 40
0.0720585426298474
 40
0.0960483818304404
 40
0.1202531462813397
 40
0.1852536686814948
 40
0.250357785315321
 40
0.3153583543271694
 40
0.3804625176458786
 40
0.5000242376642584
 40
0.6195859576826408
 40
0.684586480083444
 40
0.7496905967166895
 40
0.8146911657295718
 40
0.8797953290471971
 40
0.9199483208929023
 40
0.959802227565696
 40
1.0
 40
1.0
 40
1.0
 40
1.0
 10
202.0388923863861
 20
435.1191450749163
 30
0.0
 10
202.0380102674796
 20
435.1191450749163
 30
0.0
 10
202.0362532907815
 20
435.1191450749163
 30
0.0
 10
202.0218222910582
 20
435.1191450749163
 30
0.0
 10
201.9987233488224
 20
435.1191450749163
 30
0.0
 10
201.9661168451821
 20
435.1191450749163
 30
0.0
 10
201.9010414851793
 20
435.1191450749163
 30
0.0
 10
201.7782216466103
 20
435.1191450749163
 30
0.0
 10
201.5636675617965
 20
435.1191450749163
 30
0.0
 10
201.3014518762923
 20
435.1191450749163
 30
0.0
 10
200.9168225278742
 20
435.1191450749163
 30
0.0
 10
200.3888934876277
 20
435.1191450749163
 30
0.0
 10
199.861138694086
 20
435.1191450749163
 30
0.0
 10
199.4764918025476
 20
435.1191450749163
 30
0.0
 10
199.214364240019
 20
435.1191450749163
 30
0.0
 10
198.999680767955
 20
435.1191450749163
 30
0.0
 10
198.8640472972103
 20
435.1191450749163
 30
0.0
 10
198.7865414924039
 20
435.1191450749163
 30
0.0
 10
198.7461940093037
 20
435.1191450749163
 30
0.0
 10
198.7413332206076
 20
435.1191450749163
 30
0.0
 10
198.7388923863861
 20
435.1191450749163
 30
0.0
  0
SPLINE
  5
19D
330
1F
100
AcDbEntity
  8
0
  6
CONTINUOUS
 62
     7
100
AcDbSpline
210
0.0
220
0.0
230
1.0
 70
    24
 71
     3
 72
    13
 73
     9
 74
     0
 42
0.000000001
 43
0.00000001
 40
0.0
 40
0.0
 40
0.0
 40
0.0
 40
0.0622843012179266
 40
0.2227802639036382
 40
0.3835337857960737
 40
0.5440306729992541
 40
0.7047826394804155
 40
1.0
 40
1.0
 40
1.0
 40
1.0
 10
269.9096749166938
 20
435.1191449799214
 30
0.0
 10
269.8664779003427
 20
435.1191449799214
 30
0.0
 10
269.7119695810011
 20
435.1191449799214
 30
0.0
 10
269.4779574185895
 20
435.1191449799214
 30
0.0
 10
269.2137014295544
 20
435.1191449799214
 30
0.0
 10
269.0008630997806
 20
435.1191449799214
 30
0.0
 10
268.7952404148968
 20
435.1191449799214
 30
0.0
 10
268.7610362012807
 20
435.1191449799214
 30
0.0
 10
268.7388906816932
 20
435.1191449799214
 30
0.0
  0
SPLINE
  5
19E
330
1F
100
AcDbEntity
  8
0
  6
CONTINUOUS
 62
     7
100
AcDbSpline
210
0.0
220
0.0
230
1.0
 70
    24
 71
     3
 72
    25
 73
    21
 74
     0
 42
0.000000001
 43
0.00000001
 40
0.0
 40
0.0
 40
0.0
 40
0.0
 40
0.0241725869938013
 40
0.0481461986281493
 40
0.0720585426318255
 40
0.09604838183178
 40
0.1202531462814323
 40
0.1852536686835634
 40
0.2503577853153266
 40
0.3153583543271739
 40
0.3804625176458853
 40
0.5000242376642613
 40
0.6195859576826426
 40
0.6845864800834451
 40
0.74969059671669
 40
0.8146911657275052
 40
0.8797953290471117
 40
0.9199483208910736
 40
0.9598022275638669
 40
1.0
 40
1.0
 40
1.0
 40
1.0
 10
166.0388923863861
 20
435.1191450749163
 30
0.0
 10
166.0380102674796
 20
435.1191450749163
 30
0.0
 10
166.0362532907816
 20
435.1191450749163
 30
0.0
 10
166.0218222910586
 20
435.1191450749163
 30
0.0
 10
165.9987233488227
 20
435.1191450749163
 30
0.0
 10
165.9661168451828
 20
435.1191450749163
 30
0.0
 10
165.9010414851756
 20
435.1191450749163
 30
0.0
 10
165.7782216466058
 20
435.1191450749163
 30
0.0
 10
165.5636675617943
 20
435.1191450749163
 30
0.0
 10
165.3014518762921
 20
435.1191450749163
 30
0.0
 10
164.9168225278743
 20
435.1191450749163
 30
0.0
 10
164.3888934876277
 20
435.1191450749163
 30
0.0
 10
163.8611386940858
 20
435.1191450749163
 30
0.0
 10
163.4764918025478
 20
435.1191450749163
 30
0.0
 10
163.2143642400211
 20
435.1191450749163
 30
0.0
 10
162.9996807679597
 20
435.1191450749163
 30
0.0
 10
162.8640472972137
 20
435.1191450749163
 30
0.0
 10
162.7865414924024
 20
435.1191450749163
 30
0.0
 10
162.7461940093032
 20
435.1191450749163
 30
0.0
 10
162.7413332206075
 20
435.1191450749163
 30
0.0
 10
162.7388923863861
 20
435.1191450749163
 30
0.0
  0
LINE
  5
19F
330
1F
100
AcDbEntity
  8
0
  6
CONTINUOUS
 62
     7
100
AcDbLine
 10
362.0388979654
 20
435.1191449799
 30
0.0
 11
358.738894258
 21
435.1191449799
 31
0.0
  0
LINE
  5
1A0
330
1F
100
AcDbEntity
  8
0
  6
CONTINUOUS
 62
     7
100
AcDbLine
 10
341.9920677881
 20
435.1191449799
 30
0.0
 11
340.7388950328
 21
435.1191449799
 31
0.0
  0
LINE
  5
1A1
330
1F
100
AcDbEntity
  8
0
  6
CONTINUOUS
 62
     7
100
AcDbLine
 10
326.0388920645
 20
435.1191449799
 30
0.0
 11
325.4272366504
 21
435.1191449799
 31
0.0
  0
LINE
  5
1A2
330
1F
100
AcDbEntity
  8
0
  6
CONTINUOUS
 62
     7
100
AcDbLine
 10
112.0388905148
 20
435.1191449799
 30
0.0
 11
108.7388868074
 21
435.1191449799
 31
0.0
  0
LINE
  5
1A3
330
1F
100
AcDbEntity
  8
0
  6
CONTINUOUS
 62
     7
100
AcDbLine
 10
130.0388897399
 20
435.1191449799
 30
0.0
 11
128.7857169847
 21
435.1191449799
 31
0.0
  0
LINE
  5
1A4
330
1F
100
AcDbEntity
  8
0
  6
CONTINUOUS
 62
     7
100
AcDbLine
 10
145.3505481224
 20
435.1191449799
 30
0.0
 11
144.7388927083
 21
435.1191449799
 31
0.0
  0
SPLINE
  5
1A5
330
1F
100
AcDbEntity
  8
0
  6
CONTINUOUS
 62
     7
100
AcDbSpline
210
0.0
220
0.0
230
1.0
 70
    24
 71
     3
 72
    11
 73
     7
 74
     0
 42
0.000000001
 43
0.00000001
 40
0.0
 40
0.0
 40
0.0
 40
0.0
 40
0.4101913166476476
 40
0.6331945726147139
 40
0.8565525665655735
 40
1.0
 40
1.0
 40
1.0
 40
1.0
 10
218.7138932387325
 20
435.1191449799214
 30
0.0
 10
218.5230054737344
 20
435.1191449799214
 30
0.0
 10
218.2283402970965
 20
435.1191449799214
 30
0.0
 10
217.7934754201189
 20
435.1191449799214
 30
0.0
 10
217.4968432241723
 20
435.1191449799214
 30
0.0
 10
217.3263574516615
 20
435.1191449799214
 30
0.0
 10
217.2596851925346
 20
435.1191449799214
 30
0.0
  0
LINE
  5
1A6
330
1F
100
AcDbEntity
  8
0
  6
CONTINUOUS
 62
     7
100
AcDbLine
 10
210.1378018598
 20
435.1191449799
 30
0.0
 11
209.7138917635
 21
435.1191449799
 31
0.0
  0
SPLINE
  5
1A7
330
1F
100
AcDbEntity
  8
0
  6
CONTINUOUS
 62
     7
100
AcDbSpline
210
0.0
220
0.0
230
1.0
 70
    24
 71
     3
 72
    11
 73
     7
 74
     0
 42
0.000000001
 43
0.00000001
 40
0.0
 40
0.0
 40
0.0
 40
0.0
 40
0.4101905208137956
 40
0.6331939785460624
 40
0.8565535920682186
 40
1.0
 40
1.0
 40
1.0
 40
1.0
 10
209.7138917635176
 20
435.1191449799214
 30
0.0
 10
209.523004638038
 20
435.1191449799214
 30
0.0
 10
209.2283401533595
 20
435.1191449799214
 30
0.0
 10
208.7934750309162
 20
435.1191449799214
 30
0.0
 10
208.496842932008
 20
435.1191449799214
 30
0.0
 10
208.3263572277729
 20
435.1191449799214
 30
0.0
 10
208.2596855799648
 20
435.1191449799214
 30
0.0
  0
SPLINE
  5
1A8
330
1F
100
AcDbEntity
  8
0
  6
CONTINUOUS
 62
     7
100
AcDbSpline
210
0.0
220
0.0
230
1.0
 70
    24
 71
     3
 72
    16
 73
    12
 74
     0
 42
0.000000001
 43
0.00000001
 40
0.0
 40
0.0
 40
0.0
 40
0.0
 40
0.036149857518964
 40
0.1427732599926502
 40
0.2495655588908567
 40
0.356188784068162
 40
0.4629820124605084
 40
0.6591037450653751
 40
0.8552253646150891
 40
0.9618485879197742
 40
1.0
 40
1.0
 40
1.0
 40
1.0
 10
260.6821047703716
 20
435.1191449799214
 30
0.0
 10
260.6523872442016
 20
435.1191449799214
 30
0.0
 10
260.5350183697051
 20
435.1191449799214
 30
0.0
 10
260.4083461213978
 20
435.1191449799214
 30
0.0
 10
260.2831911351382
 20
435.1191449799214
 30
0.0
 10
260.2298099491654
 20
435.1191449799214
 30
0.0
 10
260.2494874499071
 20
435.1191449799214
 30
0.0
 10
260.4246316721928
 20
435.1191449799214
 30
0.0
 10
260.779395569453
 20
435.1191449799214
 30
0.0
 10
261.0779395879214
 20
435.1191449799214
 30
0.0
 10
261.2216589054199
 20
435.1191449799214
 30
0.0
 10
261.2595322172137
 20
435.1191449799214
 30
0.0
  0
SPLINE
  5
1A9
330
1F
100
AcDbEntity
  8
0
  6
CONTINUOUS
 62
     7
100
AcDbSpline
210
0.0
220
0.0
230
1.0
 70
    24
 71
     3
 72
     9
 73
     5
 74
     0
 42
0.000000001
 43
0.00000001
 40
0.0
 40
0.0
 40
0.0
 40
0.0
 40
0.1206435486013069
 40
0.9999999999999999
 40
0.9999999999999999
 40
0.9999999999999999
 40
0.9999999999999999
 10
186.7242480258438
 20
435.1191449799214
 30
0.0
 10
186.7161362454522
 20
435.1191449799214
 30
0.0
 10
186.6488986642829
 20
435.1191449799214
 30
0.0
 10
186.4904074976986
 20
435.1191449799214
 30
0.0
 10
186.351037267873
 20
435.1191449799214
 30
0.0
  0
SPLINE
  5
1AA
330
1F
100
AcDbEntity
  8
0
  6
CONTINUOUS
 62
     7
100
AcDbSpline
210
0.0
220
0.0
230
1.0
 70
    24
 71
     3
 72
    12
 73
     8
 74
     0
 42
0.000000001
 43
0.00000001
 40
0.0
 40
0.0
 40
0.0
 40
0.0
 40
0.3322887147461245
 40
0.5129382874010848
 40
0.6938774649265731
 40
0.8745277454785995
 40
1.0
 40
1.0
 40
1.0
 40
1.0
 10
186.351037267873
 20
435.1191449799214
 30
0.0
 10
186.1886832967834
 20
435.1191449799214
 30
0.0
 10
185.9380651921417
 20
435.1191449799214
 30
0.0
 10
185.5206363500846
 20
435.1191449799214
 30
0.0
 10
185.1851941567581
 20
435.1191449799214
 30
0.0
 10
184.8800904709238
 20
435.1191449799214
 30
0.0
 10
184.7008202624311
 20
435.1191449799214
 30
0.0
 10
184.6273417214844
 20
435.1191449799214
 30
0.0
  0
SPLINE
  5
1AB
330
1F
100
AcDbEntity
  8
0
  6
CONTINUOUS
 62
     7
100
AcDbSpline
210
0.0
220
0.0
230
1.0
 70
    24
 71
     3
 72
    10
 73
     6
 74
     0
 42
0.000000001
 43
0.00000001
 40
0.0
 40
0.0
 40
0.0
 40
0.0
 40
0.5006319542799536
 40
0.7728039278839194
 40
1.0
 40
1.0
 40
1.0
 40
1.0
 10
217.4397918025944
 20
435.1191449799214
 30
0.0
 10
217.2340360497866
 20
435.1191449799214
 30
0.0
 10
216.9164197797998
 20
435.1191449799214
 30
0.0
 10
216.507345054307
 20
435.1191449799214
 30
0.0
 10
216.3228372956685
 20
435.1191449799214
 30
0.0
 10
216.238892320821
 20
435.1191449799214
 30
0.0
  0
LINE
  5
1AC
330
1F
100
AcDbEntity
  8
0
  6
CONTINUOUS
 62
     8
100
AcDbLine
 10
233.6388923324
 20
435.2191450429
 30
0.0
 11
237.1388924404
 21
435.2191450429
 31
0.0
  0
LINE
  5
1AD
330
1F
100
AcDbEntity
  8
0
  6
CONTINUOUS
 62
     8
100
AcDbLine
 10
201.2865121107
 20
435.2191450429
 30
0.0
 11
204.786511753
 21
435.2191450429
 31
0.0
  0
LINE
  5
1AE
330
1F
100
AcDbEntity
  8
0
  6
CONTINUOUS
 62
     8
100
AcDbLine
 10
265.9912730197
 20
435.2191450429
 30
0.0
 11
269.4912726621
 21
435.2191450429
 31
0.0
  0
LINE
  5
1AF
330
1F
100
AcDbEntity
  8
0
  6
CONTINUOUS
 62
     8
100
AcDbLine
 10
296.1388925652
 20
435.2191450429
 30
0.0
 11
299.6388922076
 21
435.2191450429
 31
0.0
  0
LINE
  5
1B0
330
1F
100
AcDbEntity
  8
0
  6
CONTINUOUS
 62
     8
100
AcDbLine
 10
171.1388925652
 20
435.2191450429
 30
0.0
 11
174.6388922076
 21
435.2191450429
 31
0.0
  0
LINE
  5
1B1
330
1F
100
AcDbEntity
  8
0
  6
CONTINUOUS
 62
     8
100
AcDbLine
 10
205.9452539871
 20
435.2191450429
 30
0.0
 11
209.4452536295
 21
435.2191450429
 31
0.0
  0
LINE
  5
1B2
330
1F
100
AcDbEntity
  8
0
  6
CONTINUOUS
 62
     8
100
AcDbLine
 10
261.3325311433
 20
435.2191450429
 30
0.0
 11
264.8325307856
 21
435.2191450429
 31
0.0
  0
LINE
  5
1B3
330
1F
100
AcDbEntity
  8
0
  6
CONTINUOUS
 62
     8
100
AcDbLine
 10
287.1388929526
 20
435.2191450429
 30
0.0
 11
290.638892595
 21
435.2191450429
 31
0.0
  0
LINE
  5
1B4
330
1F
100
AcDbEntity
  8
0
  6
CONTINUOUS
 62
     8
100
AcDbLine
 10
180.1388921778
 20
435.2191450429
 30
0.0
 11
183.6388918201
 21
435.2191450429
 31
0.0
  0
LINE
  5
1B5
330
1F
100
AcDbEntity
  8
0
  6
CONTINUOUS
 62
     8
100
AcDbLine
 10
322.0272387008
 20
435.2191450429
 30
0.0
 11
325.5272383432
 21
435.2191450429
 31
0.0
  0
LINE
  5
1B6
330
1F
100
AcDbEntity
  8
0
  6
CONTINUOUS
 62
     8
100
AcDbLine
 10
145.2505464296
 20
435.2191450429
 30
0.0
 11
148.750546072
 21
435.2191450429
 31
0.0
  0
LINE
  5
1B7
330
1F
100
AcDbEntity
  8
0
  6
CONTINUOUS
 62
     8
100
AcDbLine
 10
256.6737874041
 20
435.2191450429
 30
0.0
 11
260.1737870465
 21
435.2191450429
 31
0.0
  0
LINE
  5
1B8
330
1F
100
AcDbEntity
  8
0
  6
CONTINUOUS
 62
     8
100
AcDbLine
 10
210.6039977263
 20
435.2191450429
 30
0.0
 11
214.1039973686
 21
435.2191450429
 31
0.0
  0
LINE
  5
1B9
330
1F
100
AcDbEntity
  8
0
  6
CONTINUOUS
 62
     8
100
AcDbLine
 10
278.1388933401
 20
435.2191450429
 30
0.0
 11
281.6388929824
 21
435.2191450429
 31
0.0
  0
LINE
  5
1BA
330
1F
100
AcDbEntity
  8
0
  6
CONTINUOUS
 62
     8
100
AcDbLine
 10
189.1388917903
 20
435.2191450429
 30
0.0
 11
192.6388914327
 21
435.2191450429
 31
0.0
  0
LINE
  5
1BB
330
1F
100
AcDbEntity
  8
0
  6
CONTINUOUS
 62
     8
100
AcDbLine
 10
309.2993150095
 20
435.2191450429
 30
0.0
 11
312.7993146519
 21
435.2191450429
 31
0.0
  0
LINE
  5
1BC
330
1F
100
AcDbEntity
  8
0
  6
CONTINUOUS
 62
     8
100
AcDbLine
 10
157.9784701209
 20
435.2191450429
 30
0.0
 11
161.4784697632
 21
435.2191450429
 31
0.0
  0
LINE
  5
1BD
330
1F
100
AcDbEntity
  8
0
  6
CONTINUOUS
 62
     8
100
AcDbLine
 10
218.7627411078
 20
435.2191450429
 30
0.0
 11
215.2627396028
 21
435.2191450429
 31
0.0
  0
LINE
  5
1BE
330
1F
100
AcDbEntity
  8
0
  6
CONTINUOUS
 62
     8
100
AcDbLine
 10
299.6388922076
 20
435.2191450429
 30
0.0
 11
300.0713984112
 21
435.2191450429
 31
0.0
  0
LINE
  5
1BF
330
1F
100
AcDbEntity
  8
0
  6
CONTINUOUS
 62
     8
100
AcDbLine
 10
170.7063863615
 20
435.2191450429
 30
0.0
 11
171.1388925652
 21
435.2191450429
 31
0.0
  0
LINE
  5
1C0
330
1F
100
AcDbEntity
  8
0
  6
CONTINUOUS
 62
     8
100
AcDbLine
 10
125.3857190351
 20
435.2191450429
 30
0.0
 11
128.8857186775
 21
435.2191450429
 31
0.0
  0
LINE
  5
1C1
330
1F
100
AcDbEntity
  8
0
  6
CONTINUOUS
 62
     8
100
AcDbLine
 10
341.8920660953
 20
435.2191450429
 30
0.0
 11
345.3920657377
 21
435.2191450429
 31
0.0
  0
LINE
  5
1C2
330
1F
100
AcDbEntity
  8
0
  6
CONTINUOUS
 62
     8
100
AcDbLine
 10
201.2865121107
 20
435.2191450429
 30
0.0
 11
198.1388914029
 21
435.2191450429
 31
0.0
  0
LINE
  5
1C3
330
1F
100
AcDbEntity
  8
0
  6
CONTINUOUS
 62
     8
100
AcDbLine
 10
272.6388933699
 20
435.2191450429
 30
0.0
 11
269.4912726621
 21
435.2191450429
 31
0.0
  0
LINE
  5
1C4
330
1F
100
AcDbEntity
  8
0
  6
CONTINUOUS
 62
     8
100
AcDbLine
 10
140.9741739373
 20
435.2191450429
 30
0.0
 11
144.4741735796
 21
435.2191450429
 31
0.0
  0
LINE
  5
1C5
330
1F
100
AcDbEntity
  8
0
  6
CONTINUOUS
 62
     8
100
AcDbLine
 10
326.3036111931
 20
435.2191450429
 30
0.0
 11
329.8036108355
 21
435.2191450429
 31
0.0
  0
LINE
  5
1C6
330
1F
100
AcDbEntity
  8
0
  6
CONTINUOUS
 62
     8
100
AcDbLine
 10
287.1388929526
 20
435.2191450429
 30
0.0
 11
283.8434750776
 21
435.2191450429
 31
0.0
  0
LINE
  5
1C7
330
1F
100
AcDbEntity
  8
0
  6
CONTINUOUS
 62
     8
100
AcDbLine
 10
186.9343096952
 20
435.2191450429
 30
0.0
 11
183.6388918201
 21
435.2191450429
 31
0.0
  0
LINE
  5
1C8
330
1F
100
AcDbEntity
  8
0
  6
CONTINUOUS
 62
     8
100
AcDbLine
 10
261.3325311433
 20
435.2191450429
 30
0.0
 11
260.1737870465
 21
435.2191450429
 31
0.0
  0
LINE
  5
1C9
330
1F
100
AcDbEntity
  8
0
  6
CONTINUOUS
 62
     8
100
AcDbLine
 10
210.6039977263
 20
435.2191450429
 30
0.0
 11
209.4452536295
 21
435.2191450429
 31
0.0
  0
LINE
  5
1CA
330
1F
100
AcDbEntity
  8
0
  6
CONTINUOUS
 62
     8
100
AcDbLine
 10
156.5626288394
 20
435.2191450429
 30
0.0
 11
157.9784701209
 21
435.2191450429
 31
0.0
  0
LINE
  5
1CB
330
1F
100
AcDbEntity
  8
0
  6
CONTINUOUS
 62
     8
100
AcDbLine
 10
312.7993146519
 20
435.2191450429
 30
0.0
 11
314.2151559333
 21
435.2191450429
 31
0.0
  0
LINE
  5
1CC
330
1F
100
AcDbEntity
  8
0
  6
CONTINUOUS
 62
     8
100
AcDbLine
 10
296.1388925652
 20
435.2191450429
 30
0.0
 11
295.1266976635
 21
435.2191450429
 31
0.0
  0
LINE
  5
1CD
330
1F
100
AcDbEntity
  8
0
  6
CONTINUOUS
 62
     8
100
AcDbLine
 10
175.6510871093
 20
435.2191450429
 30
0.0
 11
174.6388922076
 21
435.2191450429
 31
0.0
  0
LINE
  5
1CE
330
1F
100
AcDbEntity
  8
0
  6
CONTINUOUS
 62
     8
100
AcDbLine
 10
354.3796191554
 20
435.2191450429
 30
0.0
 11
357.8796187977
 21
435.2191450429
 31
0.0
  0
LINE
  5
1CF
330
1F
100
AcDbEntity
  8
0
  6
CONTINUOUS
 62
     8
100
AcDbLine
 10
112.898165975
 20
435.2191450429
 30
0.0
 11
116.3981656174
 21
435.2191450429
 31
0.0
  0
LINE
  5
1D0
330
1F
100
AcDbEntity
  8
0
  6
CONTINUOUS
 62
     8
100
AcDbLine
 10
219.6388921331
 20
435.2191450429
 30
0.0
 11
218.7627411078
 21
435.2191450429
 31
0.0
  0
LINE
  5
1D1
330
1F
100
AcDbEntity
  8
0
  6
CONTINUOUS
 62
     8
100
AcDbLine
 10
252.015043665
 20
435.2191450429
 30
0.0
 11
251.1388926397
 21
435.2191450429
 31
0.0
  0
LINE
  5
1D2
330
1F
100
AcDbEntity
  8
0
  6
CONTINUOUS
 62
     8
100
AcDbLine
 10
336.9929591755
 20
435.2191450429
 30
0.0
 11
340.4929588179
 21
435.2191450429
 31
0.0
  0
LINE
  5
1D3
330
1F
100
AcDbEntity
  8
0
  6
CONTINUOUS
 62
     8
100
AcDbLine
 10
130.2848259549
 20
435.2191450429
 30
0.0
 11
133.7848255972
 21
435.2191450429
 31
0.0
  0
LINE
  5
1D4
330
1F
100
AcDbEntity
  8
0
  6
CONTINUOUS
 62
     8
100
AcDbLine
 10
189.1388917903
 20
435.2191450429
 30
0.0
 11
187.7395460944
 21
435.2191450429
 31
0.0
  0
LINE
  5
1D5
330
1F
100
AcDbEntity
  8
0
  6
CONTINUOUS
 62
     8
100
AcDbLine
 10
283.0382386784
 20
435.2191450429
 30
0.0
 11
281.6388929824
 21
435.2191450429
 31
0.0
  0
LINE
  5
1D6
330
1F
100
AcDbEntity
  8
0
  6
CONTINUOUS
 62
     8
100
AcDbLine
 10
319.6062917451
 20
435.2191450429
 30
0.0
 11
322.0272387008
 21
435.2191450429
 31
0.0
  0
LINE
  5
1D7
330
1F
100
AcDbEntity
  8
0
  6
CONTINUOUS
 62
     8
100
AcDbLine
 10
148.750546072
 20
435.2191450429
 30
0.0
 11
151.1714930276
 21
435.2191450429
 31
0.0
  0
LINE
  5
1D8
330
1F
100
AcDbEntity
  8
0
  6
CONTINUOUS
 62
     8
100
AcDbLine
 10
168.558160458
 20
435.2191450429
 30
0.0
 11
165.0581608157
 21
435.2191450429
 31
0.0
  0
LINE
  5
1D9
330
1F
100
AcDbEntity
  8
0
  6
CONTINUOUS
 62
     8
100
AcDbLine
 10
302.2294665317
 20
435.2191450429
 30
0.0
 11
302.2196243147
 21
435.2191450429
 31
0.0
  0
LINE
  5
1DA
330
1F
100
AcDbEntity
  8
0
  6
CONTINUOUS
 62
     8
100
AcDbLine
 10
265.9912730197
 20
435.2191450429
 30
0.0
 11
264.8325307856
 21
435.2191450429
 31
0.0
  0
LINE
  5
1DB
330
1F
100
AcDbEntity
  8
0
  6
CONTINUOUS
 62
     8
100
AcDbLine
 10
205.9452539871
 20
435.2191450429
 30
0.0
 11
204.786511753
 21
435.2191450429
 31
0.0
  0
LINE
  5
1DC
330
1F
100
AcDbEntity
  8
0
  6
CONTINUOUS
 62
     8
100
AcDbLine
 10
224.1382176618
 20
477.3084373568
 30
0.0
 11
246.639567111
 21
477.3084373568
 31
0.0
  0
LINE
  5
1DD
330
1F
100
AcDbEntity
  8
0
  6
CONTINUOUS
 62
     8
100
AcDbLine
 10
222.4164601977
 20
435.2191450429
 30
0.0
 11
219.6388921331
 21
435.2191450429
 31
0.0
  0
LINE
  5
1DE
330
1F
100
AcDbEntity
  8
0
  6
CONTINUOUS
 62
     8
100
AcDbLine
 10
251.1388926397
 20
435.2191450429
 30
0.0
 11
248.3613245751
 21
435.2191450429
 31
0.0
  0
LINE
  5
1DF
330
1F
100
AcDbEntity
  8
0
  6
CONTINUOUS
 62
     8
100
AcDbLine
 10
308.1388945322
 20
435.2191450429
 30
0.0
 11
305.7196239571
 21
435.2191450429
 31
0.0
  0
LINE
  5
1E0
330
1F
100
AcDbEntity
  8
0
  6
CONTINUOUS
 62
     8
100
AcDbLine
 10
165.0358984808
 20
435.2191450429
 30
0.0
 11
162.6388902406
 21
435.2191450429
 31
0.0
  0
LINE
  5
1E1
330
1F
100
AcDbEntity
  8
0
  6
CONTINUOUS
 62
     8
100
AcDbLine
 10
358.6388925652
 20
435.2191450429
 30
0.0
 11
362.1388996582
 21
435.2191450429
 31
0.0
  0
LINE
  5
1E2
330
1F
100
AcDbEntity
  8
0
  6
CONTINUOUS
 62
     8
100
AcDbLine
 10
340.6388933401
 20
435.2191450429
 30
0.0
 11
341.8920660953
 21
435.2191450429
 31
0.0
  0
LINE
  5
1E3
330
1F
100
AcDbEntity
  8
0
  6
CONTINUOUS
 62
     8
100
AcDbLine
 10
325.5272383432
 20
435.2191450429
 30
0.0
 11
326.1388937573
 21
435.2191450429
 31
0.0
  0
LINE
  5
1E4
330
1F
100
AcDbEntity
  8
0
  6
CONTINUOUS
 62
     8
100
AcDbLine
 10
108.6388851146
 20
435.2191450429
 30
0.0
 11
112.1388922076
 21
435.2191450429
 31
0.0
  0
LINE
  5
1E5
330
1F
100
AcDbEntity
  8
0
  6
CONTINUOUS
 62
     8
100
AcDbLine
 10
128.8857186775
 20
435.2191450429
 30
0.0
 11
130.1388914327
 21
435.2191450429
 31
0.0
  0
LINE
  5
1E6
330
1F
100
AcDbEntity
  8
0
  6
CONTINUOUS
 62
     8
100
AcDbLine
 10
144.6388910155
 20
435.2191450429
 30
0.0
 11
145.2505464296
 21
435.2191450429
 31
0.0
  0
LINE
  5
1E7
330
1F
100
AcDbEntity
  8
0
  6
CONTINUOUS
 62
     7
100
AcDbLine
 10
472.0371281573
 20
445.1191454549
 30
0.0
 11
472.0371281573
 21
437.1191450749
 31
0.0
  0
LINE
  5
1E8
330
1F
100
AcDbEntity
  8
0
  6
CONTINUOUS
 62
     7
100
AcDbLine
 10
773.0371272037
 20
437.1191450749
 30
0.0
 11
773.0371272037
 21
445.1191454549
 31
0.0
  0
LINE
  5
1E9
330
1F
100
AcDbEntity
  8
0
  6
CONTINUOUS
 62
     7
100
AcDbLine
 10
620.7871276265
 20
437.1191450749
 30
0.0
 11
620.7871276265
 21
435.2191450429
 31
0.0
  0
LINE
  5
1EA
330
1F
100
AcDbEntity
  8
0
  6
CONTINUOUS
 62
     7
100
AcDbLine
 10
624.2871277345
 20
435.2191450429
 30
0.0
 11
624.2871277345
 21
437.1191450749
 31
0.0
  0
ARC
  5
1EB
330
1F
100
AcDbEntity
  8
0
  6
CONTINUOUS
 62
     7
100
AcDbCircle
 10
624.1871276805
 20
435.2191450749
 30
0.0
 40
0.1000000000001364
100
AcDbArc
 50
270.0
 51
0.0
  0
ARC
  5
1EC
330
1F
100
AcDbEntity
  8
0
  6
CONTINUOUS
 62
     7
100
AcDbCircle
 10
620.8871276805
 20
435.2191450749
 30
0.0
 40
0.1000000000000227
100
AcDbArc
 50
180.0
 51
270.0
  0
ARC
  5
1ED
330
1F
100
AcDbEntity
  8
0
  6
CONTINUOUS
 62
     7
100
AcDbCircle
 10
591.8347470427
 20
435.2191450749
 30
0.0
 40
0.1000000000000227
100
AcDbArc
 50
270.0
 51
0.0
  0
ARC
  5
1EE
330
1F
100
AcDbEntity
  8
0
  6
CONTINUOUS
 62
     7
100
AcDbCircle
 10
588.5347470427
 20
435.2191450749
 30
0.0
 40
0.1000000000000227
100
AcDbArc
 50
180.0
 51
270.0
  0
LINE
  5
1EF
330
1F
100
AcDbEntity
  8
0
  6
CONTINUOUS
 62
     7
100
AcDbLine
 10
588.4347474048
 20
437.1191450749
 30
0.0
 11
588.4347474048
 21
435.2191450429
 31
0.0
  0
LINE
  5
1F0
330
1F
100
AcDbEntity
  8
0
  6
CONTINUOUS
 62
     7
100
AcDbLine
 10
591.9347470471
 20
435.2191450429
 30
0.0
 11
591.9347470471
 21
437.1191450749
 31
0.0
  0
ARC
  5
1F1
330
1F
100
AcDbEntity
  8
0
  6
CONTINUOUS
 62
     7
100
AcDbCircle
 10
656.5395083183
 20
435.2191450749
 30
0.0
 40
0.1000000000000227
100
AcDbArc
 50
270.0
 51
0.0
  0
ARC
  5
1F2
330
1F
100
AcDbEntity
  8
0
  6
CONTINUOUS
 62
     7
100
AcDbCircle
 10
653.2395083183
 20
435.2191450749
 30
0.0
 40
0.1000000000000227
100
AcDbArc
 50
180.0
 51
270.0
  0
LINE
  5
1F3
330
1F
100
AcDbEntity
  8
0
  6
CONTINUOUS
 62
     7
100
AcDbLine
 10
653.1395083139
 20
437.1191450749
 30
0.0
 11
653.1395083139
 21
435.2191450429
 31
0.0
  0
LINE
  5
1F4
330
1F
100
AcDbEntity
  8
0
  6
CONTINUOUS
 62
     7
100
AcDbLine
 10
656.6395079562
 20
435.2191450429
 30
0.0
 11
656.6395079562
 21
437.1191450749
 31
0.0
  0
ARC
  5
1F5
330
1F
100
AcDbEntity
  8
0
  6
CONTINUOUS
 62
     7
100
AcDbCircle
 10
561.6871276805
 20
435.2191450749
 30
0.0
 40
0.1000000000000227
100
AcDbArc
 50
270.0
 51
0.0
  0
ARC
  5
1F6
330
1F
100
AcDbEntity
  8
0
  6
CONTINUOUS
 62
     7
100
AcDbCircle
 10
558.3871276805
 20
435.2191450749
 30
0.0
 40
0.1000000000000227
100
AcDbArc
 50
180.0
 51
270.0
  0
LINE
  5
1F7
330
1F
100
AcDbEntity
  8
0
  6
CONTINUOUS
 62
     7
100
AcDbLine
 10
558.2871278593
 20
437.1191450749
 30
0.0
 11
558.2871278593
 21
435.2191450429
 31
0.0
  0
LINE
  5
1F8
330
1F
100
AcDbEntity
  8
0
  6
CONTINUOUS
 62
     7
100
AcDbLine
 10
561.7871275017
 20
435.2191450429
 30
0.0
 11
561.7871275017
 21
437.1191450749
 31
0.0
  0
LINE
  5
1F9
330
1F
100
AcDbEntity
  8
0
  6
CONTINUOUS
 62
     7
100
AcDbLine
 10
683.2871278593
 20
437.1191450749
 30
0.0
 11
683.2871278593
 21
435.2191450429
 31
0.0
  0
LINE
  5
1FA
330
1F
100
AcDbEntity
  8
0
  6
CONTINUOUS
 62
     7
100
AcDbLine
 10
686.7871275017
 20
435.2191450429
 30
0.0
 11
686.7871275017
 21
437.1191450749
 31
0.0
  0
ARC
  5
1FB
330
1F
100
AcDbEntity
  8
0
  6
CONTINUOUS
 62
     7
100
AcDbCircle
 10
686.6871276805
 20
435.2191450749
 30
0.0
 40
0.1000000000000227
100
AcDbArc
 50
270.0
 51
0.0
  0
ARC
  5
1FC
330
1F
100
AcDbEntity
  8
0
  6
CONTINUOUS
 62
     7
100
AcDbCircle
 10
683.3871276805
 20
435.2191450749
 30
0.0
 40
0.1000000000000227
100
AcDbArc
 50
180.0
 51
270.0
  0
LINE
  5
1FD
330
1F
100
AcDbEntity
  8
0
  6
CONTINUOUS
 62
     7
100
AcDbLine
 10
593.0934892813
 20
437.1191450749
 30
0.0
 11
593.0934892813
 21
435.2191450429
 31
0.0
  0
LINE
  5
1FE
330
1F
100
AcDbEntity
  8
0
  6
CONTINUOUS
 62
     7
100
AcDbLine
 10
596.5934889236
 20
435.2191450429
 30
0.0
 11
596.5934889236
 21
437.1191450749
 31
0.0
  0
ARC
  5
1FF
330
1F
100
AcDbEntity
  8
0
  6
CONTINUOUS
 62
     7
100
AcDbCircle
 10
596.4934898545
 20
435.2191450749
 30
0.0
 40
0.1000000000000227
100
AcDbArc
 50
270.0
 51
0.0
  0
ARC
  5
200
330
1F
100
AcDbEntity
  8
0
  6
CONTINUOUS
 62
     7
100
AcDbCircle
 10
593.1934898545
 20
435.2191450749
 30
0.0
 40
0.1000000000000227
100
AcDbArc
 50
180.0
 51
270.0
  0
ARC
  5
201
330
1F
100
AcDbEntity
  8
0
  6
CONTINUOUS
 62
     7
100
AcDbCircle
 10
651.8807655065
 20
435.2191450749
 30
0.0
 40
0.1000000000000227
100
AcDbArc
 50
270.0
 51
0.0
  0
ARC
  5
202
330
1F
100
AcDbEntity
  8
0
  6
CONTINUOUS
 62
     7
100
AcDbCircle
 10
648.5807655065
 20
435.2191450749
 30
0.0
 40
0.1000000000000227
100
AcDbArc
 50
180.0
 51
270.0
  0
LINE
  5
203
330
1F
100
AcDbEntity
  8
0
  6
CONTINUOUS
 62
     7
100
AcDbLine
 10
648.4807664374
 20
437.1191450749
 30
0.0
 11
648.4807664374
 21
435.2191450429
 31
0.0
  0
LINE
  5
204
330
1F
100
AcDbEntity
  8
0
  6
CONTINUOUS
 62
     7
100
AcDbLine
 10
651.9807660797
 20
435.2191450429
 30
0.0
 11
651.9807660797
 21
437.1191450749
 31
0.0
  0
LINE
  5
205
330
1F
100
AcDbEntity
  8
0
  6
CONTINUOUS
 62
     7
100
AcDbLine
 10
567.2871274719
 20
437.1191450749
 30
0.0
 11
567.2871274719
 21
435.2191450429
 31
0.0
  0
LINE
  5
206
330
1F
100
AcDbEntity
  8
0
  6
CONTINUOUS
 62
     7
100
AcDbLine
 10
570.7871271143
 20
435.2191450429
 30
0.0
 11
570.7871271143
 21
437.1191450749
 31
0.0
  0
ARC
  5
207
330
1F
100
AcDbEntity
  8
0
  6
CONTINUOUS
 62
     7
100
AcDbCircle
 10
570.6871276805
 20
435.2191450749
 30
0.0
 40
0.1000000000000227
100
AcDbArc
 50
270.0
 51
0.0
  0
ARC
  5
208
330
1F
100
AcDbEntity
  8
0
  6
CONTINUOUS
 62
     7
100
AcDbCircle
 10
567.3871276805
 20
435.2191450749
 30
0.0
 40
0.1000000000000227
100
AcDbArc
 50
180.0
 51
270.0
  0
ARC
  5
209
330
1F
100
AcDbEntity
  8
0
  6
CONTINUOUS
 62
     7
100
AcDbCircle
 10
677.6871276805
 20
435.2191450749
 30
0.0
 40
0.1000000000000227
100
AcDbArc
 50
270.0
 51
0.0
  0
ARC
  5
20A
330
1F
100
AcDbEntity
  8
0
  6
CONTINUOUS
 62
     7
100
AcDbCircle
 10
674.3871276805
 20
435.2191450749
 30
0.0
 40
0.1000000000000227
100
AcDbArc
 50
180.0
 51
270.0
  0
LINE
  5
20B
330
1F
100
AcDbEntity
  8
0
  6
CONTINUOUS
 62
     7
100
AcDbLine
 10
674.2871282467
 20
437.1191450749
 30
0.0
 11
674.2871282467
 21
435.2191450429
 31
0.0
  0
LINE
  5
20C
330
1F
100
AcDbEntity
  8
0
  6
CONTINUOUS
 62
     7
100
AcDbLine
 10
677.7871278891
 20
435.2191450429
 30
0.0
 11
677.7871278891
 21
437.1191450749
 31
0.0
  0
LINE
  5
20D
330
1F
100
AcDbEntity
  8
0
  6
CONTINUOUS
 62
     7
100
AcDbLine
 10
532.3987817237
 20
437.1191450749
 30
0.0
 11
532.3987817237
 21
435.2191450429
 31
0.0
  0
LINE
  5
20E
330
1F
100
AcDbEntity
  8
0
  6
CONTINUOUS
 62
     7
100
AcDbLine
 10
535.8987813661
 20
435.2191450429
 30
0.0
 11
535.8987813661
 21
437.1191450749
 31
0.0
  0
ARC
  5
20F
330
1F
100
AcDbEntity
  8
0
  6
CONTINUOUS
 62
     7
100
AcDbCircle
 10
535.7987800322
 20
435.2191450749
 30
0.0
 40
0.1000000000000227
100
AcDbArc
 50
270.0
 51
0.0
  0
ARC
  5
210
330
1F
100
AcDbEntity
  8
0
  6
CONTINUOUS
 62
     7
100
AcDbCircle
 10
532.4987800322
 20
435.2191450749
 30
0.0
 40
0.1000000000000227
100
AcDbArc
 50
180.0
 51
270.0
  0
LINE
  5
211
330
1F
100
AcDbEntity
  8
0
  6
CONTINUOUS
 62
     7
100
AcDbLine
 10
709.1754739949
 20
437.1191450749
 30
0.0
 11
709.1754739949
 21
435.2191450429
 31
0.0
  0
LINE
  5
212
330
1F
100
AcDbEntity
  8
0
  6
CONTINUOUS
 62
     7
100
AcDbLine
 10
712.6754736373
 20
435.2191450429
 30
0.0
 11
712.6754736373
 21
437.1191450749
 31
0.0
  0
ARC
  5
213
330
1F
100
AcDbEntity
  8
0
  6
CONTINUOUS
 62
     7
100
AcDbCircle
 10
712.5754753288
 20
435.2191450749
 30
0.0
 40
0.1000000000000227
100
AcDbArc
 50
270.0
 51
0.0
  0
ARC
  5
214
330
1F
100
AcDbEntity
  8
0
  6
CONTINUOUS
 62
     7
100
AcDbCircle
 10
709.2754753288
 20
435.2191450749
 30
0.0
 40
0.1000000000000227
100
AcDbArc
 50
180.0
 51
270.0
  0
LINE
  5
215
330
1F
100
AcDbEntity
  8
0
  6
CONTINUOUS
 62
     7
100
AcDbLine
 10
597.7522330204
 20
437.1191450749
 30
0.0
 11
597.7522330204
 21
435.2191450429
 31
0.0
  0
LINE
  5
216
330
1F
100
AcDbEntity
  8
0
  6
CONTINUOUS
 62
     7
100
AcDbLine
 10
601.2522326628
 20
435.2191450429
 30
0.0
 11
601.2522326628
 21
437.1191450749
 31
0.0
  0
ARC
  5
217
330
1F
100
AcDbEntity
  8
0
  6
CONTINUOUS
 62
     7
100
AcDbCircle
 10
601.1522326664
 20
435.2191450749
 30
0.0
 40
0.1000000000000227
100
AcDbArc
 50
270.0
 51
0.0
  0
ARC
  5
218
330
1F
100
AcDbEntity
  8
0
  6
CONTINUOUS
 62
     7
100
AcDbCircle
 10
597.8522326664
 20
435.2191450749
 30
0.0
 40
0.1000000000001364
100
AcDbArc
 50
180.0
 51
270.0
  0
LINE
  5
219
330
1F
100
AcDbEntity
  8
0
  6
CONTINUOUS
 62
     7
100
AcDbLine
 10
643.8220226982
 20
437.1191450749
 30
0.0
 11
643.8220226982
 21
435.2191450429
 31
0.0
  0
LINE
  5
21A
330
1F
100
AcDbEntity
  8
0
  6
CONTINUOUS
 62
     7
100
AcDbLine
 10
647.3220223406
 20
435.2191450429
 30
0.0
 11
647.3220223406
 21
437.1191450749
 31
0.0
  0
ARC
  5
21B
330
1F
100
AcDbEntity
  8
0
  6
CONTINUOUS
 62
     7
100
AcDbCircle
 10
647.2220226946
 20
435.2191450749
 30
0.0
 40
0.1000000000000227
100
AcDbArc
 50
270.0
 51
0.0
  0
ARC
  5
21C
330
1F
100
AcDbEntity
  8
0
  6
CONTINUOUS
 62
     7
100
AcDbCircle
 10
643.9220226946
 20
435.2191450749
 30
0.0
 40
0.1000000000000227
100
AcDbArc
 50
180.0
 51
270.0
  0
ARC
  5
21D
330
1F
100
AcDbEntity
  8
0
  6
CONTINUOUS
 62
     7
100
AcDbCircle
 10
579.6871276805
 20
435.2191450749
 30
0.0
 40
0.1000000000000227
100
AcDbArc
 50
270.0
 51
0.0
  0
ARC
  5
21E
330
1F
100
AcDbEntity
  8
0
  6
CONTINUOUS
 62
     7
100
AcDbCircle
 10
576.3871276805
 20
435.2191450749
 30
0.0
 40
0.1000000000000227
100
AcDbArc
 50
180.0
 51
270.0
  0
LINE
  5
21F
330
1F
100
AcDbEntity
  8
0
  6
CONTINUOUS
 62
     7
100
AcDbLine
 10
576.2871270845
 20
437.1191450749
 30
0.0
 11
576.2871270845
 21
435.2191450429
 31
0.0
  0
LINE
  5
220
330
1F
100
AcDbEntity
  8
0
  6
CONTINUOUS
 62
     7
100
AcDbLine
 10
579.7871267268
 20
435.2191450429
 30
0.0
 11
579.7871267268
 21
437.1191450749
 31
0.0
  0
LINE
  5
221
330
1F
100
AcDbEntity
  8
0
  6
CONTINUOUS
 62
     7
100
AcDbLine
 10
665.2871286342
 20
437.1191450749
 30
0.0
 11
665.2871286342
 21
435.2191450429
 31
0.0
  0
LINE
  5
222
330
1F
100
AcDbEntity
  8
0
  6
CONTINUOUS
 62
     7
100
AcDbLine
 10
668.7871282765
 20
435.2191450429
 30
0.0
 11
668.7871282765
 21
437.1191450749
 31
0.0
  0
ARC
  5
223
330
1F
100
AcDbEntity
  8
0
  6
CONTINUOUS
 62
     7
100
AcDbCircle
 10
668.6871276805
 20
435.2191450749
 30
0.0
 40
0.1000000000000227
100
AcDbArc
 50
270.0
 51
0.0
  0
ARC
  5
224
330
1F
100
AcDbEntity
  8
0
  6
CONTINUOUS
 62
     7
100
AcDbCircle
 10
665.3871276805
 20
435.2191450749
 30
0.0
 40
0.1000000000000227
100
AcDbArc
 50
180.0
 51
270.0
  0
LINE
  5
225
330
1F
100
AcDbEntity
  8
0
  6
CONTINUOUS
 62
     7
100
AcDbLine
 10
545.126705415
 20
437.1191450749
 30
0.0
 11
545.126705415
 21
435.2191450429
 31
0.0
  0
LINE
  5
226
330
1F
100
AcDbEntity
  8
0
  6
CONTINUOUS
 62
     7
100
AcDbLine
 10
548.6267050573
 20
435.2191450429
 30
0.0
 11
548.6267050573
 21
437.1191450749
 31
0.0
  0
ARC
  5
227
330
1F
100
AcDbEntity
  8
0
  6
CONTINUOUS
 62
     7
100
AcDbCircle
 10
548.5267020935
 20
435.2191450749
 30
0.0
 40
0.1000000000000227
100
AcDbArc
 50
270.0
 51
0.0
  0
ARC
  5
228
330
1F
100
AcDbEntity
  8
0
  6
CONTINUOUS
 62
     7
100
AcDbCircle
 10
545.2267020935
 20
435.2191450749
 30
0.0
 40
0.1000000000000227
100
AcDbArc
 50
180.0
 51
270.0
  0
ARC
  5
229
330
1F
100
AcDbEntity
  8
0
  6
CONTINUOUS
 62
     7
100
AcDbCircle
 10
699.8475532675
 20
435.2191450749
 30
0.0
 40
0.1000000000000227
100
AcDbArc
 50
270.0
 51
0.0
  0
ARC
  5
22A
330
1F
100
AcDbEntity
  8
0
  6
CONTINUOUS
 62
     7
100
AcDbCircle
 10
696.5475532675
 20
435.2191450749
 30
0.0
 40
0.1000000000000227
100
AcDbArc
 50
180.0
 51
270.0
  0
LINE
  5
22B
330
1F
100
AcDbEntity
  8
0
  6
CONTINUOUS
 62
     7
100
AcDbLine
 10
696.4475503037
 20
437.1191450749
 30
0.0
 11
696.4475503037
 21
435.2191450429
 31
0.0
  0
LINE
  5
22C
330
1F
100
AcDbEntity
  8
0
  6
CONTINUOUS
 62
     7
100
AcDbLine
 10
699.947549946
 20
435.2191450429
 30
0.0
 11
699.947549946
 21
437.1191450749
 31
0.0
  0
ARC
  5
22D
330
1F
100
AcDbEntity
  8
0
  6
CONTINUOUS
 62
     7
100
AcDbCircle
 10
642.5632798828
 20
435.2191450749
 30
0.0
 40
0.1000000000000227
100
AcDbArc
 50
270.0
 51
0.0
  0
ARC
  5
22E
330
1F
100
AcDbEntity
  8
0
  6
CONTINUOUS
 62
     7
100
AcDbCircle
 10
639.2632798828
 20
435.2191450749
 30
0.0
 40
0.1000000000000227
100
AcDbArc
 50
180.0
 51
270.0
  0
ARC
  5
22F
330
1F
100
AcDbEntity
  8
0
  6
CONTINUOUS
 62
     7
100
AcDbCircle
 10
605.8109754782
 20
435.2191450749
 30
0.0
 40
0.1000000000000227
100
AcDbArc
 50
270.0
 51
0.0
  0
ARC
  5
230
330
1F
100
AcDbEntity
  8
0
  6
CONTINUOUS
 62
     7
100
AcDbCircle
 10
602.5109754782
 20
435.2191450749
 30
0.0
 40
0.1000000000000227
100
AcDbArc
 50
180.0
 51
270.0
  0
LINE
  5
231
330
1F
100
AcDbEntity
  8
0
  6
CONTINUOUS
 62
     7
100
AcDbLine
 10
605.9109764019
 20
435.2191450429
 30
0.0
 11
605.9109764019
 21
437.1191450749
 31
0.0
  0
LINE
  5
232
330
1F
100
AcDbEntity
  8
0
  6
CONTINUOUS
 62
     7
100
AcDbLine
 10
602.4109748969
 20
437.1191450749
 30
0.0
 11
602.4109748969
 21
435.2191450429
 31
0.0
  0
LINE
  5
233
330
1F
100
AcDbEntity
  8
0
  6
CONTINUOUS
 62
     7
100
AcDbLine
 10
642.6632804641
 20
435.2191450429
 30
0.0
 11
642.6632804641
 21
437.1191450749
 31
0.0
  0
LINE
  5
234
330
1F
100
AcDbEntity
  8
0
  6
CONTINUOUS
 62
     7
100
AcDbLine
 10
639.1632789591
 20
437.1191450749
 30
0.0
 11
639.1632789591
 21
435.2191450429
 31
0.0
  0
ARC
  5
235
330
1F
100
AcDbEntity
  8
0
  6
CONTINUOUS
 62
     7
100
AcDbCircle
 10
557.9546241549
 20
435.2191450749
 30
0.0
 40
0.1000000000000227
100
AcDbArc
 50
180.0
 51
270.0
  0
LINE
  5
236
330
1F
100
AcDbEntity
  8
0
  6
CONTINUOUS
 62
     7
100
AcDbLine
 10
557.8546216557
 20
437.1191450749
 30
0.0
 11
557.8546216557
 21
435.2191450429
 31
0.0
  0
LINE
  5
237
330
1F
100
AcDbEntity
  8
0
  6
CONTINUOUS
 62
     7
100
AcDbLine
 10
687.2196337053
 20
435.2191450429
 30
0.0
 11
687.2196337053
 21
437.1191450749
 31
0.0
  0
ARC
  5
238
330
1F
100
AcDbEntity
  8
0
  6
CONTINUOUS
 62
     7
100
AcDbCircle
 10
687.1196312061
 20
435.2191450749
 30
0.0
 40
0.1000000000000227
100
AcDbArc
 50
270.0
 51
0.0
  0
LINE
  5
239
330
1F
100
AcDbEntity
  8
0
  6
CONTINUOUS
 62
     7
100
AcDbLine
 10
512.5339543292
 20
437.1191450749
 30
0.0
 11
512.5339543292
 21
435.2191450429
 31
0.0
  0
LINE
  5
23A
330
1F
100
AcDbEntity
  8
0
  6
CONTINUOUS
 62
     7
100
AcDbLine
 10
516.0339539716
 20
435.2191450429
 30
0.0
 11
516.0339539716
 21
437.1191450749
 31
0.0
  0
ARC
  5
23B
330
1F
100
AcDbEntity
  8
0
  6
CONTINUOUS
 62
     7
100
AcDbCircle
 10
515.9339522074
 20
435.2191450749
 30
0.0
 40
0.1000000000001364
100
AcDbArc
 50
270.0
 51
0.0
  0
ARC
  5
23C
330
1F
100
AcDbEntity
  8
0
  6
CONTINUOUS
 62
     7
100
AcDbCircle
 10
512.6339522074
 20
435.2191450749
 30
0.0
 40
0.1000000000000227
100
AcDbArc
 50
180.0
 51
270.0
  0
ARC
  5
23D
330
1F
100
AcDbEntity
  8
0
  6
CONTINUOUS
 62
     7
100
AcDbCircle
 10
732.4403031536
 20
435.2191450749
 30
0.0
 40
0.1000000000000227
100
AcDbArc
 50
270.0
 51
0.0
  0
ARC
  5
23E
330
1F
100
AcDbEntity
  8
0
  6
CONTINUOUS
 62
     7
100
AcDbCircle
 10
729.1403031536
 20
435.2191450749
 30
0.0
 40
0.1000000000000227
100
AcDbArc
 50
180.0
 51
270.0
  0
LINE
  5
23F
330
1F
100
AcDbEntity
  8
0
  6
CONTINUOUS
 62
     7
100
AcDbLine
 10
729.0403013894
 20
437.1191450749
 30
0.0
 11
729.0403013894
 21
435.2191450429
 31
0.0
  0
LINE
  5
240
330
1F
100
AcDbEntity
  8
0
  6
CONTINUOUS
 62
     7
100
AcDbLine
 10
732.5403010318
 20
435.2191450429
 30
0.0
 11
732.5403010318
 21
437.1191450749
 31
0.0
  0
ARC
  5
241
330
1F
100
AcDbEntity
  8
0
  6
CONTINUOUS
 62
     7
100
AcDbCircle
 10
585.3871276805
 20
435.2191450749
 30
0.0
 40
0.1000000000000227
100
AcDbArc
 50
180.0
 51
270.0
  0
ARC
  5
242
330
1F
100
AcDbEntity
  8
0
  6
CONTINUOUS
 62
     7
100
AcDbCircle
 10
659.6871276805
 20
435.2191450749
 30
0.0
 40
0.1000000000000227
100
AcDbArc
 50
270.0
 51
0.0
  0
LINE
  5
243
330
1F
100
AcDbEntity
  8
0
  6
CONTINUOUS
 62
     7
100
AcDbLine
 10
585.287126697
 20
437.1191450749
 30
0.0
 11
585.287126697
 21
435.2191450429
 31
0.0
  0
LINE
  5
244
330
1F
100
AcDbEntity
  8
0
  6
CONTINUOUS
 62
     7
100
AcDbLine
 10
659.787128664
 20
435.2191450429
 30
0.0
 11
659.787128664
 21
437.1191450749
 31
0.0
  0
LINE
  5
245
330
1F
100
AcDbEntity
  8
0
  6
CONTINUOUS
 62
     7
100
AcDbLine
 10
528.1224092314
 20
437.1191450749
 30
0.0
 11
528.1224092314
 21
435.2191450429
 31
0.0
  0
LINE
  5
246
330
1F
100
AcDbEntity
  8
0
  6
CONTINUOUS
 62
     7
100
AcDbLine
 10
531.6224088738
 20
435.2191450429
 30
0.0
 11
531.6224088738
 21
437.1191450749
 31
0.0
  0
ARC
  5
247
330
1F
100
AcDbEntity
  8
0
  6
CONTINUOUS
 62
     7
100
AcDbCircle
 10
531.5224094756
 20
435.2191450749
 30
0.0
 40
0.1000000000000227
100
AcDbArc
 50
270.0
 51
0.0
  0
ARC
  5
248
330
1F
100
AcDbEntity
  8
0
  6
CONTINUOUS
 62
     7
100
AcDbCircle
 10
528.2224094756
 20
435.2191450749
 30
0.0
 40
0.1000000000000227
100
AcDbArc
 50
180.0
 51
270.0
  0
ARC
  5
249
330
1F
100
AcDbEntity
  8
0
  6
CONTINUOUS
 62
     7
100
AcDbCircle
 10
716.8518458854
 20
435.2191450749
 30
0.0
 40
0.1000000000000227
100
AcDbArc
 50
270.0
 51
0.0
  0
ARC
  5
24A
330
1F
100
AcDbEntity
  8
0
  6
CONTINUOUS
 62
     7
100
AcDbCircle
 10
713.5518458854
 20
435.2191450749
 30
0.0
 40
0.1000000000000227
100
AcDbArc
 50
180.0
 51
270.0
  0
LINE
  5
24B
330
1F
100
AcDbEntity
  8
0
  6
CONTINUOUS
 62
     7
100
AcDbLine
 10
713.4518464872
 20
437.1191450749
 30
0.0
 11
713.4518464872
 21
435.2191450429
 31
0.0
  0
LINE
  5
24C
330
1F
100
AcDbEntity
  8
0
  6
CONTINUOUS
 62
     7
100
AcDbLine
 10
716.9518461296
 20
435.2191450429
 30
0.0
 11
716.9518461296
 21
437.1191450749
 31
0.0
  0
ARC
  5
24D
330
1F
100
AcDbEntity
  8
0
  6
CONTINUOUS
 62
     7
100
AcDbCircle
 10
573.9825462163
 20
435.2191450749
 30
0.0
 40
0.1000000000000227
100
AcDbArc
 50
270.0
 51
0.0
  0
ARC
  5
24E
330
1F
100
AcDbEntity
  8
0
  6
CONTINUOUS
 62
     7
100
AcDbCircle
 10
671.0917091447
 20
435.2191450749
 30
0.0
 40
0.1000000000000227
100
AcDbArc
 50
180.0
 51
270.0
  0
LINE
  5
24F
330
1F
100
AcDbEntity
  8
0
  6
CONTINUOUS
 62
     7
100
AcDbLine
 10
574.0825449893
 20
435.2191450429
 30
0.0
 11
574.0825449893
 21
437.1191450749
 31
0.0
  0
LINE
  5
250
330
1F
100
AcDbEntity
  8
0
  6
CONTINUOUS
 62
     7
100
AcDbLine
 10
670.9917103717
 20
437.1191450749
 30
0.0
 11
670.9917103717
 21
435.2191450429
 31
0.0
  0
ARC
  5
251
330
1F
100
AcDbEntity
  8
0
  6
CONTINUOUS
 62
     7
100
AcDbCircle
 10
647.3871276805
 20
435.2191450749
 30
0.0
 40
0.1000000000000454
100
AcDbArc
 50
214.3582527896
 51
270.0
  0
ARC
  5
252
330
1F
100
AcDbEntity
  8
0
  6
CONTINUOUS
 62
     7
100
AcDbCircle
 10
597.6871276805
 20
435.2191450749
 30
0.0
 40
0.1000000000000227
100
AcDbArc
 50
270.0
 51
325.6417472093
  0
ARC
  5
253
330
1F
100
AcDbEntity
  8
0
  6
CONTINUOUS
 62
     7
100
AcDbCircle
 10
543.8108667437
 20
435.2191450749
 30
0.0
 40
0.1000000000000227
100
AcDbArc
 50
180.0
 51
270.0
  0
LINE
  5
254
330
1F
100
AcDbEntity
  8
0
  6
CONTINUOUS
 62
     7
100
AcDbLine
 10
543.7108641336
 20
437.1191450749
 30
0.0
 11
543.7108641336
 21
435.2191450429
 31
0.0
  0
ARC
  5
255
330
1F
100
AcDbEntity
  8
0
  6
CONTINUOUS
 62
     7
100
AcDbCircle
 10
701.2633886173
 20
435.2191450749
 30
0.0
 40
0.1000000000000227
100
AcDbArc
 50
270.0
 51
0.0
  0
LINE
  5
256
330
1F
100
AcDbEntity
  8
0
  6
CONTINUOUS
 62
     7
100
AcDbLine
 10
701.3633912274
 20
435.2191450429
 30
0.0
 11
701.3633912274
 21
437.1191450749
 31
0.0
  0
ARC
  5
257
330
1F
100
AcDbEntity
  8
0
  6
CONTINUOUS
 62
     7
100
AcDbCircle
 10
562.6993240118
 20
435.2191450749
 30
0.0
 40
0.1000000000000227
100
AcDbArc
 50
270.0
 51
0.0
  0
ARC
  5
258
330
1F
100
AcDbEntity
  8
0
  6
CONTINUOUS
 62
     7
100
AcDbCircle
 10
682.3749313492
 20
435.2191450749
 30
0.0
 40
0.1000000000000227
100
AcDbArc
 50
180.0
 51
270.0
  0
LINE
  5
259
330
1F
100
AcDbEntity
  8
0
  6
CONTINUOUS
 62
     7
100
AcDbLine
 10
562.7993224034
 20
435.2191450429
 30
0.0
 11
562.7993224034
 21
437.1191450749
 31
0.0
  0
LINE
  5
25A
330
1F
100
AcDbEntity
  8
0
  6
CONTINUOUS
 62
     7
100
AcDbLine
 10
682.2749329576
 20
437.1191450749
 30
0.0
 11
682.2749329576
 21
435.2191450429
 31
0.0
  0
LINE
  5
25B
330
1F
100
AcDbEntity
  8
0
  6
CONTINUOUS
 62
     7
100
AcDbLine
 10
500.0464012692
 20
437.1191450749
 30
0.0
 11
500.0464012692
 21
435.2191450429
 31
0.0
  0
LINE
  5
25C
330
1F
100
AcDbEntity
  8
0
  6
CONTINUOUS
 62
     7
100
AcDbLine
 10
503.5464009115
 20
435.2191450429
 30
0.0
 11
503.5464009115
 21
437.1191450749
 31
0.0
  0
ARC
  5
25D
330
1F
100
AcDbEntity
  8
0
  6
CONTINUOUS
 62
     7
100
AcDbCircle
 10
503.4463993944
 20
435.2191450749
 30
0.0
 40
0.1000000000000227
100
AcDbArc
 50
270.0
 51
0.0
  0
ARC
  5
25E
330
1F
100
AcDbEntity
  8
0
  6
CONTINUOUS
 62
     7
100
AcDbCircle
 10
500.1463993944
 20
435.2191450749
 30
0.0
 40
0.1000000000000227
100
AcDbArc
 50
180.0
 51
270.0
  0
ARC
  5
25F
330
1F
100
AcDbEntity
  8
0
  6
CONTINUOUS
 62
     7
100
AcDbCircle
 10
744.9278559666
 20
435.2191450749
 30
0.0
 40
0.1000000000000227
100
AcDbArc
 50
270.0
 51
0.0
  0
ARC
  5
260
330
1F
100
AcDbEntity
  8
0
  6
CONTINUOUS
 62
     7
100
AcDbCircle
 10
741.6278559666
 20
435.2191450749
 30
0.0
 40
0.1000000000001364
100
AcDbArc
 50
180.0
 51
270.0
  0
LINE
  5
261
330
1F
100
AcDbEntity
  8
0
  6
CONTINUOUS
 62
     7
100
AcDbLine
 10
741.5278544495
 20
437.1191450749
 30
0.0
 11
741.5278544495
 21
435.2191450429
 31
0.0
  0
LINE
  5
262
330
1F
100
AcDbEntity
  8
0
  6
CONTINUOUS
 62
     7
100
AcDbLine
 10
745.0278540918
 20
435.2191450429
 30
0.0
 11
745.0278540918
 21
437.1191450749
 31
0.0
  0
ARC
  5
263
330
1F
100
AcDbEntity
  8
0
  6
CONTINUOUS
 62
     7
100
AcDbCircle
 10
606.6871276805
 20
435.2191450749
 30
0.0
 40
0.1000000000000227
100
AcDbArc
 50
270.0
 51
0.0
  0
ARC
  5
264
330
1F
100
AcDbEntity
  8
0
  6
CONTINUOUS
 62
     7
100
AcDbCircle
 10
638.3871276805
 20
435.2191450749
 30
0.0
 40
0.1000000000000227
100
AcDbArc
 50
180.0
 51
270.0
  0
LINE
  5
265
330
1F
100
AcDbEntity
  8
0
  6
CONTINUOUS
 62
     7
100
AcDbLine
 10
606.7871274272
 20
435.2191450429
 30
0.0
 11
606.7871274272
 21
437.1191450749
 31
0.0
  0
LINE
  5
266
330
1F
100
AcDbEntity
  8
0
  6
CONTINUOUS
 62
     7
100
AcDbLine
 10
638.2871279338
 20
437.1191450749
 30
0.0
 11
638.2871279338
 21
435.2191450429
 31
0.0
  0
ARC
  5
267
330
1F
100
AcDbEntity
  8
0
  6
CONTINUOUS
 62
     7
100
AcDbCircle
 10
520.8330642676
 20
435.2191450749
 30
0.0
 40
0.1000000000000227
100
AcDbArc
 50
270.0
 51
0.0
  0
ARC
  5
268
330
1F
100
AcDbEntity
  8
0
  6
CONTINUOUS
 62
     7
100
AcDbCircle
 10
517.5330642676
 20
435.2191450749
 30
0.0
 40
0.1000000000000227
100
AcDbArc
 50
180.0
 51
270.0
  0
LINE
  5
269
330
1F
100
AcDbEntity
  8
0
  6
CONTINUOUS
 62
     7
100
AcDbLine
 10
517.433061249
 20
437.1191450749
 30
0.0
 11
517.433061249
 21
435.2191450429
 31
0.0
  0
LINE
  5
26A
330
1F
100
AcDbEntity
  8
0
  6
CONTINUOUS
 62
     7
100
AcDbLine
 10
520.9330608914
 20
435.2191450429
 30
0.0
 11
520.9330608914
 21
437.1191450749
 31
0.0
  0
ARC
  5
26B
330
1F
100
AcDbEntity
  8
0
  6
CONTINUOUS
 62
     7
100
AcDbCircle
 10
727.5411910934
 20
435.2191450749
 30
0.0
 40
0.1000000000000227
100
AcDbArc
 50
270.0
 51
0.0
  0
ARC
  5
26C
330
1F
100
AcDbEntity
  8
0
  6
CONTINUOUS
 62
     7
100
AcDbCircle
 10
724.2411910934
 20
435.2191450749
 30
0.0
 40
0.1000000000000227
100
AcDbArc
 50
180.0
 51
270.0
  0
LINE
  5
26D
330
1F
100
AcDbEntity
  8
0
  6
CONTINUOUS
 62
     7
100
AcDbLine
 10
724.1411944697
 20
437.1191450749
 30
0.0
 11
724.1411944697
 21
435.2191450429
 31
0.0
  0
LINE
  5
26E
330
1F
100
AcDbEntity
  8
0
  6
CONTINUOUS
 62
     7
100
AcDbLine
 10
727.641194112
 20
435.2191450429
 30
0.0
 11
727.641194112
 21
437.1191450749
 31
0.0
  0
ARC
  5
26F
330
1F
100
AcDbEntity
  8
0
  6
CONTINUOUS
 62
     7
100
AcDbCircle
 10
574.9877812799
 20
435.2191450749
 30
0.0
 40
0.1000000000000227
100
AcDbArc
 50
180.0
 51
270.0
  0
ARC
  5
270
330
1F
100
AcDbEntity
  8
0
  6
CONTINUOUS
 62
     7
100
AcDbCircle
 10
670.0864740811
 20
435.2191450749
 30
0.0
 40
0.1000000000000227
100
AcDbArc
 50
270.0
 51
0.0
  0
LINE
  5
271
330
1F
100
AcDbEntity
  8
0
  6
CONTINUOUS
 62
     7
100
AcDbLine
 10
574.8877813885
 20
437.1191450749
 30
0.0
 11
574.8877813885
 21
435.2191450429
 31
0.0
  0
LINE
  5
272
330
1F
100
AcDbEntity
  8
0
  6
CONTINUOUS
 62
     7
100
AcDbLine
 10
670.1864739725
 20
435.2191450429
 30
0.0
 11
670.1864739725
 21
437.1191450749
 31
0.0
  0
LINE
  5
273
330
1F
100
AcDbEntity
  8
0
  6
CONTINUOUS
 62
     7
100
AcDbLine
 10
538.3197283218
 20
435.2191450429
 30
0.0
 11
538.3197283218
 21
437.1191450749
 31
0.0
  0
ARC
  5
274
330
1F
100
AcDbEntity
  8
0
  6
CONTINUOUS
 62
     7
100
AcDbCircle
 10
538.2197291408
 20
435.2191450749
 30
0.0
 40
0.1000000000000227
100
AcDbArc
 50
270.0
 51
0.0
  0
LINE
  5
275
330
1F
100
AcDbEntity
  8
0
  6
CONTINUOUS
 62
     7
100
AcDbLine
 10
706.7545270393
 20
437.1191450749
 30
0.0
 11
706.7545270393
 21
435.2191450429
 31
0.0
  0
ARC
  5
276
330
1F
100
AcDbEntity
  8
0
  6
CONTINUOUS
 62
     7
100
AcDbCircle
 10
706.8545262202
 20
435.2191450749
 30
0.0
 40
0.1000000000000227
100
AcDbArc
 50
180.0
 51
270.0
  0
ARC
  5
277
330
1F
100
AcDbEntity
  8
0
  6
CONTINUOUS
 62
     7
100
AcDbCircle
 10
555.606394014
 20
435.2191450749
 30
0.0
 40
0.1000000000000227
100
AcDbArc
 50
270.0
 51
0.0
  0
ARC
  5
278
330
1F
100
AcDbEntity
  8
0
  6
CONTINUOUS
 62
     7
100
AcDbCircle
 10
552.306394014
 20
435.2191450749
 30
0.0
 40
0.1000000000000227
100
AcDbArc
 50
180.0
 51
270.0
  0
ARC
  5
279
330
1F
100
AcDbEntity
  8
0
  6
CONTINUOUS
 62
     7
100
AcDbCircle
 10
692.767861347
 20
435.2191450749
 30
0.0
 40
0.1000000000000227
100
AcDbArc
 50
270.0
 51
0.0
  0
ARC
  5
27A
330
1F
100
AcDbEntity
  8
0
  6
CONTINUOUS
 62
     7
100
AcDbCircle
 10
689.467861347
 20
435.2191450749
 30
0.0
 40
0.1000000000000227
100
AcDbArc
 50
180.0
 51
270.0
  0
LINE
  5
27B
330
1F
100
AcDbEntity
  8
0
  6
CONTINUOUS
 62
     7
100
AcDbLine
 10
555.7063957522
 20
435.2191450429
 30
0.0
 11
555.7063957522
 21
437.1191450749
 31
0.0
  0
LINE
  5
27C
330
1F
100
AcDbEntity
  8
0
  6
CONTINUOUS
 62
     7
100
AcDbLine
 10
552.2063961098
 20
437.1191450749
 30
0.0
 11
552.2063961098
 21
435.2191450429
 31
0.0
  0
LINE
  5
27D
330
1F
100
AcDbEntity
  8
0
  6
CONTINUOUS
 62
     7
100
AcDbLine
 10
692.8678592512
 20
435.2191450429
 30
0.0
 11
692.8678592512
 21
437.1191450749
 31
0.0
  0
LINE
  5
27E
330
1F
100
AcDbEntity
  8
0
  6
CONTINUOUS
 62
     7
100
AcDbLine
 10
689.3678596089
 20
437.1191450749
 30
0.0
 11
689.3678596089
 21
435.2191450429
 31
0.0
  0
ARC
  5
27F
330
1F
100
AcDbEntity
  8
0
  6
CONTINUOUS
 62
     7
100
AcDbCircle
 10
638.0371276805
 20
453.6191450749
 30
0.0
 40
1.500000000000114
100
AcDbArc
 50
270.0
 51
0.0
  0
ARC
  5
280
330
1F
100
AcDbEntity
  8
0
  6
CONTINUOUS
 62
     7
100
AcDbCircle
 10
607.0371276805
 20
453.6191450749
 30
0.0
 40
1.5
100
AcDbArc
 50
180.0
 51
270.0
  0
ARC
  5
281
330
1F
100
AcDbEntity
  8
0
  6
CONTINUOUS
 62
     7
100
AcDbCircle
 10
606.5371276805
 20
459.1191450749
 30
0.0
 40
1.0
100
AcDbArc
 50
90.0
 51
180.0
  0
ARC
  5
282
330
1F
100
AcDbEntity
  8
0
  6
CONTINUOUS
 62
     7
100
AcDbCircle
 10
638.5371276805
 20
459.1191450749
 30
0.0
 40
1.0
100
AcDbArc
 50
0.0
 51
90.0
  0
ARC
  5
283
330
1F
100
AcDbEntity
  8
0
  6
CONTINUOUS
 62
     7
100
AcDbCircle
 10
632.6871276805
 20
435.2191450749
 30
0.0
 40
0.1000000000000227
100
AcDbArc
 50
270.0
 51
0.0
  0
ARC
  5
284
330
1F
100
AcDbEntity
  8
0
  6
CONTINUOUS
 62
     7
100
AcDbCircle
 10
629.3871276805
 20
435.2191450749
 30
0.0
 40
0.1000000000000227
100
AcDbArc
 50
180.0
 51
270.0
  0
ARC
  5
285
330
1F
100
AcDbEntity
  8
0
  6
CONTINUOUS
 62
     7
100
AcDbCircle
 10
615.6871276805
 20
435.2191450749
 30
0.0
 40
0.1000000000000227
100
AcDbArc
 50
270.0
 51
0.0
  0
ARC
  5
286
330
1F
100
AcDbEntity
  8
0
  6
CONTINUOUS
 62
     7
100
AcDbCircle
 10
612.3871276805
 20
435.2191450749
 30
0.0
 40
0.1000000000000227
100
AcDbArc
 50
180.0
 51
270.0
  0
LINE
  5
287
330
1F
100
AcDbEntity
  8
0
  6
CONTINUOUS
 62
     7
100
AcDbLine
 10
615.7871275054
 20
435.2191450429
 30
0.0
 11
615.7871275054
 21
437.1191450749
 31
0.0
  0
LINE
  5
288
330
1F
100
AcDbEntity
  8
0
  6
CONTINUOUS
 62
     7
100
AcDbLine
 10
612.2871273974
 20
437.1191450749
 30
0.0
 11
612.2871273974
 21
435.2191450429
 31
0.0
  0
LINE
  5
289
330
1F
100
AcDbEntity
  8
0
  6
CONTINUOUS
 62
     7
100
AcDbLine
 10
632.7871279636
 20
435.2191450429
 30
0.0
 11
632.7871279636
 21
437.1191450749
 31
0.0
  0
LINE
  5
28A
330
1F
100
AcDbEntity
  8
0
  6
CONTINUOUS
 62
     7
100
AcDbLine
 10
629.2871278556
 20
437.1191450749
 30
0.0
 11
629.2871278556
 21
435.2191450429
 31
0.0
  0
LINE
  5
28B
330
1F
100
AcDbEntity
  8
0
  6
CONTINUOUS
 62
     7
100
AcDbLine
 10
605.5371267566
 20
459.1191449557
 30
0.0
 11
605.5371267566
 21
453.6191449855
 31
0.0
  0
LINE
  5
28C
330
1F
100
AcDbEntity
  8
0
  6
CONTINUOUS
 62
     7
100
AcDbLine
 10
639.5371286044
 20
453.6191449855
 30
0.0
 11
639.5371286044
 21
459.1191449557
 31
0.0
  0
ARC
  5
28D
330
1F
100
AcDbEntity
  8
0
  6
CONTINUOUS
 62
     7
100
AcDbCircle
 10
637.0371276805
 20
471.1191450749
 30
0.0
 40
1.0
100
AcDbArc
 50
0.0
 51
90.0
  0
ARC
  5
28E
330
1F
100
AcDbEntity
  8
0
  6
CONTINUOUS
 62
     7
100
AcDbCircle
 10
608.0371276805
 20
471.1191450749
 30
0.0
 40
1.0
100
AcDbArc
 50
90.0
 51
180.0
  0
LINE
  5
28F
330
1F
100
AcDbEntity
  8
0
  6
CONTINUOUS
 62
     7
100
AcDbLine
 10
638.0371274272
 20
460.1191451196
 30
0.0
 11
638.0371274272
 21
471.1191469227
 31
0.0
  0
LINE
  5
290
330
1F
100
AcDbEntity
  8
0
  6
CONTINUOUS
 62
     7
100
AcDbLine
 10
607.0371279338
 20
471.1191469227
 30
0.0
 11
607.0371279338
 21
460.1191451196
 31
0.0
  0
LINE
  5
291
330
1F
100
AcDbEntity
  8
0
  6
CONTINUOUS
 62
     7
100
AcDbLine
 10
606.5371269205
 20
452.1191447396
 30
0.0
 11
606.5371269205
 21
445.1191454549
 31
0.0
  0
LINE
  5
292
330
1F
100
AcDbEntity
  8
0
  6
CONTINUOUS
 62
     7
100
AcDbLine
 10
638.5371284405
 20
445.1191454549
 30
0.0
 11
638.5371284405
 21
452.1191447396
 31
0.0
  0
LINE
  5
293
330
1F
100
AcDbEntity
  8
0
  6
CONTINUOUS
 62
     7
100
AcDbLine
 10
633.8734356532
 20
472.1435346995
 30
0.0
 11
633.1840511257
 21
473.2456022297
 31
0.0
  0
SPLINE
  5
294
330
1F
100
AcDbEntity
  8
0
  6
CONTINUOUS
 62
     7
100
AcDbSpline
210
0.0
220
0.0
230
1.0
 70
     8
 71
     3
 72
     9
 73
     5
 74
     0
 42
0.000000001
 43
0.00000001
 40
0.0
 40
0.0
 40
0.0
 40
0.0
 40
0.2450406967328164
 40
1.0
 40
1.0
 40
1.0
 40
1.0
 10
611.9416849532947
 20
473.3178132568125
 30
0.0
 10
611.8707838238648
 20
473.2297645589288
 30
0.0
 10
611.5814395215705
 20
472.8704418053712
 30
0.0
 10
611.3742775791476
 20
472.4562231355546
 30
0.0
 10
611.2178787434325
 20
472.1435048971895
 30
0.0
  0
ARC
  5
295
330
1F
100
AcDbEntity
  8
0
  6
CONTINUOUS
 62
     7
100
AcDbCircle
 10
632.5371276805
 20
478.8691450749
 30
0.0
 40
2.0
100
AcDbArc
 50
308.7069637031
 51
0.0
  0
ARC
  5
296
330
1F
100
AcDbEntity
  8
0
  6
CONTINUOUS
 62
     7
100
AcDbCircle
 10
612.5371276805
 20
478.8691450749
 30
0.0
 40
2.0
100
AcDbArc
 50
180.0
 51
231.2930362969
  0
LINE
  5
297
330
1F
100
AcDbEntity
  8
0
  6
CONTINUOUS
 62
     7
100
AcDbLine
 10
634.5371277848
 20
478.869144002
 30
0.0
 11
634.5371277848
 21
493.1191468035
 31
0.0
  0
LINE
  5
298
330
1F
100
AcDbEntity
  8
0
  6
CONTINUOUS
 62
     7
100
AcDbLine
 10
610.5371275762
 20
493.1191468035
 30
0.0
 11
610.5371275762
 21
478.869144002
 31
0.0
  0
ARC
  5
299
330
1F
100
AcDbEntity
  8
0
  6
CONTINUOUS
 62
     7
100
AcDbCircle
 10
635.6638152049
 20
474.9673730256
 30
0.0
 40
2.99999999999991
100
AcDbArc
 50
128.7069637029
 51
214.8733439096
  0
ARC
  5
29A
330
1F
100
AcDbEntity
  8
0
  6
CONTINUOUS
 62
     7
100
AcDbCircle
 10
609.4104401561
 20
474.9673730256
 30
0.0
 40
2.999999999999981
100
AcDbArc
 50
325.1266560904
 51
51.2930362971
  0
LINE
  5
29B
330
1F
100
AcDbEntity
  8
0
  6
CONTINUOUS
 62
     7
100
AcDbLine
 10
611.0371276582
 20
493.6191440914
 30
0.0
 11
610.5371275762
 21
493.1191468035
 31
0.0
  0
LINE
  5
29C
330
1F
100
AcDbEntity
  8
0
  6
CONTINUOUS
 62
     7
100
AcDbLine
 10
634.5371277848
 20
493.1191468035
 30
0.0
 11
634.0371277029
 21
493.6191440914
 31
0.0
  0
ARC
  5
29D
330
1F
100
AcDbEntity
  8
0
  6
CONTINUOUS
 62
     7
100
AcDbCircle
 10
549.8871276805
 20
435.2191450749
 30
0.0
 40
0.1000000000000227
100
AcDbArc
 50
180.0
 51
270.0
  0
ARC
  5
29E
330
1F
100
AcDbEntity
  8
0
  6
CONTINUOUS
 62
     7
100
AcDbCircle
 10
607.1871276805
 20
435.2191450749
 30
0.0
 40
0.1000000000000227
100
AcDbArc
 50
270.0
 51
0.0
  0
ARC
  5
29F
330
1F
100
AcDbEntity
  8
0
  6
CONTINUOUS
 62
     7
100
AcDbCircle
 10
637.8871276805
 20
435.2191450749
 30
0.0
 40
0.1000000000000227
100
AcDbArc
 50
180.0
 51
270.0
  0
ARC
  5
2A0
330
1F
100
AcDbEntity
  8
0
  6
CONTINUOUS
 62
     7
100
AcDbCircle
 10
695.1871276805
 20
435.2191450749
 30
0.0
 40
0.1000000000000227
100
AcDbArc
 50
270.0
 51
0.0
  0
LINE
  5
2A1
330
1F
100
AcDbEntity
  8
0
  6
CONTINUOUS
 62
     7
100
AcDbLine
 10
495.7871204087
 20
437.1191450749
 30
0.0
 11
495.7871204087
 21
435.2191450429
 31
0.0
  0
LINE
  5
2A2
330
1F
100
AcDbEntity
  8
0
  6
CONTINUOUS
 62
     7
100
AcDbLine
 10
499.2871275017
 20
435.2191450429
 30
0.0
 11
499.2871275017
 21
437.1191450749
 31
0.0
  0
ARC
  5
2A3
330
1F
100
AcDbEntity
  8
0
  6
CONTINUOUS
 62
     7
100
AcDbCircle
 10
499.1871276805
 20
435.2191450749
 30
0.0
 40
0.1000000000000227
100
AcDbArc
 50
270.0
 51
0.0
  0
ARC
  5
2A4
330
1F
100
AcDbEntity
  8
0
  6
CONTINUOUS
 62
     7
100
AcDbCircle
 10
495.8871276805
 20
435.2191450749
 30
0.0
 40
0.1000000000000227
100
AcDbArc
 50
180.0
 51
270.0
  0
LINE
  5
2A5
330
1F
100
AcDbEntity
  8
0
  6
CONTINUOUS
 62
     7
100
AcDbLine
 10
517.2871267268
 20
435.2191450429
 30
0.0
 11
517.2871267268
 21
437.1191450749
 31
0.0
  0
ARC
  5
2A6
330
1F
100
AcDbEntity
  8
0
  6
CONTINUOUS
 62
     7
100
AcDbCircle
 10
517.1871276805
 20
435.2191450749
 30
0.0
 40
0.1000000000000227
100
AcDbArc
 50
270.0
 51
0.0
  0
LINE
  5
2A7
330
1F
100
AcDbEntity
  8
0
  6
CONTINUOUS
 62
     7
100
AcDbLine
 10
531.7871263096
 20
437.1191450749
 30
0.0
 11
531.7871263096
 21
435.2191450429
 31
0.0
  0
ARC
  5
2A8
330
1F
100
AcDbEntity
  8
0
  6
CONTINUOUS
 62
     7
100
AcDbCircle
 10
531.8871276805
 20
435.2191450749
 30
0.0
 40
0.1000000000000227
100
AcDbArc
 50
180.0
 51
270.0
  0
LINE
  5
2A9
330
1F
100
AcDbEntity
  8
0
  6
CONTINUOUS
 62
     7
100
AcDbLine
 10
549.7871255347
 20
437.1191450749
 30
0.0
 11
549.7871255347
 21
435.2191450429
 31
0.0
  0
LINE
  5
2AA
330
1F
100
AcDbEntity
  8
0
  6
CONTINUOUS
 62
     7
100
AcDbLine
 10
607.2871275091
 20
435.2191450429
 30
0.0
 11
607.2871275091
 21
437.1191450749
 31
0.0
  0
LINE
  5
2AB
330
1F
100
AcDbEntity
  8
0
  6
CONTINUOUS
 62
     7
100
AcDbLine
 10
637.7871278519
 20
437.1191450749
 30
0.0
 11
637.7871278519
 21
435.2191450429
 31
0.0
  0
LINE
  5
2AC
330
1F
100
AcDbEntity
  8
0
  6
CONTINUOUS
 62
     7
100
AcDbLine
 10
695.2871298263
 20
435.2191450429
 30
0.0
 11
695.2871298263
 21
437.1191450749
 31
0.0
  0
ARC
  5
2AD
330
1F
100
AcDbEntity
  8
0
  6
CONTINUOUS
 62
     7
100
AcDbCircle
 10
713.1871276805
 20
435.2191450749
 30
0.0
 40
0.1000000000000227
100
AcDbArc
 50
270.0
 51
0.0
  0
LINE
  5
2AE
330
1F
100
AcDbEntity
  8
0
  6
CONTINUOUS
 62
     7
100
AcDbLine
 10
713.2871290514
 20
435.2191450429
 30
0.0
 11
713.2871290514
 21
437.1191450749
 31
0.0
  0
ARC
  5
2AF
330
1F
100
AcDbEntity
  8
0
  6
CONTINUOUS
 62
     7
100
AcDbCircle
 10
727.8871276805
 20
435.2191450749
 30
0.0
 40
0.1000000000000227
100
AcDbArc
 50
180.0
 51
270.0
  0
LINE
  5
2B0
330
1F
100
AcDbEntity
  8
0
  6
CONTINUOUS
 62
     7
100
AcDbLine
 10
727.7871286342
 20
437.1191450749
 30
0.0
 11
727.7871286342
 21
435.2191450429
 31
0.0
  0
LINE
  5
2B1
330
1F
100
AcDbEntity
  8
0
  6
CONTINUOUS
 62
     7
100
AcDbLine
 10
745.7871278593
 20
437.1191450749
 30
0.0
 11
745.7871278593
 21
435.2191450429
 31
0.0
  0
LINE
  5
2B2
330
1F
100
AcDbEntity
  8
0
  6
CONTINUOUS
 62
     7
100
AcDbLine
 10
749.2871349523
 20
435.2191450429
 30
0.0
 11
749.2871349523
 21
437.1191450749
 31
0.0
  0
ARC
  5
2B3
330
1F
100
AcDbEntity
  8
0
  6
CONTINUOUS
 62
     7
100
AcDbCircle
 10
749.1871276805
 20
435.2191450749
 30
0.0
 40
0.1000000000000227
100
AcDbArc
 50
270.0
 51
0.0
  0
ARC
  5
2B4
330
1F
100
AcDbEntity
  8
0
  6
CONTINUOUS
 62
     7
100
AcDbCircle
 10
745.8871276805
 20
435.2191450749
 30
0.0
 40
0.1000000000000227
100
AcDbArc
 50
180.0
 51
270.0
  0
LINE
  5
2B5
330
1F
100
AcDbEntity
  8
0
  6
CONTINUOUS
 62
     7
100
AcDbLine
 10
773.0371272037
 20
445.1191454549
 30
0.0
 11
472.0371281573
 21
445.1191454549
 31
0.0
  0
LINE
  5
2B6
330
1F
100
AcDbEntity
  8
0
  6
CONTINUOUS
 62
     7
100
AcDbLine
 10
472.0371281573
 20
437.1191450749
 30
0.0
 11
773.0371272037
 21
437.1191450749
 31
0.0
  0
LINE
  5
2B7
330
1F
100
AcDbEntity
  8
0
  6
CONTINUOUS
 62
     7
100
AcDbLine
 10
624.1871274387
 20
435.1191449799
 30
0.0
 11
620.8871276894
 21
435.1191449799
 31
0.0
  0
LINE
  5
2B8
330
1F
100
AcDbEntity
  8
0
  6
CONTINUOUS
 62
     7
100
AcDbLine
 10
591.834747217
 20
435.1191449799
 30
0.0
 11
588.5347453723
 21
435.1191449799
 31
0.0
  0
LINE
  5
2B9
330
1F
100
AcDbEntity
  8
0
  6
CONTINUOUS
 62
     7
100
AcDbLine
 10
656.5395062635
 20
435.1191449799
 30
0.0
 11
653.239508144
 21
435.1191449799
 31
0.0
  0
LINE
  5
2BA
330
1F
100
AcDbEntity
  8
0
  6
CONTINUOUS
 62
     7
100
AcDbLine
 10
561.6871258089
 20
435.1191449799
 30
0.0
 11
558.3871295521
 21
435.1191449799
 31
0.0
  0
LINE
  5
2BB
330
1F
100
AcDbEntity
  8
0
  6
CONTINUOUS
 62
     7
100
AcDbLine
 10
686.6871258089
 20
435.1191449799
 30
0.0
 11
683.3871258268
 21
435.1191449799
 31
0.0
  0
LINE
  5
2BC
330
1F
100
AcDbEntity
  8
0
  6
CONTINUOUS
 62
     7
100
AcDbLine
 10
596.4934890935
 20
435.1191449799
 30
0.0
 11
593.1934891114
 21
435.1191449799
 31
0.0
  0
LINE
  5
2BD
330
1F
100
AcDbEntity
  8
0
  6
CONTINUOUS
 62
     7
100
AcDbLine
 10
651.880764387
 20
435.1191449799
 30
0.0
 11
648.5807662675
 21
435.1191449799
 31
0.0
  0
LINE
  5
2BE
330
1F
100
AcDbEntity
  8
0
  6
CONTINUOUS
 62
     7
100
AcDbLine
 10
570.6871291468
 20
435.1191449799
 30
0.0
 11
567.3871291647
 21
435.1191449799
 31
0.0
  0
LINE
  5
2BF
330
1F
100
AcDbEntity
  8
0
  6
CONTINUOUS
 62
     7
100
AcDbLine
 10
677.6871261963
 20
435.1191449799
 30
0.0
 11
674.3871262142
 21
435.1191449799
 31
0.0
  0
LINE
  5
2C0
330
1F
100
AcDbEntity
  8
0
  6
CONTINUOUS
 62
     7
100
AcDbLine
 10
535.7987796733
 20
435.1191449799
 30
0.0
 11
532.4987834165
 21
435.1191449799
 31
0.0
  0
LINE
  5
2C1
330
1F
100
AcDbEntity
  8
0
  6
CONTINUOUS
 62
     7
100
AcDbLine
 10
712.5754719445
 20
435.1191449799
 30
0.0
 11
709.2754756877
 21
435.1191449799
 31
0.0
  0
LINE
  5
2C2
330
1F
100
AcDbEntity
  8
0
  6
CONTINUOUS
 62
     7
100
AcDbLine
 10
601.1522328326
 20
435.1191449799
 30
0.0
 11
597.8522328505
 21
435.1191449799
 31
0.0
  0
LINE
  5
2C3
330
1F
100
AcDbEntity
  8
0
  6
CONTINUOUS
 62
     7
100
AcDbLine
 10
647.2220225105
 20
435.1191449799
 30
0.0
 11
643.9220225284
 21
435.1191449799
 31
0.0
  0
LINE
  5
2C4
330
1F
100
AcDbEntity
  8
0
  6
CONTINUOUS
 62
     7
100
AcDbLine
 10
579.6871287593
 20
435.1191449799
 30
0.0
 11
576.3871287772
 21
435.1191449799
 31
0.0
  0
LINE
  5
2C5
330
1F
100
AcDbEntity
  8
0
  6
CONTINUOUS
 62
     7
100
AcDbLine
 10
668.6871265838
 20
435.1191449799
 30
0.0
 11
665.3871266017
 21
435.1191449799
 31
0.0
  0
LINE
  5
2C6
330
1F
100
AcDbEntity
  8
0
  6
CONTINUOUS
 62
     7
100
AcDbLine
 10
548.5267033646
 20
435.1191449799
 30
0.0
 11
545.2266996572
 21
435.1191449799
 31
0.0
  0
LINE
  5
2C7
330
1F
100
AcDbEntity
  8
0
  6
CONTINUOUS
 62
     7
100
AcDbLine
 10
699.8475557038
 20
435.1191449799
 30
0.0
 11
696.5475519964
 21
435.1191449799
 31
0.0
  0
SPLINE
  5
2C8
330
1F
100
AcDbEntity
  8
0
  6
CONTINUOUS
 62
     7
100
AcDbSpline
210
0.0
220
0.0
230
1.0
 70
    24
 71
     3
 72
    10
 73
     6
 74
     0
 42
0.000000001
 43
0.00000001
 40
0.0
 40
0.0
 40
0.0
 40
0.0
 40
0.2272973069334824
 40
0.499716776431907
 40
1.0
 40
1.0
 40
1.0
 40
1.0
 10
623.7387697756142
 20
435.1191449799214
 30
0.0
 10
623.8007503398554
 20
435.1191449799214
 30
0.0
 10
623.9370156048597
 20
435.1191449799214
 30
0.0
 10
624.1291294992216
 20
435.1191449799214
 30
0.0
 10
624.1643344008429
 20
435.1191449799214
 30
0.0
 10
624.1871276715622
 20
435.1191449799214
 30
0.0
  0
SPLINE
  5
2C9
330
1F
100
AcDbEntity
  8
0
  6
CONTINUOUS
 62
     7
100
AcDbSpline
210
0.0
220
0.0
230
1.0
 70
    24
 71
     3
 72
    12
 73
     8
 74
     0
 42
0.000000001
 43
0.00000001
 40
0.0
 40
0.0
 40
0.0
 40
0.0
 40
0.3688669373533545
 40
0.5694037845403774
 40
0.7702593845504404
 40
0.9707982895994703
 40
1.0
 40
1.0
 40
1.0
 40
1.0
 10
641.3403311589584
 20
435.1191449799214
 30
0.0
 10
641.134341047577
 20
435.1191449799214
 30
0.0
 10
640.8163631072387
 20
435.1191449799214
 30
0.0
 10
640.3904900321212
 20
435.1191449799214
 30
0.0
 10
640.085879310176
 20
435.1191449799214
 30
0.0
 10
639.8789442195387
 20
435.1191449799214
 30
0.0
 10
639.7934527142978
 20
435.1191449799214
 30
0.0
 10
639.7825861194954
 20
435.1191449799214
 30
0.0
  0
SPLINE
  5
2CA
330
1F
100
AcDbEntity
  8
0
  6
CONTINUOUS
 62
     7
100
AcDbSpline
210
0.0
220
0.0
230
1.0
 70
    24
 71
     3
 72
     9
 73
     5
 74
     0
 42
0.000000001
 43
0.00000001
 40
0.0
 40
0.0
 40
0.0
 40
0.0
 40
0.098195771775884
 40
0.9999999999999999
 40
0.9999999999999999
 40
0.9999999999999999
 40
0.9999999999999999
 10
642.4866458246336
 20
435.1191449799214
 30
0.0
 10
642.4937272635733
 20
435.1191449799214
 30
0.0
 10
642.5658427814994
 20
435.1191449799214
 30
0.0
 10
642.551522303748
 20
435.1191449799214
 30
0.0
 10
642.5386080363617
 20
435.1191449799214
 30
0.0
  0
SPLINE
  5
2CB
330
1F
100
AcDbEntity
  8
0
  6
CONTINUOUS
 62
     7
100
AcDbSpline
210
0.0
220
0.0
230
1.0
 70
    24
 71
     3
 72
     9
 73
     5
 74
     0
 42
0.000000001
 43
0.00000001
 40
0.0
 40
0.0
 40
0.0
 40
0.0
 40
0.3441642752658685
 40
1.0
 40
1.0
 40
1.0
 40
1.0
 10
642.1366454878673
 20
435.1191449799214
 30
0.0
 10
642.0597775558197
 20
435.1191449799214
 30
0.0
 10
641.8364309229124
 20
435.1191449799214
 30
0.0
 10
641.5368240497526
 20
435.1191449799214
 30
0.0
 10
641.3403311589584
 20
435.1191449799214
 30
0.0
  0
LINE
  5
2CC
330
1F
100
AcDbEntity
  8
0
  6
CONTINUOUS
 62
     7
100
AcDbLine
 10
642.6632804641
 20
435.2191450429
 30
0.0
 11
639.1632789591
 21
435.2191450429
 31
0.0
  0
SPLINE
  5
2CD
330
1F
100
AcDbEntity
  8
0
  6
CONTINUOUS
 62
     7
100
AcDbSpline
210
0.0
220
0.0
230
1.0
 70
    24
 71
     3
 72
    14
 73
    10
 74
     0
 42
0.000000001
 43
0.00000001
 40
0.0
 40
0.0
 40
0.0
 40
0.0
 40
0.0335767266139978
 40
0.1619976013612608
 40
0.2902143488040708
 40
0.4186347241747818
 40
0.6544756874801391
 40
0.8903158281779214
 40
1.0
 40
1.0
 40
1.0
 40
1.0
 10
602.9939735153541
 20
435.1191449799214
 30
0.0
 10
602.9718973979096
 20
435.1191449799214
 30
0.0
 10
602.8653867748073
 20
435.1191449799214
 30
0.0
 10
602.7247597591914
 20
435.1191449799214
 30
0.0
 10
602.5823520660863
 20
435.1191449799214
 30
0.0
 10
602.4903641308575
 20
435.1191449799214
 30
0.0
 10
602.53038398009
 20
435.1191449799214
 30
0.0
 10
602.750655580365
 20
435.1191449799214
 30
0.0
 10
602.9627933281519
 20
435.1191449799214
 30
0.0
 10
603.0301349082813
 20
435.1191449799214
 30
0.0
  0
SPLINE
  5
2CE
330
1F
100
AcDbEntity
  8
0
  6
CONTINUOUS
 62
     7
100
AcDbSpline
210
0.0
220
0.0
230
1.0
 70
    24
 71
     3
 72
    11
 73
     7
 74
     0
 42
0.000000001
 43
0.00000001
 40
0.0
 40
0.0
 40
0.0
 40
0.0
 40
0.0505305594723799
 40
0.2977245359541202
 40
0.5453123457121797
 40
1.0
 40
1.0
 40
1.0
 40
1.0
 10
603.2802397230491
 20
435.1191449799214
 30
0.0
 10
603.2986332282595
 20
435.1191449799214
 30
0.0
 10
603.4070072075012
 20
435.1191449799214
 30
0.0
 10
603.6408208541734
 20
435.1191449799214
 30
0.0
 10
604.0624619618325
 20
435.1191449799214
 30
0.0
 10
604.3814794768547
 20
435.1191449799214
 30
0.0
 10
604.5880270967111
 20
435.1191449799214
 30
0.0
  0
SPLINE
  5
2CF
330
1F
100
AcDbEntity
  8
0
  6
CONTINUOUS
 62
     7
100
AcDbSpline
210
0.0
220
0.0
230
1.0
 70
    24
 71
     3
 72
    13
 73
     9
 74
     0
 42
0.000000001
 43
0.00000001
 40
0.0
 40
0.0
 40
0.0
 40
0.0
 40
0.2873732065354093
 40
0.4436046211214359
 40
0.6000861330572772
 40
0.7563157566812817
 40
0.9127966601241653
 40
1.0
 40
1.0
 40
1.0
 40
1.0
 10
604.5880270967111
 20
435.1191449799214
 30
0.0
 10
604.7827656733443
 20
435.1191449799214
 30
0.0
 10
605.0833745350632
 20
435.1191449799214
 30
0.0
 10
605.4012560942449
 20
435.1191449799214
 30
0.0
 10
605.600877267783
 20
435.1191449799214
 30
0.0
 10
605.7342938894842
 20
435.1191449799214
 30
0.0
 10
605.8150956988488
 20
435.1191449799214
 30
0.0
 10
605.7938904801903
 20
435.1191449799214
 30
0.0
 10
605.7863021114692
 20
435.1191449799214
 30
0.0
  0
LINE
  5
2D0
330
1F
100
AcDbEntity
  8
0
  6
CONTINUOUS
 62
     7
100
AcDbLine
 10
558.3871295521
 20
435.1191449799
 30
0.0
 11
557.9546233484
 21
435.1191449799
 31
0.0
  0
LINE
  5
2D1
330
1F
100
AcDbEntity
  8
0
  6
CONTINUOUS
 62
     7
100
AcDbLine
 10
687.1196320126
 20
435.1191449799
 30
0.0
 11
686.6871258089
 21
435.1191449799
 31
0.0
  0
LINE
  5
2D2
330
1F
100
AcDbEntity
  8
0
  6
CONTINUOUS
 62
     7
100
AcDbLine
 10
515.9339522788
 20
435.1191449799
 30
0.0
 11
512.6339485714
 21
435.1191449799
 31
0.0
  0
LINE
  5
2D3
330
1F
100
AcDbEntity
  8
0
  6
CONTINUOUS
 62
     7
100
AcDbLine
 10
732.440299339
 20
435.1191449799
 30
0.0
 11
729.1403030822
 21
435.1191449799
 31
0.0
  0
LINE
  5
2D4
330
1F
100
AcDbEntity
  8
0
  6
CONTINUOUS
 62
     7
100
AcDbLine
 10
587.8621293077
 20
435.1191449799
 30
0.0
 11
585.3895125756
 21
435.1191449799
 31
0.0
  0
LINE
  5
2D5
330
1F
100
AcDbEntity
  8
0
  6
CONTINUOUS
 62
     7
100
AcDbLine
 10
587.8621293077
 20
435.1191449799
 30
0.0
 11
588.2860375414
 21
435.1191449799
 31
0.0
  0
SPLINE
  5
2D6
330
1F
100
AcDbEntity
  8
0
  6
CONTINUOUS
 62
     7
100
AcDbSpline
210
0.0
220
0.0
230
1.0
 70
    24
 71
     3
 72
    11
 73
     7
 74
     0
 42
0.000000001
 43
0.00000001
 40
0.0
 40
0.0
 40
0.0
 40
0.0
 40
0.4101896921214607
 40
0.6331938208813767
 40
0.8565509726063439
 40
1.0
 40
1.0
 40
1.0
 40
1.0
 10
658.8621279070005
 20
435.1191449799214
 30
0.0
 10
658.6712406829813
 20
435.1191449799214
 30
0.0
 10
658.3765755242617
 20
435.1191449799214
 30
0.0
 10
657.9417115360778
 20
435.1191449799214
 30
0.0
 10
657.6450755017605
 20
435.1191449799214
 30
0.0
 10
657.4745918821797
 20
435.1191449799214
 30
0.0
 10
657.4079198608026
 20
435.1191449799214
 30
0.0
  0
SPLINE
  5
2D7
330
1F
100
AcDbEntity
  8
0
  6
CONTINUOUS
 62
     7
100
AcDbSpline
210
0.0
220
0.0
230
1.0
 70
    24
 71
     3
 72
     9
 73
     5
 74
     0
 42
0.000000001
 43
0.00000001
 40
0.0
 40
0.0
 40
0.0
 40
0.0
 40
0.2947512135764659
 40
1.0
 40
1.0
 40
1.0
 40
1.0
 10
659.6360383400545
 20
435.1191449799214
 30
0.0
 10
659.6485779991021
 20
435.1191449799214
 30
0.0
 10
659.6911211964498
 20
435.1191449799214
 30
0.0
 10
659.6848990305718
 20
435.1191449799214
 30
0.0
 10
659.6805108556375
 20
435.1191449799214
 30
0.0
  0
LINE
  5
2D8
330
1F
100
AcDbEntity
  8
0
  6
CONTINUOUS
 62
     7
100
AcDbLine
 10
659.2860398659
 20
435.1191449799
 30
0.0
 11
658.862127907
 21
435.1191449799
 31
0.0
  0
LINE
  5
2D9
330
1F
100
AcDbEntity
  8
0
  6
CONTINUOUS
 62
     7
100
AcDbLine
 10
531.522407181
 20
435.1191449799
 30
0.0
 11
528.2224109242
 21
435.1191449799
 31
0.0
  0
LINE
  5
2DA
330
1F
100
AcDbEntity
  8
0
  6
CONTINUOUS
 62
     7
100
AcDbLine
 10
716.8518444368
 20
435.1191449799
 30
0.0
 11
713.55184818
 21
435.1191449799
 31
0.0
  0
SPLINE
  5
2DB
330
1F
100
AcDbEntity
  8
0
  6
CONTINUOUS
 62
     7
100
AcDbSpline
210
0.0
220
0.0
230
1.0
 70
    24
 71
     3
 72
    10
 73
     6
 74
     0
 42
0.000000001
 43
0.00000001
 40
0.0
 40
0.0
 40
0.0
 40
0.0
 40
0.2273003280509339
 40
0.4997152669616368
 40
1.0
 40
1.0
 40
1.0
 40
1.0
 10
623.7387697756142
 20
435.1191449799214
 30
0.0
 10
623.8007500404686
 20
435.1191449799214
 30
0.0
 10
623.93701242453
 20
435.1191449799214
 30
0.0
 10
624.1291324496864
 20
435.1191449799214
 30
0.0
 10
624.1643354645406
 20
435.1191449799214
 30
0.0
 10
624.1871276715622
 20
435.1191449799214
 30
0.0
  0
SPLINE
  5
2DC
330
1F
100
AcDbEntity
  8
0
  6
CONTINUOUS
 62
     7
100
AcDbSpline
210
0.0
220
0.0
230
1.0
 70
    24
 71
     3
 72
    18
 73
    14
 74
     0
 42
0.000000001
 43
0.00000001
 40
0.0
 40
0.0
 40
0.0
 40
0.0
 40
0.0721747677599026
 40
0.1463726744373175
 40
0.2204537451506879
 40
0.2946515764759058
 40
0.4309156505830531
 40
0.5671785842029335
 40
0.641259413035678
 40
0.715457402591337
 40
0.7895385560407109
 40
0.8637363873659288
 40
1.0
 40
1.0
 40
1.0
 40
1.0
 10
570.8156553873644
 20
435.1191449799214
 30
0.0
 10
570.7780178088711
 20
435.1191449799214
 30
0.0
 10
570.7016876287489
 20
435.1191449799214
 30
0.0
 10
570.672149324708
 20
435.1191449799214
 30
0.0
 10
570.704738188717
 20
435.1191449799214
 30
0.0
 10
570.8363682461746
 20
435.1191449799214
 30
0.0
 10
571.1374543274084
 20
435.1191449799214
 30
0.0
 10
571.5827453648876
 20
435.1191449799214
 30
0.0
 10
571.9952709468207
 20
435.1191449799214
 30
0.0
 10
572.3325733405989
 20
435.1191449799214
 30
0.0
 10
572.6688224140782
 20
435.1191449799214
 30
0.0
 10
573.0860919292041
 20
435.1191449799214
 30
0.0
 10
573.3368917803787
 20
435.1191449799214
 30
0.0
 10
573.4992725619898
 20
435.1191449799214
 30
0.0
  0
SPLINE
  5
2DD
330
1F
100
AcDbEntity
  8
0
  6
CONTINUOUS
 62
     7
100
AcDbSpline
210
0.0
220
0.0
230
1.0
 70
    24
 71
     3
 72
    15
 73
    11
 74
     0
 42
0.000000001
 43
0.00000001
 40
0.0
 40
0.0
 40
0.0
 40
0.0
 40
0.0965034253647946
 40
0.1922124879384745
 40
0.2876769537651433
 40
0.3834508011225555
 40
0.4800826875004768
 40
0.653749958254087
 40
0.8259666136135166
 40
1.0
 40
1.0
 40
1.0
 40
1.0
 10
573.4992724052128
 20
435.1191450749163
 30
0.0
 10
573.5281203281572
 20
435.1191450749163
 30
0.0
 10
573.5855787139094
 20
435.1191450749163
 30
0.0
 10
573.6627402535041
 20
435.1191450749163
 30
0.0
 10
573.7325508364179
 20
435.1191450749163
 30
0.0
 10
573.7944011006608
 20
435.1191450749163
 30
0.0
 10
573.8626127836507
 20
435.1191450749163
 30
0.0
 10
573.9266457902189
 20
435.1191450749163
 30
0.0
 10
573.973964033453
 20
435.1191450749163
 30
0.0
 10
573.9796754995399
 20
435.1191450749163
 30
0.0
 10
573.9825462162605
 20
435.1191450749163
 30
0.0
  0
SPLINE
  5
2DE
330
1F
100
AcDbEntity
  8
0
  6
CONTINUOUS
 62
     7
100
AcDbSpline
210
0.0
220
0.0
230
1.0
 70
    24
 71
     3
 72
    12
 73
     8
 74
     0
 42
0.000000001
 43
0.00000001
 40
0.0
 40
0.0
 40
0.0
 40
0.0
 40
0.3322884947540438
 40
0.5129401443460452
 40
0.6938772970311359
 40
0.8745295364671597
 40
1.0
 40
1.0
 40
1.0
 40
1.0
 10
673.9084338614568
 20
435.1191449799214
 30
0.0
 10
673.7460814907453
 20
435.1191449799214
 30
0.0
 10
673.4954647833283
 20
435.1191449799214
 30
0.0
 10
673.0780353041265
 20
435.1191449799214
 30
0.0
 10
672.7425921427632
 20
435.1191449799214
 30
0.0
 10
672.4374890753052
 20
435.1191449799214
 30
0.0
 10
672.2582193103726
 20
435.1191449799214
 30
0.0
 10
672.1847420403585
 20
435.1191449799214
 30
0.0
  0
SPLINE
  5
2DF
330
1F
100
AcDbEntity
  8
0
  6
CONTINUOUS
 62
     7
100
AcDbSpline
210
0.0
220
0.0
230
1.0
 70
    24
 71
     3
 72
     9
 73
     5
 74
     0
 42
0.000000001
 43
0.00000001
 40
0.0
 40
0.0
 40
0.0
 40
0.0
 40
0.1206467492450639
 40
1.0
 40
1.0
 40
1.0
 40
1.0
 10
674.2816446194277
 20
435.1191449799214
 30
0.0
 10
674.2735342066554
 20
435.1191449799214
 30
0.0
 10
674.2063097449691
 20
435.1191449799214
 30
0.0
 10
674.0478105999082
 20
435.1191449799214
 30
0.0
 10
673.9084338614568
 20
435.1191449799214
 30
0.0
  0
SPLINE
  5
2E0
330
1F
100
AcDbEntity
  8
0
  6
CONTINUOUS
 62
     7
100
AcDbSpline
210
0.0
220
0.0
230
1.0
 70
    24
 71
     3
 72
    11
 73
     7
 74
     0
 42
0.000000001
 43
0.00000001
 40
0.0
 40
0.0
 40
0.0
 40
0.0
 40
0.1435470484121679
 40
0.366524739535033
 40
0.5898577546646605
 40
0.9999999999999999
 40
0.9999999999999999
 40
0.9999999999999999
 40
0.9999999999999999
 10
595.4077681371793
 20
435.1191449799214
 30
0.0
 10
595.474488768627
 20
435.1191449799214
 30
0.0
 10
595.6448493739716
 20
435.1191449799214
 30
0.0
 10
595.9415267626612
 20
435.1191449799214
 30
0.0
 10
596.3764085917334
 20
435.1191449799214
 30
0.0
 10
596.6712394373153
 20
435.1191449799214
 30
0.0
 10
596.8621270576343
 20
435.1191449799214
 30
0.0
  0
SPLINE
  5
2E1
330
1F
100
AcDbEntity
  8
0
  6
CONTINUOUS
 62
     7
100
AcDbSpline
210
0.0
220
0.0
230
1.0
 70
    24
 71
     3
 72
    12
 73
     8
 74
     0
 42
0.000000001
 43
0.00000001
 40
0.0
 40
0.0
 40
0.0
 40
0.0
 40
0.3592498888048299
 40
0.5545587120774884
 40
0.750176913602601
 40
0.9454854121102761
 40
1.0
 40
1.0
 40
1.0
 40
1.0
 10
596.8621270576343
 20
435.1191449799214
 30
0.0
 10
597.0305573584145
 20
435.1191449799214
 30
0.0
 10
597.2905560211453
 20
435.1191449799214
 30
0.0
 10
597.5222641805377
 20
435.1191449799214
 30
0.0
 10
597.6385293411427
 20
435.1191449799214
 30
0.0
 10
597.6919008737799
 20
435.1191449799214
 30
0.0
 10
597.6825198192665
 20
435.1191449799214
 30
0.0
 10
597.6804727533683
 20
435.1191449799214
 30
0.0
  0
LINE
  5
2E2
330
1F
100
AcDbEntity
  8
0
  6
CONTINUOUS
 62
     7
100
AcDbLine
 10
545.2266996572
 20
435.1191449799
 30
0.0
 11
543.8108658263
 21
435.1191449799
 31
0.0
  0
LINE
  5
2E3
330
1F
100
AcDbEntity
  8
0
  6
CONTINUOUS
 62
     7
100
AcDbLine
 10
701.2633895347
 20
435.1191449799
 30
0.0
 11
699.8475557038
 21
435.1191449799
 31
0.0
  0
SPLINE
  5
2E4
330
1F
100
AcDbEntity
  8
0
  6
CONTINUOUS
 62
     7
100
AcDbSpline
210
0.0
220
0.0
230
1.0
 70
    24
 71
     3
 72
    12
 73
     8
 74
     0
 42
0.000000001
 43
0.00000001
 40
0.0
 40
0.0
 40
0.0
 40
0.0
 40
0.0556112249441404
 40
0.2537462683252921
 40
0.4515674312347485
 40
0.6497041603772975
 40
0.9999999999999999
 40
0.9999999999999999
 40
0.9999999999999999
 40
0.9999999999999999
 10
562.6926524409876
 20
435.1191449799214
 30
0.0
 10
562.6947210206877
 20
435.1191449799214
 30
0.0
 10
562.7041596615408
 20
435.1191449799214
 30
0.0
 10
562.6508620616024
 20
435.1191449799214
 30
0.0
 10
562.5344675200888
 20
435.1191449799214
 30
0.0
 10
562.3074153449764
 20
435.1191449799214
 30
0.0
 10
562.053785023673
 20
435.1191449799214
 30
0.0
 10
561.8917858073339
 20
435.1191449799214
 30
0.0
  0
SPLINE
  5
2E5
330
1F
100
AcDbEntity
  8
0
  6
CONTINUOUS
 62
     7
100
AcDbSpline
210
0.0
220
0.0
230
1.0
 70
    24
 71
     3
 72
    12
 73
     8
 74
     0
 42
0.000000001
 43
0.00000001
 40
0.0
 40
0.0
 40
0.0
 40
0.0
 40
0.3486026892946374
 40
0.546938495715316
 40
0.745591513614952
 40
0.9439252369668656
 40
0.9999999999999999
 40
0.9999999999999999
 40
0.9999999999999999
 40
0.9999999999999999
 10
683.1791279682741
 20
435.1191449799214
 30
0.0
 10
683.0183563108699
 20
435.1191449799214
 30
0.0
 10
682.7661144000793
 20
435.1191449799214
 30
0.0
 10
682.5398940438656
 20
435.1191449799214
 30
0.0
 10
682.4234840981962
 20
435.1191449799214
 30
0.0
 10
682.3701289217086
 20
435.1191449799214
 30
0.0
 10
682.3795642382622
 20
435.1191449799214
 30
0.0
 10
682.3816438982115
 20
435.1191449799214
 30
0.0
  0
SPLINE
  5
2E6
330
1F
100
AcDbEntity
  8
0
  6
CONTINUOUS
 62
     7
100
AcDbSpline
210
0.0
220
0.0
230
1.0
 70
    24
 71
     3
 72
    10
 73
     6
 74
     0
 42
0.000000001
 43
0.00000001
 40
0.0
 40
0.0
 40
0.0
 40
0.0
 40
0.2272979152430761
 40
0.4997154375375376
 40
1.0
 40
1.0
 40
1.0
 40
1.0
 10
623.7387697756142
 20
435.1191449799214
 30
0.0
 10
623.8007502411134
 20
435.1191449799214
 30
0.0
 10
623.9370145592557
 20
435.1191449799214
 30
0.0
 10
624.1291308017553
 20
435.1191449799214
 30
0.0
 10
624.1643348648199
 20
435.1191449799214
 30
0.0
 10
624.1871276715622
 20
435.1191449799214
 30
0.0
  0
LINE
  5
2E7
330
1F
100
AcDbEntity
  8
0
  6
CONTINUOUS
 62
     7
100
AcDbLine
 10
503.4463992188
 20
435.1191449799
 30
0.0
 11
500.1464029619
 21
435.1191449799
 31
0.0
  0
LINE
  5
2E8
330
1F
100
AcDbEntity
  8
0
  6
CONTINUOUS
 62
     7
100
AcDbLine
 10
744.9278523991
 20
435.1191449799
 30
0.0
 11
741.6278561422
 21
435.1191449799
 31
0.0
  0
SPLINE
  5
2E9
330
1F
100
AcDbEntity
  8
0
  6
CONTINUOUS
 62
     7
100
AcDbSpline
210
0.0
220
0.0
230
1.0
 70
    24
 71
     3
 72
    12
 73
     8
 74
     0
 42
0.000000001
 43
0.00000001
 40
0.0
 40
0.0
 40
0.0
 40
0.0
 40
0.359248939482225
 40
0.554556780490015
 40
0.7501759229351852
 40
0.945484350732138
 40
1.0
 40
1.0
 40
1.0
 40
1.0
 10
605.8621285328493
 20
435.1191449799214
 30
0.0
 10
606.0305578507873
 20
435.1191449799214
 30
0.0
 10
606.2905547777941
 20
435.1191449799214
 30
0.0
 10
606.522264792277
 20
435.1191449799214
 30
0.0
 10
606.6385285456939
 20
435.1191449799214
 30
0.0
 10
606.6919004630613
 20
435.1191449799214
 30
0.0
 10
606.6825194537175
 20
435.1191449799214
 30
0.0
 10
606.6804723659382
 20
435.1191449799214
 30
0.0
  0
LINE
  5
2EA
330
1F
100
AcDbEntity
  8
0
  6
CONTINUOUS
 62
     7
100
AcDbLine
 10
520.8330666492
 20
435.1191449799
 30
0.0
 11
517.5330629418
 21
435.1191449799
 31
0.0
  0
LINE
  5
2EB
330
1F
100
AcDbEntity
  8
0
  6
CONTINUOUS
 62
     7
100
AcDbLine
 10
727.5411924193
 20
435.1191449799
 30
0.0
 11
724.2411887118
 21
435.1191449799
 31
0.0
  0
SPLINE
  5
2EC
330
1F
100
AcDbEntity
  8
0
  6
CONTINUOUS
 62
     7
100
AcDbSpline
210
0.0
220
0.0
230
1.0
 70
    24
 71
     3
 72
    10
 73
     6
 74
     0
 42
0.000000001
 43
0.00000001
 40
0.0
 40
0.0
 40
0.0
 40
0.0
 40
0.2404637669660555
 40
0.5082398888514063
 40
0.9999999999999999
 40
0.9999999999999999
 40
0.9999999999999999
 40
0.9999999999999999
 10
576.1791271934137
 20
435.1191449799214
 30
0.0
 10
576.0834235526341
 20
435.1191449799214
 30
0.0
 10
575.8811460604106
 20
435.1191449799214
 30
0.0
 10
575.5222052198982
 20
435.1191449799214
 30
0.0
 10
575.3319915296141
 20
435.1191449799214
 30
0.0
 10
575.2088380822763
 20
435.1191449799214
 30
0.0
  0
SPLINE
  5
2ED
330
1F
100
AcDbEntity
  8
0
  6
CONTINUOUS
 62
     7
100
AcDbSpline
210
0.0
220
0.0
230
1.0
 70
    24
 71
     3
 72
    10
 73
     6
 74
     0
 42
0.000000001
 43
0.00000001
 40
0.0
 40
0.0
 40
0.0
 40
0.0
 40
0.4903657216925578
 40
0.7569572321390015
 40
1.0
 40
1.0
 40
1.0
 40
1.0
 10
669.8654172787294
 20
435.1191449799214
 30
0.0
 10
669.7422714365797
 20
435.1191449799214
 30
0.0
 10
669.5521763061506
 20
435.1191449799214
 30
0.0
 10
669.1922195869562
 20
435.1191449799214
 30
0.0
 10
668.9887952140773
 20
435.1191449799214
 30
0.0
 10
668.891782856904
 20
435.1191449799214
 30
0.0
  0
LINE
  5
2EE
330
1F
100
AcDbEntity
  8
0
  6
CONTINUOUS
 62
     7
100
AcDbLine
 10
538.219726629
 20
435.1191449799
 30
0.0
 11
535.7987796733
 21
435.1191449799
 31
0.0
  0
LINE
  5
2EF
330
1F
100
AcDbEntity
  8
0
  6
CONTINUOUS
 62
     7
100
AcDbLine
 10
709.2754756877
 20
435.1191449799
 30
0.0
 11
706.854528732
 21
435.1191449799
 31
0.0
  0
LINE
  5
2F0
330
1F
100
AcDbEntity
  8
0
  6
CONTINUOUS
 62
     7
100
AcDbLine
 10
552.3626198837
 20
435.1191449799
 30
0.0
 11
555.5954640576
 21
435.1191449799
 31
0.0
  0
SPLINE
  5
2F1
330
1F
100
AcDbEntity
  8
0
  6
CONTINUOUS
 62
     7
100
AcDbSpline
210
0.0
220
0.0
230
1.0
 70
    24
 71
     3
 72
    25
 73
    21
 74
     0
 42
0.000000001
 43
0.00000001
 40
0.0
 40
0.0
 40
0.0
 40
0.0
 40
0.0274374582651792
 40
0.0546490665581589
 40
0.0817911321067146
 40
0.1090211597436483
 40
0.1364951415171205
 40
0.210274961655663
 40
0.2841723679860818
 40
0.3579522410313443
 40
0.4318497003526282
 40
0.4999545371160046
 40
0.5681757949685384
 40
0.6362806664526526
 40
0.7045019465186281
 40
0.7782817666561336
 40
0.8521791729872271
 40
0.9015555833816318
 40
0.9505194982250398
 40
1.0
 40
1.0
 40
1.0
 40
1.0
 10
692.7116389604029
 20
435.1191450749163
 30
0.0
 10
692.6999995355783
 20
435.1191450749163
 30
0.0
 10
692.6768164952327
 20
435.1191450749163
 30
0.0
 10
692.6308988453603
 20
435.1191450749163
 30
0.0
 10
692.5770571227823
 20
435.1191450749163
 30
0.0
 10
692.514479816192
 20
435.1191450749163
 30
0.0
 10
692.4039808141125
 20
435.1191450749163
 30
0.0
 10
692.2236692436403
 20
435.1191450749163
 30
0.0
 10
691.9486040020856
 20
435.1191450749163
 30
0.0
 10
691.6398571066591
 20
435.1191450749163
 30
0.0
 10
691.3173641214618
 20
435.1191450749163
 30
0.0
 10
690.9963353652867
 20
435.1191450749163
 30
0.0
 10
690.6885099040484
 20
435.1191450749163
 30
0.0
 10
690.3953396169395
 20
435.1191450749163
 30
0.0
 10
690.1212031768918
 20
435.1191450749163
 30
0.0
 10
689.876905306659
 20
435.1191450749163
 30
0.0
 10
689.7009542032301
 20
435.1191450749163
 30
0.0
 10
689.5854994426974
 20
435.1191450749163
 30
0.0
 10
689.5131472601984
 20
435.1191450749163
 30
0.0
 10
689.4902825658432
 20
435.1191450749163
 30
0.0
 10
689.4787902274406
 20
435.1191450749163
 30
0.0
  0
LINE
  5
2F2
330
1F
100
AcDbEntity
  8
0
  6
CONTINUOUS
 62
     7
100
AcDbLine
 10
692.8678592512
 20
435.2191450429
 30
0.0
 11
689.3777018258
 21
435.2191450429
 31
0.0
  0
SPLINE
  5
2F3
330
1F
100
AcDbEntity
  8
0
  6
CONTINUOUS
 62
     7
100
AcDbSpline
210
0.0
220
0.0
230
1.0
 70
    24
 71
     3
 72
    15
 73
    11
 74
     0
 42
0.000000001
 43
0.00000001
 40
0.0
 40
0.0
 40
0.0
 40
0.0
 40
0.0323136352081473
 40
0.1540037569284496
 40
0.377484942660556
 40
0.6009653637829724
 40
0.7224620744911395
 40
0.8441530683576864
 40
0.9656495873749764
 40
1.0
 40
1.0
 40
1.0
 40
1.0
 10
653.0315084228143
 20
435.1191449799214
 30
0.0
 10
653.0021454716599
 20
435.1191449799214
 30
0.0
 10
652.8622043983896
 20
435.1191449799214
 30
0.0
 10
652.5103062385922
 20
435.1191449799214
 30
0.0
 10
652.0031309942435
 20
435.1191449799214
 30
0.0
 10
651.5972949469466
 20
435.1191449799214
 30
0.0
 10
651.3623467782892
 20
435.1191449799214
 30
0.0
 10
651.2467475624603
 20
435.1191449799214
 30
0.0
 10
651.1931993031028
 20
435.1191449799214
 30
0.0
 10
651.2026462850894
 20
435.1191449799214
 30
0.0
 10
651.2047285059318
 20
435.1191449799214
 30
0.0
  0
SPLINE
  5
2F4
330
1F
100
AcDbEntity
  8
0
  6
CONTINUOUS
 62
     7
100
AcDbSpline
210
0.0
220
0.0
230
1.0
 70
    24
 71
     3
 72
    18
 73
    14
 74
     0
 42
0.000000001
 43
0.00000001
 40
0.0
 40
0.0
 40
0.0
 40
0.0
 40
0.0219531686212725
 40
0.1001677073363449
 40
0.1782582714592624
 40
0.256473041900763
 40
0.400111718394618
 40
0.543750886329841
 40
0.6218412044281523
 40
0.7000557431432247
 40
0.7781463072661422
 40
0.8563607132034669
 40
1.0
 40
1.0
 40
1.0
 40
1.0
 10
593.869565970622
 20
435.1191449799214
 30
0.0
 10
593.8716370642271
 20
435.1191449799214
 30
0.0
 10
593.8810870302743
 20
435.1191449799214
 30
0.0
 10
593.8276014561184
 20
435.1191449799214
 30
0.0
 10
593.7120043641042
 20
435.1191449799214
 30
0.0
 10
593.4770550964735
 20
435.1191449799214
 30
0.0
 10
593.0714289590713
 20
435.1191449799214
 30
0.0
 10
592.5632246467403
 20
435.1191449799214
 30
0.0
 10
592.1307979441217
 20
435.1191449799214
 30
0.0
 10
591.7962050128757
 20
435.1191449799214
 30
0.0
 10
591.4803664028933
 20
435.1191449799214
 30
0.0
 10
591.1101010626461
 20
435.1191449799214
 30
0.0
 10
590.9202292875851
 20
435.1191449799214
 30
0.0
 10
590.7972967097387
 20
435.1191449799214
 30
0.0
  0
SPLINE
  5
2F5
330
1F
100
AcDbEntity
  8
0
  6
CONTINUOUS
 62
     7
100
AcDbSpline
210
0.0
220
0.0
230
1.0
 70
     8
 71
     3
 72
    36
 73
    32
 74
     0
 42
0.000000001
 43
0.00000001
 40
0.0
 40
0.0
 40
0.0
 40
0.0
 40
0.03125
 40
0.03125
 40
0.0625
 40
0.0625
 40
0.1250000000000001
 40
0.1250000000000001
 40
0.1875000000000001
 40
0.1875000000000001
 40
0.2500000000000001
 40
0.2500000000000001
 40
0.3750000000000001
 40
0.3750000000000001
 40
0.5000000000000001
 40
0.5000000000000001
 40
0.625
 40
0.625
 40
0.75
 40
0.75
 40
0.8124999999999999
 40
0.8124999999999999
 40
0.8749999999999999
 40
0.8749999999999999
 40
0.90625
 40
0.90625
 40
0.9375
 40
0.9375
 40
0.96875
 40
0.96875
 40
1.0
 40
1.0
 40
1.0
 40
1.0
 10
628.2816903270408
 20
453.6191450749163
 30
0.0
 10
628.2816903270408
 20
453.4859860774279
 30
0.0
 10
628.227271389593
 20
453.3606089135895
 30
0.0
 10
628.0684148822949
 20
453.1502760056687
 30
0.0
 10
627.9678933384843
 20
453.0648627057893
 30
0.0
 10
627.6421785314205
 20
452.8420945316849
 30
0.0
 10
627.4011177850717
 20
452.741643588445
 30
0.0
 10
626.9046437031782
 20
452.5764550247864
 30
0.0
 10
626.65199335835
 20
452.5155153568229
 30
0.0
 10
626.1448097957023
 20
452.4165291489844
 30
0.0
 10
625.8895690464192
 20
452.3788139655101
 30
0.0
 10
625.1208266466618
 20
452.2872401555848
 30
0.0
 10
624.6041464596797
 20
452.2543616195556
 30
0.0
 10
623.5684058360773
 20
452.212949535603
 30
0.0
 10
623.050394896187
 20
452.2048764260567
 30
0.0
 10
622.0141920467074
 20
452.2049871154297
 30
0.0
 10
621.4958250919582
 20
452.2131811610404
 30
0.0
 10
620.4604372808216
 20
452.2549207494586
 30
0.0
 10
619.9426885937785
 20
452.2880265044122
 30
0.0
 10
619.1711398502274
 20
452.380683323956
 30
0.0
 10
618.9144582241358
 20
452.4189597956071
 30
0.0
 10
618.4062076267841
 20
452.5191741564189
 30
0.0
 10
618.1534556147385
 20
452.5810272660691
 30
0.0
 10
617.7861902807877
 20
452.7044620872329
 30
0.0
 10
617.6657177337761
 20
452.7507656624637
 30
0.0
 10
617.4306807896895
 20
452.859008716805
 30
0.0
 10
617.315539179777
 20
452.9211324637519
 30
0.0
 10
617.1018443537752
 20
453.0686588547566
 30
0.0
 10
617.0023744653867
 20
453.1541005792275
 30
0.0
 10
616.8467573452314
 20
453.3616918524435
 30
0.0
 10
616.7925650339648
 20
453.4875644013219
 30
0.0
 10
616.7925650339648
 20
453.6191450749163
 30
0.0
  0
SPLINE
  5
2F6
330
1F
100
AcDbEntity
  8
0
  6
CONTINUOUS
 62
     7
100
AcDbSpline
210
0.0
220
0.0
230
1.0
 70
    24
 71
     3
 72
    16
 73
    12
 74
     0
 42
0.000000001
 43
0.00000001
 40
0.0
 40
0.0
 40
0.0
 40
0.0
 40
0.04687484251279
 40
0.0938090406636833
 40
0.1408293211899401
 40
0.3203812341651414
 40
0.5000004483082494
 40
0.6795523620700447
 40
0.859171576217404
 40
0.9296586271259395
 40
1.0
 40
1.0
 40
1.0
 40
1.0
 10
626.4425540887389
 20
452.1191450749163
 30
0.0
 10
626.3229707017916
 20
452.1191450749163
 30
0.0
 10
626.0836525044925
 20
452.1191450749163
 30
0.0
 10
625.7217509820583
 20
452.1191450749163
 30
0.0
 10
625.0157259711336
 20
452.1191450749163
 30
0.0
 10
623.9552845696173
 20
452.1191450749163
 30
0.0
 10
622.5373269796926
 20
452.1191450749163
 30
0.0
 10
621.1190593311544
 20
452.1191450749163
 30
0.0
 10
619.9976695438805
 20
452.1191450749163
 30
0.0
 10
619.1709063975455
 20
452.1191450749163
 30
0.0
 10
618.8112940479003
 20
452.1191450749163
 30
0.0
 10
618.6316738711131
 20
452.1191450749163
 30
0.0
  0
SPLINE
  5
2F7
330
1F
100
AcDbEntity
  8
0
  6
CONTINUOUS
 62
     7
100
AcDbSpline
210
0.0
220
0.0
230
1.0
 70
    24
 71
     3
 72
    10
 73
     6
 74
     0
 42
0.000000001
 43
0.00000001
 40
0.0
 40
0.0
 40
0.0
 40
0.0
 40
0.5000000000000002
 40
0.5000000000000002
 40
0.9999999999999999
 40
0.9999999999999999
 40
0.9999999999999999
 40
0.9999999999999999
 10
606.5371276805029
 20
460.1191450749163
 30
0.0
 10
606.5371276805027
 20
460.1191450749163
 30
0.0
 10
608.2229220452301
 20
460.1191450749163
 30
0.0
 10
614.2239163178058
 20
460.1191450749163
 30
0.0
 10
618.2937839365028
 20
460.1191450749163
 30
0.0
 10
622.5371276805029
 20
460.1191450749163
 30
0.0
  0
SPLINE
  5
2F8
330
1F
100
AcDbEntity
  8
0
  6
CONTINUOUS
 62
     7
100
AcDbSpline
210
0.0
220
0.0
230
1.0
 70
     8
 71
     3
 72
    22
 73
    18
 74
     0
 42
0.000000001
 43
0.00000001
 40
0.0
 40
0.0
 40
0.0
 40
0.0
 40
0.0312499999999998
 40
0.0312499999999998
 40
0.0624999999999997
 40
0.0624999999999997
 40
0.1249999999999996
 40
0.1249999999999996
 40
0.2499999999999996
 40
0.2499999999999996
 40
0.3749999999999995
 40
0.3749999999999995
 40
0.4999999999999997
 40
0.4999999999999997
 40
0.7499999999999998
 40
0.7499999999999998
 40
1.0
 40
1.0
 40
1.0
 40
1.0
 10
616.7925650339648
 20
459.1191450749163
 30
0.0
 10
616.7925650339648
 20
459.1842585451328
 30
0.0
 10
616.8121135360005
 20
459.247338280187
 30
0.0
 10
616.8745751134937
 20
459.3591452303034
 30
0.0
 10
616.9172488343248
 20
459.408889588812
 30
0.0
 10
617.057513169571
 20
459.5394222204203
 30
0.0
 10
617.1695556499554
 20
459.6059233356639
 30
0.0
 10
617.5118679910951
 20
459.7715087807447
 30
0.0
 10
617.7592860302635
 20
459.841967923339
 30
0.0
 10
618.2536389046653
 20
459.9509729084763
 30
0.0
 10
618.5027960688565
 20
459.988127081538
 30
0.0
 10
619.0031266939934
 20
460.0447755681814
 30
0.0
 10
619.2543432674902
 20
460.0638922778253
 30
0.0
 10
620.0097757559766
 20
460.10562792331
 30
0.0
 10
620.5157292164872
 20
460.1131487206237
 30
0.0
 10
621.5264030187057
 20
460.1199988259308
 30
0.0
 10
622.0317681677654
 20
460.1191450749163
 30
0.0
 10
622.5371276805029
 20
460.1191450749163
 30
0.0
  0
SPLINE
  5
2F9
330
1F
100
AcDbEntity
  8
0
  6
CONTINUOUS
 62
     7
100
AcDbSpline
210
0.0
220
0.0
230
1.0
 70
     8
 71
     3
 72
    22
 73
    18
 74
     0
 42
0.000000001
 43
0.00000001
 40
0.0
 40
0.0
 40
0.0
 40
0.0
 40
0.2500000000000003
 40
0.2500000000000003
 40
0.5000000000000006
 40
0.5000000000000006
 40
0.6250000000000006
 40
0.6250000000000006
 40
0.7500000000000004
 40
0.7500000000000004
 40
0.8750000000000002
 40
0.8750000000000002
 40
0.9375000000000002
 40
0.9375000000000002
 40
0.9687500000000002
 40
0.9687500000000002
 40
1.0
 40
1.0
 40
1.0
 40
1.0
 10
622.5371276805029
 20
460.1191450749163
 30
0.0
 10
623.0432614580777
 20
460.1191450749163
 30
0.0
 10
623.549398578388
 20
460.1200041318398
 30
0.0
 10
624.5616393141643
 20
460.1131117615831
 30
0.0
 10
625.067827411353
 20
460.1055883886814
 30
0.0
 10
625.8258455166041
 20
460.063490661121
 30
0.0
 10
626.0783090244686
 20
460.0441738918732
 30
0.0
 10
626.581040304649
 20
459.9868238441724
 30
0.0
 10
626.8317075145196
 20
459.9490666441486
 30
0.0
 10
627.3257284627449
 20
459.8390318713032
 30
0.0
 10
627.5694484504542
 20
459.769215677385
 30
0.0
 10
627.9118513730789
 20
459.6018760357865
 30
0.0
 10
628.0220446708124
 20
459.5354814867243
 30
0.0
 10
628.1596668660936
 20
459.4058877157635
 30
0.0
 10
628.2014742086785
 20
459.3565916820476
 30
0.0
 10
628.262701001174
 20
459.2456540661061
 30
0.0
 10
628.2816903270408
 20
459.1833853240822
 30
0.0
 10
628.2816903270408
 20
459.1191450749163
 30
0.0
  0
SPLINE
  5
2FA
330
1F
100
AcDbEntity
  8
0
  6
CONTINUOUS
 62
     7
100
AcDbSpline
210
0.0
220
0.0
230
1.0
 70
    24
 71
     3
 72
    10
 73
     6
 74
     0
 42
0.000000001
 43
0.00000001
 40
0.0
 40
0.0
 40
0.0
 40
0.0
 40
0.4999999999999999
 40
0.4999999999999999
 40
0.9999999999999999
 40
0.9999999999999999
 40
0.9999999999999999
 40
0.9999999999999999
 10
622.5371276805029
 20
460.1191450749163
 30
0.0
 10
626.7804714245029
 20
460.1191450749163
 30
0.0
 10
630.8503390431995
 20
460.1191450749163
 30
0.0
 10
636.8513333157754
 20
460.1191450749163
 30
0.0
 10
638.5371276805027
 20
460.1191450749163
 30
0.0
 10
638.5371276805029
 20
460.1191450749163
 30
0.0
  0
SPLINE
  5
2FB
330
1F
100
AcDbEntity
  8
0
  6
CONTINUOUS
 62
     7
100
AcDbSpline
210
0.0
220
0.0
230
1.0
 70
    24
 71
     3
 72
    11
 73
     7
 74
     0
 42
0.000000001
 43
0.00000001
 40
0.0
 40
0.0
 40
0.0
 40
0.0
 40
0.4101913166476476
 40
0.6331945726147139
 40
0.8565525665655735
 40
1.0
 40
1.0
 40
1.0
 40
1.0
 10
631.8621281379685
 20
435.1191449799214
 30
0.0
 10
631.6712403729704
 20
435.1191449799214
 30
0.0
 10
631.3765751963325
 20
435.1191449799214
 30
0.0
 10
630.941710319355
 20
435.1191449799214
 30
0.0
 10
630.6450781234083
 20
435.1191449799214
 30
0.0
 10
630.4745923508974
 20
435.1191449799214
 30
0.0
 10
630.4079200917706
 20
435.1191449799214
 30
0.0
  0
SPLINE
  5
2FC
330
1F
100
AcDbEntity
  8
0
  6
CONTINUOUS
 62
     7
100
AcDbSpline
210
0.0
220
0.0
230
1.0
 70
    24
 71
     3
 72
     9
 73
     5
 74
     0
 42
0.000000001
 43
0.00000001
 40
0.0
 40
0.0
 40
0.0
 40
0.0
 40
0.2947451461846172
 40
1.0
 40
1.0
 40
1.0
 40
1.0
 10
632.6360376396999
 20
435.1191449799214
 30
0.0
 10
632.6485769010116
 20
435.1191449799214
 30
0.0
 10
632.6911196246964
 20
435.1191449799214
 30
0.0
 10
632.6848979919653
 20
435.1191449799214
 30
0.0
 10
632.680510155283
 20
435.1191449799214
 30
0.0
  0
LINE
  5
2FD
330
1F
100
AcDbEntity
  8
0
  6
CONTINUOUS
 62
     7
100
AcDbLine
 10
632.2860382343
 20
435.1191449799
 30
0.0
 11
631.862128138
 21
435.1191449799
 31
0.0
  0
LINE
  5
2FE
330
1F
100
AcDbEntity
  8
0
  6
CONTINUOUS
 62
     7
100
AcDbLine
 10
614.8621276798
 20
435.1191449799
 30
0.0
 11
612.3895132759
 21
435.1191449799
 31
0.0
  0
SPLINE
  5
2FF
330
1F
100
AcDbEntity
  8
0
  6
CONTINUOUS
 62
     7
100
AcDbSpline
210
0.0
220
0.0
230
1.0
 70
    24
 71
     3
 72
    12
 73
     8
 74
     0
 42
0.000000001
 43
0.00000001
 40
0.0
 40
0.0
 40
0.0
 40
0.0
 40
0.3592489800793546
 40
0.554556812682178
 40
0.750176356531035
 40
0.9454843284544228
 40
1.0
 40
1.0
 40
1.0
 40
1.0
 10
614.8621276797578
 20
435.1191449799214
 30
0.0
 10
615.0305573171582
 20
435.1191449799214
 30
0.0
 10
615.2905547230168
 20
435.1191449799214
 30
0.0
 10
615.5222654316902
 20
435.1191449799214
 30
0.0
 10
615.6385269300446
 20
435.1191449799214
 30
0.0
 10
615.6919021087599
 20
435.1191449799214
 30
0.0
 10
615.6825194340807
 20
435.1191449799214
 30
0.0
 10
615.680471978508
 20
435.1191449799214
 30
0.0
  0
LINE
  5
300
330
1F
100
AcDbEntity
  8
0
  6
CONTINUOUS
 62
     7
100
AcDbLine
 10
628.2816901648
 20
459.1191449557
 30
0.0
 11
628.2816901648
 21
453.6191449855
 31
0.0
  0
LINE
  5
301
330
1F
100
AcDbEntity
  8
0
  6
CONTINUOUS
 62
     7
100
AcDbLine
 10
616.7925651962
 20
453.6191449855
 30
0.0
 11
616.7925651962
 21
459.1191449557
 31
0.0
  0
SPLINE
  5
302
330
1F
100
AcDbEntity
  8
0
  6
CONTINUOUS
 62
     7
100
AcDbSpline
210
0.0
220
0.0
230
1.0
 70
    24
 71
     3
 72
    14
 73
    10
 74
     0
 42
0.000000001
 43
0.00000001
 40
0.0
 40
0.0
 40
0.0
 40
0.0
 40
0.2499999999999999
 40
0.2499999999999999
 40
0.4999999999999999
 40
0.4999999999999999
 40
0.7499999999999999
 40
0.7499999999999999
 40
0.9999999999999999
 40
0.9999999999999999
 40
0.9999999999999999
 40
0.9999999999999999
 10
608.0371276805029
 20
472.1191450749163
 30
0.0
 10
608.0371276805029
 20
472.1191450749163
 30
0.0
 10
609.5648788235369
 20
472.1191450749163
 30
0.0
 10
615.0032798830588
 20
472.1191450749163
 30
0.0
 10
618.6915974125028
 20
472.1191450749163
 30
0.0
 10
626.3826579485029
 20
472.1191450749163
 30
0.0
 10
630.0709754779468
 20
472.1191450749163
 30
0.0
 10
635.5093765374687
 20
472.1191450749163
 30
0.0
 10
637.0371276805027
 20
472.1191450749163
 30
0.0
 10
637.0371276805027
 20
472.1191450749163
 30
0.0
  0
LINE
  5
303
330
1F
100
AcDbEntity
  8
0
  6
CONTINUOUS
 62
     7
100
AcDbLine
 10
616.9693632828
 20
445.1191454549
 30
0.0
 11
616.9693632828
 21
452.1191447396
 31
0.0
  0
LINE
  5
304
330
1F
100
AcDbEntity
  8
0
  6
CONTINUOUS
 62
     7
100
AcDbLine
 10
628.1048920782
 20
452.1191447396
 30
0.0
 11
626.4425359977
 21
452.1191447396
 31
0.0
  0
LINE
  5
305
330
1F
100
AcDbEntity
  8
0
  6
CONTINUOUS
 62
     7
100
AcDbLine
 10
628.1048920782
 20
452.1191447396
 30
0.0
 11
628.1048920782
 21
445.1191454549
 31
0.0
  0
LINE
  5
306
330
1F
100
AcDbEntity
  8
0
  6
CONTINUOUS
 62
     7
100
AcDbLine
 10
618.6316935191
 20
452.1191447396
 30
0.0
 11
616.9693632828
 21
452.1191447396
 31
0.0
  0
LINE
  5
307
330
1F
100
AcDbEntity
  8
0
  6
CONTINUOUS
 62
     7
100
AcDbLine
 10
616.9693632828
 20
452.1191447396
 30
0.0
 11
606.5371269205
 21
452.1191447396
 31
0.0
  0
LINE
  5
308
330
1F
100
AcDbEntity
  8
0
  6
CONTINUOUS
 62
     7
100
AcDbLine
 10
638.5371284405
 20
452.1191447396
 30
0.0
 11
628.1048920782
 21
452.1191447396
 31
0.0
  0
LINE
  5
309
330
1F
100
AcDbEntity
  8
0
  6
CONTINUOUS
 62
     7
100
AcDbLine
 10
626.7129508624
 20
486.6191448067
 30
0.0
 11
618.3613044986
 21
486.6191448067
 31
0.0
  0
LINE
  5
30A
330
1F
100
AcDbEntity
  8
0
  6
CONTINUOUS
 62
     7
100
AcDbLine
 10
626.7129508624
 20
493.1191468035
 30
0.0
 11
626.7129508624
 21
486.6191448067
 31
0.0
  0
LINE
  5
30B
330
1F
100
AcDbEntity
  8
0
  6
CONTINUOUS
 62
     7
100
AcDbLine
 10
634.5371277848
 20
493.1191468035
 30
0.0
 11
626.7129508624
 21
493.1191468035
 31
0.0
  0
LINE
  5
30C
330
1F
100
AcDbEntity
  8
0
  6
CONTINUOUS
 62
     7
100
AcDbLine
 10
618.3613044986
 20
493.1191468035
 30
0.0
 11
610.5371275762
 21
493.1191468035
 31
0.0
  0
LINE
  5
30D
330
1F
100
AcDbEntity
  8
0
  6
CONTINUOUS
 62
     7
100
AcDbLine
 10
618.3613044986
 20
486.6191448067
 30
0.0
 11
618.3613044986
 21
493.1191468035
 31
0.0
  0
LINE
  5
30E
330
1F
100
AcDbEntity
  8
0
  6
CONTINUOUS
 62
     7
100
AcDbLine
 10
620.1522797191
 20
493.6191440914
 30
0.0
 11
611.0371276582
 21
493.6191440914
 31
0.0
  0
SPLINE
  5
30F
330
1F
100
AcDbEntity
  8
0
  6
CONTINUOUS
 62
     7
100
AcDbSpline
210
0.0
220
0.0
230
1.0
 70
     8
 71
     3
 72
     8
 73
     4
 74
     0
 42
0.000000001
 43
0.00000001
 40
0.0
 40
0.0
 40
0.0
 40
0.0
 40
1.0
 40
1.0
 40
1.0
 40
1.0
 10
618.3613044087654
 20
493.1191450740158
 30
0.0
 10
618.9478436610339
 20
493.3232520956064
 30
0.0
 10
619.5439762465418
 20
493.4929962720224
 30
0.0
 10
620.1522796796528
 20
493.6191450742969
 30
0.0
  0
SPLINE
  5
310
330
1F
100
AcDbEntity
  8
0
  6
CONTINUOUS
 62
     7
100
AcDbSpline
210
0.0
220
0.0
230
1.0
 70
     8
 71
     3
 72
     8
 73
     4
 74
     0
 42
0.000000001
 43
0.00000001
 40
0.0
 40
0.0
 40
0.0
 40
0.0
 40
1.0
 40
1.0
 40
1.0
 40
1.0
 10
624.9219756836552
 20
493.6191450748505
 30
0.0
 10
625.530279116062
 20
493.4929962725714
 30
0.0
 10
626.126411700833
 20
493.3232520962202
 30
0.0
 10
626.7129509524375
 20
493.1191450748204
 30
0.0
  0
LINE
  5
311
330
1F
100
AcDbEntity
  8
0
  6
CONTINUOUS
 62
     7
100
AcDbLine
 10
620.1522797191
 20
493.6191440914
 30
0.0
 11
624.9219756419
 21
493.6191440914
 31
0.0
  0
LINE
  5
312
330
1F
100
AcDbEntity
  8
0
  6
CONTINUOUS
 62
     7
100
AcDbLine
 10
634.0371277029
 20
493.6191440914
 30
0.0
 11
624.9219756419
 21
493.6191440914
 31
0.0
  0
SPLINE
  5
313
330
1F
100
AcDbEntity
  8
0
  6
CONTINUOUS
 62
     7
100
AcDbSpline
210
0.0
220
0.0
230
1.0
 70
    24
 71
     3
 72
    10
 73
     6
 74
     0
 42
0.000000001
 43
0.00000001
 40
0.0
 40
0.0
 40
0.0
 40
0.0
 40
0.6221458572416807
 40
0.9603797019331519
 40
1.0
 40
1.0
 40
1.0
 40
1.0
 10
571.1871264347658
 20
435.1191449799214
 30
0.0
 10
571.1626787593982
 20
435.1191449799214
 30
0.0
 10
571.1249399383337
 20
435.1191449799214
 30
0.0
 10
570.9801789772245
 20
435.1191449799214
 30
0.0
 10
570.9001743863786
 20
435.1191449799214
 30
0.0
 10
570.8917854199037
 20
435.1191449799214
 30
0.0
  0
SPLINE
  5
314
330
1F
100
AcDbEntity
  8
0
  6
CONTINUOUS
 62
     7
100
AcDbSpline
210
0.0
220
0.0
230
1.0
 70
    24
 71
     3
 72
    25
 73
    21
 74
     0
 42
0.000000001
 43
0.00000001
 40
0.0
 40
0.0
 40
0.0
 40
0.0
 40
0.0241725869938013
 40
0.0481461986281494
 40
0.0720585426318255
 40
0.0960483818317801
 40
0.1202531462814324
 40
0.185253668683566
 40
0.2503577853153259
 40
0.3153583543271732
 40
0.3804625176458847
 40
0.5000242376642609
 40
0.6195859576826422
 40
0.6845864800834449
 40
0.7496905967166898
 40
0.8146911657275051
 40
0.8797953290471116
 40
0.9199483208910736
 40
0.9598022275638669
 40
1.0
 40
1.0
 40
1.0
 40
1.0
 10
553.1871276805028
 20
435.1191450749163
 30
0.0
 10
553.1862455615965
 20
435.1191450749163
 30
0.0
 10
553.1844885848983
 20
435.1191450749163
 30
0.0
 10
553.1700575851752
 20
435.1191450749163
 30
0.0
 10
553.1469586429395
 20
435.1191450749163
 30
0.0
 10
553.1143521392995
 20
435.1191450749163
 30
0.0
 10
553.0492767792924
 20
435.1191450749163
 30
0.0
 10
552.9264569407225
 20
435.1191450749163
 30
0.0
 10
552.7119028559111
 20
435.1191450749163
 30
0.0
 10
552.4496871704089
 20
435.1191450749163
 30
0.0
 10
552.0650578219911
 20
435.1191450749163
 30
0.0
 10
551.5371287817444
 20
435.1191450749163
 30
0.0
 10
551.0093739882026
 20
435.1191450749163
 30
0.0
 10
550.6247270966645
 20
435.1191450749163
 30
0.0
 10
550.3625995341379
 20
435.1191450749163
 30
0.0
 10
550.1479160620764
 20
435.1191450749163
 30
0.0
 10
550.0122825913305
 20
435.1191450749163
 30
0.0
 10
549.9347767865191
 20
435.1191450749163
 30
0.0
 10
549.89442930342
 20
435.1191450749163
 30
0.0
 10
549.8895685147243
 20
435.1191450749163
 30
0.0
 10
549.8871276805029
 20
435.1191450749163
 30
0.0
  0
SPLINE
  5
315
330
1F
100
AcDbEntity
  8
0
  6
CONTINUOUS
 62
     7
100
AcDbSpline
210
0.0
220
0.0
230
1.0
 70
    24
 71
     3
 72
     9
 73
     5
 74
     0
 42
0.000000001
 43
0.00000001
 40
0.0
 40
0.0
 40
0.0
 40
0.0
 40
0.8861784230119162
 40
1.0
 40
1.0
 40
1.0
 40
1.0
 10
589.1871293851957
 20
435.1191449799214
 30
0.0
 10
589.1733988683981
 20
435.1191449799214
 30
0.0
 10
589.1579047913126
 20
435.1191449799214
 30
0.0
 10
589.047338648818
 20
435.1191449799214
 30
0.0
 10
589.0347538361177
 20
435.1191449799214
 30
0.0
  0
SPLINE
  5
316
330
1F
100
AcDbEntity
  8
0
  6
CONTINUOUS
 62
     7
100
AcDbSpline
210
0.0
220
0.0
230
1.0
 70
    24
 71
     3
 72
     9
 73
     5
 74
     0
 42
0.000000001
 43
0.00000001
 40
0.0
 40
0.0
 40
0.0
 40
0.0
 40
0.1614779861224269
 40
1.0
 40
1.0
 40
1.0
 40
1.0
 10
586.0577588746175
 20
435.1191449799214
 30
0.0
 10
586.0386248564583
 20
435.1191449799214
 30
0.0
 10
585.920131812182
 20
435.1191449799214
 30
0.0
 10
585.9021813014698
 20
435.1191449799214
 30
0.0
 10
585.8871294030771
 20
435.1191449799214
 30
0.0
  0
SPLINE
  5
317
330
1F
100
AcDbEntity
  8
0
  6
CONTINUOUS
 62
     7
100
AcDbSpline
210
0.0
220
0.0
230
1.0
 70
    24
 71
     3
 72
     9
 73
     5
 74
     0
 42
0.000000001
 43
0.00000001
 40
0.0
 40
0.0
 40
0.0
 40
0.0
 40
0.8861761330843844
 40
0.9999999999999999
 40
0.9999999999999999
 40
0.9999999999999999
 40
0.9999999999999999
 10
607.1871276790127
 20
435.1191449799214
 30
0.0
 10
607.1734022201002
 20
435.1191449799214
 30
0.0
 10
607.1579138105163
 20
435.1191449799214
 30
0.0
 10
607.0473382659981
 20
435.1191449799214
 30
0.0
 10
607.0347521299348
 20
435.1191449799214
 30
0.0
  0
SPLINE
  5
318
330
1F
100
AcDbEntity
  8
0
  6
CONTINUOUS
 62
     7
100
AcDbSpline
210
0.0
220
0.0
230
1.0
 70
    24
 71
     3
 72
     9
 73
     5
 74
     0
 42
0.000000001
 43
0.00000001
 40
0.0
 40
0.0
 40
0.0
 40
0.0
 40
0.1614779096955033
 40
1.0
 40
1.0
 40
1.0
 40
1.0
 10
604.0577580997572
 20
435.1191449799214
 30
0.0
 10
604.0386240913263
 20
435.1191449799214
 30
0.0
 10
603.9201310512133
 20
435.1191449799214
 30
0.0
 10
603.9021795205704
 20
435.1191449799214
 30
0.0
 10
603.8871267655716
 20
435.1191449799214
 30
0.0
  0
SPLINE
  5
319
330
1F
100
AcDbEntity
  8
0
  6
CONTINUOUS
 62
     7
100
AcDbSpline
210
0.0
220
0.0
230
1.0
 70
    24
 71
     3
 72
    13
 73
     9
 74
     0
 42
0.000000001
 43
0.00000001
 40
0.0
 40
0.0
 40
0.0
 40
0.0
 40
0.0622842774859182
 40
0.2227809687125706
 40
0.3835337402237758
 40
0.5440305662732882
 40
0.7047830852340737
 40
1.0
 40
1.0
 40
1.0
 40
1.0
 10
639.057910985671
 20
435.1191449799214
 30
0.0
 10
639.0147139853839
 20
435.1191449799214
 30
0.0
 10
638.8602051758113
 20
435.1191449799214
 30
0.0
 10
638.6261921028895
 20
435.1191449799214
 30
0.0
 10
638.3619372552931
 20
435.1191449799214
 30
0.0
 10
638.1490996761108
 20
435.1191449799214
 30
0.0
 10
637.9434719611288
 20
435.1191449799214
 30
0.0
 10
637.9092710346838
 20
435.1191449799214
 30
0.0
 10
637.887127681993
 20
435.1191449799214
 30
0.0
  0
SPLINE
  5
31A
330
1F
100
AcDbEntity
  8
0
  6
CONTINUOUS
 62
     7
100
AcDbSpline
210
0.0
220
0.0
230
1.0
 70
    24
 71
     3
 72
    13
 73
     9
 74
     0
 42
0.000000001
 43
0.00000001
 40
0.0
 40
0.0
 40
0.0
 40
0.0
 40
0.062284301217927
 40
0.2227802639036395
 40
0.383533785796076
 40
0.5440306729992573
 40
0.7047826394804197
 40
1.0
 40
1.0
 40
1.0
 40
1.0
 10
657.0579102108106
 20
435.1191449799214
 30
0.0
 10
657.0147131944594
 20
435.1191449799214
 30
0.0
 10
656.8602048751179
 20
435.1191449799214
 30
0.0
 10
656.6261927127063
 20
435.1191449799214
 30
0.0
 10
656.3619367236712
 20
435.1191449799214
 30
0.0
 10
656.1490983938975
 20
435.1191449799214
 30
0.0
 10
655.9434757090136
 20
435.1191449799214
 30
0.0
 10
655.9092714953974
 20
435.1191449799214
 30
0.0
 10
655.88712597581
 20
435.1191449799214
 30
0.0
  0
SPLINE
  5
31B
330
1F
100
AcDbEntity
  8
0
  6
CONTINUOUS
 62
     7
100
AcDbSpline
210
0.0
220
0.0
230
1.0
 70
    24
 71
     3
 72
    25
 73
    21
 74
     0
 42
0.000000001
 43
0.00000001
 40
0.0
 40
0.0
 40
0.0
 40
0.0
 40
0.0241725869911594
 40
0.0481461986241952
 40
0.0720585426278725
 40
0.0960483818291032
 40
0.1202531462812502
 40
0.1852536686809357
 40
0.2503577853153898
 40
0.3153583543286834
 40
0.3804625176458872
 40
0.5000242376642743
 40
0.6195859576826561
 40
0.6845864800827438
 40
0.7496905967166172
 40
0.8146911657280558
 40
0.879795329047192
 40
0.9199483208929045
 40
0.9598022275657005
 40
1.0
 40
1.0
 40
1.0
 40
1.0
 10
695.1871276805028
 20
435.1191450749163
 30
0.0
 10
695.1862455615964
 20
435.1191450749163
 30
0.0
 10
695.1844885848981
 20
435.1191450749163
 30
0.0
 10
695.1700575851747
 20
435.1191450749163
 30
0.0
 10
695.1469586429388
 20
435.1191450749163
 30
0.0
 10
695.1143521392984
 20
435.1191450749163
 30
0.0
 10
695.0492767792987
 20
435.1191450749163
 30
0.0
 10
694.9264569407325
 20
435.1191450749163
 30
0.0
 10
694.7119028559117
 20
435.1191450749163
 30
0.0
 10
694.4496871704057
 20
435.1191450749163
 30
0.0
 10
694.065057821989
 20
435.1191450749163
 30
0.0
 10
693.5371287817446
 20
435.1191450749163
 30
0.0
 10
693.0093739882029
 20
435.1191450749163
 30
0.0
 10
692.6247270966675
 20
435.1191450749163
 30
0.0
 10
692.3625995341382
 20
435.1191450749163
 30
0.0
 10
692.1479160620711
 20
435.1191450749163
 30
0.0
 10
692.0122825913281
 20
435.1191450749163
 30
0.0
 10
691.9347767865206
 20
435.1191450749163
 30
0.0
 10
691.8944293034203
 20
435.1191450749163
 30
0.0
 10
691.8895685147244
 20
435.1191450749163
 30
0.0
 10
691.8871276805028
 20
435.1191450749163
 30
0.0
  0
LINE
  5
31C
330
1F
100
AcDbEntity
  8
0
  6
CONTINUOUS
 62
     7
100
AcDbLine
 10
499.1871258089
 20
435.1191449799
 30
0.0
 11
495.8871221015
 21
435.1191449799
 31
0.0
  0
LINE
  5
31D
330
1F
100
AcDbEntity
  8
0
  6
CONTINUOUS
 62
     7
100
AcDbLine
 10
517.1871250341
 20
435.1191449799
 30
0.0
 11
515.9339522788
 21
435.1191449799
 31
0.0
  0
LINE
  5
31E
330
1F
100
AcDbEntity
  8
0
  6
CONTINUOUS
 62
     7
100
AcDbLine
 10
532.4987834165
 20
435.1191449799
 30
0.0
 11
531.8871280024
 21
435.1191449799
 31
0.0
  0
LINE
  5
31F
330
1F
100
AcDbEntity
  8
0
  6
CONTINUOUS
 62
     7
100
AcDbLine
 10
713.1871273586
 20
435.1191449799
 30
0.0
 11
712.5754719445
 21
435.1191449799
 31
0.0
  0
LINE
  5
320
330
1F
100
AcDbEntity
  8
0
  6
CONTINUOUS
 62
     7
100
AcDbLine
 10
729.1403030822
 20
435.1191449799
 30
0.0
 11
727.8871303269
 21
435.1191449799
 31
0.0
  0
LINE
  5
321
330
1F
100
AcDbEntity
  8
0
  6
CONTINUOUS
 62
     7
100
AcDbLine
 10
749.1871332595
 20
435.1191449799
 30
0.0
 11
745.8871295521
 21
435.1191449799
 31
0.0
  0
SPLINE
  5
322
330
1F
100
AcDbEntity
  8
0
  6
CONTINUOUS
 62
     7
100
AcDbSpline
210
0.0
220
0.0
230
1.0
 70
    24
 71
     3
 72
    16
 73
    12
 74
     0
 42
0.000000001
 43
0.00000001
 40
0.0
 40
0.0
 40
0.0
 40
0.0
 40
0.0361497829476601
 40
0.1427727073663417
 40
0.2495658019424784
 40
0.3561888024193794
 40
0.4629820571476492
 40
0.6591040561703879
 40
0.8552258082515644
 40
0.9618488570795963
 40
1.0
 40
1.0
 40
1.0
 40
1.0
 10
629.8303408393488
 20
435.1191449799214
 30
0.0
 10
629.8006231526754
 20
435.1191449799214
 30
0.0
 10
629.6832538564571
 20
435.1191449799214
 30
0.0
 10
629.556580405655
 20
435.1191449799214
 30
0.0
 10
629.4314284253018
 20
435.1191449799214
 30
0.0
 10
629.3780443692278
 20
435.1191449799214
 30
0.0
 10
629.3977238026367
 20
435.1191449799214
 30
0.0
 10
629.5728663945667
 20
435.1191449799214
 30
0.0
 10
629.9276302406524
 20
435.1191449799214
 30
0.0
 10
630.2261757756854
 20
435.1191449799214
 30
0.0
 10
630.3698943817064
 20
435.1191449799214
 30
0.0
 10
630.4077673548684
 20
435.1191449799214
 30
0.0
  0
SPLINE
  5
323
330
1F
100
AcDbEntity
  8
0
  6
CONTINUOUS
 62
     7
100
AcDbSpline
210
0.0
220
0.0
230
1.0
 70
    24
 71
     3
 72
    10
 73
     6
 74
     0
 42
0.000000001
 43
0.00000001
 40
0.0
 40
0.0
 40
0.0
 40
0.0
 40
0.2272979152430761
 40
0.4997154375375376
 40
1.0
 40
1.0
 40
1.0
 40
1.0
 10
623.7387697756142
 20
435.1191449799214
 30
0.0
 10
623.8007502411134
 20
435.1191449799214
 30
0.0
 10
623.9370145592557
 20
435.1191449799214
 30
0.0
 10
624.1291308017553
 20
435.1191449799214
 30
0.0
 10
624.1643348648199
 20
435.1191449799214
 30
0.0
 10
624.1871276715622
 20
435.1191449799214
 30
0.0
  0
SPLINE
  5
324
330
1F
100
AcDbEntity
  8
0
  6
CONTINUOUS
 62
     7
100
AcDbSpline
210
0.0
220
0.0
230
1.0
 70
    24
 71
     3
 72
    16
 73
    12
 74
     0
 42
0.000000001
 43
0.00000001
 40
0.0
 40
0.0
 40
0.0
 40
0.0
 40
0.036149857518964
 40
0.1427732599926502
 40
0.2495655588908567
 40
0.356188784068162
 40
0.4629820124605084
 40
0.6591037450653751
 40
0.8552253646150891
 40
0.9618485879197742
 40
1.0
 40
1.0
 40
1.0
 40
1.0
 10
647.8303400644884
 20
435.1191449799214
 30
0.0
 10
647.8006225383184
 20
435.1191449799214
 30
0.0
 10
647.6832536638219
 20
435.1191449799214
 30
0.0
 10
647.5565814155145
 20
435.1191449799214
 30
0.0
 10
647.431426429255
 20
435.1191449799214
 30
0.0
 10
647.3780452432821
 20
435.1191449799214
 30
0.0
 10
647.3977227440239
 20
435.1191449799214
 30
0.0
 10
647.5728669663096
 20
435.1191449799214
 30
0.0
 10
647.9276308635698
 20
435.1191449799214
 30
0.0
 10
648.2261748820382
 20
435.1191449799214
 30
0.0
 10
648.3698941995367
 20
435.1191449799214
 30
0.0
 10
648.4077675113306
 20
435.1191449799214
 30
0.0
  0
SPLINE
  5
325
330
1F
100
AcDbEntity
  8
0
  6
CONTINUOUS
 62
     7
100
AcDbSpline
210
0.0
220
0.0
230
1.0
 70
    24
 71
     3
 72
     9
 73
     5
 74
     0
 42
0.000000001
 43
0.00000001
 40
0.0
 40
0.0
 40
0.0
 40
0.0
 40
0.4273585558685576
 40
1.0
 40
1.0
 40
1.0
 40
1.0
 10
674.28167442175
 20
435.1191449799214
 30
0.0
 10
674.3106338690008
 20
435.1191449799214
 30
0.0
 10
674.3783976866499
 20
435.1191449799214
 30
0.0
 10
674.3868615578618
 20
435.1191449799214
 30
0.0
 10
674.3917083212957
 20
435.1191449799214
 30
0.0
  0
SPLINE
  5
326
330
1F
100
AcDbEntity
  8
0
  6
CONTINUOUS
 62
     7
100
AcDbSpline
210
0.0
220
0.0
230
1.0
 70
    24
 71
     3
 72
    14
 73
    10
 74
     0
 42
0.000000001
 43
0.00000001
 40
0.0
 40
0.0
 40
0.0
 40
0.0
 40
0.1223506395404177
 40
0.2481328615789005
 40
0.3737142531297069
 40
0.4994961488369523
 40
0.7304898186285135
 40
0.9614854217803226
 40
1.0
 40
1.0
 40
1.0
 40
1.0
 10
671.2248166868314
 20
435.1191449799214
 30
0.0
 10
671.1871823840308
 20
435.1191449799214
 30
0.0
 10
671.1108582447988
 20
435.1191449799214
 30
0.0
 10
671.0812927317744
 20
435.1191449799214
 30
0.0
 10
671.1139614320074
 20
435.1191449799214
 30
0.0
 10
671.2452491696192
 20
435.1191449799214
 30
0.0
 10
671.5486818512027
 20
435.1191449799214
 30
0.0
 10
671.9210429776698
 20
435.1191449799214
 30
0.0
 10
672.1516687825351
 20
435.1191449799214
 30
0.0
 10
672.1846265563593
 20
435.1191449799214
 30
0.0
  0
SPLINE
  5
327
330
1F
100
AcDbEntity
  8
0
  6
CONTINUOUS
 62
     7
100
AcDbSpline
210
0.0
220
0.0
230
1.0
 70
    24
 71
     3
 72
    10
 73
     6
 74
     0
 42
0.000000001
 43
0.00000001
 40
0.0
 40
0.0
 40
0.0
 40
0.0
 40
0.2272979152430761
 40
0.4997154375375376
 40
1.0
 40
1.0
 40
1.0
 40
1.0
 10
623.7387697756142
 20
435.1191449799214
 30
0.0
 10
623.8007502411134
 20
435.1191449799214
 30
0.0
 10
623.9370145592557
 20
435.1191449799214
 30
0.0
 10
624.1291308017553
 20
435.1191449799214
 30
0.0
 10
624.1643348648199
 20
435.1191449799214
 30
0.0
 10
624.1871276715622
 20
435.1191449799214
 30
0.0
  0
SPLINE
  5
328
330
1F
100
AcDbEntity
  8
0
  6
CONTINUOUS
 62
     7
100
AcDbSpline
210
0.0
220
0.0
230
1.0
 70
    24
 71
     3
 72
    10
 73
     6
 74
     0
 42
0.000000001
 43
0.00000001
 40
0.0
 40
0.0
 40
0.0
 40
0.0
 40
0.2272985235543212
 40
0.4997140986395332
 40
1.0
 40
1.0
 40
1.0
 40
1.0
 10
623.7387697756142
 20
435.1191449799214
 30
0.0
 10
623.8007501423687
 20
435.1191449799214
 30
0.0
 10
623.937013513647
 20
435.1191449799214
 30
0.0
 10
624.1291321043063
 20
435.1191449799214
 30
0.0
 10
624.1643353288058
 20
435.1191449799214
 30
0.0
 10
624.1871276715622
 20
435.1191449799214
 30
0.0
  0
LINE
  5
329
330
1F
100
AcDbEntity
  8
0
  6
CONTINUOUS
 62
     8
100
AcDbLine
 10
620.7871276265
 20
435.2191450429
 30
0.0
 11
624.2871277345
 21
435.2191450429
 31
0.0
  0
LINE
  5
32A
330
1F
100
AcDbEntity
  8
0
  6
CONTINUOUS
 62
     8
100
AcDbLine
 10
588.4347474048
 20
435.2191450429
 30
0.0
 11
591.9347470471
 21
435.2191450429
 31
0.0
  0
LINE
  5
32B
330
1F
100
AcDbEntity
  8
0
  6
CONTINUOUS
 62
     8
100
AcDbLine
 10
653.1395083139
 20
435.2191450429
 30
0.0
 11
656.6395079562
 21
435.2191450429
 31
0.0
  0
LINE
  5
32C
330
1F
100
AcDbEntity
  8
0
  6
CONTINUOUS
 62
     8
100
AcDbLine
 10
558.2871278593
 20
435.2191450429
 30
0.0
 11
561.7871275017
 21
435.2191450429
 31
0.0
  0
LINE
  5
32D
330
1F
100
AcDbEntity
  8
0
  6
CONTINUOUS
 62
     8
100
AcDbLine
 10
683.2871278593
 20
435.2191450429
 30
0.0
 11
686.7871275017
 21
435.2191450429
 31
0.0
  0
LINE
  5
32E
330
1F
100
AcDbEntity
  8
0
  6
CONTINUOUS
 62
     8
100
AcDbLine
 10
593.0934892813
 20
435.2191450429
 30
0.0
 11
596.5934889236
 21
435.2191450429
 31
0.0
  0
LINE
  5
32F
330
1F
100
AcDbEntity
  8
0
  6
CONTINUOUS
 62
     8
100
AcDbLine
 10
648.4807664374
 20
435.2191450429
 30
0.0
 11
651.9807660797
 21
435.2191450429
 31
0.0
  0
LINE
  5
330
330
1F
100
AcDbEntity
  8
0
  6
CONTINUOUS
 62
     8
100
AcDbLine
 10
567.2871274719
 20
435.2191450429
 30
0.0
 11
570.7871271143
 21
435.2191450429
 31
0.0
  0
LINE
  5
331
330
1F
100
AcDbEntity
  8
0
  6
CONTINUOUS
 62
     8
100
AcDbLine
 10
674.2871282467
 20
435.2191450429
 30
0.0
 11
677.7871278891
 21
435.2191450429
 31
0.0
  0
LINE
  5
332
330
1F
100
AcDbEntity
  8
0
  6
CONTINUOUS
 62
     8
100
AcDbLine
 10
532.3987817237
 20
435.2191450429
 30
0.0
 11
535.8987813661
 21
435.2191450429
 31
0.0
  0
LINE
  5
333
330
1F
100
AcDbEntity
  8
0
  6
CONTINUOUS
 62
     8
100
AcDbLine
 10
709.1754739949
 20
435.2191450429
 30
0.0
 11
712.6754736373
 21
435.2191450429
 31
0.0
  0
LINE
  5
334
330
1F
100
AcDbEntity
  8
0
  6
CONTINUOUS
 62
     8
100
AcDbLine
 10
597.7522330204
 20
435.2191450429
 30
0.0
 11
601.2522326628
 21
435.2191450429
 31
0.0
  0
LINE
  5
335
330
1F
100
AcDbEntity
  8
0
  6
CONTINUOUS
 62
     8
100
AcDbLine
 10
643.8220226982
 20
435.2191450429
 30
0.0
 11
647.3220223406
 21
435.2191450429
 31
0.0
  0
LINE
  5
336
330
1F
100
AcDbEntity
  8
0
  6
CONTINUOUS
 62
     8
100
AcDbLine
 10
576.2871270845
 20
435.2191450429
 30
0.0
 11
579.7871267268
 21
435.2191450429
 31
0.0
  0
LINE
  5
337
330
1F
100
AcDbEntity
  8
0
  6
CONTINUOUS
 62
     8
100
AcDbLine
 10
665.2871286342
 20
435.2191450429
 30
0.0
 11
668.7871282765
 21
435.2191450429
 31
0.0
  0
LINE
  5
338
330
1F
100
AcDbEntity
  8
0
  6
CONTINUOUS
 62
     8
100
AcDbLine
 10
545.126705415
 20
435.2191450429
 30
0.0
 11
548.6267050573
 21
435.2191450429
 31
0.0
  0
LINE
  5
339
330
1F
100
AcDbEntity
  8
0
  6
CONTINUOUS
 62
     8
100
AcDbLine
 10
696.4475503037
 20
435.2191450429
 30
0.0
 11
699.947549946
 21
435.2191450429
 31
0.0
  0
LINE
  5
33A
330
1F
100
AcDbEntity
  8
0
  6
CONTINUOUS
 62
     8
100
AcDbLine
 10
605.9109764019
 20
435.2191450429
 30
0.0
 11
602.4109748969
 21
435.2191450429
 31
0.0
  0
LINE
  5
33B
330
1F
100
AcDbEntity
  8
0
  6
CONTINUOUS
 62
     8
100
AcDbLine
 10
557.8546216557
 20
435.2191450429
 30
0.0
 11
558.2871278593
 21
435.2191450429
 31
0.0
  0
LINE
  5
33C
330
1F
100
AcDbEntity
  8
0
  6
CONTINUOUS
 62
     8
100
AcDbLine
 10
686.7871275017
 20
435.2191450429
 30
0.0
 11
687.2196337053
 21
435.2191450429
 31
0.0
  0
LINE
  5
33D
330
1F
100
AcDbEntity
  8
0
  6
CONTINUOUS
 62
     8
100
AcDbLine
 10
512.5339543292
 20
435.2191450429
 30
0.0
 11
516.0339539716
 21
435.2191450429
 31
0.0
  0
LINE
  5
33E
330
1F
100
AcDbEntity
  8
0
  6
CONTINUOUS
 62
     8
100
AcDbLine
 10
729.0403013894
 20
435.2191450429
 30
0.0
 11
732.5403010318
 21
435.2191450429
 31
0.0
  0
LINE
  5
33F
330
1F
100
AcDbEntity
  8
0
  6
CONTINUOUS
 62
     8
100
AcDbLine
 10
588.4347474048
 20
435.2191450429
 30
0.0
 11
585.287126697
 21
435.2191450429
 31
0.0
  0
LINE
  5
340
330
1F
100
AcDbEntity
  8
0
  6
CONTINUOUS
 62
     8
100
AcDbLine
 10
659.787128664
 20
435.2191450429
 30
0.0
 11
656.6395079562
 21
435.2191450429
 31
0.0
  0
LINE
  5
341
330
1F
100
AcDbEntity
  8
0
  6
CONTINUOUS
 62
     8
100
AcDbLine
 10
528.1224092314
 20
435.2191450429
 30
0.0
 11
531.6224088738
 21
435.2191450429
 31
0.0
  0
LINE
  5
342
330
1F
100
AcDbEntity
  8
0
  6
CONTINUOUS
 62
     8
100
AcDbLine
 10
713.4518464872
 20
435.2191450429
 30
0.0
 11
716.9518461296
 21
435.2191450429
 31
0.0
  0
LINE
  5
343
330
1F
100
AcDbEntity
  8
0
  6
CONTINUOUS
 62
     8
100
AcDbLine
 10
574.0825449893
 20
435.2191450429
 30
0.0
 11
570.7871271143
 21
435.2191450429
 31
0.0
  0
LINE
  5
344
330
1F
100
AcDbEntity
  8
0
  6
CONTINUOUS
 62
     8
100
AcDbLine
 10
674.2871282467
 20
435.2191450429
 30
0.0
 11
670.9917103717
 21
435.2191450429
 31
0.0
  0
LINE
  5
345
330
1F
100
AcDbEntity
  8
0
  6
CONTINUOUS
 62
     8
100
AcDbLine
 10
648.4807664374
 20
435.2191450429
 30
0.0
 11
647.3220223406
 21
435.2191450429
 31
0.0
  0
LINE
  5
346
330
1F
100
AcDbEntity
  8
0
  6
CONTINUOUS
 62
     8
100
AcDbLine
 10
597.7522330204
 20
435.2191450429
 30
0.0
 11
596.5934889236
 21
435.2191450429
 31
0.0
  0
LINE
  5
347
330
1F
100
AcDbEntity
  8
0
  6
CONTINUOUS
 62
     8
100
AcDbLine
 10
543.7108641336
 20
435.2191450429
 30
0.0
 11
545.126705415
 21
435.2191450429
 31
0.0
  0
LINE
  5
348
330
1F
100
AcDbEntity
  8
0
  6
CONTINUOUS
 62
     8
100
AcDbLine
 10
699.947549946
 20
435.2191450429
 30
0.0
 11
701.3633912274
 21
435.2191450429
 31
0.0
  0
LINE
  5
349
330
1F
100
AcDbEntity
  8
0
  6
CONTINUOUS
 62
     8
100
AcDbLine
 10
562.7993224034
 20
435.2191450429
 30
0.0
 11
561.7871275017
 21
435.2191450429
 31
0.0
  0
LINE
  5
34A
330
1F
100
AcDbEntity
  8
0
  6
CONTINUOUS
 62
     8
100
AcDbLine
 10
683.2871278593
 20
435.2191450429
 30
0.0
 11
682.2749329576
 21
435.2191450429
 31
0.0
  0
LINE
  5
34B
330
1F
100
AcDbEntity
  8
0
  6
CONTINUOUS
 62
     8
100
AcDbLine
 10
500.0464012692
 20
435.2191450429
 30
0.0
 11
503.5464009115
 21
435.2191450429
 31
0.0
  0
LINE
  5
34C
330
1F
100
AcDbEntity
  8
0
  6
CONTINUOUS
 62
     8
100
AcDbLine
 10
741.5278544495
 20
435.2191450429
 30
0.0
 11
745.0278540918
 21
435.2191450429
 31
0.0
  0
LINE
  5
34D
330
1F
100
AcDbEntity
  8
0
  6
CONTINUOUS
 62
     8
100
AcDbLine
 10
606.7871274272
 20
435.2191450429
 30
0.0
 11
605.9860130617
 21
435.2191450429
 31
0.0
  0
LINE
  5
34E
330
1F
100
AcDbEntity
  8
0
  6
CONTINUOUS
 62
     8
100
AcDbLine
 10
639.1632789591
 20
435.2191450429
 30
0.0
 11
638.2871279338
 21
435.2191450429
 31
0.0
  0
LINE
  5
34F
330
1F
100
AcDbEntity
  8
0
  6
CONTINUOUS
 62
     8
100
AcDbLine
 10
517.433061249
 20
435.2191450429
 30
0.0
 11
520.9330608914
 21
435.2191450429
 31
0.0
  0
LINE
  5
350
330
1F
100
AcDbEntity
  8
0
  6
CONTINUOUS
 62
     8
100
AcDbLine
 10
724.1411944697
 20
435.2191450429
 30
0.0
 11
727.641194112
 21
435.2191450429
 31
0.0
  0
LINE
  5
351
330
1F
100
AcDbEntity
  8
0
  6
CONTINUOUS
 62
     8
100
AcDbLine
 10
576.2871270845
 20
435.2191450429
 30
0.0
 11
574.8877813885
 21
435.2191450429
 31
0.0
  0
LINE
  5
352
330
1F
100
AcDbEntity
  8
0
  6
CONTINUOUS
 62
     8
100
AcDbLine
 10
670.1864739725
 20
435.2191450429
 30
0.0
 11
668.7871282765
 21
435.2191450429
 31
0.0
  0
LINE
  5
353
330
1F
100
AcDbEntity
  8
0
  6
CONTINUOUS
 62
     8
100
AcDbLine
 10
535.8987813661
 20
435.2191450429
 30
0.0
 11
538.3197283218
 21
435.2191450429
 31
0.0
  0
LINE
  5
354
330
1F
100
AcDbEntity
  8
0
  6
CONTINUOUS
 62
     8
100
AcDbLine
 10
706.7545270393
 20
435.2191450429
 30
0.0
 11
709.1754739949
 21
435.2191450429
 31
0.0
  0
LINE
  5
355
330
1F
100
AcDbEntity
  8
0
  6
CONTINUOUS
 62
     8
100
AcDbLine
 10
555.7063957522
 20
435.2191450429
 30
0.0
 11
552.2063961098
 21
435.2191450429
 31
0.0
  0
LINE
  5
356
330
1F
100
AcDbEntity
  8
0
  6
CONTINUOUS
 62
     8
100
AcDbLine
 10
689.3777018258
 20
435.2191450429
 30
0.0
 11
689.3678596089
 21
435.2191450429
 31
0.0
  0
LINE
  5
357
330
1F
100
AcDbEntity
  8
0
  6
CONTINUOUS
 62
     8
100
AcDbLine
 10
653.1395083139
 20
435.2191450429
 30
0.0
 11
651.9807660797
 21
435.2191450429
 31
0.0
  0
LINE
  5
358
330
1F
100
AcDbEntity
  8
0
  6
CONTINUOUS
 62
     8
100
AcDbLine
 10
593.0934892813
 20
435.2191450429
 30
0.0
 11
591.9347470471
 21
435.2191450429
 31
0.0
  0
LINE
  5
359
330
1F
100
AcDbEntity
  8
0
  6
CONTINUOUS
 62
     8
100
AcDbLine
 10
632.7871279636
 20
435.2191450429
 30
0.0
 11
629.2871278556
 21
435.2191450429
 31
0.0
  0
LINE
  5
35A
330
1F
100
AcDbEntity
  8
0
  6
CONTINUOUS
 62
     8
100
AcDbLine
 10
615.7871275054
 20
435.2191450429
 30
0.0
 11
612.2871273974
 21
435.2191450429
 31
0.0
  0
LINE
  5
35B
330
1F
100
AcDbEntity
  8
0
  6
CONTINUOUS
 62
     8
100
AcDbLine
 10
622.5371276805
 20
477.3084373568
 30
0.0
 11
633.7878024051
 21
477.3084373568
 31
0.0
  0
LINE
  5
35C
330
1F
100
AcDbEntity
  8
0
  6
CONTINUOUS
 62
     8
100
AcDbLine
 10
611.2864529559
 20
477.3084373568
 30
0.0
 11
622.5371276805
 21
477.3084373568
 31
0.0
  0
LINE
  5
35D
330
1F
100
AcDbEntity
  8
0
  6
CONTINUOUS
 62
     8
100
AcDbLine
 10
552.184133775
 20
435.2191450429
 30
0.0
 11
549.7871255347
 21
435.2191450429
 31
0.0
  0
LINE
  5
35E
330
1F
100
AcDbEntity
  8
0
  6
CONTINUOUS
 62
     8
100
AcDbLine
 10
607.2871275091
 20
435.2191450429
 30
0.0
 11
606.89566376
 21
435.2191450429
 31
0.0
  0
LINE
  5
35F
330
1F
100
AcDbEntity
  8
0
  6
CONTINUOUS
 62
     8
100
AcDbLine
 10
637.9042295584
 20
435.2191450429
 30
0.0
 11
637.7871278519
 21
435.2191450429
 31
0.0
  0
LINE
  5
360
330
1F
100
AcDbEntity
  8
0
  6
CONTINUOUS
 62
     8
100
AcDbLine
 10
638.2871279338
 20
435.2191450429
 30
0.0
 11
637.9042295584
 21
435.2191450429
 31
0.0
  0
LINE
  5
361
330
1F
100
AcDbEntity
  8
0
  6
CONTINUOUS
 62
     8
100
AcDbLine
 10
695.2871298263
 20
435.2191450429
 30
0.0
 11
692.8678592512
 21
435.2191450429
 31
0.0
  0
LINE
  5
362
330
1F
100
AcDbEntity
  8
0
  6
CONTINUOUS
 62
     8
100
AcDbLine
 10
495.7871204087
 20
435.2191450429
 30
0.0
 11
499.2871275017
 21
435.2191450429
 31
0.0
  0
LINE
  5
363
330
1F
100
AcDbEntity
  8
0
  6
CONTINUOUS
 62
     8
100
AcDbLine
 10
516.0339539716
 20
435.2191450429
 30
0.0
 11
517.2871267268
 21
435.2191450429
 31
0.0
  0
LINE
  5
364
330
1F
100
AcDbEntity
  8
0
  6
CONTINUOUS
 62
     8
100
AcDbLine
 10
531.7871263096
 20
435.2191450429
 30
0.0
 11
532.3987817237
 21
435.2191450429
 31
0.0
  0
LINE
  5
365
330
1F
100
AcDbEntity
  8
0
  6
CONTINUOUS
 62
     8
100
AcDbLine
 10
712.6754736373
 20
435.2191450429
 30
0.0
 11
713.2871290514
 21
435.2191450429
 31
0.0
  0
LINE
  5
366
330
1F
100
AcDbEntity
  8
0
  6
CONTINUOUS
 62
     8
100
AcDbLine
 10
727.7871286342
 20
435.2191450429
 30
0.0
 11
729.0403013894
 21
435.2191450429
 31
0.0
  0
LINE
  5
367
330
1F
100
AcDbEntity
  8
0
  6
CONTINUOUS
 62
     8
100
AcDbLine
 10
745.7871278593
 20
435.2191450429
 30
0.0
 11
749.2871349523
 21
435.2191450429
 31
0.0
  0
LINE
  5
368
330
1F
100
AcDbEntity
  8
0
  6
CONTINUOUS
 62
     7
100
AcDbLine
 10
246.6388928334
 20
216.6963285092
 30
0.0
 11
246.6388928334
 21
221.466024432
 31
0.0
  0
ARC
  5
369
330
1F
100
AcDbEntity
  8
0
  6
CONTINUOUS
 62
     7
100
AcDbCircle
 10
235.388892387
 20
219.0811764709
 30
0.0
 40
11.50000000057005
100
AcDbArc
 50
191.9687455532
 51
348.0312544212
  0
LINE
  5
36A
330
1F
100
AcDbEntity
  8
0
  6
CONTINUOUS
 62
     7
100
AcDbLine
 10
224.1388919394
 20
221.466024432
 30
0.0
 11
224.1388919394
 21
216.6963285092
 31
0.0
  0
ARC
  5
36B
330
1F
100
AcDbEntity
  8
0
  6
CONTINUOUS
 62
     7
100
AcDbCircle
 10
235.3888923871
 20
219.0811764709
 30
0.0
 40
11.49999999963337
100
AcDbArc
 50
11.9687455586
 51
168.0312544712
  0
ARC
  5
36C
330
1F
100
AcDbEntity
  8
0
  6
CONTINUOUS
 62
     7
100
AcDbCircle
 10
235.3888923864
 20
219.0811764706
 30
0.0
 40
12.00000000004807
100
AcDbArc
 50
200.3641348059
 51
339.6358651932
  0
SPLINE
  5
36D
330
1F
100
AcDbEntity
  8
0
  6
CONTINUOUS
 62
     7
100
AcDbSpline
210
0.0
220
0.0
230
1.0
 70
    24
 71
     3
 72
     8
 73
     4
 74
     0
 42
0.000000001
 43
0.00000001
 40
0.0
 40
0.0
 40
0.0
 40
0.0
 40
1.0
 40
1.0
 40
1.0
 40
1.0
 10
224.1388923863942
 20
216.696328467436
 30
0.0
 10
224.1388923863942
 20
216.088025035029
 30
0.0
 10
224.1388923863861
 20
215.491892450258
 30
0.0
 10
224.1388923863861
 20
214.9053531986536
 30
0.0
  0
SPLINE
  5
36E
330
1F
100
AcDbEntity
  8
0
  6
CONTINUOUS
 62
     7
100
AcDbSpline
210
0.0
220
0.0
230
1.0
 70
    24
 71
     3
 72
     8
 73
     4
 74
     0
 42
0.000000001
 43
0.00000001
 40
0.0
 40
0.0
 40
0.0
 40
0.0
 40
1.0
 40
1.0
 40
1.0
 40
1.0
 10
246.6388923862399
 20
214.9053531982111
 30
0.0
 10
246.6388923862399
 20
215.491892448364
 30
0.0
 10
246.6388923863861
 20
216.0880250324099
 30
0.0
 10
246.6388923863861
 20
216.696328463282
 30
0.0
  0
ARC
  5
36F
330
1F
100
AcDbEntity
  8
0
  6
CONTINUOUS
 62
     7
100
AcDbCircle
 10
235.3888923864
 20
219.0811764706
 30
0.0
 40
12.0
100
AcDbArc
 50
20.3641348083
 51
159.6358651944
  0
SPLINE
  5
370
330
1F
100
AcDbEntity
  8
0
  6
CONTINUOUS
 62
     7
100
AcDbSpline
210
0.0
220
0.0
230
1.0
 70
    24
 71
     3
 72
     8
 73
     4
 74
     0
 42
0.000000001
 43
0.00000001
 40
0.0
 40
0.0
 40
0.0
 40
0.0
 40
1.0
 40
1.0
 40
1.0
 40
1.0
 10
224.138892386248
 20
223.2569997423258
 30
0.0
 10
224.138892386248
 20
222.6704604900572
 30
0.0
 10
224.1388923863861
 20
222.0743279045494
 30
0.0
 10
224.1388923863861
 20
221.4660244714383
 30
0.0
  0
SPLINE
  5
371
330
1F
100
AcDbEntity
  8
0
  6
CONTINUOUS
 62
     7
100
AcDbSpline
210
0.0
220
0.0
230
1.0
 70
    24
 71
     3
 72
     8
 73
     4
 74
     0
 42
0.000000001
 43
0.00000001
 40
0.0
 40
0.0
 40
0.0
 40
0.0
 40
1.0
 40
1.0
 40
1.0
 40
1.0
 10
246.6388923863966
 20
221.4660244748962
 30
0.0
 10
246.6388923863966
 20
222.074327907048
 30
0.0
 10
246.6388923863861
 20
222.6704604918762
 30
0.0
 10
246.6388923863861
 20
223.2569997432344
 30
0.0
  0
ARC
  5
372
330
1F
100
AcDbEntity
  8
0
  6
CONTINUOUS
 62
     7
100
AcDbCircle
 10
235.3888923864
 20
219.0811764706
 30
0.0
 40
11.99999999999999
100
AcDbArc
 50
339.6358651938
 51
20.3641348073
  0
ARC
  5
373
330
1F
100
AcDbEntity
  8
0
  6
CONTINUOUS
 62
     7
100
AcDbCircle
 10
235.3888923864
 20
219.0811764706
 30
0.0
 40
12.00000000000002
100
AcDbArc
 50
159.6358651935
 51
200.3641348063
  0
CIRCLE
  5
374
330
1F
100
AcDbEntity
  8
0
  6
CONTINUOUS
 62
     7
100
AcDbCircle
 10
235.3888923864
 20
219.0811764706
 30
0.0
 40
15.50000000000002
  0
ARC
  5
375
330
1F
100
AcDbEntity
  8
0
  6
CONTINUOUS
 62
     7
100
AcDbCircle
 10
235.3888923864
 20
219.0811764706
 30
0.0
 40
17.00000000000003
100
AcDbArc
 50
19.7499227956
 51
160.2500772044
  0
SPLINE
  5
376
330
1F
100
AcDbEntity
  8
0
  6
CONTINUOUS
 62
     7
100
AcDbSpline
210
0.0
220
0.0
230
1.0
 70
    24
 71
     3
 72
    22
 73
    18
 74
     0
 42
0.000000001
 43
0.00000001
 40
0.0
 40
0.0
 40
0.0
 40
0.0
 40
0.0312499999999998
 40
0.0312499999999998
 40
0.0624999999999997
 40
0.0624999999999997
 40
0.1249999999999996
 40
0.1249999999999996
 40
0.2499999999999996
 40
0.2499999999999996
 40
0.3749999999999995
 40
0.3749999999999995
 40
0.4999999999999997
 40
0.4999999999999997
 40
0.7499999999999998
 40
0.7499999999999998
 40
1.0
 40
1.0
 40
1.0
 40
1.0
 10
219.3888923863861
 20
224.8257391171263
 30
0.0
 10
219.3888923863861
 20
224.8257391171263
 30
0.0
 10
219.3888923863861
 20
224.8061906150906
 30
0.0
 10
219.3888923863861
 20
224.7437290375973
 30
0.0
 10
219.3888923863861
 20
224.7010553167662
 30
0.0
 10
219.3888923863861
 20
224.5607909815201
 30
0.0
 10
219.3888923863861
 20
224.4487485011356
 30
0.0
 10
219.3888923863861
 20
224.1064361599961
 30
0.0
 10
219.3888923863861
 20
223.8590181208276
 30
0.0
 10
219.3888923863861
 20
223.3646652464258
 30
0.0
 10
219.3888923863861
 20
223.1155080822346
 30
0.0
 10
219.3888923863861
 20
222.6151774570977
 30
0.0
 10
219.3888923863861
 20
222.363960883601
 30
0.0
 10
219.3888923863861
 20
221.6085283951145
 30
0.0
 10
219.3888923863861
 20
221.1025749346038
 30
0.0
 10
219.3888923863861
 20
220.0919011323854
 30
0.0
 10
219.3888923863861
 20
219.5865359833257
 30
0.0
 10
219.3888923863861
 20
219.0811764705883
 30
0.0
  0
SPLINE
  5
377
330
1F
100
AcDbEntity
  8
0
  6
CONTINUOUS
 62
     7
100
AcDbSpline
210
0.0
220
0.0
230
1.0
 70
    24
 71
     3
 72
    22
 73
    18
 74
     0
 42
0.000000001
 43
0.00000001
 40
0.0
 40
0.0
 40
0.0
 40
0.0
 40
0.2500000000000005
 40
0.2500000000000005
 40
0.5000000000000009
 40
0.5000000000000009
 40
0.625000000000001
 40
0.625000000000001
 40
0.7500000000000009
 40
0.7500000000000009
 40
0.8750000000000009
 40
0.8750000000000009
 40
0.937500000000001
 40
0.937500000000001
 40
0.9687500000000004
 40
0.9687500000000004
 40
1.0
 40
1.0
 40
1.0
 40
1.0
 10
251.3888923863861
 20
219.0811764705883
 30
0.0
 10
251.3888923863861
 20
219.5873102481632
 30
0.0
 10
251.3888923863858
 20
220.0934473684734
 30
0.0
 10
251.3888923863858
 20
221.1056881042498
 30
0.0
 10
251.3888923863861
 20
221.6118762014385
 30
0.0
 10
251.3888923863861
 20
222.3698943066896
 30
0.0
 10
251.3888923863787
 20
222.6223578145541
 30
0.0
 10
251.3888923863787
 20
223.1250890947344
 30
0.0
 10
251.3888923863859
 20
223.3757563046051
 30
0.0
 10
251.3888923863859
 20
223.8697772528304
 30
0.0
 10
251.3888923863861
 20
224.1134972405396
 30
0.0
 10
251.3888923863861
 20
224.4559001631643
 30
0.0
 10
251.3888923863861
 20
224.5660934608979
 30
0.0
 10
251.3888923863861
 20
224.703715656179
 30
0.0
 10
251.3888923863861
 20
224.745522998764
 30
0.0
 10
251.3888923863861
 20
224.8067497912594
 30
0.0
 10
251.3888923863861
 20
224.8257391171263
 30
0.0
 10
251.3888923863861
 20
224.8257391171263
 30
0.0
  0
ARC
  5
378
330
1F
100
AcDbEntity
  8
0
  6
CONTINUOUS
 62
     7
100
AcDbCircle
 10
235.3888923864
 20
219.0811764706
 30
0.0
 40
17.00000000000001
100
AcDbArc
 50
199.7499227956
 51
340.2500772044
  0
SPLINE
  5
379
330
1F
100
AcDbEntity
  8
0
  6
CONTINUOUS
 62
     7
100
AcDbSpline
210
0.0
220
0.0
230
1.0
 70
    24
 71
     3
 72
    22
 73
    18
 74
     0
 42
0.000000001
 43
0.00000001
 40
0.0
 40
0.0
 40
0.0
 40
0.0
 40
0.2500000000000003
 40
0.2500000000000003
 40
0.5000000000000006
 40
0.5000000000000006
 40
0.6250000000000006
 40
0.6250000000000006
 40
0.7500000000000004
 40
0.7500000000000004
 40
0.8750000000000002
 40
0.8750000000000002
 40
0.9375000000000002
 40
0.9375000000000002
 40
0.9687500000000002
 40
0.9687500000000002
 40
1.0
 40
1.0
 40
1.0
 40
1.0
 10
219.3888923863861
 20
219.0811764705883
 30
0.0
 10
219.3888923863861
 20
218.5750426930133
 30
0.0
 10
219.3888923863863
 20
218.0689055727032
 30
0.0
 10
219.3888923863863
 20
217.0566648369267
 30
0.0
 10
219.3888923863861
 20
216.5504767397381
 30
0.0
 10
219.3888923863861
 20
215.792458634487
 30
0.0
 10
219.3888923863935
 20
215.5399951266225
 30
0.0
 10
219.3888923863935
 20
215.0372638464422
 30
0.0
 10
219.3888923863863
 20
214.7865966365714
 30
0.0
 10
219.3888923863863
 20
214.2925756883461
 30
0.0
 10
219.3888923863861
 20
214.048855700637
 30
0.0
 10
219.3888923863861
 20
213.7064527780122
 30
0.0
 10
219.3888923863861
 20
213.5962594802787
 30
0.0
 10
219.3888923863861
 20
213.4586372849976
 30
0.0
 10
219.3888923863861
 20
213.4168299424125
 30
0.0
 10
219.3888923863861
 20
213.3556031499172
 30
0.0
 10
219.3888923863861
 20
213.3366138240503
 30
0.0
 10
219.3888923863861
 20
213.3366138240503
 30
0.0
  0
SPLINE
  5
37A
330
1F
100
AcDbEntity
  8
0
  6
CONTINUOUS
 62
     7
100
AcDbSpline
210
0.0
220
0.0
230
1.0
 70
    24
 71
     3
 72
    22
 73
    18
 74
     0
 42
0.000000001
 43
0.00000001
 40
0.0
 40
0.0
 40
0.0
 40
0.0
 40
0.0312499999999994
 40
0.0312499999999994
 40
0.0624999999999987
 40
0.0624999999999987
 40
0.1249999999999986
 40
0.1249999999999986
 40
0.2499999999999991
 40
0.2499999999999991
 40
0.3749999999999995
 40
0.3749999999999995
 40
0.4999999999999998
 40
0.4999999999999998
 40
0.7499999999999998
 40
0.7499999999999998
 40
1.0
 40
1.0
 40
1.0
 40
1.0
 10
251.3888923863861
 20
213.3366138240502
 30
0.0
 10
251.3888923863861
 20
213.3366138240502
 30
0.0
 10
251.3888923863861
 20
213.356162326086
 30
0.0
 10
251.3888923863861
 20
213.4186239035792
 30
0.0
 10
251.3888923863861
 20
213.4612976244103
 30
0.0
 10
251.3888923863861
 20
213.6015619596564
 30
0.0
 10
251.3888923863861
 20
213.7136044400409
 30
0.0
 10
251.3888923863861
 20
214.0559167811805
 30
0.0
 10
251.3888923863861
 20
214.303334820349
 30
0.0
 10
251.3888923863861
 20
214.7976876947507
 30
0.0
 10
251.3888923863861
 20
215.046844858942
 30
0.0
 10
251.3888923863861
 20
215.5471754840788
 30
0.0
 10
251.3888923863861
 20
215.7983920575756
 30
0.0
 10
251.3888923863861
 20
216.5538245460621
 30
0.0
 10
251.3888923863861
 20
217.0597780065727
 30
0.0
 10
251.3888923863861
 20
218.0704518087911
 30
0.0
 10
251.3888923863861
 20
218.5758169578508
 30
0.0
 10
251.3888923863861
 20
219.0811764705883
 30
0.0
  0
CIRCLE
  5
37B
330
1F
100
AcDbEntity
  8
0
  6
CONTINUOUS
 62
     7
100
AcDbCircle
 10
235.3888923864
 20
219.0811764706
 30
0.0
 40
150.5
  0
CIRCLE
  5
37C
330
1F
100
AcDbEntity
  8
0
  6
CONTINUOUS
 62
     8
100
AcDbCircle
 10
235.3888923864
 20
219.0811764706
 30
0.0
 40
148.75
  0
ENDSEC
  0
SECTION
  2
OBJECTS
  0
DICTIONARY
  5
C
330
0
100
AcDbDictionary
  3
ACAD_GROUP
350
D
  3
ACAD_MLINESTYLE
350
17
  3
ACAD_SCALELIST
350
47
  0
DICTIONARY
  5
D
102
{ACAD_REACTORS
330
C
102
}
330
C
100
AcDbDictionary
  0
DICTIONARY
  5
17
102
{ACAD_REACTORS
330
C
102
}
330
C
100
AcDbDictionary
  3
STANDARD
350
18
  0
DICTIONARY
  5
47
102
{ACAD_REACTORS
330
C
102
}
330
C
100
AcDbDictionary
  0
MLINESTYLE
  5
18
102
{ACAD_REACTORS
330
17
102
}
330
17
100
AcDbMlineStyle
  2
Standard
 70
     0
  3

 62
   256
 51
90.0
 52
90.0
 71
     2
 49
0.5
 62
   256
  6
BYLAYER
 49
-0.5
 62
   256
  6
BYLAYER
  0
ENDSEC
  0
EOF
