  0
SECTION
  2
HEADER
  9
$ACADVER
  1
AC1015
  9
$ACADMAINTVER
 70
     6
  9
$DWGCODEPAGE
  3
ANSI_1252
  9
$INSBASE
 10
0.0
 20
0.0
 30
0.0
  9
$EXTMIN
 10
0.0
 20
0.0
 30
0.0
  9
$EXTMAX
 10
594.0
 20
841.0
 30
0.0
  9
$LIMMIN
 10
0.0
 20
0.0
  9
$LIMMAX
 10
594.0
 20
841.0
  9
$ORTHOMODE
 70
     0
  9
$REGENMODE
 70
     1
  9
$FILLMODE
 70
     1
  9
$QTEXTMODE
 70
     0
  9
$MIRRTEXT
 70
     1
  9
$LTSCALE
 40
1.0
  9
$ATTMODE
 70
     1
  9
$TEXTSIZE
 40
10.0
  9
$TRACEWID
 40
1.0
  9
$TEXTSTYLE
  7
Standard
  9
$CLAYER
  8
0
  9
$CELTYPE
  6
ByLayer
  9
$CECOLOR
 62
   256
  9
$CELTSCALE
 40
1.0
  9
$DISPSILH
 70
     0
  9
$DIMSCALE
 40
1.0
  9
$DIMASZ
 40
2.5
  9
$DIMEXO
 40
0.0
  9
$DIMDLI
 40
3.75
  9
$DIMRND
 40
0.0
  9
$DIMDLE
 40
0.0
  9
$DIMEXE
 40
1.0
  9
$DIMTP
 40
0.0
  9
$DIMTM
 40
0.0
  9
$DIMTXT
 40
3.5
  9
$DIMCEN
 40
2.5
  9
$DIMTSZ
 40
0.0
  9
$DIMTOL
 70
     0
  9
$DIMLIM
 70
     0
  9
$DIMTIH
 70
     1
  9
$DIMTOH
 70
     1
  9
$DIMSE1
 70
     0
  9
$DIMSE2
 70
     0
  9
$DIMTAD
 70
     1
  9
$DIMZIN
 70
     0
  9
$DIMBLK
  1

  9
$DIMASO
 70
     1
  9
$DIMSHO
 70
     1
  9
$DIMPOST
  1

  9
$DIMAPOST
  1

  9
$DIMALT
 70
     0
  9
$DIMALTD
 70
     3
  9
$DIMALTF
 40
0.0393700787
  9
$DIMLFAC
 40
2.0
  9
$DIMTOFL
 70
     1
  9
$DIMTVP
 40
0.0
  9
$DIMTIX
 70
     0
  9
$DIMSOXD
 70
     0
  9
$DIMSAH
 70
     0
  9
$DIMBLK1
  1

  9
$DIMBLK2
  1

  9
$DIMSTYLE
  2
ISO-25
  9
$DIMCLRD
 70
     0
  9
$DIMCLRE
 70
     0
  9
$DIMCLRT
 70
     0
  9
$DIMTFAC
 40
1.0
  9
$DIMGAP
 40
1.5
  9
$DIMJUST
 70
     0
  9
$DIMSD1
 70
     0
  9
$DIMSD2
 70
     0
  9
$DIMTOLJ
 70
     0
  9
$DIMTZIN
 70
     0
  9
$DIMALTZ
 70
     0
  9
$DIMALTTZ
 70
     0
  9
$DIMUPT
 70
     0
  9
$DIMDEC
 70
     2
  9
$DIMTDEC
 70
     2
  9
$DIMALTU
 70
     2
  9
$DIMALTTD
 70
     3
  9
$DIMTXSTY
  7
Standard
  9
$DIMAUNIT
 70
     0
  9
$DIMADEC
 70
     2
  9
$DIMALTRND
 40
0.0
  9
$DIMAZIN
 70
     0
  9
$DIMDSEP
 70
    44
  9
$DIMATFIT
 70
     3
  9
$DIMFRAC
 70
     0
  9
$DIMLDRBLK
  1

  9
$DIMLUNIT
 70
     2
  9
$DIMLWD
 70
    -2
  9
$DIMLWE
 70
    -2
  9
$DIMTMOVE
 70
     0
  9
$LUNITS
 70
     2
  9
$LUPREC
 70
     2
  9
$SKETCHINC
 40
1.0
  9
$FILLETRAD
 40
10.0
  9
$AUNITS
 70
     0
  9
$AUPREC
 70
     2
  9
$MENU
  1
.
  9
$ELEVATION
 40
0.0
  9
$PELEVATION
 40
0.0
  9
$THICKNESS
 40
0.0
  9
$LIMCHECK
 70
     0
  9
$CHAMFERA
 40
0.0
  9
$CHAMFERB
 40
0.0
  9
$CHAMFERC
 40
0.0
  9
$CHAMFERD
 40
0.0
  9
$SKPOLY
 70
     0
  9
$TDCREATE
 40
2459989.397347396
  9
$TDUCREATE
 40
2459989.355680729
  9
$TDUPDATE
 40
2459989.397348171
  9
$TDUUPDATE
 40
2459989.355681505
  9
$TDINDWG
 40
0.0000000116
  9
$TDUSRTIMER
 40
0.0000000116
  9
$USRTIMER
 70
     1
  9
$ANGBASE
 50
0.0
  9
$ANGDIR
 70
     0
  9
$PDMODE
 70
     0
  9
$PDSIZE
 40
-1.0
  9
$PLINEWID
 40
0.0
  9
$SPLFRAME
 70
     0
  9
$SPLINETYPE
 70
     6
  9
$SPLINESEGS
 70
     8
  9
$HANDSEED
  5
11D
  9
$SURFTAB1
 70
     6
  9
$SURFTAB2
 70
     6
  9
$SURFTYPE
 70
     6
  9
$SURFU
 70
     6
  9
$SURFV
 70
     6
  9
$UCSBASE
  2

  9
$UCSNAME
  2

  9
$UCSORG
 10
0.0
 20
0.0
 30
0.0
  9
$UCSXDIR
 10
1.0
 20
0.0
 30
0.0
  9
$UCSYDIR
 10
0.0
 20
1.0
 30
0.0
  9
$UCSORTHOREF
  2

  9
$UCSORTHOVIEW
 70
     0
  9
$UCSORGTOP
 10
0.0
 20
0.0
 30
0.0
  9
$UCSORGBOTTOM
 10
0.0
 20
0.0
 30
0.0
  9
$UCSORGLEFT
 10
0.0
 20
0.0
 30
0.0
  9
$UCSORGRIGHT
 10
0.0
 20
0.0
 30
0.0
  9
$UCSORGFRONT
 10
0.0
 20
0.0
 30
0.0
  9
$UCSORGBACK
 10
0.0
 20
0.0
 30
0.0
  9
$PUCSBASE
  2

  9
$PUCSNAME
  2

  9
$PUCSORG
 10
0.0
 20
0.0
 30
0.0
  9
$PUCSXDIR
 10
1.0
 20
0.0
 30
0.0
  9
$PUCSYDIR
 10
0.0
 20
1.0
 30
0.0
  9
$PUCSORTHOREF
  2

  9
$PUCSORTHOVIEW
 70
     0
  9
$PUCSORGTOP
 10
0.0
 20
0.0
 30
0.0
  9
$PUCSORGBOTTOM
 10
0.0
 20
0.0
 30
0.0
  9
$PUCSORGLEFT
 10
0.0
 20
0.0
 30
0.0
  9
$PUCSORGRIGHT
 10
0.0
 20
0.0
 30
0.0
  9
$PUCSORGFRONT
 10
0.0
 20
0.0
 30
0.0
  9
$PUCSORGBACK
 10
0.0
 20
0.0
 30
0.0
  9
$USERI1
 70
     0
  9
$USERI2
 70
     0
  9
$USERI3
 70
     0
  9
$USERI4
 70
     0
  9
$USERI5
 70
     0
  9
$USERR1
 40
0.0
  9
$USERR2
 40
0.0
  9
$USERR3
 40
0.0
  9
$USERR4
 40
0.0
  9
$USERR5
 40
0.0
  9
$WORLDVIEW
 70
     1
  9
$SHADEDGE
 70
     3
  9
$SHADEDIF
 70
    70
  9
$TILEMODE
 70
     1
  9
$MAXACTVP
 70
    64
  9
$PINSBASE
 10
0.0
 20
0.0
 30
0.0
  9
$PLIMCHECK
 70
     0
  9
$PEXTMIN
 10
1.0000000000E+20
 20
1.0000000000E+20
 30
1.0000000000E+20
  9
$PEXTMAX
 10
-1.0000000000E+20
 20
-1.0000000000E+20
 30
-1.0000000000E+20
  9
$PLIMMIN
 10
0.0
 20
0.0
  9
$PLIMMAX
 10
420.0
 20
297.0
  9
$UNITMODE
 70
     0
  9
$VISRETAIN
 70
     1
  9
$PLINEGEN
 70
     0
  9
$PSLTSCALE
 70
     1
  9
$TREEDEPTH
 70
  3020
  9
$CMLSTYLE
  2
Standard
  9
$CMLJUST
 70
     0
  9
$CMLSCALE
 40
20.0
  9
$PROXYGRAPHICS
 70
     1
  9
$MEASUREMENT
 70
     1
  9
$CELWEIGHT
370
    -1
  9
$ENDCAPS
280
     0
  9
$JOINSTYLE
280
     0
  9
$LWDISPLAY
290
     1
  9
$INSUNITS
 70
     4
  9
$HYPERLINKBASE
  1

  9
$STYLESHEET
  1

  9
$XEDIT
290
     1
  9
$CEPSNTYPE
380
     0
  9
$PSTYLEMODE
290
     1
  9
$FINGERPRINTGUID
  2
{62d68410-6b9c-49c9-865b-b1517d0ac27d}
  9
$VERSIONGUID
  2
{FAEB1C32-E019-11D5-929B-00C0DF256EC4}
  9
$EXTNAMES
290
     1
  9
$PSVPSCALE
 40
0.0
  9
$OLESTARTUP
290
     0
  0
ENDSEC
  0
SECTION
  2
CLASSES
  0
CLASS
  1
ACDBDICTIONARYWDFLT
  2
AcDbDictionaryWithDefault
  3
ObjectDBX Classes
 90
        0
280
     0
281
     0
  0
CLASS
  1
VISUALSTYLE
  2
AcDbVisualStyle
  3
ObjectDBX Classes
 90
     4095
280
     0
281
     0
  0
CLASS
  1
MATERIAL
  2
AcDbMaterial
  3
ObjectDBX Classes
 90
     1153
280
     0
281
     0
  0
CLASS
  1
SCALE
  2
AcDbScale
  3
ObjectDBX Classes
 90
     1153
280
     0
281
     0
  0
CLASS
  1
TABLESTYLE
  2
AcDbTableStyle
  3
ObjectDBX Classes
 90
     4095
280
     0
281
     0
  0
CLASS
  1
MLEADERSTYLE
  2
AcDbMLeaderStyle
  3
ACDB_MLEADERSTYLE_CLASS
 90
     4095
280
     0
281
     0
  0
CLASS
  1
SUN
  2
AcDbSun
  3
SCENEOE
 90
     1153
280
     0
281
     0
  0
CLASS
  1
ACDBPLACEHOLDER
  2
AcDbPlaceHolder
  3
ObjectDBX Classes
 90
        0
280
     0
281
     0
  0
CLASS
  1
LAYOUT
  2
AcDbLayout
  3
ObjectDBX Classes
 90
        0
280
     0
281
     0
  0
ENDSEC
  0
SECTION
  2
TABLES
  0
TABLE
  2
VPORT
  5
8
330
0
100
AcDbSymbolTable
 70
     1
  0
VPORT
  5
29
330
8
100
AcDbSymbolTableRecord
100
AcDbViewportTableRecord
  2
*Active
 70
     0
 10
0.0
 20
0.0
 11
1.0
 21
1.0
 12
297.0
 22
420.5
 13
0.0
 23
0.0
 14
10.0
 24
10.0
 15
10.0
 25
10.0
 16
0.0
 26
0.0
 36
1.0
 17
0.0
 27
0.0
 37
0.0
 40
841.0
 41
0.7063020214
 42
50.0
 43
0.0
 44
0.0
 50
0.0
 51
0.0
 71
     0
 72
  2000
 73
     1
 74
     3
 75
     0
 76
     0
 77
     0
 78
     0
281
     0
 65
     1
110
0.0
120
0.0
130
0.0
111
1.0
121
0.0
131
0.0
112
0.0
122
1.0
132
0.0
 79
     0
146
0.0
  0
ENDTAB
  0
TABLE
  2
LTYPE
  5
5
330
0
100
AcDbSymbolTable
 70
     6
  0
LTYPE
  5
14
330
5
100
AcDbSymbolTableRecord
100
AcDbLinetypeTableRecord
  2
ByBlock
 70
     0
  3

 72
    65
 73
     0
 40
0.0
  0
LTYPE
  5
15
330
5
100
AcDbSymbolTableRecord
100
AcDbLinetypeTableRecord
  2
ByLayer
 70
     0
  3

 72
    65
 73
     0
 40
0.0
  0
LTYPE
  5
16
330
5
100
AcDbSymbolTableRecord
100
AcDbLinetypeTableRecord
  2
Continuous
 70
     0
  3
Solid line
 72
    65
 73
     0
 40
0.0
  0
LTYPE
  5
6E
330
5
100
AcDbSymbolTableRecord
100
AcDbLinetypeTableRecord
  2
HIDDEN
 70
     0
  3
Hidden __ __ __ __ __ __ __ __ __ __ __ __ __ __
 72
    65
 73
     2
 40
1.905
 49
1.27
 74
     0
 49
-0.635
 74
     0
  0
LTYPE
  5
6F
330
5
100
AcDbSymbolTableRecord
100
AcDbLinetypeTableRecord
  2
PHANTOM
 70
     0
  3
Phantom ______  __  __  ______  __  __  ______
 72
    65
 73
     6
 40
12.7
 49
6.35
 74
     0
 49
-1.27
 74
     0
 49
1.27
 74
     0
 49
-1.27
 74
     0
 49
1.27
 74
     0
 49
-1.27
 74
     0
  0
LTYPE
  5
70
330
5
100
AcDbSymbolTableRecord
100
AcDbLinetypeTableRecord
  2
CENTER
 70
     0
  3
Center ____ _ ____ _ ____ _ ____ _ ____ _ ____
 72
    65
 73
     4
 40
10.16
 49
6.35
 74
     0
 49
-1.27
 74
     0
 49
1.27
 74
     0
 49
-1.27
 74
     0
  0
LTYPE
  5
71
330
5
100
AcDbSymbolTableRecord
100
AcDbLinetypeTableRecord
  2
CENTERX2
 70
     0
  3
Center (2x) ________  __  ________  __  _____
 72
    65
 73
     4
 40
20.32
 49
12.7
 74
     0
 49
-2.54
 74
     0
 49
2.54
 74
     0
 49
-2.54
 74
     0
  0
LTYPE
  5
72
330
5
100
AcDbSymbolTableRecord
100
AcDbLinetypeTableRecord
  2
DOT2
 70
     0
  3
Dot (.5x) ........................................
 72
    65
 73
     2
 40
0.635
 49
0.0
 74
     0
 49
-0.635
 74
     0
  0
ENDTAB
  0
TABLE
  2
LAYER
  5
2
330
0
100
AcDbSymbolTable
 70
     1
  0
LAYER
  5
10
330
2
100
AcDbSymbolTableRecord
100
AcDbLayerTableRecord
  2
0
 70
     0
 62
     7
  6
Continuous
370
    -3
390
F
  0
ENDTAB
  0
TABLE
  2
STYLE
  5
3
330
0
100
AcDbSymbolTable
 70
     3
  0
STYLE
  5
11
330
3
100
AcDbSymbolTableRecord
100
AcDbTextStyleTableRecord
  2
Standard
 70
     0
 40
0.0
 41
1.0
 50
0.0
 71
     0
 42
10.0
  3
txt
  4

  0
STYLE
  5
76
330
3
100
AcDbSymbolTableRecord
100
AcDbTextStyleTableRecord
  2
SLDTEXTSTYLE0
 70
     0
 40
0.0
 41
0.96
 50
0.0
 71
     0
 42
10.0
  3
ISOCP3
  4

  0
STYLE
  5
8D
330
3
100
AcDbSymbolTableRecord
100
AcDbTextStyleTableRecord
  2
SLDTEXTSTYLE1
 70
     0
 40
0.0
 41
0.605
 50
0.0
 71
     0
 42
10.0
  3
TXT
  4

  0
ENDTAB
  0
TABLE
  2
VIEW
  5
6
330
0
100
AcDbSymbolTable
 70
     0
  0
ENDTAB
  0
TABLE
  2
UCS
  5
7
330
0
100
AcDbSymbolTable
 70
     0
  0
ENDTAB
  0
TABLE
  2
APPID
  5
9
330
0
100
AcDbSymbolTable
 70
     1
  0
APPID
  5
12
330
9
100
AcDbSymbolTableRecord
100
AcDbRegAppTableRecord
  2
ACAD
 70
     0
  0
ENDTAB
  0
TABLE
  2
DIMSTYLE
  5
A
330
0
100
AcDbSymbolTable
 70
     2
100
AcDbDimStyleTable
  0
DIMSTYLE
105
27
330
A
100
AcDbSymbolTableRecord
100
AcDbDimStyleTableRecord
  2
ISO-25
 70
     0
 41
2.5
 42
0.625
 43
3.75
 44
1.25
 73
     0
 74
     0
 77
     1
 78
     8
140
2.5
141
2.5
143
0.0393700787
147
0.625
171
     3
172
     1
178
     0
271
     2
272
     2
274
     3
278
    44
283
     0
284
     8
340
11
  0
DIMSTYLE
105
77
102
{ACAD_REACTORS
330
75
330
82
102
}
330
A
100
AcDbSymbolTableRecord
100
AcDbDimStyleTableRecord
  2
SLDDIMSTYLE0
 70
     0
 41
2.5
 44
0.0
 45
0.000000001
 73
     0
 74
     0
 77
     1
 78
    12
 79
     3
140
6.0
144
2.0
147
1.5
173
     1
178
     0
271
     2
272
     2
276
     2
284
    12
340
76
  0
ENDTAB
  0
TABLE
  2
BLOCK_RECORD
  5
1
330
0
100
AcDbSymbolTable
 70
     3
  0
BLOCK_RECORD
  5
1F
330
1
100
AcDbSymbolTableRecord
100
AcDbBlockTableRecord
  2
*Model_Space
340
22
  0
BLOCK_RECORD
  5
1B
330
1
100
AcDbSymbolTableRecord
100
AcDbBlockTableRecord
  2
*Paper_Space
340
1E
  0
BLOCK_RECORD
  5
23
330
1
100
AcDbSymbolTableRecord
100
AcDbBlockTableRecord
  2
*Paper_Space0
340
26
  0
BLOCK_RECORD
  5
78
330
1
100
AcDbSymbolTableRecord
100
AcDbBlockTableRecord
  2
_D
340
0
  0
BLOCK_RECORD
  5
83
330
1
100
AcDbSymbolTableRecord
100
AcDbBlockTableRecord
  2
_D_1
340
0
  0
ENDTAB
  0
ENDSEC
  0
SECTION
  2
BLOCKS
  0
BLOCK
  5
20
330
1F
100
AcDbEntity
  8
0
100
AcDbBlockBegin
  2
*Model_Space
 70
     0
 10
0.0
 20
0.0
 30
0.0
  3
*Model_Space
  1

  0
ENDBLK
  5
21
330
1F
100
AcDbEntity
  8
0
100
AcDbBlockEnd
  0
BLOCK
  5
1C
330
1B
100
AcDbEntity
 67
     1
  8
0
100
AcDbBlockBegin
  2
*Paper_Space
 70
     0
 10
0.0
 20
0.0
 30
0.0
  3
*Paper_Space
  1

  0
ENDBLK
  5
1D
330
1B
100
AcDbEntity
 67
     1
  8
0
100
AcDbBlockEnd
  0
BLOCK
  5
24
330
23
100
AcDbEntity
  8
0
100
AcDbBlockBegin
  2
*Paper_Space0
 70
     0
 10
0.0
 20
0.0
 30
0.0
  3
*Paper_Space0
  1

  0
ENDBLK
  5
25
330
23
100
AcDbEntity
  8
0
100
AcDbBlockEnd
  0
BLOCK
  5
79
330
78
100
AcDbEntity
  8
0
100
AcDbBlockBegin
  2
_D
 70
     0
 10
0.0
 20
0.0
 30
0.0
  3
_D
  1

  0
SOLID
  5
7B
330
78
100
AcDbEntity
  8
0
  6
Continuous
 62
     7
370
    18
100
AcDbTrace
 10
42.7614395004
 20
152.0299240879
 30
0.0
 11
42.4614395004
 21
149.5299240879
 31
0.0
 12
43.0614395004
 22
149.5299240879
 32
0.0
 13
43.0614395004
 23
149.5299240879
 33
0.0
  0
SOLID
  5
7C
330
78
100
AcDbEntity
  8
0
  6
Continuous
 62
     7
370
    18
100
AcDbTrace
 10
42.7614395004
 20
52.0299240879
 30
0.0
 11
43.0614395004
 21
54.5299240879
 31
0.0
 12
42.4614395004
 22
54.5299240879
 32
0.0
 13
42.4614395004
 23
54.5299240879
 33
0.0
  0
LINE
  5
7D
330
78
100
AcDbEntity
  8
0
  6
Continuous
 62
     7
370
     0
100
AcDbLine
 10
56.6850079902
 20
152.0299240879
 30
0.0
 11
41.7614395004
 21
152.0299240879
 31
0.0
  0
LINE
  5
7E
330
78
100
AcDbEntity
  8
0
  6
Continuous
 62
     7
370
     0
100
AcDbLine
 10
56.6850079902
 20
52.0299240879
 30
0.0
 11
41.7614395004
 21
52.0299240879
 31
0.0
  0
LINE
  5
7F
330
78
100
AcDbEntity
  8
0
  6
Continuous
 62
     7
370
     0
100
AcDbLine
 10
42.7614395004
 20
152.0299240879
 30
0.0
 11
42.7614395004
 21
52.0299240879
 31
0.0
  0
MTEXT
  5
80
330
78
100
AcDbEntity
  8
0
  6
Continuous
 62
     7
370
    18
100
AcDbMText
 10
35.0270332946
 20
94.3680541463
 30
0.0
 40
6.0
 41
0.0
 71
     1
 72
     1
  1
100
  7
SLDTEXTSTYLE0
 11
-7.044195017643634E-15
 21
1.0
 31
0.0
 73
     1
 44
1.0
  0
MTEXT
  5
81
330
78
100
AcDbEntity
  8
0
  6
Continuous
 62
     7
370
    18
100
AcDbMText
 10
35.0270332946
 20
105.7430548466
 30
0.0
 40
6.0
 41
0.0
 71
     1
 72
     1
  1
mm
  7
SLDTEXTSTYLE0
 11
-7.044195017643634E-15
 21
1.0
 31
0.0
 73
     1
 44
1.0
  0
ENDBLK
  5
7A
330
78
100
AcDbEntity
  8
0
100
AcDbBlockEnd
  0
BLOCK
  5
84
330
83
100
AcDbEntity
  8
0
100
AcDbBlockBegin
  2
_D_1
 70
     0
 10
0.0
 20
0.0
 30
0.0
  3
_D_1
  1

  0
SOLID
  5
86
330
83
100
AcDbEntity
  8
0
  6
Continuous
 62
     7
370
    18
100
AcDbTrace
 10
56.6850079902
 20
38.4602342313
 30
0.0
 11
59.1850079902
 21
38.1602342313
 31
0.0
 12
59.1850079902
 22
38.7602342313
 32
0.0
 13
59.1850079902
 23
38.7602342313
 33
0.0
  0
SOLID
  5
87
330
83
100
AcDbEntity
  8
0
  6
Continuous
 62
     7
370
    18
100
AcDbTrace
 10
156.6850079902
 20
38.4602342313
 30
0.0
 11
154.1850079902
 21
38.7602342313
 31
0.0
 12
154.1850079902
 22
38.1602342313
 32
0.0
 13
154.1850079902
 23
38.1602342313
 33
0.0
  0
LINE
  5
88
330
83
100
AcDbEntity
  8
0
  6
Continuous
 62
     7
370
     0
100
AcDbLine
 10
56.6850079902
 20
52.0299240879
 30
0.0
 11
56.6850079902
 21
37.4602342313
 31
0.0
  0
LINE
  5
89
330
83
100
AcDbEntity
  8
0
  6
Continuous
 62
     7
370
     0
100
AcDbLine
 10
156.6850079902
 20
52.0299240879
 30
0.0
 11
156.6850079902
 21
37.4602342313
 31
0.0
  0
LINE
  5
8A
330
83
100
AcDbEntity
  8
0
  6
Continuous
 62
     7
370
     0
100
AcDbLine
 10
56.6850079902
 20
38.4602342313
 30
0.0
 11
156.6850079902
 21
38.4602342313
 31
0.0
  0
MTEXT
  5
8B
330
83
100
AcDbEntity
  8
0
  6
Continuous
 62
     7
370
    18
100
AcDbMText
 10
93.9626484861
 20
46.1946404371
 30
0.0
 40
6.0
 41
0.0
 71
     1
 72
     1
  1
100
  7
SLDTEXTSTYLE0
 73
     1
 44
1.0
  0
MTEXT
  5
8C
330
83
100
AcDbEntity
  8
0
  6
Continuous
 62
     7
370
    18
100
AcDbMText
 10
105.3376491864
 20
46.1946404371
 30
0.0
 40
6.0
 41
0.0
 71
     1
 72
     1
  1
mm
  7
SLDTEXTSTYLE0
 73
     1
 44
1.0
  0
ENDBLK
  5
85
330
83
100
AcDbEntity
  8
0
100
AcDbBlockEnd
  0
ENDSEC
  0
SECTION
  2
ENTITIES
  0
LINE
  5
73
330
1F
100
AcDbEntity
  8
0
  6
Continuous
 62
     7
370
    18
100
AcDbLine
 10
56.6850079902
 20
152.0299240879
 30
0.0
 11
56.6850079902
 21
52.0299240879
 31
0.0
  0
LINE
  5
74
330
1F
100
AcDbEntity
  8
0
  6
Continuous
 62
     7
370
    18
100
AcDbLine
 10
56.6850079902
 20
52.0299240879
 30
0.0
 11
156.6850079902
 21
52.0299240879
 31
0.0
  0
DIMENSION
  5
75
330
1F
100
AcDbEntity
  8
0
  6
Continuous
 62
     7
370
    18
100
AcDbDimension
  2
_D
 10
42.7614395004
 20
52.0299240879
 30
0.0
 11
42.7614395004
 21
105.4472211621
 31
0.0
 70
   160
  1
<>mm
 71
     2
 42
-1.0
  3
SLDDIMSTYLE0
100
AcDbAlignedDimension
 13
56.6850079902
 23
152.0299240879
 33
0.0
 14
56.6850079902
 24
52.0299240879
 34
0.0
 50
90.0
100
AcDbRotatedDimension
  0
DIMENSION
  5
82
330
1F
100
AcDbEntity
  8
0
  6
Continuous
 62
     7
370
    18
100
AcDbDimension
  2
_D_1
 10
156.6850079902
 20
38.4602342313
 30
0.0
 11
105.0418155019
 21
38.4602342313
 31
0.0
 70
   160
  1
<>mm
 71
     2
 42
-1.0
  3
SLDDIMSTYLE0
100
AcDbAlignedDimension
 13
56.6850079902
 23
52.0299240879
 33
0.0
 14
156.6850079902
 24
52.0299240879
 34
0.0
100
AcDbRotatedDimension
  0
MTEXT
  5
8E
330
1F
100
AcDbEntity
  8
0
  6
Continuous
 62
     7
370
     0
100
AcDbMText
 10
412.8252631579
 20
48.4342449499
 30
0.0
 40
10.0
 41
0.0
 71
     1
 72
     1
  1
KLUDI GmbH & Co KG
  7
SLDTEXTSTYLE1
 73
     1
 44
1.0
  0
MTEXT
  5
8F
330
1F
100
AcDbEntity
  8
0
  6
Continuous
 62
     7
370
     0
100
AcDbMText
 10
210.0873490389
 20
48.4342449499
 30
0.0
 40
10.0
 41
0.0
 71
     1
 72
     1
  1
20 759 .. 15
  7
SLDTEXTSTYLE1
 73
     1
 44
1.0
  0
SPLINE
  5
90
330
1F
100
AcDbEntity
  8
0
  6
Continuous
 62
     7
370
    25
100
AcDbSpline
210
0.0
220
0.0
230
1.0
 70
     8
 71
     3
 72
    20
 73
    16
 74
     0
 42
0.00000001
 43
0.00000001
 40
0.0
 40
0.0
 40
0.0
 40
0.0
 40
0.1249999999999987
 40
0.1249999999999987
 40
0.2499999999999973
 40
0.2499999999999973
 40
0.4999999999999948
 40
0.4999999999999948
 40
0.624999999999996
 40
0.624999999999996
 40
0.7499999999999973
 40
0.7499999999999973
 40
0.8749999999999987
 40
0.8749999999999987
 40
1.0
 40
1.0
 40
1.0
 40
1.0
 10
169.156106717438
 20
342.2985297592569
 30
0.0
 10
169.1561067174453
 20
342.4348343872817
 30
0.0
 10
169.1558786110527
 20
342.5717574588128
 30
0.0
 10
169.1410646415617
 20
342.8495013466002
 30
0.0
 10
169.1265112345816
 20
342.9900713503746
 30
0.0
 10
169.0478949462758
 20
343.4053747987014
 30
0.0
 10
168.9475018777574
 20
343.6705888780857
 30
0.0
 10
168.7034927515051
 20
344.0000077033158
 30
0.0
 10
168.6064633140778
 20
344.0994959865967
 30
0.0
 10
168.3874663730392
 20
344.2763188818428
 30
0.0
 10
168.2658287004828
 20
344.353504141315
 30
0.0
 10
168.0127344030987
 20
344.4855179861982
 30
0.0
 10
167.8816076093259
 20
344.5401972191162
 30
0.0
 10
167.6227706457464
 20
344.6330899729011
 30
0.0
 10
167.4953903069946
 20
344.6711541412751
 30
0.0
 10
167.3704468336853
 20
344.709218204402
 30
0.0
  0
ARC
  5
91
330
1F
100
AcDbEntity
  8
0
  6
Continuous
 62
     7
370
    25
100
AcDbCircle
 10
179.1561067136
 20
269.6240495863
 30
0.0
 40
1.0
100
AcDbArc
 50
269.999999997
 51
359.999999997
  0
LINE
  5
92
330
1F
100
AcDbEntity
  8
0
  6
Continuous
 62
     7
370
    25
100
AcDbLine
 10
179.1561067135
 20
268.6240495863
 30
0.0
 11
170.1561067135
 21
268.6240495868
 31
0.0
  0
SPLINE
  5
93
330
1F
100
AcDbEntity
  8
0
  6
Continuous
 62
     7
370
    25
100
AcDbSpline
210
0.0
220
0.0
230
1.0
 70
     8
 71
     3
 72
    20
 73
    16
 74
     0
 42
0.00000001
 43
0.00000001
 40
0.0
 40
0.0
 40
0.0
 40
0.0
 40
0.1250000000000006
 40
0.1250000000000006
 40
0.2500000000000013
 40
0.2500000000000013
 40
0.3750000000000019
 40
0.3750000000000019
 40
0.5000000000000026
 40
0.5000000000000026
 40
0.7500000000000043
 40
0.7500000000000043
 40
0.8750000000000021
 40
0.8750000000000021
 40
1.0
 40
1.0
 40
1.0
 40
1.0
 10
181.941766601447
 20
344.7092182036274
 30
0.0
 10
181.8168231281336
 20
344.6711541405138
 30
0.0
 10
181.6894427893778
 20
344.6330899721534
 30
0.0
 10
181.4306058257885
 20
344.540197218396
 30
0.0
 10
181.2994790320099
 20
344.4855179854919
 30
0.0
 10
181.0463847346117
 20
344.3535041406357
 30
0.0
 10
180.924747062047
 20
344.2763188811764
 30
0.0
 10
180.7057501209896
 20
344.0994959859535
 30
0.0
 10
180.6087206835518
 20
344.0000077026829
 30
0.0
 10
180.3647115572645
 20
343.6705888774787
 30
0.0
 10
180.2643184887179
 20
343.4053747981052
 30
0.0
 10
180.1857022003679
 20
342.9900713497867
 30
0.0
 10
180.1711487933729
 20
342.8495013460139
 30
0.0
 10
180.1563348238524
 20
342.571757458228
 30
0.0
 10
180.1561067174453
 20
342.434834386697
 30
0.0
 10
180.156106717438
 20
342.2985297586722
 30
0.0
  0
LINE
  5
94
330
1F
100
AcDbEntity
  8
0
  6
Continuous
 62
     7
370
    25
100
AcDbLine
 10
180.1561067174
 20
342.2985297587
 30
0.0
 11
180.1561067136
 21
269.6240495863
 31
0.0
  0
ARC
  5
95
330
1F
100
AcDbEntity
  8
0
  6
Continuous
 62
     7
370
    25
100
AcDbCircle
 10
170.1561067136
 20
269.6240495868
 30
0.0
 40
1.0
100
AcDbArc
 50
179.999999997
 51
269.999999997
  0
LINE
  5
96
330
1F
100
AcDbEntity
  8
0
  6
Continuous
 62
     7
370
    25
100
AcDbLine
 10
169.1561067136
 20
269.6240495869
 30
0.0
 11
169.1561067174
 21
342.2985297593
 31
0.0
  0
ARC
  5
97
330
1F
100
AcDbEntity
  8
0
  6
Continuous
 62
     7
370
    25
100
AcDbCircle
 10
174.6561067188
 20
368.6240495866
 30
0.0
 40
25.00000000000004
100
AcDbArc
 50
286.9433715386
 51
253.0566284553
  0
SPLINE
  5
98
330
1F
100
AcDbEntity
  8
0
  6
Continuous
 62
     7
370
    25
100
AcDbSpline
210
0.0
220
0.0
230
1.0
 70
    11
 71
     3
 72
    96
 73
    92
 74
     0
 42
0.00000001
 43
0.00000001
 40
0.0
 40
0.0
 40
0.0
 40
0.0
 40
0.0312499999999992
 40
0.0312499999999992
 40
0.0468749999999989
 40
0.0468749999999989
 40
0.0624999999999986
 40
0.0624999999999986
 40
0.0937499999999981
 40
0.0937499999999981
 40
0.1093749999999978
 40
0.1093749999999978
 40
0.1249999999999976
 40
0.1249999999999976
 40
0.1562499999999971
 40
0.1562499999999971
 40
0.1718749999999969
 40
0.1718749999999969
 40
0.1874999999999966
 40
0.2031249999999964
 40
0.2031249999999964
 40
0.2187499999999961
 40
0.2187499999999961
 40
0.2499999999999956
 40
0.2499999999999956
 40
0.2656249999999954
 40
0.2656249999999954
 40
0.2812499999999952
 40
0.2812499999999952
 40
0.3124999999999949
 40
0.3124999999999949
 40
0.3281249999999949
 40
0.3281249999999949
 40
0.3437499999999949
 40
0.3437499999999949
 40
0.3749999999999946
 40
0.3749999999999946
 40
0.4062499999999943
 40
0.4062499999999943
 40
0.4218749999999943
 40
0.4218749999999943
 40
0.4374999999999943
 40
0.4374999999999943
 40
0.4687499999999946
 40
0.4687499999999946
 40
0.499999999999995
 40
0.499999999999995
 40
0.5312499999999954
 40
0.5312499999999954
 40
0.5468749999999957
 40
0.5468749999999957
 40
0.562499999999996
 40
0.5781249999999962
 40
0.5781249999999962
 40
0.5937499999999966
 40
0.5937499999999966
 40
0.6249999999999969
 40
0.6249999999999969
 40
0.6406249999999972
 40
0.6406249999999972
 40
0.6562499999999974
 40
0.6562499999999974
 40
0.6874999999999979
 40
0.6874999999999979
 40
0.7031249999999982
 40
0.7031249999999982
 40
0.7187499999999984
 40
0.7187499999999984
 40
0.7499999999999989
 40
0.7499999999999989
 40
0.7656249999999989
 40
0.7656249999999989
 40
0.781249999999999
 40
0.796874999999999
 40
0.796874999999999
 40
0.8124999999999991
 40
0.8124999999999991
 40
0.8437499999999992
 40
0.8437499999999992
 40
0.8749999999999992
 40
0.8749999999999992
 40
0.9062499999999993
 40
0.9062499999999993
 40
0.9218749999999994
 40
0.9218749999999994
 40
0.9374999999999994
 40
0.9531249999999996
 40
0.9531249999999996
 40
0.9687499999999996
 40
0.9687499999999996
 40
1.0
 40
1.0
 40
1.0
 40
1.0
 10
166.5797190864378
 20
444.7006997602427
 30
0.0
 10
167.1132304239536
 20
445.234265258489
 30
0.0
 10
167.690182475195
 20
445.7065654106427
 30
0.0
 10
168.6181073110369
 20
446.3268751540646
 30
0.0
 10
168.9379091687136
 20
446.5188457547651
 30
0.0
 10
169.5989789969384
 20
446.8725128487362
 30
0.0
 10
169.9413690132004
 20
447.0344637215392
 30
0.0
 10
170.978890010516
 20
447.4640127774815
 30
0.0
 10
171.6908048703159
 20
447.6798547338288
 30
0.0
 10
172.7887567623862
 20
447.898778492863
 30
0.0
 10
173.1610845556012
 20
447.9542755545668
 30
0.0
 10
173.9104560546563
 20
448.0281399379111
 30
0.0
 10
174.2840526660659
 20
448.0463050783139
 30
0.0
 10
175.4016771127765
 20
448.0462573806522
 30
0.0
 10
176.1425695262672
 20
447.9740177659161
 30
0.0
 10
177.247472268685
 20
447.7547610691826
 30
0.0
 10
177.6143559765482
 20
447.6628549715093
 30
0.0
 10
178.329776320041
 20
447.4457935012089
 30
0.0
 10
179.0310234566394
 20
447.1947691123668
 30
0.0
 10
179.7043524469038
 20
446.876845133555
 30
0.0
 10
180.3635322806363
 20
446.5250158675109
 30
0.0
 10
180.6876888208235
 20
446.3310100583693
 30
0.0
 10
181.6251467425266
 20
445.7047901608101
 30
0.0
 10
182.2004620317025
 20
445.2321245651937
 30
0.0
 10
182.9909374567346
 20
444.4425564503603
 30
0.0
 10
183.2422593662783
 20
444.1658421263325
 30
0.0
 10
183.719823108243
 20
443.5845408677262
 30
0.0
 10
183.9444622929379
 20
443.2816091823408
 30
0.0
 10
184.5668410674163
 20
442.3503219241096
 30
0.0
 10
184.9178793904673
 20
441.6945055176093
 30
0.0
 10
185.3480812413991
 20
440.6580511414559
 30
0.0
 10
185.4758335945608
 20
440.3016895686173
 30
0.0
 10
185.6937751092267
 20
439.5837536182181
 30
0.0
 10
185.7843959886045
 20
439.2217610227565
 30
0.0
 10
186.002530403126
 20
438.1269271843489
 30
0.0
 10
186.0768401584639
 20
437.3853163337346
 30
0.0
 10
186.0776842480093
 20
435.877736730282
 30
0.0
 10
186.0039253526202
 20
435.1340322015888
 30
0.0
 10
185.78691482713
 20
434.0393384573512
 30
0.0
 10
185.6967176452284
 20
433.6775800021549
 30
0.0
 10
185.4798507845602
 20
432.9604741638993
 30
0.0
 10
185.3524330449781
 20
432.6037226657389
 30
0.0
 10
184.9227329779835
 20
431.5654481229308
 30
0.0
 10
184.5721536929643
 20
430.9092422032903
 30
0.0
 10
183.7443543332903
 20
429.6678955111101
 30
0.0
 10
183.2621713509019
 20
429.079668307555
 30
0.0
 10
182.2085247977201
 20
428.0251696506824
 30
0.0
 10
181.633845515753
 20
427.5522580747057
 30
0.0
 10
180.6985823016279
 20
426.9260554072511
 30
0.0
 10
180.3739992904868
 20
426.7312729358596
 30
0.0
 10
179.7143998251345
 20
426.3783562309525
 30
0.0
 10
179.0409649806349
 20
426.0596135657057
 30
0.0
 10
178.340324073623
 20
425.8080711592611
 30
0.0
 10
177.6259184711359
 20
425.5905282004717
 30
0.0
 10
177.2601214938029
 20
425.4984338227596
 30
0.0
 10
176.1535759053827
 20
425.2776083155808
 30
0.0
 10
175.4123593273191
 20
425.2047381867723
 30
0.0
 10
174.2954138499743
 20
425.2036015707171
 30
0.0
 10
173.922239068533
 20
425.2213814960704
 30
0.0
 10
173.1741210868261
 20
425.2942977044606
 30
0.0
 10
172.8004636233279
 20
425.3495395680138
 30
0.0
 10
171.7011553079863
 20
425.5675856030329
 30
0.0
 10
170.9891452858699
 20
425.7828421073792
 30
0.0
 10
169.9524896681802
 20
426.2107871451664
 30
0.0
 10
169.6103577508216
 20
426.3721219930744
 30
0.0
 10
168.9478879730696
 20
426.7256352738663
 30
0.0
 10
168.6275973334664
 20
426.9174832368851
 30
0.0
 10
167.6987139374812
 20
427.5371369690305
 30
0.0
 10
167.1217999028921
 20
428.0086253881884
 30
0.0
 10
166.3221890550112
 20
428.8065365485885
 30
0.0
 10
166.0693284133662
 20
429.0852827892026
 30
0.0
 10
165.5954674117292
 20
429.6618782425547
 30
0.0
 10
165.1517000447907
 20
430.2593276566679
 30
0.0
 10
164.7675356396034
 20
430.8980800851224
 30
0.0
 10
164.4137467812487
 20
431.55788183075
 30
0.0
 10
164.2514220275798
 20
431.900106281404
 30
0.0
 10
163.8202971901579
 20
432.9386631344899
 30
0.0
 10
163.6039128204997
 20
433.6505884081934
 30
0.0
 10
163.3109691713539
 20
435.1129305918976
 30
0.0
 10
163.2355841905986
 20
435.8698457184796
 30
0.0
 10
163.2343228707221
 20
437.3610976868965
 30
0.0
 10
163.3060131770734
 20
438.1017451262974
 30
0.0
 10
163.523855181459
 20
439.2051228293897
 30
0.0
 10
163.615487065771
 20
439.5726110699511
 30
0.0
 10
163.8321482731997
 20
440.2891218328666
 30
0.0
 10
164.0827420885917
 20
440.991041647524
 30
0.0
 10
164.3999511108429
 20
441.6643170668702
 30
0.0
 10
164.7508056281619
 20
442.3231249958861
 30
0.0
 10
164.9436679133279
 20
442.6462054644039
 30
0.0
 10
165.5705907913173
 20
443.5867465147927
 30
0.0
 10
166.0462077489221
 20
444.1671342619964
 30
0.0
 10
166.5797190864378
 20
444.7006997602427
 30
0.0
  0
ARC
  5
99
330
1F
100
AcDbEntity
  8
0
  6
Continuous
 62
     7
370
    25
100
AcDbCircle
 10
174.6561067194
 20
398.6240495872
 30
0.0
 40
74.50000000000004
100
AcDbArc
 50
274.2337415091
 51
265.7662584864
  0
LINE
  5
9A
330
1F
100
AcDbEntity
  8
0
  6
Continuous
 62
     8
370
    18
100
AcDbLine
 10
167.3704468337
 20
344.7092182044
 30
0.0
 11
167.6618732291
 21
345.6658114597
 31
0.0
  0
SPLINE
  5
9B
330
1F
100
AcDbEntity
  8
0
  6
Continuous
 62
     8
370
    18
100
AcDbSpline
210
0.0
220
0.0
230
1.0
 70
     8
 71
     3
 72
    22
 73
    18
 74
     0
 42
0.00000001
 43
0.00000001
 40
0.0
 40
0.0
 40
0.0
 40
0.0
 40
0.125
 40
0.125
 40
0.25
 40
0.25
 40
0.375
 40
0.375
 40
0.5
 40
0.5
 40
0.625
 40
0.625
 40
0.75
 40
0.75
 40
0.875
 40
0.875
 40
1.0
 40
1.0
 40
1.0
 40
1.0
 10
167.6618732290914
 20
345.6658114596891
 30
0.0
 10
167.8454023548763
 20
345.6098992616007
 30
0.0
 10
168.0286971255414
 20
345.5534536839409
 30
0.0
 10
168.384189774503
 20
345.4153066021096
 30
0.0
 10
168.557019435061
 20
345.3350430001756
 30
0.0
 10
168.8894152305314
 20
345.1443287297027
 30
0.0
 10
169.0498699269225
 20
345.032852214457
 30
0.0
 10
169.340051378053
 20
344.7825856182264
 30
0.0
 10
169.4714619145888
 20
344.6430153630147
 30
0.0
 10
169.7028904210536
 20
344.3311073031107
 30
0.0
 10
169.7983641115868
 20
344.1649541359955
 30
0.0
 10
169.9535899073241
 20
343.8146478403077
 30
0.0
 10
170.0135230781813
 20
343.6287352403197
 30
0.0
 10
170.0990771370249
 20
343.254698668023
 30
0.0
 10
170.1254103434349
 20
343.065458778676
 30
0.0
 10
170.1544209147785
 20
342.6837830343564
 30
0.0
 10
170.1561067174482
 20
342.4911191569021
 30
0.0
 10
170.156106717438
 20
342.2985297592037
 30
0.0
  0
LINE
  5
9C
330
1F
100
AcDbEntity
  8
0
  6
Continuous
 62
     8
370
    18
100
AcDbLine
 10
169.1561067174
 20
342.2985297593
 30
0.0
 11
170.1561067174
 21
342.2985297592
 31
0.0
  0
LINE
  5
9D
330
1F
100
AcDbEntity
  8
0
  6
Continuous
 62
     8
370
    18
100
AcDbLine
 10
179.1561067136
 20
269.6240495863
 30
0.0
 11
180.1561067136
 21
269.6240495863
 31
0.0
  0
LINE
  5
9E
330
1F
100
AcDbEntity
  8
0
  6
Continuous
 62
     8
370
    18
100
AcDbLine
 10
179.1561067136
 20
269.6240495863
 30
0.0
 11
179.1561067135
 21
268.6240495863
 31
0.0
  0
LINE
  5
9F
330
1F
100
AcDbEntity
  8
0
  6
Continuous
 62
     8
370
    18
100
AcDbLine
 10
170.1561067136
 20
269.6240495868
 30
0.0
 11
179.1561067136
 21
269.6240495863
 31
0.0
  0
LINE
  5
A0
330
1F
100
AcDbEntity
  8
0
  6
Continuous
 62
     8
370
    18
100
AcDbLine
 10
170.1561067136
 20
269.6240495868
 30
0.0
 11
170.1561067135
 21
268.6240495868
 31
0.0
  0
SPLINE
  5
A1
330
1F
100
AcDbEntity
  8
0
  6
Continuous
 62
     8
370
    18
100
AcDbSpline
210
0.0
220
0.0
230
1.0
 70
     8
 71
     3
 72
    22
 73
    18
 74
     0
 42
0.00000001
 43
0.00000001
 40
0.0
 40
0.0
 40
0.0
 40
0.0
 40
0.125
 40
0.125
 40
0.25
 40
0.25
 40
0.375
 40
0.375
 40
0.5
 40
0.5
 40
0.625
 40
0.625
 40
0.75
 40
0.75
 40
0.875
 40
0.875
 40
1.0
 40
1.0
 40
1.0
 40
1.0
 10
179.156106717438
 20
342.2985297587253
 30
0.0
 10
179.1561067174482
 20
342.4904328330101
 30
0.0
 10
179.1577623363102
 20
342.6821385700846
 30
0.0
 10
179.1864861266416
 20
343.0625210607032
 30
0.0
 10
179.2125790249898
 20
343.2513140594063
 30
0.0
 10
179.2976195440397
 20
343.6249840230927
 30
0.0
 10
179.357314024405
 20
343.8110259022392
 30
0.0
 10
179.5120523772473
 20
344.1615523503667
 30
0.0
 10
179.6073113861564
 20
344.3279026072598
 30
0.0
 10
179.8382462438746
 20
344.6401228441769
 30
0.0
 10
179.9693937888283
 20
344.779837433792
 30
0.0
 10
180.2592030207068
 20
345.0304971252478
 30
0.0
 10
180.4194405908704
 20
345.1421498046688
 30
0.0
 10
180.7519722012968
 20
345.333441999115
 30
0.0
 10
180.9251503515075
 20
345.414077994743
 30
0.0
 10
181.2818393550214
 20
345.5529126042964
 30
0.0
 10
181.4660610116173
 20
345.6096707522328
 30
0.0
 10
181.6503402061427
 20
345.6658114589455
 30
0.0
  0
LINE
  5
A2
330
1F
100
AcDbEntity
  8
0
  6
Continuous
 62
     8
370
    18
100
AcDbLine
 10
179.1561067136
 20
269.6240495863
 30
0.0
 11
179.1561067174
 21
342.2985297587
 31
0.0
  0
LINE
  5
A3
330
1F
100
AcDbEntity
  8
0
  6
Continuous
 62
     8
370
    18
100
AcDbLine
 10
170.1561067174
 20
342.2985297592
 30
0.0
 11
170.1561067136
 21
269.6240495868
 31
0.0
  0
ARC
  5
A4
330
1F
100
AcDbEntity
  8
0
  6
Continuous
 62
     8
370
    18
100
AcDbCircle
 10
174.6561067188
 20
368.6240495866
 30
0.0
 40
24.00000000000006
100
AcDbArc
 50
286.9433715386
 51
253.0566284553
  0
LINE
  5
A5
330
1F
100
AcDbEntity
  8
0
  6
Continuous
 62
     8
370
    18
100
AcDbLine
 10
180.1561067174
 20
342.2985297587
 30
0.0
 11
179.1561067174
 21
342.2985297587
 31
0.0
  0
LINE
  5
A6
330
1F
100
AcDbEntity
  8
0
  6
Continuous
 62
     8
370
    18
100
AcDbLine
 10
181.9417666014
 20
344.7092182036
 30
0.0
 11
181.6503402061
 21
345.6658114589
 31
0.0
  0
LINE
  5
A7
330
1F
100
AcDbEntity
  8
0
  6
Continuous
 62
     8
370
    18
100
AcDbLine
 10
170.1561067136
 20
269.6240495868
 30
0.0
 11
169.1561067136
 21
269.6240495869
 31
0.0
  0
CIRCLE
  5
A8
330
1F
100
AcDbEntity
  8
0
  6
Continuous
 62
     8
370
    18
100
AcDbCircle
 10
174.6561067194
 20
436.6240495872
 30
0.0
 40
10.77434613606385
  0
CIRCLE
  5
A9
330
1F
100
AcDbEntity
  8
0
  6
Continuous
 62
     8
370
    18
100
AcDbCircle
 10
174.6561067194
 20
436.6240495872
 30
0.0
 40
11.25844862367728
  0
ARC
  5
AA
330
1F
100
AcDbEntity
  8
0
  6
Continuous
 62
     8
370
    18
100
AcDbCircle
 10
174.6561067194
 20
398.6240495872
 30
0.0
 40
73.35275294427508
100
AcDbArc
 50
274.3000814419
 51
265.6999185537
  0
ARC
  5
AB
330
1F
100
AcDbEntity
  8
0
  6
Continuous
 62
     8
370
    18
100
AcDbCircle
 10
174.6561067194
 20
398.6240495872
 30
0.0
 40
74.34193130454278
100
AcDbArc
 50
274.2427599268
 51
265.7572400688
  0
LINE
  5
AC
330
1F
100
AcDbEntity
  8
0
  6
Continuous
 62
     7
370
    25
100
AcDbLine
 10
332.3414786202
 20
324.1240495872
 30
0.0
 11
338.3778785628
 21
324.2821182827
 31
0.0
  0
LINE
  5
AD
330
1F
100
AcDbEntity
  8
0
  6
Continuous
 62
     7
370
    25
100
AcDbLine
 10
338.3778785628
 20
472.9659808918
 30
0.0
 11
332.3414786202
 21
473.1240495872
 31
0.0
  0
ARC
  5
AE
330
1F
100
AcDbEntity
  8
0
  6
Continuous
 62
     7
370
    25
100
AcDbCircle
 10
338.3517016145
 20
471.9663235668
 30
0.0
 40
0.9999999999995874
100
AcDbArc
 50
0.6004114401
 51
88.5
  0
ARC
  5
AF
330
1F
100
AcDbEntity
  8
0
  6
Continuous
 62
     7
370
    25
100
AcDbCircle
 10
338.3517016145
 20
325.2817756076
 30
0.0
 40
0.9999999999995874
100
AcDbArc
 50
271.5
 51
359.3995885599
  0
ARC
  5
B0
330
1F
100
AcDbEntity
  8
0
  6
Continuous
 62
     7
370
    25
100
AcDbCircle
 10
-6660.2640122855
 20
398.6240495872
 30
0.0
 40
7000.0
100
AcDbArc
 50
0.4042418443
 51
0.6004114401
  0
ARC
  5
B1
330
1F
100
AcDbEntity
  8
0
  6
Continuous
 62
     7
370
    25
100
AcDbCircle
 10
-6660.2640122855
 20
398.6240495872
 30
0.0
 40
7000.0
100
AcDbArc
 50
359.9543170787
 51
0.2178430647
  0
ARC
  5
B2
330
1F
100
AcDbEntity
  8
0
  6
Continuous
 62
     7
370
    25
100
AcDbCircle
 10
-6660.2640122855
 20
398.6240495872
 30
0.0
 40
7000.000000000001
100
AcDbArc
 50
359.3995885599
 51
359.5539978349
  0
LINE
  5
B3
330
1F
100
AcDbEntity
  8
0
  6
Continuous
 62
     7
370
    25
100
AcDbLine
 10
395.8077023987
 20
343.6240495866
 30
0.0
 11
403.2201582766
 21
343.6240495866
 31
0.0
  0
LINE
  5
B4
330
1F
100
AcDbEntity
  8
0
  6
Continuous
 62
     7
370
    25
100
AcDbLine
 10
381.5414786202
 20
343.6240495866
 30
0.0
 11
387.8752548417
 21
343.6240495866
 31
0.0
  0
LINE
  5
B5
330
1F
100
AcDbEntity
  8
0
  6
Continuous
 62
     7
370
    25
100
AcDbLine
 10
415.3414786202
 20
393.6240495866
 30
0.0
 11
388.1936738286
 21
393.6240495866
 31
0.0
  0
ARC
  5
B6
330
1F
100
AcDbEntity
  8
0
  6
Continuous
 62
     7
370
    25
100
AcDbCircle
 10
415.3414786202
 20
392.6240495866
 30
0.0
 40
1.0
100
AcDbArc
 50
0.0
 51
90.0
  0
ARC
  5
B7
330
1F
100
AcDbEntity
  8
0
  6
Continuous
 62
     7
370
    25
100
AcDbCircle
 10
388.1936738286
 20
393.4240495866
 30
0.0
 40
0.2000000000000352
100
AcDbArc
 50
105.1093325436
 51
165.0
  0
ARC
  5
B8
330
1F
100
AcDbEntity
  8
0
  6
Continuous
 62
     7
370
    25
100
AcDbCircle
 10
381.5414786202
 20
343.8240495866
 30
0.0
 40
0.2000000000000455
100
AcDbArc
 50
180.0
 51
270.0
  0
LINE
  5
B9
330
1F
100
AcDbEntity
  8
0
  6
Continuous
 62
     7
370
    25
100
AcDbLine
 10
375.3414786202
 20
393.1240495857
 30
0.0
 11
339.7334790931
 21
393.1240495857
 31
0.0
  0
LINE
  5
BA
330
1F
100
AcDbEntity
  8
0
  6
Continuous
 62
     7
370
    25
100
AcDbLine
 10
339.5238707296
 20
344.1240495857
 30
0.0
 11
375.3414786202
 21
344.1240495857
 31
0.0
  0
ARC
  5
BB
330
1F
100
AcDbEntity
  8
0
  6
Continuous
 62
     7
370
    25
100
AcDbCircle
 10
375.3414786202
 20
368.6240495857
 30
0.0
 40
24.5
100
AcDbArc
 50
61.316799955
 51
90.0
  0
ARC
  5
BC
330
1F
100
AcDbEntity
  8
0
  6
Continuous
 62
     7
370
    25
100
AcDbCircle
 10
375.3414786202
 20
368.6240495857
 30
0.0
 40
24.50000000000006
100
AcDbArc
 50
270.0
 51
284.1758035159
  0
LINE
  5
BD
330
1F
100
AcDbEntity
  8
0
  6
Continuous
 62
     7
370
    25
100
AcDbLine
 10
339.6859375632
 20
425.2039817517
 30
0.0
 11
348.9450960078
 21
425.3656009635
 31
0.0
  0
LINE
  5
BE
330
1F
100
AcDbEntity
  8
0
  6
Continuous
 62
     7
370
    25
100
AcDbLine
 10
348.9450960078
 20
447.8824982109
 30
0.0
 11
339.5623197939
 21
448.0462751789
 31
0.0
  0
ARC
  5
BF
330
1F
100
AcDbEntity
  8
0
  6
Continuous
 62
     7
370
    25
100
AcDbCircle
 10
348.9363698046
 20
425.8655248111
 30
0.0
 40
0.5000000000000285
100
AcDbArc
 50
271.0
 51
358.1867030123
  0
ARC
  5
C0
330
1F
100
AcDbEntity
  8
0
  6
Continuous
 62
     7
370
    25
100
AcDbCircle
 10
348.9363698046
 20
447.3825743633
 30
0.0
 40
0.5000000000000268
100
AcDbArc
 50
1.8132969877
 51
89.0
  0
ARC
  5
C1
330
1F
100
AcDbEntity
  8
0
  6
Continuous
 62
     7
370
    25
100
AcDbCircle
 10
9.1066269265
 20
436.6240495872
 30
0.0
 40
340.5000000000001
100
AcDbArc
 50
359.9997861655
 51
1.8132969877
  0
ARC
  5
C2
330
1F
100
AcDbEntity
  8
0
  6
Continuous
 62
     7
370
    25
100
AcDbCircle
 10
9.1066269265
 20
436.6240495872
 30
0.0
 40
340.5000000000001
100
AcDbArc
 50
358.1867030123
 51
359.9997861655
  0
SPLINE
  5
C3
330
1F
100
AcDbEntity
  8
0
  6
Continuous
 62
     7
370
    25
100
AcDbSpline
210
0.0
220
0.0
230
1.0
 70
     8
 71
     3
 72
    22
 73
    18
 74
     0
 42
0.00000001
 43
0.00000001
 40
0.0
 40
0.0
 40
0.0
 40
0.0
 40
0.2127485439903537
 40
0.3128785741464755
 40
0.361792938036034
 40
0.3886239256794469
 40
0.4196659041454735
 40
0.5842409498181166
 40
0.6236477218417699
 40
0.6578359914665103
 40
0.6731719194559768
 40
0.6879945935784516
 40
0.7033419835639474
 40
0.7205225529362649
 40
0.7652197470401931
 40
0.8305032634061265
 40
1.0
 40
1.0
 40
1.0
 40
1.0
 10
403.2201582766345
 20
343.6248523421181
 30
0.0
 10
403.5683283961191
 20
343.6172335510207
 30
0.0
 10
404.0803646643893
 20
343.6060289784743
 30
0.0
 10
404.5963940870905
 20
343.388137062771
 30
0.0
 10
404.8242274485069
 20
343.2137363982856
 30
0.0
 10
404.9392837366678
 20
343.0936455774382
 30
0.0
 10
405.1302183619559
 20
342.8454160902972
 30
0.0
 10
405.2210833350488
 20
342.6109068226388
 30
0.0
 10
405.2895146817587
 20
342.3105151567721
 30
0.0
 10
405.3097201683415
 20
342.1816870057635
 30
0.0
 10
405.3213390976417
 20
342.0798975917319
 30
0.0
 10
405.3278819052211
 20
342.0069226005893
 30
0.0
 10
405.3327243280314
 20
341.9361815312172
 30
0.0
 10
405.3376252862871
 20
341.8387385127223
 30
0.0
 10
405.3403015695159
 20
341.7319694375872
 30
0.0
 10
405.3416493047235
 20
341.59591728495
 30
0.0
 10
405.3414976395696
 20
341.574324929349
 30
0.0
 10
405.3413881467638
 20
341.558736591899
 30
0.0
  0
LINE
  5
C4
330
1F
100
AcDbEntity
  8
0
  6
Continuous
 62
     7
370
    25
100
AcDbLine
 10
387.8606526101
 20
343.6213694824
 30
0.0
 11
388.0600599871
 21
343.0735022167
 31
0.0
  0
LINE
  5
C5
330
1F
100
AcDbEntity
  8
0
  6
Continuous
 62
     7
370
    25
100
AcDbLine
 10
395.6228972533
 20
343.0735022167
 30
0.0
 11
395.8223046303
 21
343.6213694824
 31
0.0
  0
ARC
  5
C6
330
1F
100
AcDbEntity
  8
0
  6
Continuous
 62
     7
370
    25
100
AcDbCircle
 10
395.4349587291
 20
343.1419062453
 30
0.0
 40
0.2000000000000455
100
AcDbArc
 50
270.0
 51
340.0
  0
ARC
  5
C7
330
1F
100
AcDbEntity
  8
0
  6
Continuous
 62
     7
370
    25
100
AcDbCircle
 10
388.2479985113
 20
343.1419062453
 30
0.0
 40
0.2000000000000455
100
AcDbArc
 50
200.0
 51
270.0
  0
LINE
  5
C8
330
1F
100
AcDbEntity
  8
0
  6
Continuous
 62
     7
370
    25
100
AcDbLine
 10
388.2479985113
 20
342.9419062453
 30
0.0
 11
395.4349587291
 21
342.9419062453
 31
0.0
  0
LINE
  5
C9
330
1F
100
AcDbEntity
  8
0
  6
Continuous
 62
     7
370
    25
100
AcDbLine
 10
388.2479985113
 20
342.9419062453
 30
0.0
 11
395.4349587291
 21
342.9419062453
 31
0.0
  0
LINE
  5
CA
330
1F
100
AcDbEntity
  8
0
  6
Continuous
 62
     7
370
    25
100
AcDbLine
 10
332.3414786202
 20
473.1240495872
 30
0.0
 11
332.3414786202
 21
324.1240495872
 31
0.0
  0
SPLINE
  5
CB
330
1F
100
AcDbEntity
  8
0
  6
Continuous
 62
     7
370
    25
100
AcDbSpline
210
0.0
220
0.0
230
1.0
 70
     8
 71
     3
 72
    21
 73
    17
 74
     0
 42
0.00000001
 43
0.00000001
 40
0.0
 40
0.0
 40
0.0
 40
0.0
 40
0.0705704191157694
 40
0.1431873968786451
 40
0.2137578119517528
 40
0.2863747536746573
 40
0.3569455221769942
 40
0.4295628384591707
 40
0.5001337495762547
 40
0.5727512362551852
 40
0.6433218741870222
 40
0.7159390971123523
 40
0.7865091657788407
 40
0.8591258063852627
 40
0.9296952592003787
 40
1.0
 40
1.0
 40
1.0
 40
1.0
 10
339.703071674064
 20
385.9478248694203
 30
0.0
 10
339.6987584407702
 20
384.9414089914624
 30
0.0
 10
339.6900068894092
 20
382.8993909398802
 30
0.0
 10
339.6746525347142
 20
379.3167356062895
 30
0.0
 10
339.6580033910127
 20
375.4319738308156
 30
0.0
 10
339.6406400936679
 20
371.3805878350183
 30
0.0
 10
339.6227926495595
 20
367.2162462260588
 30
0.0
 10
339.6052738061535
 20
363.1285873992177
 30
0.0
 10
339.5882677148491
 20
359.1605785150011
 30
0.0
 10
339.5725612711211
 20
355.495823342847
 30
0.0
 10
339.5583151211048
 20
352.1718029424798
 30
0.0
 10
339.5461945586694
 20
349.3437462387004
 30
0.0
 10
339.5363033013969
 20
347.0358506899375
 30
0.0
 10
339.5291783819158
 20
345.3734179607935
 30
0.0
 10
339.5246467596268
 20
344.3160711635049
 30
0.0
 10
339.5241292915794
 20
344.1953322929361
 30
0.0
 10
339.5238710437342
 20
344.1350762958512
 30
0.0
  0
SPLINE
  5
CC
330
1F
100
AcDbEntity
  8
0
  6
Continuous
 62
     7
370
    25
100
AcDbSpline
210
0.0
220
0.0
230
1.0
 70
     8
 71
     3
 72
    13
 73
     9
 74
     0
 42
0.00000001
 43
0.00000001
 40
0.0
 40
0.0
 40
0.0
 40
0.0
 40
0.0845920240196366
 40
0.3023785269788737
 40
0.5140267913560725
 40
0.7318128245630404
 40
0.8651620828036211
 40
1.0
 40
1.0
 40
1.0
 40
1.0
 10
339.733478995253
 20
393.0428485273929
 30
0.0
 10
339.7335655989664
 20
393.0630560534915
 30
0.0
 10
339.7338751683807
 20
393.1352888915916
 30
0.0
 10
339.7312886864646
 20
392.5317766459265
 30
0.0
 10
339.7258132161738
 20
391.2541680901244
 30
0.0
 10
339.718451043678
 20
389.5363311999459
 30
0.0
 10
339.7106633890456
 20
387.7192172964834
 30
0.0
 10
339.7056115929296
 20
386.5404700167534
 30
0.0
 10
339.703071674064
 20
385.9478248694203
 30
0.0
  0
SPLINE
  5
CD
330
1F
100
AcDbEntity
  8
0
  6
Continuous
 62
     7
370
    25
100
AcDbSpline
210
0.0
220
0.0
230
1.0
 70
     8
 71
     3
 72
    12
 73
     8
 74
     0
 42
0.00000001
 43
0.00000001
 40
0.0
 40
0.0
 40
0.0
 40
0.0
 40
0.2117056343192709
 40
0.4295506919436323
 40
0.6412563457302798
 40
0.8591015769110134
 40
1.0
 40
1.0
 40
1.0
 40
1.0
 10
339.5796798459185
 20
444.7006997602427
 30
0.0
 10
339.5773679159346
 20
445.1265598252644
 30
0.0
 10
339.5726770104349
 20
445.9906298165492
 30
0.0
 10
339.5674189150889
 20
446.9591756062875
 30
0.0
 10
339.5636903481181
 20
447.6459805836514
 30
0.0
 10
339.5617025397999
 20
448.012136262229
 30
0.0
 10
339.5617062826325
 20
448.011446829233
 30
0.0
 10
339.5617077526495
 20
448.0111760508631
 30
0.0
  0
SPLINE
  5
CE
330
1F
100
AcDbEntity
  8
0
  6
Continuous
 62
     7
370
    25
100
AcDbSpline
210
0.0
220
0.0
230
1.0
 70
     8
 71
     3
 72
    21
 73
    17
 74
     0
 42
0.00000001
 43
0.00000001
 40
0.0
 40
0.0
 40
0.0
 40
0.0
 40
0.051488043492315
 40
0.1220631053932507
 40
0.1946848373480445
 40
0.2652601367903185
 40
0.3378820805132581
 40
0.4084581814114724
 40
0.4810809365336253
 40
0.551658051582343
 40
0.6242818621573744
 40
0.6948597596102698
 40
0.7674844071527263
 40
0.8380625123551225
 40
0.9106874115596717
 40
1.0
 40
1.0
 40
1.0
 40
1.0
 10
339.6853367082755
 20
425.2384355483715
 30
0.0
 10
339.6853232279912
 20
425.2409186707359
 30
0.0
 10
339.6852912701761
 20
425.2468054282494
 30
0.0
 10
339.6831904937292
 20
425.6337767190921
 30
0.0
 10
339.6794320109534
 20
426.3261037381092
 30
0.0
 10
339.6739805768079
 20
427.3302782628352
 30
0.0
 10
339.6671693396654
 20
428.584932467367
 30
0.0
 10
339.6590468227772
 20
430.0811274691339
 30
0.0
 10
339.6499948138288
 20
431.7485359811113
 30
0.0
 10
339.6401052343737
 20
433.5702251211214
 30
0.0
 10
339.6298357295457
 20
435.4618948659119
 30
0.0
 10
339.6192944318142
 20
437.4036266602206
 30
0.0
 10
339.6089606518986
 20
439.3071303217756
 30
0.0
 10
339.5989738329886
 20
441.1467203370221
 30
0.0
 10
339.5888588495545
 20
443.0099159808755
 30
0.0
 10
339.5829427327873
 20
444.0996719787546
 30
0.0
 10
339.5796798459185
 20
444.7006997602427
 30
0.0
  0
SPLINE
  5
CF
330
1F
100
AcDbEntity
  8
0
  6
Continuous
 62
     7
370
    25
100
AcDbSpline
210
0.0
220
0.0
230
1.0
 70
     8
 71
     3
 72
     8
 73
     4
 74
     0
 42
0.00000001
 43
0.00000001
 40
0.0
 40
0.0
 40
0.0
 40
0.0
 40
1.0
 40
1.0
 40
1.0
 40
1.0
 10
381.3414786201942
 20
365.9909996361404
 30
0.0
 10
381.3414786201942
 20
367.7458535139726
 30
0.0
 10
381.5685115896953
 20
369.4713481650698
 30
0.0
 10
382.0229620944128
 20
371.1673805381915
 30
0.0
  0
LINE
  5
D0
330
1F
100
AcDbEntity
  8
0
  6
Continuous
 62
     7
370
    25
100
AcDbLine
 10
388.1936738286
 20
393.6240495866
 30
0.0
 11
382.4208721834
 21
371.9059154731
 31
0.0
  0
SPLINE
  5
D1
330
1F
100
AcDbEntity
  8
0
  6
Continuous
 62
     7
370
    25
100
AcDbSpline
210
0.0
220
0.0
230
1.0
 70
     8
 71
     3
 72
     9
 73
     5
 74
     0
 42
0.00000001
 43
0.00000001
 40
0.0
 40
0.0
 40
0.0
 40
0.0
 40
0.8044675624006252
 40
1.0
 40
1.0
 40
1.0
 40
1.0
 10
387.8752548417116
 20
343.6266237423701
 30
0.0
 10
387.9023800709866
 20
343.6314706935065
 30
0.0
 10
387.9360983096611
 20
343.6374957358611
 30
0.0
 10
388.1291549745744
 20
343.6680711093522
 30
0.0
 10
388.1669038148596
 20
343.6740495866615
 30
0.0
  0
SPLINE
  5
D2
330
1F
100
AcDbEntity
  8
0
  6
Continuous
 62
     7
370
    25
100
AcDbSpline
210
0.0
220
0.0
230
1.0
 70
     8
 71
     3
 72
     9
 73
     5
 74
     0
 42
0.00000001
 43
0.00000001
 40
0.0
 40
0.0
 40
0.0
 40
0.0
 40
0.9372674916424774
 40
1.0
 40
1.0
 40
1.0
 40
1.0
 10
395.5160534255288
 20
343.6740495866615
 30
0.0
 10
395.6994562289254
 20
343.6441317236179
 30
0.0
 10
395.8951344158168
 20
343.6122114198513
 30
0.0
 10
395.8128634619996
 20
343.6257729909906
 30
0.0
 10
395.8077023987017
 20
343.6266237423654
 30
0.0
  0
SPLINE
  5
D3
330
1F
100
AcDbEntity
  8
0
  6
Continuous
 62
     7
370
    25
100
AcDbSpline
210
0.0
220
0.0
230
1.0
 70
     8
 71
     3
 72
    30
 73
    26
 74
     0
 42
0.00000001
 43
0.00000001
 40
0.0
 40
0.0
 40
0.0
 40
0.0
 40
0.1250000000000012
 40
0.1250000000000012
 40
0.187499999999996
 40
0.187499999999996
 40
0.2499999999999908
 40
0.2499999999999908
 40
0.3124999999999857
 40
0.3124999999999857
 40
0.3749999999999806
 40
0.3749999999999806
 40
0.4999999999999701
 40
0.4999999999999701
 40
0.5624999999999739
 40
0.5624999999999739
 40
0.6249999999999777
 40
0.6249999999999777
 40
0.6874999999999816
 40
0.6874999999999816
 40
0.7499999999999853
 40
0.7499999999999853
 40
0.8749999999999927
 40
0.8749999999999927
 40
1.0
 40
1.0
 40
1.0
 40
1.0
 10
388.1669038148596
 20
343.6740495866615
 30
0.0
 10
388.3217685283341
 20
343.6968576818457
 30
0.0
 10
388.5244590123828
 20
343.7254283636908
 30
0.0
 10
388.8986395479594
 20
343.7715852876404
 30
0.0
 10
389.0354198879098
 20
343.7875166702948
 30
0.0
 10
389.3241268391885
 20
343.8184763885797
 30
0.0
 10
389.4770478645802
 20
343.8336352119346
 30
0.0
 10
389.8001218980376
 20
343.8623604411467
 30
0.0
 10
389.9718029016407
 20
343.8760235149225
 30
0.0
 10
390.3241568274834
 20
343.9001467277452
 30
0.0
 10
390.5048635244934
 20
343.9106458375414
 30
0.0
 10
391.0603864837504
 20
343.936537667589
 30
0.0
 10
391.4534821086002
 20
343.9461099082553
 30
0.0
 10
392.0341090633441
 20
343.9461313630273
 30
0.0
 10
392.2273994921474
 20
343.9438613013468
 30
0.0
 10
392.6134648318484
 20
343.9348065526942
 30
0.0
 10
392.805556156149
 20
343.9279955626354
 30
0.0
 10
393.1766933498084
 20
343.9107244919529
 30
0.0
 10
393.3573380439168
 20
343.9002332268741
 30
0.0
 10
393.708785356237
 20
343.8761991740116
 30
0.0
 10
393.8807327468876
 20
343.8625369216488
 30
0.0
 10
394.3668363105045
 20
343.8193476181841
 30
0.0
 10
394.6570264405201
 20
343.7872730359235
 30
0.0
 10
395.1582039560862
 20
343.7254788072358
 30
0.0
 10
395.3611899695725
 20
343.6968574966415
 30
0.0
 10
395.5160534255287
 20
343.6740495866615
 30
0.0
  0
LINE
  5
D4
330
1F
100
AcDbEntity
  8
0
  6
Continuous
 62
     7
370
    25
100
AcDbLine
 10
416.3414786202
 20
392.6240495866
 30
0.0
 11
416.3414786202
 21
345.6658114597
 31
0.0
  0
LINE
  5
D5
330
1F
100
AcDbEntity
  8
0
  6
Continuous
 62
     7
370
    25
100
AcDbLine
 10
382.0229620944
 20
371.1673805382
 30
0.0
 11
388.0004886406
 21
393.4758133109
 31
0.0
  0
LINE
  5
D6
330
1F
100
AcDbEntity
  8
0
  6
Continuous
 62
     7
370
    25
100
AcDbLine
 10
381.3414786202
 20
343.8240495866
 30
0.0
 11
381.3414786202
 21
365.9909996361
 31
0.0
  0
SPLINE
  5
D7
330
1F
100
AcDbEntity
  8
0
  6
Continuous
 62
     7
370
    25
100
AcDbSpline
210
0.0
220
0.0
230
1.0
 70
    24
 71
     3
 72
    22
 73
    18
 74
     0
 42
0.00000001
 43
0.00000001
 40
0.0
 40
0.0
 40
0.0
 40
0.0
 40
0.125
 40
0.125
 40
0.25
 40
0.25
 40
0.375
 40
0.375
 40
0.5
 40
0.5
 40
0.625
 40
0.625
 40
0.75
 40
0.75
 40
0.875
 40
0.875
 40
1.0
 40
1.0
 40
1.0
 40
1.0
 10
416.3414786201942
 20
345.6658114596891
 30
0.0
 10
416.3414786201941
 20
345.6098992616007
 30
0.0
 10
416.3414786201943
 20
345.5534536839409
 30
0.0
 10
416.3414786201942
 20
345.4153066021096
 30
0.0
 10
416.3414786201943
 20
345.3350430001756
 30
0.0
 10
416.3414786201944
 20
345.1443287297027
 30
0.0
 10
416.3414786201942
 20
345.032852214457
 30
0.0
 10
416.3414786201942
 20
344.7825856182264
 30
0.0
 10
416.3414786201944
 20
344.6430153630147
 30
0.0
 10
416.3414786201943
 20
344.3311073031107
 30
0.0
 10
416.341478620194
 20
344.1649541359955
 30
0.0
 10
416.341478620194
 20
343.8146478403077
 30
0.0
 10
416.3414786201943
 20
343.6287352403197
 30
0.0
 10
416.3414786201943
 20
343.254698668023
 30
0.0
 10
416.3414786201943
 20
343.065458778676
 30
0.0
 10
416.3414786201943
 20
342.6837830343564
 30
0.0
 10
416.3414786201942
 20
342.4911191569021
 30
0.0
 10
416.3414786201942
 20
342.2985297592037
 30
0.0
  0
LINE
  5
D8
330
1F
100
AcDbEntity
  8
0
  6
Continuous
 62
     7
370
    25
100
AcDbLine
 10
405.3790349347
 20
341.948825477
 30
0.0
 11
405.3414786202
 21
341.8786571392
 31
0.0
  0
LINE
  5
D9
330
1F
100
AcDbEntity
  8
0
  6
Continuous
 62
     7
370
    25
100
AcDbLine
 10
405.3414786202
 20
269.6240495868
 30
0.0
 11
405.3414786202
 21
341.8786571392
 31
0.0
  0
LINE
  5
DA
330
1F
100
AcDbEntity
  8
0
  6
Continuous
 62
     7
370
    25
100
AcDbLine
 10
415.3414786202
 20
268.6240495868
 30
0.0
 11
406.3414786202
 21
268.6240495868
 31
0.0
  0
ARC
  5
DB
330
1F
100
AcDbEntity
  8
0
  6
Continuous
 62
     7
370
    25
100
AcDbCircle
 10
406.3414786202
 20
269.6240495868
 30
0.0
 40
1.0
100
AcDbArc
 50
180.0
 51
270.0
  0
ARC
  5
DC
330
1F
100
AcDbEntity
  8
0
  6
Continuous
 62
     7
370
    25
100
AcDbCircle
 10
415.3414786202
 20
269.6240495868
 30
0.0
 40
1.0
100
AcDbArc
 50
270.0
 51
0.0
  0
LINE
  5
DD
330
1F
100
AcDbEntity
  8
0
  6
Continuous
 62
     7
370
    25
100
AcDbLine
 10
416.3414786202
 20
342.2985297592
 30
0.0
 11
416.3414786202
 21
269.6240495868
 31
0.0
  0
LINE
  5
DE
330
1F
100
AcDbEntity
  8
0
  6
Continuous
 62
     7
370
    25
100
AcDbLine
 10
388.1669038149
 20
343.6740495867
 30
0.0
 11
395.5160534255
 21
343.6740495867
 31
0.0
  0
LINE
  5
DF
330
1F
100
AcDbEntity
  8
0
  6
Continuous
 62
     8
370
    18
100
AcDbLine
 10
339.3516467086
 20
471.9768025315
 30
0.0
 11
339.3516467086
 21
325.2712966429
 31
0.0
  0
SPLINE
  5
E0
330
1F
100
AcDbEntity
  8
0
  6
Continuous
 62
     8
370
    18
100
AcDbSpline
210
0.0
220
0.0
230
1.0
 70
     8
 71
     3
 72
     8
 73
     4
 74
     0
 42
0.00000001
 43
0.00000001
 40
0.0
 40
0.0
 40
0.0
 40
0.0
 40
1.0
 40
1.0
 40
1.0
 40
1.0
 10
382.2161472596706
 20
371.1357100125791
 30
0.0
 10
381.7661163952598
 20
369.4426272999316
 30
0.0
 10
381.5414786201941
 20
367.7205953605857
 30
0.0
 10
381.5414786201941
 20
365.9697653623465
 30
0.0
  0
ARC
  5
E1
330
1F
100
AcDbEntity
  8
0
  6
Continuous
 62
     8
370
    18
100
AcDbCircle
 10
381.4920422382
 20
366.4566278229
 30
0.0
 40
0.4893659278875094
100
AcDbArc
 50
252.0810805787
 51
275.7979844723
  0
ARC
  5
E2
330
1F
100
AcDbEntity
  8
0
  6
Continuous
 62
     8
370
    18
100
AcDbCircle
 10
382.0379180719
 20
370.653574978
 30
0.0
 40
0.5140231852196265
100
AcDbArc
 50
69.7123335666
 51
91.6673087232
  0
SPLINE
  5
E3
330
1F
100
AcDbEntity
  8
0
  6
Continuous
 62
     8
370
    18
100
AcDbSpline
210
0.0
220
0.0
230
1.0
 70
     8
 71
     3
 72
    23
 73
    19
 74
     0
 42
0.00000001
 43
0.00000001
 40
0.0
 40
0.0
 40
0.0
 40
0.0
 40
0.0331867439762039
 40
0.0661401785636328
 40
0.0989640307156731
 40
0.1317632568154783
 40
0.1646430490757128
 40
0.1977078307795258
 40
0.2310602877041237
 40
0.2904092139197617
 40
0.3502512812894728
 40
0.472858296178795
 40
0.601159011045321
 40
0.7300542628984358
 40
0.7971030313761102
 40
0.8642696152263685
 40
0.9320556753949594
 40
0.9999999999999999
 40
0.9999999999999999
 40
0.9999999999999999
 40
0.9999999999999999
 10
403.2201582766318
 20
343.9705739181758
 30
0.0
 10
403.2176567942737
 20
343.9798910652226
 30
0.0
 10
403.2126714154743
 20
343.9984598579255
 30
0.0
 10
403.2168885637219
 20
344.0276547320761
 30
0.0
 10
403.2297559564479
 20
344.0576387480957
 30
0.0
 10
403.2520936143653
 20
344.0884945639626
 30
0.0
 10
403.2836750053069
 20
344.120169837519
 30
0.0
 10
403.3245845750958
 20
344.1526479938051
 30
0.0
 10
403.3875114078367
 20
344.1944078154132
 30
0.0
 10
403.4826097173691
 20
344.2458192802588
 30
0.0
 10
403.6700728975024
 20
344.3274311062118
 30
0.0
 10
403.9788819073165
 20
344.430329883104
 30
0.0
 10
404.4530827412815
 20
344.5429773384225
 30
0.0
 10
404.9264862838854
 20
344.6187837506579
 30
0.0
 10
405.3373513239604
 20
344.6643862034227
 30
0.0
 10
405.664337569949
 20
344.6898141677069
 30
0.0
 10
406.0003111179186
 20
344.7061678278762
 30
0.0
 10
406.2276677519229
 20
344.7082006221333
 30
0.0
 10
406.3414786201942
 20
344.709218204402
 30
0.0
  0
SPLINE
  5
E4
330
1F
100
AcDbEntity
  8
0
  6
Continuous
 62
     8
370
    18
100
AcDbSpline
210
0.0
220
0.0
230
1.0
 70
    24
 71
     3
 72
     8
 73
     4
 74
     0
 42
0.00000001
 43
0.00000001
 40
0.0
 40
0.0
 40
0.0
 40
0.0
 40
1.0
 40
1.0
 40
1.0
 40
1.0
 10
403.2201582766345
 20
343.6240495865775
 30
0.0
 10
403.2201582766345
 20
343.6240495866513
 30
0.0
 10
403.2201582766345
 20
343.740092867493
 30
0.0
 10
403.2201582766345
 20
343.9705739181769
 30
0.0
  0
LINE
  5
E5
330
1F
100
AcDbEntity
  8
0
  6
Continuous
 62
     8
370
    18
100
AcDbLine
 10
406.3414786202
 20
344.7092182044
 30
0.0
 11
415.3414786202
 21
344.7092182044
 31
0.0
  0
LINE
  5
E6
330
1F
100
AcDbEntity
  8
0
  6
Continuous
 62
     8
370
    18
100
AcDbLine
 10
381.5414786202
 20
365.9697653623
 30
0.0
 11
381.5414786202
 21
343.6240495866
 31
0.0
  0
LINE
  5
E7
330
1F
100
AcDbEntity
  8
0
  6
Continuous
 62
     8
370
    18
100
AcDbLine
 10
382.4208721834
 20
371.9059154731
 30
0.0
 11
382.2161472597
 21
371.1357100126
 31
0.0
  0
ARC
  5
E8
330
1F
100
AcDbEntity
  8
0
  6
Continuous
 62
     8
370
    18
100
AcDbCircle
 10
415.3627109562
 20
345.6880072423
 30
0.0
 40
0.9790193015918557
100
AcDbArc
 50
268.7573088469
 51
358.7009105586
  0
LINE
  5
E9
330
1F
100
AcDbEntity
  8
0
  6
Continuous
 62
     8
370
    18
100
AcDbLine
 10
375.3414786202
 20
351.5963224801
 30
0.0
 11
375.3414786202
 21
344.1240495857
 31
0.0
  0
LINE
  5
EA
330
1F
100
AcDbEntity
  8
0
  6
Continuous
 62
     8
370
    18
100
AcDbLine
 10
375.3414786202
 20
393.1240495857
 30
0.0
 11
375.3414786202
 21
351.5963224801
 31
0.0
  0
LINE
  5
EB
330
1F
100
AcDbEntity
  8
0
  6
Continuous
 62
     8
370
    18
100
AcDbLine
 10
349.4361194265
 20
447.3983957233
 30
0.0
 11
349.4361194265
 21
425.8497034512
 31
0.0
  0
LINE
  5
EC
330
1F
100
AcDbEntity
  8
0
  6
Continuous
 62
     8
370
    18
100
AcDbLine
 10
415.3414786202
 20
342.2985297593
 30
0.0
 11
406.3414786202
 21
342.2985297593
 31
0.0
  0
LINE
  5
ED
330
1F
100
AcDbEntity
  8
0
  6
Continuous
 62
     8
370
    18
100
AcDbLine
 10
415.3414786202
 20
342.2985297593
 30
0.0
 11
416.3414786202
 21
342.2985297592
 31
0.0
  0
SPLINE
  5
EE
330
1F
100
AcDbEntity
  8
0
  6
Continuous
 62
     8
370
    18
100
AcDbSpline
210
0.0
220
0.0
230
1.0
 70
     8
 71
     3
 72
    13
 73
     9
 74
     0
 42
0.00000001
 43
0.00000001
 40
0.0
 40
0.0
 40
0.0
 40
0.0
 40
0.1350233127628603
 40
0.2744378409955902
 40
0.4088169855429465
 40
0.5581858358441875
 40
0.8496706339053146
 40
1.0
 40
1.0
 40
1.0
 40
1.0
 10
406.3414786201942
 20
342.2985297592569
 30
0.0
 10
406.2772155596102
 20
342.2967108510734
 30
0.0
 10
406.1465994812339
 20
342.2930138803457
 30
0.0
 10
405.9611418168895
 20
342.2647560667701
 30
0.0
 10
405.7859953731056
 20
342.2206475231206
 30
0.0
 10
405.5835765795379
 20
342.1439233092394
 30
0.0
 10
405.416022585376
 20
342.0454226573739
 30
0.0
 10
405.388425107513
 20
341.9733489111853
 30
0.0
 10
405.3790349346993
 20
341.9488254770005
 30
0.0
  0
LINE
  5
EF
330
1F
100
AcDbEntity
  8
0
  6
Continuous
 62
     8
370
    18
100
AcDbLine
 10
388.0600599871
 20
343.0735022167
 30
0.0
 11
395.6228972533
 21
343.0735022167
 31
0.0
  0
LINE
  5
F0
330
1F
100
AcDbEntity
  8
0
  6
Continuous
 62
     7
370
    25
100
AcDbLine
 10
100.1561067194
 20
201.3729752066
 30
0.0
 11
100.3141754148
 21
195.336575264
 31
0.0
  0
LINE
  5
F1
330
1F
100
AcDbEntity
  8
0
  6
Continuous
 62
     7
370
    25
100
AcDbLine
 10
248.9980380239
 20
195.336575264
 30
0.0
 11
249.1561067194
 21
201.3729752066
 31
0.0
  0
ARC
  5
F2
330
1F
100
AcDbEntity
  8
0
  6
Continuous
 62
     7
370
    25
100
AcDbCircle
 10
247.9983806989
 20
195.3627522123
 30
0.0
 40
0.9999999999996076
100
AcDbArc
 50
270.6004114401
 51
358.5
  0
ARC
  5
F3
330
1F
100
AcDbEntity
  8
0
  6
Continuous
 62
     7
370
    25
100
AcDbCircle
 10
101.3138327398
 20
195.3627522123
 30
0.0
 40
0.9999999999996076
100
AcDbArc
 50
181.5
 51
269.3995885599
  0
ARC
  5
F4
330
1F
100
AcDbEntity
  8
0
  6
Continuous
 62
     7
370
    25
100
AcDbCircle
 10
174.6561067194
 20
7193.9784661123
 30
0.0
 40
7000.0
100
AcDbArc
 50
269.3995885599
 51
269.9065312516
  0
ARC
  5
F5
330
1F
100
AcDbEntity
  8
0
  6
Continuous
 62
     7
370
    25
100
AcDbCircle
 10
174.6561067194
 20
7193.9784661123
 30
0.0
 40
7000.0
100
AcDbArc
 50
270.0934687484
 51
270.6004114401
  0
LINE
  5
F6
330
1F
100
AcDbEntity
  8
0
  6
Continuous
 62
     7
370
    25
100
AcDbLine
 10
163.234961593
 20
194.0902342161
 30
0.0
 11
163.3976580957
 21
184.769357819
 31
0.0
  0
LINE
  5
F7
330
1F
100
AcDbEntity
  8
0
  6
Continuous
 62
     7
370
    25
100
AcDbLine
 10
185.914555343
 20
184.769357819
 30
0.0
 11
186.0772624154
 21
194.090839753
 31
0.0
  0
ARC
  5
F8
330
1F
100
AcDbEntity
  8
0
  6
Continuous
 62
     7
370
    25
100
AcDbCircle
 10
163.8975819433
 20
184.7780840222
 30
0.0
 40
0.5000000000000063
100
AcDbArc
 50
181.0
 51
268.1867030124
  0
ARC
  5
F9
330
1F
100
AcDbEntity
  8
0
  6
Continuous
 62
     7
370
    25
100
AcDbCircle
 10
185.4146314955
 20
184.7780840222
 30
0.0
 40
0.4999999999999983
100
AcDbArc
 50
271.8132969877
 51
359.0
  0
ARC
  5
FA
330
1F
100
AcDbEntity
  8
0
  6
Continuous
 62
     7
370
    25
100
AcDbCircle
 10
174.6561067194
 20
524.6078269003
 30
0.0
 40
340.5
100
AcDbArc
 50
268.1867030123
 51
270.0
  0
ARC
  5
FB
330
1F
100
AcDbEntity
  8
0
  6
Continuous
 62
     7
370
    25
100
AcDbCircle
 10
174.6561067194
 20
524.6078269003
 30
0.0
 40
340.5
100
AcDbArc
 50
270.0
 51
271.8132969877
  0
LINE
  5
FC
330
1F
100
AcDbEntity
  8
0
  6
Continuous
 62
     7
370
    25
100
AcDbLine
 10
149.6561067188
 20
151.9961862382
 30
0.0
 11
149.6561067188
 21
118.3729752066
 31
0.0
  0
LINE
  5
FD
330
1F
100
AcDbEntity
  8
0
  6
Continuous
 62
     7
370
    25
100
AcDbLine
 10
199.6561067188
 20
118.3729752066
 30
0.0
 11
199.6561067188
 21
151.9915586201
 31
0.0
  0
ARC
  5
FE
330
1F
100
AcDbEntity
  8
0
  6
Continuous
 62
     7
370
    25
100
AcDbCircle
 10
198.6561067188
 20
118.3729752066
 30
0.0
 40
1.0
100
AcDbArc
 50
270.0
 51
0.0
  0
ARC
  5
FF
330
1F
100
AcDbEntity
  8
0
  6
Continuous
 62
     7
370
    25
100
AcDbCircle
 10
150.6561067188
 20
118.3729752066
 30
0.0
 40
1.0
100
AcDbArc
 50
180.0
 51
270.0
  0
LINE
  5
100
330
1F
100
AcDbEntity
  8
0
  6
Continuous
 62
     7
370
    25
100
AcDbLine
 10
199.1561067194
 20
158.3729752066
 30
0.0
 11
199.1561067194
 21
194.0213412436
 31
0.0
  0
LINE
  5
101
330
1F
100
AcDbEntity
  8
0
  6
Continuous
 62
     7
370
    25
100
AcDbLine
 10
150.1561067194
 20
194.0213412436
 30
0.0
 11
150.1561067194
 21
158.3729752066
 31
0.0
  0
ARC
  5
102
330
1F
100
AcDbEntity
  8
0
  6
Continuous
 62
     7
370
    25
100
AcDbCircle
 10
174.6561067194
 20
158.3729752066
 30
0.0
 40
24.5
100
AcDbArc
 50
180.0
 51
194.6058907998
  0
ARC
  5
103
330
1F
100
AcDbEntity
  8
0
  6
Continuous
 62
     7
370
    25
100
AcDbCircle
 10
174.6561067194
 20
158.3729752066
 30
0.0
 40
24.50000000000003
100
AcDbArc
 50
345.3843865916
 51
0.0
  0
SPLINE
  5
104
330
1F
100
AcDbEntity
  8
0
  6
Continuous
 62
     7
370
    25
100
AcDbSpline
210
0.0
220
0.0
230
1.0
 70
     8
 71
     3
 72
    10
 73
     6
 74
     0
 42
0.00000001
 43
0.00000001
 40
0.0
 40
0.0
 40
0.0
 40
0.0
 40
0.4295483458479402
 40
0.9053692294768669
 40
1.0
 40
1.0
 40
1.0
 40
1.0
 10
149.9958678239836
 20
152.3634715523293
 30
0.0
 10
149.912178455123
 20
152.3498021086226
 30
0.0
 10
149.7357843888132
 20
152.3209906981361
 30
0.0
 10
149.6514283490901
 20
152.1176140449376
 30
0.0
 10
149.6623583211705
 20
152.0208749335812
 30
0.0
 10
149.6641714663727
 20
152.0048271290378
 30
0.0
  0
LINE
  5
105
330
1F
100
AcDbEntity
  8
0
  6
Continuous
 62
     7
370
    25
100
AcDbLine
 10
249.1561067194
 20
201.3729752066
 30
0.0
 11
100.1561067194
 21
201.3729752066
 31
0.0
  0
SPLINE
  5
106
330
1F
100
AcDbEntity
  8
0
  6
Continuous
 62
     7
370
    25
100
AcDbSpline
210
0.0
220
0.0
230
1.0
 70
     8
 71
     3
 72
    21
 73
    17
 74
     0
 42
0.00000001
 43
0.00000001
 40
0.0
 40
0.0
 40
0.0
 40
0.0
 40
0.0715865414363905
 40
0.1431730781936879
 40
0.2147596505472874
 40
0.2863462202719794
 40
0.3579321955881608
 40
0.4295181714779262
 40
0.501103894166275
 40
0.5726896203791252
 40
0.6442757732590145
 40
0.7158619310696257
 40
0.787449008421849
 40
0.8590360899501956
 40
0.9306241809084957
 40
1.0
 40
1.0
 40
1.0
 40
1.0
 10
166.5797190864378
 20
194.1347739808872
 30
0.0
 10
167.056321057546
 20
194.1371159975706
 30
0.0
 10
168.0095249686103
 20
194.1418000307843
 30
0.0
 10
169.6868303571185
 20
194.1470715145017
 30
0.0
 10
171.4913069125502
 20
194.1508077858024
 30
0.0
 10
173.3882710012502
 20
194.1528549718566
 30
0.0
 10
175.3207560543259
 20
194.1531147365091
 30
0.0
 10
177.2350753159598
 20
194.1516439876966
 30
0.0
 10
179.074597964047
 20
194.1484148569387
 30
0.0
 10
180.7912665479467
 20
194.1435875259337
 30
0.0
 10
182.3303200200752
 20
194.1372347919299
 30
0.0
 10
183.655534052107
 20
194.1295947582925
 30
0.0
 10
184.7218632090053
 20
194.1208346904199
 30
0.0
 10
185.501498826494
 20
194.1112430954706
 30
0.0
 10
185.9874407136535
 20
194.1011684936278
 30
0.0
 10
186.0443600073077
 20
194.0943036510721
 30
0.0
 10
186.0723730116148
 20
194.0909250978305
 30
0.0
  0
SPLINE
  5
107
330
1F
100
AcDbEntity
  8
0
  6
Continuous
 62
     7
370
    25
100
AcDbSpline
210
0.0
220
0.0
230
1.0
 70
     8
 71
     3
 72
    12
 73
     8
 74
     0
 42
0.00000001
 43
0.00000001
 40
0.0
 40
0.0
 40
0.0
 40
0.0
 40
0.087620407281055
 40
0.3024279312382816
 40
0.5172361502671938
 40
0.732044358496954
 40
1.0
 40
1.0
 40
1.0
 40
1.0
 10
163.2748488545802
 20
194.0909304508606
 30
0.0
 10
163.265427977562
 20
194.0923515041204
 30
0.0
 10
163.2329111651494
 20
194.0972563683054
 30
0.0
 10
163.5130492192785
 20
194.1055917517278
 30
0.0
 10
164.1157877740231
 20
194.1155223886508
 30
0.0
 10
165.0874572927793
 20
194.1256343396916
 30
0.0
 10
166.0470834337362
 20
194.1315117525206
 30
0.0
 10
166.5797190864378
 20
194.1347739808872
 30
0.0
  0
SPLINE
  5
108
330
1F
100
AcDbEntity
  8
0
  6
Continuous
 62
     7
370
    25
100
AcDbSpline
210
0.0
220
0.0
230
1.0
 70
     8
 71
     3
 72
     8
 73
     4
 74
     0
 42
0.00000001
 43
0.00000001
 40
0.0
 40
0.0
 40
0.0
 40
0.0
 40
1.0
 40
1.0
 40
1.0
 40
1.0
 10
199.514802888246
 20
152.1729752066115
 30
0.0
 10
199.7017475460245
 20
152.1729752066115
 30
0.0
 10
199.7005809184192
 20
151.9483374315459
 30
0.0
 10
199.529617969116
 20
151.4983065671351
 30
0.0
  0
LINE
  5
109
330
1F
100
AcDbEntity
  8
0
  6
Continuous
 62
     7
370
    25
100
AcDbLine
 10
198.6561067188
 20
117.3729752066
 30
0.0
 11
150.6561067188
 21
117.3729752066
 31
0.0
  0
LWPOLYLINE
  5
10A
330
1F
100
AcDbEntity
  8
0
  6
Continuous
 62
     7
370
    25
100
AcDbPolyline
 90
       27
 70
   128
 43
0.0
 10
151.2223864375
 20
151.6914917324
 10
151.8050032154
 20
151.0485815645
 10
152.6501318879
 20
150.4255032117
 10
153.7480636753
 20
149.829414555
 10
155.0861856132
 20
149.2671634195
 10
156.6491254495
 20
148.7452089075
 10
158.4189282397
 20
148.2695471961
 10
160.3752626117
 20
147.8456426541
 10
162.4956543319
 20
147.4783650677
 10
164.755744487
 20
147.1719336962
 10
167.1295693178
 20
146.929868802
 10
169.589858489
 20
146.7549512099
 10
172.108348369
 20
146.6491903611
 10
174.6561067205
 20
146.6138012289
 10
177.203865072
 20
146.6491903611
 10
179.722354952
 20
146.7549512099
 10
182.1826441231
 20
146.929868802
 10
184.5564689538
 20
147.1719336962
 10
186.8165591088
 20
147.4783650677
 10
188.9369508288
 20
147.8456426541
 10
190.8932852007
 20
148.2695471961
 10
192.6630879906
 20
148.7452089075
 10
194.2260278268
 20
149.2671634195
 10
195.5641497645
 20
149.829414555
 10
196.6620815516
 20
150.4255032117
 10
197.5072102239
 20
151.0485815645
 10
198.0898270015
 20
151.6914917324
  0
SPLINE
  5
10B
330
1F
100
AcDbEntity
  8
0
  6
Continuous
 62
     7
370
    25
100
AcDbSpline
210
0.0
220
0.0
230
1.0
 70
     8
 71
     3
 72
     9
 73
     5
 74
     0
 42
0.00000001
 43
0.00000001
 40
0.0
 40
0.0
 40
0.0
 40
0.0
 40
0.9856180839933493
 40
0.9999999999999999
 40
0.9999999999999999
 40
0.9999999999999999
 40
0.9999999999999999
 10
151.2223864374693
 20
151.6914917323929
 30
0.0
 10
151.0699448554734
 20
151.9135284639545
 30
0.0
 10
150.9152788804151
 20
152.1388051052494
 30
0.0
 10
150.9489214000183
 20
152.1961298223665
 30
0.0
 10
150.9494052439095
 20
152.1969542616332
 30
0.0
  0
LINE
  5
10C
330
1F
100
AcDbEntity
  8
0
  6
Continuous
 62
     7
370
    25
100
AcDbLine
 10
198.3598093866
 20
152.1931511118
 30
0.0
 11
198.0898270015
 21
151.6914917324
 31
0.0
  0
ARC
  5
10D
330
1F
100
AcDbEntity
  8
0
  6
Continuous
 62
     7
370
    25
100
AcDbCircle
 10
199.3153664971
 20
152.1735388246
 30
0.0
 40
0.1994371875049042
100
AcDbArc
 50
359.8380794728
 51
89.8371590686
  0
LINE
  5
10E
330
1F
100
AcDbEntity
  8
0
  6
Continuous
 62
     7
370
    25
100
AcDbLine
 10
149.9962801185
 20
152.3729752066
 30
0.0
 11
150.9021596789
 21
152.3729752066
 31
0.0
  0
LINE
  5
10F
330
1F
100
AcDbEntity
  8
0
  6
Continuous
 62
     7
370
    25
100
AcDbLine
 10
198.4100537598
 20
152.3729752066
 30
0.0
 11
199.3159333189
 21
152.3729752066
 31
0.0
  0
LINE
  5
110
330
1F
100
AcDbEntity
  8
0
  6
Continuous
 62
     8
370
    18
100
AcDbLine
 10
248.0088596636
 20
194.3628071182
 30
0.0
 11
101.3033537751
 21
194.3628071182
 31
0.0
  0
LINE
  5
111
330
1F
100
AcDbEntity
  8
0
  6
Continuous
 62
     8
370
    18
100
AcDbLine
 10
185.4304528554
 20
184.2783344003
 30
0.0
 11
163.8817605833
 21
184.2783344003
 31
0.0
  0
LINE
  5
112
330
1F
100
AcDbEntity
  8
0
  6
Continuous
 62
     8
370
    18
100
AcDbLine
 10
149.7825954688
 20
151.4983065671
 30
0.0
 11
149.6568282338
 21
151.9961862382
 31
0.0
  0
ELLIPSE
  5
113
330
1F
100
AcDbEntity
  8
0
  6
Continuous
 62
     8
370
    25
100
AcDbEllipse
 10
174.6561067188
 20
152.1659199705
 30
0.0
 11
25.0
 21
-3.800835202127927E-10
 31
0.0
210
0.0
220
0.0
230
1.0
 40
0.2658055989
 41
3.24222885257855
 42
6.182549108305326
  0
ARC
  5
114
330
1F
100
AcDbEntity
  8
0
  6
Continuous
 62
     8
370
    18
100
AcDbCircle
 10
149.984729307
 20
151.4891762472
 30
0.0
 40
0.2023399399272332
100
AcDbArc
 50
90.8908046377
 51
177.4137261781
  0
ELLIPSE
  5
115
330
1F
100
AcDbEntity
  8
0
  6
Continuous
 62
     8
370
    18
100
AcDbEllipse
 10
174.6561067188
 20
152.3591051358
 30
0.0
 11
24.79999999999998
 21
-3.805666892731096E-10
 31
0.0
210
0.0
220
0.0
230
1.0
 40
0.2679491924
 41
3.242228852578624
 42
6.182549108305401
  0
ARC
  5
116
330
1F
100
AcDbEntity
  8
0
  6
Continuous
 62
     8
370
    18
100
AcDbCircle
 10
199.3274841309
 20
151.4891762472
 30
0.0
 40
0.2023399399214596
100
AcDbArc
 50
2.5862738203
 51
89.1091953629
  0
LINE
  5
117
330
1F
100
AcDbEntity
  8
0
  6
Continuous
 62
     8
370
    18
100
AcDbLine
 10
199.3306298791
 20
151.6914917324
 30
0.0
 11
198.0898270015
 21
151.6914917324
 31
0.0
  0
LINE
  5
118
330
1F
100
AcDbEntity
  8
0
  6
Continuous
 62
     8
370
    18
100
AcDbLine
 10
151.2223864375
 20
151.6914917324
 30
0.0
 11
149.9815835588
 21
151.6914917324
 31
0.0
  0
LINE
  5
119
330
1F
100
AcDbEntity
  8
0
  6
Continuous
 62
     8
370
    18
100
AcDbLine
 10
199.1561067194
 20
158.3729752066
 30
0.0
 11
150.1561067194
 21
158.3729752066
 31
0.0
  0
SPLINE
  5
11A
330
1F
100
AcDbEntity
  8
0
  6
Continuous
 62
     8
370
    18
100
AcDbSpline
210
0.0
220
0.0
230
1.0
 70
     8
 71
     3
 72
     8
 73
     4
 74
     0
 42
0.00000001
 43
0.00000001
 40
0.0
 40
0.0
 40
0.0
 40
0.0
 40
1.0
 40
1.0
 40
1.0
 40
1.0
 10
149.9962801185041
 20
152.3729752066115
 30
0.0
 10
149.8107795547327
 20
152.3729752066115
 30
0.0
 10
149.8120353685271
 20
152.1459422371104
 30
0.0
 10
149.9815835588285
 20
151.6914917323929
 30
0.0
  0
SPLINE
  5
11B
330
1F
100
AcDbEntity
  8
0
  6
Continuous
 62
     8
370
    18
100
AcDbSpline
210
0.0
220
0.0
230
1.0
 70
     8
 71
     3
 72
     8
 73
     4
 74
     0
 42
0.00000001
 43
0.00000001
 40
0.0
 40
0.0
 40
0.0
 40
0.0
 40
1.0
 40
1.0
 40
1.0
 40
1.0
 10
199.3306298791166
 20
151.6914917323929
 30
0.0
 10
199.5001780692377
 20
152.1459422371103
 30
0.0
 10
199.5014338828487
 20
152.3729752066115
 30
0.0
 10
199.3159333188907
 20
152.3729752066115
 30
0.0
  0
ENDSEC
  0
SECTION
  2
OBJECTS
  0
DICTIONARY
  5
C
330
0
100
AcDbDictionary
281
     1
  3
ACAD_GROUP
350
D
  3
ACAD_LAYOUT
350
1A
  3
ACAD_MLINESTYLE
350
17
  3
ACAD_PLOTSETTINGS
350
19
  3
ACAD_PLOTSTYLENAME
350
E
  3
ACAD_SCALELIST
350
47
  3
DWGPROPS
350
11C
  0
DICTIONARY
  5
D
102
{ACAD_REACTORS
330
C
102
}
330
C
100
AcDbDictionary
281
     1
  0
DICTIONARY
  5
1A
102
{ACAD_REACTORS
330
C
102
}
330
C
100
AcDbDictionary
281
     1
  3
Layout1
350
1E
  3
Layout2
350
26
  3
Model
350
22
  0
DICTIONARY
  5
17
102
{ACAD_REACTORS
330
C
102
}
330
C
100
AcDbDictionary
281
     1
  3
Standard
350
18
  0
DICTIONARY
  5
19
102
{ACAD_REACTORS
330
C
102
}
330
C
100
AcDbDictionary
281
     1
  0
ACDBDICTIONARYWDFLT
  5
E
102
{ACAD_REACTORS
330
C
102
}
330
C
100
AcDbDictionary
281
     1
  3
Normal
350
F
100
AcDbDictionaryWithDefault
340
F
  0
DICTIONARY
  5
47
102
{ACAD_REACTORS
330
C
102
}
330
C
100
AcDbDictionary
281
     1
  3
A0
350
48
  3
A1
350
49
  3
A2
350
4A
  3
A3
350
4B
  3
A4
350
4C
  3
A5
350
4D
  3
A6
350
4E
  3
A7
350
4F
  3
A8
350
50
  3
A9
350
51
  3
B0
350
52
  3
B1
350
53
  3
B2
350
54
  3
B3
350
55
  3
B4
350
56
  3
B5
350
57
  3
B6
350
58
  3
B7
350
59
  3
B8
350
5A
  3
B9
350
5B
  3
C0
350
5C
  3
C1
350
5D
  3
C2
350
5E
  3
C3
350
5F
  3
C4
350
60
  3
C5
350
61
  3
C6
350
62
  3
C7
350
63
  3
C8
350
64
  3
C9
350
65
  3
D0
350
66
  3
D1
350
67
  3
D2
350
68
  0
XRECORD
  5
11C
102
{ACAD_REACTORS
330
C
102
}
330
C
100
AcDbXrecord
280
     1
  1
DWGPROPS COOKIE
  2

  3

  4

  6

  7

  8
estudent
  9

300
=
301
=
302
=
303
=
304
=
305
=
306
=
307
=
308
=
309
=
 40
0.0
 41
2459989.355680729
 42
2459989.355681505
  1

 90
        0
  0
LAYOUT
  5
1E
102
{ACAD_REACTORS
330
1A
102
}
330
1A
100
AcDbPlotSettings
  1

  2
none_device
  4

  6

 40
0.0
 41
0.0
 42
0.0
 43
0.0
 44
0.0
 45
0.0
 46
0.0
 47
0.0
 48
0.0
 49
0.0
140
0.0
141
0.0
142
1.0
143
1.0
 70
   688
 72
     1
 73
     0
 74
     5
  7

 75
    16
147
1.0
148
0.0
149
0.0
100
AcDbLayout
  1
Layout1
 70
     1
 71
     1
 10
0.0
 20
0.0
 11
420.0
 21
297.0
 12
0.0
 22
0.0
 32
0.0
 14
1.0000000000E+20
 24
1.0000000000E+20
 34
1.0000000000E+20
 15
-1.0000000000E+20
 25
-1.0000000000E+20
 35
-1.0000000000E+20
146
0.0
 13
0.0
 23
0.0
 33
0.0
 16
1.0
 26
0.0
 36
0.0
 17
0.0
 27
1.0
 37
0.0
 76
     0
330
1B
  0
LAYOUT
  5
26
102
{ACAD_REACTORS
330
1A
102
}
330
1A
100
AcDbPlotSettings
  1

  2
none_device
  4

  6

 40
0.0
 41
0.0
 42
0.0
 43
0.0
 44
0.0
 45
0.0
 46
0.0
 47
0.0
 48
0.0
 49
0.0
140
0.0
141
0.0
142
1.0
143
1.0
 70
   688
 72
     1
 73
     0
 74
     5
  7

 75
    16
147
1.0
148
0.0
149
0.0
100
AcDbLayout
  1
Layout2
 70
     1
 71
     2
 10
0.0
 20
0.0
 11
0.0
 21
0.0
 12
0.0
 22
0.0
 32
0.0
 14
0.0
 24
0.0
 34
0.0
 15
0.0
 25
0.0
 35
0.0
146
0.0
 13
0.0
 23
0.0
 33
0.0
 16
1.0
 26
0.0
 36
0.0
 17
0.0
 27
1.0
 37
0.0
 76
     0
330
23
  0
LAYOUT
  5
22
102
{ACAD_REACTORS
330
1A
102
}
330
1A
100
AcDbPlotSettings
  1

  2
none_device
  4
Letter_(8.50_x_11.00_Inches)
  6

 40
6.35
 41
6.35
 42
6.35000508
 43
6.35000508
 44
215.9
 45
279.4
 46
0.0
 47
0.0
 48
0.0
 49
0.0
140
0.0
141
0.0
142
1.0
143
1.0
 70
  1712
 72
     1
 73
     0
 74
     0
  7

 75
     0
147
1.0
148
0.0
149
0.0
100
AcDbLayout
  1
Model
 70
     1
 71
     0
 10
0.0
 20
0.0
 11
594.0
 21
841.0
 12
0.0
 22
0.0
 32
0.0
 14
0.0
 24
0.0
 34
0.0
 15
594.0
 25
841.0
 35
0.0
146
0.0
 13
0.0
 23
0.0
 33
0.0
 16
1.0
 26
0.0
 36
0.0
 17
0.0
 27
1.0
 37
0.0
 76
     0
330
1F
331
29
  0
MLINESTYLE
  5
18
102
{ACAD_REACTORS
330
17
102
}
330
17
100
AcDbMlineStyle
  2
Standard
 70
     0
  3

 62
   256
 51
90.0
 52
90.0
 71
     2
 49
0.5
 62
   256
  6
BYLAYER
 49
-0.5
 62
   256
  6
BYLAYER
  0
ACDBPLACEHOLDER
  5
F
102
{ACAD_REACTORS
330
E
102
}
330
E
  0
SCALE
  5
48
102
{ACAD_REACTORS
330
47
102
}
330
47
100
AcDbScale
 70
     0
300
1:1
140
1.0
141
1.0
290
     1
  0
SCALE
  5
49
102
{ACAD_REACTORS
330
47
102
}
330
47
100
AcDbScale
 70
     0
300
1:2
140
1.0
141
2.0
290
     0
  0
SCALE
  5
4A
102
{ACAD_REACTORS
330
47
102
}
330
47
100
AcDbScale
 70
     0
300
1:4
140
1.0
141
4.0
290
     0
  0
SCALE
  5
4B
102
{ACAD_REACTORS
330
47
102
}
330
47
100
AcDbScale
 70
     0
300
1:5
140
1.0
141
5.0
290
     0
  0
SCALE
  5
4C
102
{ACAD_REACTORS
330
47
102
}
330
47
100
AcDbScale
 70
     0
300
1:8
140
1.0
141
8.0
290
     0
  0
SCALE
  5
4D
102
{ACAD_REACTORS
330
47
102
}
330
47
100
AcDbScale
 70
     0
300
1:10
140
1.0
141
10.0
290
     0
  0
SCALE
  5
4E
102
{ACAD_REACTORS
330
47
102
}
330
47
100
AcDbScale
 70
     0
300
1:16
140
1.0
141
16.0
290
     0
  0
SCALE
  5
4F
102
{ACAD_REACTORS
330
47
102
}
330
47
100
AcDbScale
 70
     0
300
1:20
140
1.0
141
20.0
290
     0
  0
SCALE
  5
50
102
{ACAD_REACTORS
330
47
102
}
330
47
100
AcDbScale
 70
     0
300
1:30
140
1.0
141
30.0
290
     0
  0
SCALE
  5
51
102
{ACAD_REACTORS
330
47
102
}
330
47
100
AcDbScale
 70
     0
300
1:40
140
1.0
141
40.0
290
     0
  0
SCALE
  5
52
102
{ACAD_REACTORS
330
47
102
}
330
47
100
AcDbScale
 70
     0
300
1:50
140
1.0
141
50.0
290
     0
  0
SCALE
  5
53
102
{ACAD_REACTORS
330
47
102
}
330
47
100
AcDbScale
 70
     0
300
1:100
140
1.0
141
100.0
290
     0
  0
SCALE
  5
54
102
{ACAD_REACTORS
330
47
102
}
330
47
100
AcDbScale
 70
     0
300
2:1
140
2.0
141
1.0
290
     0
  0
SCALE
  5
55
102
{ACAD_REACTORS
330
47
102
}
330
47
100
AcDbScale
 70
     0
300
4:1
140
4.0
141
1.0
290
     0
  0
SCALE
  5
56
102
{ACAD_REACTORS
330
47
102
}
330
47
100
AcDbScale
 70
     0
300
8:1
140
8.0
141
1.0
290
     0
  0
SCALE
  5
57
102
{ACAD_REACTORS
330
47
102
}
330
47
100
AcDbScale
 70
     0
300
10:1
140
10.0
141
1.0
290
     0
  0
SCALE
  5
58
102
{ACAD_REACTORS
330
47
102
}
330
47
100
AcDbScale
 70
     0
300
100:1
140
100.0
141
1.0
290
     0
  0
SCALE
  5
59
102
{ACAD_REACTORS
330
47
102
}
330
47
100
AcDbScale
 70
     0
300
1/128" = 1'-0"
140
0.0078125
141
12.0
290
     0
  0
SCALE
  5
5A
102
{ACAD_REACTORS
330
47
102
}
330
47
100
AcDbScale
 70
     0
300
1/64" = 1'-0"
140
0.015625
141
12.0
290
     0
  0
SCALE
  5
5B
102
{ACAD_REACTORS
330
47
102
}
330
47
100
AcDbScale
 70
     0
300
1/32" = 1'-0"
140
0.03125
141
12.0
290
     0
  0
SCALE
  5
5C
102
{ACAD_REACTORS
330
47
102
}
330
47
100
AcDbScale
 70
     0
300
1/16" = 1'-0"
140
0.0625
141
12.0
290
     0
  0
SCALE
  5
5D
102
{ACAD_REACTORS
330
47
102
}
330
47
100
AcDbScale
 70
     0
300
3/32" = 1'-0"
140
0.09375
141
12.0
290
     0
  0
SCALE
  5
5E
102
{ACAD_REACTORS
330
47
102
}
330
47
100
AcDbScale
 70
     0
300
1/8" = 1'-0"
140
0.125
141
12.0
290
     0
  0
SCALE
  5
5F
102
{ACAD_REACTORS
330
47
102
}
330
47
100
AcDbScale
 70
     0
300
3/16" = 1'-0"
140
0.1875
141
12.0
290
     0
  0
SCALE
  5
60
102
{ACAD_REACTORS
330
47
102
}
330
47
100
AcDbScale
 70
     0
300
1/4" = 1'-0"
140
0.25
141
12.0
290
     0
  0
SCALE
  5
61
102
{ACAD_REACTORS
330
47
102
}
330
47
100
AcDbScale
 70
     0
300
3/8" = 1'-0"
140
0.375
141
12.0
290
     0
  0
SCALE
  5
62
102
{ACAD_REACTORS
330
47
102
}
330
47
100
AcDbScale
 70
     0
300
1/2" = 1'-0"
140
0.5
141
12.0
290
     0
  0
SCALE
  5
63
102
{ACAD_REACTORS
330
47
102
}
330
47
100
AcDbScale
 70
     0
300
3/4" = 1'-0"
140
0.75
141
12.0
290
     0
  0
SCALE
  5
64
102
{ACAD_REACTORS
330
47
102
}
330
47
100
AcDbScale
 70
     0
300
1" = 1'-0"
140
1.0
141
12.0
290
     0
  0
SCALE
  5
65
102
{ACAD_REACTORS
330
47
102
}
330
47
100
AcDbScale
 70
     0
300
1-1/2" = 1'-0"
140
1.5
141
12.0
290
     0
  0
SCALE
  5
66
102
{ACAD_REACTORS
330
47
102
}
330
47
100
AcDbScale
 70
     0
300
3" = 1'-0"
140
3.0
141
12.0
290
     0
  0
SCALE
  5
67
102
{ACAD_REACTORS
330
47
102
}
330
47
100
AcDbScale
 70
     0
300
6" = 1'-0"
140
6.0
141
12.0
290
     0
  0
SCALE
  5
68
102
{ACAD_REACTORS
330
47
102
}
330
47
100
AcDbScale
 70
     0
300
1'-0" = 1'-0"
140
12.0
141
12.0
290
     0
  0
ENDSEC
  0
EOF
