  0
SECTION
  2
HEADER
  9
$ACADVER
  1
AC1024
  9
$ACADMAINTVER
 70
     6
  9
$DWGCODEPAGE
  3
ANSI_1252
  9
$INSBASE
 10
0.0
 20
0.0
 30
0.0
  9
$EXTMIN
 10
0.0
 20
0.0
 30
0.0
  9
$EXTMAX
 10
594.0
 20
841.0
 30
0.0
  9
$LIMMIN
 10
0.0
 20
0.0
  9
$LIMMAX
 10
594.0
 20
841.0
  9
$ORTHOMODE
 70
     0
  9
$REGENMODE
 70
     1
  9
$FILLMODE
 70
     1
  9
$QTEXTMODE
 70
     0
  9
$MIRRTEXT
 70
     1
  9
$LTSCALE
 40
1.0
  9
$ATTMODE
 70
     1
  9
$TEXTSIZE
 40
10.0
  9
$TRACEWID
 40
1.0
  9
$TEXTSTYLE
  7
Standard
  9
$CLAYER
  8
0
  9
$CELTYPE
  6
ByLayer
  9
$CECOLOR
 62
   256
  9
$CELTSCALE
 40
1.0
  9
$DISPSILH
 70
     0
  9
$DIMSCALE
 40
1.0
  9
$DIMASZ
 40
2.5
  9
$DIMEXO
 40
0.0
  9
$DIMDLI
 40
3.75
  9
$DIMRND
 40
0.0
  9
$DIMDLE
 40
0.0
  9
$DIMEXE
 40
1.0
  9
$DIMTP
 40
0.0
  9
$DIMTM
 40
0.0
  9
$DIMTXT
 40
3.5
  9
$DIMCEN
 40
2.5
  9
$DIMTSZ
 40
0.0
  9
$DIMTOL
 70
     0
  9
$DIMLIM
 70
     0
  9
$DIMTIH
 70
     1
  9
$DIMTOH
 70
     1
  9
$DIMSE1
 70
     0
  9
$DIMSE2
 70
     0
  9
$DIMTAD
 70
     1
  9
$DIMZIN
 70
     0
  9
$DIMBLK
  1

  9
$DIMASO
 70
     1
  9
$DIMSHO
 70
     1
  9
$DIMPOST
  1

  9
$DIMAPOST
  1

  9
$DIMALT
 70
     0
  9
$DIMALTD
 70
     3
  9
$DIMALTF
 40
0.0393700787
  9
$DIMLFAC
 40
1.0
  9
$DIMTOFL
 70
     1
  9
$DIMTVP
 40
0.0
  9
$DIMTIX
 70
     0
  9
$DIMSOXD
 70
     0
  9
$DIMSAH
 70
     0
  9
$DIMBLK1
  1

  9
$DIMBLK2
  1

  9
$DIMSTYLE
  2
ISO-25
  9
$DIMCLRD
 70
     0
  9
$DIMCLRE
 70
     0
  9
$DIMCLRT
 70
     0
  9
$DIMTFAC
 40
1.0
  9
$DIMGAP
 40
1.5
  9
$DIMJUST
 70
     0
  9
$DIMSD1
 70
     0
  9
$DIMSD2
 70
     0
  9
$DIMTOLJ
 70
     0
  9
$DIMTZIN
 70
     0
  9
$DIMALTZ
 70
     0
  9
$DIMALTTZ
 70
     0
  9
$DIMUPT
 70
     0
  9
$DIMDEC
 70
     2
  9
$DIMTDEC
 70
     2
  9
$DIMALTU
 70
     2
  9
$DIMALTTD
 70
     3
  9
$DIMTXSTY
  7
Standard
  9
$DIMAUNIT
 70
     0
  9
$DIMADEC
 70
     2
  9
$DIMALTRND
 40
0.0
  9
$DIMAZIN
 70
     0
  9
$DIMDSEP
 70
    44
  9
$DIMATFIT
 70
     3
  9
$DIMFRAC
 70
     0
  9
$DIMLDRBLK
  1

  9
$DIMLUNIT
 70
     2
  9
$DIMLWD
 70
    -2
  9
$DIMLWE
 70
    -2
  9
$DIMTMOVE
 70
     0
  9
$DIMFXL
 40
1.0
  9
$DIMFXLON
 70
     0
  9
$DIMJOGANG
 40
0.7853981634
  9
$DIMTFILL
 70
     0
  9
$DIMTFILLCLR
 70
     0
  9
$DIMARCSYM
 70
     0
  9
$DIMLTYPE
  6

  9
$DIMLTEX1
  6

  9
$DIMLTEX2
  6

  9
$DIMTXTDIRECTION
 70
     0
  9
$LUNITS
 70
     2
  9
$LUPREC
 70
     2
  9
$SKETCHINC
 40
1.0
  9
$FILLETRAD
 40
10.0
  9
$AUNITS
 70
     0
  9
$AUPREC
 70
     2
  9
$MENU
  1
.
  9
$ELEVATION
 40
0.0
  9
$PELEVATION
 40
0.0
  9
$THICKNESS
 40
0.0
  9
$LIMCHECK
 70
     0
  9
$CHAMFERA
 40
10.0
  9
$CHAMFERB
 40
10.0
  9
$CHAMFERC
 40
20.0
  9
$CHAMFERD
 40
0.0
  9
$SKPOLY
 70
     0
  9
$TDCREATE
 40
2456169.46280897
  9
$TDUCREATE
 40
2456169.379475636
  9
$TDUPDATE
 40
2456169.462808982
  9
$TDUUPDATE
 40
2456169.379475648
  9
$TDINDWG
 40
0.0000000116
  9
$TDUSRTIMER
 40
0.0000000116
  9
$USRTIMER
 70
     1
  9
$ANGBASE
 50
0.0
  9
$ANGDIR
 70
     0
  9
$PDMODE
 70
     0
  9
$PDSIZE
 40
-1.0
  9
$PLINEWID
 40
0.0
  9
$SPLFRAME
 70
     0
  9
$SPLINETYPE
 70
     6
  9
$SPLINESEGS
 70
     8
  9
$HANDSEED
  5
18C
  9
$SURFTAB1
 70
     6
  9
$SURFTAB2
 70
     6
  9
$SURFTYPE
 70
     6
  9
$SURFU
 70
     6
  9
$SURFV
 70
     6
  9
$UCSBASE
  2

  9
$UCSNAME
  2

  9
$UCSORG
 10
0.0
 20
0.0
 30
0.0
  9
$UCSXDIR
 10
1.0
 20
0.0
 30
0.0
  9
$UCSYDIR
 10
0.0
 20
1.0
 30
0.0
  9
$UCSORTHOREF
  2

  9
$UCSORTHOVIEW
 70
     0
  9
$UCSORGTOP
 10
0.0
 20
0.0
 30
0.0
  9
$UCSORGBOTTOM
 10
0.0
 20
0.0
 30
0.0
  9
$UCSORGLEFT
 10
0.0
 20
0.0
 30
0.0
  9
$UCSORGRIGHT
 10
0.0
 20
0.0
 30
0.0
  9
$UCSORGFRONT
 10
0.0
 20
0.0
 30
0.0
  9
$UCSORGBACK
 10
0.0
 20
0.0
 30
0.0
  9
$PUCSBASE
  2

  9
$PUCSNAME
  2

  9
$PUCSORG
 10
0.0
 20
0.0
 30
0.0
  9
$PUCSXDIR
 10
1.0
 20
0.0
 30
0.0
  9
$PUCSYDIR
 10
0.0
 20
1.0
 30
0.0
  9
$PUCSORTHOREF
  2

  9
$PUCSORTHOVIEW
 70
     0
  9
$PUCSORGTOP
 10
0.0
 20
0.0
 30
0.0
  9
$PUCSORGBOTTOM
 10
0.0
 20
0.0
 30
0.0
  9
$PUCSORGLEFT
 10
0.0
 20
0.0
 30
0.0
  9
$PUCSORGRIGHT
 10
0.0
 20
0.0
 30
0.0
  9
$PUCSORGFRONT
 10
0.0
 20
0.0
 30
0.0
  9
$PUCSORGBACK
 10
0.0
 20
0.0
 30
0.0
  9
$USERI1
 70
     0
  9
$USERI2
 70
     0
  9
$USERI3
 70
     0
  9
$USERI4
 70
     0
  9
$USERI5
 70
     0
  9
$USERR1
 40
0.0
  9
$USERR2
 40
0.0
  9
$USERR3
 40
0.0
  9
$USERR4
 40
0.0
  9
$USERR5
 40
0.0
  9
$WORLDVIEW
 70
     1
  9
$SHADEDGE
 70
     3
  9
$SHADEDIF
 70
    70
  9
$TILEMODE
 70
     1
  9
$MAXACTVP
 70
    64
  9
$PINSBASE
 10
0.0
 20
0.0
 30
0.0
  9
$PLIMCHECK
 70
     0
  9
$PEXTMIN
 10
1.0000000000E+20
 20
1.0000000000E+20
 30
1.0000000000E+20
  9
$PEXTMAX
 10
-1.0000000000E+20
 20
-1.0000000000E+20
 30
-1.0000000000E+20
  9
$PLIMMIN
 10
0.0
 20
0.0
  9
$PLIMMAX
 10
420.0
 20
297.0
  9
$UNITMODE
 70
     0
  9
$VISRETAIN
 70
     1
  9
$PLINEGEN
 70
     0
  9
$PSLTSCALE
 70
     1
  9
$TREEDEPTH
 70
  3020
  9
$CMLSTYLE
  2
Standard
  9
$CMLJUST
 70
     0
  9
$CMLSCALE
 40
20.0
  9
$PROXYGRAPHICS
 70
     1
  9
$MEASUREMENT
 70
     1
  9
$CELWEIGHT
370
    -1
  9
$ENDCAPS
280
     0
  9
$JOINSTYLE
280
     0
  9
$LWDISPLAY
290
     1
  9
$INSUNITS
 70
     4
  9
$HYPERLINKBASE
  1

  9
$STYLESHEET
  1

  9
$XEDIT
290
     1
  9
$CEPSNTYPE
380
     0
  9
$PSTYLEMODE
290
     1
  9
$FINGERPRINTGUID
  2
{6DB92D2B-0D67-47D2-86F7-ED1F6D1801CC}
  9
$VERSIONGUID
  2
{FAEB1C32-E019-11D5-929B-00C0DF256EC4}
  9
$EXTNAMES
290
     1
  9
$PSVPSCALE
 40
0.0
  9
$OLESTARTUP
290
     0
  9
$SORTENTS
280
   127
  9
$INDEXCTL
280
     0
  9
$HIDETEXT
280
     1
  9
$XCLIPFRAME
280
     2
  9
$HALOGAP
280
     0
  9
$OBSCOLOR
 70
   257
  9
$OBSLTYPE
280
     0
  9
$INTERSECTIONDISPLAY
280
     0
  9
$INTERSECTIONCOLOR
 70
   257
  9
$DIMASSOC
280
     2
  9
$PROJECTNAME
  1

  9
$CAMERADISPLAY
290
     0
  9
$LENSLENGTH
 40
50.0
  9
$CAMERAHEIGHT
 40
0.0
  9
$STEPSPERSEC
 40
2.0
  9
$STEPSIZE
 40
6.0
  9
$3DDWFPREC
 40
2.0
  9
$PSOLWIDTH
 40
5.0
  9
$PSOLHEIGHT
 40
80.0
  9
$LOFTANG1
 40
1.5707963268
  9
$LOFTANG2
 40
1.5707963268
  9
$LOFTMAG1
 40
0.0
  9
$LOFTMAG2
 40
0.0
  9
$LOFTPARAM
 70
     7
  9
$LOFTNORMALS
280
     1
  9
$LATITUDE
 40
37.795
  9
$LONGITUDE
 40
-122.394
  9
$NORTHDIRECTION
 40
0.0
  9
$TIMEZONE
 70
 -8000
  9
$LIGHTGLYPHDISPLAY
280
     1
  9
$TILEMODELIGHTSYNCH
280
     1
  9
$SOLIDHIST
280
     1
  9
$SHOWHIST
280
     1
  9
$DWFFRAME
280
     2
  9
$DGNFRAME
280
     2
  9
$REALWORLDSCALE
290
     1
  9
$INTERFERECOLOR
 62
   256
  9
$CSHADOW
280
     0
  9
$SHADOWPLANELOCATION
 40
0.0
  0
ENDSEC
  0
SECTION
  2
CLASSES
  0
CLASS
  1
ACDBDICTIONARYWDFLT
  2
AcDbDictionaryWithDefault
  3
ObjectDBX Classes
 90
        0
 91
        4
280
     0
281
     0
  0
CLASS
  1
VISUALSTYLE
  2
AcDbVisualStyle
  3
ObjectDBX Classes
 90
     4095
 91
        4
280
     0
281
     0
  0
CLASS
  1
MATERIAL
  2
AcDbMaterial
  3
ObjectDBX Classes
 90
     1153
 91
        4
280
     0
281
     0
  0
ENDSEC
  0
SECTION
  2
TABLES
  0
TABLE
  2
VPORT
  5
8
330
0
100
AcDbSymbolTable
 70
     1
  0
VPORT
  5
29
330
8
100
AcDbSymbolTableRecord
100
AcDbViewportTableRecord
  2
*Active
 70
     0
 10
0.0
 20
0.0
 11
1.0
 21
1.0
 12
297.0
 22
420.5
 13
0.0
 23
0.0
 14
10.0
 24
10.0
 15
10.0
 25
10.0
 16
0.0
 26
0.0
 36
1.0
 17
0.0
 27
0.0
 37
0.0
 40
841.0
 41
0.7063020214
 42
50.0
 43
0.0
 44
0.0
 50
0.0
 51
0.0
 71
     0
 72
  2000
 73
     1
 74
     3
 75
     0
 76
     0
 77
     0
 78
     0
281
     0
 65
     1
110
0.0
120
0.0
130
0.0
111
1.0
121
0.0
131
0.0
112
0.0
122
1.0
132
0.0
 79
     0
146
0.0
 60
     3
 61
     5
292
     1
282
     1
141
0.0
142
0.0
 63
   250
  0
ENDTAB
  0
TABLE
  2
LTYPE
  5
5
330
0
100
AcDbSymbolTable
 70
     6
  0
LTYPE
  5
14
330
5
100
AcDbSymbolTableRecord
100
AcDbLinetypeTableRecord
  2
ByBlock
 70
     0
  3

 72
    65
 73
     0
 40
0.0
  0
LTYPE
  5
15
330
5
100
AcDbSymbolTableRecord
100
AcDbLinetypeTableRecord
  2
ByLayer
 70
     0
  3

 72
    65
 73
     0
 40
0.0
  0
LTYPE
  5
16
330
5
100
AcDbSymbolTableRecord
100
AcDbLinetypeTableRecord
  2
Continuous
 70
     0
  3
Solid line
 72
    65
 73
     0
 40
0.0
  0
LTYPE
  5
3F
330
5
100
AcDbSymbolTableRecord
100
AcDbLinetypeTableRecord
  2
HIDDEN
 70
     0
  3
Hidden __ __ __ __ __ __ __ __ __ __ __ __ __ __
 72
    65
 73
     2
 40
1.905
 49
1.27
 74
     0
 49
-0.635
 74
     0
  0
LTYPE
  5
40
330
5
100
AcDbSymbolTableRecord
100
AcDbLinetypeTableRecord
  2
PHANTOM
 70
     0
  3
Phantom ______  __  __  ______  __  __  ______
 72
    65
 73
     6
 40
12.7
 49
6.35
 74
     0
 49
-1.27
 74
     0
 49
1.27
 74
     0
 49
-1.27
 74
     0
 49
1.27
 74
     0
 49
-1.27
 74
     0
  0
LTYPE
  5
41
330
5
100
AcDbSymbolTableRecord
100
AcDbLinetypeTableRecord
  2
CENTER
 70
     0
  3
Center ____ _ ____ _ ____ _ ____ _ ____ _ ____
 72
    65
 73
     4
 40
10.16
 49
6.35
 74
     0
 49
-1.27
 74
     0
 49
1.27
 74
     0
 49
-1.27
 74
     0
  0
LTYPE
  5
42
330
5
100
AcDbSymbolTableRecord
100
AcDbLinetypeTableRecord
  2
CENTERX2
 70
     0
  3
Center (2x) ________  __  ________  __  _____
 72
    65
 73
     4
 40
20.32
 49
12.7
 74
     0
 49
-2.54
 74
     0
 49
2.54
 74
     0
 49
-2.54
 74
     0
  0
LTYPE
  5
43
330
5
100
AcDbSymbolTableRecord
100
AcDbLinetypeTableRecord
  2
DOT2
 70
     0
  3
Dot (.5x) ........................................
 72
    65
 73
     2
 40
0.635
 49
0.0
 74
     0
 49
-0.635
 74
     0
  0
ENDTAB
  0
TABLE
  2
LAYER
  5
2
330
0
100
AcDbSymbolTable
 70
     1
  0
LAYER
  5
10
330
2
100
AcDbSymbolTableRecord
100
AcDbLayerTableRecord
  2
0
 70
     0
 62
     7
  6
Continuous
370
    -3
390
F
347
3E
  0
ENDTAB
  0
TABLE
  2
STYLE
  5
3
330
0
100
AcDbSymbolTable
 70
     3
  0
STYLE
  5
11
330
3
100
AcDbSymbolTableRecord
100
AcDbTextStyleTableRecord
  2
Standard
 70
     0
 40
0.0
 41
1.0
 50
0.0
 71
     0
 42
2.5
  3
txt
  4

  0
STYLE
  5
47
330
3
100
AcDbSymbolTableRecord
100
AcDbTextStyleTableRecord
  2
SLDTEXTSTYLE0
 70
     0
 40
0.0
 41
0.96
 50
0.0
 71
     0
 42
0.2
  3
ISOCP3
  4

  0
STYLE
  5
5E
330
3
100
AcDbSymbolTableRecord
100
AcDbTextStyleTableRecord
  2
SLDTEXTSTYLE1
 70
     0
 40
0.0
 41
0.605
 50
0.0
 71
     0
 42
0.2
  3
TXT
  4

  0
ENDTAB
  0
TABLE
  2
VIEW
  5
6
330
0
100
AcDbSymbolTable
 70
     0
  0
ENDTAB
  0
TABLE
  2
UCS
  5
7
330
0
100
AcDbSymbolTable
 70
     0
  0
ENDTAB
  0
TABLE
  2
APPID
  5
9
330
0
100
AcDbSymbolTable
 70
     1
  0
APPID
  5
12
330
9
100
AcDbSymbolTableRecord
100
AcDbRegAppTableRecord
  2
ACAD
 70
     0
  0
ENDTAB
  0
TABLE
  2
DIMSTYLE
  5
A
330
0
100
AcDbSymbolTable
 70
     2
100
AcDbDimStyleTable
  0
DIMSTYLE
105
27
330
A
100
AcDbSymbolTableRecord
100
AcDbDimStyleTableRecord
  2
ISO-25
 70
     0
 41
2.5
 42
0.625
 43
3.75
 44
1.25
 73
     0
 74
     0
 77
     1
 78
     8
140
2.5
141
2.5
143
0.0393700787
147
0.625
171
     3
172
     1
178
     0
271
     2
272
     2
274
     3
278
    44
283
     0
284
     8
340
11
  0
DIMSTYLE
105
48
102
{ACAD_REACTORS
330
46
330
53
102
}
330
A
100
AcDbSymbolTableRecord
100
AcDbDimStyleTableRecord
  2
SLDDIMSTYLE0
 70
     0
 41
2.5
 44
0.0
 45
0.000000001
 73
     0
 74
     0
 77
     1
 78
    12
 79
     3
140
6.0
147
1.5
173
     1
178
     0
271
     2
272
     2
276
     2
284
    12
340
47
  0
ENDTAB
  0
TABLE
  2
BLOCK_RECORD
  5
1
330
0
100
AcDbSymbolTable
 70
     3
  0
BLOCK_RECORD
  5
1F
330
1
100
AcDbSymbolTableRecord
100
AcDbBlockTableRecord
  2
*Model_Space
340
22
 70
     0
280
     1
281
     0
  0
BLOCK_RECORD
  5
1B
330
1
100
AcDbSymbolTableRecord
100
AcDbBlockTableRecord
  2
*Paper_Space
340
1E
 70
     0
280
     1
281
     0
  0
BLOCK_RECORD
  5
23
330
1
100
AcDbSymbolTableRecord
100
AcDbBlockTableRecord
  2
*Paper_Space0
340
26
 70
     0
280
     1
281
     0
  0
BLOCK_RECORD
  5
49
330
1
100
AcDbSymbolTableRecord
100
AcDbBlockTableRecord
  2
*D1
340
0
 70
     0
280
     1
281
     0
  0
BLOCK_RECORD
  5
54
330
1
100
AcDbSymbolTableRecord
100
AcDbBlockTableRecord
  2
*D2
340
0
 70
     0
280
     1
281
     0
  0
ENDTAB
  0
ENDSEC
  0
SECTION
  2
BLOCKS
  0
BLOCK
  5
20
330
1F
100
AcDbEntity
  8
0
100
AcDbBlockBegin
  2
*Model_Space
 70
     0
 10
0.0
 20
0.0
 30
0.0
  3
*Model_Space
  1

  0
ENDBLK
  5
21
330
1F
100
AcDbEntity
  8
0
100
AcDbBlockEnd
  0
BLOCK
  5
1C
330
1B
100
AcDbEntity
 67
     1
  8
0
100
AcDbBlockBegin
  2
*Paper_Space
 70
     0
 10
0.0
 20
0.0
 30
0.0
  3
*Paper_Space
  1

  0
ENDBLK
  5
1D
330
1B
100
AcDbEntity
 67
     1
  8
0
100
AcDbBlockEnd
  0
BLOCK
  5
24
330
23
100
AcDbEntity
  8
0
100
AcDbBlockBegin
  2
*Paper_Space0
 70
     0
 10
0.0
 20
0.0
 30
0.0
  3
*Paper_Space0
  1

  0
ENDBLK
  5
25
330
23
100
AcDbEntity
  8
0
100
AcDbBlockEnd
  0
BLOCK
  5
4A
330
49
100
AcDbEntity
  8
0
100
AcDbBlockBegin
  2
*D1
 70
     1
 10
0.0
 20
0.0
 30
0.0
  3
*D1
  1

  0
SOLID
  5
4C
330
49
100
AcDbEntity
  8
0
  6
Continuous
 62
     7
370
     0
100
AcDbTrace
 10
42.7614395004
 20
152.0299240879
 30
0.0
 11
42.4614395004
 21
149.5299240879
 31
0.0
 12
43.0614395004
 22
149.5299240879
 32
0.0
 13
43.0614395004
 23
149.5299240879
 33
0.0
  0
SOLID
  5
4D
330
49
100
AcDbEntity
  8
0
  6
Continuous
 62
     7
370
     0
100
AcDbTrace
 10
42.7614395004
 20
52.0299240879
 30
0.0
 11
43.0614395004
 21
54.5299240879
 31
0.0
 12
42.4614395004
 22
54.5299240879
 32
0.0
 13
42.4614395004
 23
54.5299240879
 33
0.0
  0
LINE
  5
4E
330
49
100
AcDbEntity
  8
0
  6
Continuous
 62
     7
370
     0
100
AcDbLine
 10
56.6850079902
 20
152.0299240879
 30
0.0
 11
41.7614395004
 21
152.0299240879
 31
0.0
  0
LINE
  5
4F
330
49
100
AcDbEntity
  8
0
  6
Continuous
 62
     7
370
     0
100
AcDbLine
 10
56.6850079902
 20
52.0299240879
 30
0.0
 11
41.7614395004
 21
52.0299240879
 31
0.0
  0
LINE
  5
50
330
49
100
AcDbEntity
  8
0
  6
Continuous
 62
     7
370
     0
100
AcDbLine
 10
42.7614395004
 20
152.0299240879
 30
0.0
 11
42.7614395004
 21
52.0299240879
 31
0.0
  0
MTEXT
  5
51
330
49
100
AcDbEntity
  8
0
  6
Continuous
 62
     7
370
     0
100
AcDbMText
 10
35.0270332946
 20
91.6722208134
 30
0.1
 40
6.0
 41
0.0
 46
0.0
 71
     1
 72
     1
  1
100
  7
SLDTEXTSTYLE0
 11
-7.044195017643634E-15
 21
1.0
 31
0.0
 73
     1
 44
1.0
  0
MTEXT
  5
52
330
49
100
AcDbEntity
  8
0
  6
Continuous
 62
     7
370
     0
100
AcDbMText
 10
35.0270332946
 20
108.4388881795
 30
0.1
 40
6.0
 41
0.0
 46
0.0
 71
     1
 72
     1
  1
mm
  7
SLDTEXTSTYLE0
 11
-7.044195017643634E-15
 21
1.0
 31
0.0
 73
     1
 44
1.0
  0
ENDBLK
  5
4B
330
49
100
AcDbEntity
  8
0
100
AcDbBlockEnd
  0
BLOCK
  5
55
330
54
100
AcDbEntity
  8
0
100
AcDbBlockBegin
  2
*D2
 70
     1
 10
0.0
 20
0.0
 30
0.0
  3
*D2
  1

  0
SOLID
  5
57
330
54
100
AcDbEntity
  8
0
  6
Continuous
 62
     7
370
     0
100
AcDbTrace
 10
56.6850079902
 20
38.4602342313
 30
0.0
 11
59.1850079902
 21
38.1602342313
 31
0.0
 12
59.1850079902
 22
38.7602342313
 32
0.0
 13
59.1850079902
 23
38.7602342313
 33
0.0
  0
SOLID
  5
58
330
54
100
AcDbEntity
  8
0
  6
Continuous
 62
     7
370
     0
100
AcDbTrace
 10
156.6850079902
 20
38.4602342313
 30
0.0
 11
154.1850079902
 21
38.7602342313
 31
0.0
 12
154.1850079902
 22
38.1602342313
 32
0.0
 13
154.1850079902
 23
38.1602342313
 33
0.0
  0
LINE
  5
59
330
54
100
AcDbEntity
  8
0
  6
Continuous
 62
     7
370
     0
100
AcDbLine
 10
56.6850079902
 20
52.0299240879
 30
0.0
 11
56.6850079902
 21
37.4602342313
 31
0.0
  0
LINE
  5
5A
330
54
100
AcDbEntity
  8
0
  6
Continuous
 62
     7
370
     0
100
AcDbLine
 10
156.6850079902
 20
52.0299240879
 30
0.0
 11
156.6850079902
 21
37.4602342313
 31
0.0
  0
LINE
  5
5B
330
54
100
AcDbEntity
  8
0
  6
Continuous
 62
     7
370
     0
100
AcDbLine
 10
56.6850079902
 20
38.4602342313
 30
0.0
 11
156.6850079902
 21
38.4602342313
 31
0.0
  0
MTEXT
  5
5C
330
54
100
AcDbEntity
  8
0
  6
Continuous
 62
     7
370
     0
100
AcDbMText
 10
91.2668151533
 20
46.1946404371
 30
0.1
 40
6.0
 41
0.0
 46
0.0
 71
     1
 72
     1
  1
100
  7
SLDTEXTSTYLE0
 73
     1
 44
1.0
  0
MTEXT
  5
5D
330
54
100
AcDbEntity
  8
0
  6
Continuous
 62
     7
370
     0
100
AcDbMText
 10
108.0334825193
 20
46.1946404371
 30
0.1
 40
6.0
 41
0.0
 46
0.0
 71
     1
 72
     1
  1
mm
  7
SLDTEXTSTYLE0
 73
     1
 44
1.0
  0
ENDBLK
  5
56
330
54
100
AcDbEntity
  8
0
100
AcDbBlockEnd
  0
ENDSEC
  0
SECTION
  2
ENTITIES
  0
LINE
  5
44
330
1F
100
AcDbEntity
  8
0
  6
Continuous
 62
     7
370
     0
100
AcDbLine
 10
56.6850079902
 20
152.0299240879
 30
0.0
 11
56.6850079902
 21
52.0299240879
 31
0.0
  0
LINE
  5
45
330
1F
100
AcDbEntity
  8
0
  6
Continuous
 62
     7
370
     0
100
AcDbLine
 10
56.6850079902
 20
52.0299240879
 30
0.0
 11
156.6850079902
 21
52.0299240879
 31
0.0
  0
DIMENSION
  5
46
330
1F
100
AcDbEntity
  8
0
  6
Continuous
 62
     7
370
     0
100
AcDbDimension
280
     0
  2
*D1
 10
42.7614395004
 20
52.0299240879
 30
0.0
 11
42.7614395004
 21
105.4472211621
 31
0.0
 70
   160
  1
<>mm
 71
     2
 42
-1.0
 73
     0
 74
     0
 75
     0
  3
SLDDIMSTYLE0
100
AcDbAlignedDimension
 13
56.6850079902
 23
152.0299240879
 33
0.0
 14
56.6850079902
 24
52.0299240879
 34
0.0
 50
90.0
100
AcDbRotatedDimension
  0
DIMENSION
  5
53
330
1F
100
AcDbEntity
  8
0
  6
Continuous
 62
     7
370
     0
100
AcDbDimension
280
     0
  2
*D2
 10
156.6850079902
 20
38.4602342313
 30
0.0
 11
105.0418155019
 21
38.4602342313
 31
0.0
 70
   160
  1
<>mm
 71
     2
 42
-1.0
 73
     0
 74
     0
 75
     0
  3
SLDDIMSTYLE0
100
AcDbAlignedDimension
 13
56.6850079902
 23
52.0299240879
 33
0.0
 14
156.6850079902
 24
52.0299240879
 34
0.0
100
AcDbRotatedDimension
  0
MTEXT
  5
5F
330
1F
100
AcDbEntity
  8
0
  6
Continuous
 62
     7
370
     0
100
AcDbMText
 10
287.8255970406
 20
47.038110505
 30
0.0
 40
10.0
 41
0.0
 46
0.0
 71
     1
 72
     1
  1
53 216 05 75
  7
SLDTEXTSTYLE1
 73
     1
 44
1.0
  0
MTEXT
  5
60
330
1F
100
AcDbEntity
  8
0
  6
Continuous
 62
     7
370
     0
100
AcDbMText
 10
412.8252631579
 20
48.4342449499
 30
0.0
 40
10.0
 41
0.0
 46
0.0
 71
     1
 72
     1
  1
KLUDI GmbH & Co KG
  7
SLDTEXTSTYLE1
 73
     1
 44
1.0
  0
SPLINE
  5
61
330
1F
100
AcDbEntity
  8
0
  6
Continuous
 62
     7
370
    15
100
AcDbSpline
210
0.0
220
0.0
230
1.0
 70
     8
 71
     3
 72
    25
 73
    21
 74
     0
 42
0.00000001
 43
0.00000001
 40
0.0
 40
0.0
 40
0.0
 40
0.0
 40
0.0372513710966892
 40
0.0810568863272038
 40
0.1259330754425528
 40
0.1727572933029606
 40
0.2230376463336959
 40
0.2790482755137169
 40
0.31669041708172
 40
0.3583949329581553
 40
0.4051865145364773
 40
0.4582573225130349
 40
0.5189809142796763
 40
0.5679015162644816
 40
0.622159728516286
 40
0.682449997569542
 40
0.7495272266517219
 40
0.8242097654478856
 40
0.907382493506784
 40
1.0
 40
1.0
 40
1.0
 40
1.0
 10
175.3594351231245
 20
440.5225896792617
 30
0.0
 10
175.4861083563498
 20
439.5925002453754
 30
0.0
 10
175.7617421803934
 20
437.5686779994511
 30
0.0
 10
176.2571814314491
 20
434.3903548761213
 30
0.0
 10
176.8316245444871
 20
430.9527858513077
 30
0.0
 10
177.4659260271131
 20
427.3318294893664
 30
0.0
 10
178.1519074248081
 20
423.4082323530081
 30
0.0
 10
178.7640626953433
 20
419.7000988790244
 30
0.0
 10
179.2927695072926
 20
416.1969621037866
 30
0.0
 10
179.7447729171487
 20
412.9206374157484
 30
0.0
 10
180.200635597609
 20
409.2304134839749
 30
0.0
 10
180.6564021486318
 20
405.0300961785496
 30
0.0
 10
181.0559185934164
 20
400.7605978775701
 30
0.0
 10
181.4074635941215
 20
396.4496456806675
 30
0.0
 10
181.7167252383571
 20
392.1420445793468
 30
0.0
 10
182.0167637672742
 20
387.3478915928274
 30
0.0
 10
182.3052076166703
 20
382.006548784688
 30
0.0
 10
182.5785445733614
 20
376.0522045684946
 30
0.0
 10
182.8369071641779
 20
369.414311835567
 30
0.0
 10
182.9793652269033
 20
364.7498222750507
 30
0.0
 10
183.0544212195362
 20
362.2922716991648
 30
0.0
  0
SPLINE
  5
62
330
1F
100
AcDbEntity
  8
0
  6
Continuous
 62
     7
370
    15
100
AcDbSpline
210
0.0
220
0.0
230
1.0
 70
     8
 71
     3
 72
    23
 73
    19
 74
     0
 42
0.00000001
 43
0.00000001
 40
0.0
 40
0.0
 40
0.0
 40
0.0
 40
0.0991361197492894
 40
0.1883533066040512
 40
0.2685854490427546
 40
0.3407202315402051
 40
0.4056006573082939
 40
0.4640264810811683
 40
0.5256272931739834
 40
0.5804816448995886
 40
0.6296820663131337
 40
0.6742477725690501
 40
0.7350377113941452
 40
0.7903519782963042
 40
0.8428592255419451
 40
0.8949216469439616
 40
0.9486240372867591
 40
1.0
 40
1.0
 40
1.0
 40
1.0
 10
233.8589906532129
 20
362.2922716991648
 30
0.0
 10
233.9398208150881
 20
364.9277513102857
 30
0.0
 10
234.0933937842646
 20
369.935021117673
 30
0.0
 10
234.37723233101
 20
377.0647432463872
 30
0.0
 10
234.6818050429537
 20
383.46834423388
 30
0.0
 10
235.0076237913835
 20
389.216239615658
 30
0.0
 10
235.3509165644944
 20
394.3761007097669
 30
0.0
 10
235.727260775283
 20
399.2457527068281
 30
0.0
 10
236.1394558125755
 20
403.8374431598565
 30
0.0
 10
236.5916324954972
 20
408.1706564871066
 30
0.0
 10
237.0543096524989
 20
412.04227485454
 30
0.0
 10
237.5936359743933
 20
416.0508930822444
 30
0.0
 10
238.2239947938119
 20
420.1950527678945
 30
0.0
 10
238.9523539167306
 20
424.5158289376388
 30
0.0
 10
239.6709542171983
 20
428.5908886843735
 30
0.0
 10
240.3656927890931
 20
432.6076214054989
 30
0.0
 10
241.0114587290538
 20
436.5831684286923
 30
0.0
 10
241.3751978827808
 20
439.2293390154314
 30
0.0
 10
241.5530408795134
 20
440.5231312898942
 30
0.0
  0
SPLINE
  5
63
330
1F
100
AcDbEntity
  8
0
  6
Continuous
 62
     7
370
    15
100
AcDbSpline
210
0.0
220
0.0
230
1.0
 70
     8
 71
     3
 72
    10
 73
     6
 74
     0
 42
0.00000001
 43
0.00000001
 40
0.0
 40
0.0
 40
0.0
 40
0.0
 40
0.0506246766527081
 40
0.5345478046794165
 40
0.9999999999999999
 40
0.9999999999999999
 40
0.9999999999999999
 40
0.9999999999999999
 10
175.4633982126723
 20
446.7321061250549
 30
0.0
 10
175.4608606910824
 20
446.6728680042376
 30
0.0
 10
175.4340669081903
 20
446.0473705288958
 30
0.0
 10
175.3799612588369
 20
445.0460244352628
 30
0.0
 10
175.3545011098884
 20
444.2193985273975
 30
0.0
 10
175.3420187102201
 20
443.814126940847
 30
0.0
  0
LINE
  5
64
330
1F
100
AcDbEntity
  8
0
  6
Continuous
 62
     7
370
    15
100
AcDbLine
 10
241.5128669662
 20
445.391238142
 30
0.0
 11
241.4495764877
 21
446.7271774531
 31
0.0
  0
SPLINE
  5
65
330
1F
100
AcDbEntity
  8
0
  6
Continuous
 62
     7
370
    15
100
AcDbSpline
210
0.0
220
0.0
230
1.0
 70
     8
 71
     3
 72
    19
 73
    15
 74
     0
 42
0.00000001
 43
0.00000001
 40
0.0
 40
0.0
 40
0.0
 40
0.0
 40
0.1093159149156816
 40
0.2042359710408072
 40
0.2851791176533542
 40
0.3524187505237813
 40
0.4060848125110761
 40
0.4511159770964971
 40
0.5078658063673799
 40
0.5788882720446256
 40
0.664154617248358
 40
0.7624236409390769
 40
0.8740214315749555
 40
1.0
 40
1.0
 40
1.0
 40
1.0
 10
208.4582945127868
 20
450.9421990728329
 30
0.0
 10
207.1987942988315
 20
450.9379700379482
 30
0.0
 10
204.8456579835778
 20
450.9300688915607
 30
0.0
 10
201.5688534209505
 20
450.8613009936996
 30
0.0
 10
198.7901562983474
 20
450.7685867072285
 30
0.0
 10
196.499488175186
 20
450.6630575929471
 30
0.0
 10
194.6318922103256
 20
450.5560968668715
 30
0.0
 10
192.8973196826093
 20
450.4395955554403
 30
0.0
 10
190.9891183831203
 20
450.290801882151
 30
0.0
 10
188.6746517593205
 20
450.0763218159868
 30
0.0
 10
185.9769188169263
 20
449.7735215610928
 30
0.0
 10
182.9680496985566
 20
449.3571189419287
 30
0.0
 10
179.7088086039832
 20
448.8061739885223
 30
0.0
 10
177.6132393874007
 20
448.3433673666204
 30
0.0
 10
176.5020311384648
 20
448.0979569397778
 30
0.0
  0
SPLINE
  5
66
330
1F
100
AcDbEntity
  8
0
  6
Continuous
 62
     7
370
    15
100
AcDbSpline
210
0.0
220
0.0
230
1.0
 70
     8
 71
     3
 72
    18
 73
    14
 74
     0
 42
0.00000001
 43
0.00000001
 40
0.0
 40
0.0
 40
0.0
 40
0.0
 40
0.1088305573391247
 40
0.203490848592319
 40
0.2846543416025225
 40
0.3525516202337076
 40
0.4069233860927301
 40
0.4523289166864488
 40
0.5221729510070127
 40
0.6116333563848317
 40
0.721119367867828
 40
0.8510150474752687
 40
1.0
 40
1.0
 40
1.0
 40
1.0
 10
240.4113807116086
 20
448.0979569468605
 30
0.0
 10
239.4547913158711
 20
448.3108924748463
 30
0.0
 10
237.666165100474
 20
448.7090382929392
 30
0.0
 10
234.9471972667199
 20
449.1921825892111
 30
0.0
 10
232.5145213942496
 20
449.5602867053555
 30
0.0
 10
230.410215115505
 20
449.8311817457355
 30
0.0
 10
228.6342442048096
 20
450.0302797927146
 30
0.0
 10
226.8073016876178
 20
450.211721751175
 30
0.0
 10
224.5648270545332
 20
450.4033349339745
 30
0.0
 10
221.5661533772573
 20
450.6072799861744
 30
0.0
 10
217.8387067724944
 20
450.7872328051637
 30
0.0
 10
213.3873023267075
 20
450.9183795600762
 30
0.0
 10
210.1739492000744
 20
450.9339056251335
 30
0.0
 10
208.4572962387109
 20
450.9422000342782
 30
0.0
  0
SPLINE
  5
67
330
1F
100
AcDbEntity
  8
0
  6
Continuous
 62
     7
370
    15
100
AcDbSpline
210
0.0
220
0.0
230
1.0
 70
     8
 71
     3
 72
     9
 73
     5
 74
     0
 42
0.00000001
 43
0.00000001
 40
0.0
 40
0.0
 40
0.0
 40
0.0
 40
0.0604314894026666
 40
1.0
 40
1.0
 40
1.0
 40
1.0
 10
241.4434801202743
 20
446.7391830941525
 30
0.0
 10
241.4429791144107
 20
446.7483457700845
 30
0.0
 10
241.4346886375671
 20
446.8999666555309
 30
0.0
 10
241.4220936656021
 20
447.0834509122602
 30
0.0
 10
241.4102598265519
 20
447.2558469420733
 30
0.0
  0
SPLINE
  5
68
330
1F
100
AcDbEntity
  8
0
  6
Continuous
 62
     7
370
    15
100
AcDbSpline
210
0.0
220
0.0
230
1.0
 70
     8
 71
     3
 72
     9
 73
     5
 74
     0
 42
0.00000001
 43
0.00000001
 40
0.0
 40
0.0
 40
0.0
 40
0.0
 40
0.5927879501979346
 40
1.0
 40
1.0
 40
1.0
 40
1.0
 10
175.5026511568637
 20
447.2544208758595
 30
0.0
 10
175.4950537059532
 20
447.145697166793
 30
0.0
 10
175.4822372326965
 20
446.9622863720386
 30
0.0
 10
175.4743576838745
 20
446.8106943437182
 30
0.0
 10
175.4711490366472
 20
446.7489642431321
 30
0.0
  0
SPLINE
  5
69
330
1F
100
AcDbEntity
  8
0
  6
Continuous
 62
     7
370
    15
100
AcDbSpline
210
0.0
220
0.0
230
1.0
 70
     8
 71
     3
 72
    11
 73
     7
 74
     0
 42
0.00000001
 43
0.00000001
 40
0.0
 40
0.0
 40
0.0
 40
0.0
 40
0.3594604643429039
 40
0.6350586248076192
 40
0.8446441707270717
 40
0.9999999999999999
 40
0.9999999999999999
 40
0.9999999999999999
 40
0.9999999999999999
 10
176.5319208119973
 20
448.1060975856471
 30
0.0
 10
176.3523082230722
 20
448.0499876558007
 30
0.0
 10
176.0349867509335
 20
447.9508582704553
 30
0.0
 10
175.732654432059
 20
447.7262831535801
 30
0.0
 10
175.5547378661567
 20
447.5165836053325
 30
0.0
 10
175.5177878571168
 20
447.3415133019434
 30
0.0
 10
175.5020582093261
 20
447.2669857366605
 30
0.0
  0
SPLINE
  5
6A
330
1F
100
AcDbEntity
  8
0
  6
Continuous
 62
     7
370
    15
100
AcDbSpline
210
0.0
220
0.0
230
1.0
 70
     8
 71
     3
 72
    11
 73
     7
 74
     0
 42
0.00000001
 43
0.00000001
 40
0.0
 40
0.0
 40
0.0
 40
0.0
 40
0.1550438623853696
 40
0.3649741997989062
 40
0.6394126658621149
 40
1.0
 40
1.0
 40
1.0
 40
1.0
 10
241.4113794284809
 20
447.2668538872277
 30
0.0
 10
241.3956536177363
 20
447.3412944877159
 30
0.0
 10
241.3586349631157
 20
447.5165281163016
 30
0.0
 10
241.1814127611461
 20
447.7256418485352
 30
0.0
 10
240.8784983683076
 20
447.9507224087063
 30
0.0
 10
240.5614969464153
 20
448.049824007629
 30
0.0
 10
240.381493712528
 20
448.1060969674882
 30
0.0
  0
LINE
  5
6B
330
1F
100
AcDbEntity
  8
0
  6
Continuous
 62
     7
370
    15
100
AcDbLine
 10
183.0549791969
 20
362.2687313378
 30
0.0
 11
184.1448531108
 21
324.3982890456
 31
0.0
  0
SPLINE
  5
6C
330
1F
100
AcDbEntity
  8
0
  6
Continuous
 62
     7
370
    15
100
AcDbSpline
210
0.0
220
0.0
230
1.0
 70
     8
 71
     3
 72
    15
 73
    11
 74
     0
 42
0.00000001
 43
0.00000001
 40
0.0
 40
0.0
 40
0.0
 40
0.0
 40
0.0103600048906819
 40
0.1702758168310084
 40
0.3336849047036015
 40
0.4926994372694911
 40
0.650568569642244
 40
0.811270108330911
 40
0.9759620791339515
 40
1.0
 40
1.0
 40
1.0
 40
1.0
 10
241.3582377113175
 20
448.8474689519357
 30
0.0
 10
241.35625609116
 20
448.8796707530184
 30
0.0
 10
241.3236864162872
 20
449.4089357524696
 30
0.0
 10
241.226326324039
 20
450.6261878998295
 30
0.0
 10
241.0659999892531
 20
452.4780455063323
 30
0.0
 10
240.8613547315775
 20
454.5161518115872
 30
0.0
 10
240.6145544222711
 20
456.6863411680997
 30
0.0
 10
240.3072651568113
 20
459.0251471828353
 30
0.0
 10
240.0596749277705
 20
460.7831289428227
 30
0.0
 10
239.8894556156127
 20
461.7705627978714
 30
0.0
 10
239.8677753278781
 20
461.8963290803517
 30
0.0
  0
SPLINE
  5
6D
330
1F
100
AcDbEntity
  8
0
  6
Continuous
 62
     7
370
    15
100
AcDbSpline
210
0.0
220
0.0
230
1.0
 70
     8
 71
     3
 72
    14
 73
    10
 74
     0
 42
0.00000001
 43
0.00000001
 40
0.0
 40
0.0
 40
0.0
 40
0.0
 40
0.0607045936692574
 40
0.2199006835519395
 40
0.3882546014890871
 40
0.5499831867379014
 40
0.7093111512873526
 40
0.8670752898746622
 40
1.0
 40
1.0
 40
1.0
 40
1.0
 10
177.0532479844998
 20
461.9014423708294
 30
0.0
 10
176.999113269136
 20
461.5842888018904
 30
0.0
 10
176.8030117850003
 20
460.4354089167766
 30
0.0
 10
176.5338110595592
 20
458.4969864319197
 30
0.0
 10
176.2351909748825
 20
456.1577823762166
 30
0.0
 10
175.994358826601
 20
453.9682849007785
 30
0.0
 10
175.803174752356
 20
451.9879994523838
 30
0.0
 10
175.6560459318065
 20
450.2693821890868
 30
0.0
 10
175.5869640930944
 20
449.2962469966358
 30
0.0
 10
175.5553747031802
 20
448.8512567125498
 30
0.0
  0
SPLINE
  5
6E
330
1F
100
AcDbEntity
  8
0
  6
Continuous
 62
     7
370
    15
100
AcDbSpline
210
0.0
220
0.0
230
1.0
 70
     8
 71
     3
 72
    27
 73
    23
 74
     0
 42
0.00000001
 43
0.00000001
 40
0.0
 40
0.0
 40
0.0
 40
0.0
 40
0.0489351859290912
 40
0.1178548483554163
 40
0.1903428163781202
 40
0.2501408363394452
 40
0.3046278381260928
 40
0.3517808440495548
 40
0.3945386707334714
 40
0.4336056707906894
 40
0.4758799685737897
 40
0.5166198165242093
 40
0.5555197740695733
 40
0.5937882354697257
 40
0.6344415150677706
 40
0.678058536857848
 40
0.7257285865989966
 40
0.7791400759285938
 40
0.8420062995250093
 40
0.9131038636892181
 40
0.9969750706639597
 40
1.0
 40
1.0
 40
1.0
 40
1.0
 10
239.8620373144111
 20
461.8998954064811
 30
0.0
 10
239.7525336538031
 20
462.5624448097325
 30
0.0
 10
239.4888064998075
 20
464.1581199454376
 30
0.0
 10
238.9443288207529
 20
466.8276818906763
 30
0.0
 10
238.2684202905353
 20
469.6875809874794
 30
0.0
 10
237.4693461041278
 20
472.3497232074687
 30
0.0
 10
236.6122847465165
 20
474.6200177301378
 30
0.0
 10
235.6868906131269
 20
476.6030526923871
 30
0.0
 10
234.6950536189418
 20
478.3053573060755
 30
0.0
 10
233.5742565058543
 20
479.8537735971081
 30
0.0
 10
232.2899430408555
 20
481.2506511507225
 30
0.0
 10
230.8370613695574
 20
482.4920137978265
 30
0.0
 10
229.2819655715948
 20
483.5167371873243
 30
0.0
 10
227.618270129755
 20
484.3708390847158
 30
0.0
 10
225.8023086191553
 20
485.0904517679119
 30
0.0
 10
223.7811875475024
 20
485.694397447801
 30
0.0
 10
221.5165381745349
 20
486.1878605116947
 30
0.0
 10
218.9183503625974
 20
486.5872704975801
 30
0.0
 10
215.9262850449533
 20
486.8845188991648
 30
0.0
 10
212.4346407978102
 20
487.0537809908222
 30
0.0
 10
209.8991444316875
 20
487.1149708961589
 30
0.0
 10
208.5047756054642
 20
487.1024954038527
 30
0.0
 10
208.4562364258554
 20
487.1020611212222
 30
0.0
  0
SPLINE
  5
6F
330
1F
100
AcDbEntity
  8
0
  6
Continuous
 62
     7
370
    15
100
AcDbSpline
210
0.0
220
0.0
230
1.0
 70
     8
 71
     3
 72
    26
 73
    22
 74
     0
 42
0.00000001
 43
0.00000001
 40
0.0
 40
0.0
 40
0.0
 40
0.0
 40
0.0815035350838464
 40
0.1615244775089703
 40
0.2269591088702987
 40
0.2813035459196534
 40
0.3300910792633872
 40
0.3750729131831032
 40
0.4155172618576824
 40
0.453965027843336
 40
0.4909278394340997
 40
0.5299976917728079
 40
0.5683497111815781
 40
0.6080835321947551
 40
0.6496075779451294
 40
0.695721624478755
 40
0.7456521374749243
 40
0.8011663707859368
 40
0.8652523791529673
 40
0.9376092171499862
 40
1.0
 40
1.0
 40
1.0
 40
1.0
 10
208.4562668106926
 20
487.0968637569686
 30
0.0
 10
207.1481767844927
 20
487.0907325510593
 30
0.0
 10
204.5557915855039
 20
487.0785816691378
 30
0.0
 10
200.918315216426
 20
486.8740766660869
 30
0.0
 10
197.7282532909476
 20
486.5580638936228
 30
0.0
 10
195.0579449037924
 20
486.1370079928313
 30
0.0
 10
192.7471914314241
 20
485.6005882104597
 30
0.0
 10
190.7047449610128
 20
484.9469816791683
 30
0.0
 10
188.886193101939
 20
484.1814423482886
 30
0.0
 10
187.2745226816957
 20
483.2999784436624
 30
0.0
 10
185.7925533198194
 20
482.2697241897419
 30
0.0
 10
184.4527395141205
 20
481.0814383205062
 30
0.0
 10
183.240257081966
 20
479.7259500673831
 30
0.0
 10
182.170217833291
 20
478.2280707176417
 30
0.0
 10
181.194269503715
 20
476.5452474690927
 30
0.0
 10
180.3101294346336
 20
474.6552378840018
 30
0.0
 10
179.510237031597
 20
472.5214672834749
 30
0.0
 10
178.777944653004
 20
470.1079211931972
 30
0.0
 10
178.0868571265517
 20
467.3806743611171
 30
0.0
 10
177.4997003031344
 20
464.5772149432306
 30
0.0
 10
177.1918290132148
 20
462.7454413256063
 30
0.0
 10
177.0492785869113
 20
461.8972943283594
 30
0.0
  0
LINE
  5
70
330
1F
100
AcDbEntity
  8
0
  6
Continuous
 62
     7
370
    15
100
AcDbLine
 10
232.768558762
 20
324.3982890456
 30
0.0
 11
233.8584326765
 21
362.2687313592
 31
0.0
  0
CIRCLE
  5
71
330
1F
100
AcDbEntity
  8
0
  6
Continuous
 62
     7
370
    15
100
AcDbCircle
 10
208.4567059364
 20
423.1934683361
 30
0.0
 40
8.425200000000075
  0
CIRCLE
  5
72
330
1F
100
AcDbEntity
  8
0
  6
Continuous
 62
     7
370
    15
100
AcDbCircle
 10
208.4567059364
 20
423.1934683361
 30
0.0
 40
8.92670000000006
  0
CIRCLE
  5
73
330
1F
100
AcDbEntity
  8
0
  6
Continuous
 62
     7
370
    15
100
AcDbCircle
 10
208.4567059364
 20
423.1934683361
 30
0.0
 40
6.369050000000054
  0
CIRCLE
  5
74
330
1F
100
AcDbEntity
  8
0
  6
Continuous
 62
     7
370
    15
100
AcDbCircle
 10
208.4567059364
 20
423.1934683361
 30
0.0
 40
5.516500000000047
  0
CIRCLE
  5
75
330
1F
100
AcDbEntity
  8
0
  6
Continuous
 62
     7
370
    15
100
AcDbCircle
 10
208.4567059364
 20
423.1934683361
 30
0.0
 40
2.758250000000005
  0
ARC
  5
76
330
1F
100
AcDbEntity
  8
0
  6
Continuous
 62
     7
370
    15
100
AcDbCircle
 10
208.4567059364
 20
423.1934683361
 30
0.0
 40
11.03300000000019
100
AcDbArc
 50
180.0
 51
0.0
  0
ARC
  5
77
330
1F
100
AcDbEntity
  8
0
  6
Continuous
 62
     7
370
    15
100
AcDbCircle
 10
208.4567059364
 20
423.1934683361
 30
0.0
 40
11.03300000000019
100
AcDbArc
 50
0.0
 51
180.0
  0
SPLINE
  5
78
330
1F
100
AcDbEntity
  8
0
  6
Continuous
 62
     7
370
    15
100
AcDbSpline
210
0.0
220
0.0
230
1.0
 70
    24
 71
     3
 72
     8
 73
     4
 74
     0
 42
0.00000001
 43
0.00000001
 40
0.0
 40
0.0
 40
0.0
 40
0.0
 40
1.0
 40
1.0
 40
1.0
 40
1.0
 10
219.4897059363749
 20
418.3832493182207
 30
0.0
 10
219.4897059363749
 20
419.9687781119424
 30
0.0
 10
219.4897059363749
 20
421.5700936974818
 30
0.0
 10
219.4897059363749
 20
423.1934683361042
 30
0.0
  0
ARC
  5
79
330
1F
100
AcDbEntity
  8
0
  6
Continuous
 62
     7
370
    15
100
AcDbCircle
 10
208.4567059364
 20
423.1934683361
 30
0.0
 40
12.0360000000004
100
AcDbArc
 50
203.5564643091
 51
336.4435356909
  0
SPLINE
  5
7A
330
1F
100
AcDbEntity
  8
0
  6
Continuous
 62
     7
370
    15
100
AcDbSpline
210
0.0
220
0.0
230
1.0
 70
    24
 71
     3
 72
     8
 73
     4
 74
     0
 42
0.00000001
 43
0.00000001
 40
0.0
 40
0.0
 40
0.0
 40
0.0
 40
1.0
 40
1.0
 40
1.0
 40
1.0
 10
197.4237059363749
 20
418.3832493182211
 30
0.0
 10
197.4237059363749
 20
419.9687781119425
 30
0.0
 10
197.4237059363749
 20
421.5700936974818
 30
0.0
 10
197.4237059363749
 20
423.1934683361039
 30
0.0
  0
ARC
  5
7B
330
1F
100
AcDbEntity
  8
0
  6
Continuous
 62
     7
370
    15
100
AcDbCircle
 10
208.4567059364
 20
423.1934683361
 30
0.0
 40
12.03599999999974
100
AcDbArc
 50
23.5564643091
 51
156.4435356909
  0
SPLINE
  5
7C
330
1F
100
AcDbEntity
  8
0
  6
Continuous
 62
     7
370
    15
100
AcDbSpline
210
0.0
220
0.0
230
1.0
 70
    24
 71
     3
 72
    10
 73
     6
 74
     0
 42
0.00000001
 43
0.00000001
 40
0.0
 40
0.0
 40
0.0
 40
0.0
 40
0.5
 40
0.5
 40
1.0
 40
1.0
 40
1.0
 40
1.0
 10
219.4897059363749
 20
423.1934683361042
 30
0.0
 10
219.4897059363749
 20
424.0032653119337
 30
0.0
 10
219.4897059363749
 20
424.8225519571882
 30
0.0
 10
219.4897059363749
 20
426.4288259576097
 30
0.0
 10
219.4897059363749
 20
427.220604557301
 30
0.0
 10
219.4897059363749
 20
428.0036873539865
 30
0.0
  0
SPLINE
  5
7D
330
1F
100
AcDbEntity
  8
0
  6
Continuous
 62
     7
370
    15
100
AcDbSpline
210
0.0
220
0.0
230
1.0
 70
    24
 71
     3
 72
    10
 73
     6
 74
     0
 42
0.00000001
 43
0.00000001
 40
0.0
 40
0.0
 40
0.0
 40
0.0
 40
0.5
 40
0.5
 40
1.0
 40
1.0
 40
1.0
 40
1.0
 10
197.4237059363749
 20
423.1934683361039
 30
0.0
 10
197.4237059363749
 20
424.0032653119335
 30
0.0
 10
197.4237059363749
 20
424.8225519571879
 30
0.0
 10
197.4237059363749
 20
426.4288259576093
 30
0.0
 10
197.4237059363749
 20
427.2206045573006
 30
0.0
 10
197.4237059363749
 20
428.0036873539861
 30
0.0
  0
ARC
  5
7E
330
1F
100
AcDbEntity
  8
0
  6
Continuous
 62
     7
370
    15
100
AcDbCircle
 10
208.4567059364
 20
423.1934683361
 30
0.0
 40
12.03600000000014
100
AcDbArc
 50
156.4435356909
 51
203.5564643091
  0
ARC
  5
7F
330
1F
100
AcDbEntity
  8
0
  6
Continuous
 62
     7
370
    15
100
AcDbCircle
 10
208.4567059364
 20
423.1934683361
 30
0.0
 40
12.03600000000028
100
AcDbArc
 50
336.4435356909
 51
23.5564643091
  0
CIRCLE
  5
80
330
1F
100
AcDbEntity
  8
0
  6
Continuous
 62
     7
370
    15
100
AcDbCircle
 10
208.4567059364
 20
423.1934683361
 30
0.0
 40
12.83840000000039
  0
SPLINE
  5
81
330
1F
100
AcDbEntity
  8
0
  6
Continuous
 62
     7
370
    15
100
AcDbSpline
210
0.0
220
0.0
230
1.0
 70
     8
 71
     3
 72
    17
 73
    13
 74
     0
 42
0.00000001
 43
0.00000001
 40
0.0
 40
0.0
 40
0.0
 40
0.0
 40
0.0450965587110598
 40
0.1534997181744161
 40
0.2619429135484966
 40
0.3705319402558401
 40
0.4791834207477532
 40
0.5878034950231792
 40
0.6965169952619839
 40
0.8055559838771253
 40
0.9147253650025937
 40
1.0
 40
1.0
 40
1.0
 40
1.0
 10
175.4611468049792
 20
439.4197999993572
 30
0.0
 10
175.4562314187881
 20
439.4505158117268
 30
0.0
 10
175.4395004216432
 20
439.5550663290386
 30
0.0
 10
175.4135702096728
 20
439.7585938973259
 30
0.0
 10
175.3854712829159
 20
440.051627267447
 30
0.0
 10
175.3622977083592
 20
440.392086987577
 30
0.0
 10
175.3445341748985
 20
440.78472638047
 30
0.0
 10
175.332634810867
 20
441.2355212907855
 30
0.0
 10
175.327298458146
 20
441.7492557982335
 30
0.0
 10
175.3296571726363
 20
442.3345812386947
 30
0.0
 10
175.3379811739923
 20
442.9371386348867
 30
0.0
 10
175.350263516585
 20
443.3825319911055
 30
0.0
 10
175.3556500144696
 20
443.5778620230558
 30
0.0
  0
SPLINE
  5
82
330
1F
100
AcDbEntity
  8
0
  6
Continuous
 62
     7
370
    15
100
AcDbSpline
210
0.0
220
0.0
230
1.0
 70
     8
 71
     3
 72
    18
 73
    14
 74
     0
 42
0.00000001
 43
0.00000001
 40
0.0
 40
0.0
 40
0.0
 40
0.0
 40
0.0571288046419773
 40
0.148370019640832
 40
0.2397631783551126
 40
0.3300550073190847
 40
0.420459362209383
 40
0.5110113759887188
 40
0.6017471777580197
 40
0.7011542928405047
 40
0.8006346578728067
 40
0.900294587075882
 40
1.0
 40
1.0
 40
1.0
 40
1.0
 10
241.49396827595
 20
445.1654209140225
 30
0.0
 10
241.5046364109609
 20
444.960868096227
 30
0.0
 10
241.5323427739946
 20
444.4296211047293
 30
0.0
 10
241.5542707516763
 20
443.7369988489848
 30
0.0
 10
241.5742467561861
 20
442.9914346442563
 30
0.0
 10
241.583848477193
 20
442.3360851203066
 30
0.0
 10
241.5860886355076
 20
441.7527002514163
 30
0.0
 10
241.5808314299853
 20
441.2373453835098
 30
0.0
 10
241.5685014883664
 20
440.7703046415619
 30
0.0
 10
241.5492140376761
 20
440.3532887785652
 30
0.0
 10
241.5226882493182
 20
439.9869471420494
 30
0.0
 10
241.490664856074
 20
439.6726950774469
 30
0.0
 10
241.4650669438501
 20
439.5041111790342
 30
0.0
 10
241.4522650677515
 20
439.4197999992462
 30
0.0
  0
SPLINE
  5
83
330
1F
100
AcDbEntity
  8
0
  6
Continuous
 62
     7
370
    15
100
AcDbSpline
210
0.0
220
0.0
230
1.0
 70
     8
 71
     3
 72
     8
 73
     4
 74
     0
 42
0.00000001
 43
0.00000001
 40
0.0
 40
0.0
 40
0.0
 40
0.0
 40
1.0
 40
1.0
 40
1.0
 40
1.0
 10
175.6836330400362
 20
448.5428169130515
 30
0.0
 10
175.648527836183
 20
448.604012421013
 30
0.0
 10
175.6144693826151
 20
448.6652576365182
 30
0.0
 10
175.5813945166928
 20
448.7265495601318
 30
0.0
  0
SPLINE
  5
84
330
1F
100
AcDbEntity
  8
0
  6
Continuous
 62
     7
370
    15
100
AcDbSpline
210
0.0
220
0.0
230
1.0
 70
     8
 71
     3
 72
    14
 73
    10
 74
     0
 42
0.00000001
 43
0.00000001
 40
0.0
 40
0.0
 40
0.0
 40
0.0
 40
0.2500000000000007
 40
0.2500000000000007
 40
0.5000000000000004
 40
0.5000000000000004
 40
0.7500000000000002
 40
0.7500000000000002
 40
1.0
 40
1.0
 40
1.0
 40
1.0
 10
176.2677059275819
 20
449.3001427410032
 30
0.0
 10
176.1154977328877
 20
449.2651854422011
 30
0.0
 10
175.9933610638357
 20
449.2241904227997
 30
0.0
 10
175.7917093334044
 20
449.1336428747887
 30
0.0
 10
175.7157369005045
 20
449.085258381899
 30
0.0
 10
175.6063270697232
 20
448.9856715156699
 30
0.0
 10
175.5725217187739
 20
448.9336156999421
 30
0.0
 10
175.5464364989687
 20
448.8301866870858
 30
0.0
 10
175.5534124223964
 20
448.7784039316727
 30
0.0
 10
175.5813945166928
 20
448.7265495601319
 30
0.0
  0
SPLINE
  5
85
330
1F
100
AcDbEntity
  8
0
  6
Continuous
 62
     7
370
    15
100
AcDbSpline
210
0.0
220
0.0
230
1.0
 70
     8
 71
     3
 72
    20
 73
    16
 74
     0
 42
0.00000001
 43
0.00000001
 40
0.0
 40
0.0
 40
0.0
 40
0.0
 40
0.2500000000000002
 40
0.2500000000000002
 40
0.3750000000000002
 40
0.3750000000000002
 40
0.5000000000000002
 40
0.5000000000000002
 40
0.7500000000000002
 40
0.7500000000000002
 40
0.8125000000000001
 40
0.8125000000000001
 40
0.8750000000000001
 40
0.8750000000000001
 40
1.0
 40
1.0
 40
1.0
 40
1.0
 10
176.2677059275816
 20
449.3001427409972
 30
0.0
 10
178.4465747952793
 20
449.8005584394527
 30
0.0
 10
180.7822801036357
 20
450.2393286054011
 30
0.0
 10
184.5510258106701
 20
450.7932501720534
 30
0.0
 10
185.8510931621786
 20
450.9606964649291
 30
0.0
 10
188.5392367479702
 20
451.2608804556256
 30
0.0
 10
189.9031192708793
 20
451.3909683031077
 30
0.0
 10
194.0477426627203
 20
451.727738804248
 30
0.0
 10
196.8812644954986
 20
451.8811251783348
 30
0.0
 10
200.4918430485301
 20
452.0035113777933
 30
0.0
 10
201.2181242027995
 20
452.0245122194256
 30
0.0
 10
202.6677155007219
 20
452.0597622222696
 30
0.0
 10
203.3921366535526
 20
452.0740567134713
 30
0.0
 10
205.5643668171017
 20
452.1077507747221
 30
0.0
 10
207.0111523711427
 20
452.1180484271643
 30
0.0
 10
208.4567059363004
 20
452.117389620426
 30
0.0
  0
SPLINE
  5
86
330
1F
100
AcDbEntity
  8
0
  6
Continuous
 62
     7
370
    15
100
AcDbSpline
210
0.0
220
0.0
230
1.0
 70
     8
 71
     3
 72
    20
 73
    16
 74
     0
 42
0.00000001
 43
0.00000001
 40
0.0
 40
0.0
 40
0.0
 40
0.0
 40
0.125
 40
0.125
 40
0.25
 40
0.25
 40
0.5
 40
0.5
 40
0.5625
 40
0.5625
 40
0.625
 40
0.625
 40
0.75
 40
0.75
 40
1.0
 40
1.0
 40
1.0
 40
1.0
 10
208.4567059364487
 20
452.117389620426
 30
0.0
 10
209.916387260406
 20
452.1180548658483
 30
0.0
 10
211.3708812770624
 20
452.1075174369836
 30
0.0
 10
214.2612002578529
 20
452.0624727794832
 30
0.0
 10
215.6981581572884
 20
452.027914029537
 30
0.0
 10
219.9809964171032
 20
451.8830937690101
 30
0.0
 10
222.7990538135216
 20
451.7320000693088
 30
0.0
 10
226.2596851082457
 20
451.4522309040225
 30
0.0
 10
226.9486970883776
 20
451.3917066441178
 30
0.0
 10
228.3200380760861
 20
451.2608503842109
 30
0.0
 10
229.0047912063809
 20
451.1902332897614
 30
0.0
 10
231.0255803970334
 20
450.965232492478
 30
0.0
 10
232.3292673775884
 20
450.7977499935039
 30
0.0
 10
236.1104102324144
 20
450.2430974325281
 30
0.0
 10
238.4561707576002
 20
449.8030081481004
 30
0.0
 10
240.6457059451678
 20
449.3001427409971
 30
0.0
  0
SPLINE
  5
87
330
1F
100
AcDbEntity
  8
0
  6
Continuous
 62
     7
370
    15
100
AcDbSpline
210
0.0
220
0.0
230
1.0
 70
     8
 71
     3
 72
    14
 73
    10
 74
     0
 42
0.00000001
 43
0.00000001
 40
0.0
 40
0.0
 40
0.0
 40
0.0
 40
0.25
 40
0.25
 40
0.5
 40
0.5
 40
0.75
 40
0.75
 40
1.0
 40
1.0
 40
1.0
 40
1.0
 10
241.3320173560546
 20
448.7265495601407
 30
0.0
 10
241.3600065196454
 20
448.7784170319803
 30
0.0
 10
241.3669311549582
 20
448.8301206619649
 30
0.0
 10
241.3410508261498
 20
448.9332189014653
 30
0.0
 10
241.307484567787
 20
448.9852222643614
 30
0.0
 10
241.1979362700148
 20
449.085105408497
 30
0.0
 10
241.1227782855281
 20
449.133083591408
 30
0.0
 10
240.9205540407874
 20
449.2240401059856
 30
0.0
 10
240.7978573190226
 20
449.2651984921031
 30
0.0
 10
240.6457059451799
 20
449.3001427409943
 30
0.0
  0
SPLINE
  5
88
330
1F
100
AcDbEntity
  8
0
  6
Continuous
 62
     7
370
    15
100
AcDbSpline
210
0.0
220
0.0
230
1.0
 70
     8
 71
     3
 72
     8
 73
     4
 74
     0
 42
0.00000001
 43
0.00000001
 40
0.0
 40
0.0
 40
0.0
 40
0.0
 40
1.0
 40
1.0
 40
1.0
 40
1.0
 10
241.3320173560553
 20
448.7265495601302
 30
0.0
 10
241.2989362638799
 20
448.6652460984793
 30
0.0
 10
241.2648772921795
 20
448.6040006641759
 30
0.0
 10
241.229778832713
 20
448.5428169130518
 30
0.0
  0
LINE
  5
89
330
1F
100
AcDbEntity
  8
0
  6
Continuous
 62
     7
370
    15
100
AcDbLine
 10
231.8910153752
 20
324.3982890456
 30
0.0
 11
208.4567059364
 21
324.3982890456
 31
0.0
  0
LINE
  5
8A
330
1F
100
AcDbEntity
  8
0
  6
Continuous
 62
     7
370
    15
100
AcDbLine
 10
208.4567059364
 20
324.3982890456
 30
0.0
 11
184.1448531108
 21
324.3982890456
 31
0.0
  0
SPLINE
  5
8B
330
1F
100
AcDbEntity
  8
0
  6
Continuous
 62
     7
370
    15
100
AcDbSpline
210
0.0
220
0.0
230
1.0
 70
     8
 71
     3
 72
     9
 73
     5
 74
     0
 42
0.00000001
 43
0.00000001
 40
0.0
 40
0.0
 40
0.0
 40
0.0
 40
0.4251470728683447
 40
0.9999999999999999
 40
0.9999999999999999
 40
0.9999999999999999
 40
0.9999999999999999
 10
241.229778832713
 20
448.5428169130519
 30
0.0
 10
241.1700668903806
 20
448.4426824324782
 30
0.0
 10
241.0296168058261
 20
448.207153395672
 30
0.0
 10
240.8597733429052
 20
448.0524849606389
 30
0.0
 10
240.7621383310909
 20
447.9635733580251
 30
0.0
  0
SPLINE
  5
8C
330
1F
100
AcDbEntity
  8
0
  6
Continuous
 62
     7
370
    15
100
AcDbSpline
210
0.0
220
0.0
230
1.0
 70
     8
 71
     3
 72
    10
 73
     6
 74
     0
 42
0.00000001
 43
0.00000001
 40
0.0
 40
0.0
 40
0.0
 40
0.0
 40
0.054753627955469
 40
0.5264416348625867
 40
0.9999999999999999
 40
0.9999999999999999
 40
0.9999999999999999
 40
0.9999999999999999
 10
176.1328552998205
 20
447.9569039557039
 30
0.0
 10
176.1234962123251
 20
447.9645507127996
 30
0.0
 10
176.0335110642002
 20
448.0380722575295
 30
0.0
 10
175.8821826640632
 20
448.2259462482729
 30
0.0
 10
175.7499034949401
 20
448.4370541184682
 30
0.0
 10
175.6836330400362
 20
448.5428169130516
 30
0.0
  0
LINE
  5
8D
330
1F
100
AcDbEntity
  8
0
  6
Continuous
 62
     7
370
    15
100
AcDbLine
 10
232.768558762
 20
324.3982890456
 30
0.0
 11
231.8910153752
 21
324.3982890456
 31
0.0
  0
SPLINE
  5
8E
330
1F
100
AcDbEntity
  8
0
  6
Continuous
 62
     8
370
     0
100
AcDbSpline
210
0.0
220
0.0
230
1.0
 70
     8
 71
     3
 72
    44
 73
    40
 74
     0
 42
0.00000001
 43
0.00000001
 40
0.0
 40
0.0
 40
0.0
 40
0.0
 40
0.0625000000000007
 40
0.0625000000000007
 40
0.1250000000000014
 40
0.1250000000000014
 40
0.1875000000000021
 40
0.1875000000000021
 40
0.2500000000000027
 40
0.2500000000000027
 40
0.3125000000000033
 40
0.3125000000000033
 40
0.3437500000000037
 40
0.3437500000000037
 40
0.3750000000000041
 40
0.3750000000000041
 40
0.3906250000000044
 40
0.3906250000000044
 40
0.4062500000000047
 40
0.4062500000000047
 40
0.4375000000000048
 40
0.4375000000000048
 40
0.4687500000000049
 40
0.4687500000000049
 40
0.5000000000000049
 40
0.5000000000000049
 40
0.531250000000005
 40
0.531250000000005
 40
0.562500000000005
 40
0.562500000000005
 40
0.6250000000000044
 40
0.6250000000000044
 40
0.6875000000000038
 40
0.6875000000000038
 40
0.7500000000000031
 40
0.7500000000000031
 40
0.8750000000000016
 40
0.8750000000000016
 40
1.0
 40
1.0
 40
1.0
 40
1.0
 10
208.4567059348879
 20
440.2294929146051
 30
0.0
 10
209.6650907926451
 20
440.2299359073317
 30
0.0
 10
210.8735455719234
 20
440.2279974849831
 30
0.0
 10
213.2892639511434
 20
440.2201917521379
 30
0.0
 10
214.4965649577865
 20
440.2144817360596
 30
0.0
 10
216.908983481683
 20
440.2010248076367
 30
0.0
 10
218.1141757237174
 20
440.1932868044353
 30
0.0
 10
220.5201585260626
 20
440.1772726172214
 30
0.0
 10
221.7136002025773
 20
440.1690569641065
 30
0.0
 10
224.0675991782711
 20
440.1531825243866
 30
0.0
 10
225.2285274461847
 20
440.1452593294303
 30
0.0
 10
226.9280138269833
 20
440.1358469765124
 30
0.0
 10
227.4793935244043
 20
440.1333133147517
 30
0.0
 10
228.5381658298111
 20
440.1300983342966
 30
0.0
 10
229.0468732089613
 20
440.1293925349089
 30
0.0
 10
229.7759427408094
 20
440.1298177638884
 30
0.0
 10
230.0133110185752
 20
440.1302055138761
 30
0.0
 10
230.4764170110785
 20
440.13146559546
 30
0.0
 10
230.7030483602823
 20
440.1323438095265
 30
0.0
 10
231.3560515155376
 20
440.1355868049866
 30
0.0
 10
231.7570934242678
 20
440.1385524116459
 30
0.0
 10
232.5012173625376
 20
440.1452199419565
 30
0.0
 10
232.8444071113571
 20
440.1488963405816
 30
0.0
 10
233.4815980972966
 20
440.1565610626059
 30
0.0
 10
233.776118107998
 20
440.1605831025652
 30
0.0
 10
234.3172323780258
 20
440.1685206471565
 30
0.0
 10
234.564959846093
 20
440.1724353403779
 30
0.0
 10
235.0249021891925
 20
440.1797566090825
 30
0.0
 10
235.2374291768597
 20
440.1831671549493
 30
0.0
 10
235.8297367222668
 20
440.1924567865378
 30
0.0
 10
236.1636730619191
 20
440.1974201387742
 30
0.0
 10
236.7525466683839
 20
440.2055987375453
 30
0.0
 10
237.0072120420677
 20
440.2087818297618
 30
0.0
 10
237.4642273968556
 20
440.2131721409675
 30
0.0
 10
237.6658821657832
 20
440.2145061396793
 30
0.0
 10
238.2067491216193
 20
440.2185343204804
 30
0.0
 10
238.485875940793
 20
440.2205534086627
 30
0.0
 10
238.9652495095808
 20
440.220447666467
 30
0.0
 10
239.161402397051
 20
440.218977024531
 30
0.0
 10
239.3275741835398
 20
440.2195529237766
 30
0.0
  0
SPLINE
  5
8F
330
1F
100
AcDbEntity
  8
0
  6
Continuous
 62
     8
370
    15
100
AcDbSpline
210
0.0
220
0.0
230
1.0
 70
     8
 71
     3
 72
    40
 73
    36
 74
     0
 42
0.00000001
 43
0.00000001
 40
0.0
 40
0.0
 40
0.0
 40
0.0
 40
0.1250000000000006
 40
0.1250000000000006
 40
0.2500000000000012
 40
0.2500000000000012
 40
0.3125000000000014
 40
0.3125000000000014
 40
0.3750000000000018
 40
0.3750000000000018
 40
0.4375000000000021
 40
0.4375000000000021
 40
0.5000000000000023
 40
0.5000000000000023
 40
0.5312500000000021
 40
0.5312500000000021
 40
0.562500000000002
 40
0.562500000000002
 40
0.5937500000000018
 40
0.5937500000000018
 40
0.6093750000000017
 40
0.6093750000000017
 40
0.6250000000000014
 40
0.6250000000000014
 40
0.6875000000000013
 40
0.6875000000000013
 40
0.7500000000000011
 40
0.7500000000000011
 40
0.8125000000000009
 40
0.8125000000000009
 40
0.8750000000000007
 40
0.8750000000000007
 40
0.9375000000000003
 40
0.9375000000000003
 40
1.0
 40
1.0
 40
1.0
 40
1.0
 10
240.3729942773548
 20
438.315152382827
 30
0.0
 10
240.2081287560088
 20
438.2905536292835
 30
0.0
 10
240.0099990988684
 20
438.2682195984558
 30
0.0
 10
239.5203609095821
 20
438.2184944644599
 30
0.0
 10
239.2329278267498
 20
438.1899740018565
 30
0.0
 10
238.6719292099801
 20
438.148573777655
 30
0.0
 10
238.4623772821072
 20
438.1349667741401
 30
0.0
 10
237.9866638117472
 20
438.1060250402007
 30
0.0
 10
237.7208112641547
 20
438.0910593907935
 30
0.0
 10
237.1031899780283
 20
438.0604738678028
 30
0.0
 10
236.7516140994988
 20
438.0449550061228
 30
0.0
 10
235.9181926788659
 20
438.0142382188682
 30
0.0
 10
235.4414005392638
 20
437.9986245660323
 30
0.0
 10
234.5819568931631
 20
437.9796527848752
 30
0.0
 10
234.2712826233115
 20
437.9743036271351
 30
0.0
 10
233.6009479464153
 20
437.9664718869151
 30
0.0
 10
233.2403949213114
 20
437.96369048687
 30
0.0
 10
232.4603830252854
 20
437.9614495943284
 30
0.0
 10
232.0408279279419
 20
437.9620641678287
 30
0.0
 10
231.3600460565241
 20
437.9663701366615
 30
0.0
 10
231.1254802886527
 20
437.9683599876878
 30
0.0
 10
230.6465239552544
 20
437.9733543464068
 30
0.0
 10
230.4013584110791
 20
437.9763618342561
 30
0.0
 10
229.1478108380271
 20
437.9936618289647
 30
0.0
 10
228.0554861260477
 20
438.0150531506328
 30
0.0
 10
225.7231357305756
 20
438.0621555578152
 30
0.0
 10
224.528443667665
 20
438.0840805530214
 30
0.0
 10
222.1058342431659
 20
438.1213554508922
 30
0.0
 10
220.8775406783917
 20
438.137807097852
 30
0.0
 10
218.4012883615324
 20
438.1684533079953
 30
0.0
 10
217.1591926686326
 20
438.1825303831876
 30
0.0
 10
214.6749908003358
 20
438.2084611439042
 30
0.0
 10
213.4319150698466
 20
438.2203986782971
 30
0.0
 10
210.9448452000404
 20
438.2400495591436
 30
0.0
 10
209.7008135903475
 20
438.2484468008107
 30
0.0
 10
208.4568210795837
 20
438.2494217639414
 30
0.0
  0
SPLINE
  5
90
330
1F
100
AcDbEntity
  8
0
  6
Continuous
 62
     8
370
     0
100
AcDbSpline
210
0.0
220
0.0
230
1.0
 70
     8
 71
     3
 72
    44
 73
    40
 74
     0
 42
0.00000001
 43
0.00000001
 40
0.0
 40
0.0
 40
0.0
 40
0.0
 40
0.1250000000000007
 40
0.1250000000000007
 40
0.2500000000000014
 40
0.2500000000000014
 40
0.3125000000000016
 40
0.3125000000000016
 40
0.3750000000000017
 40
0.3750000000000017
 40
0.4375000000000019
 40
0.4375000000000019
 40
0.5000000000000021
 40
0.5000000000000021
 40
0.5312500000000019
 40
0.5312500000000019
 40
0.5468750000000017
 40
0.5468750000000017
 40
0.5625000000000016
 40
0.5625000000000016
 40
0.5937500000000008
 40
0.5937500000000008
 40
0.6093750000000006
 40
0.6093750000000006
 40
0.6250000000000004
 40
0.6250000000000004
 40
0.6875
 40
0.6875
 40
0.71875
 40
0.71875
 40
0.7499999999999999
 40
0.7499999999999999
 40
0.8125
 40
0.8125
 40
0.875
 40
0.875
 40
0.9375
 40
0.9375
 40
1.0
 40
1.0
 40
1.0
 40
1.0
 10
177.5854888760259
 20
440.2195541357428
 30
0.0
 10
177.7514647158769
 20
440.2189759747697
 30
0.0
 10
177.9471699748319
 20
440.2204413536027
 30
0.0
 10
178.4253636027532
 20
440.2205589832299
 30
0.0
 10
178.7038630030657
 20
440.2185557217376
 30
0.0
 10
179.2447567926791
 20
440.2145265196298
 30
0.0
 10
179.4466168220256
 20
440.21319292905
 30
0.0
 10
179.9049826290303
 20
440.2087973689537
 30
0.0
 10
180.1614576544678
 20
440.2055908940961
 30
0.0
 10
180.7501074745505
 20
440.1974146331198
 30
0.0
 10
181.0823973608304
 20
440.1924732830399
 30
0.0
 10
181.8584384568423
 20
440.1803090265116
 30
0.0
 10
182.3008842625675
 20
440.1729009564369
 30
0.0
 10
183.0983015648279
 20
440.161133032112
 30
0.0
 10
183.3868425357543
 20
440.1571498653307
 30
0.0
 10
183.8638322080585
 20
440.1513452191434
 30
0.0
 10
184.0308566134367
 20
440.1494313966174
 30
0.0
 10
184.3774718934791
 20
440.1457345499442
 30
0.0
 10
184.5571349258089
 20
440.1439467915621
 30
0.0
 10
185.1165416981696
 20
440.1388652617076
 30
0.0
 10
185.5167446362823
 20
440.1358575436528
 30
0.0
 10
186.1638189552567
 20
440.1325455328981
 30
0.0
 10
186.3873001585005
 20
440.1316415604014
 30
0.0
 10
186.8506081600905
 20
440.1303073030047
 30
0.0
 10
187.0913864932569
 20
440.1298764873011
 30
0.0
 10
188.3256690577796
 20
440.1290098995213
 30
0.0
 10
189.3963480912556
 20
440.1326112892842
 30
0.0
 10
191.0950935937718
 20
440.1419799232868
 30
0.0
 10
191.6783980994433
 20
440.1456496060675
 30
0.0
 10
192.8465026502
 20
440.1532170038564
 30
0.0
 10
193.4341343550421
 20
440.1571498617201
 30
0.0
 10
195.2051505730479
 20
440.1690931112075
 30
0.0
 10
196.3965486531103
 20
440.1772941829213
 30
0.0
 10
198.7915033313528
 20
440.1932357020429
 30
0.0
 10
199.9951085850807
 20
440.2009678853871
 30
0.0
 10
202.4088156645977
 20
440.2144418354673
 30
0.0
 10
203.6188294332136
 20
440.2201706988328
 30
0.0
 10
206.037477477496
 20
440.2279936219122
 30
0.0
 10
207.2470122220934
 20
440.2299363871579
 30
0.0
 10
208.4567059378617
 20
440.2294929146051
 30
0.0
  0
SPLINE
  5
91
330
1F
100
AcDbEntity
  8
0
  6
Continuous
 62
     8
370
    15
100
AcDbSpline
210
0.0
220
0.0
230
1.0
 70
     8
 71
     3
 72
    42
 73
    38
 74
     0
 42
0.00000001
 43
0.00000001
 40
0.0
 40
0.0
 40
0.0
 40
0.0
 40
0.0625000000000001
 40
0.0625000000000001
 40
0.1250000000000001
 40
0.1250000000000001
 40
0.1875000000000002
 40
0.1875000000000002
 40
0.2500000000000003
 40
0.2500000000000003
 40
0.2812500000000004
 40
0.2812500000000004
 40
0.3125000000000004
 40
0.3125000000000004
 40
0.3750000000000009
 40
0.3750000000000009
 40
0.3906250000000009
 40
0.3906250000000009
 40
0.4062500000000009
 40
0.4062500000000009
 40
0.437500000000001
 40
0.437500000000001
 40
0.468750000000001
 40
0.468750000000001
 40
0.500000000000001
 40
0.500000000000001
 40
0.562500000000001
 40
0.562500000000001
 40
0.6250000000000009
 40
0.6250000000000009
 40
0.6875000000000009
 40
0.6875000000000009
 40
0.7500000000000009
 40
0.7500000000000009
 40
0.8750000000000004
 40
0.8750000000000004
 40
1.0
 40
1.0
 40
1.0
 40
1.0
 10
208.4565907931654
 20
438.2494217639417
 30
0.0
 10
207.2115645394162
 20
438.2484459906283
 30
0.0
 10
205.9667049898781
 20
438.2400385594011
 30
0.0
 10
203.4772996849538
 20
438.2203617970938
 30
0.0
 10
202.2318948824258
 20
438.2083972160412
 30
0.0
 10
199.7474904093479
 20
438.1824559295509
 30
0.0
 10
198.5084396757995
 20
438.1684065545313
 30
0.0
 10
196.0427387377188
 20
438.137893251529
 30
0.0
 10
194.816045943102
 20
438.1214800666583
 30
0.0
 10
192.9923738967494
 20
438.0934290807522
 30
0.0
 10
192.3872375526873
 20
438.0834702168847
 30
0.0
 10
191.1842178558981
 20
438.0618640746574
 30
0.0
 10
190.5843970286176
 20
438.0499207067638
 30
0.0
 10
188.8400974601564
 20
438.0146909817612
 30
0.0
 10
187.7402308659745
 20
437.9931465732967
 30
0.0
 10
186.4668198999339
 20
437.9757831098829
 30
0.0
 10
186.2172958297254
 20
437.9727799775654
 30
0.0
 10
185.7366079263434
 20
437.9678954328838
 30
0.0
 10
185.5043564721709
 20
437.9659992149438
 30
0.0
 10
184.8308538876154
 20
437.9619432108941
 30
0.0
 10
184.4128823031872
 20
437.9614474635649
 30
0.0
 10
183.6322585174339
 20
437.9639378837334
 30
0.0
 10
183.2683117329693
 20
437.966844900426
 30
0.0
 10
182.5946213118749
 20
437.9750222985123
 30
0.0
 10
182.2886684814048
 20
437.9804800524327
 30
0.0
 10
181.443615950979
 20
437.9995112668621
 30
0.0
 10
180.9760593915336
 20
438.0148993749007
 30
0.0
 10
180.1586868382566
 20
438.0451159084575
 30
0.0
 10
179.8098253663292
 20
438.0604944106855
 30
0.0
 10
179.193437263062
 20
438.0910170528608
 30
0.0
 10
178.9258395578954
 20
438.1060738395727
 30
0.0
 10
178.4485928318886
 20
438.1351218455398
 30
0.0
 10
178.2387798313385
 20
438.1487555742751
 30
0.0
 10
177.677653259245
 20
438.1902186286073
 30
0.0
 10
177.3908575041983
 20
438.2187069718017
 30
0.0
 10
176.9024127054012
 20
438.2683314765038
 30
0.0
 10
176.7047528641896
 20
438.2906233541264
 30
0.0
 10
176.5400801608455
 20
438.3152027393665
 30
0.0
  0
SPLINE
  5
92
330
1F
100
AcDbEntity
  8
0
  6
Continuous
 62
     8
370
     0
100
AcDbSpline
210
0.0
220
0.0
230
1.0
 70
     8
 71
     3
 72
     8
 73
     4
 74
     0
 42
0.00000001
 43
0.00000001
 40
0.0
 40
0.0
 40
0.0
 40
0.0
 40
1.0
 40
1.0
 40
1.0
 40
1.0
 10
240.809026723172
 20
438.406779282557
 30
0.0
 10
240.69051568323
 20
438.3691319173574
 30
0.0
 10
240.5513286694921
 20
438.3417607587007
 30
0.0
 10
240.3729942773548
 20
438.3151523828273
 30
0.0
  0
SPLINE
  5
93
330
1F
100
AcDbEntity
  8
0
  6
Continuous
 62
     8
370
     0
100
AcDbSpline
210
0.0
220
0.0
230
1.0
 70
     8
 71
     3
 72
     8
 73
     4
 74
     0
 42
0.00000001
 43
0.00000001
 40
0.0000001485409305
 40
0.0000001485409305
 40
0.0000001485409305
 40
0.0000001485409305
 40
0.0009786405005443
 40
0.0009786405005443
 40
0.0009786405005443
 40
0.0009786405005443
 10
240.8515777643301
 20
438.4210969271919
 30
0.0
 10
240.8375669665734
 20
438.4161100100341
 30
0.0
 10
240.8234340611529
 20
438.4113560571323
 30
0.0
 10
240.809026723172
 20
438.4067792825568
 30
0.0
  0
SPLINE
  5
94
330
1F
100
AcDbEntity
  8
0
  6
Continuous
 62
     8
370
    15
100
AcDbSpline
210
0.0
220
0.0
230
1.0
 70
     8
 71
     3
 72
    60
 73
    56
 74
     0
 42
0.00000001
 43
0.00000001
 40
0.0
 40
0.0
 40
0.0
 40
0.0
 40
0.0098772672084576
 40
0.0196605431559101
 40
0.0293508248921408
 40
0.0389505273964191
 40
0.0484630006169196
 40
0.064130804635356
 40
0.0755558002300882
 40
0.1091565228216098
 40
0.1319413480587687
 40
0.1431901781371493
 40
0.1658934835132997
 40
0.188737747369266
 40
0.2000515040164831
 40
0.2234647750977234
 40
0.2526574421956393
 40
0.2586611427189273
 40
0.2825698010869833
 40
0.3068651511146299
 40
0.3130528752157284
 40
0.3254129557493624
 40
0.3439243690991696
 40
0.3567696664682441
 40
0.382452517985182
 40
0.3953010840463651
 40
0.4086920609921089
 40
0.4355239769731869
 40
0.4557563884907387
 40
0.4625461411337721
 40
0.4897866887648148
 40
0.5034629549689067
 40
0.5086031459731807
 40
0.5240593125306844
 40
0.5551431376803024
 40
0.5603479050938173
 40
0.5760049303458795
 40
0.6083138513341613
 40
0.6192826998214463
 40
0.641325686638404
 40
0.6746636356297862
 40
0.6863863228372885
 40
0.7099595813920574
 40
0.7337077841763717
 40
0.7456489199915367
 40
0.76966702481402
 40
0.8074728612023494
 40
0.8201773931592861
 40
0.8457422889970786
 40
0.8848549626653253
 40
0.8982496835873869
 40
0.9524143277925037
 40
0.979859327386439
 40
0.9899134535479714
 40
0.9999999999999999
 40
0.9999999999999999
 40
0.9999999999999999
 40
0.9999999999999999
 10
208.456846836119
 20
402.524600692307
 30
0.0
 10
208.6300731280804
 20
402.5254593470106
 30
0.0
 10
208.9748773048804
 20
402.5271684855304
 30
0.0
 10
209.4894724944146
 20
402.541129804397
 30
0.0
 10
209.9988852172001
 20
402.5633518778284
 30
0.0
 10
210.5030797236837
 20
402.5945352226303
 30
0.0
 10
211.1111308390797
 20
402.6430626338289
 30
0.0
 10
211.7497717918868
 20
402.7095101950733
 30
0.0
 10
212.8052517494471
 20
402.8475176968407
 30
0.0
 10
213.9774819491629
 20
403.0541207927813
 30
0.0
 10
215.1323258933959
 20
403.3266152046015
 30
0.0
 10
216.092261328397
 20
403.5888178367902
 30
0.0
 10
217.043738652972
 20
403.884846693869
 30
0.0
 10
217.9812971765774
 20
404.2257511390492
 30
0.0
 10
218.9174774470673
 20
404.6040705933343
 30
0.0
 10
219.941531794632
 20
405.0611583238296
 30
0.0
 10
220.8567904703904
 20
405.5305106889928
 30
0.0
 10
221.761793249432
 20
406.0359105405802
 30
0.0
 10
222.5779271208847
 20
406.5242374674526
 30
0.0
 10
223.3728976439722
 20
407.0521290890183
 30
0.0
 10
223.9865969140183
 20
407.4856482781991
 30
0.0
 10
224.5108818715235
 20
407.8698494862901
 30
0.0
 10
225.1162699727866
 20
408.3405629087128
 30
0.0
 10
225.8884214067821
 20
408.9766297263333
 30
0.0
 10
226.5642956348817
 20
409.5730232276783
 30
0.0
 10
227.2271446050033
 20
410.1974528219886
 30
0.0
 10
227.8906781774575
 20
410.8502473218667
 30
0.0
 10
228.6221989238745
 20
411.6181934766252
 30
0.0
 10
229.2486206085786
 20
412.3252321930713
 30
0.0
 10
229.8653867400463
 20
413.0499566084703
 30
0.0
 10
230.391858806983
 20
413.7005456658833
 30
0.0
 10
230.8820731244072
 20
414.3425537395371
 30
0.0
 10
231.2407825345411
 20
414.8248480695959
 30
0.0
 10
231.7717002060405
 20
415.5594818391772
 30
0.0
 10
232.2811054539168
 20
416.310850828482
 30
0.0
 10
232.7756041184595
 20
417.0759627825503
 30
0.0
 10
233.2719456356595
 20
417.8654374575927
 30
0.0
 10
233.7975586393536
 20
418.7557154672865
 30
0.0
 10
234.3564416206093
 20
419.7557216297917
 30
0.0
 10
234.9060978816138
 20
420.7814553499801
 30
0.0
 10
235.4322575557792
 20
421.834408359631
 30
0.0
 10
235.9466308108647
 20
422.9226571565134
 30
0.0
 10
236.3733831129143
 20
423.8662281909423
 30
0.0
 10
236.7811253200948
 20
424.8223223151782
 30
0.0
 10
237.1767673476096
 20
425.7918455163614
 30
0.0
 10
237.646986708475
 20
426.9971185707356
 30
0.0
 10
238.0907734402502
 20
428.2267817380923
 30
0.0
 10
238.5187646906518
 20
429.4904630194166
 30
0.0
 10
238.9351429105256
 20
430.7821955964519
 30
0.0
 10
239.3238179075771
 20
432.0953056477041
 30
0.0
 10
239.8213126752212
 20
433.8987205713918
 30
0.0
 10
240.2266087414924
 20
435.5153217212977
 30
0.0
 10
240.5751613708215
 20
437.0847047866498
 30
0.0
 10
240.7467119313564
 20
437.9014314089029
 30
0.0
 10
240.8165855684984
 20
438.2476724141997
 30
0.0
 10
240.8515786246057
 20
438.42107158763
 30
0.0
  0
SPLINE
  5
95
330
1F
100
AcDbEntity
  8
0
  6
Continuous
 62
     8
370
    15
100
AcDbSpline
210
0.0
220
0.0
230
1.0
 70
     8
 71
     3
 72
   107
 73
   103
 74
     0
 42
0.00000001
 43
0.00000001
 40
0.0
 40
0.0
 40
0.0
 40
0.0
 40
0.0109054728620331
 40
0.0216763434141006
 40
0.0323171554688507
 40
0.0428327021429632
 40
0.0532279338013002
 40
0.063507880552671
 40
0.07367758889367
 40
0.0837420715984331
 40
0.0937062695951665
 40
0.1035750243434711
 40
0.1133530591140914
 40
0.1230449675568107
 40
0.1326552080038263
 40
0.1421881020764799
 40
0.1516478363250961
 40
0.1610384658190755
 40
0.170363918803361
 40
0.179628001736237
 40
0.1888344042125752
 40
0.1979867034486669
 40
0.2070883681544153
 40
0.2161427617423965
 40
0.2251531449196654
 40
0.2341226777770486
 40
0.243054421533483
 40
0.2519513401122113
 40
0.2608163017246775
 40
0.2696520806207036
 40
0.2784613591341756
 40
0.2872467301163108
 40
0.2960106998075315
 40
0.3047556911578477
 40
0.3134840475674363
 40
0.3221980369864426
 40
0.3308998562877407
 40
0.3395916358098135
 40
0.3482754439596686
 40
0.35695329176793
 40
0.3656271372995353
 40
0.3742988637345556
 40
0.3829701231096302
 40
0.3916424291408164
 40
0.4003172321313451
 40
0.4089959211828214
 40
0.4176798259998873
 40
0.4263702186801095
 40
0.4350683156456721
 40
0.4437752799632028
 40
0.452492227411594
 40
0.461220231651127
 40
0.4699603225695126
 40
0.4787134896482235
 40
0.4874806833581253
 40
0.4962628162064508
 40
0.5050607638935333
 40
0.5138753666544948
 40
0.5227074308093055
 40
0.531557730503488
 40
0.5404270095913801
 40
0.5493159835942075
 40
0.5582253416553423
 40
0.5671557484143533
 40
0.5761078457283162
 40
0.5850822541821025
 40
0.5940795743472929
 40
0.6031003877704675
 40
0.6121452576940223
 40
0.6212147295348213
 40
0.6303093311659776
 40
0.6394295730634745
 40
0.6485759483900928
 40
0.657748933093095
 40
0.66694898608737
 40
0.6761765495810265
 40
0.6854320511019513
 40
0.6947159115288074
 40
0.7040285399329923
 40
0.7133703325829385
 40
0.7227416745279349
 40
0.7321429388720072
 40
0.7415744851897742
 40
0.7510366650615773
 40
0.7605298256901023
 40
0.7700543085955516
 40
0.779610444496054
 40
0.7891985461947112
 40
0.798818903693961
 40
0.8084717906950206
 40
0.818157482027893
 40
0.8278762450767163
 40
0.8376283376286373
 40
0.847414010266166
 40
0.8572335073341049
 40
0.867087065412254
 40
0.876974909409922
 40
0.8868972467766799
 40
0.9147492726926153
 40
0.9428801593760926
 40
0.9712955602410437
 40
1.0
 40
1.0
 40
1.0
 40
1.0
 10
208.4566377316869
 20
402.5246763435368
 30
0.0
 10
208.2653717897813
 20
402.5257995074686
 30
0.0
 10
207.8852006323617
 20
402.5280319725258
 30
0.0
 10
207.3186192465277
 20
402.5451871641444
 30
0.0
 10
206.7592982187779
 20
402.5722835965247
 30
0.0
 10
206.2071926304502
 20
402.6101043770103
 30
0.0
 10
205.6622443787864
 20
402.6582008379428
 30
0.0
 10
205.1243858279166
 20
402.7164386373678
 30
0.0
 10
204.5935424935949
 20
402.7845948863014
 30
0.0
 10
204.0696353963349
 20
402.8624676261553
 30
0.0
 10
203.5525829345338
 20
402.9498497311836
 30
0.0
 10
203.0423023516095
 20
403.0465379316163
 30
0.0
 10
202.5387108248918
 20
403.152332030993
 30
0.0
 10
202.0417262247855
 20
403.2670362289872
 30
0.0
 10
201.5512675923862
 20
403.3904594781188
 30
0.0
 10
201.0672553858915
 20
403.5224157578943
 30
0.0
 10
200.5896115450067
 20
403.6627241045492
 30
0.0
 10
200.1182594200491
 20
403.811208507037
 30
0.0
 10
199.6531236085477
 20
403.9676977022472
 30
0.0
 10
199.1941297372635
 20
404.1320249158824
 30
0.0
 10
198.741204222015
 20
404.3040275838043
 30
0.0
 10
198.2942740317937
 20
404.4835470831468
 30
0.0
 10
197.8532664776579
 20
404.6704284952398
 30
0.0
 10
197.4181090410293
 20
404.8645204158034
 30
0.0
 10
196.9887292504951
 20
405.0656748216187
 30
0.0
 10
196.565054611182
 20
405.2737469972702
 30
0.0
 10
196.147012586355
 20
405.4885955206876
 30
0.0
 10
195.7345306271887
 20
405.7100823021883
 30
0.0
 10
195.3275362437123
 20
405.9380726685766
 30
0.0
 10
194.925957107778
 20
406.1724354816263
 30
0.0
 10
194.5297211775313
 20
406.4130432789121
 30
0.0
 10
194.1387568322528
 20
406.6597724244569
 30
0.0
 10
193.7529930065387
 20
406.9125032569212
 30
0.0
 10
193.372359313523
 20
407.1711202240257
 30
0.0
 10
192.9967861481439
 20
407.435511993453
 30
0.0
 10
192.6262047632143
 20
407.7055715325118
 30
0.0
 10
192.2605473131918
 20
407.9811961512792
 30
0.0
 10
191.8997468628917
 20
408.2622875065677
 30
0.0
 10
191.5437373610756
 20
408.54875156705
 30
0.0
 10
191.1924535808875
 20
408.8404985421341
 30
0.0
 10
190.8458313814606
 20
409.1374424842408
 30
0.0
 10
190.5038100204997
 20
409.4394989708768
 30
0.0
 10
190.1663331205442
 20
409.7465836320514
 30
0.0
 10
189.833348237719
 20
410.0586117093332
 30
0.0
 10
189.5048044864862
 20
410.3754996544325
 30
0.0
 10
189.1806514818281
 20
410.6971658285521
 30
0.0
 10
188.8608392857574
 20
411.0235304103725
 30
0.0
 10
188.5453183765082
 20
411.3545153305141
 30
0.0
 10
188.2340398167344
 20
411.6900444020304
 30
0.0
 10
187.9269549635785
 20
412.0300431305089
 30
0.0
 10
187.624017266828
 20
412.3744404721072
 30
0.0
 10
187.3251832461586
 20
412.7231695360674
 30
0.0
 10
187.0304094440772
 20
413.0761648150108
 30
0.0
 10
186.7396539478655
 20
413.4333633991709
 30
0.0
 10
186.4528757115185
 20
413.7947043226301
 30
0.0
 10
186.1700344608183
 20
414.1601284100753
 30
0.0
 10
185.8910905782031
 20
414.5295781141694
 30
0.0
 10
185.6160050914964
 20
414.9029974594571
 30
0.0
 10
185.3447397053251
 20
415.2803320336388
 30
0.0
 10
185.0772568673049
 20
415.6615290157175
 30
0.0
 10
184.8135198497553
 20
416.0465372207441
 30
0.0
 10
184.5534928340817
 20
416.4353071471652
 30
0.0
 10
184.2971409867795
 20
416.8277910149469
 30
0.0
 10
184.0444305191497
 20
417.2239427860042
 30
0.0
 10
183.7953287255472
 20
417.6237181614471
 30
0.0
 10
183.5498039976904
 20
418.0270745530703
 30
0.0
 10
183.3078258150136
 20
418.4339710291732
 30
0.0
 10
183.0693647132368
 20
418.8443682371425
 30
0.0
 10
182.8343922351503
 20
419.2582283071939
 30
0.0
 10
182.6028808690665
 20
419.6755147431891
 30
0.0
 10
182.3748039812378
 20
420.0961923074009
 30
0.0
 10
182.1501357494173
 20
420.5202269067238
 30
0.0
 10
181.9288511030454
 20
420.9475854869615
 30
0.0
 10
181.710925680793
 20
421.378235943637
 30
0.0
 10
181.4963357926314
 20
421.8121470464045
 30
0.0
 10
181.2850584433525
 20
422.2492884330676
 30
0.0
 10
181.0770711288488
 20
422.6896306567619
 30
0.0
 10
180.8723534817849
 20
423.1331459805422
 30
0.0
 10
180.6708858186531
 20
423.5798076293793
 30
0.0
 10
180.472649261939
 20
424.0295897040369
 30
0.0
 10
180.277625957705
 20
424.4824672109
 30
0.0
 10
180.0857989807505
 20
424.9384159407162
 30
0.0
 10
179.897151851641
 20
425.3974122746117
 30
0.0
 10
179.711669351265
 20
425.8594336170384
 30
0.0
 10
179.5293377868503
 20
426.3244585751023
 30
0.0
 10
179.350144804542
 20
426.7924667544612
 30
0.0
 10
179.174078923836
 20
427.2634382631164
 30
0.0
 10
179.0011289106858
 20
427.7373531177142
 30
0.0
 10
178.8312832627038
 20
428.2141909398585
 30
0.0
 10
178.664530524598
 20
428.6939314281163
 30
0.0
 10
178.5008619493947
 20
429.1765555250397
 30
0.0
 10
178.3402695198431
 20
429.6620447731893
 30
0.0
 10
178.182746108635
 20
430.1503811891139
 30
0.0
 10
178.0282858082157
 20
430.6415473211267
 30
0.0
 10
177.8768837142959
 20
431.1355262620651
 30
0.0
 10
177.7285368978004
 20
431.632301466122
 30
0.0
 10
177.583240039407
 20
432.1318564827742
 30
0.0
 10
177.3554908152689
 20
432.9361504327065
 30
0.0
 10
177.0553092650117
 20
434.0524464560328
 30
0.0
 10
176.6988004068326
 20
435.4891426418176
 30
0.0
 10
176.3640539565623
 20
436.9464729690826
 30
0.0
 10
176.1625601244627
 20
437.9278128334096
 30
0.0
 10
176.0613034069696
 20
438.4209656628111
 30
0.0
  0
SPLINE
  5
96
330
1F
100
AcDbEntity
  8
0
  6
Continuous
 62
     8
370
     0
100
AcDbSpline
210
0.0
220
0.0
230
1.0
 70
     8
 71
     3
 72
     8
 73
     4
 74
     0
 42
0.00000001
 43
0.00000001
 40
0.0
 40
0.0
 40
0.0
 40
0.0
 40
0.0009822398911815
 40
0.0009822398911815
 40
0.0009822398911815
 40
0.0009822398911815
 10
176.1045507154351
 20
438.4067266980462
 30
0.0
 10
176.0900861134728
 20
438.4113197865872
 30
0.0
 10
176.0758985719322
 20
438.416090908575
 30
0.0
 10
176.061834108419
 20
438.4210969271921
 30
0.0
  0
SPLINE
  5
97
330
1F
100
AcDbEntity
  8
0
  6
Continuous
 62
     8
370
     0
100
AcDbSpline
210
0.0
220
0.0
230
1.0
 70
     8
 71
     3
 72
     8
 73
     4
 74
     0
 42
0.00000001
 43
0.00000001
 40
0.0
 40
0.0
 40
0.0
 40
0.0
 40
1.0
 40
1.0
 40
1.0
 40
1.0
 10
176.5400801608455
 20
438.3152027393664
 30
0.0
 10
176.3619901604192
 20
438.3417848178712
 30
0.0
 10
176.2229488217567
 20
438.3691305729094
 30
0.0
 10
176.1045507154351
 20
438.4067266980463
 30
0.0
  0
SPLINE
  5
98
330
1F
100
AcDbEntity
  8
0
  6
Continuous
 62
     8
370
     0
100
AcDbSpline
210
0.0
220
0.0
230
1.0
 70
     8
 71
     3
 72
     8
 73
     4
 74
     0
 42
0.00000001
 43
0.00000001
 40
0.0
 40
0.0
 40
0.0
 40
0.0
 40
1.0
 40
1.0
 40
1.0
 40
1.0
 10
177.1238410067697
 20
440.2349922415736
 30
0.0
 10
177.2538299335978
 20
440.2228115865586
 30
0.0
 10
177.4013400563284
 20
440.2201956005541
 30
0.0
 10
177.5854888760259
 20
440.2195541357428
 30
0.0
  0
SPLINE
  5
99
330
1F
100
AcDbEntity
  8
0
  6
Continuous
 62
     8
370
     0
100
AcDbSpline
210
0.0
220
0.0
230
1.0
 70
     8
 71
     3
 72
     8
 73
     4
 74
     0
 42
0.00000001
 43
0.00000001
 40
0.0
 40
0.0
 40
0.0
 40
0.0
 40
0.0009791865405642
 40
0.0009791865405642
 40
0.0009791865405642
 40
0.0009791865405642
 10
177.0767122729257
 20
440.2399163727043
 30
0.0
 10
177.0922848896129
 20
440.2381163608724
 30
0.0
 10
177.10794637882
 20
440.2364816528978
 30
0.0
 10
177.1238410067697
 20
440.2349922415735
 30
0.0
  0
SPLINE
  5
9A
330
1F
100
AcDbEntity
  8
0
  6
Continuous
 62
     8
370
     0
100
AcDbSpline
210
0.0
220
0.0
230
1.0
 70
     8
 71
     3
 72
    16
 73
    12
 74
     0
 42
0.00000001
 43
0.00000001
 40
0.0
 40
0.0
 40
0.0
 40
0.0
 40
0.0624999999999997
 40
0.0624999999999997
 40
0.1249999999999994
 40
0.1249999999999994
 40
0.2499999999999994
 40
0.2499999999999994
 40
0.4999999999999996
 40
0.4999999999999996
 40
1.0
 40
1.0
 40
1.0
 40
1.0
 10
176.3671533649363
 20
441.027120871824
 30
0.0
 10
176.3745528879285
 20
440.9880977508378
 30
0.0
 10
176.3877730139733
 20
440.9534548968681
 30
0.0
 10
176.4133875041821
 20
440.8867786282627
 30
0.0
 10
176.4254911726538
 20
440.8546195171893
 30
0.0
 10
176.4581101251698
 20
440.7607731549904
 30
0.0
 10
176.4823554454771
 20
440.7051838074668
 30
0.0
 10
176.5578433549526
 20
440.5553029474547
 30
0.0
 10
176.6130509328247
 20
440.4784914007305
 30
0.0
 10
176.78914824052
 20
440.3017131643779
 30
0.0
 10
176.9217218937086
 20
440.258433097708
 30
0.0
 10
177.0761779340811
 20
440.2397177759975
 30
0.0
  0
SPLINE
  5
9B
330
1F
100
AcDbEntity
  8
0
  6
Continuous
 62
     8
370
     0
100
AcDbSpline
210
0.0
220
0.0
230
1.0
 70
     8
 71
     3
 72
    16
 73
    12
 74
     0
 42
0.00000001
 43
0.00000001
 40
0.0
 40
0.0
 40
0.0
 40
0.0
 40
0.5000000000000003
 40
0.5000000000000003
 40
0.7500000000000004
 40
0.7500000000000004
 40
0.8750000000000002
 40
0.8750000000000002
 40
0.9375000000000002
 40
0.9375000000000002
 40
1.0
 40
1.0
 40
1.0
 40
1.0
 10
239.8372339386681
 20
440.2397177759974
 30
0.0
 10
239.9917030462539
 20
440.2584346810523
 30
0.0
 10
240.1242820153838
 20
440.3017235545537
 30
0.0
 10
240.3003762613945
 20
440.4785108143186
 30
0.0
 10
240.3555808748307
 20
440.555324088922
 30
0.0
 10
240.4310621781756
 20
440.7051969229394
 30
0.0
 10
240.4553048115042
 20
440.7607818922085
 30
0.0
 10
240.4879197558701
 20
440.8546168395304
 30
0.0
 10
240.5000214762599
 20
440.8867719244171
 30
0.0
 10
240.5256328383185
 20
440.9534384004659
 30
0.0
 10
240.5388546099487
 20
440.9880746789214
 30
0.0
 10
240.5462585078138
 20
441.027120871829
 30
0.0
  0
SPLINE
  5
9C
330
1F
100
AcDbEntity
  8
0
  6
Continuous
 62
     8
370
     0
100
AcDbSpline
210
0.0
220
0.0
230
1.0
 70
     8
 71
     3
 72
     8
 73
     4
 74
     0
 42
0.00000001
 43
0.00000001
 40
0.0
 40
0.0
 40
0.0
 40
0.0
 40
0.0009754518546181
 40
0.0009754518546181
 40
0.0009754518546181
 40
0.0009754518546181
 10
239.7897527258691
 20
440.2350092899264
 30
0.0
 10
239.8055850199099
 20
440.2364940988091
 30
0.0
 10
239.8211863781853
 20
440.2381232262434
 30
0.0
 10
239.8366995998233
 20
440.2399163727043
 30
0.0
  0
SPLINE
  5
9D
330
1F
100
AcDbEntity
  8
0
  6
Continuous
 62
     8
370
     0
100
AcDbSpline
210
0.0
220
0.0
230
1.0
 70
     8
 71
     3
 72
     8
 73
     4
 74
     0
 42
0.00000001
 43
0.00000001
 40
0.0
 40
0.0
 40
0.0
 40
0.0
 40
1.0
 40
1.0
 40
1.0
 40
1.0
 10
239.3275741835397
 20
440.2195529237766
 30
0.0
 10
239.5119714036481
 20
440.2201919866535
 30
0.0
 10
239.6596351599878
 20
440.2228064015056
 30
0.0
 10
239.7897527258693
 20
440.2350092899263
 30
0.0
  0
SPLINE
  5
9E
330
1F
100
AcDbEntity
  8
0
  6
Continuous
 62
     8
370
     0
100
AcDbSpline
210
0.0
220
0.0
230
1.0
 70
     8
 71
     3
 72
    18
 73
    14
 74
     0
 42
0.00000001
 43
0.00000001
 40
0.0
 40
0.0
 40
0.0
 40
0.0
 40
0.0312499999999995
 40
0.0312499999999995
 40
0.0624999999999991
 40
0.0624999999999991
 40
0.1249999999999989
 40
0.1249999999999989
 40
0.2499999999999989
 40
0.2499999999999989
 40
0.499999999999999
 40
0.499999999999999
 40
1.0
 40
1.0
 40
1.0
 40
1.0
 10
241.4466810842365
 20
439.372797837554
 30
0.0
 10
241.4442024059491
 20
439.3538398206868
 30
0.0
 10
241.4407138050228
 20
439.339573961268
 30
0.0
 10
241.4317283889108
 20
439.3061506806084
 30
0.0
 10
241.4267210336168
 20
439.2877606205404
 30
0.0
 10
241.4112375715741
 20
439.2352618912459
 30
0.0
 10
241.4009902291553
 20
439.1971901833488
 30
0.0
 10
241.3749387010807
 20
439.0902047945505
 30
0.0
 10
241.3560616387418
 20
439.0303807545829
 30
0.0
 10
241.2959435761752
 20
438.86029838191
 30
0.0
 10
241.2513153339346
 20
438.7687993618935
 30
0.0
 10
241.1058796574058
 20
438.5474021111691
 30
0.0
 10
240.9921369093301
 20
438.4711833006212
 30
0.0
 10
240.852109241071
 20
438.4209402881738
 30
0.0
  0
SPLINE
  5
9F
330
1F
100
AcDbEntity
  8
0
  6
Continuous
 62
     8
370
     0
100
AcDbSpline
210
0.0
220
0.0
230
1.0
 70
     8
 71
     3
 72
    11
 73
     7
 74
     0
 42
0.00000001
 43
0.00000001
 40
0.0000004706250862
 40
0.0000004706250862
 40
0.0000004706250862
 40
0.0000004706250862
 40
0.0000009777398141
 40
0.0000009777398141
 40
0.0000009777398141
 40
0.0004147716271374
 40
0.0004147716271374
 40
0.0004147716271374
 40
0.0004147716271374
 10
241.4517370727467
 20
439.418108834096
 30
0.0
 10
241.4517347257577
 20
439.4180881335765
 30
0.0
 10
241.4517323795183
 20
439.4180674354234
 30
0.0
 10
241.4517300340273
 20
439.4180467396408
 30
0.0
 10
241.4498163899708
 20
439.4011614213201
 30
0.0
 10
241.44843165857
 20
439.3861651835163
 30
0.0
 10
241.4467891423023
 20
439.3736033266252
 30
0.0
  0
SPLINE
  5
A0
330
1F
100
AcDbEntity
  8
0
  6
Continuous
 62
     8
370
     0
100
AcDbSpline
210
0.0
220
0.0
230
1.0
 70
     8
 71
     3
 72
     8
 73
     4
 74
     0
 42
0.00000001
 43
0.00000001
 40
0.0
 40
0.0
 40
0.0
 40
0.0
 40
0.0004142528808762
 40
0.0004142528808762
 40
0.0004142528808762
 40
0.0004142528808762
 10
175.4666227304468
 20
439.3736033266251
 30
0.0
 10
175.4649782012302
 20
439.3861805784181
 30
0.0
 10
175.4635920129514
 20
439.401198952935
 30
0.0
 10
175.4616747999867
 20
439.4181088342348
 30
0.0
  0
SPLINE
  5
A1
330
1F
100
AcDbEntity
  8
0
  6
Continuous
 62
     8
370
     0
100
AcDbSpline
210
0.0
220
0.0
230
1.0
 70
     8
 71
     3
 72
    18
 73
    14
 74
     0
 42
0.00000001
 43
0.00000001
 40
0.0
 40
0.0
 40
0.0
 40
0.0
 40
0.5
 40
0.5
 40
0.7500000000000002
 40
0.7500000000000002
 40
0.8750000000000002
 40
0.8750000000000002
 40
0.9375000000000002
 40
0.9375000000000002
 40
0.9687500000000001
 40
0.9687500000000001
 40
1.0
 40
1.0
 40
1.0
 40
1.0
 10
176.0613026316781
 20
438.4209402881739
 30
0.0
 10
175.9212641130193
 20
438.4711871938287
 30
0.0
 10
175.8075176489648
 20
438.5474152166075
 30
0.0
 10
175.6620829512829
 20
438.7688245817233
 30
0.0
 10
175.6174562669535
 20
438.8603271156928
 30
0.0
 10
175.5573418262251
 20
439.0304071921682
 30
0.0
 10
175.5384666538707
 20
439.0902301207776
 30
0.0
 10
175.512416950708
 20
439.197210176031
 30
0.0
 10
175.5021695777527
 20
439.2352770896392
 30
0.0
 10
175.4866875607137
 20
439.2877721451743
 30
0.0
 10
175.481680168574
 20
439.3061627541851
 30
0.0
 10
175.472696996752
 20
439.3395782034213
 30
0.0
 10
175.469210147633
 20
439.3538346133781
 30
0.0
 10
175.4667307885126
 20
439.3727978375539
 30
0.0
  0
SPLINE
  5
A2
330
1F
100
AcDbEntity
  8
0
  6
Continuous
 62
     8
370
     0
100
AcDbSpline
210
0.0
220
0.0
230
1.0
 70
     8
 71
     3
 72
    16
 73
    12
 74
     0
 42
0.00000001
 43
0.00000001
 40
0.0
 40
0.0
 40
0.0
 40
0.0
 40
0.2500000000000002
 40
0.2500000000000002
 40
0.5000000000000003
 40
0.5000000000000003
 40
0.6250000000000004
 40
0.6250000000000004
 40
0.7500000000000004
 40
0.7500000000000004
 40
1.0
 40
1.0
 40
1.0
 40
1.0
 10
240.5531449799473
 20
441.0682281536902
 30
0.0
 10
240.5947981539463
 20
441.283031751706
 30
0.0
 10
240.6325658793341
 20
441.5533856948398
 30
0.0
 10
240.6960996592586
 20
442.2507305997389
 30
0.0
 10
240.7218879889774
 20
442.6790366781401
 30
0.0
 10
240.7471503101455
 20
443.4785536320369
 30
0.0
 10
240.7533152831824
 20
443.7713576343503
 30
0.0
 10
240.7601072061478
 20
444.4163173441129
 30
0.0
 10
240.7607125691466
 20
444.7689026412023
 30
0.0
 10
240.7498576706287
 20
445.9188514749462
 30
0.0
 10
240.7260498373185
 20
446.8088688355371
 30
0.0
 10
240.6777786656959
 20
447.8589757608364
 30
0.0
  0
SPLINE
  5
A3
330
1F
100
AcDbEntity
  8
0
  6
Continuous
 62
     8
370
     0
100
AcDbSpline
210
0.0
220
0.0
230
1.0
 70
     8
 71
     3
 72
     8
 73
     4
 74
     0
 42
0.00000001
 43
0.00000001
 40
0.0000001239362733
 40
0.0000001239362733
 40
0.0000001239362733
 40
0.0000001239362733
 40
0.0004159845952802
 40
0.0004159845952802
 40
0.0004159845952802
 40
0.0004159845952802
 10
240.5473830121495
 20
441.0274130327373
 30
0.0
 10
240.5494573452944
 20
441.0407312102905
 30
0.0
 10
240.550967871265
 20
441.054530417721
 30
0.0
 10
240.5528260019831
 20
441.0683803047154
 30
0.0
  0
SPLINE
  5
A4
330
1F
100
AcDbEntity
  8
0
  6
Continuous
 62
     8
370
     0
100
AcDbSpline
210
0.0
220
0.0
230
1.0
 70
     8
 71
     3
 72
     8
 73
     4
 74
     0
 42
0.00000001
 43
0.00000001
 40
0.0
 40
0.0
 40
0.0
 40
0.0
 40
1.0
 40
1.0
 40
1.0
 40
1.0
 10
240.6780045196982
 20
447.8588566476909
 30
0.0
 10
240.6775714406202
 20
447.8683082134578
 30
0.0
 10
240.6771358082082
 20
447.8777713061231
 30
0.0
 10
240.6766976290282
 20
447.8872459330901
 30
0.0
  0
SPLINE
  5
A5
330
1F
100
AcDbEntity
  8
0
  6
Continuous
 62
     8
370
     0
100
AcDbSpline
210
0.0
220
0.0
230
1.0
 70
     8
 71
     3
 72
     8
 73
     4
 74
     0
 42
0.00000001
 43
0.00000001
 40
0.0
 40
0.0
 40
0.0
 40
0.0
 40
0.0004158606590599
 40
0.0004158606590599
 40
0.0004158606590599
 40
0.0004158606590599
 10
176.3605858707661
 20
441.0683803047155
 30
0.0
 10
176.3624440014844
 20
441.0545304177193
 30
0.0
 10
176.3639545274551
 20
441.040731210287
 30
0.0
 10
176.3660288606005
 20
441.0274130327322
 30
0.0
  0
SPLINE
  5
A6
330
1F
100
AcDbEntity
  8
0
  6
Continuous
 62
     8
370
     0
100
AcDbSpline
210
0.0
220
0.0
230
1.0
 70
     8
 71
     3
 72
    16
 73
    12
 74
     0
 42
0.00000001
 43
0.00000001
 40
0.0
 40
0.0
 40
0.0
 40
0.0
 40
0.2499999999999996
 40
0.2499999999999996
 40
0.3749999999999996
 40
0.3749999999999996
 40
0.4999999999999996
 40
0.4999999999999996
 40
0.7499999999999998
 40
0.7499999999999998
 40
1.0
 40
1.0
 40
1.0
 40
1.0
 10
176.2356252187229
 20
447.8588019857042
 30
0.0
 10
176.1873487966814
 20
446.8086489093092
 30
0.0
 10
176.1635483379434
 20
445.9186076464282
 30
0.0
 10
176.1526985580455
 20
444.7686348562286
 30
0.0
 10
176.1533057558783
 20
444.4160448993782
 30
0.0
 10
176.1601012753722
 20
443.7710818220728
 30
0.0
 10
176.1662681399756
 20
443.4782785761767
 30
0.0
 10
176.1915365564775
 20
442.6787694900029
 30
0.0
 10
176.2173311913398
 20
442.2504644023701
 30
0.0
 10
176.2808645745429
 20
441.5532396802175
 30
0.0
 10
176.3186147256534
 20
441.2830265594212
 30
0.0
 10
176.3602668928017
 20
441.0682281536902
 30
0.0
  0
SPLINE
  5
A7
330
1F
100
AcDbEntity
  8
0
  6
Continuous
 62
     8
370
     0
100
AcDbSpline
210
0.0
220
0.0
230
1.0
 70
     8
 71
     3
 72
     8
 73
     4
 74
     0
 42
0.00000001
 43
0.00000001
 40
0.0
 40
0.0
 40
0.0
 40
0.0
 40
1.0
 40
1.0
 40
1.0
 40
1.0
 10
176.2367142437208
 20
447.8872459330885
 30
0.0
 10
176.236273379134
 20
447.8777132403144
 30
0.0
 10
176.2358350926285
 20
447.8681922236883
 30
0.0
 10
176.2353993908919
 20
447.858682875669
 30
0.0
  0
SPLINE
  5
A8
330
1F
100
AcDbEntity
  8
0
  6
Continuous
 62
     8
370
     0
100
AcDbSpline
210
0.0
220
0.0
230
1.0
 70
     8
 71
     3
 72
     9
 73
     5
 74
     0
 42
0.00000001
 43
0.00000001
 40
0.0
 40
0.0
 40
0.0
 40
0.0
 40
0.0925650803193233
 40
1.0
 40
1.0
 40
1.0
 40
1.0
 10
208.4572976537846
 20
450.9372965769778
 30
0.0
 10
208.4572788828247
 20
450.9385528717691
 30
0.0
 10
208.4570760962027
 20
450.9521248882039
 30
0.0
 10
208.4569054277618
 20
450.9071810022399
 30
0.0
 10
208.4567505572588
 20
450.86639735069
 30
0.0
  0
SPLINE
  5
A9
330
1F
100
AcDbEntity
  8
0
  6
Continuous
 62
     8
370
     0
100
AcDbSpline
210
0.0
220
0.0
230
1.0
 70
     8
 71
     3
 72
    10
 73
     6
 74
     0
 42
0.00000001
 43
0.00000001
 40
0.0
 40
0.0
 40
0.0
 40
0.0
 40
0.1050821380317816
 40
0.5581586974399101
 40
1.0
 40
1.0
 40
1.0
 40
1.0
 10
176.5030330779794
 20
448.0935074565125
 30
0.0
 10
176.4918918519994
 20
448.0914613261023
 30
0.0
 10
176.4327136481926
 20
448.0805930138852
 30
0.0
 10
176.3382930964202
 20
448.015000489208
 30
0.0
 10
176.2702892763671
 20
447.9294728659435
 30
0.0
 10
176.2367142437208
 20
447.8872459330885
 30
0.0
  0
SPLINE
  5
AA
330
1F
100
AcDbEntity
  8
0
  6
Continuous
 62
     8
370
     0
100
AcDbSpline
210
0.0
220
0.0
230
1.0
 70
     8
 71
     3
 72
    10
 73
     6
 74
     0
 42
0.00000001
 43
0.00000001
 40
0.0
 40
0.0
 40
0.0
 40
0.0
 40
0.1050804116293501
 40
0.5581578450757044
 40
1.0
 40
1.0
 40
1.0
 40
1.0
 10
240.4103794041551
 20
448.0935073270721
 30
0.0
 10
240.4215204244926
 20
448.0914612298132
 30
0.0
 10
240.4806984178705
 20
448.0805929317249
 30
0.0
 10
240.5751187723387
 20
448.0150004733458
 30
0.0
 10
240.643122595063
 20
447.9294728607016
 30
0.0
 10
240.6766976290282
 20
447.8872459330901
 30
0.0
  0
SPLINE
  5
AB
330
1F
100
AcDbEntity
  8
0
  6
Continuous
 62
     8
370
     0
100
AcDbSpline
210
0.0
220
0.0
230
1.0
 70
     8
 71
     3
 72
    36
 73
    32
 74
     0
 42
0.00000001
 43
0.00000001
 40
0.0
 40
0.0
 40
0.0
 40
0.0
 40
0.0624999999999999
 40
0.0624999999999999
 40
0.1249999999999998
 40
0.1249999999999998
 40
0.2499999999999996
 40
0.2499999999999996
 40
0.3124999999999996
 40
0.3124999999999996
 40
0.3749999999999995
 40
0.3749999999999995
 40
0.4374999999999994
 40
0.4374999999999994
 40
0.4687499999999994
 40
0.4687499999999994
 40
0.4999999999999993
 40
0.4999999999999993
 40
0.5624999999999992
 40
0.5624999999999992
 40
0.6249999999999991
 40
0.6249999999999991
 40
0.687499999999999
 40
0.687499999999999
 40
0.7499999999999989
 40
0.7499999999999989
 40
0.8124999999999988
 40
0.8124999999999988
 40
0.8749999999999987
 40
0.8749999999999987
 40
1.0
 40
1.0
 40
1.0
 40
1.0
 10
208.4566379292449
 20
486.6709716756006
 30
0.0
 10
207.4818174372745
 20
486.6723190348893
 30
0.0
 10
206.5069520703797
 20
486.6602874604935
 30
0.0
 10
204.5601184911209
 20
486.6096010564303
 30
0.0
 10
203.5877829325512
 20
486.571221293075
 30
0.0
 10
200.6748881689862
 20
486.4061367131814
 30
0.0
 10
198.7384164387677
 20
486.2299866007698
 30
0.0
 10
195.8497441282741
 20
485.7723593235773
 30
0.0
 10
194.89501393546
 20
485.5878617405508
 30
0.0
 10
193.0149273213347
 20
485.1327437734013
 30
0.0
 10
192.0886092132301
 20
484.8620602910819
 30
0.0
 10
190.2741336465629
 20
484.2010801558833
 30
0.0
 10
189.3821333251773
 20
483.8072918522603
 30
0.0
 10
188.1224610207298
 20
483.1173200088611
 30
0.0
 10
187.7142055991127
 20
482.8704492217873
 30
0.0
 10
186.9225818486736
 20
482.3406417514452
 30
0.0
 10
186.5380503782877
 20
482.0567402546242
 30
0.0
 10
185.4314036403067
 20
481.1547652349226
 30
0.0
 10
184.7688183086262
 20
480.4970967491857
 30
0.0
 10
183.573616928427
 20
479.0846434842353
 30
0.0
 10
183.0395403297349
 20
478.3282739163387
 30
0.0
 10
182.0785934014723
 20
476.7463453001477
 30
0.0
 10
181.6587619715686
 20
475.9344107605144
 30
0.0
 10
180.9053158384083
 20
474.2826447274485
 30
0.0
 10
180.5722712179846
 20
473.4426532496465
 30
0.0
 10
179.9695989989615
 20
471.7470296978422
 30
0.0
 10
179.6999134301663
 20
470.8915492085084
 30
0.0
 10
179.2048952091135
 20
469.1760525037952
 30
0.0
 10
178.9803730649931
 20
468.3172844861704
 30
0.0
 10
178.3645913337414
 20
465.7623133381105
 30
0.0
 10
178.0285227248603
 20
464.082255337878
 30
0.0
 10
177.74523696774
 20
462.4471915054393
 30
0.0
  0
SPLINE
  5
AC
330
1F
100
AcDbEntity
  8
0
  6
Continuous
 62
     8
370
     0
100
AcDbSpline
210
0.0
220
0.0
230
1.0
 70
     8
 71
     3
 72
    16
 73
    12
 74
     0
 42
0.00000001
 43
0.00000001
 40
0.0
 40
0.0
 40
0.0
 40
0.0
 40
0.2500000000000011
 40
0.2500000000000011
 40
0.3749999999999999
 40
0.3749999999999999
 40
0.4999999999999988
 40
0.4999999999999988
 40
0.7499999999999993
 40
0.7499999999999993
 40
1.0
 40
1.0
 40
1.0
 40
1.0
 10
177.74523696774
 20
462.4471915054393
 30
0.0
 10
177.5128965959722
 20
461.1061733668831
 30
0.0
 10
177.3189027867358
 20
459.8074609903882
 30
0.0
 10
177.0686605832831
 20
457.9417267724766
 30
0.0
 10
176.9920363679696
 20
457.333512570125
 30
0.0
 10
176.8510462922598
 20
456.1462830309362
 30
0.0
 10
176.7871196049882
 20
455.5711478891567
 30
0.0
 10
176.613030226382
 20
453.9070205803166
 30
0.0
 10
176.5203117581935
 20
452.877487556979
 30
0.0
 10
176.3697333423797
 20
450.9737914456663
 30
0.0
 10
176.3112462040606
 20
450.0992972254634
 30
0.0
 10
176.2677059275816
 20
449.3001427409973
 30
0.0
  0
SPLINE
  5
AD
330
1F
100
AcDbEntity
  8
0
  6
Continuous
 62
     8
370
     0
100
AcDbSpline
210
0.0
220
0.0
230
1.0
 70
     8
 71
     3
 72
    44
 73
    40
 74
     0
 42
0.00000001
 43
0.00000001
 40
0.0
 40
0.0
 40
0.0
 40
0.0
 40
0.1250000000000023
 40
0.1250000000000023
 40
0.1875000000000036
 40
0.1875000000000036
 40
0.2500000000000048
 40
0.2500000000000048
 40
0.312500000000006
 40
0.312500000000006
 40
0.3437500000000066
 40
0.3437500000000066
 40
0.3750000000000072
 40
0.3750000000000072
 40
0.4375000000000069
 40
0.4375000000000069
 40
0.4687500000000068
 40
0.4687500000000068
 40
0.5000000000000068
 40
0.5000000000000068
 40
0.5312500000000067
 40
0.5312500000000067
 40
0.5625000000000066
 40
0.5625000000000066
 40
0.6250000000000058
 40
0.6250000000000058
 40
0.6562500000000053
 40
0.6562500000000053
 40
0.6875000000000048
 40
0.6875000000000048
 40
0.7500000000000039
 40
0.7500000000000039
 40
0.8125000000000029
 40
0.8125000000000029
 40
0.875000000000002
 40
0.875000000000002
 40
0.937500000000001
 40
0.937500000000001
 40
1.0
 40
1.0
 40
1.0
 40
1.0
 10
239.168175443416
 20
462.447188397871
 30
0.0
 10
238.8848111945479
 20
464.0827056050828
 30
0.0
 10
238.5496643675845
 20
465.7566950128394
 30
0.0
 10
237.9392955351817
 20
468.2923656845092
 30
0.0
 10
237.7176643912359
 20
469.1416459059664
 30
0.0
 10
237.2286938873632
 20
470.8414626914241
 30
0.0
 10
236.9617804754279
 20
471.6920501726855
 30
0.0
 10
236.3629789383167
 20
473.3853539853575
 30
0.0
 10
236.0310553342495
 20
474.2279274341892
 30
0.0
 10
235.4640774831458
 20
475.4772953050019
 30
0.0
 10
235.2632052473068
 20
475.8918218753024
 30
0.0
 10
234.83926564212
 20
476.7050346719947
 30
0.0
 10
234.6157396357238
 20
477.1048235218692
 30
0.0
 10
233.9053735214255
 20
478.28043989891
 30
0.0
 10
233.3789131255135
 20
479.0326013923589
 30
0.0
 10
232.4843454391099
 20
480.0982100298926
 30
0.0
 10
232.1686178525141
 20
480.4429464386423
 30
0.0
 10
231.4977813411474
 20
481.1088988612957
 30
0.0
 10
231.1440597358416
 20
481.4284800922578
 30
0.0
 10
230.4070418793227
 20
482.0325090438868
 30
0.0
 10
230.0210725695931
 20
482.3190600248679
 30
0.0
 10
229.2269784022932
 20
482.8531092002135
 30
0.0
 10
228.8187942869209
 20
483.1009499241779
 30
0.0
 10
227.5636336657327
 20
483.7916943189388
 30
0.0
 10
226.6860380733314
 20
484.1818085103528
 30
0.0
 10
225.3208147645802
 20
484.682412269298
 30
0.0
 10
224.8571924763849
 20
484.8352404182638
 30
0.0
 10
223.9263282612353
 20
485.1132413406828
 30
0.0
 10
223.4577128317464
 20
485.2389606798207
 30
0.0
 10
222.0438295085035
 20
485.5826277349241
 30
0.0
 10
221.0905960616315
 20
485.7674106594177
 30
0.0
 10
219.1688360868579
 20
486.0732034559143
 30
0.0
 10
218.1987813730291
 20
486.194165061357
 30
0.0
 10
216.2559343806442
 20
486.3876451115534
 30
0.0
 10
215.2831386078032
 20
486.4601298856671
 30
0.0
 10
213.3356061955155
 20
486.5708059172705
 30
0.0
 10
212.3608944188745
 20
486.6093516473061
 30
0.0
 10
210.4099847896564
 20
486.6602469072491
 30
0.0
 10
209.4337671898016
 20
486.6723220379866
 30
0.0
 10
208.4567739435042
 20
486.6709716756006
 30
0.0
  0
SPLINE
  5
AE
330
1F
100
AcDbEntity
  8
0
  6
Continuous
 62
     8
370
     0
100
AcDbSpline
210
0.0
220
0.0
230
1.0
 70
     8
 71
     3
 72
    16
 73
    12
 74
     0
 42
0.00000001
 43
0.00000001
 40
0.0
 40
0.0
 40
0.0
 40
0.0
 40
0.2500000000000012
 40
0.2500000000000012
 40
0.3750000000000009
 40
0.3750000000000009
 40
0.5000000000000008
 40
0.5000000000000008
 40
0.7500000000000003
 40
0.7500000000000003
 40
1.0
 40
1.0
 40
1.0
 40
1.0
 10
240.6457059451674
 20
449.3001427409972
 30
0.0
 10
240.6020157094718
 20
450.1020496328945
 30
0.0
 10
240.543088439811
 20
450.9836042025303
 30
0.0
 10
240.428219990612
 20
452.4322623785709
 30
0.0
 10
240.3852109575248
 20
452.9374457221933
 30
0.0
 10
240.2895014375179
 20
453.9796323362485
 30
0.0
 10
240.2367515510066
 20
454.5175297365259
 30
0.0
 10
240.0621345048635
 20
456.1795456083728
 30
0.0
 10
239.9240698307311
 20
457.351960851117
 30
0.0
 10
239.5931262072216
 20
459.8161340340088
 30
0.0
 10
239.4002279117747
 20
461.1078316988778
 30
0.0
 10
239.168175443416
 20
462.447188397871
 30
0.0
  0
SPLINE
  5
AF
330
1F
100
AcDbEntity
  8
0
  6
Continuous
 62
     7
370
    15
100
AcDbSpline
210
0.0
220
0.0
230
1.0
 70
     8
 71
     3
 72
    21
 73
    17
 74
     0
 42
0.00000001
 43
0.00000001
 40
0.0
 40
0.0
 40
0.0
 40
0.0
 40
0.0643752703150881
 40
0.1388483910354836
 40
0.2057441410921193
 40
0.2653101678784598
 40
0.3174688077310949
 40
0.3619396222161614
 40
0.3983893544723109
 40
0.4354145700188032
 40
0.49750838980604
 40
0.5743105855405446
 40
0.665393298564359
 40
0.7695350209765496
 40
0.8849202400818413
 40
1.0
 40
1.0
 40
1.0
 40
1.0
 10
383.1254337933379
 20
452.0865279762004
 30
0.0
 10
382.1799647286287
 20
452.5282333895893
 30
0.0
 10
380.1407211220985
 20
453.4809297535896
 30
0.0
 10
377.2761354987099
 20
455.2400199367655
 30
0.0
 10
374.6115805816585
 20
457.1563938867743
 30
0.0
 10
372.3753699505655
 20
459.0302997322217
 30
0.0
 10
370.5229419413029
 20
460.7745658266364
 30
0.0
 10
369.0186113135985
 20
462.3256751983488
 30
0.0
 10
367.7377314543629
 20
463.7342271565547
 30
0.0
 10
366.3138613823511
 20
465.3835810164691
 30
0.0
 10
364.5321985567804
 20
467.5762932558974
 30
0.0
 10
362.2762422838136
 20
470.4916467158534
 30
0.0
 10
359.6360416972264
 20
473.9603994791731
 30
0.0
 10
356.556002080863
 20
477.8802287970884
 30
0.0
 10
353.0610044931143
 20
481.9886699541372
 30
0.0
 10
350.4262884159675
 20
484.6339558117275
 30
0.0
 10
349.1106764089055
 20
485.9548457043973
 30
0.0
  0
SPLINE
  5
B0
330
1F
100
AcDbEntity
  8
0
  6
Continuous
 62
     7
370
    15
100
AcDbSpline
210
0.0
220
0.0
230
1.0
 70
     8
 71
     3
 72
    15
 73
    11
 74
     0
 42
0.00000001
 43
0.00000001
 40
0.0
 40
0.0
 40
0.0
 40
0.0
 40
0.0771138769316009
 40
0.1615669516254407
 40
0.244829765868774
 40
0.3695671701140789
 40
0.4952635612112647
 40
0.664708667390096
 40
0.8359614218850431
 40
1.0
 40
1.0
 40
1.0
 40
1.0
 10
346.4434431650014
 20
486.0773051266854
 30
0.0
 10
346.0254140859822
 20
485.2715744483756
 30
0.0
 10
345.1495706363287
 20
483.5834288809953
 30
0.0
 10
344.21640572525
 20
480.7827810615889
 30
0.0
 10
343.3642865082559
 20
477.3612609750871
 30
0.0
 10
342.7325530807551
 20
473.3771318833466
 30
0.0
 10
342.2770269846667
 20
468.3465793520221
 30
0.0
 10
342.0656655000357
 20
462.7631761589491
 30
0.0
 10
342.0510613573783
 20
456.7427613301461
 30
0.0
 10
342.1276234868582
 20
452.7554918691233
 30
0.0
 10
342.1650808907212
 20
450.8047524692822
 30
0.0
  0
SPLINE
  5
B1
330
1F
100
AcDbEntity
  8
0
  6
Continuous
 62
     7
370
    15
100
AcDbSpline
210
0.0
220
0.0
230
1.0
 70
     8
 71
     3
 72
    16
 73
    12
 74
     0
 42
0.00000001
 43
0.00000001
 40
0.0
 40
0.0
 40
0.0
 40
0.0
 40
0.126722318456311
 40
0.2633384583241386
 40
0.3866804306369308
 40
0.4931500151390015
 40
0.5819795553071163
 40
0.710819448689801
 40
0.8435883896156227
 40
0.9820967482642148
 40
1.0
 40
1.0
 40
1.0
 40
1.0
 10
419.5603496715323
 20
402.576580982719
 30
0.0
 10
420.9324727654206
 20
402.9904189876211
 30
0.0
 10
423.7838472081953
 20
403.8504053225807
 30
0.0
 10
428.0860304096328
 20
404.5820674768589
 30
0.0
 10
432.1533790737281
 20
405.1998408667868
 30
0.0
 10
435.6858919183892
 20
405.8153996004673
 30
0.0
 10
439.2473072609686
 20
406.6387438871102
 30
0.0
 10
443.0423508678593
 20
407.791747945231
 30
0.0
 10
447.1869918284491
 20
409.5916449242299
 30
0.0
 10
450.0819153938437
 20
411.1609529442918
 30
0.0
 10
451.4547318400932
 20
412.2477571877791
 30
0.0
 10
451.6118677353367
 20
412.3721554336053
 30
0.0
  0
SPLINE
  5
B2
330
1F
100
AcDbEntity
  8
0
  6
Continuous
 62
     7
370
    15
100
AcDbSpline
210
0.0
220
0.0
230
1.0
 70
     8
 71
     3
 72
    20
 73
    16
 74
     0
 42
0.00000001
 43
0.00000001
 40
0.0
 40
0.0
 40
0.0
 40
0.0
 40
0.0120180933129626
 40
0.0472620205007936
 40
0.0922325680119127
 40
0.1471198737642917
 40
0.2118852268128468
 40
0.2864253828118001
 40
0.3664844334795222
 40
0.4555642125658937
 40
0.5540702651341397
 40
0.6624794438720654
 40
0.7809599176309389
 40
0.909118857285492
 40
1.0
 40
1.0
 40
1.0
 40
1.0
 10
342.3949818025364
 20
439.3278315375861
 30
0.0
 10
342.4024571238797
 20
439.0725899175308
 30
0.0
 10
342.4318543653034
 20
438.0688338003521
 30
0.0
 10
342.4785913258357
 20
435.9584560240639
 30
0.0
 10
342.5070036968008
 20
432.8892997150331
 30
0.0
 10
342.4570290986898
 20
429.1237838988053
 30
0.0
 10
342.2594677524864
 20
424.6922463932346
 30
0.0
 10
341.8295238160945
 20
419.6969497085926
 30
0.0
 10
341.0717305732518
 20
414.1789809703782
 30
0.0
 10
339.8957976697999
 20
408.1768671426677
 30
0.0
 10
338.189679942308
 20
401.6422320447708
 30
0.0
 10
335.9186022580879
 20
394.594924000588
 30
0.0
 10
333.1304980646619
 20
387.0349429548432
 30
0.0
 10
330.3895110806679
 20
379.884345570166
 30
0.0
 10
328.5835255215263
 20
375.2502167061609
 30
0.0
 10
327.834210466649
 20
373.3274867560439
 30
0.0
  0
SPLINE
  5
B3
330
1F
100
AcDbEntity
  8
0
  6
Continuous
 62
     7
370
    15
100
AcDbSpline
210
0.0
220
0.0
230
1.0
 70
     8
 71
     3
 72
    14
 73
    10
 74
     0
 42
0.00000001
 43
0.00000001
 40
0.0
 40
0.0
 40
0.0
 40
0.0
 40
0.0172279935929325
 40
0.1714713827696191
 40
0.3377064653100452
 40
0.5285224580257617
 40
0.7261480869168464
 40
0.90279032399689
 40
0.9999999999999999
 40
0.9999999999999999
 40
0.9999999999999999
 40
0.9999999999999999
 10
348.8375468169265
 20
486.6677016447821
 30
0.0
 10
348.8274547808953
 20
486.6786226325647
 30
0.0
 10
348.7270080652689
 20
486.7873199609102
 30
0.0
 10
348.4354223705625
 20
486.9677972605679
 30
0.0
 10
347.9638797469142
 20
487.1171955389354
 30
0.0
 10
347.4103057199633
 20
487.1038576362935
 30
0.0
 10
346.8941017440098
 20
486.8931533874912
 30
0.0
 10
346.5315686695907
 20
486.5920297115845
 30
0.0
 10
346.4013426188009
 20
486.3611041978174
 30
0.0
 10
346.3551160576573
 20
486.2791321782634
 30
0.0
  0
SPLINE
  5
B4
330
1F
100
AcDbEntity
  8
0
  6
Continuous
 62
     7
370
    15
100
AcDbSpline
210
0.0
220
0.0
230
1.0
 70
     8
 71
     3
 72
     9
 73
     5
 74
     0
 42
0.00000001
 43
0.00000001
 40
0.0
 40
0.0
 40
0.0
 40
0.0
 40
0.4255164891361099
 40
1.0
 40
1.0
 40
1.0
 40
1.0
 10
384.4417034128333
 20
450.8735454642278
 30
0.0
 10
384.4071571226496
 20
450.8900274032044
 30
0.0
 10
384.325970397656
 20
450.9287613639261
 30
0.0
 10
384.2226327522748
 20
450.9371456661013
 30
0.0
 10
384.1632669789518
 20
450.941962309451
 30
0.0
  0
LINE
  5
B5
330
1F
100
AcDbEntity
  8
0
  6
Continuous
 62
     7
370
    15
100
AcDbLine
 10
384.4793237471
 20
450.8581860457
 30
0.0
 11
384.4417034128
 21
450.8735454642
 31
0.0
  0
ARC
  5
B6
330
1F
100
AcDbEntity
  8
0
  6
Continuous
 62
     7
370
    15
100
AcDbCircle
 10
375.9486659836
 20
439.0401346872
 30
0.0
 40
30.09000000000002
100
AcDbArc
 50
159.2321618072
 51
173.5400612067
  0
LINE
  5
B7
330
1F
100
AcDbEntity
  8
0
  6
Continuous
 62
     7
370
    15
100
AcDbLine
 10
377.4308782727
 20
449.1845083715
 30
0.0
 11
377.096559191
 21
450.4322041712
 31
0.0
  0
LINE
  5
B8
330
1F
100
AcDbEntity
  8
0
  6
Continuous
 62
     7
370
    15
100
AcDbLine
 10
346.0636185367
 20
442.2392941188
 30
0.0
 11
346.4285229513
 21
440.8774523032
 31
0.0
  0
ARC
  5
B9
330
1F
100
AcDbEntity
  8
0
  6
Continuous
 62
     7
370
    15
100
AcDbCircle
 10
346.5480303386
 20
442.3690918699
 30
0.0
 40
0.5014999999999947
100
AcDbArc
 50
173.5400612067
 51
194.999999994
  0
LINE
  5
BA
330
1F
100
AcDbEntity
  8
0
  6
Continuous
 62
     7
370
    15
100
AcDbLine
 10
462.4203385802
 20
410.3550683361
 30
0.0
 11
468.9398385802
 21
410.3550683361
 31
0.0
  0
LINE
  5
BB
330
1F
100
AcDbEntity
  8
0
  6
Continuous
 62
     7
370
    15
100
AcDbLine
 10
468.9398385802
 20
436.0318683361
 30
0.0
 11
466.3890819988
 21
436.0318683361
 31
0.0
  0
LINE
  5
BC
330
1F
100
AcDbEntity
  8
0
  6
Continuous
 62
     7
370
    15
100
AcDbLine
 10
459.4113385802
 20
411.9097183361
 30
0.0
 11
460.184613602
 21
411.1364433144
 31
0.0
  0
LINE
  5
BD
330
1F
100
AcDbEntity
  8
0
  6
Continuous
 62
     7
370
    15
100
AcDbLine
 10
476.3847562603
 20
435.2294683361
 30
0.0
 11
468.9398385802
 21
435.2294683361
 31
0.0
  0
LINE
  5
BE
330
1F
100
AcDbEntity
  8
0
  6
Continuous
 62
     7
370
    15
100
AcDbLine
 10
468.9398385802
 20
411.1574683361
 30
0.0
 11
476.3847562603
 21
411.1574683361
 31
0.0
  0
SPLINE
  5
BF
330
1F
100
AcDbEntity
  8
0
  6
Continuous
 62
     7
370
    15
100
AcDbSpline
210
0.0
220
0.0
230
1.0
 70
     8
 71
     3
 72
    11
 73
     7
 74
     0
 42
0.00000001
 43
0.00000001
 40
0.0
 40
0.0
 40
0.0
 40
0.0
 40
0.1983853213461198
 40
0.5343665496549058
 40
0.8174663958211116
 40
0.9999999999999999
 40
0.9999999999999999
 40
0.9999999999999999
 40
0.9999999999999999
 10
319.055224193926
 20
356.3130803292176
 30
0.0
 10
319.0680413708967
 20
356.3075730026822
 30
0.0
 10
319.1025654505398
 20
356.2927385831871
 30
0.0
 10
319.160102368919
 20
356.288842940445
 30
0.0
 10
319.216060005741
 20
356.293980405724
 30
0.0
 10
319.2429419501733
 20
356.3022204968048
 30
0.0
 10
319.2534799778879
 20
356.3054507061521
 30
0.0
  0
LINE
  5
C0
330
1F
100
AcDbEntity
  8
0
  6
Continuous
 62
     7
370
    15
100
AcDbLine
 10
319.0503853532
 20
356.3149259452
 30
0.0
 11
319.0552241939
 21
356.3130803292
 31
0.0
  0
LINE
  5
C1
330
1F
100
AcDbEntity
  8
0
  6
Continuous
 62
     7
370
    15
100
AcDbLine
 10
451.3873385802
 20
411.9097183361
 30
0.0
 11
459.4113385802
 21
411.9097183361
 31
0.0
  0
LINE
  5
C2
330
1F
100
AcDbEntity
  8
0
  6
Continuous
 62
     7
370
    15
100
AcDbLine
 10
476.3847562603
 20
411.1574683361
 30
0.0
 11
476.9638385802
 21
412.1604683361
 31
0.0
  0
LINE
  5
C3
330
1F
100
AcDbEntity
  8
0
  6
Continuous
 62
     7
370
    15
100
AcDbLine
 10
476.9638385802
 20
434.2264683361
 30
0.0
 11
476.3847562603
 21
435.2294683361
 31
0.0
  0
ARC
  5
C4
330
1F
100
AcDbEntity
  8
0
  6
Continuous
 62
     7
370
    15
100
AcDbCircle
 10
307.2417074033
 20
366.2703809833
 30
0.0
 40
1.203605141578281
100
AcDbArc
 50
113.6908430017
 51
208.0775582612
  0
SPLINE
  5
C5
330
1F
100
AcDbEntity
  8
0
  6
Continuous
 62
     7
370
    15
100
AcDbSpline
210
0.0
220
0.0
230
1.0
 70
     8
 71
     3
 72
    12
 73
     8
 74
     0
 42
0.00000001
 43
0.00000001
 40
0.0
 40
0.0
 40
0.0
 40
0.0
 40
0.0887916903185934
 40
0.3838742617179375
 40
0.7093462675947003
 40
0.9828055230165813
 40
1.0
 40
1.0
 40
1.0
 40
1.0
 10
325.8236324697099
 20
366.0660189955408
 30
0.0
 10
325.8413398914452
 20
366.1018871961078
 30
0.0
 10
325.9178946165684
 20
366.2569566509453
 30
0.0
 10
326.0180115692365
 20
366.5712048749199
 30
0.0
 10
326.0486669609349
 20
366.9226979013308
 30
0.0
 10
326.0284899813888
 20
367.150794786187
 30
0.0
 10
325.9621756132953
 20
367.2295412048092
 30
0.0
 10
325.9582525916763
 20
367.2341996809668
 30
0.0
  0
SPLINE
  5
C6
330
1F
100
AcDbEntity
  8
0
  6
Continuous
 62
     7
370
    15
100
AcDbSpline
210
0.0
220
0.0
230
1.0
 70
     8
 71
     3
 72
    16
 73
    12
 74
     0
 42
0.00000001
 43
0.00000001
 40
0.0
 40
0.0
 40
0.0
 40
0.0
 40
0.0980666907474288
 40
0.1938037598267785
 40
0.3582508406526909
 40
0.4936630681674365
 40
0.6013927869596983
 40
0.6946116628375988
 40
0.8014952676964637
 40
0.9263608966404784
 40
1.0
 40
1.0
 40
1.0
 40
1.0
 10
306.1866409931033
 20
365.7156344051045
 30
0.0
 10
306.4407699689167
 20
365.2705742542275
 30
0.0
 10
306.9429909638151
 20
364.3910265716084
 30
0.0
 10
308.1924317206595
 20
362.9033302124253
 30
0.0
 10
309.8023568554192
 20
361.4335878712851
 30
0.0
 10
311.6521660967049
 20
360.1351422937637
 30
0.0
 10
313.2487888170131
 20
359.1838294419206
 30
0.0
 10
314.762378840677
 20
358.3793140531514
 30
0.0
 10
316.3484745642003
 20
357.5654761979685
 30
0.0
 10
317.808609105072
 20
356.8489884200379
 30
0.0
 10
318.7252108831867
 20
356.4723641151728
 30
0.0
 10
319.0652417343148
 20
356.3326481709138
 30
0.0
  0
SPLINE
  5
C7
330
1F
100
AcDbEntity
  8
0
  6
Continuous
 62
     7
370
    15
100
AcDbSpline
210
0.0
220
0.0
230
1.0
 70
     8
 71
     3
 72
    16
 73
    12
 74
     0
 42
0.00000001
 43
0.00000001
 40
0.0
 40
0.0
 40
0.0
 40
0.0
 40
0.1010749395429387
 40
0.2371607814268529
 40
0.3398732806119151
 40
0.4150029354733522
 40
0.5116382286823873
 40
0.6410158937552262
 40
0.745934752617522
 40
0.8672557266378549
 40
1.0
 40
1.0
 40
1.0
 40
1.0
 10
324.489089198308
 20
369.4485704327879
 30
0.0
 10
323.8828099714651
 20
369.4434993859891
 30
0.0
 10
322.4602451314453
 20
369.4316007548654
 30
0.0
 10
320.4216505988262
 20
369.4065146878298
 30
0.0
 10
318.538816246109
 20
369.3742005680965
 30
0.0
 10
316.8928704405669
 20
369.3311353087796
 30
0.0
 10
315.0879237223288
 20
369.2603240198246
 30
0.0
 10
313.1065393497183
 20
369.1140355080315
 30
0.0
 10
310.9963460196469
 20
368.7932555116882
 30
0.0
 10
308.8987702285429
 20
368.2730993704508
 30
0.0
 10
307.4940104391031
 20
367.676551123158
 30
0.0
 10
306.7600500906544
 20
367.3648659775973
 30
0.0
  0
SPLINE
  5
C8
330
1F
100
AcDbEntity
  8
0
  6
Continuous
 62
     7
370
    15
100
AcDbSpline
210
0.0
220
0.0
230
1.0
 70
     8
 71
     3
 72
    14
 73
    10
 74
     0
 42
0.00000001
 43
0.00000001
 40
0.0
 40
0.0
 40
0.0
 40
0.0
 40
0.0052719010264247
 40
0.213698250683594
 40
0.4342256467066045
 40
0.6546137499254904
 40
0.8749148901091248
 40
0.9821893548886081
 40
1.0
 40
1.0
 40
1.0
 40
1.0
 10
325.9617013277914
 20
367.23603856792
 30
0.0
 10
325.9576431412145
 20
367.2432591583253
 30
0.0
 10
325.7931432069233
 20
367.5359481771048
 30
0.0
 10
325.5061306686415
 20
368.0546694543793
 30
0.0
 10
325.1505760263979
 20
368.6636914014351
 30
0.0
 10
324.8915648343832
 20
369.0903022105991
 30
0.0
 10
324.774004986228
 20
369.267951158736
 30
0.0
 10
324.7425241287264
 20
369.315149935993
 30
0.0
 10
324.7428287105765
 20
369.314672518754
 30
0.0
 10
324.7428720794415
 20
369.3146045401671
 30
0.0
  0
LINE
  5
C9
330
1F
100
AcDbEntity
  8
0
  6
Continuous
 62
     7
370
    15
100
AcDbLine
 10
476.9638385802
 20
414.2667683361
 30
0.0
 11
477.1644385802
 21
414.2667683361
 31
0.0
  0
LINE
  5
CA
330
1F
100
AcDbEntity
  8
0
  6
Continuous
 62
     7
370
    15
100
AcDbLine
 10
477.1644385802
 20
432.1201683361
 30
0.0
 11
476.9638385802
 21
432.1201683361
 31
0.0
  0
LINE
  5
CB
330
1F
100
AcDbEntity
  8
0
  6
Continuous
 62
     7
370
    15
100
AcDbLine
 10
341.8845434767
 20
458.5133951317
 30
0.0
 11
341.6620255572
 21
458.4943186166
 31
0.0
  0
ARC
  5
CC
330
1F
100
AcDbEntity
  8
0
  6
Continuous
 62
     7
370
    15
100
AcDbCircle
 10
341.6791601919
 20
458.2944517502
 30
0.0
 40
0.2006000000000258
100
AcDbArc
 50
94.899999994
 51
183.5794392635
  0
ARC
  5
CD
330
1F
100
AcDbEntity
  8
0
  6
Continuous
 62
     7
370
    15
100
AcDbCircle
 10
342.0732567914
 20
453.6975138226
 30
0.0
 40
0.2006000000000207
100
AcDbArc
 50
186.2205607244
 51
232.5224866895
  0
ARC
  5
CE
330
1F
100
AcDbEntity
  8
0
  6
Continuous
 62
     7
370
    15
100
AcDbCircle
 10
441.5832859526
 20
464.5438946336
 30
0.0
 40
100.3
100
AcDbArc
 50
183.5794392634
 51
186.2205607246
  0
LINE
  5
CF
330
1F
100
AcDbEntity
  8
0
  6
Continuous
 62
     7
370
    15
100
AcDbLine
 10
319.6025724702
 20
356.5448199205
 30
0.0
 11
319.8085384701
 21
356.1880763441
 31
0.0
  0
LINE
  5
D0
330
1F
100
AcDbEntity
  8
0
  6
Continuous
 62
     7
370
    15
100
AcDbLine
 10
451.3369182196
 20
411.9601386967
 30
0.0
 11
451.3873385802
 21
411.9097183361
 31
0.0
  0
LINE
  5
D1
330
1F
100
AcDbEntity
  8
0
  6
Continuous
 62
     7
370
    15
100
AcDbLine
 10
319.0503877535
 20
356.3149248325
 30
0.0
 11
319.0552304872
 21
356.3130778574
 31
0.0
  0
LINE
  5
D2
330
1F
100
AcDbEntity
  8
0
  6
Continuous
 62
     7
370
    15
100
AcDbLine
 10
384.1799697784
 20
450.9395594705
 30
0.0
 11
384.1631615855
 21
450.9419674674
 31
0.0
  0
SPLINE
  5
D3
330
1F
100
AcDbEntity
  8
0
  6
Continuous
 62
     7
370
    15
100
AcDbSpline
210
0.0
220
0.0
230
1.0
 70
     8
 71
     3
 72
    18
 73
    14
 74
     0
 42
0.00000001
 43
0.00000001
 40
0.0
 40
0.0
 40
0.0
 40
0.0
 40
0.2469399020230899
 40
0.6286345995050825
 40
0.8220939065181991
 40
0.9385803020787603
 40
0.9475509746321206
 40
0.9516059689355756
 40
0.9549265830044164
 40
0.9625461488172685
 40
0.9748671478915446
 40
0.9903620297171348
 40
1.0
 40
1.0
 40
1.0
 40
1.0
 10
325.1232501652673
 20
368.7087524649185
 30
0.0
 10
325.0609447320021
 20
368.8119388310371
 30
0.0
 10
324.9023338685217
 20
369.0746202341151
 30
0.0
 10
324.799593656454
 20
369.2291318954177
 30
0.0
 10
324.743801465953
 20
369.3131475839544
 30
0.0
 10
324.7499028022299
 20
369.3049745409612
 30
0.0
 10
324.734115742165
 20
369.3274122949397
 30
0.0
 10
324.7259151527168
 20
369.3380887019338
 30
0.0
 10
324.7110897534013
 20
369.3555842365942
 30
0.0
 10
324.6792816078366
 20
369.3867612617601
 30
0.0
 10
324.6232845289305
 20
369.4226331061977
 30
0.0
 10
324.555108701971
 20
369.4488753558658
 30
0.0
 10
324.5074076173292
 20
369.4462533753832
 30
0.0
 10
324.4891151595431
 20
369.4452478957876
 30
0.0
  0
SPLINE
  5
D4
330
1F
100
AcDbEntity
  8
0
  6
Continuous
 62
     7
370
    15
100
AcDbSpline
210
0.0
220
0.0
230
1.0
 70
     8
 71
     3
 72
    24
 73
    20
 74
     0
 42
0.00000001
 43
0.00000001
 40
0.0
 40
0.0
 40
0.0
 40
0.0
 40
0.0399800431375872
 40
0.0800311823767331
 40
0.1201149894340997
 40
0.1602325332913386
 40
0.2003974307096867
 40
0.2406172150123243
 40
0.2808836273522607
 40
0.321168117695033
 40
0.3614273786918709
 40
0.4016297267388352
 40
0.4417453990303171
 40
0.53737279632501
 40
0.6323690919799148
 40
0.7257332531492877
 40
0.8178985506320452
 40
0.9091426570771027
 40
1.0
 40
1.0
 40
1.0
 40
1.0
 10
365.7206146611607
 20
466.4889780094355
 30
0.0
 10
365.5046884732589
 20
466.7660223778669
 30
0.0
 10
365.072452118125
 20
467.320603779895
 30
0.0
 10
364.4311056485179
 20
468.1586520918115
 30
0.0
 10
363.7920316682782
 20
468.9999400926607
 30
0.0
 10
363.1555414692821
 20
469.844439287367
 30
0.0
 10
362.5208123301068
 20
470.6917538299844
 30
0.0
 10
361.8870480280376
 20
471.5414218839343
 30
0.0
 10
361.2533157745438
 20
472.3924236181197
 30
0.0
 10
360.6190021937591
 20
473.2434251814183
 30
0.0
 10
359.983552434658
 20
474.0928763243816
 30
0.0
 10
359.3459908497979
 20
474.9388929173093
 30
0.0
 10
358.4089174354809
 20
476.1682705090691
 30
0.0
 10
357.1595654526531
 20
477.7649483191126
 30
0.0
 10
355.5703903825776
 20
479.6887978152332
 30
0.0
 10
353.9468493953196
 20
481.5435999737251
 30
0.0
 10
352.2860899963702
 20
483.3203289751224
 30
0.0
 10
350.5842586731753
 20
485.0268741186655
 30
0.0
 10
349.419458221554
 20
486.1237156697806
 30
0.0
 10
348.8382949499984
 20
486.6709716597117
 30
0.0
  0
SPLINE
  5
D5
330
1F
100
AcDbEntity
  8
0
  6
Continuous
 62
     7
370
    15
100
AcDbSpline
210
0.0
220
0.0
230
1.0
 70
     8
 71
     3
 72
    28
 73
    24
 74
     0
 42
0.00000001
 43
0.00000001
 40
0.0
 40
0.0
 40
0.0
 40
0.0
 40
0.0283116481825852
 40
0.0566270962511234
 40
0.0849722614005802
 40
0.1133349069769994
 40
0.1417010899158167
 40
0.1700733862322596
 40
0.1984579556941171
 40
0.2268633325242969
 40
0.2552993497888165
 40
0.2837760558847445
 40
0.3123026172536378
 40
0.3408862014015123
 40
0.3695308344884405
 40
0.4461160210172692
 40
0.5232381698279419
 40
0.5750018139875784
 40
0.6799129606927115
 40
0.785842858138456
 40
0.8566044250134836
 40
0.9280037991925675
 40
1.0
 40
1.0
 40
1.0
 40
1.0
 10
383.3857569509923
 20
452.117389631769
 30
0.0
 10
383.1876214300073
 20
452.2064361739012
 30
0.0
 10
382.7913237950116
 20
452.3845412096669
 30
0.0
 10
382.201794009312
 20
452.6630072659153
 30
0.0
 10
381.6159210274059
 20
452.9499385945443
 30
0.0
 10
381.0342651525661
 20
453.2462018706992
 30
0.0
 10
380.4570851131052
 20
453.5515335844994
 30
0.0
 10
379.8846219619913
 20
453.8659722200682
 30
0.0
 10
379.3169330856513
 20
454.1895584296075
 30
0.0
 10
378.7540362437056
 20
454.5223730547578
 30
0.0
 10
378.195922192229
 20
454.8645023251977
 30
0.0
 10
377.6425782728307
 20
455.2160318166535
 30
0.0
 10
377.0940085863628
 20
455.5770287913566
 30
0.0
 10
376.5502495924036
 20
455.9475298429873
 30
0.0
 10
375.711169780138
 20
456.5392177908451
 30
0.0
 10
374.5916221677012
 20
457.3790873234137
 30
0.0
 10
373.3710735984416
 20
458.377601527377
 30
0.0
 10
372.0218534075625
 20
459.5599583756904
 30
0.0
 10
370.5599950350746
 20
460.9479473462048
 30
0.0
 10
369.0681723874702
 20
462.5119581735618
 30
0.0
 10
367.8049864027413
 20
463.9361423752841
 30
0.0
 10
366.7468356127869
 20
465.1935345218488
 30
0.0
 10
366.0636361350637
 20
466.0559670351045
 30
0.0
 10
365.7206146241536
 20
466.4889780566303
 30
0.0
  0
SPLINE
  5
D6
330
1F
100
AcDbEntity
  8
0
  6
Continuous
 62
     7
370
    15
100
AcDbSpline
210
0.0
220
0.0
230
1.0
 70
    24
 71
     3
 72
    20
 73
    16
 74
     0
 42
0.00000001
 43
0.00000001
 40
0.0
 40
0.0
 40
0.0
 40
0.0
 40
0.2500000000000002
 40
0.2500000000000002
 40
0.3750000000000002
 40
0.3750000000000002
 40
0.5000000000000002
 40
0.5000000000000002
 40
0.7500000000000002
 40
0.7500000000000002
 40
0.8125000000000001
 40
0.8125000000000001
 40
0.8750000000000001
 40
0.8750000000000001
 40
1.0
 40
1.0
 40
1.0
 40
1.0
 10
372.8716484142561
 20
449.3001427409973
 30
0.0
 10
374.7392252265835
 20
449.8005584394527
 30
0.0
 10
376.3767377794379
 20
450.2393286054012
 30
0.0
 10
378.4440012104628
 20
450.7932501720534
 30
0.0
 10
379.068919283277
 20
450.9606964649291
 30
0.0
 10
380.189221188647
 20
451.2608804556256
 30
0.0
 10
380.6747156451017
 20
451.3909683031077
 30
0.0
 10
381.9315602663773
 20
451.7277388042481
 30
0.0
 10
382.5040060078992
 20
451.8811251783349
 30
0.0
 10
382.9607575226159
 20
452.0035113777934
 30
0.0
 10
383.0391337306222
 20
452.0245122194256
 30
0.0
 10
383.1706885322583
 20
452.0597622222696
 30
0.0
 10
383.2240362997138
 20
452.0740567134714
 30
0.0
 10
383.3497842482681
 20
452.1077507747221
 30
0.0
 10
383.3882156103971
 20
452.1180484271644
 30
0.0
 10
383.3857569101763
 20
452.117389620426
 30
0.0
  0
SPLINE
  5
D7
330
1F
100
AcDbEntity
  8
0
  6
Continuous
 62
     7
370
    15
100
AcDbSpline
210
0.0
220
0.0
230
1.0
 70
    24
 71
     3
 72
    14
 73
    10
 74
     0
 42
0.00000001
 43
0.00000001
 40
0.0
 40
0.0
 40
0.0
 40
0.0
 40
0.2500000000000007
 40
0.2500000000000007
 40
0.5000000000000004
 40
0.5000000000000004
 40
0.7500000000000002
 40
0.7500000000000002
 40
1.0
 40
1.0
 40
1.0
 40
1.0
 10
372.8716484142458
 20
449.3001427410032
 30
0.0
 10
372.7411859989664
 20
449.2651854422012
 30
0.0
 10
372.5881905036707
 20
449.2241904227997
 30
0.0
 10
372.2502624538506
 20
449.1336428747887
 30
0.0
 10
372.0696890680117
 20
449.0852583818991
 30
0.0
 10
371.6980258233218
 20
448.98567151567
 30
0.0
 10
371.5037508741142
 20
448.9336156999422
 30
0.0
 10
371.1177485429951
 20
448.8301866870858
 30
0.0
 10
370.9244926687563
 20
448.7784039316727
 30
0.0
 10
370.7309695194903
 20
448.726549560132
 30
0.0
  0
SPLINE
  5
D8
330
1F
100
AcDbEntity
  8
0
  6
Continuous
 62
     7
370
    15
100
AcDbSpline
210
0.0
220
0.0
230
1.0
 70
     8
 71
     3
 72
   107
 73
   103
 74
     0
 42
0.00000001
 43
0.00000001
 40
0.0
 40
0.0
 40
0.0
 40
0.0
 40
0.008706916649926
 40
0.0173984715210028
 40
0.0260758253515524
 40
0.0347401802072282
 40
0.0433927584256245
 40
0.0520347787664585
 40
0.0606674350556786
 40
0.0692918799495787
 40
0.0779092145859369
 40
0.0865204837032418
 40
0.0951266751513922
 40
0.1037287224480142
 40
0.1123275090324917
 40
0.1209238730377251
 40
0.1295186116645044
 40
0.1381124845520744
 40
0.1467062158532086
 40
0.1553004950155792
 40
0.163895976523834
 40
0.1724932790545367
 40
0.1810929846305913
 40
0.1896956384296846
 40
0.1983017499052735
 40
0.2069117958265999
 40
0.2155262257489087
 40
0.2241454698375786
 40
0.232769941356514
 40
0.2414000324047837
 40
0.2500361142277117
 40
0.2586785385947086
 40
0.2673276393672546
 40
0.2759837342272843
 40
0.2846471265339741
 40
0.2933181072769021
 40
0.3019969570951719
 40
0.3106839483348451
 40
0.3193793471205134
 40
0.3280834154207208
 40
0.336796413090904
 40
0.3455185998814317
 40
0.3542502374019851
 40
0.3629915910368073
 40
0.3717429318082924
 40
0.380504538188823
 40
0.3892766978628081
 40
0.398059708146258
 40
0.4068538037845162
 40
0.4156591071830766
 40
0.4244757219120915
 40
0.4333037420265135
 40
0.4421432525219552
 40
0.4509943297668594
 40
0.4598570419166275
 40
0.4687314493147037
 40
0.4776176048848955
 40
0.4865155545183922
 40
0.4954253374580962
 40
0.5043469866820477
 40
0.5132805292868602
 40
0.5222259868712933
 40
0.5311833759193337
 40
0.5401527081814483
 40
0.5491339910520824
 40
0.558127227940917
 40
0.5671324186349731
 40
0.5761495596482852
 40
0.5851786445556086
 40
0.5942196643064463
 40
0.6032726075156076
 40
0.6123374607264866
 40
0.6214142086433475
 40
0.6305028343290343
 40
0.6396033193647379
 40
0.6487156439687313
 40
0.65783978656384
 40
0.6669757153892762
 40
0.676123390321237
 40
0.6852827710490129
 40
0.6944538176719341
 40
0.7036364907146352
 40
0.7128307508466188
 40
0.7220365583441171
 40
0.731253872335513
 40
0.7404826498737344
 40
0.749722844880074
 40
0.7589744070039646
 40
0.7682372804585784
 40
0.777511406386427
 40
0.7867967261041122
 40
0.7960931748382767
 40
0.805400682661574
 40
0.8147191760443449
 40
0.8240485788701686
 40
0.8333888130086382
 40
0.8427397985398037
 40
0.8521014537238139
 40
0.8888404417873236
 40
0.9257417320557162
 40
0.9627963110063741
 40
0.9999999999999999
 40
0.9999999999999999
 40
0.9999999999999999
 40
0.9999999999999999
 10
419.5351583515956
 20
402.5246763435368
 30
0.0
 10
419.3389366561111
 20
402.4597813033683
 30
0.0
 10
418.9468394628162
 20
402.3301057185864
 30
0.0
 10
418.3626996052448
 20
402.1253775165137
 30
0.0
 10
417.782222179904
 20
401.913456192022
 30
0.0
 10
417.2056606553485
 20
401.6936692076054
 30
0.0
 10
416.6329493531725
 20
401.4663066540974
 30
0.0
 10
416.0640960251499
 20
401.2314202944257
 30
0.0
 10
415.4990799984558
 20
400.9891390320705
 30
0.0
 10
414.9378826581089
 20
400.7395788880201
 30
0.0
 10
414.3804822262427
 20
400.4828620550247
 30
0.0
 10
413.8268574965027
 20
400.2191078465779
 30
0.0
 10
413.2769884505631
 20
399.9484324119417
 30
0.0
 10
412.7308569706231
 20
399.6709473540868
 30
0.0
 10
412.1884468524963
 20
399.3867597637991
 30
0.0
 10
411.6497434501895
 20
399.095972788385
 30
0.0
 10
411.1147330126476
 20
398.7986867146204
 30
0.0
 10
410.5834018589707
 20
398.4950002964427
 30
0.0
 10
410.0557355148055
 20
398.1850121284746
 30
0.0
 10
409.5317179277565
 20
397.8688218683877
 30
0.0
 10
409.0113308620835
 20
397.5465311437753
 30
0.0
 10
408.4945535542883
 20
397.2182440108324
 30
0.0
 10
407.981362687796
 20
396.8840668713452
 30
0.0
 10
407.4717327294923
 20
396.5441077823063
 30
0.0
 10
406.9656366242048
 20
396.1984751626898
 30
0.0
 10
406.4630469160364
 20
395.8472758072936
 30
0.0
 10
405.9639370079389
 20
395.4906126316937
 30
0.0
 10
405.468283706844
 20
395.1285809248186
 30
0.0
 10
404.9760661138815
 20
394.7612703045304
 30
0.0
 10
404.487261306156
 20
394.3887708950571
 30
0.0
 10
404.0018450885372
 20
394.011172397362
 30
0.0
 10
403.5197919756762
 20
393.628564045574
 30
0.0
 10
403.0410753382112
 20
393.2410342934128
 30
0.0
 10
402.5656674954842
 20
392.8486705785912
 30
0.0
 10
402.0935398130167
 20
392.4515590824434
 30
0.0
 10
401.6246627860597
 20
392.0497845119623
 30
0.0
 10
401.1590061123696
 20
391.6434298999739
 30
0.0
 10
400.6965387524692
 20
391.232576426026
 30
0.0
 10
400.2372289777402
 20
390.8173032574692
 30
0.0
 10
399.7810444067249
 20
390.3976874100619
 30
0.0
 10
399.3279520304555
 20
389.9738036267441
 30
0.0
 10
398.8779182278259
 20
389.545724272887
 30
0.0
 10
398.4309087721807
 20
389.1135192460715
 30
0.0
 10
397.9868888303739
 20
388.6772558983221
 30
0.0
 10
397.5458229555733
 20
388.2369989686801
 30
0.0
 10
397.1076750750753
 20
387.7928105240272
 30
0.0
 10
396.6724084957572
 20
387.3447499282518
 30
0.0
 10
396.2399871182297
 20
386.8928750837332
 30
0.0
 10
395.8103774241578
 20
386.4372446225269
 30
0.0
 10
395.3835488553905
 20
385.9779185708678
 30
0.0
 10
394.9594728762114
 20
385.5149575868041
 30
0.0
 10
394.5381212882909
 20
385.0484212582468
 30
0.0
 10
394.1194660799153
 20
384.5783679870053
 30
0.0
 10
393.7034794204777
 20
384.104855023069
 30
0.0
 10
393.2901336567396
 20
383.6279384959567
 30
0.0
 10
392.8794013110941
 20
383.1476734427511
 30
0.0
 10
392.4712550819745
 20
382.6641138325812
 30
0.0
 10
392.0656678464534
 20
382.1773125874765
 30
0.0
 10
391.6626126650014
 20
381.6873215996455
 30
0.0
 10
391.262062788303
 20
381.1941917453526
 30
0.0
 10
390.8639916659603
 20
380.6979728956671
 30
0.0
 10
390.4683729568725
 20
380.1987139244472
 30
0.0
 10
390.075180541028
 20
379.696462713987
 30
0.0
 10
389.68438853242
 20
379.1912661588131
 30
0.0
 10
389.2959712927702
 20
378.6831701681547
 30
0.0
 10
388.9099034457277
 20
378.1722196676377
 30
0.0
 10
388.5261598912083
 20
377.6584586007647
 30
0.0
 10
388.1447158195274
 20
377.1419299307505
 30
0.0
 10
387.7655467250111
 20
376.6226756432553
 30
0.0
 10
387.3886284187028
 20
376.1007367505946
 30
0.0
 10
387.0139370400776
 20
375.5761532977881
 30
0.0
 10
386.6414490666656
 20
375.0489643714664
 30
0.0
 10
386.2711413243595
 20
374.5192081100435
 30
0.0
 10
385.9029909868229
 20
373.9869217231246
 30
0.0
 10
385.5369756062287
 20
373.4521414921481
 30
0.0
 10
385.173073023242
 20
372.9149028684962
 30
0.0
 10
384.8112618536051
 20
372.3752404292154
 30
0.0
 10
384.4515198130948
 20
371.8331892275077
 30
0.0
 10
384.093824147648
 20
371.2887844484777
 30
0.0
 10
383.7381529746603
 20
370.7420602419877
 30
0.0
 10
383.3844848715997
 20
370.1930497821994
 30
0.0
 10
383.03279895309
 20
369.6417852394115
 30
0.0
 10
382.6830748174202
 20
369.0882978689039
 30
0.0
 10
382.3352925050813
 20
368.5326181098828
 30
0.0
 10
381.9894324345595
 20
367.9747757137476
 30
0.0
 10
381.6454753326535
 20
367.4147998863693
 30
0.0
 10
381.3034021487901
 20
366.8527194468622
 30
0.0
 10
380.9631940007746
 20
366.2885629699895
 30
0.0
 10
380.624831950184
 20
365.7223589323629
 30
0.0
 10
380.2882972190242
 20
365.15413546803
 30
0.0
 10
379.9535720265666
 20
364.5839199115547
 30
0.0
 10
379.6206382458452
 20
364.011739668943
 30
0.0
 10
379.289477926133
 20
363.4376220151602
 30
0.0
 10
378.9600734378384
 20
362.8615939422488
 30
0.0
 10
378.6324073145668
 20
362.2836821251152
 30
0.0
 10
378.306463255905
 20
361.7039125115426
 30
0.0
 10
377.9822225611254
 20
361.1223116225192
 30
0.0
 10
377.3453800628228
 20
359.9704095455862
 30
0.0
 10
376.4067593772543
 20
358.2381159367625
 30
0.0
 10
375.185906195442
 20
355.9114111381035
 30
0.0
 10
373.9865784975677
 20
353.561102606808
 30
0.0
 10
373.2087618981653
 20
351.9793565145948
 30
0.0
 10
372.8190726735263
 20
351.1868954013658
 30
0.0
  0
SPLINE
  5
D9
330
1F
100
AcDbEntity
  8
0
  6
Continuous
 62
     7
370
    15
100
AcDbSpline
210
0.0
220
0.0
230
1.0
 70
     8
 71
     3
 72
    14
 73
    10
 74
     0
 42
0.00000001
 43
0.00000001
 40
0.0
 40
0.0
 40
0.0
 40
0.0
 40
0.25
 40
0.25
 40
0.5
 40
0.5
 40
0.75
 40
0.75
 40
1.0
 40
1.0
 40
1.0
 40
1.0
 10
466.0075879893428
 20
440.2294925634989
 30
0.0
 10
466.2048110724415
 20
440.1667601516801
 30
0.0
 10
466.3896767095273
 20
440.065430337166
 30
0.0
 10
466.7076293330474
 20
439.8004102748068
 30
0.0
 10
466.8405984335179
 20
439.6368182873412
 30
0.0
 10
467.0350559460203
 20
439.271419761827
 30
0.0
 10
467.0964722598541
 20
439.0697487010607
 30
0.0
 10
467.1386888439212
 20
438.6579870042873
 30
0.0
 10
467.1194734616884
 20
438.4480490354413
 30
0.0
 10
467.0613409415117
 20
438.2494210814372
 30
0.0
  0
SPLINE
  5
DA
330
1F
100
AcDbEntity
  8
0
  6
Continuous
 62
     7
370
    15
100
AcDbSpline
210
0.0
220
0.0
230
1.0
 70
    24
 71
     3
 72
     8
 73
     4
 74
     0
 42
0.00000001
 43
0.00000001
 40
0.0
 40
0.0
 40
0.0
 40
0.0
 40
1.0
 40
1.0
 40
1.0
 40
1.0
 10
370.0452699452885
 20
448.5428169130516
 30
0.0
 10
370.2736546902918
 20
448.6040124210131
 30
0.0
 10
370.5022249463739
 20
448.6652576365182
 30
0.0
 10
370.7309695194901
 20
448.7265495601319
 30
0.0
  0
SPLINE
  5
DB
330
1F
100
AcDbEntity
  8
0
  6
Continuous
 62
     7
370
    15
100
AcDbSpline
210
0.0
220
0.0
230
1.0
 70
    24
 71
     3
 72
    22
 73
    18
 74
     0
 42
0.00000001
 43
0.00000001
 40
0.0
 40
0.0
 40
0.0
 40
0.0
 40
0.0432738341000384
 40
0.1450624760117251
 40
0.2472389495116766
 40
0.3129339834123618
 40
0.3788502941707664
 40
0.4456454501413861
 40
0.5128492260707602
 40
0.578587238735728
 40
0.644906072628041
 40
0.713221274764618
 40
0.7822745955216134
 40
0.8360104962385058
 40
0.8900475658218964
 40
0.9449078268832904
 40
1.0
 40
1.0
 40
1.0
 40
1.0
 10
342.1806707086351
 20
450.8051567246885
 30
0.0
 10
342.2048228724835
 20
450.8004620196105
 30
0.0
 10
342.2857857166998
 20
450.7847244369137
 30
0.0
 10
342.5817902408973
 20
450.7271869859595
 30
0.0
 10
343.0413709445995
 20
450.6378535466468
 30
0.0
 10
343.591931702482
 20
450.5308353762665
 30
0.0
 10
344.169530479717
 20
450.4185615473228
 30
0.0
 10
344.8804204534801
 20
450.2803785343772
 30
0.0
 10
345.734598326824
 20
450.1143431751987
 30
0.0
 10
346.7397382603874
 20
449.918963764069
 30
0.0
 10
347.9073337794399
 20
449.6920061859924
 30
0.0
 10
349.2524305386003
 20
449.43054586197
 30
0.0
 10
350.6529623100819
 20
449.1583100631096
 30
0.0
 10
352.0460027605877
 20
448.8875304295368
 30
0.0
 10
353.3952886039542
 20
448.6252558300315
 30
0.0
 10
354.8102429790418
 20
448.3502165610216
 30
0.0
 10
355.7963701751941
 20
448.1585328516698
 30
0.0
 10
356.2904737447204
 20
448.0624888470218
 30
0.0
  0
SPLINE
  5
DC
330
1F
100
AcDbEntity
  8
0
  6
Continuous
 62
     7
370
    15
100
AcDbSpline
210
0.0
220
0.0
230
1.0
 70
     8
 71
     3
 72
     9
 73
     5
 74
     0
 42
0.00000001
 43
0.00000001
 40
0.0
 40
0.0
 40
0.0
 40
0.0
 40
0.4999530804474803
 40
1.0
 40
1.0
 40
1.0
 40
1.0
 10
341.9512529914221
 20
453.5382798981082
 30
0.0
 10
341.9611725177898
 20
453.0881021303557
 30
0.0
 10
341.9810134323789
 20
452.1876620983641
 30
0.0
 10
342.0045803823589
 20
451.2873118808047
 30
0.0
 10
342.0163649630996
 20
450.8370945279958
 30
0.0
  0
SPLINE
  5
DD
330
1F
100
AcDbEntity
  8
0
  6
Continuous
 62
     7
370
    15
100
AcDbSpline
210
0.0
220
0.0
230
1.0
 70
     8
 71
     3
 72
    18
 73
    14
 74
     0
 42
0.00000001
 43
0.00000001
 40
0.0
 40
0.0
 40
0.0
 40
0.0
 40
0.2500000000000054
 40
0.2500000000000054
 40
0.5000000000000108
 40
0.5000000000000108
 40
0.6250000000000134
 40
0.6250000000000134
 40
0.7500000000000162
 40
0.7500000000000162
 40
0.8750000000000081
 40
0.8750000000000081
 40
1.0
 40
1.0
 40
1.0
 40
1.0
 10
341.9512528715191
 20
453.5382800211623
 30
0.0
 10
341.9508125756153
 20
453.5386173730306
 30
0.0
 10
341.9507638472997
 20
453.5749030314612
 30
0.0
 10
341.9511683378536
 20
453.7224632149674
 30
0.0
 10
341.9516049070244
 20
453.8305644442952
 30
0.0
 10
341.9520096223288
 20
454.0445746769199
 30
0.0
 10
341.9520986089125
 20
454.125103274068
 30
0.0
 10
341.9520604559884
 20
454.2984437447825
 30
0.0
 10
341.9519353106369
 20
454.3918620655144
 30
0.0
 10
341.9513594069389
 20
454.5923735320678
 30
0.0
 10
341.9509023695514
 20
454.7003698916149
 30
0.0
 10
341.9495782782369
 20
454.9249455238441
 30
0.0
 10
341.9487134229025
 20
455.0417365682488
 30
0.0
 10
341.9476099420402
 20
455.1631209052903
 30
0.0
  0
SPLINE
  5
DE
330
1F
100
AcDbEntity
  8
0
  6
Continuous
 62
     7
370
    15
100
AcDbSpline
210
0.0
220
0.0
230
1.0
 70
     8
 71
     3
 72
    22
 73
    18
 74
     0
 42
0.00000001
 43
0.00000001
 40
0.0
 40
0.0
 40
0.0
 40
0.0
 40
0.125
 40
0.125
 40
0.25
 40
0.25
 40
0.375
 40
0.375
 40
0.5
 40
0.5
 40
0.625
 40
0.625
 40
0.75
 40
0.75
 40
0.875
 40
0.875
 40
1.0
 40
1.0
 40
1.0
 40
1.0
 10
341.8845435173728
 20
458.5133951351269
 30
0.0
 10
341.8840475467074
 20
458.5133533358402
 30
0.0
 10
341.8842589722875
 20
458.4889533423063
 30
0.0
 10
341.8860427136996
 20
458.3945475731533
 30
0.0
 10
341.8876382380856
 20
458.3233100391602
 30
0.0
 10
341.8920015830227
 20
458.1391187693682
 30
0.0
 10
341.8947416129192
 20
458.0272154452085
 30
0.0
 10
341.9011641637759
 20
457.7632532008076
 30
0.0
 10
341.9047797159162
 20
457.6138673834327
 30
0.0
 10
341.9123542672194
 20
457.2887900795043
 30
0.0
 10
341.9163874819197
 20
457.1096666836775
 30
0.0
 10
341.924178409508
 20
456.7392715632202
 30
0.0
 10
341.9279844002032
 20
456.5459522139522
 30
0.0
 10
341.9350545985052
 20
456.1473775315417
 30
0.0
 10
341.9382051308405
 20
455.9485178580836
 30
0.0
 10
341.9436230835027
 20
455.5516287590802
 30
0.0
 10
341.9458812336887
 20
455.3532810832987
 30
0.0
 10
341.9476099420402
 20
455.1631209052915
 30
0.0
  0
SPLINE
  5
DF
330
1F
100
AcDbEntity
  8
0
  6
Continuous
 62
     7
370
    15
100
AcDbSpline
210
0.0
220
0.0
230
1.0
 70
     8
 71
     3
 72
    75
 73
    71
 74
     0
 42
0.00000001
 43
0.00000001
 40
0.0
 40
0.0
 40
0.0
 40
0.0
 40
0.0149060607076252
 40
0.029756320564262
 40
0.0445562571361507
 40
0.0593108343226773
 40
0.0740249128204328
 40
0.088703015790448
 40
0.103349370320725
 40
0.1179679396835266
 40
0.132562445352804
 40
0.1471363808569972
 40
0.1616930188891547
 40
0.1762354125185329
 40
0.1907663908618206
 40
0.2052885412700753
 40
0.21980419465841
 40
0.2343154219425753
 40
0.2488240101438893
 40
0.2633314354465198
 40
0.2778388348417213
 40
0.2923469762655612
 40
0.3068562271743211
 40
0.3213665215322442
 40
0.335877328924641
 40
0.3503878799114232
 40
0.3648975977337244
 40
0.3794060209255855
 40
0.3939127861550731
 40
0.4084176271167478
 40
0.4229203724795665
 40
0.4374209429038355
 40
0.4519193471508356
 40
0.4664156773171774
 40
0.4809101032322806
 40
0.4954028664955594
 40
0.5098942832614914
 40
0.5243847423918656
 40
0.5388746935109697
 40
0.553364640677539
 40
0.5678551360742017
 40
0.5823467734356697
 40
0.59684018123085
 40
0.6113360156106183
 40
0.6258349531327928
 40
0.6403376832759247
 40
0.6548449007529678
 40
0.6693572976353231
 40
0.6838755552969047
 40
0.6984003361871541
 40
0.7129322754406466
 40
0.7274719723297691
 40
0.7420199815655523
 40
0.756576804450358
 40
0.7711428798849501
 40
0.7857185752302221
 40
0.8003041748136375
 40
0.8148998631481126
 40
0.8295057258881434
 40
0.8441217440334257
 40
0.8587477840424489
 40
0.8733835878280112
 40
0.8880287626572467
 40
0.9026827709756922
 40
0.9173449201727417
 40
0.9320143523033905
 40
0.9466900337785475
 40
0.9613707450334564
 40
0.9806827093777404
 40
1.0
 40
1.0
 40
1.0
 40
1.0
 10
346.3449858876089
 20
486.2855547519575
 30
0.0
 10
346.2764543623503
 20
486.16213765327
 30
0.0
 10
346.1396478596564
 20
485.9157654679092
 30
0.0
 10
345.9444045655131
 20
485.5416498168112
 30
0.0
 10
345.7565382834172
 20
485.1654059961999
 30
0.0
 10
345.5764369736142
 20
484.7868038933183
 30
0.0
 10
345.4035689752638
 20
484.4061175132671
 30
0.0
 10
345.237670034495
 20
484.0234603437016
 30
0.0
 10
345.0784265699061
 20
483.6389669051825
 30
0.0
 10
344.9255589566544
 20
483.2527470835577
 30
0.0
 10
344.7787980340104
 20
482.8649003374279
 30
0.0
 10
344.6378902931395
 20
482.4755138841803
 30
0.0
 10
344.5025953681543
 20
482.0846651894821
 30
0.0
 10
344.3726857695906
 20
481.6924232481471
 30
0.0
 10
344.2479450529412
 20
481.2988505752664
 30
0.0
 10
344.1281698562325
 20
480.9040039176293
 30
0.0
 10
344.0131720142878
 20
480.5079350563788
 30
0.0
 10
343.9027711830373
 20
480.1106943142611
 30
0.0
 10
343.796796195252
 20
479.7123313133425
 30
0.0
 10
343.695084724726
 20
479.3128964797575
 30
0.0
 10
343.5974832970509
 20
478.9124424401301
 30
0.0
 10
343.5038470935983
 20
478.5110254738464
 30
0.0
 10
343.4140397066035
 20
478.108706970814
 30
0.0
 10
343.327932805554
 20
477.7055548719235
 30
0.0
 10
343.2454052455926
 20
477.3016426948989
 30
0.0
 10
343.166341400549
 20
476.8970441817058
 30
0.0
 10
343.0906298673705
 20
476.4918282828447
 30
0.0
 10
343.0181627773256
 20
476.0860563345204
 30
0.0
 10
342.9488358472141
 20
475.6797832412266
 30
0.0
 10
342.8825482185474
 20
475.2730579457918
 30
0.0
 10
342.8192022198389
 20
474.8659237507134
 30
0.0
 10
342.7587030796327
 20
474.4584186487344
 30
0.0
 10
342.700958628547
 20
474.0505756576298
 30
0.0
 10
342.6458788718904
 20
473.6424231732047
 30
0.0
 10
342.5933758962076
 20
473.2339852798601
 30
0.0
 10
342.5433623877752
 20
472.8252821367115
 30
0.0
 10
342.4957561165021
 20
472.4163295837448
 30
0.0
 10
342.4504807040817
 20
472.0071393611933
 30
0.0
 10
342.4074614845199
 20
471.5977199216094
 30
0.0
 10
342.3666264313558
 20
471.1880766519615
 30
0.0
 10
342.3279058775045
 20
470.7782121866175
 30
0.0
 10
342.2912325447905
 20
470.3681266799235
 30
0.0
 10
342.2565414815825
 20
469.9578180907199
 30
0.0
 10
342.2237700169683
 20
469.5472824653065
 30
0.0
 10
342.1928577031453
 20
469.1365142223144
 30
0.0
 10
342.1637462543371
 20
468.7255064384181
 30
0.0
 10
342.1363794806148
 20
468.3142511350545
 30
0.0
 10
342.1107032175344
 20
467.9027395660091
 30
0.0
 10
342.0866652517118
 20
467.4909625058362
 30
0.0
 10
342.0642152425053
 20
467.0789105390817
 30
0.0
 10
342.0433046398817
 20
466.6665743503057
 30
0.0
 10
342.0238865980987
 20
466.2539450149346
 30
0.0
 10
342.0059158858539
 20
465.8410142909887
 30
0.0
 10
341.9893487890616
 20
465.4277749117888
 30
0.0
 10
341.9741430186028
 20
465.0142208796566
 30
0.0
 10
341.9602575753043
 20
464.6003477819973
 30
0.0
 10
341.9476527502437
 20
464.186153177326
 30
0.0
 10
341.9362873791438
 20
463.7716369541301
 30
0.0
 10
341.9261220422508
 20
463.3568014495212
 30
0.0
 10
341.9171190169837
 20
462.9416516253719
 30
0.0
 10
341.9092420266493
 20
462.5261953455405
 30
0.0
 10
341.9024560658275
 20
462.1104436892529
 30
0.0
 10
341.8967271555729
 20
461.6944112632659
 30
0.0
 10
341.8920223357977
 20
461.2781165139359
 30
0.0
 10
341.888308815929
 20
460.8615820335236
 30
0.0
 10
341.8855562994146
 20
460.4448348814504
 30
0.0
 10
341.8837274910229
 20
460.0279068427427
 30
0.0
 10
341.8827166541139
 20
459.5670105056067
 30
0.0
 10
341.8827331477941
 20
459.0621555891353
 30
0.0
 10
341.8839399606258
 20
458.6963320952067
 30
0.0
 10
341.8845434502405
 20
458.5133951280094
 30
0.0
  0
SPLINE
  5
E0
330
1F
100
AcDbEntity
  8
0
  6
Continuous
 62
     7
370
    15
100
AcDbSpline
210
0.0
220
0.0
230
1.0
 70
     8
 71
     3
 72
    14
 73
    10
 74
     0
 42
0.00000001
 43
0.00000001
 40
0.0
 40
0.0
 40
0.0
 40
0.0
 40
0.2500000000000002
 40
0.2500000000000002
 40
0.5000000000000003
 40
0.5000000000000003
 40
0.7500000000000001
 40
0.7500000000000001
 40
1.0
 40
1.0
 40
1.0
 40
1.0
 10
356.2904737447204
 20
448.0624888470218
 30
0.0
 10
357.380271332103
 20
447.8506536549621
 30
0.0
 10
358.4918066859925
 20
447.6961633381267
 30
0.0
 10
360.7488894282625
 20
447.5105498677
 30
0.0
 10
361.8944893830248
 20
447.4793351372587
 30
0.0
 10
364.213644037707
 20
447.5496026640825
 30
0.0
 10
365.3927758373817
 20
447.652261830457
 30
0.0
 10
367.7302595095136
 20
447.9946707235965
 30
0.0
 10
368.892165678395
 20
448.2338435560787
 30
0.0
 10
370.0452699452885
 20
448.5428169130516
 30
0.0
  0
SPLINE
  5
E1
330
1F
100
AcDbEntity
  8
0
  6
Continuous
 62
     7
370
    15
100
AcDbSpline
210
0.0
220
0.0
230
1.0
 70
     8
 71
     3
 72
    23
 73
    19
 74
     0
 42
0.00000001
 43
0.00000001
 40
0.0
 40
0.0
 40
0.0
 40
0.0
 40
0.059990315220168
 40
0.1197637883329614
 40
0.1793314331821386
 40
0.2387160631406997
 40
0.2979455137789777
 40
0.3570460236951869
 40
0.4160357732406598
 40
0.4749185730739879
 40
0.5336778009953791
 40
0.5922916513812138
 40
0.6507638037278444
 40
0.7090988619048684
 40
0.7673034774985175
 40
0.8450357976652318
 40
0.9225925557048789
 40
1.0
 40
1.0
 40
1.0
 40
1.0
 10
399.8980270558668
 20
446.9706337531993
 30
0.0
 10
399.5826633283294
 20
447.0140774799577
 30
0.0
 10
398.9530757928404
 20
447.1008079009731
 30
0.0
 10
398.0121625535945
 20
447.243368443004
 30
0.0
 10
397.0759911926123
 20
447.3953438238513
 30
0.0
 10
396.1445555362721
 20
447.5580940806528
 30
0.0
 10
395.2176424072819
 20
447.7319065591673
 30
0.0
 10
394.2951258130394
 20
447.9173784690428
 30
0.0
 10
393.3770189390028
 20
448.1150205299064
 30
0.0
 10
392.4635848808726
 20
448.3253244506851
 30
0.0
 10
391.5553151375492
 20
448.5487199242201
 30
0.0
 10
390.6527237183209
 20
448.7856198889981
 30
0.0
 10
389.7562317889872
 20
449.0364309198634
 30
0.0
 10
388.8661539758951
 20
449.3016271252513
 30
0.0
 10
387.8833342959958
 20
449.6129984710154
 30
0.0
 10
386.8108607583727
 20
449.9783406360776
 30
0.0
 10
385.6513381776644
 20
450.4035118304763
 30
0.0
 10
384.8891057649611
 20
450.7122013224603
 30
0.0
 10
384.5083567781803
 20
450.8663973515768
 30
0.0
  0
SPLINE
  5
E2
330
1F
100
AcDbEntity
  8
0
  6
Continuous
 62
     7
370
    15
100
AcDbSpline
210
0.0
220
0.0
230
1.0
 70
     8
 71
     3
 72
    26
 73
    22
 74
     0
 42
0.00000001
 43
0.00000001
 40
0.0
 40
0.0
 40
0.0
 40
0.0
 40
0.1249999999999994
 40
0.1249999999999994
 40
0.1874999999999994
 40
0.1874999999999994
 40
0.2499999999999994
 40
0.2499999999999994
 40
0.3749999999999994
 40
0.3749999999999994
 40
0.4375000000000006
 40
0.4375000000000006
 40
0.5000000000000019
 40
0.5000000000000019
 40
0.6250000000000014
 40
0.6250000000000014
 40
0.7500000000000009
 40
0.7500000000000009
 40
0.8750000000000004
 40
0.8750000000000004
 40
1.0
 40
1.0
 40
1.0
 40
1.0
 10
451.3873385802481
 20
412.057906368455
 30
0.0
 10
451.4855008554508
 20
412.1784534550904
 30
0.0
 10
451.636931928099
 20
412.3672141499882
 30
0.0
 10
451.9273909007759
 20
412.7407747679698
 30
0.0
 10
452.0349393249591
 20
412.8805177790904
 30
0.0
 10
452.2705222827027
 20
413.1899659448206
 30
0.0
 10
452.3979194451105
 20
413.3588470670388
 30
0.0
 10
452.8010905140496
 20
413.8976902858907
 30
0.0
 10
453.0997349233907
 20
414.3023860891585
 30
0.0
 10
453.5894042141903
 20
414.9711275297672
 30
0.0
 10
453.7597514515542
 20
415.204541017492
 30
0.0
 10
454.1084751442792
 20
415.6833049691949
 30
0.0
 10
454.2875437733869
 20
415.9295957504711
 30
0.0
 10
454.8383140649378
 20
416.6878116293278
 30
0.0
 10
455.2242663430682
 20
417.2198880822968
 30
0.0
 10
456.0275540448006
 20
418.3283356989499
 30
0.0
 10
456.437799525915
 20
418.8949415788346
 30
0.0
 10
457.2721578873742
 20
420.051864294874
 30
0.0
 10
457.6962772451081
 20
420.6421905866987
 30
0.0
 10
458.5548872020826
 20
421.8488586058659
 30
0.0
 10
458.9848916686824
 20
422.4589933865419
 30
0.0
 10
459.4113385802487
 20
423.0745608725018
 30
0.0
  0
SPLINE
  5
E3
330
1F
100
AcDbEntity
  8
0
  6
Continuous
 62
     7
370
    15
100
AcDbSpline
210
0.0
220
0.0
230
1.0
 70
     8
 71
     3
 72
     8
 73
     4
 74
     0
 42
0.00000001
 43
0.00000001
 40
0.0
 40
0.0
 40
0.0
 40
0.0
 40
1.0
 40
1.0
 40
1.0
 40
1.0
 10
451.3369182196175
 20
411.9601386967333
 30
0.0
 10
451.3364965271312
 20
411.9605603892197
 30
0.0
 10
451.35372603157
 20
411.9926117813237
 30
0.0
 10
451.3873385802486
 20
412.0579063684561
 30
0.0
  0
SPLINE
  5
E4
330
1F
100
AcDbEntity
  8
0
  6
Continuous
 62
     7
370
    15
100
AcDbSpline
210
0.0
220
0.0
230
1.0
 70
     8
 71
     3
 72
     8
 73
     4
 74
     0
 42
0.00000001
 43
0.00000001
 40
0.0
 40
0.0
 40
0.0
 40
0.0
 40
1.0
 40
1.0
 40
1.0
 40
1.0
 10
451.3369182196174
 20
411.9601386967333
 30
0.0
 10
449.6052226785316
 20
410.7190430992666
 30
0.0
 10
447.7665744146701
 20
409.6758221274043
 30
0.0
 10
445.8384668574392
 20
408.7981109595273
 30
0.0
  0
SPLINE
  5
E5
330
1F
100
AcDbEntity
  8
0
  6
Continuous
 62
     7
370
    15
100
AcDbSpline
210
0.0
220
0.0
230
1.0
 70
     8
 71
     3
 72
    30
 73
    26
 74
     0
 42
0.00000001
 43
0.00000001
 40
0.0
 40
0.0
 40
0.0
 40
0.0
 40
0.0343785892930634
 40
0.068844565088176
 40
0.1034024655490736
 40
0.1380562529304352
 40
0.17280932041389
 40
0.2076645081581214
 40
0.2426244686668433
 40
0.27769211730631
 40
0.3128696638461249
 40
0.3481585232283746
 40
0.3835594604542443
 40
0.4190727775460173
 40
0.4546985304088655
 40
0.4904367604639513
 40
0.5262877231770852
 40
0.5622520931309117
 40
0.5983311231253494
 40
0.6345099901943295
 40
0.670678004222356
 40
0.7069200175598291
 40
0.7433823749108688
 40
0.8716454985933573
 40
1.0
 40
1.0
 40
1.0
 40
1.0
 10
445.8384668434942
 20
408.7981109912876
 30
0.0
 10
445.6517404714228
 20
408.7142193756459
 30
0.0
 10
445.2778130898724
 20
408.546222901324
 30
0.0
 10
444.710917452168
 20
408.3058928739214
 30
0.0
 10
444.1389630603837
 20
408.0735366633277
 30
0.0
 10
443.5617062746707
 20
407.8498870633241
 30
0.0
 10
442.9794103512131
 20
407.6345613819444
 30
0.0
 10
442.3922038080945
 20
407.4274649170873
 30
0.0
 10
441.8002416415948
 20
407.2284279271753
 30
0.0
 10
441.203645538151
 20
407.0373567233755
 30
0.0
 10
440.6025532798822
 20
406.8541102711159
 30
0.0
 10
439.997112001106
 20
406.6785291809869
 30
0.0
 10
439.3874754997502
 20
406.5104386775002
 30
0.0
 10
438.7737977488665
 20
406.3496579264674
 30
0.0
 10
438.1562272928079
 20
406.196007447572
 30
0.0
 10
437.5349019320341
 20
406.0493162305378
 30
0.0
 10
436.9099440788803
 20
405.9094284574323
 30
0.0
 10
436.2814577075702
 20
405.7762060402616
 30
0.0
 10
435.6496225993985
 20
405.6495590920515
 30
0.0
 10
435.0152657639789
 20
405.5295166599343
 30
0.0
 10
434.3787060051332
 20
405.4160959460107
 30
0.0
 10
433.7393800532814
 20
405.308787104564
 30
0.0
 10
432.5577333510068
 20
405.1199590743702
 30
0.0
 10
430.8305234345492
 20
404.8703887838426
 30
0.0
 10
429.3188477870014
 20
404.6478040791362
 30
0.0
 10
428.5627408206067
 20
404.5364720972295
 30
0.0
  0
SPLINE
  5
E6
330
1F
100
AcDbEntity
  8
0
  6
Continuous
 62
     7
370
    15
100
AcDbSpline
210
0.0
220
0.0
230
1.0
 70
     8
 71
     3
 72
    15
 73
    11
 74
     0
 42
0.00000001
 43
0.00000001
 40
0.0
 40
0.0
 40
0.0
 40
0.0
 40
0.1272192755746671
 40
0.2540080370976721
 40
0.3802233411881759
 40
0.5057406198606273
 40
0.6304782873843897
 40
0.7544191756405606
 40
0.8775892678695371
 40
1.0
 40
1.0
 40
1.0
 40
1.0
 10
428.5623983128894
 20
404.5364201131959
 30
0.0
 10
428.1742993234962
 20
404.4766129137994
 30
0.0
 10
427.399414683963
 20
404.3572009044603
 30
0.0
 10
426.2420960507949
 20
404.1620962915298
 30
0.0
 10
425.0930429401684
 20
403.9503193570075
 30
0.0
 10
423.954514215986
 20
403.7174448536878
 30
0.0
 10
422.8282399721811
 20
403.460927130263
 30
0.0
 10
421.7158725082271
 20
403.1777360655038
 30
0.0
 10
420.6176103794076
 20
402.8691865652809
 30
0.0
 10
419.8952701780756
 20
402.6392328583356
 30
0.0
 10
419.535216850936
 20
402.524611524619
 30
0.0
  0
SPLINE
  5
E7
330
1F
100
AcDbEntity
  8
0
  6
Continuous
 62
     7
370
    15
100
AcDbSpline
210
0.0
220
0.0
230
1.0
 70
     8
 71
     3
 72
     9
 73
     5
 74
     0
 42
0.00000001
 43
0.00000001
 40
0.0
 40
0.0
 40
0.0
 40
0.0
 40
0.5004513331657051
 40
1.0
 40
1.0
 40
1.0
 40
1.0
 10
467.0613430370579
 20
438.2494217734358
 30
0.0
 10
467.0121360756757
 20
438.0819386473597
 30
0.0
 10
466.9138109077301
 20
437.7472744852789
 30
0.0
 10
466.813335102684
 20
437.4132497107937
 30
0.0
 10
466.7631425482241
 20
437.2463880800099
 30
0.0
  0
SPLINE
  5
E8
330
1F
100
AcDbEntity
  8
0
  6
Continuous
 62
     7
370
    15
100
AcDbSpline
210
0.0
220
0.0
230
1.0
 70
     8
 71
     3
 72
     8
 73
     4
 74
     0
 42
0.00000001
 43
0.00000001
 40
0.0
 40
0.0
 40
0.0
 40
0.0
 40
1.0
 40
1.0
 40
1.0
 40
1.0
 10
466.7631426786213
 20
437.2463880344651
 30
0.0
 10
466.6405843739586
 20
436.8405805198994
 30
0.0
 10
466.515948188166
 20
436.435717569812
 30
0.0
 10
466.3890819988301
 20
436.0318683361031
 30
0.0
  0
SPLINE
  5
E9
330
1F
100
AcDbEntity
  8
0
  6
Continuous
 62
     7
370
    15
100
AcDbSpline
210
0.0
220
0.0
230
1.0
 70
     8
 71
     3
 72
    28
 73
    24
 74
     0
 42
0.00000001
 43
0.00000001
 40
0.0
 40
0.0
 40
0.0
 40
0.0
 40
0.1249999999999982
 40
0.1249999999999982
 40
0.2499999999999964
 40
0.2499999999999964
 40
0.3124999999999969
 40
0.3124999999999969
 40
0.3749999999999974
 40
0.3749999999999974
 40
0.5
 40
0.5
 40
0.5625000000000004
 40
0.5625000000000004
 40
0.6250000000000009
 40
0.6250000000000009
 40
0.7500000000000013
 40
0.7500000000000013
 40
0.812500000000001
 40
0.812500000000001
 40
0.8750000000000007
 40
0.8750000000000007
 40
1.0
 40
1.0
 40
1.0
 40
1.0
 10
460.9659885802484
 20
426.0567265687989
 30
0.0
 10
461.3971226390009
 20
426.6822731668705
 30
0.0
 10
461.8091433843477
 20
427.3002023478692
 30
0.0
 10
462.591702169464
 20
428.520173836135
 30
0.0
 10
462.9622278914682
 20
429.1222530915185
 30
0.0
 10
463.4846222651996
 20
430.0104210171737
 30
0.0
 10
463.6535134823111
 20
430.3046008522467
 30
0.0
 10
463.9735599616598
 20
430.8754865894534
 30
0.0
 10
464.1255701782703
 20
431.1536075380659
 30
0.0
 10
464.5585486735305
 20
431.9649087570249
 30
0.0
 10
464.816510818966
 20
432.4752240863904
 30
0.0
 10
465.1607403573559
 20
433.1873646860158
 30
0.0
 10
465.2686855552215
 20
433.4165317688812
 30
0.0
 10
465.4692476900569
 20
433.8518880406676
 30
0.0
 10
465.5608275385715
 20
434.0557645707713
 30
0.0
 10
465.8120537640993
 20
434.6259085252216
 30
0.0
 10
465.9484120061317
 20
434.9509884375383
 30
0.0
 10
466.1126711219022
 20
435.3507955782696
 30
0.0
 10
466.1608699878115
 20
435.4698895680107
 30
0.0
 10
466.2428938500036
 20
435.6737322739839
 30
0.0
 10
466.2767614698763
 20
435.758554980954
 30
0.0
 10
466.3586101329964
 20
435.9626186434282
 30
0.0
 10
466.3871847869484
 20
436.0318683361034
 30
0.0
 10
466.3890819988301
 20
436.0318683361031
 30
0.0
  0
SPLINE
  5
EA
330
1F
100
AcDbEntity
  8
0
  6
Continuous
 62
     7
370
    15
100
AcDbSpline
210
0.0
220
0.0
230
1.0
 70
     8
 71
     3
 72
     8
 73
     4
 74
     0
 42
0.00000001
 43
0.00000001
 40
0.0
 40
0.0
 40
0.0
 40
0.0
 40
1.0
 40
1.0
 40
1.0
 40
1.0
 10
459.4113385802482
 20
423.0745608725014
 30
0.0
 10
459.9103327950018
 20
424.0379327201132
 30
0.0
 10
460.4304870670572
 20
425.0321443620028
 30
0.0
 10
460.9659885802486
 20
426.0567265687995
 30
0.0
  0
SPLINE
  5
EB
330
1F
100
AcDbEntity
  8
0
  6
Continuous
 62
     7
370
    15
100
AcDbSpline
210
0.0
220
0.0
230
1.0
 70
     8
 71
     3
 72
    22
 73
    18
 74
     0
 42
0.00000001
 43
0.00000001
 40
0.0
 40
0.0
 40
0.0
 40
0.0
 40
0.0280313069031001
 40
0.0560400140244013
 40
0.0840192391236477
 40
0.1119710969045234
 40
0.1399856213257454
 40
0.1679976585742705
 40
0.1958634663547416
 40
0.313144825825918
 40
0.4300507918773653
 40
0.5468961219913644
 40
0.6641882743253975
 40
0.7832760958160911
 40
0.9027090885528012
 40
0.9513486635199182
 40
1.0
 40
1.0
 40
1.0
 40
1.0
 10
342.3873714294214
 20
439.319399686133
 30
0.0
 10
342.4006859033396
 20
438.682903894412
 30
0.0
 10
342.4273041165996
 20
437.4104254752713
 30
0.0
 10
342.4526501758915
 20
435.5023690289162
 30
0.0
 10
342.4629501851077
 20
433.5959712805507
 30
0.0
 10
342.4522699546696
 20
431.6894218125015
 30
0.0
 10
342.4172376284287
 20
429.782413986801
 30
0.0
 10
342.3553177884913
 20
427.8780109902393
 30
0.0
 10
342.1683641755918
 20
423.9497365321672
 30
0.0
 10
341.6398441527404
 20
418.0157293249942
 30
0.0
 10
340.3110151575445
 20
410.1458604941713
 30
0.0
 10
338.3445025205795
 20
402.4110996267945
 30
0.0
 10
335.8291990167752
 20
394.7883981978408
 30
0.0
 10
332.9257351140071
 20
387.2450900395316
 30
0.0
 10
330.4254328140741
 20
381.2213030288107
 30
0.0
 10
328.5102163128595
 20
376.6870787314277
 30
0.0
 10
327.6465158156618
 20
374.653248663708
 30
0.0
 10
327.2146133606212
 20
373.6362106948362
 30
0.0
  0
SPLINE
  5
EC
330
1F
100
AcDbEntity
  8
0
  6
Continuous
 62
     7
370
    15
100
AcDbSpline
210
0.0
220
0.0
230
1.0
 70
     8
 71
     3
 72
    10
 73
     6
 74
     0
 42
0.00000001
 43
0.00000001
 40
0.0
 40
0.0
 40
0.0
 40
0.0
 40
0.5
 40
0.5
 40
1.0
 40
1.0
 40
1.0
 40
1.0
 10
342.3873714456327
 20
439.3193996812645
 30
0.0
 10
342.3846105385344
 20
439.4432523789508
 30
0.0
 10
342.4243331427014
 20
439.5828592212245
 30
0.0
 10
342.5907248578713
 20
439.8047826724074
 30
0.0
 10
342.7136024295195
 20
439.8820423498583
 30
0.0
 10
342.8332646681899
 20
439.914105750061
 30
0.0
  0
SPLINE
  5
ED
330
1F
100
AcDbEntity
  8
0
  6
Continuous
 62
     7
370
    15
100
AcDbSpline
210
0.0
220
0.0
230
1.0
 70
    24
 71
     3
 72
    39
 73
    35
 74
     0
 42
0.00000001
 43
0.00000001
 40
0.0
 40
0.0
 40
0.0
 40
0.0
 40
0.0154679916867571
 40
0.0307482154805822
 40
0.0458434908023247
 40
0.0607567419693611
 40
0.0754910016787953
 40
0.090049414486552
 40
0.1044352402626106
 40
0.1186518576000511
 40
0.1327027671528654
 40
0.1465915948746559
 40
0.1603220951274449
 40
0.1738981536268825
 40
0.1873237901872294
 40
0.2006031612266626
 40
0.2137405619907944
 40
0.2267404284498752
 40
0.2396073388230964
 40
0.2523460146818009
 40
0.3164009642676002
 40
0.3779790102052503
 40
0.4407147710456679
 40
0.5028476449487469
 40
0.5642935338767564
 40
0.6272728484130997
 40
0.6880056789460903
 40
0.7519328292157158
 40
0.8116540392731288
 40
0.8753591388985503
 40
0.9043936442120001
 40
0.9348350530782832
 40
0.9666992284188216
 40
0.9999999999999999
 40
0.9999999999999999
 40
0.9999999999999999
 40
0.9999999999999999
 10
342.8332646523401
 20
439.914105745814
 30
0.0
 10
342.8342367959981
 20
439.914366230922
 30
0.0
 10
342.8361692823403
 20
439.9148840390765
 30
0.0
 10
342.8514676207108
 20
439.9189832164868
 30
0.0
 10
342.8758811336408
 20
439.925524797558
 30
0.0
 10
342.910269406023
 20
439.934739107368
 30
0.0
 10
342.9544065006492
 20
439.9465656062243
 30
0.0
 10
343.0083521035727
 20
439.9610202869569
 30
0.0
 10
343.0720907646054
 20
439.9780990097
 30
0.0
 10
343.1456268241607
 20
439.9978029374641
 30
0.0
 10
343.2289594333606
 20
440.020131842793
 30
0.0
 10
343.3220891265664
 20
440.0450858688683
 30
0.0
 10
343.4250160977311
 20
440.0726650676597
 30
0.0
 10
343.5377406292038
 20
440.1028695148223
 30
0.0
 10
343.6602630675961
 20
440.1356993032304
 30
0.0
 10
343.7925834999238
 20
440.1711544561998
 30
0.0
 10
343.9347030452933
 20
440.2092352735941
 30
0.0
 10
344.0866190759108
 20
440.2499410512983
 30
0.0
 10
344.2483427744748
 20
440.2932747857073
 30
0.0
 10
344.6506370955731
 20
440.4010692241197
 30
0.0
 10
345.3996580685948
 20
440.6017687888703
 30
0.0
 10
346.7325234004362
 20
440.9589089780063
 30
0.0
 10
348.3734719261031
 20
441.3985998100946
 30
0.0
 10
350.3265981241649
 20
441.9219383973609
 30
0.0
 10
352.5600497287151
 20
442.5203899508821
 30
0.0
 10
355.005094154866
 20
443.1755376300516
 30
0.0
 10
357.6578298827121
 20
443.8863360257616
 30
0.0
 10
360.3886247066985
 20
444.6180502932357
 30
0.0
 10
363.247854527338
 20
445.3841786143284
 30
0.0
 10
365.620228364372
 20
446.0198542678386
 30
0.0
 10
367.5542025815269
 20
446.5380610972897
 30
0.0
 10
368.9949829966677
 20
446.9241170458346
 30
0.0
 10
370.5083043236278
 20
447.3296102731116
 30
0.0
 10
371.5434266821225
 20
447.6069704730209
 30
0.0
 10
372.0723977754345
 20
447.7487078502335
 30
0.0
  0
SPLINE
  5
EE
330
1F
100
AcDbEntity
  8
0
  6
Continuous
 62
     7
370
    15
100
AcDbSpline
210
0.0
220
0.0
230
1.0
 70
    24
 71
     3
 72
    19
 73
    15
 74
     0
 42
0.00000001
 43
0.00000001
 40
0.0
 40
0.0
 40
0.0
 40
0.0
 40
0.0532568969714455
 40
0.1084329170326159
 40
0.1660750982778176
 40
0.22666371669557
 40
0.2906126968202725
 40
0.3582743195495477
 40
0.4396057923299064
 40
0.529723617579512
 40
0.647651029277835
 40
0.7721464768692018
 40
0.8981689316318089
 40
1.0
 40
1.0
 40
1.0
 40
1.0
 10
372.0723977754343
 20
447.7487078502335
 30
0.0
 10
372.0986602298763
 20
447.7557448536895
 30
0.0
 10
372.1521315116355
 20
447.7700724404491
 30
0.0
 10
372.234465368091
 20
447.7921337307868
 30
0.0
 10
372.3196552481983
 20
447.8149602903552
 30
0.0
 10
372.4078097609437
 20
447.8385812208446
 30
0.0
 10
372.4988980269745
 20
447.8629882481572
 30
0.0
 10
372.5974365352212
 20
447.8893915618542
 30
0.0
 10
372.7049142500116
 20
447.9181901287244
 30
0.0
 10
372.8311193002627
 20
447.9520066700057
 30
0.0
 10
372.9717549790001
 20
447.9896898865346
 30
0.0
 10
373.1216136870275
 20
448.0298444063123
 30
0.0
 10
373.2611878912986
 20
448.0672432016153
 30
0.0
 10
373.3408888955754
 20
448.0885990213382
 30
0.0
 10
373.3765084387978
 20
448.0981432491753
 30
0.0
  0
SPLINE
  5
EF
330
1F
100
AcDbEntity
  8
0
  6
Continuous
 62
     7
370
    15
100
AcDbSpline
210
0.0
220
0.0
230
1.0
 70
     8
 71
     3
 72
    65
 73
    61
 74
     0
 42
0.00000001
 43
0.00000001
 40
0.0
 40
0.0
 40
0.0
 40
0.0
 40
0.0172259859515026
 40
0.0344440350087171
 40
0.0516548358186681
 40
0.068859151415925
 40
0.0860577861976615
 40
0.1032515577942713
 40
0.1204412737467159
 40
0.1376277128142952
 40
0.1548116106619442
 40
0.1719936496136664
 40
0.1891744521074615
 40
0.206354577446429
 40
0.2235345214099748
 40
0.2407147182677256
 40
0.2578955447265581
 40
0.2750773253378796
 40
0.2922603388980632
 40
0.3094448253899443
 40
0.3266309880921744
 40
0.3438189491761233
 40
0.3610087557356615
 40
0.3782004060607929
 40
0.3953938539856126
 40
0.4125890131549804
 40
0.4297857614713382
 40
0.4469839456834292
 40
0.4641833860758547
 40
0.4813838812161605
 40
0.4985852127141605
 40
0.5157871499463144
 40
0.5329894546958404
 40
0.5501918856566391
 40
0.5673942027457758
 40
0.5845961711648984
 40
0.6017975651453861
 40
0.6189981738891862
 40
0.636198004072292
 40
0.653397510594828
 40
0.670597390103917
 40
0.6877985586009272
 40
0.7050021541378064
 40
0.722209538892875
 40
0.7394223005422851
 40
0.7566422528237061
 40
0.7738714351660912
 40
0.7911121112340598
 40
0.8083667662077532
 40
0.8256381025895433
 40
0.8429290342984521
 40
0.8602426787823512
 40
0.8775823468480674
 40
0.8949515298816695
 40
0.912353884106837
 40
0.9297932115099065
 40
0.947273437047772
 40
0.9647985817509558
 40
0.9823727313409455
 40
1.0
 40
1.0
 40
1.0
 40
1.0
 10
399.8980010537031
 20
446.9702962416362
 30
0.0
 10
400.2771987687199
 20
446.9189674559141
 30
0.0
 10
401.0354194829383
 20
446.8163335342713
 30
0.0
 10
402.1740902891866
 20
446.6745216667287
 30
0.0
 10
403.3133166535783
 20
446.5414201279746
 30
0.0
 10
404.4531654416559
 20
446.4176609789936
 30
0.0
 10
405.5935542175794
 20
446.3027158793807
 30
0.0
 10
406.7344454296477
 20
446.1963110039886
 30
0.0
 10
407.8757942840371
 20
446.0980548398765
 30
0.0
 10
409.017562566479
 20
446.007544438178
 30
0.0
 10
410.1597147904682
 20
445.9243434180937
 30
0.0
 10
411.3022190696265
 20
445.8479942308074
 30
0.0
 10
412.4450467173862
 20
445.7780211786758
 30
0.0
 10
413.5881721821993
 20
445.7139358592494
 30
0.0
 10
414.7315728897082
 20
445.6552419380356
 30
0.0
 10
415.875229107153
 20
445.6014400538903
 30
0.0
 10
417.0191238055527
 20
445.5520328159747
 30
0.0
 10
418.1632425096407
 20
445.5065293230687
 30
0.0
 10
419.3075732066313
 20
445.4644515831416
 30
0.0
 10
420.4521059352829
 20
445.4253339412084
 30
0.0
 10
421.5968320371752
 20
445.3887487884463
 30
0.0
 10
422.7417390306719
 20
445.3541904024489
 30
0.0
 10
423.886811487678
 20
445.3211131276873
 30
0.0
 10
425.0320325486768
 20
445.2889777748542
 30
0.0
 10
426.1773835863615
 20
445.2572402349789
 30
0.0
 10
427.3228438325716
 20
445.2253549373501
 30
0.0
 10
428.4683898777583
 20
445.1927743739417
 30
0.0
 10
429.6139952054847
 20
445.1589497136167
 30
0.0
 10
430.7596297199411
 20
445.1233311566152
 30
0.0
 10
431.9052592775922
 20
445.0853683889873
 30
0.0
 10
433.0508452199176
 20
445.0445110398385
 30
0.0
 10
434.1963439080923
 20
445.0002091679788
 30
0.0
 10
435.3417062594973
 20
444.9519137727178
 30
0.0
 10
436.486877286307
 20
444.8990773334297
 30
0.0
 10
437.6317956363939
 20
444.8411543812468
 30
0.0
 10
438.7763931368896
 20
444.7776021079048
 30
0.0
 10
439.9205943981307
 20
444.7078810144512
 30
0.0
 10
441.0643208453773
 20
444.6314553119128
 30
0.0
 10
442.207499802582
 20
444.5477928275506
 30
0.0
 10
443.3500688764003
 20
444.456364893482
 30
0.0
 10
444.4919753743578
 20
444.3566464413805
 30
0.0
 10
445.6331707116876
 20
444.2481166003369
 30
0.0
 10
446.7736094797237
 20
444.130259017971
 30
0.0
 10
447.9132490838865
 20
444.0025621669951
 30
0.0
 10
449.0520493842951
 20
443.8645196944318
 30
0.0
 10
450.1899723401989
 20
443.7156308303335
 30
0.0
 10
451.3269816597074
 20
443.5554008742837
 30
0.0
 10
452.4630424556322
 20
443.3833417764822
 30
0.0
 10
453.5981209111116
 20
443.1989728395779
 30
0.0
 10
454.7321839484243
 20
443.001821535467
 30
0.0
 10
455.865198933081
 20
442.7914245530425
 30
0.0
 10
456.9971333010093
 20
442.5673287392339
 30
0.0
 10
458.127954536371
 20
442.3290932925051
 30
0.0
 10
459.2576289091326
 20
442.0762882212032
 30
0.0
 10
460.3861249329381
 20
441.8085078220038
 30
0.0
 10
461.5133992438888
 20
441.5253290769958
 30
0.0
 10
462.6394483924113
 20
441.2264775002517
 30
0.0
 10
463.7641138782874
 20
440.9112173374268
 30
0.0
 10
464.887811775298
 20
440.5806491134522
 30
0.0
 10
465.6339515907684
 20
440.3466626544912
 30
0.0
 10
466.0075844623607
 20
440.229492881799
 30
0.0
  0
SPLINE
  5
F0
330
1F
100
AcDbEntity
  8
0
  6
Continuous
 62
     7
370
    15
100
AcDbSpline
210
0.0
220
0.0
230
1.0
 70
    24
 71
     3
 72
    30
 73
    26
 74
     0
 42
0.00000001
 43
0.00000001
 40
0.0
 40
0.0
 40
0.0
 40
0.0
 40
0.0196661822199881
 40
0.0392354291052409
 40
0.0587125408078117
 40
0.0781023859068606
 40
0.0974098989970558
 40
0.1166400780540292
 40
0.1357979815789636
 40
0.1548887255259761
 40
0.1739174800175959
 40
0.1928894658553129
 40
0.211809950833848
 40
0.2306842458694691
 40
0.2495177009543072
 40
0.3738886920504362
 40
0.5006617235432179
 40
0.6223077909905864
 40
0.7494231405846363
 40
0.7897897606022829
 40
0.8306861499303672
 40
0.8721344896611946
 40
0.9141560868554068
 40
0.9567713887199473
 40
1.0
 40
1.0
 40
1.0
 40
1.0
 10
373.3765084387978
 20
448.0981432491753
 30
0.0
 10
373.5213228736108
 20
448.1369461600195
 30
0.0
 10
373.8102379475667
 20
448.2143607207346
 30
0.0
 10
374.2329735220147
 20
448.3276323764721
 30
0.0
 10
374.6464917968915
 20
448.4384342642341
 30
0.0
 10
375.0501208848135
 20
448.5465863523391
 30
0.0
 10
375.4440393912416
 20
448.6521364979756
 30
0.0
 10
375.8281996010218
 20
448.7550719159071
 30
0.0
 10
376.2026140304468
 20
448.8553959598638
 30
0.0
 10
376.5672792096514
 20
448.9531077000983
 30
0.0
 10
376.9221957311282
 20
449.0482072953685
 30
0.0
 10
377.2673638400022
 20
449.1406948113552
 30
0.0
 10
377.6027811530411
 20
449.2305696094736
 30
0.0
 10
377.9284561196808
 20
449.3178339537429
 30
0.0
 10
378.8345720195845
 20
449.560626977269
 30
0.0
 10
380.178846463159
 20
449.9208242286787
 30
0.0
 10
381.6256001686808
 20
450.3084807155568
 30
0.0
 10
382.6902360973565
 20
450.5937490527585
 30
0.0
 10
383.2357633278496
 20
450.7399226335567
 30
0.0
 10
383.5120626237849
 20
450.8139568067407
 30
0.0
 10
383.6430373421158
 20
450.8490513767315
 30
0.0
 10
383.7444177277564
 20
450.876216169181
 30
0.0
 10
383.8155669634286
 20
450.8952805494133
 30
0.0
 10
383.8590612905252
 20
450.9069348192293
 30
0.0
 10
383.8630234690928
 20
450.9079964817763
 30
0.0
 10
383.865018712213
 20
450.9085311055588
 30
0.0
  0
LINE
  5
F1
330
1F
100
AcDbEntity
  8
0
  6
Continuous
 62
     7
370
    15
100
AcDbLine
 10
359.7532973531
 20
324.3982890456
 30
0.0
 11
372.8190052968
 21
351.1869602356
 31
0.0
  0
LINE
  5
F2
330
1F
100
AcDbEntity
  8
0
  6
Continuous
 62
     7
370
    15
100
AcDbLine
 10
359.7532973531
 20
324.3982890456
 30
0.0
 11
306.3145743492
 21
324.3982890456
 31
0.0
  0
LINE
  5
F3
330
1F
100
AcDbEntity
  8
0
  6
Continuous
 62
     7
370
    15
100
AcDbLine
 10
319.80853847
 20
356.1880763441
 30
0.0
 11
306.3145743492
 21
324.3982890456
 31
0.0
  0
SPLINE
  5
F4
330
1F
100
AcDbEntity
  8
0
  6
Continuous
 62
     7
370
    15
100
AcDbSpline
210
0.0
220
0.0
230
1.0
 70
     8
 71
     3
 72
    19
 73
    15
 74
     0
 42
0.00000001
 43
0.00000001
 40
0.0
 40
0.0
 40
0.0
 40
0.0
 40
0.0598789994778927
 40
0.1386529457013342
 40
0.2178896405662491
 40
0.298704312035434
 40
0.3801263108933832
 40
0.4466751751503975
 40
0.5818486658627063
 40
0.6507014613682538
 40
0.7172678357092611
 40
0.8531863866671167
 40
0.9228170522326914
 40
1.0
 40
1.0
 40
1.0
 40
1.0
 10
320.4171210205729
 20
357.4526591121623
 30
0.0
 10
320.3980959047489
 20
357.4109817316458
 30
0.0
 10
320.3540422569873
 20
357.3144755837793
 30
0.0
 10
320.2869896721902
 20
357.170624338535
 30
0.0
 10
320.2154672948892
 20
357.0185886990398
 30
0.0
 10
320.1462562330327
 20
356.8733414878516
 30
0.0
 10
320.0843327968367
 20
356.7448318903934
 30
0.0
 10
320.0128640232896
 20
356.5979391354209
 30
0.0
 10
319.9522109782204
 20
356.4748623220189
 30
0.0
 10
319.901912076885
 20
356.37376105674
 30
0.0
 10
319.8589909868599
 20
356.2879822734971
 30
0.0
 10
319.8286083465771
 20
356.2277376643196
 30
0.0
 10
319.8112087995889
 20
356.193346005687
 30
0.0
 10
319.8094585908955
 20
356.1898921220222
 30
0.0
 10
319.8085384700491
 20
356.1880763440678
 30
0.0
  0
LINE
  5
F5
330
1F
100
AcDbEntity
  8
0
  6
Continuous
 62
     7
370
    15
100
AcDbLine
 10
327.2148148198
 20
373.6361700045
 30
0.0
 11
325.1222786332
 21
368.7064636787
 31
0.0
  0
LINE
  5
F6
330
1F
100
AcDbEntity
  8
0
  6
Continuous
 62
     7
370
    15
100
AcDbLine
 10
468.9398385802
 20
422.8560310867
 30
0.0
 11
468.9398385802
 21
436.0318683361
 31
0.0
  0
LINE
  5
F7
330
1F
100
AcDbEntity
  8
0
  6
Continuous
 62
     7
370
    15
100
AcDbLine
 10
468.9398385802
 20
410.3550683361
 30
0.0
 11
468.9398385802
 21
422.8560310867
 31
0.0
  0
LINE
  5
F8
330
1F
100
AcDbEntity
  8
0
  6
Continuous
 62
     7
370
    15
100
AcDbLine
 10
462.4203385802
 20
410.3550683361
 30
0.0
 11
462.4203385802
 21
411.0442032095
 31
0.0
  0
LINE
  5
F9
330
1F
100
AcDbEntity
  8
0
  6
Continuous
 62
     7
370
    15
100
AcDbLine
 10
460.9659885802
 20
411.0442032095
 30
0.0
 11
462.4203385802
 21
411.0442032095
 31
0.0
  0
LINE
  5
FA
330
1F
100
AcDbEntity
  8
0
  6
Continuous
 62
     7
370
    15
100
AcDbLine
 10
460.9659885802
 20
411.0442032095
 30
0.0
 11
460.9659885802
 21
426.0567265688
 31
0.0
  0
SPLINE
  5
FB
330
1F
100
AcDbEntity
  8
0
  6
Continuous
 62
     7
370
    15
100
AcDbSpline
210
0.0
220
0.0
230
1.0
 70
     8
 71
     3
 72
     9
 73
     5
 74
     0
 42
0.00000001
 43
0.00000001
 40
0.0
 40
0.0
 40
0.0
 40
0.0
 40
0.2555189031448636
 40
1.0
 40
1.0
 40
1.0
 40
1.0
 10
460.2014850955595
 20
411.153314808
 30
0.0
 10
460.207099355954
 20
411.1438085783323
 30
0.0
 10
460.2290713522542
 20
411.1066049524919
 30
0.0
 10
460.6514991041641
 20
411.0708340042787
 30
0.0
 10
460.9659885802481
 20
411.0442032095174
 30
0.0
  0
LINE
  5
FC
330
1F
100
AcDbEntity
  8
0
  6
Continuous
 62
     7
370
    15
100
AcDbLine
 10
459.4113385802
 20
411.9097183361
 30
0.0
 11
459.4113385802
 21
423.0745608725
 31
0.0
  0
LINE
  5
FD
330
1F
100
AcDbEntity
  8
0
  6
Continuous
 62
     7
370
    15
100
AcDbLine
 10
476.3847562603
 20
435.2294683361
 30
0.0
 11
476.3847562603
 21
428.003687354
 31
0.0
  0
LINE
  5
FE
330
1F
100
AcDbEntity
  8
0
  6
Continuous
 62
     7
370
    15
100
AcDbLine
 10
476.3847562603
 20
428.003687354
 30
0.0
 11
472.9518385802
 21
428.003687354
 31
0.0
  0
LINE
  5
FF
330
1F
100
AcDbEntity
  8
0
  6
Continuous
 62
     7
370
    15
100
AcDbLine
 10
472.9518385802
 20
418.3832493182
 30
0.0
 11
472.9518385802
 21
428.003687354
 31
0.0
  0
LINE
  5
100
330
1F
100
AcDbEntity
  8
0
  6
Continuous
 62
     7
370
    15
100
AcDbLine
 10
472.9518385802
 20
418.3832493182
 30
0.0
 11
476.3847562603
 21
418.3832493182
 31
0.0
  0
LINE
  5
101
330
1F
100
AcDbEntity
  8
0
  6
Continuous
 62
     7
370
    15
100
AcDbLine
 10
476.3847562603
 20
418.3832493182
 30
0.0
 11
476.3847562603
 21
411.1574683361
 31
0.0
  0
SPLINE
  5
102
330
1F
100
AcDbEntity
  8
0
  6
Continuous
 62
     7
370
    15
100
AcDbSpline
210
0.0
220
0.0
230
1.0
 70
     8
 71
     3
 72
    28
 73
    24
 74
     0
 42
0.00000001
 43
0.00000001
 40
0.0
 40
0.0
 40
0.0
 40
0.0
 40
0.1249999999999988
 40
0.1249999999999988
 40
0.2499999999999976
 40
0.2499999999999976
 40
0.3124999999999978
 40
0.3124999999999978
 40
0.374999999999998
 40
0.374999999999998
 40
0.499999999999998
 40
0.499999999999998
 40
0.5624999999999982
 40
0.5624999999999982
 40
0.6249999999999986
 40
0.6249999999999986
 40
0.749999999999999
 40
0.749999999999999
 40
0.8749999999999994
 40
0.8749999999999994
 40
0.9374999999999997
 40
0.9374999999999997
 40
1.0
 40
1.0
 40
1.0
 40
1.0
 10
325.8087415891077
 20
366.0847183060486
 30
0.0
 10
325.5044095763827
 20
365.4373542161442
 30
0.0
 10
325.1905596298476
 20
364.8051932127532
 30
0.0
 10
324.5449727885824
 20
363.5722742262201
 30
0.0
 10
324.2132393137769
 20
362.9714608950947
 30
0.0
 10
323.7036015205934
 20
362.0958954328109
 30
0.0
 10
323.5317205568088
 20
361.8083350888745
 30
0.0
 10
323.1842653859296
 20
361.2425157413637
 30
0.0
 10
323.0078580404768
 20
360.9629932312372
 30
0.0
 10
322.4809687864935
 20
360.1510698591894
 30
0.0
 10
322.1330301214035
 20
359.6454013820168
 30
0.0
 10
321.6256915631693
 20
358.9484903563345
 30
0.0
 10
321.4581020927666
 20
358.7252852118266
 30
0.0
 10
321.1350390959223
 20
358.3077976521114
 30
0.0
 10
320.9805544715875
 20
358.1147010220598
 30
0.0
 10
320.5418371154156
 20
357.582876670945
 30
0.0
 10
320.2814774693598
 20
357.2909790250769
 30
0.0
 10
319.8534379641379
 20
356.8413069346757
 30
0.0
 10
319.695554000368
 20
356.6932777108522
 30
0.0
 10
319.5394113865413
 20
356.5549933887631
 30
0.0
 10
319.5007520426718
 20
356.5228178919522
 30
0.0
 10
319.4500662326873
 20
356.4817458964017
 30
0.0
 10
319.4378307406413
 20
356.4726544444005
 30
0.0
 10
319.4376804223378
 20
356.4723003166695
 30
0.0
  0
SPLINE
  5
103
330
1F
100
AcDbEntity
  8
0
  6
Continuous
 62
     7
370
    15
100
AcDbSpline
210
0.0
220
0.0
230
1.0
 70
     8
 71
     3
 72
    10
 73
     6
 74
     0
 42
0.00000001
 43
0.00000001
 40
0.0
 40
0.0
 40
0.0
 40
0.0
 40
0.5
 40
0.5
 40
1.0
 40
1.0
 40
1.0
 40
1.0
 10
319.0481319493652
 20
356.3108209195619
 30
0.0
 10
319.1203503535196
 20
356.2816881096143
 30
0.0
 10
319.2039876377864
 20
356.2820868804092
 30
0.0
 10
319.3478622415294
 20
356.3417271285217
 30
0.0
 10
319.4072529379505
 20
356.400617655722
 30
0.0
 10
319.4376803631146
 20
356.472300176105
 30
0.0
  0
LINE
  5
104
330
1F
100
AcDbEntity
  8
0
  6
Continuous
 62
     7
370
    15
100
AcDbLine
 10
451.3873385802
 20
411.9097183361
 30
0.0
 11
451.3873385802
 21
412.0579063685
 31
0.0
  0
LINE
  5
105
330
1F
100
AcDbEntity
  8
0
  6
Continuous
 62
     7
370
    15
100
AcDbLine
 10
476.9638385802
 20
423.1934683361
 30
0.0
 11
476.9638385802
 21
412.1604683361
 31
0.0
  0
SPLINE
  5
106
330
1F
100
AcDbEntity
  8
0
  6
Continuous
 62
     7
370
    15
100
AcDbSpline
210
0.0
220
0.0
230
1.0
 70
     8
 71
     3
 72
     8
 73
     4
 74
     0
 42
0.00000001
 43
0.00000001
 40
0.0
 40
0.0
 40
0.0
 40
0.0
 40
1.0
 40
1.0
 40
1.0
 40
1.0
 10
476.384756260251
 20
418.3832493182213
 30
0.0
 10
476.7506004633975
 20
419.9687781119426
 30
0.0
 10
476.9638385802483
 20
421.5700936974819
 30
0.0
 10
476.9638385802484
 20
423.193468336104
 30
0.0
  0
LINE
  5
107
330
1F
100
AcDbEntity
  8
0
  6
Continuous
 62
     7
370
    15
100
AcDbLine
 10
476.9638385802
 20
434.2264683361
 30
0.0
 11
476.9638385802
 21
423.1934683361
 31
0.0
  0
SPLINE
  5
108
330
1F
100
AcDbEntity
  8
0
  6
Continuous
 62
     7
370
    15
100
AcDbSpline
210
0.0
220
0.0
230
1.0
 70
     8
 71
     3
 72
    10
 73
     6
 74
     0
 42
0.00000001
 43
0.00000001
 40
0.0
 40
0.0
 40
0.0
 40
0.0
 40
0.5
 40
0.5
 40
1.0
 40
1.0
 40
1.0
 40
1.0
 10
476.9638385802484
 20
423.193468336104
 30
0.0
 10
476.9638385802484
 20
424.0032653119336
 30
0.0
 10
476.9107160567804
 20
424.822551957188
 30
0.0
 10
476.7110685775684
 20
426.4288259576093
 30
0.0
 10
476.56544443374
 20
427.2206045573006
 30
0.0
 10
476.3847562602514
 20
428.0036873539862
 30
0.0
  0
LINE
  5
109
330
1F
100
AcDbEntity
  8
0
  6
Continuous
 62
     7
370
    15
100
AcDbLine
 10
306.7618645959
 20
367.3648643937
 30
0.0
 11
306.7399807644
 21
367.3648834967
 31
0.0
  0
SPLINE
  5
10A
330
1F
100
AcDbEntity
  8
0
  6
Continuous
 62
     7
370
    15
100
AcDbSpline
210
0.0
220
0.0
230
1.0
 70
     8
 71
     3
 72
     9
 73
     5
 74
     0
 42
0.00000001
 43
0.00000001
 40
0.0
 40
0.0
 40
0.0
 40
0.0
 40
0.9644874384295031
 40
1.0
 40
1.0
 40
1.0
 40
1.0
 10
306.1780941136225
 20
365.7065953627039
 30
0.0
 10
306.3959947825007
 20
365.2746746941201
 30
0.0
 10
306.6219185843006
 20
364.8268506464713
 30
0.0
 10
306.9538712319688
 20
364.4580986095237
 30
0.0
 10
306.9656597208077
 20
364.4450032801074
 30
0.0
  0
LINE
  5
10B
330
1F
100
AcDbEntity
  8
0
  6
Continuous
 62
     7
370
    15
100
AcDbLine
 10
318.3293687159
 20
356.6424992872
 30
0.0
 11
319.0481318918
 21
356.3108207767
 31
0.0
  0
LINE
  5
10C
330
1F
100
AcDbEntity
  8
0
  6
Continuous
 62
     7
370
    15
100
AcDbLine
 10
306.739979957
 20
367.3648831261
 30
0.0
 11
306.7408787202
 21
367.3644134505
 31
0.0
  0
ARC
  5
10D
330
1F
100
AcDbEntity
  8
0
  6
Continuous
 62
     7
370
    15
100
AcDbCircle
 10
324.4916978669
 20
369.1489140441
 30
0.0
 40
0.3009000000000849
100
AcDbArc
 50
33.3794585431
 51
90.4938542084
  0
LINE
  5
10E
330
1F
100
AcDbEntity
  8
0
  6
Continuous
 62
     7
370
    15
100
AcDbLine
 10
477.1644385802
 20
417.5695328973
 30
0.0
 11
477.1644385802
 21
432.1201683361
 31
0.0
  0
LINE
  5
10F
330
1F
100
AcDbEntity
  8
0
  6
Continuous
 62
     7
370
    15
100
AcDbLine
 10
477.1644385802
 20
414.2667683361
 30
0.0
 11
477.1644385802
 21
417.5695328973
 31
0.0
  0
SPLINE
  5
110
330
1F
100
AcDbEntity
  8
0
  6
Continuous
 62
     7
370
    15
100
AcDbSpline
210
0.0
220
0.0
230
1.0
 70
     8
 71
     3
 72
     9
 73
     5
 74
     0
 42
0.00000001
 43
0.00000001
 40
0.0
 40
0.0
 40
0.0
 40
0.0
 40
0.460812983235926
 40
1.0
 40
1.0
 40
1.0
 40
1.0
 10
327.8805180124694
 20
373.3083057704012
 30
0.0
 10
327.6964519276598
 20
373.3989353190988
 30
0.0
 10
327.2970142132165
 20
373.5956084858598
 30
0.0
 10
327.243609790906
 20
373.6219610461224
 30
0.0
 10
327.2148148197583
 20
373.6361700044745
 30
0.0
  0
SPLINE
  5
111
330
1F
100
AcDbEntity
  8
0
  6
Continuous
 62
     8
370
     0
100
AcDbSpline
210
0.0
220
0.0
230
1.0
 70
     8
 71
     3
 72
    36
 73
    32
 74
     0
 42
0.00000001
 43
0.00000001
 40
0.0
 40
0.0
 40
0.0
 40
0.0
 40
0.0624999999999999
 40
0.0624999999999999
 40
0.1249999999999998
 40
0.1249999999999998
 40
0.2499999999999996
 40
0.2499999999999996
 40
0.3124999999999996
 40
0.3124999999999996
 40
0.3749999999999995
 40
0.3749999999999995
 40
0.4374999999999994
 40
0.4374999999999994
 40
0.4687499999999994
 40
0.4687499999999994
 40
0.4999999999999993
 40
0.4999999999999993
 40
0.5624999999999992
 40
0.5624999999999992
 40
0.6249999999999991
 40
0.6249999999999991
 40
0.687499999999999
 40
0.687499999999999
 40
0.7499999999999989
 40
0.7499999999999989
 40
0.8124999999999988
 40
0.8124999999999988
 40
0.8749999999999987
 40
0.8749999999999987
 40
1.0
 40
1.0
 40
1.0
 40
1.0
 10
348.8382949329781
 20
486.6709716756006
 30
0.0
 10
348.8383165747365
 20
486.6723190348894
 30
0.0
 10
348.8440828466721
 20
486.6602874604936
 30
0.0
 10
348.8660580093409
 20
486.6096010564303
 30
0.0
 10
348.8819523613833
 20
486.571221293075
 30
0.0
 10
348.9473559747324
 20
486.4061367131815
 30
0.0
 10
349.0150002514491
 20
486.2299866007699
 30
0.0
 10
349.1890774650207
 20
485.7723593235773
 30
0.0
 10
349.2593116508421
 20
485.5878617405509
 30
0.0
 10
349.4330612706259
 20
485.1327437734014
 30
0.0
 10
349.5363388184057
 20
484.8620602910819
 30
0.0
 10
349.7892510529622
 20
484.2010801558835
 30
0.0
 10
349.9404283716578
 20
483.8072918522604
 30
0.0
 10
350.2075525349896
 20
483.1173200088612
 30
0.0
 10
350.3034394731224
 20
482.8704492217874
 30
0.0
 10
350.509957048097
 20
482.3406417514452
 30
0.0
 10
350.6209636852675
 20
482.0567402546243
 30
0.0
 10
350.9747770056958
 20
481.1547652349226
 30
0.0
 10
351.2342206035976
 20
480.4970967491857
 30
0.0
 10
351.7946198931774
 20
479.0846434842354
 30
0.0
 10
352.0960603526742
 20
478.3282739163388
 30
0.0
 10
352.7284595482247
 20
476.7463453001478
 30
0.0
 10
353.0537639850803
 20
475.9344107605144
 30
0.0
 10
353.7219103813152
 20
474.2826447274487
 30
0.0
 10
354.0649269408683
 20
473.4426532496465
 30
0.0
 10
354.7755489555838
 20
471.7470296978423
 30
0.0
 10
355.1434608397042
 20
470.8915492085084
 30
0.0
 10
355.9118218564328
 20
469.1760525037953
 30
0.0
 10
356.3119104383772
 20
468.3172844861705
 30
0.0
 10
357.5666052524428
 20
465.7623133381106
 30
0.0
 10
358.4780948105485
 20
464.0822553378781
 30
0.0
 10
359.4966857534187
 20
462.4471915054393
 30
0.0
  0
SPLINE
  5
112
330
1F
100
AcDbEntity
  8
0
  6
Continuous
 62
     8
370
     0
100
AcDbSpline
210
0.0
220
0.0
230
1.0
 70
     8
 71
     3
 72
    16
 73
    12
 74
     0
 42
0.00000001
 43
0.00000001
 40
0.0
 40
0.0
 40
0.0
 40
0.0
 40
0.2500000000000011
 40
0.2500000000000011
 40
0.3749999999999999
 40
0.3749999999999999
 40
0.4999999999999988
 40
0.4999999999999988
 40
0.7499999999999993
 40
0.7499999999999993
 40
1.0
 40
1.0
 40
1.0
 40
1.0
 10
359.4966857534186
 20
462.4471915054393
 30
0.0
 10
360.3320959087033
 20
461.1061733668832
 30
0.0
 10
361.2315891434361
 20
459.8074609903882
 30
0.0
 10
362.6990175693161
 20
457.9417267724767
 30
0.0
 10
363.2078244178215
 20
457.333512570125
 30
0.0
 10
364.2669297641613
 20
456.1462830309363
 30
0.0
 10
364.8136797221629
 20
455.5711478891567
 30
0.0
 10
366.4997994317691
 20
453.9070205803166
 30
0.0
 10
367.6879492002612
 20
452.877487556979
 30
0.0
 10
370.1881633138163
 20
450.9737914456664
 30
0.0
 10
371.4999270439864
 20
450.0992972254635
 30
0.0
 10
372.871648414256
 20
449.3001427409974
 30
0.0
  0
SPLINE
  5
113
330
1F
100
AcDbEntity
  8
0
  6
Continuous
 62
     8
370
     0
100
AcDbSpline
210
0.0
220
0.0
230
1.0
 70
     8
 71
     3
 72
    14
 73
    10
 74
     0
 42
0.00000001
 43
0.00000001
 40
0.0
 40
0.0
 40
0.0
 40
0.0
 40
0.5000000000000002
 40
0.5000000000000002
 40
0.625
 40
0.625
 40
0.7499999999999999
 40
0.7499999999999999
 40
1.0
 40
1.0
 40
1.0
 40
1.0
 10
370.730969519492
 20
448.7265495601252
 30
0.0
 10
368.1531818200814
 20
450.3527106545951
 30
0.0
 10
365.7875220382575
 20
452.2477574030825
 30
0.0
 10
363.1069098515568
 20
454.9636229153049
 30
0.0
 10
362.5831925856722
 20
455.5254219424286
 30
0.0
 10
361.570599343302
 20
456.6745311020246
 30
0.0
 10
361.0817744843184
 20
457.2617157707228
 30
0.0
 10
359.6646389385135
 20
459.0585552124002
 30
0.0
 10
358.7856314818196
 20
460.3034940268434
 30
0.0
 10
357.9595145460926
 20
461.5845138271752
 30
0.0
  0
SPLINE
  5
114
330
1F
100
AcDbEntity
  8
0
  6
Continuous
 62
     8
370
     0
100
AcDbSpline
210
0.0
220
0.0
230
1.0
 70
     8
 71
     3
 72
     8
 73
     4
 74
     0
 42
0.00000001
 43
0.00000001
 40
0.0
 40
0.0
 40
0.0
 40
0.0
 40
0.0004142528808762
 40
0.0004142528808762
 40
0.0004142528808762
 40
0.0004142528808762
 10
399.747091437402
 20
439.3736033266252
 30
0.0
 10
399.6095909631747
 20
439.3861805784182
 30
0.0
 10
399.4722975303076
 20
439.401198952935
 30
0.0
 10
399.3352659559876
 20
439.4181088342348
 30
0.0
  0
SPLINE
  5
115
330
1F
100
AcDbEntity
  8
0
  6
Continuous
 62
     8
370
     0
100
AcDbSpline
210
0.0
220
0.0
230
1.0
 70
     8
 71
     3
 72
    18
 73
    14
 74
     0
 42
0.00000001
 43
0.00000001
 40
0.0
 40
0.0
 40
0.0
 40
0.0
 40
0.5
 40
0.5
 40
0.7500000000000002
 40
0.7500000000000002
 40
0.8750000000000002
 40
0.8750000000000002
 40
0.9375000000000002
 40
0.9375000000000002
 40
0.9687500000000001
 40
0.9687500000000001
 40
1.0
 40
1.0
 40
1.0
 40
1.0
 10
419.534974055715
 20
438.4209402881739
 30
0.0
 10
416.2329972221672
 20
438.4711871938287
 30
0.0
 10
412.9314801446033
 20
438.5474152166075
 30
0.0
 10
407.9835980078109
 20
438.7688245817233
 30
0.0
 10
406.3350396219425
 20
438.8603271156929
 30
0.0
 10
403.8635759830251
 20
439.0304071921682
 30
0.0
 10
403.0398703663827
 20
439.0902301207777
 30
0.0
 10
401.8050735044264
 20
439.197210176031
 30
0.0
 10
401.3936373264734
 20
439.2352770896392
 30
0.0
 10
400.776264865789
 20
439.2877721451744
 30
0.0
 10
400.5705123598225
 20
439.3061627541852
 30
0.0
 10
400.1588144484665
 20
439.3395782034214
 30
0.0
 10
399.9528173885473
 20
439.3538346133781
 30
0.0
 10
399.7470164664358
 20
439.372797837554
 30
0.0
  0
SPLINE
  5
116
330
1F
100
AcDbEntity
  8
0
  6
Continuous
 62
     8
370
     0
100
AcDbSpline
210
0.0
220
0.0
230
1.0
 70
     8
 71
     3
 72
    16
 73
    12
 74
     0
 42
0.00000001
 43
0.00000001
 40
0.0
 40
0.0
 40
0.0
 40
0.0
 40
0.0624999999999997
 40
0.0624999999999997
 40
0.1249999999999994
 40
0.1249999999999994
 40
0.2499999999999994
 40
0.2499999999999994
 40
0.4999999999999996
 40
0.4999999999999996
 40
1.0
 40
1.0
 40
1.0
 40
1.0
 10
399.8981105605615
 20
441.027120871824
 30
0.0
 10
400.3057445110495
 20
440.9880977508379
 30
0.0
 10
400.7136305302839
 20
440.9534548968682
 30
0.0
 10
401.529558054661
 20
440.8867786282628
 30
0.0
 10
401.9375917083788
 20
440.8546195171893
 30
0.0
 10
403.1619265112581
 20
440.7607731549904
 30
0.0
 10
403.9783186948019
 20
440.7051838074669
 30
0.0
 10
406.4280254606815
 20
440.5553029474548
 30
0.0
 10
408.061847896148
 20
440.4784914007306
 30
0.0
 10
412.9649363620957
 20
440.301713164378
 30
0.0
 10
416.2358924325725
 20
440.2584330977081
 30
0.0
 10
419.5069635933246
 20
440.2397177759975
 30
0.0
  0
SPLINE
  5
117
330
1F
100
AcDbEntity
  8
0
  6
Continuous
 62
     8
370
     0
100
AcDbSpline
210
0.0
220
0.0
230
1.0
 70
     8
 71
     3
 72
    18
 73
    14
 74
     0
 42
0.00000001
 43
0.00000001
 40
0.0
 40
0.0
 40
0.0
 40
0.0
 40
0.2500000000000001
 40
0.2500000000000001
 40
0.5000000000000002
 40
0.5000000000000002
 40
0.6250000000000001
 40
0.6250000000000001
 40
0.7500000000000001
 40
0.7500000000000001
 40
0.875
 40
0.875
 40
1.0
 40
1.0
 40
1.0
 40
1.0
 10
399.3354631437902
 20
439.4197999993572
 30
0.0
 10
397.082609429353
 20
439.6454539271879
 30
0.0
 10
394.8370319420568
 20
439.9294102612233
 30
0.0
 10
390.3708582799677
 20
440.6587223988354
 30
0.0
 10
388.1480000751879
 20
441.1059600710632
 30
0.0
 10
384.8603606016576
 20
441.9380963583961
 30
0.0
 10
383.7715173084234
 20
442.2424077114057
 30
0.0
 10
381.6096723948798
 20
442.911664710736
 30
0.0
 10
380.5360360644704
 20
443.2770378368485
 30
0.0
 10
378.4189452085334
 20
444.0700839007785
 30
0.0
 10
377.3740059266887
 20
444.4981373517117
 30
0.0
 10
375.3149031387991
 20
445.4255397837567
 30
0.0
 10
374.2992610877845
 20
445.9257344036391
 30
0.0
 10
373.3040069084689
 20
446.4646011304002
 30
0.0
  0
SPLINE
  5
118
330
1F
100
AcDbEntity
  8
0
  6
Continuous
 62
     8
370
     0
100
AcDbSpline
210
0.0
220
0.0
230
1.0
 70
     8
 71
     3
 72
    16
 73
    12
 74
     0
 42
0.00000001
 43
0.00000001
 40
0.0
 40
0.0
 40
0.0
 40
0.0
 40
0.2499999999999996
 40
0.2499999999999996
 40
0.3749999999999996
 40
0.3749999999999996
 40
0.4999999999999996
 40
0.4999999999999996
 40
0.7499999999999998
 40
0.7499999999999998
 40
1.0
 40
1.0
 40
1.0
 40
1.0
 10
374.086453654895
 20
447.8588019857044
 30
0.0
 10
376.0317109895864
 20
446.8086489093092
 30
0.0
 10
378.04559054122
 20
445.9186076464283
 30
0.0
 10
381.1457010493177
 20
444.7686348562286
 30
0.0
 10
382.1937902784686
 20
444.4160448993783
 30
0.0
 10
384.3036916535882
 20
443.7710818220729
 30
0.0
 10
385.366301016172
 20
443.4782785761768
 30
0.0
 10
388.5744940960029
 20
442.678769490003
 30
0.0
 10
390.7432541039156
 20
442.2504644023703
 30
0.0
 10
395.098870062177
 20
441.5532396802176
 30
0.0
 10
397.2877068407911
 20
441.2830265594212
 30
0.0
 10
399.4843442669436
 20
441.0682281536903
 30
0.0
  0
SPLINE
  5
119
330
1F
100
AcDbEntity
  8
0
  6
Continuous
 62
     8
370
     0
100
AcDbSpline
210
0.0
220
0.0
230
1.0
 70
     8
 71
     3
 72
    44
 73
    40
 74
     0
 42
0.00000001
 43
0.00000001
 40
0.0
 40
0.0
 40
0.0
 40
0.0
 40
0.1250000000000007
 40
0.1250000000000007
 40
0.2500000000000014
 40
0.2500000000000014
 40
0.3125000000000016
 40
0.3125000000000016
 40
0.3750000000000017
 40
0.3750000000000017
 40
0.4375000000000019
 40
0.4375000000000019
 40
0.5000000000000021
 40
0.5000000000000021
 40
0.5312500000000019
 40
0.5312500000000019
 40
0.5468750000000017
 40
0.5468750000000017
 40
0.5625000000000016
 40
0.5625000000000016
 40
0.5937500000000008
 40
0.5937500000000008
 40
0.6093750000000006
 40
0.6093750000000006
 40
0.6250000000000004
 40
0.6250000000000004
 40
0.6875
 40
0.6875
 40
0.71875
 40
0.71875
 40
0.7499999999999999
 40
0.7499999999999999
 40
0.8125
 40
0.8125
 40
0.875
 40
0.875
 40
0.9375
 40
0.9375
 40
1.0
 40
1.0
 40
1.0
 40
1.0
 10
428.479247243827
 20
440.2195541357429
 30
0.0
 10
430.879460786504
 20
440.2189759747698
 30
0.0
 10
433.2759664031548
 20
440.2204413536027
 30
0.0
 10
438.0581482348299
 20
440.22055898323
 30
0.0
 10
440.4443217205744
 20
440.2185557217377
 30
0.0
 10
444.0082169890161
 20
440.2145265196299
 30
0.0
 10
445.1934918612437
 20
440.21319292905
 30
0.0
 10
447.5572225555925
 20
440.2087973689538
 30
0.0
 10
448.7380292033982
 20
440.2055908940962
 30
0.0
 10
451.0677892914682
 20
440.1974146331199
 30
0.0
 10
452.2184459901943
 20
440.19247328304
 30
0.0
 10
454.4780022940021
 20
440.1803090265116
 30
0.0
 10
455.5873898018049
 20
440.1729009564369
 30
0.0
 10
457.2013756702848
 20
440.1611330321121
 30
0.0
 10
457.7308557888205
 20
440.1571498653308
 30
0.0
 10
458.5085311522856
 20
440.1513452191434
 30
0.0
 10
458.7658713554233
 20
440.1494313966174
 30
0.0
 10
459.268348169207
 20
440.1457345499442
 30
0.0
 10
459.5137449535735
 20
440.1439467915622
 30
0.0
 10
460.231168696667
 20
440.1388652617077
 30
0.0
 10
460.6843909019336
 20
440.1358575436529
 30
0.0
 10
461.3212395204212
 20
440.1325455328981
 30
0.0
 10
461.5263630788238
 20
440.1316415604014
 30
0.0
 10
461.9215878102227
 20
440.1303073030048
 30
0.0
 10
462.1123700515277
 20
440.1298764873012
 30
0.0
 10
463.0189648271766
 20
440.1290098995213
 30
0.0
 10
463.582906059319
 20
440.1326112892843
 30
0.0
 10
464.2491290969174
 20
440.1419799232868
 30
0.0
 10
464.4421468515715
 20
440.1456496060675
 30
0.0
 10
464.775188484045
 20
440.1532170038564
 30
0.0
 10
464.9164259460363
 20
440.1571498617202
 30
0.0
 10
465.2827834944885
 20
440.1690931112076
 30
0.0
 10
465.4513060626392
 20
440.1772941829213
 30
0.0
 10
465.7025127581603
 20
440.193235702043
 30
0.0
 10
465.7848536684793
 20
440.2009678853872
 30
0.0
 10
465.9037483908894
 20
440.2144418354673
 30
0.0
 10
465.9401183388549
 20
440.2201706988329
 30
0.0
 10
465.9893460076925
 20
440.2279936219122
 30
0.0
 10
466.002663559287
 20
440.2299363871579
 30
0.0
 10
466.0075841001735
 20
440.2294929146052
 30
0.0
  0
SPLINE
  5
11A
330
1F
100
AcDbEntity
  8
0
  6
Continuous
 62
     8
370
     0
100
AcDbSpline
210
0.0
220
0.0
230
1.0
 70
     8
 71
     3
 72
    42
 73
    38
 74
     0
 42
0.00000001
 43
0.00000001
 40
0.0
 40
0.0
 40
0.0
 40
0.0
 40
0.0625000000000001
 40
0.0625000000000001
 40
0.1250000000000001
 40
0.1250000000000001
 40
0.1875000000000002
 40
0.1875000000000002
 40
0.2500000000000003
 40
0.2500000000000003
 40
0.2812500000000004
 40
0.2812500000000004
 40
0.3125000000000004
 40
0.3125000000000004
 40
0.3750000000000009
 40
0.3750000000000009
 40
0.3906250000000009
 40
0.3906250000000009
 40
0.4062500000000009
 40
0.4062500000000009
 40
0.437500000000001
 40
0.437500000000001
 40
0.468750000000001
 40
0.468750000000001
 40
0.500000000000001
 40
0.500000000000001
 40
0.562500000000001
 40
0.562500000000001
 40
0.6250000000000009
 40
0.6250000000000009
 40
0.6875000000000009
 40
0.6875000000000009
 40
0.7500000000000009
 40
0.7500000000000009
 40
0.8750000000000004
 40
0.8750000000000004
 40
1.0
 40
1.0
 40
1.0
 40
1.0
 10
467.0613430342793
 20
438.2494217639418
 30
0.0
 10
467.0583486782097
 20
438.2484459906284
 30
0.0
 10
467.0473329395222
 20
438.2400385594012
 30
0.0
 10
467.0052525663049
 20
438.2203617970939
 30
0.0
 10
466.9734872097406
 20
438.2083972160412
 30
0.0
 10
466.8631642692725
 20
438.1824559295509
 30
0.0
 10
466.7847279533332
 20
438.1684065545314
 30
0.0
 10
466.5360931582064
 20
438.1378932515291
 30
0.0
 10
466.36620565647
 20
438.1214800666584
 30
0.0
 10
465.9902839124243
 20
438.0934290807522
 30
0.0
 10
465.8446020693518
 20
438.0834702168847
 30
0.0
 10
465.4995944850657
 20
438.0618640746575
 30
0.0
 10
465.2991624203179
 20
438.0499207067639
 30
0.0
 10
464.6090474044319
 20
438.0146909817613
 30
0.0
 10
464.0264529913484
 20
437.9931465732968
 30
0.0
 10
463.1007439055994
 20
437.975783109883
 30
0.0
 10
462.9057160032889
 20
437.9727799775654
 30
0.0
 10
462.5024010934304
 20
437.9678954328838
 30
0.0
 10
462.2933601053741
 20
437.9659992149439
 30
0.0
 10
461.6450222891679
 20
437.9619432108941
 30
0.0
 10
461.1844852241691
 20
437.9614474635649
 30
0.0
 10
460.2129385309339
 20
437.9639378837334
 30
0.0
 10
459.700088620511
 20
437.9668449004261
 30
0.0
 10
458.6381606761676
 20
437.9750222985123
 30
0.0
 10
458.0957768635927
 20
437.9804800524327
 30
0.0
 10
456.4417046394038
 20
437.9995112668622
 30
0.0
 10
455.3035526377773
 20
438.0148993749007
 30
0.0
 10
452.9836534100841
 20
438.0451159084575
 30
0.0
 10
451.8015595374409
 20
438.0604944106855
 30
0.0
 10
449.4072581990745
 20
438.0910170528609
 30
0.0
 10
448.1926034442857
 20
438.1060738395727
 30
0.0
 10
445.7584393496405
 20
438.1351218455399
 30
0.0
 10
444.5378145322689
 20
438.1487555742751
 30
0.0
 10
440.8675682968418
 20
438.1902186286074
 30
0.0
 10
438.4100414993221
 20
438.2187069718019
 30
0.0
 10
433.4844671903296
 20
438.2683314765038
 30
0.0
 10
431.015942770357
 20
438.2906233541265
 30
0.0
 10
428.543397229871
 20
438.3152027393666
 30
0.0
  0
SPLINE
  5
11B
330
1F
100
AcDbEntity
  8
0
  6
Continuous
 62
     8
370
     0
100
AcDbSpline
210
0.0
220
0.0
230
1.0
 70
     8
 71
     3
 72
    40
 73
    36
 74
     0
 42
0.00000001
 43
0.00000001
 40
0.0
 40
0.0
 40
0.0
 40
0.0
 40
0.1249999999999994
 40
0.1249999999999994
 40
0.1874999999999991
 40
0.1874999999999991
 40
0.2499999999999988
 40
0.2499999999999988
 40
0.3124999999999984
 40
0.3124999999999984
 40
0.3749999999999982
 40
0.3749999999999982
 40
0.406249999999998
 40
0.406249999999998
 40
0.4374999999999978
 40
0.4374999999999978
 40
0.4999999999999974
 40
0.4999999999999974
 40
0.5312499999999977
 40
0.5312499999999977
 40
0.5624999999999978
 40
0.5624999999999978
 40
0.593749999999998
 40
0.593749999999998
 40
0.6249999999999982
 40
0.6249999999999982
 40
0.6874999999999986
 40
0.6874999999999986
 40
0.7499999999999989
 40
0.7499999999999989
 40
0.8749999999999994
 40
0.8749999999999994
 40
0.9374999999999998
 40
0.9374999999999998
 40
1.0
 40
1.0
 40
1.0
 40
1.0
 10
357.9595145460926
 20
461.584513827175
 30
0.0
 10
356.8858939874694
 20
463.2493255919034
 30
0.0
 10
355.9127155000679
 20
464.9599207703252
 30
0.0
 10
354.558633334061
 20
467.561339935566
 30
0.0
 10
354.124174412114
 20
468.4354986615676
 30
0.0
 10
353.2835824188339
 20
470.1817279380972
 30
0.0
 10
352.8778757830845
 20
471.052311078572
 30
0.0
 10
352.0900750951139
 20
472.7775263649955
 30
0.0
 10
351.7074067106824
 20
473.6317231697666
 30
0.0
 10
350.9569278272601
 20
475.3092887097233
 30
0.0
 10
350.5888921132803
 20
476.1327513050389
 30
0.0
 10
350.0499610853692
 20
477.3349431814256
 30
0.0
 10
349.8734498490681
 20
477.7283237820252
 30
0.0
 10
349.5319802415719
 20
478.4902739600468
 30
0.0
 10
349.3664979300638
 20
478.86005321593
 30
0.0
 10
348.888465179985
 20
479.9329974333387
 30
0.0
 10
348.5945807145795
 20
480.5995733435121
 30
0.0
 10
348.1976553259676
 20
481.5166881596833
 30
0.0
 10
348.0731053137585
 20
481.8077021476814
 30
0.0
 10
347.8435833699554
 20
482.3509058108377
 30
0.0
 10
347.7379261924052
 20
482.6046648530589
 30
0.0
 10
347.5434076536725
 20
483.0786000442933
 30
0.0
 10
347.4545372722044
 20
483.298770226113
 30
0.0
 10
347.2918162187864
 20
483.7079119646082
 30
0.0
 10
347.2181232288302
 20
483.8964818042361
 30
0.0
 10
347.019081177771
 20
484.4135150916258
 30
0.0
 10
346.9143726244205
 20
484.6969915331263
 30
0.0
 10
346.741922272037
 20
485.173191747167
 30
0.0
 10
346.674252964753
 20
485.3658973257236
 30
0.0
 10
346.508526908291
 20
485.8431474849215
 30
0.0
 10
346.4489414602365
 20
486.0250121540279
 30
0.0
 10
346.3911750826049
 20
486.1936562974346
 30
0.0
 10
346.377054533313
 20
486.2322602022852
 30
0.0
 10
346.3553378303793
 20
486.2804222549967
 30
0.0
 10
346.3472668569104
 20
486.2885320273114
 30
0.0
 10
346.3449859057623
 20
486.2855547841818
 30
0.0
  0
SPLINE
  5
11C
330
1F
100
AcDbEntity
  8
0
  6
Continuous
 62
     8
370
     0
100
AcDbSpline
210
0.0
220
0.0
230
1.0
 70
     8
 71
     3
 72
     8
 73
     4
 74
     0
 42
0.00000001
 43
0.00000001
 40
0.0
 40
0.0
 40
0.0
 40
0.0
 40
0.0004158606590599
 40
0.0004158606590599
 40
0.0004158606590599
 40
0.0004158606590599
 10
399.4843552489387
 20
441.0683803047155
 30
0.0
 10
399.6222693283012
 20
441.0545304177194
 30
0.0
 10
399.7601939485825
 20
441.0407312102871
 30
0.0
 10
399.8981573081915
 20
441.0274130327323
 30
0.0
  0
SPLINE
  5
11D
330
1F
100
AcDbEntity
  8
0
  6
Continuous
 62
     8
370
     0
100
AcDbSpline
210
0.0
220
0.0
230
1.0
 70
     8
 71
     3
 72
     8
 73
     4
 74
     0
 42
0.00000001
 43
0.00000001
 40
0.0
 40
0.0
 40
0.0
 40
0.0
 40
1.0
 40
1.0
 40
1.0
 40
1.0
 10
374.0335616887657
 20
447.8872459330885
 30
0.0
 10
374.0511597431278
 20
447.8777132403145
 30
0.0
 10
374.0687671069986
 20
447.8681922236884
 30
0.0
 10
374.0863837749175
 20
447.858682875669
 30
0.0
  0
SPLINE
  5
11E
330
1F
100
AcDbEntity
  8
0
  6
Continuous
 62
     8
370
     0
100
AcDbSpline
210
0.0
220
0.0
230
1.0
 70
     8
 71
     3
 72
     8
 73
     4
 74
     0
 42
0.00000001
 43
0.00000001
 40
0.0
 40
0.0
 40
0.0
 40
0.0
 40
0.0009822398911815
 40
0.0009822398911815
 40
0.0009822398911815
 40
0.0009822398911815
 10
420.5161591260785
 20
438.4067266980462
 30
0.0
 10
420.1890977466406
 20
438.4113197865873
 30
0.0
 10
419.8620265204068
 20
438.4160909085751
 30
0.0
 10
419.5349537490918
 20
438.4210969271921
 30
0.0
  0
SPLINE
  5
11F
330
1F
100
AcDbEntity
  8
0
  6
Continuous
 62
     8
370
     0
100
AcDbSpline
210
0.0
220
0.0
230
1.0
 70
     8
 71
     3
 72
     8
 73
     4
 74
     0
 42
0.00000001
 43
0.00000001
 40
0.0
 40
0.0
 40
0.0
 40
0.0
 40
1.0
 40
1.0
 40
1.0
 40
1.0
 10
428.543397229871
 20
438.3152027393665
 30
0.0
 10
425.8693922040384
 20
438.3417848178713
 30
0.0
 10
423.1932772436201
 20
438.3691305729095
 30
0.0
 10
420.5161591260785
 20
438.4067266980463
 30
0.0
  0
SPLINE
  5
120
330
1F
100
AcDbEntity
  8
0
  6
Continuous
 62
     8
370
     0
100
AcDbSpline
210
0.0
220
0.0
230
1.0
 70
     8
 71
     3
 72
     8
 73
     4
 74
     0
 42
0.00000001
 43
0.00000001
 40
0.0
 40
0.0
 40
0.0
 40
0.0
 40
1.0
 40
1.0
 40
1.0
 40
1.0
 10
373.3037808568164
 20
446.4647371857981
 30
0.0
 10
372.9208022179819
 20
446.6717314875081
 30
0.0
 10
372.5418508887921
 20
446.8838073080051
 30
0.0
 10
372.1669883853821
 20
447.1010496945539
 30
0.0
  0
SPLINE
  5
121
330
1F
100
AcDbEntity
  8
0
  6
Continuous
 62
     8
370
     0
100
AcDbSpline
210
0.0
220
0.0
230
1.0
 70
     8
 71
     3
 72
    14
 73
    10
 74
     0
 42
0.00000001
 43
0.00000001
 40
0.0
 40
0.0
 40
0.0
 40
0.0
 40
0.25
 40
0.25
 40
0.5
 40
0.5
 40
0.75
 40
0.75
 40
1.0
 40
1.0
 40
1.0
 40
1.0
 10
372.1669883853851
 20
447.101049694543
 30
0.0
 10
372.1472456469047
 20
447.1718264227078
 30
0.0
 10
372.1272012108856
 20
447.2503263335831
 30
0.0
 10
372.0922921913852
 20
447.4060535988126
 30
0.0
 10
372.0776124647261
 20
447.4827465463791
 30
0.0
 10
372.0588238508936
 20
447.611391440297
 30
0.0
 10
372.0547936242019
 20
447.6628048014497
 30
0.0
 10
372.0571258644994
 20
447.7301294517104
 30
0.0
 10
372.0633462170114
 20
447.7462824924648
 30
0.0
 10
372.0723977754345
 20
447.7487078502335
 30
0.0
  0
SPLINE
  5
122
330
1F
100
AcDbEntity
  8
0
  6
Continuous
 62
     8
370
     0
100
AcDbSpline
210
0.0
220
0.0
230
1.0
 70
     8
 71
     3
 72
    10
 73
     6
 74
     0
 42
0.00000001
 43
0.00000001
 40
0.0
 40
0.0
 40
0.0
 40
0.0
 40
0.5
 40
0.5
 40
1.0
 40
1.0
 40
1.0
 40
1.0
 10
373.3765084387978
 20
448.0981432491753
 30
0.0
 10
373.4800358672506
 20
448.125883340012
 30
0.0
 10
373.5973720222354
 20
448.1234165051775
 30
0.0
 10
373.8276698702473
 20
448.0494967763753
 30
0.0
 10
373.9395265541525
 20
447.9783985621204
 30
0.0
 10
374.0335616887655
 20
447.8872459330885
 30
0.0
  0
SPLINE
  5
123
330
1F
100
AcDbEntity
  8
0
  6
Continuous
 62
     8
370
     0
100
AcDbSpline
210
0.0
220
0.0
230
1.0
 70
     8
 71
     3
 72
     8
 73
     4
 74
     0
 42
0.00000001
 43
0.00000001
 40
0.0
 40
0.0
 40
0.0
 40
0.0
 40
0.0009791865405642
 40
0.0009791865405642
 40
0.0009791865405642
 40
0.0009791865405642
 10
419.5069394987522
 20
440.2399163727044
 30
0.0
 10
419.8329583399467
 20
440.2381163608725
 30
0.0
 10
420.1589739537708
 20
440.2364816528979
 30
0.0
 10
420.4849788213772
 20
440.2349922415736
 30
0.0
  0
SPLINE
  5
124
330
1F
100
AcDbEntity
  8
0
  6
Continuous
 62
     8
370
     0
100
AcDbSpline
210
0.0
220
0.0
230
1.0
 70
     8
 71
     3
 72
     8
 73
     4
 74
     0
 42
0.00000001
 43
0.00000001
 40
0.0
 40
0.0
 40
0.0
 40
0.0
 40
1.0
 40
1.0
 40
1.0
 40
1.0
 10
420.4849788213772
 20
440.2349922415737
 30
0.0
 10
423.1511011751085
 20
440.2228115865587
 30
0.0
 10
425.8162301968719
 20
440.2201956005541
 30
0.0
 10
428.479247243827
 20
440.2195541357428
 30
0.0
  0
LINE
  5
125
330
1F
100
AcDbEntity
  8
0
  6
Continuous
 62
     8
370
     0
100
AcDbLine
 10
383.8650222843
 20
450.9085320627
 30
0.0
 11
384.1638368065
 21
450.9379701125
 31
0.0
  0
LINE
  5
126
330
1F
100
AcDbEntity
  8
0
  6
Continuous
 62
     8
370
     0
100
AcDbLine
 10
419.5351837107
 20
402.5246006923
 30
0.0
 11
419.5355083053
 21
402.6171849984
 31
0.0
  0
LINE
  5
127
330
1F
100
AcDbEntity
  8
0
  6
Continuous
 62
     8
370
     0
100
AcDbLine
 10
365.8278186499
 20
447.7250419108
 30
0.0
 11
346.0497144802
 21
442.425514873
 31
0.0
  0
LWPOLYLINE
  5
128
330
1F
100
AcDbEntity
  8
0
  6
Continuous
 62
     8
370
     0
100
AcDbPolyline
 90
        9
 70
   128
 43
0.0
 10
325.8087415891
 20
366.084718306
 10
325.8248201706
 20
366.0697607961
 10
325.8244668658
 20
366.0622294333
 10
325.8077031273
 20
366.0625815188
 10
325.7755468419
 20
366.0707956741
 10
325.7299505253
 20
366.0863731392
 10
325.6736827658
 20
366.1083680573
 10
325.610160117
 20
366.1354449066
 10
325.5432396466
 20
366.1659595926
  0
SPLINE
  5
129
330
1F
100
AcDbEntity
  8
0
  6
Continuous
 62
     8
370
     0
100
AcDbSpline
210
0.0
220
0.0
230
1.0
 70
     8
 71
     3
 72
    17
 73
    13
 74
     0
 42
0.00000001
 43
0.00000001
 40
0.0
 40
0.0
 40
0.0
 40
0.0
 40
0.233624164416964
 40
0.4673461997334903
 40
0.5376877021075421
 40
0.6076020106962587
 40
0.6776192375850998
 40
0.7125988463464871
 40
0.7476173034589685
 40
0.8174211072234041
 40
0.887491527940994
 40
1.0
 40
1.0
 40
1.0
 40
1.0
 10
325.6932635165002
 20
367.364754092943
 30
0.0
 10
323.7755257323576
 20
367.3646840185725
 30
0.0
 10
319.939246776621
 20
367.3645438404754
 30
0.0
 10
315.5281087749256
 20
367.3641485935057
 30
0.0
 10
312.4910865420577
 20
367.3647440152545
 30
0.0
 10
310.8087323469803
 20
367.3642896366895
 30
0.0
 10
309.4540427899184
 20
367.3649329496152
 30
0.0
 10
308.4857089638859
 20
367.3643139083117
 30
0.0
 10
307.6707036369828
 20
367.3648130988506
 30
0.0
 10
307.0761918934168
 20
367.3641836850963
 30
0.0
 10
306.7657693576144
 20
367.3650369909559
 30
0.0
 10
306.7633533711683
 20
367.3649302001303
 30
0.0
 10
306.7618645958809
 20
367.3648643936593
 30
0.0
  0
SPLINE
  5
12A
330
1F
100
AcDbEntity
  8
0
  6
Continuous
 62
     8
370
     0
100
AcDbSpline
210
0.0
220
0.0
230
1.0
 70
     8
 71
     3
 72
    32
 73
    28
 74
     0
 42
0.00000001
 43
0.00000001
 40
0.0
 40
0.0
 40
0.0
 40
0.0
 40
0.2499999999999951
 40
0.2499999999999951
 40
0.374999999999993
 40
0.374999999999993
 40
0.4999999999999909
 40
0.4999999999999909
 40
0.5624999999999907
 40
0.5624999999999907
 40
0.6249999999999905
 40
0.6249999999999905
 40
0.656249999999991
 40
0.656249999999991
 40
0.6874999999999917
 40
0.6874999999999917
 40
0.7187499999999922
 40
0.7187499999999922
 40
0.7499999999999928
 40
0.7499999999999928
 40
0.8124999999999946
 40
0.8124999999999946
 40
0.8749999999999963
 40
0.8749999999999963
 40
0.9374999999999981
 40
0.9374999999999981
 40
1.0
 40
1.0
 40
1.0
 40
1.0
 10
325.5432396465555
 20
366.1659595926339
 30
0.0
 10
323.3716260447122
 20
366.1600038384403
 30
0.0
 10
321.1999764719569
 20
366.1514055611559
 30
0.0
 10
317.9477686365452
 20
366.1273571924088
 30
0.0
 10
316.8655693804024
 20
366.1177077259231
 30
0.0
 10
314.7089555680886
 20
366.0917685956346
 30
0.0
 10
313.6342056529356
 20
366.0758763600293
 30
0.0
 10
312.0363771851585
 20
366.0375562491049
 30
0.0
 10
311.5062112898436
 20
366.0222755052699
 30
0.0
 10
310.4546688542092
 20
365.9823476941323
 30
0.0
 10
309.9359336985608
 20
365.9574222276788
 30
0.0
 10
309.197186946379
 20
365.9105265517
 30
0.0
 10
308.9569564694876
 20
365.8932841989865
 30
0.0
 10
308.4933180986521
 20
365.8554967974083
 30
0.0
 10
308.2717476691102
 20
365.8347888562718
 30
0.0
 10
307.8658120617914
 20
365.796285075129
 30
0.0
 10
307.6796120601352
 20
365.7783372519939
 30
0.0
 10
307.3426735496243
 20
365.7487969908634
 30
0.0
 10
307.1931830295557
 20
365.7373972733722
 30
0.0
 10
306.8103722145423
 20
365.7133709335965
 30
0.0
 10
306.6343980232597
 20
365.7094389879098
 30
0.0
 10
306.3899818792734
 20
365.7058273463056
 30
0.0
 10
306.3185189107878
 20
365.7061709825606
 30
0.0
 10
306.2249326230596
 20
365.7061917171827
 30
0.0
 10
306.2028820603077
 20
365.7061836284641
 30
0.0
 10
306.1783848922526
 20
365.7063477827438
 30
0.0
 10
306.176014774969
 20
365.7067563954374
 30
0.0
 10
306.1780941080477
 20
365.7065953732188
 30
0.0
  0
SPLINE
  5
12B
330
1F
100
AcDbEntity
  8
0
  6
Continuous
 62
     8
370
     0
100
AcDbSpline
210
0.0
220
0.0
230
1.0
 70
     8
 71
     3
 72
    12
 73
     8
 74
     0
 42
0.00000001
 43
0.00000001
 40
0.0
 40
0.0
 40
0.0
 40
0.0
 40
0.0768550740244106
 40
0.3076411382522549
 40
0.5384273139979079
 40
0.7692136012518855
 40
1.0
 40
1.0
 40
1.0
 40
1.0
 10
325.9594810201122
 20
367.2349439251538
 30
0.0
 10
325.9563126611841
 20
367.2420225090974
 30
0.0
 10
325.9436301212292
 20
367.2703571850997
 30
0.0
 10
325.9033115279598
 20
367.3093798866847
 30
0.0
 10
325.8422016436838
 20
367.3468070355462
 30
0.0
 10
325.7700163834169
 20
367.3675550324754
 30
0.0
 10
325.7188871771987
 20
367.3656588430796
 30
0.0
 10
325.6933225679144
 20
367.3647107481528
 30
0.0
  0
LINE
  5
12C
330
1F
100
AcDbEntity
  8
0
  6
Continuous
 62
     8
370
     0
100
AcDbLine
 10
324.489104327
 20
369.4498028665
 30
0.0
 11
324.4921075278
 21
369.4452501568
 31
0.0
  0
LINE
  5
12D
330
1F
100
AcDbEntity
  8
0
  6
Continuous
 62
     8
370
     0
100
AcDbLine
 10
341.8738378953
 20
453.6757775885
 30
0.0
 11
341.4789515231
 21
458.2819278166
 31
0.0
  0
SPLINE
  5
12E
330
1F
100
AcDbEntity
  8
0
  6
Continuous
 62
     7
370
    15
100
AcDbSpline
210
0.0
220
0.0
230
1.0
 70
     8
 71
     3
 72
    23
 73
    19
 74
     0
 42
0.00000001
 43
0.00000001
 40
0.0
 40
0.0
 40
0.0
 40
0.0
 40
0.0479447620621827
 40
0.1570610643770384
 40
0.2566142702043619
 40
0.3467017859246513
 40
0.4267009012254135
 40
0.497135880955093
 40
0.561538245745837
 40
0.6283377805742768
 40
0.6994447451972183
 40
0.7704642535746851
 40
0.8099062380694418
 40
0.8429181733670269
 40
0.8762447711365748
 40
0.9252604728193711
 40
0.9922470003748712
 40
1.0
 40
1.0
 40
1.0
 40
1.0
 10
208.4566499120848
 20
238.489784423101
 30
0.0
 10
207.8587819086441
 20
238.4971713016763
 30
0.0
 10
205.9002408514255
 20
238.5213697951418
 30
0.0
 10
202.739481149995
 20
238.3829920537371
 30
0.0
 10
199.2015970142157
 20
238.113707952529
 30
0.0
 10
196.1007919660374
 20
237.7314897473722
 30
0.0
 10
193.3644636921683
 20
237.2502862158819
 30
0.0
 10
190.9923480615861
 20
236.6784376782628
 30
0.0
 10
188.8073986029791
 20
235.9831624248128
 30
0.0
 10
186.5228275165394
 20
235.0066848371719
 30
0.0
 10
184.2700647996072
 20
233.6644260742345
 30
0.0
 10
182.5225468745113
 20
232.1958929846469
 30
0.0
 10
181.3147370494243
 20
230.8821513684243
 30
0.0
 10
180.5143203434493
 20
229.8557637101629
 30
0.0
 10
179.7388633682212
 20
228.7119568159359
 30
0.0
 10
178.8732590531611
 20
227.165222868725
 30
0.0
 10
178.2260621648217
 20
225.8470060778589
 30
0.0
 10
177.9454735558859
 20
225.0122626234512
 30
0.0
 10
177.9163670915831
 20
224.9256716864567
 30
0.0
  0
SPLINE
  5
12F
330
1F
100
AcDbEntity
  8
0
  6
Continuous
 62
     7
370
    15
100
AcDbSpline
210
0.0
220
0.0
230
1.0
 70
     8
 71
     3
 72
    24
 73
    20
 74
     0
 42
0.00000001
 43
0.00000001
 40
0.0
 40
0.0
 40
0.0
 40
0.0
 40
0.0152619295827397
 40
0.0469810308511432
 40
0.0683752899656046
 40
0.1033249091439713
 40
0.1495472241570341
 40
0.2061672090402362
 40
0.2902136016195131
 40
0.3668176821361938
 40
0.4394608576795044
 40
0.5092911612173625
 40
0.5758990139490363
 40
0.6387546948327197
 40
0.6936769228185894
 40
0.7633224929552215
 40
0.849023816488293
 40
0.9521248008526593
 40
0.9999999999999999
 40
0.9999999999999999
 40
0.9999999999999999
 40
0.9999999999999999
 10
239.0568108992277
 20
224.7797052832407
 30
0.0
 10
238.995586783589
 20
224.9476306036896
 30
0.0
 10
238.807119653659
 20
225.464557681483
 30
0.0
 10
238.4838295871654
 20
226.1972232078772
 30
0.0
 10
238.0458316732369
 20
227.1252349141878
 30
0.0
 10
237.4665659512267
 20
228.2185144214579
 30
0.0
 10
236.5749911597693
 20
229.6427642434337
 30
0.0
 10
235.1606808347636
 20
231.4532576652785
 30
0.0
 10
233.1623646148992
 20
233.3091485414959
 30
0.0
 10
230.6698029324459
 20
234.8736385190063
 30
0.0
 10
228.2201002577491
 20
235.9494295065515
 30
0.0
 10
225.8413427577208
 20
236.7063539596114
 30
0.0
 10
223.562638415775
 20
237.2430286362475
 30
0.0
 10
221.5168064111034
 20
237.6107833061436
 30
0.0
 10
219.3977443666787
 20
237.911845278768
 30
0.0
 10
216.8994766834315
 20
238.1822074455304
 30
0.0
 10
213.7834042859179
 20
238.3976351039917
 30
0.0
 10
210.8973889207932
 20
238.51837260226
 30
0.0
 10
209.0443399690506
 20
238.4960227514531
 30
0.0
 10
208.4567301518535
 20
238.4889355173384
 30
0.0
  0
SPLINE
  5
130
330
1F
100
AcDbEntity
  8
0
  6
Continuous
 62
     7
370
    15
100
AcDbSpline
210
0.0
220
0.0
230
1.0
 70
     8
 71
     3
 72
     9
 73
     5
 74
     0
 42
0.00000001
 43
0.00000001
 40
0.0
 40
0.0
 40
0.0
 40
0.0
 40
0.7801623214592321
 40
1.0
 40
1.0
 40
1.0
 40
1.0
 10
205.9872076210757
 20
238.6416008970865
 30
0.0
 10
205.967837198448
 20
238.6095726590593
 30
0.0
 10
205.9430084902486
 20
238.5685193588085
 30
0.0
 10
205.9528802482275
 20
238.5207583054588
 30
0.0
 10
205.9550504325847
 20
238.5102586263657
 30
0.0
  0
SPLINE
  5
131
330
1F
100
AcDbEntity
  8
0
  6
Continuous
 62
     7
370
    15
100
AcDbSpline
210
0.0
220
0.0
230
1.0
 70
     8
 71
     3
 72
    10
 73
     6
 74
     0
 42
0.00000001
 43
0.00000001
 40
0.0
 40
0.0
 40
0.0
 40
0.0
 40
0.4631412489082653
 40
0.8958414372427146
 40
1.0
 40
1.0
 40
1.0
 40
1.0
 10
210.9618146467024
 20
238.5317363227736
 30
0.0
 10
210.9552691473337
 20
238.5667823815045
 30
0.0
 10
210.9426083671166
 20
238.6345710133682
 30
0.0
 10
210.8965914690877
 20
238.6834987093943
 30
0.0
 10
210.8769808325258
 20
238.6959606881387
 30
0.0
 10
210.8731760780818
 20
238.6983784969059
 30
0.0
  0
LINE
  5
132
330
1F
100
AcDbEntity
  8
0
  6
Continuous
 62
     7
370
    15
100
AcDbLine
 10
241.3522907677
 20
208.2931084545
 30
0.0
 11
241.2891857326
 21
208.6662226797
 31
0.0
  0
LINE
  5
133
330
1F
100
AcDbEntity
  8
0
  6
Continuous
 62
     7
370
    15
100
AcDbLine
 10
175.6235047322
 20
208.6866388379
 30
0.0
 11
175.5611211066
 21
208.2931084553
 31
0.0
  0
SPLINE
  5
134
330
1F
100
AcDbEntity
  8
0
  6
Continuous
 62
     7
370
    15
100
AcDbSpline
210
0.0
220
0.0
230
1.0
 70
     8
 71
     3
 72
    28
 73
    24
 74
     0
 42
0.00000001
 43
0.00000001
 40
0.0
 40
0.0
 40
0.0
 40
0.0
 40
0.0678281519716723
 40
0.1390868860475624
 40
0.1880233149291395
 40
0.2299057475623367
 40
0.2673651250996322
 40
0.3017845973474572
 40
0.3317549055442854
 40
0.3606929741710787
 40
0.3913306060249718
 40
0.4214859261765642
 40
0.4505861083437151
 40
0.4806620804430772
 40
0.5133136412120536
 40
0.5488104576541947
 40
0.5894299452835553
 40
0.6357518892211652
 40
0.6870902126671916
 40
0.7470998975368779
 40
0.8245612886982535
 40
0.9092028087913094
 40
1.0
 40
1.0
 40
1.0
 40
1.0
 10
208.457972937895
 20
113.2764462350696
 30
0.0
 10
209.8084027183142
 20
113.2760208369314
 30
0.0
 10
212.5775637159901
 20
113.275148525057
 30
0.0
 10
216.3189878918186
 20
113.4082543666227
 30
0.0
 10
219.5403285669501
 20
113.6060055848682
 30
0.0
 10
222.0768535280087
 20
113.9189386994077
 30
0.0
 10
224.2992911594342
 20
114.3684564403739
 30
0.0
 10
226.2444495492894
 20
114.9504746923387
 30
0.0
 10
227.9706905118838
 20
115.6464988528519
 30
0.0
 10
229.5379785430989
 20
116.5048380210683
 30
0.0
 10
230.9928559111057
 20
117.5497688206186
 30
0.0
 10
232.3018407916309
 20
118.7779830209259
 30
0.0
 10
233.4335088103322
 20
120.1551096471172
 30
0.0
 10
234.439048448887
 20
121.6853969025345
 30
0.0
 10
235.3498205291874
 20
123.4189289905115
 30
0.0
 10
236.1926691932503
 20
125.4155669518547
 30
0.0
 10
236.9872466787246
 20
127.7217642802903
 30
0.0
 10
237.7084133902354
 20
130.3804932119375
 30
0.0
 10
238.3549877226067
 20
133.4532071876181
 30
0.0
 10
238.9857453019986
 20
137.1595991065589
 30
0.0
 10
239.5549078188081
 20
141.545648872909
 30
0.0
 10
240.0513309378462
 20
146.5568058129826
 30
0.0
 10
240.279986101935
 20
150.0421728876415
 30
0.0
 10
240.3983251304229
 20
151.846002489228
 30
0.0
  0
SPLINE
  5
135
330
1F
100
AcDbEntity
  8
0
  6
Continuous
 62
     7
370
    15
100
AcDbSpline
210
0.0
220
0.0
230
1.0
 70
     8
 71
     3
 72
    28
 73
    24
 74
     0
 42
0.00000001
 43
0.00000001
 40
0.0
 40
0.0
 40
0.0
 40
0.0
 40
0.0859259886448287
 40
0.1797059761182321
 40
0.2553589433416793
 40
0.3257852714275272
 40
0.3783061410204601
 40
0.4229608814529697
 40
0.4632198498417618
 40
0.5005853037026581
 40
0.5328072176050036
 40
0.5630168601821522
 40
0.5916411210892343
 40
0.6191629302326805
 40
0.6481862753029697
 40
0.6768997135536168
 40
0.707396922205932
 40
0.7401701279426376
 40
0.7768511833480926
 40
0.8200466833791187
 40
0.8683864271950402
 40
0.9265790539670267
 40
1.0
 40
1.0
 40
1.0
 40
1.0
 10
176.5100290861527
 20
151.8507313803163
 30
0.0
 10
176.6228665525322
 20
150.1435156027792
 30
0.0
 10
176.8588553070202
 20
146.5730373041254
 30
0.0
 10
177.3632626867019
 20
141.5127182357995
 30
0.0
 10
177.9782515468343
 20
136.7755727739818
 30
0.0
 10
178.6713827721966
 20
132.881098153793
 30
0.0
 10
179.3904659357385
 20
129.6211963279587
 30
0.0
 10
180.1407678086967
 20
126.9875192733374
 30
0.0
 10
180.9807277837164
 20
124.6995987046829
 30
0.0
 10
181.9062717208219
 20
122.7150806048761
 30
0.0
 10
182.9006231458744
 20
120.9913475287247
 30
0.0
 10
183.9713953175937
 20
119.5237418526639
 30
0.0
 10
185.1362666829727
 20
118.2539408834143
 30
0.0
 10
186.4269249095423
 20
117.1473349966731
 30
0.0
 10
187.8514680311018
 20
116.215356273512
 30
0.0
 10
189.4285448378001
 20
115.4334369037869
 30
0.0
 10
191.1490687004858
 20
114.7965618035625
 30
0.0
 10
193.0745232702942
 20
114.2849546680747
 30
0.0
 10
195.279405040946
 20
113.8648564440829
 30
0.0
 10
197.816261506857
 20
113.5628286418988
 30
0.0
 10
200.7931053220234
 20
113.3853633064186
 30
0.0
 10
204.3753007598384
 20
113.2976179076164
 30
0.0
 10
206.9958108272639
 20
113.2812158569595
 30
0.0
 10
208.4576686291521
 20
113.2720659338136
 30
0.0
  0
SPLINE
  5
136
330
1F
100
AcDbEntity
  8
0
  6
Continuous
 62
     7
370
    15
100
AcDbSpline
210
0.0
220
0.0
230
1.0
 70
     8
 71
     3
 72
    11
 73
     7
 74
     0
 42
0.00000001
 43
0.00000001
 40
0.0
 40
0.0
 40
0.0
 40
0.0
 40
0.1084981134609849
 40
0.4388308390557543
 40
0.7456245437752433
 40
1.0
 40
1.0
 40
1.0
 40
1.0
 10
240.870617676652
 20
160.8585594020187
 30
0.0
 10
240.9021271368428
 20
161.5740506003142
 30
0.0
 10
241.0295701163807
 20
164.4679221421259
 30
0.0
 10
241.1872856753581
 20
169.3863443330689
 30
0.0
 10
241.3466703863183
 20
175.2650608816774
 30
0.0
 10
241.4250091370259
 20
178.9544262458909
 30
0.0
 10
241.4605197403132
 20
180.6267989688012
 30
0.0
  0
SPLINE
  5
137
330
1F
100
AcDbEntity
  8
0
  6
Continuous
 62
     7
370
    15
100
AcDbSpline
210
0.0
220
0.0
230
1.0
 70
     8
 71
     3
 72
    12
 73
     8
 74
     0
 42
0.00000001
 43
0.00000001
 40
0.0
 40
0.0
 40
0.0
 40
0.0
 40
0.0072195086770876
 40
0.3057760828118302
 40
0.6155381503392564
 40
0.9544931406940574
 40
1.0
 40
1.0
 40
1.0
 40
1.0
 10
175.4523081575268
 20
180.6278320561263
 30
0.0
 10
175.4531539569223
 20
180.5804224985183
 30
0.0
 10
175.4889770631141
 20
178.572431447935
 30
0.0
 10
175.5873005971722
 20
174.5192169690355
 30
0.0
 10
175.7589322078876
 20
168.2738077969753
 30
0.0
 10
175.9134091821654
 20
163.6938043233546
 30
0.0
 10
176.0251301880198
 20
161.1584833390608
 30
0.0
 10
176.0383540543135
 20
160.8583898566269
 30
0.0
  0
LINE
  5
138
330
1F
100
AcDbEntity
  8
0
  6
Continuous
 62
     7
370
    15
100
AcDbLine
 10
175.4467808547
 20
181.0392639499
 30
0.0
 11
175.4553504357
 21
180.6261122548
 31
0.0
  0
LINE
  5
139
330
1F
100
AcDbEntity
  8
0
  6
Continuous
 62
     7
370
    15
100
AcDbLine
 10
241.4582856928
 20
180.6259189461
 30
0.0
 11
241.466916097
 21
181.038375071
 31
0.0
  0
SPLINE
  5
13A
330
1F
100
AcDbEntity
  8
0
  6
Continuous
 62
     7
370
    15
100
AcDbSpline
210
0.0
220
0.0
230
1.0
 70
     8
 71
     3
 72
     9
 73
     5
 74
     0
 42
0.00000001
 43
0.00000001
 40
0.0
 40
0.0
 40
0.0
 40
0.0
 40
0.6871670988862886
 40
1.0
 40
1.0
 40
1.0
 40
1.0
 10
240.4069661168742
 20
151.8453340558387
 30
0.0
 10
240.5227925811466
 20
153.6850793372753
 30
0.0
 10
240.6913490566532
 20
156.3623688705172
 30
0.0
 10
240.801614528163
 20
159.0424658623586
 30
0.0
 10
240.8361091955081
 20
159.8808883795824
 30
0.0
  0
SPLINE
  5
13B
330
1F
100
AcDbEntity
  8
0
  6
Continuous
 62
     7
370
    15
100
AcDbSpline
210
0.0
220
0.0
230
1.0
 70
     8
 71
     3
 72
     9
 73
     5
 74
     0
 42
0.00000001
 43
0.00000001
 40
0.0
 40
0.0
 40
0.0
 40
0.0
 40
0.3963682030240328
 40
1.0
 40
1.0
 40
1.0
 40
1.0
 10
176.0798275251726
 20
159.877266787001
 30
0.0
 10
176.1226764469096
 20
158.8160607347525
 30
0.0
 10
176.2307802791798
 20
156.1387368622721
 30
0.0
 10
176.4059211967276
 20
153.4648101768302
 30
0.0
 10
176.511641823511
 20
151.850743006715
 30
0.0
  0
SPLINE
  5
13C
330
1F
100
AcDbEntity
  8
0
  6
Continuous
 62
     7
370
    15
100
AcDbSpline
210
0.0
220
0.0
230
1.0
 70
     8
 71
     3
 72
     9
 73
     5
 74
     0
 42
0.00000001
 43
0.00000001
 40
0.0
 40
0.0
 40
0.0
 40
0.0
 40
0.7001560013046715
 40
1.0
 40
1.0
 40
1.0
 40
1.0
 10
240.8412442523562
 20
159.8807256367557
 30
0.0
 10
240.8510225384773
 20
160.108836227044
 30
0.0
 10
240.864988406231
 20
160.4346358914947
 30
0.0
 10
240.8784905539285
 20
160.7604447825103
 30
0.0
 10
240.8825390918851
 20
160.8581366232029
 30
0.0
  0
LINE
  5
13D
330
1F
100
AcDbEntity
  8
0
  6
Continuous
 62
     7
370
    15
100
AcDbLine
 10
176.0316830306
 20
160.8581583168
 30
0.0
 11
176.0726411949
 21
159.8769943259
 31
0.0
  0
LINE
  5
13E
330
1F
100
AcDbEntity
  8
0
  6
Continuous
 62
     7
370
    15
100
AcDbLine
 10
195.6183059364
 20
113.8556348381
 30
0.0
 11
195.6183059364
 21
111.4568584943
 31
0.0
  0
LINE
  5
13F
330
1F
100
AcDbEntity
  8
0
  6
Continuous
 62
     7
370
    15
100
AcDbLine
 10
221.2951059364
 20
111.4568584943
 30
0.0
 11
221.2951059364
 21
113.8529890147
 31
0.0
  0
LINE
  5
140
330
1F
100
AcDbEntity
  8
0
  6
Continuous
 62
     7
370
    15
100
AcDbLine
 10
220.4927059364
 20
107.4448584943
 30
0.0
 11
220.4927059364
 21
111.4568584943
 31
0.0
  0
LINE
  5
141
330
1F
100
AcDbEntity
  8
0
  6
Continuous
 62
     7
370
    15
100
AcDbLine
 10
196.4207059364
 20
111.4568584943
 30
0.0
 11
196.4207059364
 21
107.4448584943
 31
0.0
  0
LINE
  5
142
330
1F
100
AcDbEntity
  8
0
  6
Continuous
 62
     7
370
    15
100
AcDbLine
 10
199.5300059364
 20
103.4328584943
 30
0.0
 11
199.5300059364
 21
103.2322584943
 31
0.0
  0
LINE
  5
143
330
1F
100
AcDbEntity
  8
0
  6
Continuous
 62
     7
370
    15
100
AcDbLine
 10
217.3834059364
 20
103.2322584943
 30
0.0
 11
217.3834059364
 21
103.4328584943
 31
0.0
  0
LINE
  5
144
330
1F
100
AcDbEntity
  8
0
  6
Continuous
 62
     7
370
    15
100
AcDbLine
 10
184.2033794987
 20
249.2156373112
 30
0.0
 11
183.1545017579
 21
232.6325327106
 31
0.0
  0
SPLINE
  5
145
330
1F
100
AcDbEntity
  8
0
  6
Continuous
 62
     7
370
    15
100
AcDbSpline
210
0.0
220
0.0
230
1.0
 70
     8
 71
     3
 72
    18
 73
    14
 74
     0
 42
0.00000001
 43
0.00000001
 40
0.0
 40
0.0
 40
0.0
 40
0.0
 40
0.0669616106074162
 40
0.1668384953639863
 40
0.2552459984276352
 40
0.337884709772196
 40
0.4147039607814368
 40
0.4954228652724349
 40
0.572559948053781
 40
0.6628143461035321
 40
0.7698467384308436
 40
0.9285109031022842
 40
1.0
 40
1.0
 40
1.0
 40
1.0
 10
217.806696647777
 20
268.9159290336848
 30
0.0
 10
217.7458549002457
 20
269.1805089053032
 30
0.0
 10
217.5942643766402
 20
269.8397240478901
 30
0.0
 10
217.2392516478933
 20
270.8148743219992
 30
0.0
 10
216.7398844923973
 20
271.7970540195776
 30
0.0
 10
216.1237007158202
 20
272.5982606318503
 30
0.0
 10
215.3856109170385
 20
273.2440579232136
 30
0.0
 10
214.5386554291185
 20
273.6925915683265
 30
0.0
 10
213.5804119256645
 20
274.007475093768
 30
0.0
 10
212.483242061823
 20
274.2044276718086
 30
0.0
 10
211.0462208869008
 20
274.3368385245028
 30
0.0
 10
209.6792469265073
 20
274.3797479621455
 30
0.0
 10
208.7467148736507
 20
274.3642311698595
 30
0.0
 10
208.4570562616789
 20
274.3594114186218
 30
0.0
  0
SPLINE
  5
146
330
1F
100
AcDbEntity
  8
0
  6
Continuous
 62
     7
370
    15
100
AcDbSpline
210
0.0
220
0.0
230
1.0
 70
     8
 71
     3
 72
    18
 73
    14
 74
     0
 42
0.00000001
 43
0.00000001
 40
0.0
 40
0.0
 40
0.0
 40
0.0
 40
0.1466276410097609
 40
0.2762551776132892
 40
0.3771042636958613
 40
0.4663467991830373
 40
0.545532392341976
 40
0.6233721919409339
 40
0.7016141881598996
 40
0.7830400984375628
 40
0.869765497764028
 40
0.9695180789925527
 40
1.0
 40
1.0
 40
1.0
 40
1.0
 10
208.4570997862981
 20
274.3585851700046
 30
0.0
 10
207.8613953004542
 20
274.3647131283328
 30
0.0
 10
206.7390526956867
 20
274.3762585655007
 30
0.0
 10
205.2088806850416
 20
274.2861288740788
 30
0.0
 10
203.918060013405
 20
274.1312558282744
 30
0.0
 10
202.8516201216979
 20
273.872427012957
 30
0.0
 10
201.924919977146
 20
273.4817453429972
 30
0.0
 10
201.1322034011571
 20
272.9339657846492
 30
0.0
 10
200.4733339674156
 20
272.2206396226132
 30
0.0
 10
199.9321428206382
 20
271.3726684687622
 30
0.0
 10
199.5055070309029
 20
270.3689812210314
 30
0.0
 10
199.2299783767989
 20
269.5292859422914
 30
0.0
 10
199.1201416374063
 20
269.011708118408
 30
0.0
 10
199.0944338967047
 20
268.8905668995147
 30
0.0
  0
LINE
  5
147
330
1F
100
AcDbEntity
  8
0
  6
Continuous
 62
     7
370
    15
100
AcDbLine
 10
233.7600080514
 20
232.6151739693
 30
0.0
 11
232.7100323741
 21
249.2156373112
 31
0.0
  0
SPLINE
  5
148
330
1F
100
AcDbEntity
  8
0
  6
Continuous
 62
     7
370
    15
100
AcDbSpline
210
0.0
220
0.0
230
1.0
 70
     8
 71
     3
 72
    14
 73
    10
 74
     0
 42
0.00000001
 43
0.00000001
 40
0.0
 40
0.0
 40
0.0
 40
0.0
 40
0.0754500498886627
 40
0.3639663721677942
 40
0.5471926068706765
 40
0.7040847826892076
 40
0.8528630773317127
 40
0.9939996243183085
 40
1.0
 40
1.0
 40
1.0
 40
1.0
 10
218.1630663465684
 20
254.4166012295764
 30
0.0
 10
218.1990253996189
 20
254.4065880736369
 30
0.0
 10
218.3724896465574
 20
254.358285228952
 30
0.0
 10
218.6041466267133
 20
254.3425639323611
 30
0.0
 10
218.8500210278507
 20
254.4026596227296
 30
0.0
 10
219.0150492409123
 20
254.5376553751811
 30
0.0
 10
219.0868889262491
 20
254.7159680058917
 30
0.0
 10
219.0938292197579
 20
254.8423682146828
 30
0.0
 10
219.0751166074651
 20
254.8945064478122
 30
0.0
 10
219.0743534903515
 20
254.8966326917249
 30
0.0
  0
SPLINE
  5
149
330
1F
100
AcDbEntity
  8
0
  6
Continuous
 62
     7
370
    15
100
AcDbSpline
210
0.0
220
0.0
230
1.0
 70
     8
 71
     3
 72
    14
 73
    10
 74
     0
 42
0.00000001
 43
0.00000001
 40
0.0
 40
0.0
 40
0.0
 40
0.0
 40
0.0892393282892429
 40
0.2401021711470597
 40
0.3957443243036579
 40
0.5344541916194194
 40
0.700156303891789
 40
0.9583831269361163
 40
0.9999999999999999
 40
0.9999999999999999
 40
0.9999999999999999
 40
0.9999999999999999
 10
197.8527482946365
 20
254.8970247545585
 30
0.0
 10
197.8419058471104
 20
254.8632048287087
 30
0.0
 10
197.8127337854033
 20
254.7722108938569
 30
0.0
 10
197.8639736842595
 20
254.593433244421
 30
0.0
 10
197.9972914463112
 20
254.44429400787
 30
0.0
 10
198.1805033797268
 20
254.3662743134601
 30
0.0
 10
198.4126045662236
 20
254.348172375528
 30
0.0
 10
198.6295801889998
 20
254.3734036839872
 30
0.0
 10
198.780254740251
 20
254.423559040695
 30
0.0
 10
198.801167648392
 20
254.4305203646804
 30
0.0
  0
SPLINE
  5
14A
330
1F
100
AcDbEntity
  8
0
  6
Continuous
 62
     7
370
    15
100
AcDbSpline
210
0.0
220
0.0
230
1.0
 70
     8
 71
     3
 72
    13
 73
     9
 74
     0
 42
0.00000001
 43
0.00000001
 40
0.0
 40
0.0
 40
0.0
 40
0.0
 40
0.092927709358949
 40
0.2722126575220726
 40
0.4535734971346987
 40
0.6351488135483657
 40
0.8171440250313678
 40
1.0
 40
1.0
 40
1.0
 40
1.0
 10
237.6657692503306
 20
227.4443886022678
 30
0.0
 10
237.7596895771931
 20
227.3093011089958
 30
0.0
 10
238.0348099040253
 20
226.9135900149071
 30
0.0
 10
238.4176438383583
 20
226.2202506457999
 30
0.0
 10
238.834703113853
 20
225.3587858257597
 30
0.0
 10
239.20197424181
 20
224.443951978952
 30
0.0
 10
239.5325395857657
 20
223.478939225006
 30
0.0
 10
239.7231334366271
 20
222.7849791187943
 30
0.0
 10
239.8186551882794
 20
222.4371804641023
 30
0.0
  0
SPLINE
  5
14B
330
1F
100
AcDbEntity
  8
0
  6
Continuous
 62
     7
370
    15
100
AcDbSpline
210
0.0
220
0.0
230
1.0
 70
     8
 71
     3
 72
    12
 73
     8
 74
     0
 42
0.00000001
 43
0.00000001
 40
0.0
 40
0.0
 40
0.0
 40
0.0
 40
0.1898689806360096
 40
0.3803147914305971
 40
0.5710348890382752
 40
0.7622917309152791
 40
1.0
 40
1.0
 40
1.0
 40
1.0
 10
177.0947572236356
 20
222.4371825284524
 30
0.0
 10
177.1961108569706
 20
222.804847704696
 30
0.0
 10
177.3991260403536
 20
223.5412950398583
 30
0.0
 10
177.7539341857678
 20
224.5638355491606
 30
0.0
 10
178.1586810656742
 20
225.5331441101696
 30
0.0
 10
178.6419167430949
 20
226.5316250242128
 30
0.0
 10
179.0800708219582
 20
227.1680945061434
 30
0.0
 10
179.3228710987581
 20
227.5207899935125
 30
0.0
  0
SPLINE
  5
14C
330
1F
100
AcDbEntity
  8
0
  6
Continuous
 62
     7
370
    15
100
AcDbSpline
210
0.0
220
0.0
230
1.0
 70
     8
 71
     3
 72
    20
 73
    16
 74
     0
 42
0.00000001
 43
0.00000001
 40
0.0
 40
0.0
 40
0.0
 40
0.0
 40
0.2500000000000002
 40
0.2500000000000002
 40
0.3750000000000002
 40
0.3750000000000002
 40
0.5000000000000002
 40
0.5000000000000002
 40
0.7500000000000002
 40
0.7500000000000002
 40
0.8125000000000001
 40
0.8125000000000001
 40
0.8750000000000001
 40
0.8750000000000001
 40
1.0
 40
1.0
 40
1.0
 40
1.0
 10
176.2677059275816
 20
207.5250486602889
 30
0.0
 10
178.4465747952793
 20
205.6574718479615
 30
0.0
 10
180.7822801036357
 20
204.0199592951071
 30
0.0
 10
184.5510258106701
 20
201.9526958640822
 30
0.0
 10
185.8510931621786
 20
201.3277777912681
 30
0.0
 10
188.5392367479702
 20
200.207475885898
 30
0.0
 10
189.9031192708793
 20
199.7219814294433
 30
0.0
 10
194.0477426627203
 20
198.4651368081677
 30
0.0
 10
196.8812644954986
 20
197.8926910666458
 30
0.0
 10
200.4918430485301
 20
197.4359395519291
 30
0.0
 10
201.2181242027995
 20
197.3575633439228
 30
0.0
 10
202.6677155007219
 20
197.2260085422867
 30
0.0
 10
203.3921366535526
 20
197.1726607748312
 30
0.0
 10
205.5643668171017
 20
197.0469128262769
 30
0.0
 10
207.0111523711427
 20
197.0084814641479
 30
0.0
 10
208.4567059363004
 20
197.0109401643687
 30
0.0
  0
SPLINE
  5
14D
330
1F
100
AcDbEntity
  8
0
  6
Continuous
 62
     7
370
    15
100
AcDbSpline
210
0.0
220
0.0
230
1.0
 70
     8
 71
     3
 72
    20
 73
    16
 74
     0
 42
0.00000001
 43
0.00000001
 40
0.0
 40
0.0
 40
0.0
 40
0.0
 40
0.125
 40
0.125
 40
0.25
 40
0.25
 40
0.5
 40
0.5
 40
0.5625
 40
0.5625
 40
0.625
 40
0.625
 40
0.75
 40
0.75
 40
1.0
 40
1.0
 40
1.0
 40
1.0
 10
208.4567059364487
 20
197.0109401643687
 30
0.0
 10
209.916387260406
 20
197.0084574346519
 30
0.0
 10
211.3708812770624
 20
197.0477836545733
 30
0.0
 10
214.2612002578529
 20
197.2158926050447
 30
0.0
 10
215.6981581572884
 20
197.3448676157445
 30
0.0
 10
219.9809964171032
 20
197.8853441862237
 30
0.0
 10
222.7990538135216
 20
198.4492335504497
 30
0.0
 10
226.2596851082457
 20
199.4933462901288
 30
0.0
 10
226.9486970883776
 20
199.719225903279
 30
0.0
 10
228.3200380760861
 20
200.2075881139458
 30
0.0
 10
229.0047912063809
 20
200.4711346984257
 30
0.0
 10
231.0255803970334
 20
201.3108491059844
 30
0.0
 10
232.3292673775884
 20
201.935902301797
 30
0.0
 10
236.1104102324144
 20
204.0058938407784
 30
0.0
 10
238.4561707576002
 20
205.6483294108207
 30
0.0
 10
240.6457059451678
 20
207.5250486602891
 30
0.0
  0
SPLINE
  5
14E
330
1F
100
AcDbEntity
  8
0
  6
Continuous
 62
     7
370
    15
100
AcDbSpline
210
0.0
220
0.0
230
1.0
 70
     8
 71
     3
 72
    14
 73
    10
 74
     0
 42
0.00000001
 43
0.00000001
 40
0.0
 40
0.0
 40
0.0
 40
0.0
 40
0.5000000000000002
 40
0.5000000000000002
 40
0.625
 40
0.625
 40
0.7499999999999999
 40
0.7499999999999999
 40
1.0
 40
1.0
 40
1.0
 40
1.0
 10
175.5813945166934
 20
209.6657275550531
 30
0.0
 10
175.7004075762713
 20
212.2435152544636
 30
0.0
 10
175.864833978291
 20
214.6091750362875
 30
0.0
 10
176.1667495757611
 20
217.2897872229882
 30
0.0
 10
176.2323043451716
 20
217.8135044888728
 30
0.0
 10
176.3736873353599
 20
218.826097731243
 30
0.0
 10
176.4494439646873
 20
219.3149225902266
 30
0.0
 10
176.6936964593411
 20
220.7320581360315
 30
0.0
 10
176.8789924007615
 20
221.6110655927254
 30
0.0
 10
177.0947572236356
 20
222.4371825284524
 30
0.0
  0
SPLINE
  5
14F
330
1F
100
AcDbEntity
  8
0
  6
Continuous
 62
     7
370
    15
100
AcDbSpline
210
0.0
220
0.0
230
1.0
 70
     8
 71
     3
 72
    14
 73
    10
 74
     0
 42
0.00000001
 43
0.00000001
 40
0.0
 40
0.0
 40
0.0
 40
0.0
 40
0.25
 40
0.25
 40
0.5
 40
0.5
 40
0.75
 40
0.75
 40
1.0
 40
1.0
 40
1.0
 40
1.0
 10
239.8186551882794
 20
222.4371804641023
 30
0.0
 10
240.0341918104519
 20
221.6119369762544
 30
0.0
 10
240.2186229512704
 20
220.7365904895827
 30
0.0
 10
240.5420034048987
 20
218.8639474084613
 30
0.0
 10
240.6809127987651
 20
217.8663368971998
 30
0.0
 10
240.9220633378202
 20
215.7393506453768
 30
0.0
 10
241.0243362334556
 20
214.6090596463217
 30
0.0
 10
241.1999491568874
 20
212.2118928409845
 30
0.0
 10
241.2721348279527
 20
210.9627654171238
 30
0.0
 10
241.3320173560554
 20
209.665727555061
 30
0.0
  0
SPLINE
  5
150
330
1F
100
AcDbEntity
  8
0
  6
Continuous
 62
     7
370
    15
100
AcDbSpline
210
0.0
220
0.0
230
1.0
 70
     8
 71
     3
 72
    14
 73
    10
 74
     0
 42
0.00000001
 43
0.00000001
 40
0.0
 40
0.0
 40
0.0
 40
0.0
 40
0.2500000000000007
 40
0.2500000000000007
 40
0.5000000000000004
 40
0.5000000000000004
 40
0.7500000000000002
 40
0.7500000000000002
 40
1.0
 40
1.0
 40
1.0
 40
1.0
 10
176.2677059275819
 20
207.5250486602992
 30
0.0
 10
176.1154977328877
 20
207.6555110755786
 30
0.0
 10
175.9933610638357
 20
207.8085065708744
 30
0.0
 10
175.7917093334044
 20
208.1464346206944
 30
0.0
 10
175.7157369005045
 20
208.3270080065334
 30
0.0
 10
175.6063270697232
 20
208.6986712512232
 30
0.0
 10
175.5725217187739
 20
208.8929462004308
 30
0.0
 10
175.5464364989687
 20
209.27894853155
 30
0.0
 10
175.5534124223964
 20
209.4722044057888
 30
0.0
 10
175.5813945166928
 20
209.6657275550548
 30
0.0
  0
SPLINE
  5
151
330
1F
100
AcDbEntity
  8
0
  6
Continuous
 62
     7
370
    15
100
AcDbSpline
210
0.0
220
0.0
230
1.0
 70
     8
 71
     3
 72
    14
 73
    10
 74
     0
 42
0.00000001
 43
0.00000001
 40
0.0
 40
0.0
 40
0.0
 40
0.0
 40
0.25
 40
0.25
 40
0.5
 40
0.5
 40
0.75
 40
0.75
 40
1.0
 40
1.0
 40
1.0
 40
1.0
 10
241.3320173560546
 20
209.6657275550777
 30
0.0
 10
241.3600065196454
 20
209.4721555148309
 30
0.0
 10
241.3669311549582
 20
209.2791949406554
 30
0.0
 10
241.3410508261498
 20
208.894427072507
 30
0.0
 10
241.307484567787
 20
208.7003478799326
 30
0.0
 10
241.1979362700148
 20
208.327578911042
 30
0.0
 10
241.1227782855281
 20
208.148521894688
 30
0.0
 10
240.9205540407874
 20
207.809067560862
 30
0.0
 10
240.7978573190226
 20
207.6554623726493
 30
0.0
 10
240.6457059451799
 20
207.5250486603001
 30
0.0
  0
ARC
  5
152
330
1F
100
AcDbEntity
  8
0
  6
Continuous
 62
     7
370
    15
100
AcDbCircle
 10
208.4834818388
 20
228.8257411517
 30
0.0
 40
10.17295835145298
100
AcDbArc
 50
77.1024416349
 51
103.2817000101
  0
SPLINE
  5
153
330
1F
100
AcDbEntity
  8
0
  6
Continuous
 62
     7
370
    15
100
AcDbSpline
210
0.0
220
0.0
230
1.0
 70
     8
 71
     3
 72
     8
 73
     4
 74
     0
 42
0.00000001
 43
0.00000001
 40
0.0
 40
0.0
 40
0.0
 40
0.0
 40
1.0
 40
1.0
 40
1.0
 40
1.0
 10
241.3895805765083
 20
208.2297086891489
 30
0.0
 10
241.4039065391711
 20
207.8543250646725
 30
0.0
 10
241.4171547454287
 20
207.4753663897691
 30
0.0
 10
241.429269911398
 20
207.0929162177287
 30
0.0
  0
SPLINE
  5
154
330
1F
100
AcDbEntity
  8
0
  6
Continuous
 62
     7
370
    15
100
AcDbSpline
210
0.0
220
0.0
230
1.0
 70
     8
 71
     3
 72
     8
 73
     4
 74
     0
 42
0.00000001
 43
0.00000001
 40
0.0
 40
0.0
 40
0.0
 40
0.0
 40
1.0
 40
1.0
 40
1.0
 40
1.0
 10
175.4841419613511
 20
207.0929162177286
 30
0.0
 10
175.4962738679663
 20
207.4758948565631
 30
0.0
 10
175.5095252213958
 20
207.8548461857529
 30
0.0
 10
175.5238312962413
 20
208.2297086891629
 30
0.0
  0
SPLINE
  5
155
330
1F
100
AcDbEntity
  8
0
  6
Continuous
 62
     7
370
    15
100
AcDbSpline
210
0.0
220
0.0
230
1.0
 70
     8
 71
     3
 72
    21
 73
    17
 74
     0
 42
0.00000001
 43
0.00000001
 40
0.0
 40
0.0
 40
0.0
 40
0.0
 40
0.0312499999999998
 40
0.0312499999999998
 40
0.0624999999999996
 40
0.1249999999999994
 40
0.1249999999999994
 40
0.2499999999999994
 40
0.2499999999999994
 40
0.3749999999999995
 40
0.3749999999999995
 40
0.4999999999999996
 40
0.4999999999999996
 40
0.7499999999999998
 40
0.7499999999999998
 40
1.0
 40
1.0
 40
1.0
 40
1.0
 10
241.4290384899811
 20
207.0926901660762
 30
0.0
 10
241.4368935061943
 20
206.8445275907621
 30
0.0
 10
241.4444418034717
 20
206.5931930186012
 30
0.0
 10
241.45876591079
 20
206.09049474709
 30
0.0
 10
241.4791918988242
 20
205.3332776541638
 30
0.0
 10
241.4966023145257
 20
204.5668370918911
 30
0.0
 10
241.5277762530921
 20
203.0223972950602
 30
0.0
 10
241.5437058499703
 20
201.9773808365156
 30
0.0
 10
241.5674777111053
 20
199.8601322359227
 30
0.0
 10
241.5753207446474
 20
198.7864154486502
 30
0.0
 10
241.5845330240057
 20
196.624410605257
 30
0.0
 10
241.5859301985941
 20
195.5354864206941
 30
0.0
 10
241.5813740437808
 20
192.2476020150611
 30
0.0
 10
241.5667801372705
 20
190.0244665257264
 30
0.0
 10
241.5209675104604
 20
185.558583503326
 30
0.0
 10
241.4896686702646
 20
183.3140726482344
 30
0.0
 10
241.4522650677515
 20
181.0612339296461
 30
0.0
  0
SPLINE
  5
156
330
1F
100
AcDbEntity
  8
0
  6
Continuous
 62
     7
370
    15
100
AcDbSpline
210
0.0
220
0.0
230
1.0
 70
     8
 71
     3
 72
    18
 73
    14
 74
     0
 42
0.00000001
 43
0.00000001
 40
0.0
 40
0.0
 40
0.0
 40
0.0
 40
0.2500000000000001
 40
0.2500000000000001
 40
0.5000000000000002
 40
0.5000000000000002
 40
0.6250000000000001
 40
0.6250000000000001
 40
0.7500000000000001
 40
0.7500000000000001
 40
0.875
 40
0.875
 40
1.0
 40
1.0
 40
1.0
 40
1.0
 10
175.4611468049793
 20
181.0612339307549
 30
0.0
 10
175.423742953494
 20
183.314087645192
 30
0.0
 10
175.3924301922441
 20
185.5596651324883
 30
0.0
 10
175.3466207342485
 20
190.0258387945773
 30
0.0
 10
175.3320330288618
 20
192.2486969993571
 30
0.0
 10
175.3274821386212
 20
195.5363364728874
 30
0.0
 10
175.3288807330124
 20
196.6251797661216
 30
0.0
 10
175.3380951180342
 20
198.7870246796652
 30
0.0
 10
175.3459389061059
 20
199.8606610100747
 30
0.0
 10
175.3697113815614
 20
201.9777518660116
 30
0.0
 10
175.3856408174561
 20
203.0226911478563
 30
0.0
 10
175.4272045028173
 20
205.0817939357459
 30
0.0
 10
175.4528708977459
 20
206.0974359867605
 30
0.0
 10
175.4843733827681
 20
207.0926901660762
 30
0.0
  0
SPLINE
  5
157
330
1F
100
AcDbEntity
  8
0
  6
Continuous
 62
     7
370
    15
100
AcDbSpline
210
0.0
220
0.0
230
1.0
 70
     8
 71
     3
 72
    11
 73
     7
 74
     0
 42
0.00000001
 43
0.00000001
 40
0.0
 40
0.0
 40
0.0
 40
0.0
 40
0.2592864333744218
 40
0.4847945987892738
 40
0.7488161533155989
 40
1.0
 40
1.0
 40
1.0
 40
1.0
 10
175.504953354229
 20
207.7389967789249
 30
0.0
 10
175.5030504129598
 20
207.782766186243
 30
0.0
 10
175.4994924340981
 20
207.8646029872812
 30
0.0
 10
175.5008680320402
 20
207.9892942150383
 30
0.0
 10
175.5072407628008
 20
208.1103960932547
 30
0.0
 10
175.5183937538703
 20
208.1906040215538
 30
0.0
 10
175.5238312962413
 20
208.2297086891628
 30
0.0
  0
SPLINE
  5
158
330
1F
100
AcDbEntity
  8
0
  6
Continuous
 62
     7
370
    15
100
AcDbSpline
210
0.0
220
0.0
230
1.0
 70
     8
 71
     3
 72
     9
 73
     5
 74
     0
 42
0.00000001
 43
0.00000001
 40
0.0
 40
0.0
 40
0.0
 40
0.0
 40
0.8864538576447472
 40
1.0
 40
1.0
 40
1.0
 40
1.0
 10
175.5238312962422
 20
208.2297086891599
 30
0.0
 10
175.5228455497658
 20
208.2507617501659
 30
0.0
 10
175.5217335387255
 20
208.2745115041147
 30
0.0
 10
175.5591070577803
 20
208.2907307217415
 30
0.0
 10
175.5633506766952
 20
208.292572351335
 30
0.0
  0
SPLINE
  5
159
330
1F
100
AcDbEntity
  8
0
  6
Continuous
 62
     7
370
    15
100
AcDbSpline
210
0.0
220
0.0
230
1.0
 70
     8
 71
     3
 72
     9
 73
     5
 74
     0
 42
0.00000001
 43
0.00000001
 40
0.0
 40
0.0
 40
0.0
 40
0.0
 40
0.8864520429294352
 40
0.9999999999999999
 40
0.9999999999999999
 40
0.9999999999999999
 40
0.9999999999999999
 10
241.3895805765086
 20
208.2297086891627
 30
0.0
 10
241.3905663023469
 20
208.2507617461302
 30
0.0
 10
241.3916782923818
 20
208.2745115441429
 30
0.0
 10
241.3543046735364
 20
208.2907307904182
 30
0.0
 10
241.3500609754682
 20
208.292572452698
 30
0.0
  0
LINE
  5
15A
330
1F
100
AcDbEntity
  8
0
  6
Continuous
 62
     7
370
    15
100
AcDbLine
 10
195.6183059364
 20
111.4568584943
 30
0.0
 11
221.2951059364
 21
111.4568584943
 31
0.0
  0
LINE
  5
15B
330
1F
100
AcDbEntity
  8
0
  6
Continuous
 62
     7
370
    15
100
AcDbLine
 10
219.4897059364
 20
104.0119408143
 30
0.0
 11
219.4897059364
 21
107.4448584943
 31
0.0
  0
LINE
  5
15C
330
1F
100
AcDbEntity
  8
0
  6
Continuous
 62
     7
370
    15
100
AcDbLine
 10
219.4897059364
 20
104.0119408143
 30
0.0
 11
197.4237059364
 21
104.0119408143
 31
0.0
  0
LINE
  5
15D
330
1F
100
AcDbEntity
  8
0
  6
Continuous
 62
     7
370
    15
100
AcDbLine
 10
197.4237059364
 20
104.0119408143
 30
0.0
 11
197.4237059364
 21
107.4448584943
 31
0.0
  0
LINE
  5
15E
330
1F
100
AcDbEntity
  8
0
  6
Continuous
 62
     7
370
    15
100
AcDbLine
 10
196.4207059364
 20
107.4448584943
 30
0.0
 11
197.4237059364
 21
107.4448584943
 31
0.0
  0
LINE
  5
15F
330
1F
100
AcDbEntity
  8
0
  6
Continuous
 62
     7
370
    15
100
AcDbLine
 10
219.4897059364
 20
107.4448584943
 30
0.0
 11
220.4927059364
 21
107.4448584943
 31
0.0
  0
SPLINE
  5
160
330
1F
100
AcDbEntity
  8
0
  6
Continuous
 62
     7
370
    15
100
AcDbSpline
210
0.0
220
0.0
230
1.0
 70
    24
 71
     3
 72
    10
 73
     6
 74
     0
 42
0.00000001
 43
0.00000001
 40
0.0
 40
0.0
 40
0.0
 40
0.0
 40
0.5
 40
0.5
 40
1.0
 40
1.0
 40
1.0
 40
1.0
 10
219.4897059363749
 20
103.4328584942966
 30
0.0
 10
219.4897059363749
 20
103.4328584942966
 30
0.0
 10
219.4897059363749
 20
103.4859810177646
 30
0.0
 10
219.4897059363749
 20
103.6856284969766
 30
0.0
 10
219.4897059363749
 20
103.8312526408051
 30
0.0
 10
219.4897059363749
 20
104.0119408142936
 30
0.0
  0
LINE
  5
161
330
1F
100
AcDbEntity
  8
0
  6
Continuous
 62
     7
370
    15
100
AcDbLine
 10
219.4897059364
 20
103.4328584943
 30
0.0
 11
197.4237059364
 21
103.4328584943
 31
0.0
  0
SPLINE
  5
162
330
1F
100
AcDbEntity
  8
0
  6
Continuous
 62
     7
370
    15
100
AcDbSpline
210
0.0
220
0.0
230
1.0
 70
    24
 71
     3
 72
    10
 73
     6
 74
     0
 42
0.00000001
 43
0.00000001
 40
0.0
 40
0.0
 40
0.0
 40
0.0
 40
0.5
 40
0.5
 40
1.0
 40
1.0
 40
1.0
 40
1.0
 10
197.4237059363749
 20
103.4328584942966
 30
0.0
 10
197.4237059363749
 20
103.4328584942967
 30
0.0
 10
197.4237059363749
 20
103.4859810177647
 30
0.0
 10
197.4237059363749
 20
103.6856284969766
 30
0.0
 10
197.4237059363749
 20
103.831252640805
 30
0.0
 10
197.4237059363749
 20
104.0119408142936
 30
0.0
  0
LINE
  5
163
330
1F
100
AcDbEntity
  8
0
  6
Continuous
 62
     7
370
    15
100
AcDbLine
 10
199.5300059364
 20
103.2322584943
 30
0.0
 11
217.3834059364
 21
103.2322584943
 31
0.0
  0
ELLIPSE
  5
164
330
1F
100
AcDbEntity
  8
0
  6
Continuous
 62
     7
370
    15
100
AcDbEllipse
 10
208.4567059364
 20
247.3627612234
 30
0.0
 11
0.0
 21
-26.7193615019427
 31
0.0
210
0.0
220
0.0
230
1.0
 40
0.9098964743
 41
3.459640814736777
 42
4.642987458864361
  0
ELLIPSE
  5
165
330
1F
100
AcDbEntity
  8
0
  6
Continuous
 62
     7
370
    15
100
AcDbEllipse
 10
208.4567059364
 20
247.3627612234
 30
0.0
 11
0.0
 21
-26.7193615019427
 31
0.0
210
0.0
220
0.0
230
1.0
 40
0.9098964743
 41
2.11549965267964
 42
2.822692595472471
  0
SPLINE
  5
166
330
1F
100
AcDbEntity
  8
0
  6
Continuous
 62
     7
370
    15
100
AcDbSpline
210
0.0
220
0.0
230
1.0
 70
     8
 71
     3
 72
    14
 73
    10
 74
     0
 42
0.00000001
 43
0.00000001
 40
0.0
 40
0.0
 40
0.0
 40
0.0
 40
0.2499999999999995
 40
0.2499999999999995
 40
0.3749999999999994
 40
0.3749999999999994
 40
0.4999999999999993
 40
0.4999999999999993
 40
1.0
 40
1.0
 40
1.0
 40
1.0
 10
218.1475641010637
 20
254.4420371270112
 30
0.0
 10
217.3968702244766
 20
254.628341135015
 30
0.0
 10
216.6270859486025
 20
254.7945348333476
 30
0.0
 10
215.4412360795127
 20
255.0141523242116
 30
0.0
 10
215.0409630037298
 20
255.0822813673969
 30
0.0
 10
214.237969170228
 20
255.2068868799857
 30
0.0
 10
213.8342709494931
 20
255.2635486942726
 30
0.0
 10
211.8050067502149
 20
255.5177401956298
 30
0.0
 10
210.1475992570394
 20
255.6279905858184
 30
0.0
 10
208.4567059363746
 20
255.6280192972401
 30
0.0
  0
SPLINE
  5
167
330
1F
100
AcDbEntity
  8
0
  6
Continuous
 62
     7
370
    15
100
AcDbSpline
210
0.0
220
0.0
230
1.0
 70
     8
 71
     3
 72
    16
 73
    12
 74
     0
 42
0.00000001
 43
0.00000001
 40
0.0
 40
0.0
 40
0.0
 40
0.0
 40
0.2500000000000001
 40
0.2500000000000001
 40
0.3750000000000001
 40
0.3750000000000001
 40
0.5
 40
0.5
 40
0.75
 40
0.75
 40
1.0
 40
1.0
 40
1.0
 40
1.0
 10
208.4567059363746
 20
255.6280192972401
 30
0.0
 10
207.6109193642036
 20
255.6280336587227
 30
0.0
 10
206.7685537597197
 20
255.6004779983464
 30
0.0
 10
205.5102144065329
 20
255.5194720767997
 30
0.0
 10
205.0916946836638
 20
255.4858366029589
 30
0.0
 10
204.264573035602
 20
255.4066773562291
 30
0.0
 10
203.8549410386505
 20
255.3611002847486
 30
0.0
 10
202.6377577514237
 20
255.2075851707249
 30
0.0
 10
201.8419357876508
 20
255.0829993124642
 30
0.0
 10
200.2811316243365
 20
254.7933092299903
 30
0.0
 10
199.5161677779804
 20
254.6282796406654
 30
0.0
 10
198.7659162563669
 20
254.4420589777471
 30
0.0
  0
SPLINE
  5
168
330
1F
100
AcDbEntity
  8
0
  6
Continuous
 62
     7
370
    15
100
AcDbSpline
210
0.0
220
0.0
230
1.0
 70
     8
 71
     3
 72
    15
 73
    11
 74
     0
 42
0.00000001
 43
0.00000001
 40
0.0
 40
0.0
 40
0.0
 40
0.0
 40
0.0163119540091651
 40
0.0936521134682244
 40
0.1715436193275605
 40
0.2495181141754198
 40
0.4071161766777192
 40
0.5648554749618786
 40
0.7824045905786823
 40
0.9999999999999999
 40
0.9999999999999999
 40
0.9999999999999999
 40
0.9999999999999999
 10
217.7973065672601
 20
268.8855974601644
 30
0.0
 10
217.8177439796489
 20
268.811675510819
 30
0.0
 10
217.9350816611403
 20
268.3872661001499
 30
0.0
 10
218.083300770588
 20
267.5929990375167
 30
0.0
 10
218.2634230663563
 20
266.5113523153495
 30
0.0
 10
218.453446088448
 20
265.0488772742461
 30
0.0
 10
218.634119692915
 20
263.2073608083483
 30
0.0
 10
218.8132693780222
 20
260.7069360843863
 30
0.0
 10
218.9600462663612
 20
257.9217055109814
 30
0.0
 10
219.0392233005609
 20
255.8762778911749
 30
0.0
 10
219.078816029372
 20
254.8534552776203
 30
0.0
  0
SPLINE
  5
169
330
1F
100
AcDbEntity
  8
0
  6
Continuous
 62
     7
370
    15
100
AcDbSpline
210
0.0
220
0.0
230
1.0
 70
     8
 71
     3
 72
    15
 73
    11
 74
     0
 42
0.00000001
 43
0.00000001
 40
0.0
 40
0.0
 40
0.0
 40
0.0
 40
0.2178153416004592
 40
0.4356616661259516
 40
0.5914817164436975
 40
0.7473983272874519
 40
0.8257413720025094
 40
0.9041505874044902
 40
0.9829262621440262
 40
0.9999999999999999
 40
0.9999999999999999
 40
0.9999999999999999
 40
0.9999999999999999
 10
197.8345963260167
 20
254.8534574279895
 30
0.0
 10
197.874181665285
 20
255.876095699184
 30
0.0
 10
197.9533579745985
 20
257.9215177057293
 30
0.0
 10
198.0996087017219
 20
260.6968557502223
 30
0.0
 10
198.2771714756202
 20
263.1788400421773
 30
0.0
 10
198.4551087550557
 20
265.0031333731959
 30
0.0
 10
198.6425892602478
 20
266.4604022526281
 30
0.0
 10
198.8226054742857
 20
267.5517901418818
 30
0.0
 10
198.9714434928646
 20
268.3579879694136
 30
0.0
 10
199.0911093384068
 20
268.7919209996397
 30
0.0
 10
199.1124255178363
 20
268.8692178615036
 30
0.0
  0
ELLIPSE
  5
16A
330
1F
100
AcDbEntity
  8
0
  6
Continuous
 62
     7
370
    15
100
AcDbEllipse
 10
208.4567059364
 20
247.3627612234
 30
0.0
 11
0.0
 21
-26.7193615019427
 31
0.0
210
0.0
220
0.0
230
1.0
 40
0.9098964743
 41
1.640197848315238
 42
2.115499652679655
  0
SPLINE
  5
16B
330
1F
100
AcDbEntity
  8
0
  6
Continuous
 62
     8
370
     0
100
AcDbSpline
210
0.0
220
0.0
230
1.0
 70
     8
 71
     3
 72
    44
 73
    40
 74
     0
 42
0.00000001
 43
0.00000001
 40
0.0
 40
0.0
 40
0.0
 40
0.0
 40
0.1250000000000023
 40
0.1250000000000023
 40
0.1875000000000036
 40
0.1875000000000036
 40
0.2500000000000048
 40
0.2500000000000048
 40
0.312500000000006
 40
0.312500000000006
 40
0.3437500000000066
 40
0.3437500000000066
 40
0.3750000000000072
 40
0.3750000000000072
 40
0.4375000000000069
 40
0.4375000000000069
 40
0.4687500000000068
 40
0.4687500000000068
 40
0.5000000000000068
 40
0.5000000000000068
 40
0.5312500000000067
 40
0.5312500000000067
 40
0.5625000000000066
 40
0.5625000000000066
 40
0.6250000000000058
 40
0.6250000000000058
 40
0.6562500000000053
 40
0.6562500000000053
 40
0.6875000000000048
 40
0.6875000000000048
 40
0.7500000000000039
 40
0.7500000000000039
 40
0.8125000000000029
 40
0.8125000000000029
 40
0.875000000000002
 40
0.875000000000002
 40
0.937500000000001
 40
0.937500000000001
 40
1.0
 40
1.0
 40
1.0
 40
1.0
 10
239.168175443416
 20
220.9000093852134
 30
0.0
 10
238.8848111945479
 20
221.9188829360199
 30
0.0
 10
238.5496643675845
 20
222.8267110690302
 30
0.0
 10
237.9392955351817
 20
224.0728552992444
 30
0.0
 10
237.7176643912359
 20
224.4689516909576
 30
0.0
 10
237.2286938873632
 20
225.231290931975
 30
0.0
 10
236.9617804754279
 20
225.5976814469105
 30
0.0
 10
236.3629789383167
 20
226.3081544582389
 30
0.0
 10
236.0310553342495
 20
226.6525136384836
 30
0.0
 10
235.4640774831458
 20
227.1580919694346
 30
0.0
 10
235.2632052473068
 20
227.324953270471
 30
0.0
 10
234.83926564212
 20
227.6514469969252
 30
0.0
 10
234.6157396357238
 20
227.8115256976027
 30
0.0
 10
233.9053735214255
 20
228.2815491254262
 30
0.0
 10
233.3789131255135
 20
228.5813644404345
 30
0.0
 10
232.4843454391099
 20
229.004244969395
 30
0.0
 10
232.1686178525141
 20
229.1406972765357
 30
0.0
 10
231.4977813411474
 20
229.4035262746181
 30
0.0
 10
231.1440597358416
 20
229.5292677074678
 30
0.0
 10
230.4070418793227
 20
229.7662477578579
 30
0.0
 10
230.0210725695931
 20
229.8783101525855
 30
0.0
 10
229.2269784022932
 20
230.0865146563384
 30
0.0
 10
228.8187942869209
 20
230.1827919541223
 30
0.0
 10
227.5636336657327
 20
230.4502583137302
 30
0.0
 10
226.6860380733314
 20
230.6000563380462
 30
0.0
 10
225.3208147645802
 20
230.7916264668471
 30
0.0
 10
224.8571924763849
 20
230.8499945014644
 30
0.0
 10
223.9263282612353
 20
230.9561590409652
 30
0.0
 10
223.4577128317464
 20
231.0041847516479
 30
0.0
 10
222.0438295085035
 20
231.1353897367035
 30
0.0
 10
221.0905960616315
 20
231.2057371491175
 30
0.0
 10
219.1688360868579
 20
231.3220579880882
 30
0.0
 10
218.1987813730291
 20
231.3680972616726
 30
0.0
 10
216.2559343806442
 20
231.4424828398903
 30
0.0
 10
215.2831386078032
 20
231.4707373076441
 30
0.0
 10
213.3356061955155
 20
231.5145751541106
 30
0.0
 10
212.3608944188745
 20
231.5305335357498
 30
0.0
 10
210.4099847896564
 20
231.5525940585214
 30
0.0
 10
209.4337671898016
 20
231.5583804515716
 30
0.0
 10
208.4567739435042
 20
231.5584021415669
 30
0.0
  0
SPLINE
  5
16C
330
1F
100
AcDbEntity
  8
0
  6
Continuous
 62
     8
370
    15
100
AcDbSpline
210
0.0
220
0.0
230
1.0
 70
     8
 71
     3
 72
    22
 73
    18
 74
     0
 42
0.00000001
 43
0.00000001
 40
0.0
 40
0.0
 40
0.0
 40
0.0
 40
0.0654854030309835
 40
0.1310074110802519
 40
0.1966765557013019
 40
0.2624244068790125
 40
0.3641799208448463
 40
0.4622056576504783
 40
0.538525585173741
 40
0.6157465056899063
 40
0.6766744304345389
 40
0.7136066952231855
 40
0.7904248673255078
 40
0.8717553898298284
 40
0.9232586620131548
 40
0.9749379844185733
 40
1.0
 40
1.0
 40
1.0
 40
1.0
 10
208.4569344256714
 20
234.0517111687828
 30
0.0
 10
209.267756059345
 20
234.0476196103612
 30
0.0
 10
210.8898525596168
 20
234.0394342064197
 30
0.0
 10
213.3239135301972
 20
234.0085588223743
 30
0.0
 10
215.7584037962913
 20
233.96252625594
 30
0.0
 10
218.6328834232985
 20
233.8750064303872
 30
0.0
 10
221.8852039299403
 20
233.710360408927
 30
0.0
 10
225.1969333217661
 20
233.4100526031252
 30
0.0
 10
228.0745561152182
 20
232.9699849335825
 30
0.0
 10
230.3371978604091
 20
232.4296227742483
 30
0.0
 10
231.9694571139137
 20
231.8580465350157
 30
0.0
 10
233.4193578922903
 20
231.2087667323429
 30
0.0
 10
234.8033792963687
 20
230.3928213441891
 30
0.0
 10
235.9733986848949
 20
229.4430482949516
 30
0.0
 10
236.8140385766492
 20
228.5749204957887
 30
0.0
 10
237.3263184247822
 20
227.9583345221913
 30
0.0
 10
237.5822030260282
 20
227.5709121420301
 30
0.0
 10
237.6657692503306
 20
227.4443886022678
 30
0.0
  0
SPLINE
  5
16D
330
1F
100
AcDbEntity
  8
0
  6
Continuous
 62
     8
370
     0
100
AcDbSpline
210
0.0
220
0.0
230
1.0
 70
     8
 71
     3
 72
    36
 73
    32
 74
     0
 42
0.00000001
 43
0.00000001
 40
0.0
 40
0.0
 40
0.0
 40
0.0
 40
0.0624999999999999
 40
0.0624999999999999
 40
0.1249999999999998
 40
0.1249999999999998
 40
0.2499999999999996
 40
0.2499999999999996
 40
0.3124999999999996
 40
0.3124999999999996
 40
0.3749999999999995
 40
0.3749999999999995
 40
0.4374999999999994
 40
0.4374999999999994
 40
0.4687499999999994
 40
0.4687499999999994
 40
0.4999999999999993
 40
0.4999999999999993
 40
0.5624999999999992
 40
0.5624999999999992
 40
0.6249999999999991
 40
0.6249999999999991
 40
0.687499999999999
 40
0.687499999999999
 40
0.7499999999999989
 40
0.7499999999999989
 40
0.8124999999999988
 40
0.8124999999999988
 40
0.8749999999999987
 40
0.8749999999999987
 40
1.0
 40
1.0
 40
1.0
 40
1.0
 10
208.4566379292449
 20
231.5584021415669
 30
0.0
 10
207.4818174372745
 20
231.5583804998085
 30
0.0
 10
206.5069520703797
 20
231.552614227873
 30
0.0
 10
204.5601184911209
 20
231.5306390652041
 30
0.0
 10
203.5877829325512
 20
231.5147447131617
 30
0.0
 10
200.6748881689862
 20
231.4493410998126
 30
0.0
 10
198.7384164387677
 20
231.381696823096
 30
0.0
 10
195.8497441282741
 20
231.2076196095243
 30
0.0
 10
194.89501393546
 20
231.1373854237029
 30
0.0
 10
193.0149273213347
 20
230.9636358039191
 30
0.0
 10
192.0886092132301
 20
230.8603582561392
 30
0.0
 10
190.2741336465629
 20
230.6074460215828
 30
0.0
 10
189.3821333251773
 20
230.4562687028872
 30
0.0
 10
188.1224610207298
 20
230.1891445395554
 30
0.0
 10
187.7142055991127
 20
230.0932576014226
 30
0.0
 10
186.9225818486736
 20
229.886740026448
 30
0.0
 10
186.5380503782877
 20
229.7757333892775
 30
0.0
 10
185.4314036403067
 20
229.4219200688491
 30
0.0
 10
184.7688183086262
 20
229.1624764709474
 30
0.0
 10
183.573616928427
 20
228.6020771813676
 30
0.0
 10
183.0395403297349
 20
228.3006367218708
 30
0.0
 10
182.0785934014723
 20
227.6682375263203
 30
0.0
 10
181.6587619715686
 20
227.3429330894647
 30
0.0
 10
180.9053158384083
 20
226.6747866932299
 30
0.0
 10
180.5722712179846
 20
226.3317701336767
 30
0.0
 10
179.9695989989615
 20
225.6211481189612
 30
0.0
 10
179.6999134301663
 20
225.2532362348409
 30
0.0
 10
179.2048952091135
 20
224.4848752181122
 30
0.0
 10
178.9803730649931
 20
224.0847866361678
 30
0.0
 10
178.3645913337414
 20
222.8300918221022
 30
0.0
 10
178.0285227248603
 20
221.9186022639965
 30
0.0
 10
177.74523696774
 20
220.9000113211264
 30
0.0
  0
SPLINE
  5
16E
330
1F
100
AcDbEntity
  8
0
  6
Continuous
 62
     8
370
    15
100
AcDbSpline
210
0.0
220
0.0
230
1.0
 70
     8
 71
     3
 72
    23
 73
    19
 74
     0
 42
0.00000001
 43
0.00000001
 40
0.0
 40
0.0
 40
0.0
 40
0.0
 40
0.0288268239846169
 40
0.1169635448183414
 40
0.1945495649686287
 40
0.2354814593590728
 40
0.3181318793012284
 40
0.3600614797233062
 40
0.3906304756855355
 40
0.4522033320142063
 40
0.4832197126814727
 40
0.5791707719523685
 40
0.6761104600020097
 40
0.7264400573130846
 40
0.7768456670887083
 40
0.8374245629192837
 40
0.9186712523453548
 40
1.0
 40
1.0
 40
1.0
 40
1.0
 10
179.3228710987581
 20
227.5207899935125
 30
0.0
 10
179.4143550230352
 20
227.6674470444514
 30
0.0
 10
179.7855469407802
 20
228.2625014479325
 30
0.0
 10
180.6397787360936
 20
229.1668748763381
 30
0.0
 10
181.7476945806674
 20
230.1077738662005
 30
0.0
 10
183.0544312873782
 20
230.969733622261
 30
0.0
 10
184.3385235014056
 20
231.6206243762394
 30
0.0
 10
185.7413327552467
 20
232.139561818864
 30
0.0
 10
187.0432765692964
 20
232.5385177865545
 30
0.0
 10
188.3357962564275
 20
232.8450688166921
 30
0.0
 10
190.4169220519951
 20
233.2266795494662
 30
0.0
 10
193.0290907159805
 20
233.5505669997584
 30
0.0
 10
195.9623839039963
 20
233.7582290504634
 30
0.0
 10
198.3713768790565
 20
233.8720920834281
 30
0.0
 10
200.3465897976646
 20
233.9401231191724
 30
0.0
 10
202.707447907167
 20
233.9948414598939
 30
0.0
 10
205.4532628395958
 20
234.0350638992459
 30
0.0
 10
207.4550691144177
 20
234.0461602120217
 30
0.0
 10
208.4564774470778
 20
234.0517111687828
 30
0.0
  0
SPLINE
  5
16F
330
1F
100
AcDbEntity
  8
0
  6
Continuous
 62
     8
370
     0
100
AcDbSpline
210
0.0
220
0.0
230
1.0
 70
     8
 71
     3
 72
    16
 73
    12
 74
     0
 42
0.00000001
 43
0.00000001
 40
0.0
 40
0.0
 40
0.0
 40
0.0
 40
0.2500000000000011
 40
0.2500000000000011
 40
0.3749999999999999
 40
0.3749999999999999
 40
0.4999999999999988
 40
0.4999999999999988
 40
0.7499999999999993
 40
0.7499999999999993
 40
1.0
 40
1.0
 40
1.0
 40
1.0
 10
177.74523696774
 20
220.9000113211264
 30
0.0
 10
177.5128965959722
 20
220.0646011658418
 30
0.0
 10
177.3189027867358
 20
219.1651079311089
 30
0.0
 10
177.0686605832831
 20
217.6976795052289
 30
0.0
 10
176.9920363679696
 20
217.1888726567235
 30
0.0
 10
176.8510462922598
 20
216.1297673103838
 30
0.0
 10
176.7871196049882
 20
215.5830173523821
 30
0.0
 10
176.613030226382
 20
213.8968976427759
 30
0.0
 10
176.5203117581935
 20
212.7087478742838
 30
0.0
 10
176.3697333423797
 20
210.2085337607288
 30
0.0
 10
176.3112462040606
 20
208.8967700305586
 30
0.0
 10
176.2677059275816
 20
207.525048660289
 30
0.0
  0
SPLINE
  5
170
330
1F
100
AcDbEntity
  8
0
  6
Continuous
 62
     8
370
     0
100
AcDbSpline
210
0.0
220
0.0
230
1.0
 70
     8
 71
     3
 72
    16
 73
    12
 74
     0
 42
0.00000001
 43
0.00000001
 40
0.0
 40
0.0
 40
0.0
 40
0.0
 40
0.2500000000000012
 40
0.2500000000000012
 40
0.3750000000000009
 40
0.3750000000000009
 40
0.5000000000000008
 40
0.5000000000000008
 40
0.7500000000000003
 40
0.7500000000000003
 40
1.0
 40
1.0
 40
1.0
 40
1.0
 10
240.6457059451674
 20
207.5250486602889
 30
0.0
 10
240.6020157094718
 20
208.901494443881
 30
0.0
 10
240.543088439811
 20
210.2241245875453
 30
0.0
 10
240.428219990612
 20
212.1226104763226
 30
0.0
 10
240.3852109575248
 20
212.7425991508212
 30
0.0
 10
240.2895014375179
 20
213.9394055823143
 30
0.0
 10
240.2367515510066
 20
214.5177259539688
 30
0.0
 10
240.0621345048635
 20
216.1945997516691
 30
0.0
 10
239.9240698307311
 20
217.2351217023873
 30
0.0
 10
239.5931262072216
 20
219.1706055630133
 30
0.0
 10
239.4002279117747
 20
220.0656341125581
 30
0.0
 10
239.168175443416
 20
220.9000093852134
 30
0.0
  0
ARC
  5
171
330
1F
100
AcDbEntity
  8
0
  6
Continuous
 62
     8
370
     0
100
AcDbCircle
 10
208.4567059364
 20
228.055310567
 30
0.0
 40
10.76138964790117
100
AcDbArc
 50
76.5257143609
 51
103.4742856391
  0
SPLINE
  5
172
330
1F
100
AcDbEntity
  8
0
  6
Continuous
 62
     8
370
     0
100
AcDbSpline
210
0.0
220
0.0
230
1.0
 70
     8
 71
     3
 72
    16
 73
    12
 74
     0
 42
0.00000001
 43
0.00000001
 40
0.0
 40
0.0
 40
0.0
 40
0.0
 40
0.2500000000000002
 40
0.2500000000000002
 40
0.5000000000000003
 40
0.5000000000000003
 40
0.6250000000000004
 40
0.6250000000000004
 40
0.7500000000000004
 40
0.7500000000000004
 40
1.0
 40
1.0
 40
1.0
 40
1.0
 10
240.5531449799473
 20
180.9123528076015
 30
0.0
 10
240.5947981539463
 20
183.1090433326922
 30
0.0
 10
240.6325658793341
 20
185.2989387402722
 30
0.0
 10
240.6960996592586
 20
189.6549062444335
 30
0.0
 10
240.7218879889774
 20
191.8234281358648
 30
0.0
 10
240.7471503101455
 20
195.0314232121275
 30
0.0
 10
240.7533152831824
 20
196.0939670553339
 30
0.0
 10
240.7601072061478
 20
198.2037386529982
 30
0.0
 10
240.7607125691466
 20
199.2517618573434
 30
0.0
 10
240.7498576706287
 20
202.3516759361878
 30
0.0
 10
240.7260498373185
 20
204.3654272956584
 30
0.0
 10
240.6777786656959
 20
206.3105653102564
 30
0.0
  0
SPLINE
  5
173
330
1F
100
AcDbEntity
  8
0
  6
Continuous
 62
     8
370
     0
100
AcDbSpline
210
0.0
220
0.0
230
1.0
 70
     8
 71
     3
 72
     8
 73
     4
 74
     0
 42
0.00000001
 43
0.00000001
 40
0.0000001239362733
 40
0.0000001239362733
 40
0.0000001239362733
 40
0.0000001239362733
 40
0.0004159845952802
 40
0.0004159845952802
 40
0.0004159845952802
 40
0.0004159845952802
 10
240.5473830121495
 20
180.4985397664064
 30
0.0
 10
240.5494573452944
 20
180.6365031259978
 30
0.0
 10
240.550967871265
 20
180.7744277462614
 30
0.0
 10
240.5528260019831
 20
180.9123418256063
 30
0.0
  0
SPLINE
  5
174
330
1F
100
AcDbEntity
  8
0
  6
Continuous
 62
     8
370
     0
100
AcDbSpline
210
0.0
220
0.0
230
1.0
 70
     8
 71
     3
 72
    30
 73
    26
 74
     0
 42
0.00000001
 43
0.00000001
 40
0.0
 40
0.0
 40
0.0
 40
0.0
 40
0.0196287133297162
 40
0.0391680621297219
 40
0.0586226689354497
 40
0.0779972801207051
 40
0.0972967553940681
 40
0.1165260459679859
 40
0.1356901690278812
 40
0.1547941865528877
 40
0.1738431953127854
 40
0.1928423169142746
 40
0.211796682416309
 40
0.2307114202035243
 40
0.2495916455305091
 40
0.3738463498544674
 40
0.5004554452081306
 40
0.6226371385511881
 40
0.7501234511727242
 40
0.7904010810256332
 40
0.8311999779628156
 40
0.8725397549808932
 40
0.9144394518623594
 40
0.9569188242412685
 40
1.0
 40
1.0
 40
1.0
 40
1.0
 10
240.6766976290295
 20
206.3631353857804
 30
0.0
 10
240.5054887913177
 20
206.2186726079028
 30
0.0
 10
240.1638505861022
 20
205.9304047543612
 30
0.0
 10
239.6438654687591
 20
205.5085995119113
 30
0.0
 10
239.1198620735683
 20
205.0959003183214
 30
0.0
 10
238.5911982540641
 20
204.6930015706055
 30
0.0
 10
238.0580231571589
 20
204.2997381532358
 30
0.0
 10
237.5202850785178
 20
203.916165347126
 30
0.0
 10
236.9779952132263
 20
203.5422714676239
 30
0.0
 10
236.4311551690501
 20
203.1780559984697
 30
0.0
 10
235.879771323507
 20
202.8235137933849
 30
0.0
 10
235.3238499321628
 20
202.4786387938744
 30
0.0
 10
234.7634051839789
 20
202.1434230159373
 30
0.0
 10
234.1984390321944
 20
201.8178499086084
 30
0.0
 10
232.5694454952089
 20
200.9140632955515
 30
0.0
 10
229.7584684265047
 20
199.5737628264777
 30
0.0
 10
225.6901659169242
 20
198.1282002719487
 30
0.0
 10
221.4602715202311
 20
197.061806879689
 30
0.0
 10
218.1392834308022
 20
196.5154451256851
 30
0.0
 10
215.7357852765012
 20
196.2395983866562
 30
0.0
 10
214.3214274573186
 20
196.1093272491244
 30
0.0
 10
212.8856241175603
 20
196.0084889778054
 30
0.0
 10
211.4283908728964
 20
195.9376727031175
 30
0.0
 10
209.9497093850768
 20
195.8942838660862
 30
0.0
 10
208.9567315876249
 20
195.890330753122
 30
0.0
 10
208.4567505572588
 20
195.8883402942234
 30
0.0
  0
SPLINE
  5
175
330
1F
100
AcDbEntity
  8
0
  6
Continuous
 62
     8
370
     0
100
AcDbSpline
210
0.0
220
0.0
230
1.0
 70
     8
 71
     3
 72
     8
 73
     4
 74
     0
 42
0.00000001
 43
0.00000001
 40
0.0
 40
0.0
 40
0.0
 40
0.0
 40
1.0
 40
1.0
 40
1.0
 40
1.0
 10
240.6780045196982
 20
206.3106352198336
 30
0.0
 10
240.6775714406202
 20
206.3281444680817
 30
0.0
 10
240.6771358082082
 20
206.3456445251849
 30
0.0
 10
240.6766976290282
 20
206.3631353857822
 30
0.0
  0
SPLINE
  5
176
330
1F
100
AcDbEntity
  8
0
  6
Continuous
 62
     8
370
     0
100
AcDbSpline
210
0.0
220
0.0
230
1.0
 70
     8
 71
     3
 72
     8
 73
     4
 74
     0
 42
0.00000001
 43
0.00000001
 40
0.0
 40
0.0
 40
0.0
 40
0.0
 40
0.0004158606590599
 40
0.0004158606590599
 40
0.0004158606590599
 40
0.0004158606590599
 10
176.3605858707661
 20
180.9123418256063
 30
0.0
 10
176.3624440014844
 20
180.7744277462438
 30
0.0
 10
176.3639545274551
 20
180.6365031259625
 30
0.0
 10
176.3660288606005
 20
180.4985397663535
 30
0.0
  0
SPLINE
  5
177
330
1F
100
AcDbEntity
  8
0
  6
Continuous
 62
     8
370
     0
100
AcDbSpline
210
0.0
220
0.0
230
1.0
 70
     8
 71
     3
 72
    16
 73
    12
 74
     0
 42
0.00000001
 43
0.00000001
 40
0.0
 40
0.0
 40
0.0
 40
0.0
 40
0.2499999999999996
 40
0.2499999999999996
 40
0.3749999999999996
 40
0.3749999999999996
 40
0.4999999999999996
 40
0.4999999999999996
 40
0.7499999999999998
 40
0.7499999999999998
 40
1.0
 40
1.0
 40
1.0
 40
1.0
 10
176.2356252187229
 20
206.31024341965
 30
0.0
 10
176.1873487966814
 20
204.3649860849586
 30
0.0
 10
176.1635483379434
 20
202.3511065333251
 30
0.0
 10
176.1526985580455
 20
199.2509960252273
 30
0.0
 10
176.1533057558783
 20
198.2029067960764
 30
0.0
 10
176.1601012753722
 20
196.0930054209568
 30
0.0
 10
176.1662681399756
 20
195.030396058373
 30
0.0
 10
176.1915365564775
 20
191.8222029785422
 30
0.0
 10
176.2173311913398
 20
189.6534429706294
 30
0.0
 10
176.2808645745429
 20
185.297827012368
 30
0.0
 10
176.3186147256534
 20
183.1089902337539
 30
0.0
 10
176.3602668928017
 20
180.9123528076015
 30
0.0
  0
SPLINE
  5
178
330
1F
100
AcDbEntity
  8
0
  6
Continuous
 62
     8
370
     0
100
AcDbSpline
210
0.0
220
0.0
230
1.0
 70
     8
 71
     3
 72
     8
 73
     4
 74
     0
 42
0.00000001
 43
0.00000001
 40
0.0
 40
0.0
 40
0.0
 40
0.0
 40
1.0
 40
1.0
 40
1.0
 40
1.0
 10
176.2367142437208
 20
206.3631353857793
 30
0.0
 10
176.236273379134
 20
206.3455373314172
 30
0.0
 10
176.2358350926285
 20
206.3279299675464
 30
0.0
 10
176.2353993908919
 20
206.3103132996275
 30
0.0
  0
SPLINE
  5
179
330
1F
100
AcDbEntity
  8
0
  6
Continuous
 62
     8
370
     0
100
AcDbSpline
210
0.0
220
0.0
230
1.0
 70
     8
 71
     3
 72
    29
 73
    25
 74
     0
 42
0.00000001
 43
0.00000001
 40
0.0
 40
0.0
 40
0.0
 40
0.0
 40
0.0235248536107785
 40
0.0468684153967847
 40
0.0700344996298875
 40
0.0930267348352239
 40
0.1158485328482083
 40
0.1385030734826961
 40
0.1609933738937989
 40
0.1833225033730931
 40
0.2054935822393014
 40
0.2275097809610978
 40
0.2493743323260562
 40
0.3762041175146786
 40
0.4977761932158091
 40
0.6248380353614614
 40
0.7495113411511052
 40
0.7847284337199993
 40
0.8200796065479401
 40
0.8555980677683178
 40
0.8913169486060364
 40
0.9272690223616207
 40
0.9634863915965193
 40
1.0
 40
1.0
 40
1.0
 40
1.0
 10
208.4566613154904
 20
195.8883402942235
 30
0.0
 10
208.1836479764868
 20
195.8887296719067
 30
0.0
 10
207.6397252472326
 20
195.8895054265747
 30
0.0
 10
206.827035103497
 20
195.9017977473679
 30
0.0
 10
206.0207177752415
 20
195.9222320001635
 30
0.0
 10
205.2207511752661
 20
195.9515726407239
 30
0.0
 10
204.4271244868524
 20
195.9896019851316
 30
0.0
 10
203.6398362198634
 20
196.0363746154825
 30
0.0
 10
202.8588928692112
 20
196.0918853844323
 30
0.0
 10
202.0843034717341
 20
196.156147028549
 30
0.0
 10
201.3160822879289
 20
196.2291659362212
 30
0.0
 10
200.5542313481472
 20
196.3109635767558
 30
0.0
 10
198.5882978369246
 20
196.5466204478082
 30
0.0
 10
195.4923933904559
 20
197.0543908775548
 30
0.0
 10
191.2705963410727
 20
198.1140545204087
 30
0.0
 10
187.1974322148072
 20
199.5556699346793
 30
0.0
 10
184.205794153638
 20
200.9786227247201
 30
0.0
 10
182.2502655797458
 20
202.0796951273618
 30
0.0
 10
181.2073216409518
 20
202.7092652243935
 30
0.0
 10
180.1802162004284
 20
203.372450714701
 30
0.0
 10
179.168814081365
 20
204.0691378456175
 30
0.0
 10
178.1737211480662
 20
204.799956070838
 30
0.0
 10
177.1927683045363
 20
205.5625432437181
 30
0.0
 10
176.5562631097469
 20
206.0955476816626
 30
0.0
 10
176.2367142437207
 20
206.3631353857794
 30
0.0
  0
LINE
  5
17A
330
1F
100
AcDbEntity
  8
0
  6
Continuous
 62
     8
370
     0
100
AcDbLine
 10
176.5336779629
 20
207.31320387
 30
0.0
 11
176.7597668999
 21
207.0201886357
 31
0.0
  0
LINE
  5
17B
330
1F
100
AcDbEntity
  8
0
  6
Continuous
 62
     8
370
     0
100
AcDbLine
 10
240.1536449729
 20
207.0201886358
 30
0.0
 11
240.373921414
 21
207.3056932099
 31
0.0
  0
SPLINE
  5
17C
330
1F
100
AcDbEntity
  8
0
  6
Continuous
 62
     8
370
     0
100
AcDbSpline
210
0.0
220
0.0
230
1.0
 70
     8
 71
     3
 72
    19
 73
    15
 74
     0
 42
0.00000001
 43
0.00000001
 40
0.0
 40
0.0
 40
0.0
 40
0.0
 40
0.0630402299982112
 40
0.1243793756289346
 40
0.1841009667252696
 40
0.2422962327578184
 40
0.2990644452701092
 40
0.3545131577343953
 40
0.4087583100414482
 40
0.5579127431499418
 40
0.7175904276361625
 40
0.8591904827916158
 40
0.956508668653406
 40
1.0
 40
1.0
 40
1.0
 40
1.0
 10
176.2367142437208
 20
206.3631353857793
 30
0.0
 10
176.2065041694282
 20
206.3796095369719
 30
0.0
 10
176.146899212747
 20
206.4121132990838
 30
0.0
 10
176.0646723487463
 20
206.4674416323042
 30
0.0
 10
175.9892804397618
 20
206.526284941825
 30
0.0
 10
175.9209522817438
 20
206.588790026648
 30
0.0
 10
175.8593627828997
 20
206.6544821224103
 30
0.0
 10
175.8042741842317
 20
206.7231165532355
 30
0.0
 10
175.7264914799134
 20
206.836258362669
 30
0.0
 10
175.6387169509151
 20
207.0125657148414
 30
0.0
 10
175.5665523882087
 20
207.2528376375042
 30
0.0
 10
175.5282617577158
 20
207.4756935058881
 30
0.0
 10
175.5113402525706
 20
207.6349734240974
 30
0.0
 10
175.5064605350924
 20
207.7144493379985
 30
0.0
 10
175.504953354229
 20
207.7389967789249
 30
0.0
  0
SPLINE
  5
17D
330
1F
100
AcDbEntity
  8
0
  6
Continuous
 62
     8
370
     0
100
AcDbSpline
210
0.0
220
0.0
230
1.0
 70
     8
 71
     3
 72
    44
 73
    40
 74
     0
 42
0.00000001
 43
0.00000001
 40
0.0
 40
0.0
 40
0.0
 40
0.0
 40
0.1250000000000007
 40
0.1250000000000007
 40
0.2500000000000014
 40
0.2500000000000014
 40
0.3125000000000016
 40
0.3125000000000016
 40
0.3750000000000017
 40
0.3750000000000017
 40
0.4375000000000019
 40
0.4375000000000019
 40
0.5000000000000021
 40
0.5000000000000021
 40
0.5312500000000019
 40
0.5312500000000019
 40
0.5468750000000017
 40
0.5468750000000017
 40
0.5625000000000016
 40
0.5625000000000016
 40
0.5937500000000008
 40
0.5937500000000008
 40
0.6093750000000006
 40
0.6093750000000006
 40
0.6250000000000004
 40
0.6250000000000004
 40
0.6875
 40
0.6875
 40
0.71875
 40
0.71875
 40
0.7499999999999999
 40
0.7499999999999999
 40
0.8125
 40
0.8125
 40
0.875
 40
0.875
 40
0.9375
 40
0.9375
 40
1.0
 40
1.0
 40
1.0
 40
1.0
 10
177.5854888760259
 20
151.9174498307181
 30
0.0
 10
177.7514647158769
 20
149.5172362880411
 30
0.0
 10
177.9471699748319
 20
147.1207306713902
 30
0.0
 10
178.4253636027532
 20
142.3385488397151
 30
0.0
 10
178.7038630030657
 20
139.9523753539707
 30
0.0
 10
179.2447567926791
 20
136.3884800855289
 30
0.0
 10
179.4466168220256
 20
135.2032052133013
 30
0.0
 10
179.9049826290303
 20
132.8394745189525
 30
0.0
 10
180.1614576544678
 20
131.6586678711468
 30
0.0
 10
180.7501074745505
 20
129.3289077830769
 30
0.0
 10
181.0823973608304
 20
128.1782510843508
 30
0.0
 10
181.8584384568423
 20
125.9186947805429
 30
0.0
 10
182.3008842625675
 20
124.8093072727402
 30
0.0
 10
183.0983015648279
 20
123.1953214042602
 30
0.0
 10
183.3868425357543
 20
122.6658412857246
 30
0.0
 10
183.8638322080585
 20
121.8881659222594
 30
0.0
 10
184.0308566134367
 20
121.6308257191217
 30
0.0
 10
184.3774718934791
 20
121.1283489053381
 30
0.0
 10
184.5571349258089
 20
120.8829521209715
 30
0.0
 10
185.1165416981696
 20
120.165528377878
 30
0.0
 10
185.5167446362823
 20
119.7123061726114
 30
0.0
 10
186.1638189552567
 20
119.0754575541239
 30
0.0
 10
186.3873001585005
 20
118.8703339957212
 30
0.0
 10
186.8506081600905
 20
118.4751092643223
 30
0.0
 10
187.0913864932569
 20
118.2843270230173
 30
0.0
 10
188.3256690577796
 20
117.3777322473684
 30
0.0
 10
189.3963480912556
 20
116.813791015226
 30
0.0
 10
191.0950935937718
 20
116.1475679776275
 30
0.0
 10
191.6783980994433
 20
115.9545502229735
 30
0.0
 10
192.8465026502
 20
115.6215085905
 30
0.0
 10
193.4341343550421
 20
115.4802711285088
 30
0.0
 10
195.2051505730479
 20
115.1139135800565
 30
0.0
 10
196.3965486531103
 20
114.9453910119058
 30
0.0
 10
198.7915033313528
 20
114.6941843163847
 30
0.0
 10
199.9951085850807
 20
114.6118434060657
 30
0.0
 10
202.4088156645977
 20
114.4929486836556
 30
0.0
 10
203.6188294332136
 20
114.4565787356901
 30
0.0
 10
206.037477477496
 20
114.4073510668525
 30
0.0
 10
207.2470122220934
 20
114.394033515258
 30
0.0
 10
208.4567059378617
 20
114.3891129743715
 30
0.0
  0
SPLINE
  5
17E
330
1F
100
AcDbEntity
  8
0
  6
Continuous
 62
     8
370
     0
100
AcDbSpline
210
0.0
220
0.0
230
1.0
 70
     8
 71
     3
 72
     8
 73
     4
 74
     0
 42
0.00000001
 43
0.00000001
 40
0.0
 40
0.0
 40
0.0
 40
0.0
 40
1.0
 40
1.0
 40
1.0
 40
1.0
 10
177.1238410067697
 20
159.9117182531677
 30
0.0
 10
177.2538299335978
 20
157.2455958994366
 30
0.0
 10
177.4013400563284
 20
154.5804668776731
 30
0.0
 10
177.5854888760259
 20
151.917449830718
 30
0.0
  0
SPLINE
  5
17F
330
1F
100
AcDbEntity
  8
0
  6
Continuous
 62
     8
370
     0
100
AcDbSpline
210
0.0
220
0.0
230
1.0
 70
     8
 71
     3
 72
     8
 73
     4
 74
     0
 42
0.00000001
 43
0.00000001
 40
0.0
 40
0.0
 40
0.0
 40
0.0
 40
0.0009791865405642
 40
0.0009791865405642
 40
0.0009791865405642
 40
0.0009791865405642
 10
177.0767122729257
 20
160.8897575757928
 30
0.0
 10
177.0922848896129
 20
160.5637387345983
 30
0.0
 10
177.10794637882
 20
160.2377231207743
 30
0.0
 10
177.1238410067697
 20
159.9117182531677
 30
0.0
  0
SPLINE
  5
180
330
1F
100
AcDbEntity
  8
0
  6
Continuous
 62
     8
370
     0
100
AcDbSpline
210
0.0
220
0.0
230
1.0
 70
     8
 71
     3
 72
    16
 73
    12
 74
     0
 42
0.00000001
 43
0.00000001
 40
0.0
 40
0.0
 40
0.0
 40
0.0
 40
0.0624999999999997
 40
0.0624999999999997
 40
0.1249999999999994
 40
0.1249999999999994
 40
0.2499999999999994
 40
0.2499999999999994
 40
0.4999999999999996
 40
0.4999999999999996
 40
1.0
 40
1.0
 40
1.0
 40
1.0
 10
176.3671533649363
 20
180.4985865139835
 30
0.0
 10
176.3745528879285
 20
180.0909525634955
 30
0.0
 10
176.3877730139733
 20
179.6830665442612
 30
0.0
 10
176.4133875041821
 20
178.867139019884
 30
0.0
 10
176.4254911726538
 20
178.4591053661662
 30
0.0
 10
176.4581101251698
 20
177.234770563287
 30
0.0
 10
176.4823554454771
 20
176.418378379743
 30
0.0
 10
176.5578433549526
 20
173.9686716138635
 30
0.0
 10
176.6130509328247
 20
172.334849178397
 30
0.0
 10
176.78914824052
 20
167.4317607124493
 30
0.0
 10
176.9217218937086
 20
164.1608046419725
 30
0.0
 10
177.0761779340811
 20
160.8897334812204
 30
0.0
  0
SPLINE
  5
181
330
1F
100
AcDbEntity
  8
0
  6
Continuous
 62
     8
370
     0
100
AcDbSpline
210
0.0
220
0.0
230
1.0
 70
     8
 71
     3
 72
    16
 73
    12
 74
     0
 42
0.00000001
 43
0.00000001
 40
0.0
 40
0.0
 40
0.0
 40
0.0
 40
0.5000000000000003
 40
0.5000000000000003
 40
0.7500000000000004
 40
0.7500000000000004
 40
0.8750000000000002
 40
0.8750000000000002
 40
0.9375000000000002
 40
0.9375000000000002
 40
1.0
 40
1.0
 40
1.0
 40
1.0
 10
239.8372339386681
 20
160.8897334812204
 30
0.0
 10
239.9917030462539
 20
164.161081379513
 30
0.0
 10
240.1242820153838
 20
167.432234079618
 30
0.0
 10
240.3003762613945
 20
172.3352950171611
 30
0.0
 10
240.3555808748307
 20
173.9690568263122
 30
0.0
 10
240.4310621781756
 20
176.4185729047037
 30
0.0
 10
240.4553048115042
 20
177.2348854790185
 30
0.0
 10
240.4879197558701
 20
178.4590699686989
 30
0.0
 10
240.5000214762599
 20
178.8670517805671
 30
0.0
 10
240.5256328383185
 20
179.6828698768468
 30
0.0
 10
240.5388546099487
 20
180.0907115551899
 30
0.0
 10
240.5462585078138
 20
180.4985865140364
 30
0.0
  0
SPLINE
  5
182
330
1F
100
AcDbEntity
  8
0
  6
Continuous
 62
     8
370
     0
100
AcDbSpline
210
0.0
220
0.0
230
1.0
 70
     8
 71
     3
 72
     8
 73
     4
 74
     0
 42
0.00000001
 43
0.00000001
 40
0.0
 40
0.0
 40
0.0
 40
0.0
 40
0.0009754518546181
 40
0.0009754518546181
 40
0.0009754518546181
 40
0.0009754518546181
 10
239.7897527258691
 20
159.9154484707125
 30
0.0
 10
239.8055850199099
 20
160.2402100114277
 30
0.0
 10
239.8211863781853
 20
160.5649821932591
 30
0.0
 10
239.8366995998233
 20
160.8897575757928
 30
0.0
  0
SPLINE
  5
183
330
1F
100
AcDbEntity
  8
0
  6
Continuous
 62
     8
370
     0
100
AcDbSpline
210
0.0
220
0.0
230
1.0
 70
     8
 71
     3
 72
     8
 73
     4
 74
     0
 42
0.00000001
 43
0.00000001
 40
0.0
 40
0.0
 40
0.0
 40
0.0
 40
1.0
 40
1.0
 40
1.0
 40
1.0
 10
239.3275741835397
 20
151.9124062010822
 30
0.0
 10
239.5119714036481
 20
154.578343660418
 30
0.0
 10
239.6596351599878
 20
157.246398675354
 30
0.0
 10
239.7897527258693
 20
159.9154484707125
 30
0.0
  0
SPLINE
  5
184
330
1F
100
AcDbEntity
  8
0
  6
Continuous
 62
     8
370
     0
100
AcDbSpline
210
0.0
220
0.0
230
1.0
 70
     8
 71
     3
 72
    44
 73
    40
 74
     0
 42
0.00000001
 43
0.00000001
 40
0.0
 40
0.0
 40
0.0
 40
0.0
 40
0.0625000000000007
 40
0.0625000000000007
 40
0.1250000000000014
 40
0.1250000000000014
 40
0.1875000000000021
 40
0.1875000000000021
 40
0.2500000000000027
 40
0.2500000000000027
 40
0.3125000000000033
 40
0.3125000000000033
 40
0.3437500000000037
 40
0.3437500000000037
 40
0.3750000000000041
 40
0.3750000000000041
 40
0.3906250000000044
 40
0.3906250000000044
 40
0.4062500000000047
 40
0.4062500000000047
 40
0.4375000000000048
 40
0.4375000000000048
 40
0.4687500000000049
 40
0.4687500000000049
 40
0.5000000000000049
 40
0.5000000000000049
 40
0.531250000000005
 40
0.531250000000005
 40
0.562500000000005
 40
0.562500000000005
 40
0.6250000000000044
 40
0.6250000000000044
 40
0.6875000000000038
 40
0.6875000000000038
 40
0.7500000000000031
 40
0.7500000000000031
 40
0.8750000000000016
 40
0.8750000000000016
 40
1.0
 40
1.0
 40
1.0
 40
1.0
 10
208.4567059348879
 20
114.3891129743714
 30
0.0
 10
209.6650907926451
 20
114.3940281913571
 30
0.0
 10
210.8735455719234
 20
114.4073287118064
 30
0.0
 10
213.2892639511434
 20
114.4564443045486
 30
0.0
 10
214.4965649577865
 20
114.4926678574804
 30
0.0
 10
216.908983481683
 20
114.6112703742609
 30
0.0
 10
218.1141757237174
 20
114.6934288582562
 30
0.0
 10
220.5201585260626
 20
114.9456811221918
 30
0.0
 10
221.7136002025773
 20
115.1149438269513
 30
0.0
 10
224.0675991782711
 20
115.6020473313336
 30
0.0
 10
225.2285274461847
 20
115.918204377588
 30
0.0
 10
226.9280138269833
 20
116.5818318048626
 30
0.0
 10
227.4793935244043
 20
116.832886917862
 30
0.0
 10
228.5381658298111
 20
117.4008356215771
 30
0.0
 10
229.0468732089613
 20
117.7181853053033
 30
0.0
 10
229.7759427408094
 20
118.2490718325242
 30
0.0
 10
230.0133110185752
 20
118.4351609576823
 30
0.0
 10
230.4764170110785
 20
118.8261107663999
 30
0.0
 10
230.7030483602823
 20
119.0319059071678
 30
0.0
 10
231.3560515155376
 20
119.6684475375638
 30
0.0
 10
231.7570934242678
 20
120.1190787368767
 30
0.0
 10
232.5012173625376
 20
121.0647447949338
 30
0.0
 10
232.8444071113571
 20
121.5596972937568
 30
0.0
 10
233.4815980972966
 20
122.5872882527222
 30
0.0
 10
233.776118107998
 20
123.1214692699588
 30
0.0
 10
234.3172323780258
 20
124.2071604271793
 30
0.0
 10
234.564959846093
 20
124.760094381456
 30
0.0
 10
235.0249021891925
 20
125.8816580778868
 30
0.0
 10
235.2374291768597
 20
126.451285990562
 30
0.0
 10
235.8297367222668
 20
128.1719224815113
 30
0.0
 10
236.1636730619191
 20
129.3301852468368
 30
0.0
 10
236.7525466683839
 20
131.6611946033452
 30
0.0
 10
237.0072120420677
 20
132.8339910927473
 30
0.0
 10
237.4642273968556
 20
135.1891771952967
 30
0.0
 10
237.6658821657832
 20
136.3716940040596
 30
0.0
 10
238.2067491216193
 20
139.9309934482608
 30
0.0
 10
238.485875940793
 20
142.3187910147523
 30
0.0
 10
238.9652495095808
 20
147.108852639315
 30
0.0
 10
239.161402397051
 20
149.5099643962399
 30
0.0
 10
239.3275741835398
 20
151.9124062010822
 30
0.0
  0
SPLINE
  5
185
330
1F
100
AcDbEntity
  8
0
  6
Continuous
 62
     8
370
     0
100
AcDbSpline
210
0.0
220
0.0
230
1.0
 70
     8
 71
     3
 72
    10
 73
     6
 74
     0
 42
0.00000001
 43
0.00000001
 40
0.0
 40
0.0
 40
0.0
 40
0.0
 40
0.5
 40
0.5
 40
1.0
 40
1.0
 40
1.0
 40
1.0
 10
218.3859172961692
 20
254.703463600605
 30
0.0
 10
218.365452186751
 20
254.6012185629197
 30
0.0
 10
218.3207083768999
 20
254.5000098751196
 30
0.0
 10
218.2246837634287
 20
254.3947136602339
 30
0.0
 10
218.1752174970231
 20
254.3926158719615
 30
0.0
 10
218.1475249828796
 20
254.4420534543953
 30
0.0
  0
SPLINE
  5
186
330
1F
100
AcDbEntity
  8
0
  6
Continuous
 62
     8
370
     0
100
AcDbSpline
210
0.0
220
0.0
230
1.0
 70
     8
 71
     3
 72
    10
 73
     6
 74
     0
 42
0.00000001
 43
0.00000001
 40
0.0
 40
0.0
 40
0.0
 40
0.0
 40
0.5
 40
0.5
 40
1.0
 40
1.0
 40
1.0
 40
1.0
 10
198.7659186622232
 20
254.4420632449821
 30
0.0
 10
198.7382301684838
 20
254.3926269056883
 30
0.0
 10
198.6887681387933
 20
254.3947254037528
 30
0.0
 10
198.5927480683898
 20
254.5000213212355
 30
0.0
 10
198.548004445037
 20
254.6012290447515
 30
0.0
 10
198.5275371757589
 20
254.7034731483775
 30
0.0
  0
SPLINE
  5
187
330
1F
100
AcDbEntity
  8
0
  6
Continuous
 62
     8
370
     0
100
AcDbSpline
210
0.0
220
0.0
230
1.0
 70
     8
 71
     3
 72
    13
 73
     9
 74
     0
 42
0.00000001
 43
0.00000001
 40
0.0
 40
0.0
 40
0.0
 40
0.0
 40
0.0745081734226706
 40
0.2999833118802878
 40
0.5254584503379105
 40
0.7509335887955316
 40
0.9764087272531485
 40
1.0
 40
1.0
 40
1.0
 40
1.0
 10
208.4545731450931
 20
273.656701795892
 30
0.0
 10
208.4546839795624
 20
273.6872572801907
 30
0.0
 10
208.4551302190771
 20
273.81027915759
 30
0.0
 10
208.4558310984293
 20
274.0034983004657
 30
0.0
 10
208.456541628672
 20
274.1993720186445
 30
0.0
 10
208.4569726672524
 20
274.3181888612411
 30
0.0
 10
208.4571573128773
 20
274.3690808820667
 30
0.0
 10
208.4571109976955
 20
274.3563049146658
 30
0.0
 10
208.4571066107768
 20
274.3550947903054
 30
0.0
  0
SPLINE
  5
188
330
1F
100
AcDbEntity
  8
0
  6
Continuous
 62
     8
370
     0
100
AcDbSpline
210
0.0
220
0.0
230
1.0
 70
     8
 71
     3
 72
    25
 73
    21
 74
     0
 42
0.00000001
 43
0.00000001
 40
0.0
 40
0.0
 40
0.0
 40
0.0
 40
0.0448279240628559
 40
0.1075550135478095
 40
0.1816806049488708
 40
0.3334868650379142
 40
0.4557500315701164
 40
0.5292687455237032
 40
0.5918478291900094
 40
0.6261457977498087
 40
0.6601444729441658
 40
0.6938655991334873
 40
0.7281075056370009
 40
0.7548531561326545
 40
0.8008082928475054
 40
0.8639888539584804
 40
0.8863227901902673
 40
0.9320831351693328
 40
0.978424272528074
 40
1.0
 40
1.0
 40
1.0
 40
1.0
 10
218.385882107321
 20
254.7034361734511
 30
0.0
 10
218.3719172112231
 20
255.0819678651629
 30
0.0
 10
218.3384114306098
 20
255.9901736784246
 30
0.0
 10
218.2753241963342
 20
257.5240583104384
 30
0.0
 10
218.1597127553995
 20
259.9604593105137
 30
0.0
 10
217.9768930539899
 20
262.8972092978482
 30
0.0
 10
217.6836550181725
 20
265.8211891592789
 30
0.0
 10
217.3343086342958
 20
267.977298239193
 30
0.0
 10
216.9954704172662
 20
269.3792789614312
 30
0.0
 10
216.6312248659423
 20
270.4248315418101
 30
0.0
 10
216.265958643835
 20
271.2077255090097
 30
0.0
 10
215.7902651857688
 20
271.9318294309692
 30
0.0
 10
215.2091360271156
 20
272.4934397705565
 30
0.0
 10
214.4394359023972
 20
272.9752632926508
 30
0.0
 10
213.3473733268585
 20
273.3626623814885
 30
0.0
 10
212.2435574818129
 20
273.5231812851893
 30
0.0
 10
211.1379856993454
 20
273.611283478568
 30
0.0
 10
210.1712790160196
 20
273.648017247824
 30
0.0
 10
209.2107756893782
 20
273.6581387305067
 30
0.0
 10
208.6368851494601
 20
273.6569548878996
 30
0.0
 10
208.4545724658746
 20
273.6565788065607
 30
0.0
  0
SPLINE
  5
189
330
1F
100
AcDbEntity
  8
0
  6
Continuous
 62
     8
370
     0
100
AcDbSpline
210
0.0
220
0.0
230
1.0
 70
     8
 71
     3
 72
    25
 73
    21
 74
     0
 42
0.00000001
 43
0.00000001
 40
0.0
 40
0.0
 40
0.0
 40
0.0
 40
0.0245489425063788
 40
0.0680676581265268
 40
0.1140711539117327
 40
0.1364152206773152
 40
0.1824908005015448
 40
0.2209879504278172
 40
0.2512996733571852
 40
0.2728501386255499
 40
0.3069039672362038
 40
0.3409198569723449
 40
0.374581041106335
 40
0.4090960952394324
 40
0.4692632474529203
 40
0.5454904707356593
 40
0.6639533586632397
 40
0.8193889840193005
 40
0.9559142217995324
 40
1.0
 40
1.0
 40
1.0
 40
1.0
 10
208.4545714361816
 20
273.656580705317
 30
0.0
 10
208.2471526233541
 20
273.656982353808
 30
0.0
 10
207.6720356774049
 20
273.6580960177538
 30
0.0
 10
206.7082766564795
 20
273.6469475931247
 30
0.0
 10
205.763439343572
 20
273.6105459184864
 30
0.0
 10
204.7997219608472
 20
273.533240480232
 30
0.0
 10
203.9030227185331
 20
273.4117757099465
 30
0.0
 10
202.9610908919945
 20
273.1633428642111
 30
0.0
 10
202.2608851283961
 20
272.8492469873939
 30
0.0
 10
201.6538779273269
 20
272.4470546368099
 30
0.0
 10
201.1084129764167
 20
271.9113509151424
 30
0.0
 10
200.636003691277
 20
271.1876243792055
 30
0.0
 10
200.27350046824
 20
270.4019145640986
 30
0.0
 10
199.9181449025272
 20
269.3760980465433
 30
0.0
 10
199.5774092809585
 20
267.970418693454
 30
0.0
 10
199.2332232661047
 20
265.8434870049595
 30
0.0
 10
198.9360064196604
 20
262.8987651688751
 30
0.0
 10
198.7212038494104
 20
259.4373238062535
 30
0.0
 10
198.5975672460513
 20
256.6006401268938
 30
0.0
 10
198.5412761252938
 20
255.0756710723844
 30
0.0
 10
198.5275358899549
 20
254.7034377003797
 30
0.0
  0
ENDSEC
  0
SECTION
  2
OBJECTS
  0
DICTIONARY
  5
C
330
0
100
AcDbDictionary
281
     1
  3
ACAD_GROUP
350
D
  3
ACAD_LAYOUT
350
1A
  3
ACAD_MATERIAL
350
3B
  3
ACAD_MLEADERSTYLE
350
18B
  3
ACAD_MLINESTYLE
350
17
  3
ACAD_PLOTSETTINGS
350
19
  3
ACAD_PLOTSTYLENAME
350
E
  3
ACAD_TABLESTYLE
350
18A
  3
ACAD_VISUALSTYLE
350
2A
  0
DICTIONARY
  5
D
102
{ACAD_REACTORS
330
C
102
}
330
C
100
AcDbDictionary
281
     1
  0
DICTIONARY
  5
1A
102
{ACAD_REACTORS
330
C
102
}
330
C
100
AcDbDictionary
281
     1
  3
Layout1
350
1E
  3
Layout2
350
26
  3
Model
350
22
  0
DICTIONARY
  5
3B
102
{ACAD_REACTORS
330
C
102
}
330
C
100
AcDbDictionary
281
     1
  3
ByBlock
350
3D
  3
ByLayer
350
3C
  3
Global
350
3E
  0
DICTIONARY
  5
18B
102
{ACAD_REACTORS
330
C
102
}
330
C
100
AcDbDictionary
281
     1
  0
DICTIONARY
  5
17
102
{ACAD_REACTORS
330
C
102
}
330
C
100
AcDbDictionary
281
     1
  3
Standard
350
18
  0
DICTIONARY
  5
19
102
{ACAD_REACTORS
330
C
102
}
330
C
100
AcDbDictionary
281
     1
  0
ACDBDICTIONARYWDFLT
  5
E
102
{ACAD_REACTORS
330
C
102
}
330
C
100
AcDbDictionary
281
     1
  3
Normal
350
F
100
AcDbDictionaryWithDefault
340
F
  0
DICTIONARY
  5
18A
102
{ACAD_REACTORS
330
C
102
}
330
C
100
AcDbDictionary
281
     1
  0
DICTIONARY
  5
2A
102
{ACAD_REACTORS
330
C
102
}
330
C
100
AcDbDictionary
281
     1
  3
2dWireframe
350
2F
  3
3D Hidden
350
31
  3
3dWireframe
350
30
  3
Basic
350
32
  3
Brighten
350
36
  3
ColorChange
350
3A
  3
Conceptual
350
34
  3
Dim
350
35
  3
Facepattern
350
39
  3
Flat
350
2B
  3
FlatWithEdges
350
2C
  3
Gouraud
350
2D
  3
GouraudWithEdges
350
2E
  3
Linepattern
350
38
  3
Realistic
350
33
  3
Thicken
350
37
  0
LAYOUT
  5
1E
102
{ACAD_REACTORS
330
1A
102
}
330
1A
100
AcDbPlotSettings
  1

  2
none_device
  4

  6

 40
0.0
 41
0.0
 42
0.0
 43
0.0
 44
0.0
 45
0.0
 46
0.0
 47
0.0
 48
0.0
 49
0.0
140
0.0
141
0.0
142
1.0
143
1.0
 70
   688
 72
     0
 73
     0
 74
     5
  7

 75
    16
 76
     0
 77
     2
 78
   300
147
1.0
148
0.0
149
0.0
100
AcDbLayout
  1
Layout1
 70
     1
 71
     1
 10
0.0
 20
0.0
 11
420.0
 21
297.0
 12
0.0
 22
0.0
 32
0.0
 14
1.0000000000E+20
 24
1.0000000000E+20
 34
1.0000000000E+20
 15
-1.0000000000E+20
 25
-1.0000000000E+20
 35
-1.0000000000E+20
146
0.0
 13
0.0
 23
0.0
 33
0.0
 16
1.0
 26
0.0
 36
0.0
 17
0.0
 27
1.0
 37
0.0
 76
     0
330
1B
  0
LAYOUT
  5
26
102
{ACAD_REACTORS
330
1A
102
}
330
1A
100
AcDbPlotSettings
  1

  2
none_device
  4

  6

 40
0.0
 41
0.0
 42
0.0
 43
0.0
 44
0.0
 45
0.0
 46
0.0
 47
0.0
 48
0.0
 49
0.0
140
0.0
141
0.0
142
1.0
143
1.0
 70
   688
 72
     0
 73
     0
 74
     5
  7

 75
    16
 76
     0
 77
     2
 78
   300
147
1.0
148
0.0
149
0.0
100
AcDbLayout
  1
Layout2
 70
     1
 71
     2
 10
0.0
 20
0.0
 11
0.0
 21
0.0
 12
0.0
 22
0.0
 32
0.0
 14
0.0
 24
0.0
 34
0.0
 15
0.0
 25
0.0
 35
0.0
146
0.0
 13
0.0
 23
0.0
 33
0.0
 16
1.0
 26
0.0
 36
0.0
 17
0.0
 27
1.0
 37
0.0
 76
     0
330
23
  0
LAYOUT
  5
22
102
{ACAD_REACTORS
330
1A
102
}
330
1A
100
AcDbPlotSettings
  1

  2
none_device
  4

  6

 40
0.0
 41
0.0
 42
0.0
 43
0.0
 44
0.0
 45
0.0
 46
0.0
 47
0.0
 48
0.0
 49
0.0
140
0.0
141
0.0
142
1.0
143
1.0
 70
  1712
 72
     0
 73
     0
 74
     0
  7

 75
     0
 76
     0
 77
     2
 78
   300
147
1.0
148
0.0
149
0.0
100
AcDbLayout
  1
Model
 70
     1
 71
     0
 10
0.0
 20
0.0
 11
594.0
 21
841.0
 12
0.0
 22
0.0
 32
0.0
 14
0.0
 24
0.0
 34
0.0
 15
594.0
 25
841.0
 35
0.0
146
0.0
 13
0.0
 23
0.0
 33
0.0
 16
1.0
 26
0.0
 36
0.0
 17
0.0
 27
1.0
 37
0.0
 76
     0
330
1F
331
29
  0
MATERIAL
  5
3D
102
{ACAD_REACTORS
330
3B
102
}
330
3B
100
AcDbMaterial
  1
ByBlock
 72
     1
 94
      127
  0
MATERIAL
  5
3C
102
{ACAD_REACTORS
330
3B
102
}
330
3B
100
AcDbMaterial
  1
ByLayer
 72
     1
 94
      127
  0
MATERIAL
  5
3E
102
{ACAD_REACTORS
330
3B
102
}
330
3B
100
AcDbMaterial
  1
Global
 72
     1
 94
      127
  0
MLINESTYLE
  5
18
102
{ACAD_REACTORS
330
17
102
}
330
17
100
AcDbMlineStyle
  2
Standard
 70
     0
  3

 62
   256
 51
90.0
 52
90.0
 71
     2
 49
0.5
 62
   256
  6
BYLAYER
 49
-0.5
 62
   256
  6
BYLAYER
  0
ACDBPLACEHOLDER
  5
F
102
{ACAD_REACTORS
330
E
102
}
330
E
  0
VISUALSTYLE
  5
2F
102
{ACAD_REACTORS
330
2A
102
}
330
2A
100
AcDbVisualStyle
  2
2dWireframe
 70
     4
177
     2
291
     0
 71
     0
176
     1
 72
     2
176
     1
 73
     0
176
     1
 90
        0
176
     1
 40
-0.6
176
     1
 41
-30.0
176
     1
 62
     5
 63
     7
421
 16777215
176
     1
 74
     1
176
     1
 91
        4
176
     1
 64
     7
176
     1
 65
   257
176
     1
 75
     1
176
     1
175
     1
176
     1
 42
1.0
176
     1
 92
        0
176
     1
 66
   257
176
     1
 43
1.0
176
     1
 76
     1
176
     1
 77
     6
176
     1
 78
     2
176
     1
 67
     7
176
     1
 79
     5
176
     1
170
     0
176
     1
171
     0
176
     1
290
     0
176
     1
 93
        1
176
     1
 44
0.0
176
     1
173
     0
176
     1
  0
VISUALSTYLE
  5
31
102
{ACAD_REACTORS
330
2A
102
}
330
2A
100
AcDbVisualStyle
  2
3D Hidden
 70
     6
177
     2
291
     0
 71
     1
176
     1
 72
     2
176
     1
 73
     2
176
     1
 90
        0
176
     1
 40
-0.6
176
     1
 41
-30.0
176
     1
 62
     5
 63
     7
421
 16777215
176
     1
 74
     2
176
     1
 91
        2
176
     1
 64
     7
176
     1
 65
   257
176
     1
 75
     2
176
     1
175
     1
176
     1
 42
40.0
176
     1
 92
        0
176
     1
 66
   257
176
     1
 43
1.0
176
     1
 76
     1
176
     1
 77
     6
176
     1
 78
     2
176
     1
 67
     7
176
     1
 79
     3
176
     1
170
     0
176
     1
171
     0
176
     1
290
     0
176
     1
 93
        1
176
     1
 44
0.0
176
     1
173
     0
176
     1
  0
VISUALSTYLE
  5
30
102
{ACAD_REACTORS
330
2A
102
}
330
2A
100
AcDbVisualStyle
  2
3dWireframe
 70
     5
177
     2
291
     0
 71
     0
176
     1
 72
     2
176
     1
 73
     0
176
     1
 90
        0
176
     1
 40
-0.6
176
     1
 41
-30.0
176
     1
 62
     5
 63
     7
421
 16777215
176
     1
 74
     1
176
     1
 91
        4
176
     1
 64
     7
176
     1
 65
   257
176
     1
 75
     1
176
     1
175
     1
176
     1
 42
1.0
176
     1
 92
        0
176
     1
 66
   257
176
     1
 43
1.0
176
     1
 76
     1
176
     1
 77
     6
176
     1
 78
     2
176
     1
 67
     7
176
     1
 79
     5
176
     1
170
     0
176
     1
171
     0
176
     1
290
     0
176
     1
 93
        1
176
     1
 44
0.0
176
     1
173
     0
176
     1
  0
VISUALSTYLE
  5
32
102
{ACAD_REACTORS
330
2A
102
}
330
2A
100
AcDbVisualStyle
  2
Basic
 70
     7
177
     2
291
     1
 71
     1
176
     1
 72
     0
176
     1
 73
     1
176
     1
 90
        0
176
     1
 40
-0.6
176
     1
 41
-30.0
176
     1
 62
     5
 63
     7
421
 16777215
176
     1
 74
     0
176
     1
 91
        4
176
     1
 64
     7
176
     1
 65
   257
176
     1
 75
     1
176
     1
175
     1
176
     1
 42
1.0
176
     1
 92
        8
176
     1
 66
     7
176
     1
 43
1.0
176
     1
 76
     1
176
     1
 77
     6
176
     1
 78
     2
176
     1
 67
     7
176
     1
 79
     5
176
     1
170
     0
176
     1
171
     0
176
     1
290
     0
176
     1
 93
        1
176
     1
 44
0.0
176
     1
173
     0
176
     1
  0
VISUALSTYLE
  5
36
102
{ACAD_REACTORS
330
2A
102
}
330
2A
100
AcDbVisualStyle
  2
Brighten
 70
    12
177
     2
291
     1
 71
     2
176
     1
 72
     2
176
     1
 73
     0
176
     1
 90
        0
176
     1
 40
-0.6
176
     1
 41
-30.0
176
     1
 62
     5
 63
     7
421
 16777215
176
     1
 74
     1
176
     1
 91
        4
176
     1
 64
     7
176
     1
 65
   257
176
     1
 75
     1
176
     1
175
     1
176
     1
 42
1.0
176
     1
 92
        8
176
     1
 66
     7
176
     1
 43
1.0
176
     1
 76
     1
176
     1
 77
     6
176
     1
 78
     2
176
     1
 67
     7
176
     1
 79
     5
176
     1
170
     0
176
     1
171
     0
176
     1
290
     0
176
     1
 93
        1
176
     1
 44
50.0
176
     1
173
     0
176
     1
  0
VISUALSTYLE
  5
3A
102
{ACAD_REACTORS
330
2A
102
}
330
2A
100
AcDbVisualStyle
  2
ColorChange
 70
    16
177
     2
291
     1
 71
     2
176
     1
 72
     2
176
     1
 73
     3
176
     1
 90
        0
176
     1
 40
-0.6
176
     1
 41
-30.0
176
     1
 62
     5
 63
     8
421
  8421504
176
     1
 74
     1
176
     1
 91
        4
176
     1
 64
     7
176
     1
 65
   257
176
     1
 75
     1
176
     1
175
     1
176
     1
 42
1.0
176
     1
 92
        8
176
     1
 66
     8
424
  8421504
176
     1
 43
1.0
176
     1
 76
     1
176
     1
 77
     6
176
     1
 78
     2
176
     1
 67
     7
176
     1
 79
     5
176
     1
170
     0
176
     1
171
     0
176
     1
290
     0
176
     1
 93
        1
176
     1
 44
0.0
176
     1
173
     0
176
     1
  0
VISUALSTYLE
  5
34
102
{ACAD_REACTORS
330
2A
102
}
330
2A
100
AcDbVisualStyle
  2
Conceptual
 70
     9
177
     2
291
     0
 71
     3
176
     1
 72
     2
176
     1
 73
     0
176
     1
 90
        0
176
     1
 40
-0.6
176
     1
 41
-30.0
176
     1
 62
     5
 63
     7
421
 16777215
176
     1
 74
     2
176
     1
 91
        2
176
     1
 64
     7
176
     1
 65
   257
176
     1
 75
     1
176
     1
175
     1
176
     1
 42
40.0
176
     1
 92
        8
176
     1
 66
     7
176
     1
 43
1.0
176
     1
 76
     1
176
     1
 77
     6
176
     1
 78
     2
176
     1
 67
     7
176
     1
 79
     3
176
     1
170
     0
176
     1
171
     0
176
     1
290
     0
176
     1
 93
        1
176
     1
 44
0.0
176
     1
173
     0
176
     1
  0
VISUALSTYLE
  5
35
102
{ACAD_REACTORS
330
2A
102
}
330
2A
100
AcDbVisualStyle
  2
Dim
 70
    11
177
     2
291
     1
 71
     2
176
     1
 72
     2
176
     1
 73
     0
176
     1
 90
        0
176
     1
 40
-0.6
176
     1
 41
-30.0
176
     1
 62
     5
 63
     7
421
 16777215
176
     1
 74
     1
176
     1
 91
        4
176
     1
 64
     7
176
     1
 65
   257
176
     1
 75
     1
176
     1
175
     1
176
     1
 42
1.0
176
     1
 92
        8
176
     1
 66
     7
176
     1
 43
1.0
176
     1
 76
     1
176
     1
 77
     6
176
     1
 78
     2
176
     1
 67
     7
176
     1
 79
     5
176
     1
170
     0
176
     1
171
     0
176
     1
290
     0
176
     1
 93
        1
176
     1
 44
-50.0
176
     1
173
     0
176
     1
  0
VISUALSTYLE
  5
39
102
{ACAD_REACTORS
330
2A
102
}
330
2A
100
AcDbVisualStyle
  2
Facepattern
 70
    15
177
     2
291
     1
 71
     2
176
     1
 72
     2
176
     1
 73
     0
176
     1
 90
        0
176
     1
 40
-0.6
176
     1
 41
-30.0
176
     1
 62
     5
 63
     7
421
 16777215
176
     1
 74
     1
176
     1
 91
        4
176
     1
 64
     7
176
     1
 65
   257
176
     1
 75
     1
176
     1
175
     1
176
     1
 42
1.0
176
     1
 92
        8
176
     1
 66
     7
176
     1
 43
1.0
176
     1
 76
     1
176
     1
 77
     6
176
     1
 78
     2
176
     1
 67
     7
176
     1
 79
     5
176
     1
170
     0
176
     1
171
     0
176
     1
290
     0
176
     1
 93
        1
176
     1
 44
0.0
176
     1
173
     0
176
     1
  0
VISUALSTYLE
  5
2B
102
{ACAD_REACTORS
330
2A
102
}
330
2A
100
AcDbVisualStyle
  2
Flat
 70
     0
177
     2
291
     1
 71
     2
176
     1
 72
     1
176
     1
 73
     1
176
     1
 90
        2
176
     1
 40
-0.6
176
     1
 41
30.0
176
     1
 62
     5
 63
     7
421
 16777215
176
     1
 74
     0
176
     1
 91
        4
176
     1
 64
     7
176
     1
 65
   257
176
     1
 75
     1
176
     1
175
     1
176
     1
 42
1.0
176
     1
 92
        8
176
     1
 66
     7
176
     1
 43
1.0
176
     1
 76
     1
176
     1
 77
     6
176
     1
 78
     2
176
     1
 67
     7
176
     1
 79
     5
176
     1
170
     0
176
     1
171
     0
176
     1
290
     0
176
     1
 93
       13
176
     1
 44
0.0
176
     1
173
     0
176
     1
  0
VISUALSTYLE
  5
2C
102
{ACAD_REACTORS
330
2A
102
}
330
2A
100
AcDbVisualStyle
  2
FlatWithEdges
 70
     1
177
     2
291
     1
 71
     2
176
     1
 72
     1
176
     1
 73
     1
176
     1
 90
        2
176
     1
 40
-0.6
176
     1
 41
30.0
176
     1
 62
     5
 63
     7
421
 16777215
176
     1
 74
     1
176
     1
 91
        4
176
     1
 64
     7
176
     1
 65
   257
176
     1
 75
     1
176
     1
175
     1
176
     1
 42
1.0
176
     1
 92
        0
176
     1
 66
   257
176
     1
 43
1.0
176
     1
 76
     1
176
     1
 77
     6
176
     1
 78
     2
176
     1
 67
     7
176
     1
 79
     5
176
     1
170
     0
176
     1
171
     0
176
     1
290
     0
176
     1
 93
       13
176
     1
 44
0.0
176
     1
173
     0
176
     1
  0
VISUALSTYLE
  5
2D
102
{ACAD_REACTORS
330
2A
102
}
330
2A
100
AcDbVisualStyle
  2
Gouraud
 70
     2
177
     2
291
     1
 71
     2
176
     1
 72
     2
176
     1
 73
     1
176
     1
 90
        2
176
     1
 40
-0.6
176
     1
 41
30.0
176
     1
 62
     5
 63
     7
421
 16777215
176
     1
 74
     0
176
     1
 91
        4
176
     1
 64
     7
176
     1
 65
   257
176
     1
 75
     1
176
     1
175
     1
176
     1
 42
1.0
176
     1
 92
        0
176
     1
 66
     7
176
     1
 43
1.0
176
     1
 76
     1
176
     1
 77
     6
176
     1
 78
     2
176
     1
 67
     7
176
     1
 79
     5
176
     1
170
     0
176
     1
171
     0
176
     1
290
     0
176
     1
 93
       13
176
     1
 44
0.0
176
     1
173
     0
176
     1
  0
VISUALSTYLE
  5
2E
102
{ACAD_REACTORS
330
2A
102
}
330
2A
100
AcDbVisualStyle
  2
GouraudWithEdges
 70
     3
177
     2
291
     1
 71
     2
176
     1
 72
     2
176
     1
 73
     1
176
     1
 90
        2
176
     1
 40
-0.6
176
     1
 41
30.0
176
     1
 62
     5
 63
     7
421
 16777215
176
     1
 74
     1
176
     1
 91
        4
176
     1
 64
     7
176
     1
 65
   257
176
     1
 75
     1
176
     1
175
     1
176
     1
 42
1.0
176
     1
 92
        0
176
     1
 66
   257
176
     1
 43
1.0
176
     1
 76
     1
176
     1
 77
     6
176
     1
 78
     2
176
     1
 67
     7
176
     1
 79
     5
176
     1
170
     0
176
     1
171
     0
176
     1
290
     0
176
     1
 93
       13
176
     1
 44
0.0
176
     1
173
     0
176
     1
  0
VISUALSTYLE
  5
38
102
{ACAD_REACTORS
330
2A
102
}
330
2A
100
AcDbVisualStyle
  2
Linepattern
 70
    14
177
     2
291
     1
 71
     2
176
     1
 72
     2
176
     1
 73
     0
176
     1
 90
        0
176
     1
 40
-0.6
176
     1
 41
-30.0
176
     1
 62
     5
 63
     7
421
 16777215
176
     1
 74
     1
176
     1
 91
        4
176
     1
 64
     7
176
     1
 65
   257
176
     1
 75
     7
176
     1
175
     7
176
     1
 42
1.0
176
     1
 92
        8
176
     1
 66
     7
176
     1
 43
1.0
176
     1
 76
     1
176
     1
 77
     6
176
     1
 78
     2
176
     1
 67
     7
176
     1
 79
     5
176
     1
170
     0
176
     1
171
     0
176
     1
290
     0
176
     1
 93
        1
176
     1
 44
0.0
176
     1
173
     0
176
     1
  0
VISUALSTYLE
  5
33
102
{ACAD_REACTORS
330
2A
102
}
330
2A
100
AcDbVisualStyle
  2
Realistic
 70
     8
177
     2
291
     0
 71
     2
176
     1
 72
     2
176
     1
 73
     0
176
     1
 90
        0
176
     1
 40
-0.6
176
     1
 41
-30.0
176
     1
 62
     5
 63
     7
421
 16777215
176
     1
 74
     1
176
     1
 91
        0
176
     1
 64
     7
176
     1
 65
   257
176
     1
 75
     1
176
     1
175
     1
176
     1
 42
1.0
176
     1
 92
        8
176
     1
 66
     8
424
  7895160
176
     1
 43
1.0
176
     1
 76
     1
176
     1
 77
     6
176
     1
 78
     2
176
     1
 67
     7
176
     1
 79
     5
176
     1
170
     0
176
     1
171
     0
176
     1
290
     0
176
     1
 93
       13
176
     1
 44
0.0
176
     1
173
     0
176
     1
  0
VISUALSTYLE
  5
37
102
{ACAD_REACTORS
330
2A
102
}
330
2A
100
AcDbVisualStyle
  2
Thicken
 70
    13
177
     2
291
     1
 71
     2
176
     1
 72
     2
176
     1
 73
     0
176
     1
 90
        0
176
     1
 40
-0.6
176
     1
 41
-30.0
176
     1
 62
     5
 63
     7
421
 16777215
176
     1
 74
     1
176
     1
 91
        4
176
     1
 64
     7
176
     1
 65
   257
176
     1
 75
     1
176
     1
175
     1
176
     1
 42
1.0
176
     1
 92
       12
176
     1
 66
     7
176
     1
 43
1.0
176
     1
 76
     1
176
     1
 77
     6
176
     1
 78
     2
176
     1
 67
     7
176
     1
 79
     5
176
     1
170
     0
176
     1
171
     0
176
     1
290
     0
176
     1
 93
        1
176
     1
 44
0.0
176
     1
173
     0
176
     1
  0
ENDSEC
  0
EOF
