  0
SECTION
  2
HEADER
  9
$ACADVER
  1
AC1009
  9
$DWGCODEPAGE
  3
ansi_1252
  9
$INSBASE
 10
0.0
 20
0.0
 30
0.0
  9
$EXTMIN
 10
0.0
 20
0.0
 30
0.0
  9
$EXTMAX
 10
841.0
 20
1189.0
 30
0.0
  9
$LIMMIN
 10
0.0
 20
0.0
  9
$LIMMAX
 10
841.0
 20
1189.0
  9
$ORTHOMODE
 70
     0
  9
$REGENMODE
 70
     1
  9
$FILLMODE
 70
     1
  9
$QTEXTMODE
 70
     0
  9
$MIRRTEXT
 70
     1
  9
$DRAGMODE
 70
     2
  9
$LTSCALE
 40
1.0
  9
$OSMODE
 70
    37
  9
$ATTMODE
 70
     1
  9
$TEXTSIZE
 40
10.0
  9
$TRACEWID
 40
1.0
  9
$TEXTSTYLE
  7
STANDARD
  9
$CLAYER
  8
0
  9
$CELTYPE
  6
BYLAYER
  9
$CECOLOR
 62
   256
  9
$DIMSCALE
 40
1.0
  9
$DIMASZ
 40
2.5
  9
$DIMEXO
 40
0.0
  9
$DIMDLI
 40
3.75
  9
$DIMRND
 40
0.0
  9
$DIMDLE
 40
0.0
  9
$DIMEXE
 40
1.0
  9
$DIMTP
 40
0.0
  9
$DIMTM
 40
0.0
  9
$DIMTXT
 40
3.5
  9
$DIMCEN
 40
2.5
  9
$DIMTSZ
 40
0.0
  9
$DIMTOL
 70
     0
  9
$DIMLIM
 70
     0
  9
$DIMTIH
 70
     1
  9
$DIMTOH
 70
     1
  9
$DIMSE1
 70
     0
  9
$DIMSE2
 70
     0
  9
$DIMTAD
 70
     1
  9
$DIMZIN
 70
     0
  9
$DIMBLK
  1

  9
$DIMASO
 70
     1
  9
$DIMSHO
 70
     1
  9
$DIMPOST
  1

  9
$DIMAPOST
  1

  9
$DIMALT
 70
     0
  9
$DIMALTD
 70
     3
  9
$DIMALTF
 40
0.0393700787
  9
$DIMLFAC
 40
2.0
  9
$DIMTOFL
 70
     1
  9
$DIMTVP
 40
0.0
  9
$DIMTIX
 70
     0
  9
$DIMSOXD
 70
     0
  9
$DIMSAH
 70
     0
  9
$DIMBLK1
  1

  9
$DIMBLK2
  1

  9
$DIMSTYLE
  2
ISO-25
  9
$DIMCLRD
 70
     0
  9
$DIMCLRE
 70
     0
  9
$DIMCLRT
 70
     0
  9
$DIMTFAC
 40
1.0
  9
$DIMGAP
 40
1.5
  9
$LUNITS
 70
     2
  9
$LUPREC
 70
     2
  9
$SKETCHINC
 40
1.0
  9
$FILLETRAD
 40
10.0
  9
$AUNITS
 70
     0
  9
$AUPREC
 70
     2
  9
$MENU
  1
.
  9
$ELEVATION
 40
0.0
  9
$PELEVATION
 40
0.0
  9
$THICKNESS
 40
0.0
  9
$LIMCHECK
 70
     0
  9
$CHAMFERA
 40
0.0
  9
$CHAMFERB
 40
0.0
  9
$SKPOLY
 70
     0
  9
$TDCREATE
 40
2458712.335804838
  9
$TDUPDATE
 40
2458712.335805382
  9
$TDINDWG
 40
0.0000000116
  9
$TDUSRTIMER
 40
0.0000000116
  9
$USRTIMER
 70
     1
  9
$ANGBASE
 50
0.0
  9
$ANGDIR
 70
     0
  9
$PDMODE
 70
     0
  9
$PDSIZE
 40
-1.0
  9
$PLINEWID
 40
0.0
  9
$COORDS
 70
     1
  9
$SPLFRAME
 70
     0
  9
$SPLINETYPE
 70
     6
  9
$SPLINESEGS
 70
     8
  9
$ATTDIA
 70
     0
  9
$ATTREQ
 70
     1
  9
$HANDLING
 70
     1
  9
$HANDSEED
  5
24B
  9
$SURFTAB1
 70
     6
  9
$SURFTAB2
 70
     6
  9
$SURFTYPE
 70
     6
  9
$SURFU
 70
     6
  9
$SURFV
 70
     6
  9
$UCSNAME
  2

  9
$UCSORG
 10
0.0
 20
0.0
 30
0.0
  9
$UCSXDIR
 10
1.0
 20
0.0
 30
0.0
  9
$UCSYDIR
 10
0.0
 20
1.0
 30
0.0
  9
$PUCSNAME
  2

  9
$PUCSORG
 10
0.0
 20
0.0
 30
0.0
  9
$PUCSXDIR
 10
1.0
 20
0.0
 30
0.0
  9
$PUCSYDIR
 10
0.0
 20
1.0
 30
0.0
  9
$USERI1
 70
     0
  9
$USERI2
 70
     0
  9
$USERI3
 70
     0
  9
$USERI4
 70
     0
  9
$USERI5
 70
     0
  9
$USERR1
 40
0.0
  9
$USERR2
 40
0.0
  9
$USERR3
 40
0.0
  9
$USERR4
 40
0.0
  9
$USERR5
 40
0.0
  9
$WORLDVIEW
 70
     1
  9
$SHADEDGE
 70
     3
  9
$SHADEDIF
 70
    70
  9
$TILEMODE
 70
     1
  9
$MAXACTVP
 70
    64
  9
$PLIMCHECK
 70
     0
  9
$PEXTMIN
 10
1.0000000000E+20
 20
1.0000000000E+20
 30
1.0000000000E+20
  9
$PEXTMAX
 10
-1.0000000000E+20
 20
-1.0000000000E+20
 30
-1.0000000000E+20
  9
$PLIMMIN
 10
0.0
 20
0.0
  9
$PLIMMAX
 10
420.0
 20
297.0
  9
$UNITMODE
 70
     0
  9
$VISRETAIN
 70
     1
  9
$PLINEGEN
 70
     0
  9
$PSLTSCALE
 70
     1
  0
ENDSEC
  0
SECTION
  2
TABLES
  0
TABLE
  2
VPORT
 70
     1
  0
VPORT
  2
*ACTIVE
 70
     0
 10
0.0
 20
0.0
 11
1.0
 21
1.0
 12
420.5
 22
594.5
 13
0.0
 23
0.0
 14
10.0
 24
10.0
 15
10.0
 25
10.0
 16
0.0
 26
0.0
 36
1.0
 17
0.0
 27
0.0
 37
0.0
 40
1189.0
 41
0.7073170732
 42
50.0
 43
0.0
 44
0.0
 50
0.0
 51
0.0
 71
     0
 72
  2000
 73
     1
 74
     3
 75
     0
 76
     0
 77
     0
 78
     0
  0
ENDTAB
  0
TABLE
  2
LTYPE
 70
     6
  0
LTYPE
  2
CONTINUOUS
 70
     0
  3
Solid line
 72
    65
 73
     0
 40
0.0
  0
LTYPE
  2
HIDDEN
 70
     0
  3
Hidden __ __ __ __ __ __ __ __ __ __ __ __ __ __
 72
    65
 73
     2
 40
1.905
 49
1.27
 49
-0.635
  0
LTYPE
  2
PHANTOM
 70
     0
  3
Phantom ______  __  __  ______  __  __  ______
 72
    65
 73
     6
 40
12.7
 49
6.35
 49
-1.27
 49
1.27
 49
-1.27
 49
1.27
 49
-1.27
  0
LTYPE
  2
CENTER
 70
     0
  3
Center ____ _ ____ _ ____ _ ____ _ ____ _ ____
 72
    65
 73
     4
 40
10.16
 49
6.35
 49
-1.27
 49
1.27
 49
-1.27
  0
LTYPE
  2
CENTERX2
 70
     0
  3
Center (2x) ________  __  ________  __  _____
 72
    65
 73
     4
 40
20.32
 49
12.7
 49
-2.54
 49
2.54
 49
-2.54
  0
LTYPE
  2
DOT2
 70
     0
  3
Dot (.5x) ........................................
 72
    65
 73
     2
 40
0.635
 49
0.0
 49
-0.635
  0
ENDTAB
  0
TABLE
  2
LAYER
 70
     1
  0
LAYER
  2
0
 70
     0
 62
     7
  6
CONTINUOUS
  0
ENDTAB
  0
TABLE
  2
STYLE
 70
     1
  0
STYLE
  2
STANDARD
 70
     0
 40
0.0
 41
1.0
 50
0.0
 71
     0
 42
10.0
  3
txt
  4

  0
ENDTAB
  0
TABLE
  2
VIEW
 70
     0
  0
ENDTAB
  0
TABLE
  2
UCS
 70
     0
  0
ENDTAB
  0
TABLE
  2
APPID
 70
     1
  0
APPID
  2
ACAD
 70
     0
  0
ENDTAB
  0
TABLE
  2
DIMSTYLE
 70
     2
  0
DIMSTYLE
  2
ISO-25
 70
     0
  3

  4

  5

  6

  7

 40
1.0
 41
2.5
 42
0.625
 43
3.75
 44
1.25
 45
0.0
 46
0.0
 47
0.0
 48
0.0
140
2.5
141
2.5
142
0.0
143
0.0393700787
144
1.0
145
0.0
146
1.0
147
0.625
 71
     0
 72
     0
 73
     0
 74
     0
 75
     0
 76
     0
 77
     1
 78
     8
170
     0
171
     3
172
     1
173
     0
174
     0
175
     0
176
     0
177
     0
178
     0
  0
DIMSTYLE
  2
SLDDIMSTYLE0
 70
     0
  3

  4

  5

  6

  7

 40
1.0
 41
2.5
 42
0.0625
 43
0.38
 44
0.0
 45
0.000000001
 46
0.0
 47
0.0
 48
0.0
140
6.0
141
0.09
142
0.0
143
25.4
144
2.0
145
0.0
146
1.0
147
1.5
 71
     0
 72
     0
 73
     0
 74
     0
 75
     0
 76
     0
 77
     1
 78
    12
170
     0
171
     2
172
     0
173
     1
174
     0
175
     0
176
     0
177
     0
178
     0
  0
ENDTAB
  0
ENDSEC
  0
SECTION
  2
BLOCKS
  0
BLOCK
  8
0
  2
$MODEL_SPACE
 70
     0
 10
0.0
 20
0.0
 30
0.0
  3
$MODEL_SPACE
  1

  0
ENDBLK
  5
21
  8
0
  0
BLOCK
 67
     1
  8
0
  2
$PAPER_SPACE
 70
     0
 10
0.0
 20
0.0
 30
0.0
  3
$PAPER_SPACE
  1

  0
ENDBLK
  5
1D
 67
     1
  8
0
  0
BLOCK
  8
0
  2
_D
 70
     0
 10
0.0
 20
0.0
 30
0.0
  3
_D
  1

  0
SOLID
  5
7A
  8
0
  6
CONTINUOUS
 62
     7
 10
42.7614395004
 20
152.0299240879
 30
0.0
 11
42.4614395004
 21
149.5299240879
 31
0.0
 12
43.0614395004
 22
149.5299240879
 32
0.0
 13
43.0614395004
 23
149.5299240879
 33
0.0
  0
SOLID
  5
7B
  8
0
  6
CONTINUOUS
 62
     7
 10
42.7614395004
 20
52.0299240879
 30
0.0
 11
43.0614395004
 21
54.5299240879
 31
0.0
 12
42.4614395004
 22
54.5299240879
 32
0.0
 13
42.4614395004
 23
54.5299240879
 33
0.0
  0
LINE
  5
7C
  8
0
  6
CONTINUOUS
 62
     7
 10
56.6850079902
 20
152.0299240879
 30
0.0
 11
41.7614395004
 21
152.0299240879
 31
0.0
  0
LINE
  5
7D
  8
0
  6
CONTINUOUS
 62
     7
 10
56.6850079902
 20
52.0299240879
 30
0.0
 11
41.7614395004
 21
52.0299240879
 31
0.0
  0
LINE
  5
7E
  8
0
  6
CONTINUOUS
 62
     7
 10
42.7614395004
 20
152.0299240879
 30
0.0
 11
42.7614395004
 21
52.0299240879
 31
0.0
  0
TEXT
  5
7F
  8
0
  6
CONTINUOUS
 62
     7
 10
40.6418793617
 20
94.3680541463
 30
0.0
 40
6.0
  1
100
 50
90.0
 41
0.7
 11
42.7614397332
 21
94.3680541463
 31
0.0
 73
     1
  0
TEXT
  5
80
  8
0
  6
CONTINUOUS
 62
     7
 10
40.6418793617
 20
105.7430548466
 30
0.0
 40
6.0
  1
mm
 50
90.0
 41
0.7
 11
42.7614397332
 21
105.7430548466
 31
0.0
 73
     1
  0
ENDBLK
  5
79
  8
0
  0
BLOCK
  8
0
  2
_D_1
 70
     0
 10
0.0
 20
0.0
 30
0.0
  3
_D_1
  1

  0
SOLID
  5
85
  8
0
  6
CONTINUOUS
 62
     7
 10
56.6850079902
 20
38.4602342313
 30
0.0
 11
59.1850079902
 21
38.1602342313
 31
0.0
 12
59.1850079902
 22
38.7602342313
 32
0.0
 13
59.1850079902
 23
38.7602342313
 33
0.0
  0
SOLID
  5
86
  8
0
  6
CONTINUOUS
 62
     7
 10
156.6850079902
 20
38.4602342313
 30
0.0
 11
154.1850079902
 21
38.7602342313
 31
0.0
 12
154.1850079902
 22
38.1602342313
 32
0.0
 13
154.1850079902
 23
38.1602342313
 33
0.0
  0
LINE
  5
87
  8
0
  6
CONTINUOUS
 62
     7
 10
56.6850079902
 20
52.0299240879
 30
0.0
 11
56.6850079902
 21
37.4602342313
 31
0.0
  0
LINE
  5
88
  8
0
  6
CONTINUOUS
 62
     7
 10
156.6850079902
 20
52.0299240879
 30
0.0
 11
156.6850079902
 21
37.4602342313
 31
0.0
  0
LINE
  5
89
  8
0
  6
CONTINUOUS
 62
     7
 10
56.6850079902
 20
38.4602342313
 30
0.0
 11
156.6850079902
 21
38.4602342313
 31
0.0
  0
TEXT
  5
8A
  8
0
  6
CONTINUOUS
 62
     7
 10
93.9626484861
 20
40.57979437
 30
0.0
 40
6.0
  1
100
 41
0.7
 11
93.9626484861
 21
38.4602339984
 31
0.0
 73
     1
  0
TEXT
  5
8B
  8
0
  6
CONTINUOUS
 62
     7
 10
105.3376491864
 20
40.57979437
 30
0.0
 40
6.0
  1
mm
 41
0.7
 11
105.3376491864
 21
38.4602339984
 31
0.0
 73
     1
  0
ENDBLK
  5
84
  8
0
  0
ENDSEC
  0
SECTION
  2
ENTITIES
  0
LINE
  5
73
  8
0
  6
CONTINUOUS
 62
     7
 10
56.6850079902
 20
152.0299240879
 30
0.0
 11
56.6850079902
 21
52.0299240879
 31
0.0
  0
LINE
  5
74
  8
0
  6
CONTINUOUS
 62
     7
 10
56.6850079902
 20
52.0299240879
 30
0.0
 11
156.6850079902
 21
52.0299240879
 31
0.0
  0
DIMENSION
  5
75
  8
0
  6
CONTINUOUS
 62
     7
  2
_D
 10
42.7614395004
 20
52.0299240879
 30
0.0
 11
42.7614395004
 21
105.4472211621
 31
0.0
 70
   160
  1
<>mm
  3
SLDDIMSTYLE0
 13
56.6850079902
 23
152.0299240879
 33
0.0
 14
56.6850079902
 24
52.0299240879
 34
0.0
 50
90.0
  0
DIMENSION
  5
81
  8
0
  6
CONTINUOUS
 62
     7
  2
_D_1
 10
156.6850079902
 20
38.4602342313
 30
0.0
 11
105.0418155019
 21
38.4602342313
 31
0.0
 70
   160
  1
<>mm
  3
SLDDIMSTYLE0
 13
56.6850079902
 23
52.0299240879
 33
0.0
 14
156.6850079902
 24
52.0299240879
 34
0.0
  0
TEXT
  5
8C
  8
0
  6
CONTINUOUS
 62
     7
 10
658.0168509251
 20
39.0761681714
 30
0.0
 40
10.0
  1
KLUDI GmbH & Co KG
 41
0.6222222222
 11
658.0168509251
 21
35.5435675522
 31
0.0
 73
     1
  0
TEXT
  5
8D
  8
0
  6
CONTINUOUS
 62
     7
 10
362.6071641649
 20
39.0761681714
 30
0.0
 40
10.0
  1
20 143 05 15
 41
0.6125
 11
362.6071641649
 21
35.5435675522
 31
0.0
 73
     1
  0
LINE
  5
8E
  8
0
  6
CONTINUOUS
 62
     7
 10
216.6360978621
 20
420.186165992
 30
0.0
 11
216.6360978621
 21
427.386165992
 31
0.0
  0
LINE
  5
8F
  8
0
  6
CONTINUOUS
 62
     7
 10
159.6360978621
 20
427.386165992
 30
0.0
 11
159.6360978621
 21
420.186165992
 31
0.0
  0
ARC
  5
90
  8
0
  6
CONTINUOUS
 62
     7
 10
160.4360978621
 20
427.386165992
 30
0.0
 40
0.8000000000000114
 50
90.0
 51
180.0
  0
ARC
  5
91
  8
0
  6
CONTINUOUS
 62
     7
 10
215.8360978621
 20
427.386165992
 30
0.0
 40
0.799999999999983
 50
0.0
 51
90.0
  0
ARC
  5
92
  8
0
  6
CONTINUOUS
 62
     7
 10
179.6360978621
 20
428.686165992
 30
0.0
 40
0.5000000000000568
 50
270.0
 51
0.0
  0
ARC
  5
93
  8
0
  6
CONTINUOUS
 62
     7
 10
196.6360978621
 20
428.686165992
 30
0.0
 40
0.5000000000000568
 50
180.0
 51
270.0
  0
ARC
  5
94
  8
0
  6
CONTINUOUS
 62
     7
 10
195.3360978621
 20
474.686165992
 30
0.0
 40
0.8000000000000682
 50
0.0
 51
90.0
  0
LINE
  5
95
  8
0
  6
CONTINUOUS
 62
     7
 10
196.1360978621
 20
455.786165992
 30
0.0
 11
196.1360978621
 21
474.686165992
 31
0.0
  0
LINE
  5
96
  8
0
  6
CONTINUOUS
 62
     7
 10
180.1360978621
 20
465.486165992
 30
0.0
 11
180.1360978621
 21
455.786165992
 31
0.0
  0
ARC
  5
97
  8
0
  6
CONTINUOUS
 62
     7
 10
195.8360978621
 20
455.786165992
 30
0.0
 40
0.3000000000000682
 50
270.0
 51
0.0
  0
ARC
  5
98
  8
0
  6
CONTINUOUS
 62
     7
 10
180.4360978621
 20
455.786165992
 30
0.0
 40
0.3000000000000682
 50
180.0
 51
270.0
  0
LINE
  5
99
  8
0
  6
CONTINUOUS
 62
     7
 10
196.1360978621
 20
428.686165992
 30
0.0
 11
196.1360978621
 21
454.886165992
 31
0.0
  0
LINE
  5
9A
  8
0
  6
CONTINUOUS
 62
     7
 10
180.1360978621
 20
454.886165992
 30
0.0
 11
180.1360978621
 21
428.686165992
 31
0.0
  0
ARC
  5
9B
  8
0
  6
CONTINUOUS
 62
     7
 10
180.4360978621
 20
454.886165992
 30
0.0
 40
0.3000000000000114
 50
90.0
 51
180.0
  0
ARC
  5
9C
  8
0
  6
CONTINUOUS
 62
     7
 10
195.8360978621
 20
454.886165992
 30
0.0
 40
0.3000000000000114
 50
0.0
 51
90.0
  0
ARC
  5
9D
  8
0
  6
CONTINUOUS
 62
     7
 10
182.0360978621
 20
455.486165992
 30
0.0
 40
0.3000000000000114
 50
270.0
 51
0.0
  0
ARC
  5
9E
  8
0
  6
CONTINUOUS
 62
     7
 10
194.2360978621
 20
455.486165992
 30
0.0
 40
0.2999999999999829
 50
180.0
 51
270.0
  0
ARC
  5
9F
  8
0
  6
CONTINUOUS
 62
     7
 10
179.1360978621
 20
465.486165992
 30
0.0
 40
1.0
 50
0.0
 51
90.0
  0
ARC
  5
A0
  8
0
  6
CONTINUOUS
 62
     7
 10
360.4360978621
 20
427.386165992
 30
0.0
 40
0.7999999999999545
 50
90.0
 51
180.0
  0
ARC
  5
A1
  8
0
  6
CONTINUOUS
 62
     7
 10
415.8360978621
 20
427.386165992
 30
0.0
 40
0.8000000000000114
 50
0.0
 51
90.0
  0
LINE
  5
A2
  8
0
  6
CONTINUOUS
 62
     7
 10
416.6360978621
 20
420.186165992
 30
0.0
 11
416.6360978621
 21
427.386165992
 31
0.0
  0
LINE
  5
A3
  8
0
  6
CONTINUOUS
 62
     7
 10
359.6360978621
 20
427.386165992
 30
0.0
 11
359.6360978621
 21
420.186165992
 31
0.0
  0
ARC
  5
A4
  8
0
  6
CONTINUOUS
 62
     7
 10
379.6360978621
 20
428.686165992
 30
0.0
 40
0.5000000000000568
 50
270.0
 51
0.0
  0
ARC
  5
A5
  8
0
  6
CONTINUOUS
 62
     7
 10
396.6360978621
 20
428.686165992
 30
0.0
 40
0.5000000000000568
 50
180.0
 51
270.0
  0
ARC
  5
A6
  8
0
  6
CONTINUOUS
 62
     7
 10
395.8360978621
 20
455.786165992
 30
0.0
 40
0.3000000000000682
 50
270.0
 51
0.0
  0
ARC
  5
A7
  8
0
  6
CONTINUOUS
 62
     7
 10
380.4360978621
 20
455.786165992
 30
0.0
 40
0.3000000000000682
 50
180.0
 51
270.0
  0
LINE
  5
A8
  8
0
  6
CONTINUOUS
 62
     7
 10
396.1360978621
 20
455.786165992
 30
0.0
 11
396.1360978621
 21
465.486165992
 31
0.0
  0
LINE
  5
A9
  8
0
  6
CONTINUOUS
 62
     7
 10
380.1360978621
 20
474.686165992
 30
0.0
 11
380.1360978621
 21
455.786165992
 31
0.0
  0
LINE
  5
AA
  8
0
  6
CONTINUOUS
 62
     7
 10
396.1360978621
 20
428.686165992
 30
0.0
 11
396.1360978621
 21
454.886165992
 31
0.0
  0
LINE
  5
AB
  8
0
  6
CONTINUOUS
 62
     7
 10
380.1360978621
 20
454.886165992
 30
0.0
 11
380.1360978621
 21
428.686165992
 31
0.0
  0
ARC
  5
AC
  8
0
  6
CONTINUOUS
 62
     7
 10
380.9360978621
 20
474.686165992
 30
0.0
 40
0.8000000000000682
 50
90.0
 51
180.0
  0
ARC
  5
AD
  8
0
  6
CONTINUOUS
 62
     7
 10
380.4360978621
 20
454.886165992
 30
0.0
 40
0.3000000000000114
 50
90.0
 51
180.0
  0
ARC
  5
AE
  8
0
  6
CONTINUOUS
 62
     7
 10
395.8360978621
 20
454.886165992
 30
0.0
 40
0.3000000000000114
 50
0.0
 51
90.0
  0
ARC
  5
AF
  8
0
  6
CONTINUOUS
 62
     7
 10
382.0360978621
 20
455.486165992
 30
0.0
 40
0.2999999999999545
 50
270.0
 51
0.0
  0
ARC
  5
B0
  8
0
  6
CONTINUOUS
 62
     7
 10
394.2360978621
 20
455.486165992
 30
0.0
 40
0.3000000000000114
 50
180.0
 51
270.0
  0
ARC
  5
B1
  8
0
  6
CONTINUOUS
 62
     7
 10
397.1360978621
 20
465.486165992
 30
0.0
 40
1.0
 50
90.0
 51
180.0
  0
ARC
  5
B2
  8
0
  6
CONTINUOUS
 62
     7
 10
287.2239472183
 20
626.0564155969
 30
0.0
 40
22.72289683194156
 50
248.9843304004
 51
272.3006058054
  0
ARC
  5
B3
  8
0
  6
CONTINUOUS
 62
     7
 10
289.4454543382
 20
623.854163137
 30
0.0
 40
20.54409674207329
 50
266.3458368057
 51
291.6529664518
  0
LINE
  5
B4
  8
0
  6
CONTINUOUS
 62
     7
 10
298.1360978621
 20
606.0742842825
 30
0.0
 11
298.1360978621
 21
639.1613685486
 31
0.0
  0
LINE
  5
B5
  8
0
  6
CONTINUOUS
 62
     7
 10
278.1360978621
 20
639.1613685486
 30
0.0
 11
278.1360978621
 21
606.0742842825
 31
0.0
  0
ARC
  5
B6
  8
0
  6
CONTINUOUS
 62
     7
 10
288.1360978621
 20
701.3581874011
 30
0.0
 40
10.0
 50
0.0
 51
180.0
  0
LINE
  5
B7
  8
0
  6
CONTINUOUS
 62
     7
 10
278.1360978621
 20
701.3581874011
 30
0.0
 11
278.1360978621
 21
639.1613685486
 31
0.0
  0
LINE
  5
B8
  8
0
  6
CONTINUOUS
 62
     7
 10
298.1360978621
 20
639.1613685486
 30
0.0
 11
298.1360978621
 21
701.3581874011
 31
0.0
  0
ARC
  5
B9
  8
0
  6
CONTINUOUS
 62
     7
 10
315.8360978621
 20
427.386165992
 30
0.0
 40
0.7999999999999545
 50
0.0
 51
90.0
  0
ARC
  5
BA
  8
0
  6
CONTINUOUS
 62
     7
 10
260.4360978621
 20
427.386165992
 30
0.0
 40
0.8000000000000114
 50
90.0
 51
180.0
  0
LINE
  5
BB
  8
0
  6
CONTINUOUS
 62
     7
 10
316.6360978621
 20
420.186165992
 30
0.0
 11
316.6360978621
 21
427.386165992
 31
0.0
  0
LINE
  5
BC
  8
0
  6
CONTINUOUS
 62
     7
 10
259.6360978621
 20
427.386165992
 30
0.0
 11
259.6360978621
 21
420.186165992
 31
0.0
  0
ARC
  5
BD
  8
0
  6
CONTINUOUS
 62
     7
 10
298.9360978621
 20
428.986165992
 30
0.0
 40
0.8000000000000114
 50
180.0
 51
270.0
  0
ARC
  5
BE
  8
0
  6
CONTINUOUS
 62
     7
 10
277.3360978621
 20
428.986165992
 30
0.0
 40
0.8000000000000682
 50
270.0
 51
0.0
  0
ARC
  5
BF
  8
0
  6
CONTINUOUS
 62
     7
 10
297.8360978621
 20
454.886165992
 30
0.0
 40
0.3000000000000114
 50
0.0
 51
90.0
  0
ARC
  5
C0
  8
0
  6
CONTINUOUS
 62
     7
 10
278.4360978621
 20
454.886165992
 30
0.0
 40
0.3000000000000114
 50
90.0
 51
180.0
  0
LINE
  5
C1
  8
0
  6
CONTINUOUS
 62
     7
 10
298.1360978621
 20
428.986165992
 30
0.0
 11
298.1360978621
 21
454.886165992
 31
0.0
  0
LINE
  5
C2
  8
0
  6
CONTINUOUS
 62
     7
 10
278.1360978621
 20
454.886165992
 30
0.0
 11
278.1360978621
 21
428.986165992
 31
0.0
  0
ARC
  5
C3
  8
0
  6
CONTINUOUS
 62
     7
 10
278.4360978621
 20
455.986165992
 30
0.0
 40
0.3000000000000114
 50
180.0
 51
270.0
  0
ARC
  5
C4
  8
0
  6
CONTINUOUS
 62
     7
 10
297.8360978621
 20
455.986165992
 30
0.0
 40
0.3000000000000114
 50
270.0
 51
0.0
  0
LINE
  5
C5
  8
0
  6
CONTINUOUS
 62
     7
 10
298.1360978621
 20
455.986165992
 30
0.0
 11
298.1360978621
 21
606.0742842825
 31
0.0
  0
LINE
  5
C6
  8
0
  6
CONTINUOUS
 62
     7
 10
278.1360978621
 20
606.0742842825
 30
0.0
 11
278.1360978621
 21
455.986165992
 31
0.0
  0
LINE
  5
C7
  8
0
  6
CONTINUOUS
 62
     7
 10
278.4360978621
 20
455.686165992
 30
0.0
 11
278.4360978621
 21
455.186165992
 31
0.0
  0
LINE
  5
C8
  8
0
  6
CONTINUOUS
 62
     7
 10
297.8360978621
 20
455.186165992
 30
0.0
 11
297.8360978621
 21
455.686165992
 31
0.0
  0
LINE
  5
C9
  8
0
  6
CONTINUOUS
 62
     7
 10
188.1360978621
 20
420.186165992
 30
0.0
 11
159.6360978621
 21
420.186165992
 31
0.0
  0
LINE
  5
CA
  8
0
  6
CONTINUOUS
 62
     7
 10
216.6360978621
 20
420.186165992
 30
0.0
 11
188.1360978621
 21
420.186165992
 31
0.0
  0
LINE
  5
CB
  8
0
  6
CONTINUOUS
 62
     7
 10
160.4360978621
 20
428.186165992
 30
0.0
 11
215.8360978621
 21
428.186165992
 31
0.0
  0
LINE
  5
CC
  8
0
  6
CONTINUOUS
 62
     7
 10
182.6645715668
 20
475.486165992
 30
0.0
 11
195.3360978621
 21
475.486165992
 31
0.0
  0
LINE
  5
CD
  8
0
  6
CONTINUOUS
 62
     7
 10
182.0566242006
 20
465.486165992
 30
0.0
 11
181.0431436116
 21
465.486165992
 31
0.0
  0
LINE
  5
CE
  8
0
  6
CONTINUOUS
 62
     7
 10
182.0566242006
 20
467.286165992
 30
0.0
 11
182.0566242006
 21
465.486165992
 31
0.0
  0
LINE
  5
CF
  8
0
  6
CONTINUOUS
 62
     7
 10
195.8360978621
 20
455.486165992
 30
0.0
 11
180.4360978621
 21
455.486165992
 31
0.0
  0
LINE
  5
D0
  8
0
  6
CONTINUOUS
 62
     7
 10
180.4360978621
 20
455.186165992
 30
0.0
 11
195.8360978621
 21
455.186165992
 31
0.0
  0
LINE
  5
D1
  8
0
  6
CONTINUOUS
 62
     7
 10
180.5367557853
 20
467.286165992
 30
0.0
 11
179.9318306797
 21
467.286165992
 31
0.0
  0
LINE
  5
D2
  8
0
  6
CONTINUOUS
 62
     7
 10
180.5367557853
 20
467.286165992
 30
0.0
 11
182.0566242006
 21
467.286165992
 31
0.0
  0
ARC
  5
D3
  8
0
  6
CONTINUOUS
 62
     7
 10
179.9676121891
 20
465.4084222299
 30
0.0
 40
1.078337578516385
 50
4.1343800426
 51
91.9015435591
  0
LINE
  5
D4
  8
0
  6
CONTINUOUS
 62
     7
 10
180.5367557853
 20
475.486165992
 30
0.0
 11
182.6645715668
 21
475.486165992
 31
0.0
  0
LINE
  5
D5
  8
0
  6
CONTINUOUS
 62
     7
 10
179.9318306797
 20
466.486165992
 30
0.0
 11
111.9360978621
 21
466.486165992
 31
0.0
  0
ARC
  5
D6
  8
0
  6
CONTINUOUS
 62
     7
 10
111.9360978621
 20
467.286165992
 30
0.0
 40
0.7999999999999972
 50
180.0
 51
270.0
  0
ARC
  5
D7
  8
0
  6
CONTINUOUS
 62
     7
 10
111.9360978621
 20
474.686165992
 30
0.0
 40
0.8000000000000682
 50
90.0
 51
180.0
  0
LINE
  5
D8
  8
0
  6
CONTINUOUS
 62
     7
 10
111.9360978621
 20
475.486165992
 30
0.0
 11
180.5367557853
 21
475.486165992
 31
0.0
  0
LINE
  5
D9
  8
0
  6
CONTINUOUS
 62
     7
 10
111.1360978621
 20
467.286165992
 30
0.0
 11
111.1360978621
 21
474.686165992
 31
0.0
  0
LINE
  5
DA
  8
0
  6
CONTINUOUS
 62
     7
 10
388.1360978621
 20
428.186165992
 30
0.0
 11
415.8360978621
 21
428.186165992
 31
0.0
  0
LINE
  5
DB
  8
0
  6
CONTINUOUS
 62
     7
 10
360.4360978621
 20
428.186165992
 30
0.0
 11
388.1360978621
 21
428.186165992
 31
0.0
  0
LINE
  5
DC
  8
0
  6
CONTINUOUS
 62
     7
 10
416.6360978621
 20
420.186165992
 30
0.0
 11
359.6360978621
 21
420.186165992
 31
0.0
  0
LINE
  5
DD
  8
0
  6
CONTINUOUS
 62
     7
 10
388.1360978621
 20
455.486165992
 30
0.0
 11
380.4360978621
 21
455.486165992
 31
0.0
  0
LINE
  5
DE
  8
0
  6
CONTINUOUS
 62
     7
 10
395.8360978621
 20
455.486165992
 30
0.0
 11
388.1360978621
 21
455.486165992
 31
0.0
  0
LINE
  5
DF
  8
0
  6
CONTINUOUS
 62
     7
 10
395.2290521126
 20
465.486165992
 30
0.0
 11
394.2155715235
 21
465.486165992
 31
0.0
  0
LINE
  5
E0
  8
0
  6
CONTINUOUS
 62
     7
 10
394.2155715235
 20
465.486165992
 30
0.0
 11
394.2155715235
 21
467.286165992
 31
0.0
  0
LINE
  5
E1
  8
0
  6
CONTINUOUS
 62
     7
 10
380.9360978621
 20
475.486165992
 30
0.0
 11
393.6076241574
 21
475.486165992
 31
0.0
  0
LINE
  5
E2
  8
0
  6
CONTINUOUS
 62
     7
 10
388.1360978621
 20
455.186165992
 30
0.0
 11
395.8360978621
 21
455.186165992
 31
0.0
  0
LINE
  5
E3
  8
0
  6
CONTINUOUS
 62
     7
 10
380.4360978621
 20
455.186165992
 30
0.0
 11
388.1360978621
 21
455.186165992
 31
0.0
  0
ARC
  5
E4
  8
0
  6
CONTINUOUS
 62
     7
 10
396.304583535
 20
465.4084222299
 30
0.0
 40
1.078337578512373
 50
88.0984564408
 51
175.8656199576
  0
LINE
  5
E5
  8
0
  6
CONTINUOUS
 62
     7
 10
394.2155715235
 20
467.286165992
 30
0.0
 11
395.7354399389
 21
467.286165992
 31
0.0
  0
LINE
  5
E6
  8
0
  6
CONTINUOUS
 62
     7
 10
396.3403650445
 20
467.286165992
 30
0.0
 11
395.7354399389
 21
467.286165992
 31
0.0
  0
LINE
  5
E7
  8
0
  6
CONTINUOUS
 62
     7
 10
393.6076241574
 20
475.486165992
 30
0.0
 11
395.7354399389
 21
475.486165992
 31
0.0
  0
LINE
  5
E8
  8
0
  6
CONTINUOUS
 62
     7
 10
464.3360978621
 20
466.486165992
 30
0.0
 11
396.3403650445
 21
466.486165992
 31
0.0
  0
ARC
  5
E9
  8
0
  6
CONTINUOUS
 62
     7
 10
464.3360978621
 20
467.286165992
 30
0.0
 40
0.8000000000000682
 50
270.0
 51
0.0
  0
LINE
  5
EA
  8
0
  6
CONTINUOUS
 62
     7
 10
465.1360978621
 20
474.686165992
 30
0.0
 11
465.1360978621
 21
467.286165992
 31
0.0
  0
LINE
  5
EB
  8
0
  6
CONTINUOUS
 62
     7
 10
395.7354399389
 20
475.486165992
 30
0.0
 11
464.3360978621
 21
475.486165992
 31
0.0
  0
ARC
  5
EC
  8
0
  6
CONTINUOUS
 62
     7
 10
464.3360978621
 20
474.686165992
 30
0.0
 40
0.8000000000000682
 50
0.0
 51
90.0
  0
POLYLINE
  5
ED
  8
0
  6
CONTINUOUS
 62
     7
 66
     1
 10
0.0
 20
0.0
 30
0.0
 70
   128
  0
VERTEX
  5
1DE
  8
0
  6
CONTINUOUS
 62
     7
 10
288.1360978621
 20
603.3605744612
 30
0.0
  0
VERTEX
  5
1DF
  8
0
  6
CONTINUOUS
 62
     7
 10
286.2605068021
 20
603.4052645951
 30
0.0
  0
VERTEX
  5
1E0
  8
0
  6
CONTINUOUS
 62
     7
 10
284.4569936546
 20
603.5376175802
 30
0.0
  0
VERTEX
  5
1E1
  8
0
  6
CONTINUOUS
 62
     7
 10
282.7948664186
 20
603.7525471653
 30
0.0
  0
VERTEX
  5
1E2
  8
0
  6
CONTINUOUS
 62
     7
 10
281.3379997116
 20
604.0417937272
 30
0.0
  0
VERTEX
  5
1E3
  8
0
  6
CONTINUOUS
 62
     7
 10
280.1423801041
 20
604.3942416826
 30
0.0
  0
VERTEX
  5
1E4
  8
0
  6
CONTINUOUS
 62
     7
 10
279.2539545871
 20
604.7963466543
 30
0.0
  0
VERTEX
  5
1E5
  8
0
  6
CONTINUOUS
 62
     7
 10
278.706864855
 20
605.2326559736
 30
0.0
  0
VERTEX
  5
1E6
  8
0
  6
CONTINUOUS
 62
     7
 10
278.5221352593
 20
605.6864025182
 30
0.0
  0
VERTEX
  5
1E7
  8
0
  6
CONTINUOUS
 62
     7
 10
278.706864855
 20
606.1401490628
 30
0.0
  0
VERTEX
  5
1E8
  8
0
  6
CONTINUOUS
 62
     7
 10
279.2539545871
 20
606.5764583822
 30
0.0
  0
VERTEX
  5
1E9
  8
0
  6
CONTINUOUS
 62
     7
 10
280.1423801041
 20
606.9785633539
 30
0.0
  0
VERTEX
  5
1EA
  8
0
  6
CONTINUOUS
 62
     7
 10
281.3379997116
 20
607.3310113093
 30
0.0
  0
VERTEX
  5
1EB
  8
0
  6
CONTINUOUS
 62
     7
 10
282.7948664186
 20
607.6202578711
 30
0.0
  0
VERTEX
  5
1EC
  8
0
  6
CONTINUOUS
 62
     7
 10
284.4569936546
 20
607.8351874563
 30
0.0
  0
VERTEX
  5
1ED
  8
0
  6
CONTINUOUS
 62
     7
 10
286.2605068021
 20
607.9675404414
 30
0.0
  0
VERTEX
  5
1EE
  8
0
  6
CONTINUOUS
 62
     7
 10
288.1360978621
 20
608.0122305753
 30
0.0
  0
VERTEX
  5
1EF
  8
0
  6
CONTINUOUS
 62
     7
 10
290.0116889221
 20
607.9675404414
 30
0.0
  0
VERTEX
  5
1F0
  8
0
  6
CONTINUOUS
 62
     7
 10
291.8152020695
 20
607.8351874563
 30
0.0
  0
VERTEX
  5
1F1
  8
0
  6
CONTINUOUS
 62
     7
 10
293.4773293055
 20
607.6202578711
 30
0.0
  0
VERTEX
  5
1F2
  8
0
  6
CONTINUOUS
 62
     7
 10
294.9341960125
 20
607.3310113093
 30
0.0
  0
VERTEX
  5
1F3
  8
0
  6
CONTINUOUS
 62
     7
 10
296.1298156201
 20
606.9785633539
 30
0.0
  0
VERTEX
  5
1F4
  8
0
  6
CONTINUOUS
 62
     7
 10
297.0182411371
 20
606.5764583822
 30
0.0
  0
VERTEX
  5
1F5
  8
0
  6
CONTINUOUS
 62
     7
 10
297.5653308692
 20
606.1401490628
 30
0.0
  0
VERTEX
  5
1F6
  8
0
  6
CONTINUOUS
 62
     7
 10
297.7500604648
 20
605.6864025182
 30
0.0
  0
VERTEX
  5
1F7
  8
0
  6
CONTINUOUS
 62
     7
 10
297.5653308692
 20
605.2326559736
 30
0.0
  0
VERTEX
  5
1F8
  8
0
  6
CONTINUOUS
 62
     7
 10
297.0182411371
 20
604.7963466543
 30
0.0
  0
VERTEX
  5
1F9
  8
0
  6
CONTINUOUS
 62
     7
 10
296.1298156201
 20
604.3942416826
 30
0.0
  0
VERTEX
  5
1FA
  8
0
  6
CONTINUOUS
 62
     7
 10
294.9341960125
 20
604.0417937272
 30
0.0
  0
VERTEX
  5
1FB
  8
0
  6
CONTINUOUS
 62
     7
 10
293.4773293055
 20
603.7525471653
 30
0.0
  0
VERTEX
  5
1FC
  8
0
  6
CONTINUOUS
 62
     7
 10
291.8152020695
 20
603.5376175802
 30
0.0
  0
VERTEX
  5
1FD
  8
0
  6
CONTINUOUS
 62
     7
 10
290.0116889221
 20
603.4052645951
 30
0.0
  0
VERTEX
  5
1FE
  8
0
  6
CONTINUOUS
 62
     7
 10
288.1360978621
 20
603.3605744612
 30
0.0
  0
SEQEND
  5
244
  8
0
  6
CONTINUOUS
 62
     7
  0
POLYLINE
  5
EE
  8
0
  6
CONTINUOUS
 62
     7
 66
     1
 10
0.0
 20
0.0
 30
0.0
 70
   128
  0
VERTEX
  5
1FF
  8
0
  6
CONTINUOUS
 62
     7
 10
278.8856901622
 20
605.1553008096
 30
0.0
  0
VERTEX
  5
200
  8
0
  6
CONTINUOUS
 62
     7
 10
278.4179821788
 20
605.5039317967
 30
0.0
  0
VERTEX
  5
201
  8
0
  6
CONTINUOUS
 62
     7
 10
278.1474244702
 20
605.9591732098
 30
0.0
  0
VERTEX
  5
202
  8
0
  6
CONTINUOUS
 62
     7
 10
278.2378834433
 20
606.418575037
 30
0.0
  0
VERTEX
  5
203
  8
0
  6
CONTINUOUS
 62
     7
 10
278.6860896749
 20
606.8655332993
 30
0.0
  0
VERTEX
  5
204
  8
0
  6
CONTINUOUS
 62
     7
 10
279.4758438242
 20
607.2838937605
 30
0.0
  0
VERTEX
  5
205
  8
0
  6
CONTINUOUS
 62
     7
 10
280.5786021185
 20
607.6585357836
 30
0.0
  0
VERTEX
  5
206
  8
0
  6
CONTINUOUS
 62
     7
 10
281.9545079999
 20
607.9759188298
 30
0.0
  0
VERTEX
  5
207
  8
0
  6
CONTINUOUS
 62
     7
 10
283.5538326448
 20
608.2245718487
 30
0.0
  0
VERTEX
  5
208
  8
0
  6
CONTINUOUS
 62
     7
 10
285.3187722937
 20
608.3955078725
 30
0.0
  0
VERTEX
  5
209
  8
0
  6
CONTINUOUS
 62
     7
 10
287.185537429
 20
608.4825488278
 30
0.0
  0
VERTEX
  5
20A
  8
0
  6
CONTINUOUS
 62
     7
 10
289.0866582951
 20
608.4825488278
 30
0.0
  0
VERTEX
  5
20B
  8
0
  6
CONTINUOUS
 62
     7
 10
290.9534234305
 20
608.3955078725
 30
0.0
  0
VERTEX
  5
20C
  8
0
  6
CONTINUOUS
 62
     7
 10
292.7183630793
 20
608.2245718487
 30
0.0
  0
VERTEX
  5
20D
  8
0
  6
CONTINUOUS
 62
     7
 10
294.3176877243
 20
607.9759188298
 30
0.0
  0
VERTEX
  5
20E
  8
0
  6
CONTINUOUS
 62
     7
 10
295.6935936056
 20
607.6585357836
 30
0.0
  0
VERTEX
  5
20F
  8
0
  6
CONTINUOUS
 62
     7
 10
296.7963518999
 20
607.2838937605
 30
0.0
  0
VERTEX
  5
210
  8
0
  6
CONTINUOUS
 62
     7
 10
297.5861060492
 20
606.8655332993
 30
0.0
  0
VERTEX
  5
211
  8
0
  6
CONTINUOUS
 62
     7
 10
298.0343122809
 20
606.418575037
 30
0.0
  0
VERTEX
  5
212
  8
0
  6
CONTINUOUS
 62
     7
 10
298.1247712539
 20
605.9591732098
 30
0.0
  0
VERTEX
  5
213
  8
0
  6
CONTINUOUS
 62
     7
 10
297.8542135453
 20
605.5039317967
 30
0.0
  0
VERTEX
  5
214
  8
0
  6
CONTINUOUS
 62
     7
 10
297.2350135036
 20
605.0706805738
 30
0.0
  0
SEQEND
  5
245
  8
0
  6
CONTINUOUS
 62
     7
  0
POLYLINE
  5
EF
  8
0
  6
CONTINUOUS
 62
     7
 66
     1
 10
0.0
 20
0.0
 30
0.0
 70
   128
  0
VERTEX
  5
215
  8
0
  6
CONTINUOUS
 62
     7
 10
288.1360978621
 20
603.6607221524
 30
0.0
  0
VERTEX
  5
216
  8
0
  6
CONTINUOUS
 62
     7
 10
286.3071260932
 20
603.7043014779
 30
0.0
  0
VERTEX
  5
217
  8
0
  6
CONTINUOUS
 62
     7
 10
284.5484406836
 20
603.8333647254
 30
0.0
  0
VERTEX
  5
218
  8
0
  6
CONTINUOUS
 62
     7
 10
282.9276269275
 20
604.0429520666
 30
0.0
  0
VERTEX
  5
219
  8
0
  6
CONTINUOUS
 62
     7
 10
281.5069717884
 20
604.3250091777
 30
0.0
  0
VERTEX
  5
21A
  8
0
  6
CONTINUOUS
 62
     7
 10
280.3410702467
 20
604.6686967619
 30
0.0
  0
VERTEX
  5
21B
  8
0
  6
CONTINUOUS
 62
     7
 10
279.4747272448
 20
605.0608070982
 30
0.0
  0
VERTEX
  5
21C
  8
0
  6
CONTINUOUS
 62
     7
 10
278.9412358583
 20
605.4862716063
 30
0.0
  0
VERTEX
  5
21D
  8
0
  6
CONTINUOUS
 62
     7
 10
278.7610978621
 20
605.9287399236
 30
0.0
  0
VERTEX
  5
21E
  8
0
  6
CONTINUOUS
 62
     7
 10
278.928565237
 20
606.3555087958
 30
0.0
  0
SEQEND
  5
246
  8
0
  6
CONTINUOUS
 62
     7
  0
POLYLINE
  5
F0
  8
0
  6
CONTINUOUS
 62
     7
 66
     1
 10
0.0
 20
0.0
 30
0.0
 70
   128
  0
VERTEX
  5
21F
  8
0
  6
CONTINUOUS
 62
     7
 10
297.3436304871
 20
606.3555087958
 30
0.0
  0
VERTEX
  5
220
  8
0
  6
CONTINUOUS
 62
     7
 10
297.5110978621
 20
605.9287399236
 30
0.0
  0
VERTEX
  5
221
  8
0
  6
CONTINUOUS
 62
     7
 10
297.3309598659
 20
605.4862716063
 30
0.0
  0
VERTEX
  5
222
  8
0
  6
CONTINUOUS
 62
     7
 10
296.7974684794
 20
605.0608070982
 30
0.0
  0
VERTEX
  5
223
  8
0
  6
CONTINUOUS
 62
     7
 10
295.9311254774
 20
604.6686967619
 30
0.0
  0
VERTEX
  5
224
  8
0
  6
CONTINUOUS
 62
     7
 10
294.7652239357
 20
604.3250091777
 30
0.0
  0
VERTEX
  5
225
  8
0
  6
CONTINUOUS
 62
     7
 10
293.3445687966
 20
604.0429520666
 30
0.0
  0
VERTEX
  5
226
  8
0
  6
CONTINUOUS
 62
     7
 10
291.7237550405
 20
603.8333647254
 30
0.0
  0
VERTEX
  5
227
  8
0
  6
CONTINUOUS
 62
     7
 10
289.965069631
 20
603.7043014779
 30
0.0
  0
VERTEX
  5
228
  8
0
  6
CONTINUOUS
 62
     7
 10
288.1360978621
 20
603.6607221524
 30
0.0
  0
SEQEND
  5
247
  8
0
  6
CONTINUOUS
 62
     7
  0
LINE
  5
F1
  8
0
  6
CONTINUOUS
 62
     7
 10
260.4360978621
 20
428.186165992
 30
0.0
 11
315.8360978621
 21
428.186165992
 31
0.0
  0
LINE
  5
F2
  8
0
  6
CONTINUOUS
 62
     7
 10
316.6360978621
 20
420.186165992
 30
0.0
 11
259.6360978621
 21
420.186165992
 31
0.0
  0
LINE
  5
F3
  8
0
  6
CONTINUOUS
 62
     7
 10
278.4360978621
 20
455.186165992
 30
0.0
 11
297.8360978621
 21
455.186165992
 31
0.0
  0
LINE
  5
F4
  8
0
  6
CONTINUOUS
 62
     7
 10
297.8360978621
 20
455.686165992
 30
0.0
 11
278.4360987491
 21
455.686165992
 31
0.0
  0
LINE
  5
F5
  8
0
  6
CONTINUOUS
 62
     8
 10
196.1360978621
 20
474.686165992
 30
0.0
 11
182.0566242006
 21
474.686165992
 31
0.0
  0
ARC
  5
F6
  8
0
  6
CONTINUOUS
 62
     8
 10
182.7757654032
 20
474.770665992
 30
0.0
 40
0.7240886128534637
 50
98.8335138645
 51
186.7015972568
  0
LINE
  5
F7
  8
0
  6
CONTINUOUS
 62
     8
 10
181.0431436116
 20
465.486165992
 30
0.0
 11
180.1360978621
 21
465.486165992
 31
0.0
  0
LINE
  5
F8
  8
0
  6
CONTINUOUS
 62
     8
 10
182.0566242006
 20
474.686165992
 30
0.0
 11
182.0566242006
 21
467.286165992
 31
0.0
  0
LINE
  5
F9
  8
0
  6
CONTINUOUS
 62
     8
 10
182.0566242006
 20
474.686165992
 30
0.0
 11
180.5367557853
 21
474.686165992
 31
0.0
  0
LINE
  5
FA
  8
0
  6
CONTINUOUS
 62
     8
 10
180.5367557853
 20
467.286165992
 30
0.0
 11
180.5367557853
 21
474.686165992
 31
0.0
  0
LINE
  5
FB
  8
0
  6
CONTINUOUS
 62
     8
 10
180.5367557853
 20
474.686165992
 30
0.0
 11
180.5367557853
 21
475.486165992
 31
0.0
  0
LINE
  5
FC
  8
0
  6
CONTINUOUS
 62
     8
 10
111.9360978621
 20
467.286165992
 30
0.0
 11
179.9318306797
 21
467.286165992
 31
0.0
  0
LINE
  5
FD
  8
0
  6
CONTINUOUS
 62
     8
 10
111.9360978621
 20
474.686165992
 30
0.0
 11
111.9360978621
 21
467.286165992
 31
0.0
  0
LINE
  5
FE
  8
0
  6
CONTINUOUS
 62
     8
 10
180.5367557853
 20
474.686165992
 30
0.0
 11
111.9360978621
 21
474.686165992
 31
0.0
  0
LINE
  5
FF
  8
0
  6
CONTINUOUS
 62
     8
 10
111.9360978621
 20
466.486165992
 30
0.0
 11
111.9360978621
 21
467.286165992
 31
0.0
  0
LINE
  5
100
  8
0
  6
CONTINUOUS
 62
     8
 10
111.9360978621
 20
467.286165992
 30
0.0
 11
111.1360978621
 21
467.286165992
 31
0.0
  0
LINE
  5
101
  8
0
  6
CONTINUOUS
 62
     8
 10
111.9360978621
 20
474.686165992
 30
0.0
 11
111.9360978621
 21
475.486165992
 31
0.0
  0
LINE
  5
102
  8
0
  6
CONTINUOUS
 62
     8
 10
111.9360978621
 20
474.686165992
 30
0.0
 11
111.1360978621
 21
474.686165992
 31
0.0
  0
LINE
  5
103
  8
0
  6
CONTINUOUS
 62
     8
 10
396.1360978621
 20
465.486165992
 30
0.0
 11
395.2290521126
 21
465.486165992
 31
0.0
  0
LINE
  5
104
  8
0
  6
CONTINUOUS
 62
     8
 10
394.2155715235
 20
474.686165992
 30
0.0
 11
380.1360978621
 21
474.686165992
 31
0.0
  0
LINE
  5
105
  8
0
  6
CONTINUOUS
 62
     8
 10
394.2155715235
 20
467.286165992
 30
0.0
 11
394.2155715235
 21
474.686165992
 31
0.0
  0
ARC
  5
106
  8
0
  6
CONTINUOUS
 62
     8
 10
393.4964303209
 20
474.770665992
 30
0.0
 40
0.7240886128534637
 50
353.2984027432
 51
81.1664861355
  0
LINE
  5
107
  8
0
  6
CONTINUOUS
 62
     8
 10
395.7354399389
 20
474.686165992
 30
0.0
 11
394.2155715235
 21
474.686165992
 31
0.0
  0
LINE
  5
108
  8
0
  6
CONTINUOUS
 62
     8
 10
395.7354399389
 20
474.686165992
 30
0.0
 11
395.7354399389
 21
467.286165992
 31
0.0
  0
LINE
  5
109
  8
0
  6
CONTINUOUS
 62
     8
 10
395.7354399389
 20
475.486165992
 30
0.0
 11
395.7354399389
 21
474.686165992
 31
0.0
  0
LINE
  5
10A
  8
0
  6
CONTINUOUS
 62
     8
 10
464.3360978621
 20
474.686165992
 30
0.0
 11
395.7354399389
 21
474.686165992
 31
0.0
  0
LINE
  5
10B
  8
0
  6
CONTINUOUS
 62
     8
 10
464.3360978621
 20
467.286165992
 30
0.0
 11
464.3360978621
 21
474.686165992
 31
0.0
  0
LINE
  5
10C
  8
0
  6
CONTINUOUS
 62
     8
 10
396.3403650445
 20
467.286165992
 30
0.0
 11
464.3360978621
 21
467.286165992
 31
0.0
  0
LINE
  5
10D
  8
0
  6
CONTINUOUS
 62
     8
 10
464.3360978621
 20
466.486165992
 30
0.0
 11
464.3360978621
 21
467.286165992
 31
0.0
  0
LINE
  5
10E
  8
0
  6
CONTINUOUS
 62
     8
 10
465.1360978621
 20
467.286165992
 30
0.0
 11
464.3360978621
 21
467.286165992
 31
0.0
  0
LINE
  5
10F
  8
0
  6
CONTINUOUS
 62
     8
 10
465.1360978621
 20
474.686165992
 30
0.0
 11
464.3360978621
 21
474.686165992
 31
0.0
  0
LINE
  5
110
  8
0
  6
CONTINUOUS
 62
     8
 10
464.3360978621
 20
475.486165992
 30
0.0
 11
464.3360978621
 21
474.686165992
 31
0.0
  0
ARC
  5
111
  8
0
  6
CONTINUOUS
 62
     7
 10
569.3209039843
 20
427.386165992
 30
0.0
 40
0.7999999999999545
 50
90.0
 51
180.0
  0
ARC
  5
112
  8
0
  6
CONTINUOUS
 62
     7
 10
624.7209039843
 20
427.386165992
 30
0.0
 40
0.7999999999999545
 50
0.0
 51
90.0
  0
LINE
  5
113
  8
0
  6
CONTINUOUS
 62
     7
 10
625.5209039843
 20
420.186165992
 30
0.0
 11
625.5209039843
 21
427.386165992
 31
0.0
  0
LINE
  5
114
  8
0
  6
CONTINUOUS
 62
     7
 10
568.5209039843
 20
427.386165992
 30
0.0
 11
568.5209039843
 21
420.186165992
 31
0.0
  0
LINE
  5
115
  8
0
  6
CONTINUOUS
 62
     7
 10
601.5285884986
 20
467.387968707
 30
0.0
 11
601.5209039843
 21
467.3426638023
 31
0.0
  0
LINE
  5
116
  8
0
  6
CONTINUOUS
 62
     7
 10
592.5209039843
 20
467.3426636319
 30
0.0
 11
592.5132194273
 21
467.3879687801
 31
0.0
  0
ARC
  5
117
  8
0
  6
CONTINUOUS
 62
     7
 10
588.5209039843
 20
428.686165992
 30
0.0
 40
0.5000000000000568
 50
270.0
 51
0.0
  0
ARC
  5
118
  8
0
  6
CONTINUOUS
 62
     7
 10
605.5209039843
 20
428.686165992
 30
0.0
 40
0.5000000000000568
 50
180.0
 51
270.0
  0
LINE
  5
119
  8
0
  6
CONTINUOUS
 62
     7
 10
605.0209039843
 20
455.786165992
 30
0.0
 11
605.0209039843
 21
474.686165992
 31
0.0
  0
LINE
  5
11A
  8
0
  6
CONTINUOUS
 62
     7
 10
589.0209039843
 20
474.686165992
 30
0.0
 11
589.0209039843
 21
455.786165992
 31
0.0
  0
ARC
  5
11B
  8
0
  6
CONTINUOUS
 62
     7
 10
589.3209039843
 20
454.886165992
 30
0.0
 40
0.3000000000000682
 50
90.0
 51
180.0
  0
ARC
  5
11C
  8
0
  6
CONTINUOUS
 62
     7
 10
604.7209039843
 20
454.886165992
 30
0.0
 40
0.3000000000000682
 50
0.0
 51
90.0
  0
ARC
  5
11D
  8
0
  6
CONTINUOUS
 62
     7
 10
604.7209039843
 20
455.786165992
 30
0.0
 40
0.3000000000000682
 50
270.0
 51
0.0
  0
ARC
  5
11E
  8
0
  6
CONTINUOUS
 62
     7
 10
589.3209039843
 20
455.786165992
 30
0.0
 40
0.3000000000000682
 50
180.0
 51
270.0
  0
LINE
  5
11F
  8
0
  6
CONTINUOUS
 62
     7
 10
605.0209039843
 20
428.686165992
 30
0.0
 11
605.0209039843
 21
454.886165992
 31
0.0
  0
LINE
  5
120
  8
0
  6
CONTINUOUS
 62
     7
 10
589.0209039843
 20
454.886165992
 30
0.0
 11
589.0209039843
 21
428.686165992
 31
0.0
  0
ARC
  5
121
  8
0
  6
CONTINUOUS
 62
     7
 10
590.9209039843
 20
455.486165992
 30
0.0
 40
0.2999999999999545
 50
270.0
 51
0.0
  0
ARC
  5
122
  8
0
  6
CONTINUOUS
 62
     7
 10
603.1209039843
 20
455.486165992
 30
0.0
 40
0.2999999999999545
 50
180.0
 51
270.0
  0
ARC
  5
123
  8
0
  6
CONTINUOUS
 62
     7
 10
589.8209039843
 20
474.686165992
 30
0.0
 40
0.8000000000000682
 50
90.0
 51
180.0
  0
ARC
  5
124
  8
0
  6
CONTINUOUS
 62
     7
 10
604.2209039843
 20
474.686165992
 30
0.0
 40
0.8000000000000682
 50
0.0
 51
90.0
  0
ARC
  5
125
  8
0
  6
CONTINUOUS
 62
     7
 10
607.8209039843
 20
428.986165992
 30
0.0
 40
0.8000000000000114
 50
180.0
 51
270.0
  0
ARC
  5
126
  8
0
  6
CONTINUOUS
 62
     7
 10
586.2209039843
 20
428.986165992
 30
0.0
 40
0.8000000000000114
 50
270.0
 51
0.0
  0
ARC
  5
127
  8
0
  6
CONTINUOUS
 62
     7
 10
679.0663007468
 20
619.3127906385
 30
0.0
 40
72.04539676251997
 50
14.0
 51
180.0
  0
ARC
  5
128
  8
0
  6
CONTINUOUS
 62
     7
 10
679.0663007468
 20
619.3127906385
 30
0.0
 40
92.04539676251989
 50
14.0
 51
180.0
  0
LINE
  5
129
  8
0
  6
CONTINUOUS
 62
     7
 10
607.0209039843
 20
455.986165992
 30
0.0
 11
607.0209039843
 21
619.3127906385
 31
0.0
  0
LINE
  5
12A
  8
0
  6
CONTINUOUS
 62
     7
 10
587.0209039843
 20
619.3127906385
 30
0.0
 11
587.0209039843
 21
455.986165992
 31
0.0
  0
LINE
  5
12B
  8
0
  6
CONTINUOUS
 62
     7
 10
607.0209039843
 20
428.986165992
 30
0.0
 11
607.0209039843
 21
454.886165992
 31
0.0
  0
LINE
  5
12C
  8
0
  6
CONTINUOUS
 62
     7
 10
587.0209039843
 20
441.8176872956
 30
0.0
 11
587.0209039843
 21
428.986165992
 31
0.0
  0
LINE
  5
12D
  8
0
  6
CONTINUOUS
 62
     7
 10
587.0209039843
 20
454.886165992
 30
0.0
 11
587.0209039843
 21
445.9758273557
 31
0.0
  0
ARC
  5
12E
  8
0
  6
CONTINUOUS
 62
     7
 10
606.7209039843
 20
454.886165992
 30
0.0
 40
0.3000000000000114
 50
0.0
 51
90.0
  0
ARC
  5
12F
  8
0
  6
CONTINUOUS
 62
     7
 10
587.3209039843
 20
454.886165992
 30
0.0
 40
0.3000000000000682
 50
90.0
 51
180.0
  0
ARC
  5
130
  8
0
  6
CONTINUOUS
 62
     7
 10
587.3209039843
 20
455.986165992
 30
0.0
 40
0.3000000000000682
 50
180.0
 51
270.0
  0
ARC
  5
131
  8
0
  6
CONTINUOUS
 62
     7
 10
606.7209039843
 20
455.986165992
 30
0.0
 40
0.2999999999999545
 50
270.0
 51
0.0
  0
LINE
  5
132
  8
0
  6
CONTINUOUS
 62
     7
 10
776.6270924888
 20
608.4935032385
 30
0.0
 11
768.3775558488
 21
641.5805875045
 31
0.0
  0
LINE
  5
133
  8
0
  6
CONTINUOUS
 62
     7
 10
748.9716413233
 20
636.7421495926
 30
0.0
 11
757.2211779633
 21
603.6550653265
 31
0.0
  0
ARC
  5
134
  8
0
  6
CONTINUOUS
 62
     7
 10
757.6092962538
 20
603.7518340848
 30
0.0
 40
0.4000000000000362
 50
194.0
 51
281.9995981046
  0
ARC
  5
135
  8
0
  6
CONTINUOUS
 62
     7
 10
776.2389741983
 20
608.3967344803
 30
0.0
 40
0.4000000000000087
 50
286.0004018954
 51
14.0
  0
LINE
  5
136
  8
0
  6
CONTINUOUS
 62
     7
 10
587.3209039843
 20
455.686165992
 30
0.0
 11
587.3209039843
 21
455.186165992
 31
0.0
  0
LINE
  5
137
  8
0
  6
CONTINUOUS
 62
     7
 10
606.7209039843
 20
455.186165992
 30
0.0
 11
606.7209039843
 21
455.686165992
 31
0.0
  0
ARC
  5
138
  8
0
  6
CONTINUOUS
 62
     7
 10
580.4209039843
 20
451.986165992
 30
0.0
 40
0.4000000000000909
 50
0.0
 51
90.0
  0
ARC
  5
139
  8
0
  6
CONTINUOUS
 62
     7
 10
580.6209039843
 20
447.386165992
 30
0.0
 40
0.1999999999999886
 50
270.0
 51
0.0
  0
LINE
  5
13A
  8
0
  6
CONTINUOUS
 62
     7
 10
580.8209039843
 20
447.386165992
 30
0.0
 11
580.8209039843
 21
451.986165992
 31
0.0
  0
ARC
  5
13B
  8
0
  6
CONTINUOUS
 62
     7
 10
587.8209039843
 20
445.386165992
 30
0.0
 40
1.0
 50
143.5318605338
 51
180.0
  0
ARC
  5
13C
  8
0
  6
CONTINUOUS
 62
     7
 10
587.8209039843
 20
442.386165992
 30
0.0
 40
1.0
 50
180.0
 51
215.6821596005
  0
LINE
  5
13D
  8
0
  6
CONTINUOUS
 62
     7
 10
576.2209039838
 20
447.186165992
 30
0.0
 11
576.2209039838
 21
428.186165992
 31
0.0
  0
LINE
  5
13E
  8
0
  6
CONTINUOUS
 62
     7
 10
580.2209039847
 20
428.186165992
 30
0.0
 11
580.2209039847
 21
447.186165992
 31
0.0
  0
ARC
  5
13F
  8
0
  6
CONTINUOUS
 62
     7
 10
593.3209039843
 20
474.686165992
 30
0.0
 40
0.8000000000000682
 50
90.0
 51
180.0
  0
ARC
  5
140
  8
0
  6
CONTINUOUS
 62
     7
 10
593.3209039843
 20
467.286165992
 30
0.0
 40
0.8000000000000682
 50
180.0
 51
270.0
  0
LINE
  5
141
  8
0
  6
CONTINUOUS
 62
     7
 10
592.5209039843
 20
467.286165992
 30
0.0
 11
592.5209039843
 21
474.686165992
 31
0.0
  0
LINE
  5
142
  8
0
  6
CONTINUOUS
 62
     7
 10
600.7209039843
 20
466.486165992
 30
0.0
 11
593.3209039843
 21
466.486165992
 31
0.0
  0
ARC
  5
143
  8
0
  6
CONTINUOUS
 62
     7
 10
600.7209039843
 20
467.286165992
 30
0.0
 40
0.8000000000000682
 50
270.0
 51
0.0
  0
LINE
  5
144
  8
0
  6
CONTINUOUS
 62
     7
 10
593.3209039843
 20
475.486165992
 30
0.0
 11
600.7209039843
 21
475.486165992
 31
0.0
  0
LINE
  5
145
  8
0
  6
CONTINUOUS
 62
     7
 10
601.5209039843
 20
474.686165992
 30
0.0
 11
601.5209039843
 21
467.286165992
 31
0.0
  0
ARC
  5
146
  8
0
  6
CONTINUOUS
 62
     7
 10
600.7209039843
 20
474.686165992
 30
0.0
 40
0.8000000000000682
 50
0.0
 51
90.0
  0
LINE
  5
147
  8
0
  6
CONTINUOUS
 62
     7
 10
569.3209039843
 20
428.186165992
 30
0.0
 11
624.7209039731
 21
428.186165992
 31
0.0
  0
LINE
  5
148
  8
0
  6
CONTINUOUS
 62
     7
 10
625.5209039843
 20
420.186165992
 30
0.0
 11
568.5209039843
 21
420.186165992
 31
0.0
  0
LINE
  5
149
  8
0
  6
CONTINUOUS
 62
     7
 10
602.2209039843
 20
467.286165992
 30
0.0
 11
602.2209039843
 21
465.486165992
 31
0.0
  0
LINE
  5
14A
  8
0
  6
CONTINUOUS
 62
     7
 10
602.2209039843
 20
465.486165992
 30
0.0
 11
600.7209039843
 21
465.486165992
 31
0.0
  0
LINE
  5
14B
  8
0
  6
CONTINUOUS
 62
     7
 10
593.3209039843
 20
465.486165992
 30
0.0
 11
591.8209039843
 21
465.486165992
 31
0.0
  0
LINE
  5
14C
  8
0
  6
CONTINUOUS
 62
     7
 10
591.8209039843
 20
465.486165992
 30
0.0
 11
591.8209039843
 21
467.286165992
 31
0.0
  0
LINE
  5
14D
  8
0
  6
CONTINUOUS
 62
     7
 10
589.3209039843
 20
455.186165992
 30
0.0
 11
604.7209030568
 21
455.186165992
 31
0.0
  0
LINE
  5
14E
  8
0
  6
CONTINUOUS
 62
     7
 10
604.7209030568
 20
455.486165992
 30
0.0
 11
589.3209039843
 21
455.486165992
 31
0.0
  0
LINE
  5
14F
  8
0
  6
CONTINUOUS
 62
     7
 10
592.3409039843
 20
475.486165992
 30
0.0
 11
593.3209039843
 21
475.486165992
 31
0.0
  0
LINE
  5
150
  8
0
  6
CONTINUOUS
 62
     7
 10
600.7209039843
 20
475.486165992
 30
0.0
 11
601.7009039843
 21
475.486165992
 31
0.0
  0
LINE
  5
151
  8
0
  6
CONTINUOUS
 62
     7
 10
601.7009039843
 20
475.486165992
 30
0.0
 11
604.2209039843
 21
475.486165992
 31
0.0
  0
LINE
  5
152
  8
0
  6
CONTINUOUS
 62
     7
 10
589.8209039843
 20
475.486165992
 30
0.0
 11
592.3409039843
 21
475.486165992
 31
0.0
  0
POLYLINE
  5
153
  8
0
  6
CONTINUOUS
 62
     7
 66
     1
 10
0.0
 20
0.0
 30
0.0
 70
   128
  0
VERTEX
  5
229
  8
0
  6
CONTINUOUS
 62
     7
 10
587.2007154017
 20
442.5997647406
 30
0.0
  0
VERTEX
  5
22A
  8
0
  6
CONTINUOUS
 62
     7
 10
587.2723262291
 20
443.1846466939
 30
0.0
  0
VERTEX
  5
22B
  8
0
  6
CONTINUOUS
 62
     7
 10
587.3020604517
 20
443.8497150822
 30
0.0
  0
VERTEX
  5
22C
  8
0
  6
CONTINUOUS
 62
     7
 10
587.2792748188
 20
444.5008441699
 30
0.0
  0
VERTEX
  5
22D
  8
0
  6
CONTINUOUS
 62
     7
 10
587.2146700483
 20
445.0822276714
 30
0.0
  0
VERTEX
  5
22E
  8
0
  6
CONTINUOUS
 62
     7
 10
587.1310790442
 20
445.545897153
 30
0.0
  0
VERTEX
  5
22F
  8
0
  6
CONTINUOUS
 62
     7
 10
587.0568040028
 20
445.8571386373
 30
0.0
  0
VERTEX
  5
230
  8
0
  6
CONTINUOUS
 62
     7
 10
587.0211528403
 20
445.9853124956
 30
0.0
  0
VERTEX
  5
231
  8
0
  6
CONTINUOUS
 62
     7
 10
587.0237987777
 20
445.9758273557
 30
0.0
  0
SEQEND
  5
248
  8
0
  6
CONTINUOUS
 62
     7
  0
ARC
  5
154
  8
0
  6
CONTINUOUS
 62
     7
 10
580.6957532759
 20
443.6101500267
 30
0.0
 40
6.582963670195556
 50
344.1995318396
 51
351.1710660792
  0
LINE
  5
155
  8
0
  6
CONTINUOUS
 62
     7
 10
587.3209039843
 20
455.186165992
 30
0.0
 11
589.3209039843
 21
455.186165992
 31
0.0
  0
LINE
  5
156
  8
0
  6
CONTINUOUS
 62
     7
 10
604.7209039843
 20
455.186165992
 30
0.0
 11
606.7209030972
 21
455.186165992
 31
0.0
  0
LINE
  5
157
  8
0
  6
CONTINUOUS
 62
     7
 10
606.7209039843
 20
455.686165992
 30
0.0
 11
605.0037466967
 21
455.686165992
 31
0.0
  0
LINE
  5
158
  8
0
  6
CONTINUOUS
 62
     7
 10
589.0380612718
 20
455.686165992
 30
0.0
 11
587.3209039843
 21
455.686165992
 31
0.0
  0
LINE
  5
159
  8
0
  6
CONTINUOUS
 62
     7
 10
757.6924581856
 20
603.3605744612
 30
0.0
 11
776.3492318377
 21
608.0122305753
 31
0.0
  0
LINE
  5
15A
  8
0
  6
CONTINUOUS
 62
     7
 10
554.7209039843
 20
447.186165992
 30
0.0
 11
554.5209039843
 21
447.186165992
 31
0.0
  0
ARC
  5
15B
  8
0
  6
CONTINUOUS
 62
     7
 10
554.5209039843
 20
447.386165992
 30
0.0
 40
0.2000000000000455
 50
180.0
 51
270.0
  0
ARC
  5
15C
  8
0
  6
CONTINUOUS
 62
     7
 10
554.7209039843
 20
451.986165992
 30
0.0
 40
0.4000000000000341
 50
90.0
 51
180.0
  0
LINE
  5
15D
  8
0
  6
CONTINUOUS
 62
     7
 10
554.3209039843
 20
447.386165992
 30
0.0
 11
554.3209039843
 21
451.986165992
 31
0.0
  0
LINE
  5
15E
  8
0
  6
CONTINUOUS
 62
     7
 10
554.7209039843
 20
452.386165992
 30
0.0
 11
578.2209039843
 21
452.386165992
 31
0.0
  0
LINE
  5
15F
  8
0
  6
CONTINUOUS
 62
     7
 10
578.2209039843
 20
447.186165992
 30
0.0
 11
554.7209039843
 21
447.186165992
 31
0.0
  0
LINE
  5
160
  8
0
  6
CONTINUOUS
 62
     7
 10
578.2209039843
 20
452.386165992
 30
0.0
 11
580.4209039843
 21
452.386165992
 31
0.0
  0
LINE
  5
161
  8
0
  6
CONTINUOUS
 62
     7
 10
580.6209039843
 20
447.186165992
 30
0.0
 11
578.2209039843
 21
447.186165992
 31
0.0
  0
LINE
  5
162
  8
0
  6
CONTINUOUS
 62
     7
 10
586.8209039843
 20
445.386165992
 30
0.0
 11
586.8209039843
 21
442.386165992
 31
0.0
  0
LINE
  5
163
  8
0
  6
CONTINUOUS
 62
     8
 10
593.3209039843
 20
474.686165992
 30
0.0
 11
592.5209039843
 21
474.686165992
 31
0.0
  0
LINE
  5
164
  8
0
  6
CONTINUOUS
 62
     8
 10
593.3209039843
 20
474.686165992
 30
0.0
 11
593.3209039843
 21
475.486165992
 31
0.0
  0
LINE
  5
165
  8
0
  6
CONTINUOUS
 62
     8
 10
593.3209039843
 20
467.286165992
 30
0.0
 11
592.5209039843
 21
467.286165992
 31
0.0
  0
LINE
  5
166
  8
0
  6
CONTINUOUS
 62
     8
 10
593.3209039843
 20
466.486165992
 30
0.0
 11
593.3209039843
 21
467.286165992
 31
0.0
  0
LINE
  5
167
  8
0
  6
CONTINUOUS
 62
     8
 10
593.3209039843
 20
474.686165992
 30
0.0
 11
593.3209039843
 21
467.286165992
 31
0.0
  0
LINE
  5
168
  8
0
  6
CONTINUOUS
 62
     8
 10
593.3209039843
 20
467.286165992
 30
0.0
 11
600.7209039843
 21
467.286165992
 31
0.0
  0
LINE
  5
169
  8
0
  6
CONTINUOUS
 62
     8
 10
600.7209039843
 20
466.486165992
 30
0.0
 11
600.7209039843
 21
467.286165992
 31
0.0
  0
LINE
  5
16A
  8
0
  6
CONTINUOUS
 62
     8
 10
601.5209039843
 20
467.286165992
 30
0.0
 11
600.7209039843
 21
467.286165992
 31
0.0
  0
LINE
  5
16B
  8
0
  6
CONTINUOUS
 62
     8
 10
600.7209039843
 20
474.686165992
 30
0.0
 11
593.3209039843
 21
474.686165992
 31
0.0
  0
LINE
  5
16C
  8
0
  6
CONTINUOUS
 62
     8
 10
600.7209039843
 20
474.686165992
 30
0.0
 11
600.7209039843
 21
475.486165992
 31
0.0
  0
LINE
  5
16D
  8
0
  6
CONTINUOUS
 62
     8
 10
600.7209039843
 20
467.286165992
 30
0.0
 11
600.7209039843
 21
474.686165992
 31
0.0
  0
LINE
  5
16E
  8
0
  6
CONTINUOUS
 62
     8
 10
601.5209039843
 20
474.686165992
 30
0.0
 11
600.7209039843
 21
474.686165992
 31
0.0
  0
LINE
  5
16F
  8
0
  6
CONTINUOUS
 62
     8
 10
600.7209039843
 20
465.486165992
 30
0.0
 11
593.3209039843
 21
465.486165992
 31
0.0
  0
LINE
  5
170
  8
0
  6
CONTINUOUS
 62
     8
 10
602.2209039843
 20
474.686165992
 30
0.0
 11
602.2209039843
 21
467.286165992
 31
0.0
  0
LINE
  5
171
  8
0
  6
CONTINUOUS
 62
     8
 10
591.8209039843
 20
467.286165992
 30
0.0
 11
591.8209039843
 21
474.686165992
 31
0.0
  0
LINE
  5
172
  8
0
  6
CONTINUOUS
 62
     8
 10
592.5209039843
 20
474.686165992
 30
0.0
 11
591.8209039843
 21
474.686165992
 31
0.0
  0
LINE
  5
173
  8
0
  6
CONTINUOUS
 62
     8
 10
602.2209039843
 20
474.686165992
 30
0.0
 11
601.5209039843
 21
474.686165992
 31
0.0
  0
POLYLINE
  5
174
  8
0
  6
CONTINUOUS
 62
     8
 66
     1
 10
0.0
 20
0.0
 30
0.0
 70
   128
  0
VERTEX
  5
232
  8
0
  6
CONTINUOUS
 62
     8
 10
592.3409039843
 20
475.486165992
 30
0.0
  0
VERTEX
  5
233
  8
0
  6
CONTINUOUS
 62
     8
 10
592.2394570168
 20
475.4707942164
 30
0.0
  0
VERTEX
  5
234
  8
0
  6
CONTINUOUS
 62
     8
 10
592.1419085994
 20
475.425269618
 30
0.0
  0
VERTEX
  5
235
  8
0
  6
CONTINUOUS
 62
     8
 10
592.0520074631
 20
475.3513416819
 30
0.0
  0
VERTEX
  5
236
  8
0
  6
CONTINUOUS
 62
     8
 10
591.973208458
 20
475.251851417
 30
0.0
  0
VERTEX
  5
237
  8
0
  6
CONTINUOUS
 62
     8
 10
591.9085397859
 20
475.1306221784
 30
0.0
  0
VERTEX
  5
238
  8
0
  6
CONTINUOUS
 62
     8
 10
591.8604866274
 20
474.9923127379
 30
0.0
  0
VERTEX
  5
239
  8
0
  6
CONTINUOUS
 62
     8
 10
591.8308956385
 20
474.8422382496
 30
0.0
  0
VERTEX
  5
23A
  8
0
  6
CONTINUOUS
 62
     8
 10
591.8209039843
 20
474.686165992
 30
0.0
  0
SEQEND
  5
249
  8
0
  6
CONTINUOUS
 62
     8
  0
POLYLINE
  5
175
  8
0
  6
CONTINUOUS
 62
     8
 66
     1
 10
0.0
 20
0.0
 30
0.0
 70
   128
  0
VERTEX
  5
23B
  8
0
  6
CONTINUOUS
 62
     8
 10
601.7009039843
 20
475.486165992
 30
0.0
  0
VERTEX
  5
23C
  8
0
  6
CONTINUOUS
 62
     8
 10
601.8023509517
 20
475.4707942164
 30
0.0
  0
VERTEX
  5
23D
  8
0
  6
CONTINUOUS
 62
     8
 10
601.8998993691
 20
475.425269618
 30
0.0
  0
VERTEX
  5
23E
  8
0
  6
CONTINUOUS
 62
     8
 10
601.9898005054
 20
475.3513416819
 30
0.0
  0
VERTEX
  5
23F
  8
0
  6
CONTINUOUS
 62
     8
 10
602.0685995105
 20
475.251851417
 30
0.0
  0
VERTEX
  5
240
  8
0
  6
CONTINUOUS
 62
     8
 10
602.1332681827
 20
475.1306221784
 30
0.0
  0
VERTEX
  5
241
  8
0
  6
CONTINUOUS
 62
     8
 10
602.1813213412
 20
474.9923127379
 30
0.0
  0
VERTEX
  5
242
  8
0
  6
CONTINUOUS
 62
     8
 10
602.2109123301
 20
474.8422382496
 30
0.0
  0
VERTEX
  5
243
  8
0
  6
CONTINUOUS
 62
     8
 10
602.2209039843
 20
474.686165992
 30
0.0
  0
SEQEND
  5
24A
  8
0
  6
CONTINUOUS
 62
     8
  0
LINE
  5
176
  8
0
  6
CONTINUOUS
 62
     8
 10
758.6745985861
 20
639.1613685486
 30
0.0
 11
768.3775558488
 21
641.5805875045
 31
0.0
  0
LINE
  5
177
  8
0
  6
CONTINUOUS
 62
     8
 10
748.9716413233
 20
636.7421495926
 30
0.0
 11
758.6745985861
 21
639.1613685486
 31
0.0
  0
LINE
  5
178
  8
0
  6
CONTINUOUS
 62
     8
 10
597.0209039843
 20
619.3127906385
 30
0.0
 11
587.0209039843
 21
619.3127906385
 31
0.0
  0
LINE
  5
179
  8
0
  6
CONTINUOUS
 62
     8
 10
607.0209039843
 20
619.3127906385
 30
0.0
 11
597.0209039843
 21
619.3127906385
 31
0.0
  0
LINE
  5
17A
  8
0
  6
CONTINUOUS
 62
     8
 10
757.2211779633
 20
603.6550653265
 30
0.0
 11
776.6270924888
 21
608.4935032385
 31
0.0
  0
LINE
  5
17B
  8
0
  6
CONTINUOUS
 62
     8
 10
554.3209039843
 20
447.386165992
 30
0.0
 11
554.7209039843
 21
447.386165992
 31
0.0
  0
LINE
  5
17C
  8
0
  6
CONTINUOUS
 62
     8
 10
554.7209039843
 20
447.186165992
 30
0.0
 11
554.7209039843
 21
447.386165992
 31
0.0
  0
LINE
  5
17D
  8
0
  6
CONTINUOUS
 62
     8
 10
554.3209039843
 20
451.986165992
 30
0.0
 11
554.7209039843
 21
451.986165992
 31
0.0
  0
LINE
  5
17E
  8
0
  6
CONTINUOUS
 62
     8
 10
554.7209039843
 20
452.386165992
 30
0.0
 11
554.7209039843
 21
451.986165992
 31
0.0
  0
LINE
  5
17F
  8
0
  6
CONTINUOUS
 62
     8
 10
554.7209039843
 20
451.986165992
 30
0.0
 11
554.7209039843
 21
447.386165992
 31
0.0
  0
LINE
  5
180
  8
0
  6
CONTINUOUS
 62
     8
 10
578.2209039843
 20
452.386165992
 30
0.0
 11
578.2209039843
 21
451.986165992
 31
0.0
  0
LINE
  5
181
  8
0
  6
CONTINUOUS
 62
     8
 10
578.2209039843
 20
451.986165992
 30
0.0
 11
554.7209039843
 21
451.986165992
 31
0.0
  0
LINE
  5
182
  8
0
  6
CONTINUOUS
 62
     8
 10
578.2209039843
 20
447.386165992
 30
0.0
 11
578.2209039843
 21
451.986165992
 31
0.0
  0
LINE
  5
183
  8
0
  6
CONTINUOUS
 62
     8
 10
554.7209039843
 20
447.386165992
 30
0.0
 11
578.2209039843
 21
447.386165992
 31
0.0
  0
LINE
  5
184
  8
0
  6
CONTINUOUS
 62
     8
 10
578.2209039843
 20
447.386165992
 30
0.0
 11
578.2209039843
 21
447.186165992
 31
0.0
  0
LINE
  5
185
  8
0
  6
CONTINUOUS
 62
     8
 10
580.8209039843
 20
451.986165992
 30
0.0
 11
578.2209039843
 21
451.986165992
 31
0.0
  0
LINE
  5
186
  8
0
  6
CONTINUOUS
 62
     8
 10
578.2209039843
 20
447.386165992
 30
0.0
 11
580.8209039843
 21
447.386165992
 31
0.0
  0
LINE
  5
187
  8
0
  6
CONTINUOUS
 62
     7
 10
278.1360978621
 20
300.367319358
 30
0.0
 11
278.1360978621
 21
138.7136247562
 31
0.0
  0
LINE
  5
188
  8
0
  6
CONTINUOUS
 62
     7
 10
298.1360978621
 20
138.7136247562
 30
0.0
 11
298.1360978621
 21
300.367319358
 31
0.0
  0
LINE
  5
189
  8
0
  6
CONTINUOUS
 62
     7
 10
298.1360978621
 20
130.4640881162
 30
0.0
 11
298.1360978621
 21
138.7136247562
 31
0.0
  0
LINE
  5
18A
  8
0
  6
CONTINUOUS
 62
     7
 10
278.1360978621
 20
138.7136247562
 30
0.0
 11
278.1360978621
 21
130.4640881162
 31
0.0
  0
ARC
  5
18B
  8
0
  6
CONTINUOUS
 62
     7
 10
289.6360978621
 20
309.567319358
 30
0.0
 40
1.000000000000043
 50
32.4542311753
 51
90.0
  0
ARC
  5
18C
  8
0
  6
CONTINUOUS
 62
     7
 10
286.6360978621
 20
309.567319358
 30
0.0
 40
1.000000000000049
 50
90.0
 51
148.5059875693
  0
ARC
  5
18D
  8
0
  6
CONTINUOUS
 62
     7
 10
188.1360978621
 20
300.367319358
 30
0.0
 40
7.999999999999778
 50
220.5416018735
 51
139.4583981265
  0
ARC
  5
18E
  8
0
  6
CONTINUOUS
 62
     7
 10
180.5367557853
 20
306.867319358
 30
0.0
 40
2.0
 50
270.0
 51
319.4583981265
  0
LINE
  5
18F
  8
0
  6
CONTINUOUS
 62
     7
 10
111.1360978621
 20
296.667319358
 30
0.0
 11
111.1360978621
 21
304.067319358
 31
0.0
  0
LINE
  5
190
  8
0
  6
CONTINUOUS
 62
     7
 10
111.9360978621
 20
304.867319358
 30
0.0
 11
180.5367557853
 21
304.867319358
 31
0.0
  0
ARC
  5
191
  8
0
  6
CONTINUOUS
 62
     7
 10
111.9360978621
 20
304.067319358
 30
0.0
 40
0.8000000000000114
 50
90.0
 51
180.0
  0
ARC
  5
192
  8
0
  6
CONTINUOUS
 62
     7
 10
111.9360978621
 20
296.667319358
 30
0.0
 40
0.8000000000000114
 50
180.0
 51
270.0
  0
LINE
  5
193
  8
0
  6
CONTINUOUS
 62
     7
 10
180.5367557853
 20
295.867319358
 30
0.0
 11
111.9360978621
 21
295.867319358
 31
0.0
  0
ARC
  5
194
  8
0
  6
CONTINUOUS
 62
     7
 10
180.5367557853
 20
293.867319358
 30
0.0
 40
2.0
 50
40.5416018735
 51
90.0
  0
ARC
  5
195
  8
0
  6
CONTINUOUS
 62
     7
 10
188.1360978621
 20
300.367319358
 30
0.0
 40
28.5
 50
189.0847202874
 51
90.0
  0
ARC
  5
196
  8
0
  6
CONTINUOUS
 62
     7
 10
188.1360978621
 20
300.367319358
 30
0.0
 40
28.5
 50
90.0
 51
170.9152797126
  0
ARC
  5
197
  8
0
  6
CONTINUOUS
 62
     7
 10
388.1360978621
 20
300.367319358
 30
0.0
 40
8.00000000000008
 50
40.5416018735
 51
319.4583981265
  0
ARC
  5
198
  8
0
  6
CONTINUOUS
 62
     7
 10
395.7354399389
 20
306.867319358
 30
0.0
 40
2.000000000000126
 50
220.5416018735
 51
270.0
  0
ARC
  5
199
  8
0
  6
CONTINUOUS
 62
     7
 10
464.3360978621
 20
304.067319358
 30
0.0
 40
0.8000000000000682
 50
0.0
 51
90.0
  0
LINE
  5
19A
  8
0
  6
CONTINUOUS
 62
     7
 10
395.7354399389
 20
304.867319358
 30
0.0
 11
464.3360978621
 21
304.867319358
 31
0.0
  0
LINE
  5
19B
  8
0
  6
CONTINUOUS
 62
     7
 10
465.1360978621
 20
304.067319358
 30
0.0
 11
465.1360978621
 21
296.667319358
 31
0.0
  0
LINE
  5
19C
  8
0
  6
CONTINUOUS
 62
     7
 10
464.3360978621
 20
295.867319358
 30
0.0
 11
395.7354399389
 21
295.867319358
 31
0.0
  0
ARC
  5
19D
  8
0
  6
CONTINUOUS
 62
     7
 10
464.3360978621
 20
296.667319358
 30
0.0
 40
0.8000000000000682
 50
270.0
 51
0.0
  0
ARC
  5
19E
  8
0
  6
CONTINUOUS
 62
     7
 10
395.7354399389
 20
293.867319358
 30
0.0
 40
2.000000000000126
 50
90.0
 51
139.4583981265
  0
ARC
  5
19F
  8
0
  6
CONTINUOUS
 62
     7
 10
388.1360978621
 20
300.367319358
 30
0.0
 40
28.50000000000006
 50
9.0847202874
 51
270.0
  0
ARC
  5
1A0
  8
0
  6
CONTINUOUS
 62
     7
 10
388.1360978621
 20
300.367319358
 30
0.0
 40
28.50000000000006
 50
270.0
 51
350.9152797126
  0
ARC
  5
1A1
  8
0
  6
CONTINUOUS
 62
     7
 10
288.1360978621
 20
300.367319358
 30
0.0
 40
10.0
 50
0.0
 51
180.0
  0
ARC
  5
1A2
  8
0
  6
CONTINUOUS
 62
     7
 10
288.1360978621
 20
130.6958288354
 30
0.0
 40
10.00268482763067
 50
181.3275389028
 51
358.6724610972
  0
ARC
  5
1A3
  8
0
  6
CONTINUOUS
 62
     7
 10
285.9360978621
 20
342.667319358
 30
0.0
 40
0.4000000000000341
 50
90.0
 51
180.0
  0
ARC
  5
1A4
  8
0
  6
CONTINUOUS
 62
     7
 10
290.3360978621
 20
342.667319358
 30
0.0
 40
0.3999999999999773
 50
0.0
 51
90.0
  0
LINE
  5
1A5
  8
0
  6
CONTINUOUS
 62
     7
 10
285.5360978621
 20
319.167319358
 30
0.0
 11
285.5360978621
 21
342.667319358
 31
0.0
  0
LINE
  5
1A6
  8
0
  6
CONTINUOUS
 62
     7
 10
290.7360978621
 20
342.667319358
 30
0.0
 11
290.7360978621
 21
319.167319358
 31
0.0
  0
LINE
  5
1A7
  8
0
  6
CONTINUOUS
 62
     7
 10
285.9360978621
 20
343.067319358
 30
0.0
 11
290.3360978621
 21
343.067319358
 31
0.0
  0
ARC
  5
1A8
  8
0
  6
CONTINUOUS
 62
     7
 10
288.1360978621
 20
319.167319358
 30
0.0
 40
2.600000000000023
 50
180.0
 51
0.0
  0
LINE
  5
1A9
  8
0
  6
CONTINUOUS
 62
     7
 10
289.6360978621
 20
310.567319358
 30
0.0
 11
286.6360978621
 21
310.567319358
 31
0.0
  0
ARC
  5
1AA
  8
0
  6
CONTINUOUS
 62
     7
 10
288.1360978621
 20
300.367319358
 30
0.0
 40
28.50000000000005
 50
290.5409775375
 51
84.7657390025
  0
ARC
  5
1AB
  8
0
  6
CONTINUOUS
 62
     7
 10
288.1360978621
 20
300.367319358
 30
0.0
 40
28.50000000000005
 50
95.2342609975
 51
249.4590224625
  0
ARC
  5
1AC
  8
0
  6
CONTINUOUS
 62
     8
 10
188.1360978621
 20
300.367319358
 30
0.0
 40
7.199999999999802
 50
220.5416018735
 51
139.4583981265
  0
LINE
  5
1AD
  8
0
  6
CONTINUOUS
 62
     8
 10
182.6645715668
 20
305.047319358
 30
0.0
 11
182.0566242006
 21
305.567319358
 31
0.0
  0
LINE
  5
1AE
  8
0
  6
CONTINUOUS
 62
     8
 10
182.6645715668
 20
295.687319358
 30
0.0
 11
182.0566242006
 21
295.167319358
 31
0.0
  0
ARC
  5
1AF
  8
0
  6
CONTINUOUS
 62
     8
 10
180.5367557853
 20
306.867319358
 30
0.0
 40
2.800000000000011
 50
270.0
 51
319.4583981265
  0
ARC
  5
1B0
  8
0
  6
CONTINUOUS
 62
     8
 10
180.5367557853
 20
293.867319358
 30
0.0
 40
2.800000000000011
 50
40.5416018735
 51
90.0
  0
LINE
  5
1B1
  8
0
  6
CONTINUOUS
 62
     8
 10
111.9360978621
 20
296.667319358
 30
0.0
 11
180.5367557853
 21
296.667319358
 31
0.0
  0
LINE
  5
1B2
  8
0
  6
CONTINUOUS
 62
     8
 10
111.9360978621
 20
304.067319358
 30
0.0
 11
111.9360978621
 21
296.667319358
 31
0.0
  0
LINE
  5
1B3
  8
0
  6
CONTINUOUS
 62
     8
 10
180.5367557853
 20
304.067319358
 30
0.0
 11
111.9360978621
 21
304.067319358
 31
0.0
  0
LINE
  5
1B4
  8
0
  6
CONTINUOUS
 62
     8
 10
180.5367557853
 20
304.067319358
 30
0.0
 11
180.5367557853
 21
304.867319358
 31
0.0
  0
LINE
  5
1B5
  8
0
  6
CONTINUOUS
 62
     8
 10
111.1360978621
 20
304.067319358
 30
0.0
 11
111.9360978621
 21
304.067319358
 31
0.0
  0
LINE
  5
1B6
  8
0
  6
CONTINUOUS
 62
     8
 10
111.1360978621
 20
296.667319358
 30
0.0
 11
111.9360978621
 21
296.667319358
 31
0.0
  0
LINE
  5
1B7
  8
0
  6
CONTINUOUS
 62
     8
 10
111.9360978621
 20
304.067319358
 30
0.0
 11
111.9360978621
 21
304.867319358
 31
0.0
  0
LINE
  5
1B8
  8
0
  6
CONTINUOUS
 62
     8
 10
111.9360978621
 20
295.867319358
 30
0.0
 11
111.9360978621
 21
296.667319358
 31
0.0
  0
LINE
  5
1B9
  8
0
  6
CONTINUOUS
 62
     8
 10
180.5367557853
 20
295.867319358
 30
0.0
 11
180.5367557853
 21
296.667319358
 31
0.0
  0
ARC
  5
1BA
  8
0
  6
CONTINUOUS
 62
     8
 10
188.1360978621
 20
300.367319358
 30
0.0
 40
8.500000000000023
 50
212.3133901998
 51
90.0
  0
ARC
  5
1BB
  8
0
  6
CONTINUOUS
 62
     8
 10
188.1360978621
 20
300.367319358
 30
0.0
 40
8.500000000000009
 50
90.0
 51
147.6866098002
  0
ARC
  5
1BC
  8
0
  6
CONTINUOUS
 62
     8
 10
188.1360978621
 20
300.367319358
 30
0.0
 40
27.69999999999999
 50
90.0
 51
170.6505853108
  0
ARC
  5
1BD
  8
0
  6
CONTINUOUS
 62
     8
 10
188.1360978621
 20
300.367319358
 30
0.0
 40
27.7
 50
189.3494146892
 51
90.0
  0
ARC
  5
1BE
  8
0
  6
CONTINUOUS
 62
     8
 10
395.7354399389
 20
293.867319358
 30
0.0
 40
2.800000000000102
 50
90.0
 51
139.4583981265
  0
ARC
  5
1BF
  8
0
  6
CONTINUOUS
 62
     8
 10
388.1360978621
 20
300.367319358
 30
0.0
 40
7.200000000000105
 50
40.5416018735
 51
319.4583981265
  0
ARC
  5
1C0
  8
0
  6
CONTINUOUS
 62
     8
 10
395.7354399389
 20
306.867319358
 30
0.0
 40
2.800000000000102
 50
220.5416018735
 51
270.0
  0
LINE
  5
1C1
  8
0
  6
CONTINUOUS
 62
     8
 10
464.3360978621
 20
304.067319358
 30
0.0
 11
395.7354399389
 21
304.067319358
 31
0.0
  0
LINE
  5
1C2
  8
0
  6
CONTINUOUS
 62
     8
 10
464.3360978621
 20
296.667319358
 30
0.0
 11
464.3360978621
 21
304.067319358
 31
0.0
  0
LINE
  5
1C3
  8
0
  6
CONTINUOUS
 62
     8
 10
395.7354399389
 20
296.667319358
 30
0.0
 11
464.3360978621
 21
296.667319358
 31
0.0
  0
LINE
  5
1C4
  8
0
  6
CONTINUOUS
 62
     8
 10
393.6076241574
 20
295.687319358
 30
0.0
 11
394.2155715235
 21
295.167319358
 31
0.0
  0
LINE
  5
1C5
  8
0
  6
CONTINUOUS
 62
     8
 10
393.6076241574
 20
305.047319358
 30
0.0
 11
394.2155715235
 21
305.567319358
 31
0.0
  0
LINE
  5
1C6
  8
0
  6
CONTINUOUS
 62
     8
 10
395.7354399389
 20
304.867319358
 30
0.0
 11
395.7354399389
 21
304.067319358
 31
0.0
  0
LINE
  5
1C7
  8
0
  6
CONTINUOUS
 62
     8
 10
465.1360978621
 20
304.067319358
 30
0.0
 11
464.3360978621
 21
304.067319358
 31
0.0
  0
LINE
  5
1C8
  8
0
  6
CONTINUOUS
 62
     8
 10
464.3360978621
 20
304.867319358
 30
0.0
 11
464.3360978621
 21
304.067319358
 31
0.0
  0
LINE
  5
1C9
  8
0
  6
CONTINUOUS
 62
     8
 10
465.1360978621
 20
296.667319358
 30
0.0
 11
464.3360978621
 21
296.667319358
 31
0.0
  0
LINE
  5
1CA
  8
0
  6
CONTINUOUS
 62
     8
 10
464.3360978621
 20
296.667319358
 30
0.0
 11
464.3360978621
 21
295.867319358
 31
0.0
  0
LINE
  5
1CB
  8
0
  6
CONTINUOUS
 62
     8
 10
395.7354399389
 20
296.667319358
 30
0.0
 11
395.7354399389
 21
295.867319358
 31
0.0
  0
ARC
  5
1CC
  8
0
  6
CONTINUOUS
 62
     8
 10
388.1360978621
 20
300.367319358
 30
0.0
 40
8.5
 50
32.3133901998
 51
270.0
  0
ARC
  5
1CD
  8
0
  6
CONTINUOUS
 62
     8
 10
388.1360978621
 20
300.367319358
 30
0.0
 40
8.5
 50
270.0
 51
327.6866098002
  0
ARC
  5
1CE
  8
0
  6
CONTINUOUS
 62
     8
 10
388.1360978621
 20
300.367319358
 30
0.0
 40
27.70000000000005
 50
270.0
 51
350.6505853108
  0
ARC
  5
1CF
  8
0
  6
CONTINUOUS
 62
     8
 10
388.1360978621
 20
300.367319358
 30
0.0
 40
27.70000000000005
 50
9.3494146892
 51
270.0
  0
LINE
  5
1D0
  8
0
  6
CONTINUOUS
 62
     8
 10
285.9360978621
 20
343.067319358
 30
0.0
 11
285.9360978621
 21
342.667319358
 31
0.0
  0
LINE
  5
1D1
  8
0
  6
CONTINUOUS
 62
     8
 10
285.9360978621
 20
342.667319358
 30
0.0
 11
285.5360978621
 21
342.667319358
 31
0.0
  0
LINE
  5
1D2
  8
0
  6
CONTINUOUS
 62
     8
 10
290.7360978621
 20
342.667319358
 30
0.0
 11
290.3360978621
 21
342.667319358
 31
0.0
  0
LINE
  5
1D3
  8
0
  6
CONTINUOUS
 62
     8
 10
290.3360978621
 20
343.067319358
 30
0.0
 11
290.3360978621
 21
342.667319358
 31
0.0
  0
LINE
  5
1D4
  8
0
  6
CONTINUOUS
 62
     8
 10
285.9360978621
 20
342.667319358
 30
0.0
 11
285.9360978621
 21
319.167319358
 31
0.0
  0
LINE
  5
1D5
  8
0
  6
CONTINUOUS
 62
     8
 10
285.9360978621
 20
319.167319358
 30
0.0
 11
285.5360978621
 21
319.167319358
 31
0.0
  0
LINE
  5
1D6
  8
0
  6
CONTINUOUS
 62
     8
 10
290.3360978621
 20
319.167319358
 30
0.0
 11
290.7360978621
 21
319.167319358
 31
0.0
  0
LINE
  5
1D7
  8
0
  6
CONTINUOUS
 62
     8
 10
290.3360978621
 20
319.167319358
 30
0.0
 11
290.3360978621
 21
342.667319358
 31
0.0
  0
LINE
  5
1D8
  8
0
  6
CONTINUOUS
 62
     8
 10
290.3360978621
 20
342.667319358
 30
0.0
 11
285.9360978621
 21
342.667319358
 31
0.0
  0
ARC
  5
1D9
  8
0
  6
CONTINUOUS
 62
     8
 10
288.1360978621
 20
319.167319358
 30
0.0
 40
2.199999999999989
 50
180.0
 51
0.0
  0
ARC
  5
1DA
  8
0
  6
CONTINUOUS
 62
     8
 10
288.1360978621
 20
300.367319358
 30
0.0
 40
10.80000000000001
 50
337.8083934337
 51
90.0
  0
ARC
  5
1DB
  8
0
  6
CONTINUOUS
 62
     8
 10
288.1360978621
 20
300.367319358
 30
0.0
 40
10.80000000000001
 50
90.0
 51
202.1916065663
  0
ARC
  5
1DC
  8
0
  6
CONTINUOUS
 62
     8
 10
288.1360978621
 20
300.367319358
 30
0.0
 40
27.7
 50
95.3858714941
 51
248.8377124472
  0
ARC
  5
1DD
  8
0
  6
CONTINUOUS
 62
     8
 10
288.1360978621
 20
300.367319358
 30
0.0
 40
27.7
 50
291.1622875528
 51
84.6141285059
  0
ENDSEC
  0
EOF
