  0
SECTION
  2
HEADER
  9
$ACADVER
  1
AC1009
  9
$DWGCODEPAGE
  3
ansi_1252
  9
$INSBASE
 10
0.0
 20
0.0
 30
0.0
  9
$EXTMIN
 10
0.0
 20
0.0
 30
0.0
  9
$EXTMAX
 10
594.0
 20
841.0
 30
0.0
  9
$LIMMIN
 10
0.0
 20
0.0
  9
$LIMMAX
 10
594.0
 20
841.0
  9
$ORTHOMODE
 70
     0
  9
$REGENMODE
 70
     1
  9
$FILLMODE
 70
     1
  9
$QTEXTMODE
 70
     0
  9
$MIRRTEXT
 70
     1
  9
$DRAGMODE
 70
     2
  9
$LTSCALE
 40
1.0
  9
$OSMODE
 70
    37
  9
$ATTMODE
 70
     1
  9
$TEXTSIZE
 40
10.0
  9
$TRACEWID
 40
1.0
  9
$TEXTSTYLE
  7
STANDARD
  9
$CLAYER
  8
0
  9
$CELTYPE
  6
BYLAYER
  9
$CECOLOR
 62
   256
  9
$DIMSCALE
 40
1.0
  9
$DIMASZ
 40
2.5
  9
$DIMEXO
 40
0.0
  9
$DIMDLI
 40
3.75
  9
$DIMRND
 40
0.0
  9
$DIMDLE
 40
0.0
  9
$DIMEXE
 40
1.0
  9
$DIMTP
 40
0.0
  9
$DIMTM
 40
0.0
  9
$DIMTXT
 40
3.5
  9
$DIMCEN
 40
2.5
  9
$DIMTSZ
 40
0.0
  9
$DIMTOL
 70
     0
  9
$DIMLIM
 70
     0
  9
$DIMTIH
 70
     1
  9
$DIMTOH
 70
     1
  9
$DIMSE1
 70
     0
  9
$DIMSE2
 70
     0
  9
$DIMTAD
 70
     1
  9
$DIMZIN
 70
     0
  9
$DIMBLK
  1

  9
$DIMASO
 70
     1
  9
$DIMSHO
 70
     1
  9
$DIMPOST
  1

  9
$DIMAPOST
  1

  9
$DIMALT
 70
     0
  9
$DIMALTD
 70
     3
  9
$DIMALTF
 40
0.0393700787
  9
$DIMLFAC
 40
2.0
  9
$DIMTOFL
 70
     1
  9
$DIMTVP
 40
0.0
  9
$DIMTIX
 70
     0
  9
$DIMSOXD
 70
     0
  9
$DIMSAH
 70
     0
  9
$DIMBLK1
  1

  9
$DIMBLK2
  1

  9
$DIMSTYLE
  2
ISO-25
  9
$DIMCLRD
 70
     0
  9
$DIMCLRE
 70
     0
  9
$DIMCLRT
 70
     0
  9
$DIMTFAC
 40
1.0
  9
$DIMGAP
 40
1.5
  9
$LUNITS
 70
     2
  9
$LUPREC
 70
     2
  9
$SKETCHINC
 40
1.0
  9
$FILLETRAD
 40
10.0
  9
$AUNITS
 70
     0
  9
$AUPREC
 70
     2
  9
$MENU
  1
.
  9
$ELEVATION
 40
0.0
  9
$PELEVATION
 40
0.0
  9
$THICKNESS
 40
0.0
  9
$LIMCHECK
 70
     0
  9
$CHAMFERA
 40
0.0
  9
$CHAMFERB
 40
0.0
  9
$SKPOLY
 70
     0
  9
$TDCREATE
 40
2458702.400660752
  9
$TDUPDATE
 40
2458702.400661262
  9
$TDINDWG
 40
0.0000000116
  9
$TDUSRTIMER
 40
0.0000000116
  9
$USRTIMER
 70
     1
  9
$ANGBASE
 50
0.0
  9
$ANGDIR
 70
     0
  9
$PDMODE
 70
     0
  9
$PDSIZE
 40
-1.0
  9
$PLINEWID
 40
0.0
  9
$COORDS
 70
     1
  9
$SPLFRAME
 70
     0
  9
$SPLINETYPE
 70
     6
  9
$SPLINESEGS
 70
     8
  9
$ATTDIA
 70
     0
  9
$ATTREQ
 70
     1
  9
$HANDLING
 70
     1
  9
$HANDSEED
  5
3FD
  9
$SURFTAB1
 70
     6
  9
$SURFTAB2
 70
     6
  9
$SURFTYPE
 70
     6
  9
$SURFU
 70
     6
  9
$SURFV
 70
     6
  9
$UCSNAME
  2

  9
$UCSORG
 10
0.0
 20
0.0
 30
0.0
  9
$UCSXDIR
 10
1.0
 20
0.0
 30
0.0
  9
$UCSYDIR
 10
0.0
 20
1.0
 30
0.0
  9
$PUCSNAME
  2

  9
$PUCSORG
 10
0.0
 20
0.0
 30
0.0
  9
$PUCSXDIR
 10
1.0
 20
0.0
 30
0.0
  9
$PUCSYDIR
 10
0.0
 20
1.0
 30
0.0
  9
$USERI1
 70
     0
  9
$USERI2
 70
     0
  9
$USERI3
 70
     0
  9
$USERI4
 70
     0
  9
$USERI5
 70
     0
  9
$USERR1
 40
0.0
  9
$USERR2
 40
0.0
  9
$USERR3
 40
0.0
  9
$USERR4
 40
0.0
  9
$USERR5
 40
0.0
  9
$WORLDVIEW
 70
     1
  9
$SHADEDGE
 70
     3
  9
$SHADEDIF
 70
    70
  9
$TILEMODE
 70
     1
  9
$MAXACTVP
 70
    64
  9
$PLIMCHECK
 70
     0
  9
$PEXTMIN
 10
1.0000000000E+20
 20
1.0000000000E+20
 30
1.0000000000E+20
  9
$PEXTMAX
 10
-1.0000000000E+20
 20
-1.0000000000E+20
 30
-1.0000000000E+20
  9
$PLIMMIN
 10
0.0
 20
0.0
  9
$PLIMMAX
 10
420.0
 20
297.0
  9
$UNITMODE
 70
     0
  9
$VISRETAIN
 70
     1
  9
$PLINEGEN
 70
     0
  9
$PSLTSCALE
 70
     1
  0
ENDSEC
  0
SECTION
  2
TABLES
  0
TABLE
  2
VPORT
 70
     1
  0
VPORT
  2
*ACTIVE
 70
     0
 10
0.0
 20
0.0
 11
1.0
 21
1.0
 12
297.0
 22
420.5
 13
0.0
 23
0.0
 14
10.0
 24
10.0
 15
10.0
 25
10.0
 16
0.0
 26
0.0
 36
1.0
 17
0.0
 27
0.0
 37
0.0
 40
841.0
 41
0.7063020214
 42
50.0
 43
0.0
 44
0.0
 50
0.0
 51
0.0
 71
     0
 72
  2000
 73
     1
 74
     3
 75
     0
 76
     0
 77
     0
 78
     0
  0
ENDTAB
  0
TABLE
  2
LTYPE
 70
     6
  0
LTYPE
  2
CONTINUOUS
 70
     0
  3
Solid line
 72
    65
 73
     0
 40
0.0
  0
LTYPE
  2
HIDDEN
 70
     0
  3
Hidden __ __ __ __ __ __ __ __ __ __ __ __ __ __
 72
    65
 73
     2
 40
1.905
 49
1.27
 49
-0.635
  0
LTYPE
  2
PHANTOM
 70
     0
  3
Phantom ______  __  __  ______  __  __  ______
 72
    65
 73
     6
 40
12.7
 49
6.35
 49
-1.27
 49
1.27
 49
-1.27
 49
1.27
 49
-1.27
  0
LTYPE
  2
CENTER
 70
     0
  3
Center ____ _ ____ _ ____ _ ____ _ ____ _ ____
 72
    65
 73
     4
 40
10.16
 49
6.35
 49
-1.27
 49
1.27
 49
-1.27
  0
LTYPE
  2
CENTERX2
 70
     0
  3
Center (2x) ________  __  ________  __  _____
 72
    65
 73
     4
 40
20.32
 49
12.7
 49
-2.54
 49
2.54
 49
-2.54
  0
LTYPE
  2
DOT2
 70
     0
  3
Dot (.5x) ........................................
 72
    65
 73
     2
 40
0.635
 49
0.0
 49
-0.635
  0
ENDTAB
  0
TABLE
  2
LAYER
 70
     1
  0
LAYER
  2
0
 70
     0
 62
     7
  6
CONTINUOUS
  0
ENDTAB
  0
TABLE
  2
STYLE
 70
     1
  0
STYLE
  2
STANDARD
 70
     0
 40
0.0
 41
1.0
 50
0.0
 71
     0
 42
10.0
  3
txt
  4

  0
ENDTAB
  0
TABLE
  2
VIEW
 70
     0
  0
ENDTAB
  0
TABLE
  2
UCS
 70
     0
  0
ENDTAB
  0
TABLE
  2
APPID
 70
     1
  0
APPID
  2
ACAD
 70
     0
  0
ENDTAB
  0
TABLE
  2
DIMSTYLE
 70
     2
  0
DIMSTYLE
  2
ISO-25
 70
     0
  3

  4

  5

  6

  7

 40
1.0
 41
2.5
 42
0.625
 43
3.75
 44
1.25
 45
0.0
 46
0.0
 47
0.0
 48
0.0
140
2.5
141
2.5
142
0.0
143
0.0393700787
144
1.0
145
0.0
146
1.0
147
0.625
 71
     0
 72
     0
 73
     0
 74
     0
 75
     0
 76
     0
 77
     1
 78
     8
170
     0
171
     3
172
     1
173
     0
174
     0
175
     0
176
     0
177
     0
178
     0
  0
DIMSTYLE
  2
SLDDIMSTYLE0
 70
     0
  3

  4

  5

  6

  7

 40
1.0
 41
2.5
 42
0.0625
 43
0.38
 44
0.0
 45
0.000000001
 46
0.0
 47
0.0
 48
0.0
140
6.0
141
0.09
142
0.0
143
25.4
144
2.0
145
0.0
146
1.0
147
1.5
 71
     0
 72
     0
 73
     0
 74
     0
 75
     0
 76
     0
 77
     1
 78
    12
170
     0
171
     2
172
     0
173
     1
174
     0
175
     0
176
     0
177
     0
178
     0
  0
ENDTAB
  0
ENDSEC
  0
SECTION
  2
BLOCKS
  0
BLOCK
  8
0
  2
$MODEL_SPACE
 70
     0
 10
0.0
 20
0.0
 30
0.0
  3
$MODEL_SPACE
  1

  0
ENDBLK
  5
21
  8
0
  0
BLOCK
 67
     1
  8
0
  2
$PAPER_SPACE
 70
     0
 10
0.0
 20
0.0
 30
0.0
  3
$PAPER_SPACE
  1

  0
ENDBLK
  5
1D
 67
     1
  8
0
  0
BLOCK
  8
0
  2
_D
 70
     0
 10
0.0
 20
0.0
 30
0.0
  3
_D
  1

  0
SOLID
  5
7A
  8
0
  6
CONTINUOUS
 62
     7
 10
42.7614395004
 20
152.0299240879
 30
0.0
 11
42.4614395004
 21
149.5299240879
 31
0.0
 12
43.0614395004
 22
149.5299240879
 32
0.0
 13
43.0614395004
 23
149.5299240879
 33
0.0
  0
SOLID
  5
7B
  8
0
  6
CONTINUOUS
 62
     7
 10
42.7614395004
 20
52.0299240879
 30
0.0
 11
43.0614395004
 21
54.5299240879
 31
0.0
 12
42.4614395004
 22
54.5299240879
 32
0.0
 13
42.4614395004
 23
54.5299240879
 33
0.0
  0
LINE
  5
7C
  8
0
  6
CONTINUOUS
 62
     7
 10
56.6850079902
 20
152.0299240879
 30
0.0
 11
41.7614395004
 21
152.0299240879
 31
0.0
  0
LINE
  5
7D
  8
0
  6
CONTINUOUS
 62
     7
 10
56.6850079902
 20
52.0299240879
 30
0.0
 11
41.7614395004
 21
52.0299240879
 31
0.0
  0
LINE
  5
7E
  8
0
  6
CONTINUOUS
 62
     7
 10
42.7614395004
 20
152.0299240879
 30
0.0
 11
42.7614395004
 21
52.0299240879
 31
0.0
  0
TEXT
  5
7F
  8
0
  6
CONTINUOUS
 62
     7
 10
40.6418793617
 20
94.3680541463
 30
0.0
 40
6.0
  1
100
 50
90.0
 41
0.7
 11
42.7614397332
 21
94.3680541463
 31
0.0
 73
     1
  0
TEXT
  5
80
  8
0
  6
CONTINUOUS
 62
     7
 10
40.6418793617
 20
105.7430548466
 30
0.0
 40
6.0
  1
mm
 50
90.0
 41
0.7
 11
42.7614397332
 21
105.7430548466
 31
0.0
 73
     1
  0
ENDBLK
  5
79
  8
0
  0
BLOCK
  8
0
  2
_D_1
 70
     0
 10
0.0
 20
0.0
 30
0.0
  3
_D_1
  1

  0
SOLID
  5
85
  8
0
  6
CONTINUOUS
 62
     7
 10
56.6850079902
 20
38.4602342313
 30
0.0
 11
59.1850079902
 21
38.1602342313
 31
0.0
 12
59.1850079902
 22
38.7602342313
 32
0.0
 13
59.1850079902
 23
38.7602342313
 33
0.0
  0
SOLID
  5
86
  8
0
  6
CONTINUOUS
 62
     7
 10
156.6850079902
 20
38.4602342313
 30
0.0
 11
154.1850079902
 21
38.7602342313
 31
0.0
 12
154.1850079902
 22
38.1602342313
 32
0.0
 13
154.1850079902
 23
38.1602342313
 33
0.0
  0
LINE
  5
87
  8
0
  6
CONTINUOUS
 62
     7
 10
56.6850079902
 20
52.0299240879
 30
0.0
 11
56.6850079902
 21
37.4602342313
 31
0.0
  0
LINE
  5
88
  8
0
  6
CONTINUOUS
 62
     7
 10
156.6850079902
 20
52.0299240879
 30
0.0
 11
156.6850079902
 21
37.4602342313
 31
0.0
  0
LINE
  5
89
  8
0
  6
CONTINUOUS
 62
     7
 10
56.6850079902
 20
38.4602342313
 30
0.0
 11
156.6850079902
 21
38.4602342313
 31
0.0
  0
TEXT
  5
8A
  8
0
  6
CONTINUOUS
 62
     7
 10
93.9626484861
 20
40.57979437
 30
0.0
 40
6.0
  1
100
 41
0.7
 11
93.9626484861
 21
38.4602339984
 31
0.0
 73
     1
  0
TEXT
  5
8B
  8
0
  6
CONTINUOUS
 62
     7
 10
105.3376491864
 20
40.57979437
 30
0.0
 40
6.0
  1
mm
 41
0.7
 11
105.3376491864
 21
38.4602339984
 31
0.0
 73
     1
  0
ENDBLK
  5
84
  8
0
  0
ENDSEC
  0
SECTION
  2
ENTITIES
  0
LINE
  5
73
  8
0
  6
CONTINUOUS
 62
     7
 10
56.6850079902
 20
152.0299240879
 30
0.0
 11
56.6850079902
 21
52.0299240879
 31
0.0
  0
LINE
  5
74
  8
0
  6
CONTINUOUS
 62
     7
 10
56.6850079902
 20
52.0299240879
 30
0.0
 11
156.6850079902
 21
52.0299240879
 31
0.0
  0
DIMENSION
  5
75
  8
0
  6
CONTINUOUS
 62
     7
  2
_D
 10
42.7614395004
 20
52.0299240879
 30
0.0
 11
42.7614395004
 21
105.4472211621
 31
0.0
 70
   160
  1
<>mm
  3
SLDDIMSTYLE0
 13
56.6850079902
 23
152.0299240879
 33
0.0
 14
56.6850079902
 24
52.0299240879
 34
0.0
 50
90.0
  0
DIMENSION
  5
81
  8
0
  6
CONTINUOUS
 62
     7
  2
_D_1
 10
156.6850079902
 20
38.4602342313
 30
0.0
 11
105.0418155019
 21
38.4602342313
 31
0.0
 70
   160
  1
<>mm
  3
SLDDIMSTYLE0
 13
56.6850079902
 23
52.0299240879
 33
0.0
 14
156.6850079902
 24
52.0299240879
 34
0.0
  0
TEXT
  5
8C
  8
0
  6
CONTINUOUS
 62
     7
 10
412.8252631579
 20
39.0761681714
 30
0.0
 40
10.0
  1
KLUDI GmbH & Co KG
 41
0.6222222222
 11
412.8252631579
 21
35.5435675522
 31
0.0
 73
     1
  0
TEXT
  5
8D
  8
0
  6
CONTINUOUS
 62
     7
 10
210.0873490389
 20
39.0761681714
 30
0.0
 40
10.0
  1
20 118 05 20
 41
0.6125
 11
210.0873490389
 21
35.5435675522
 31
0.0
 73
     1
  0
ARC
  5
8E
  8
0
  6
CONTINUOUS
 62
     7
 10
187.4390041619
 20
559.9747548742
 30
0.0
 40
0.6697386152696791
 50
293.1025518653
 51
356.7424951406
  0
LINE
  5
8F
  8
0
  6
CONTINUOUS
 62
     7
 10
168.1493582591
 20
559.8306910805
 30
0.0
 11
168.2535434528
 21
559.6026884131
 31
0.0
  0
LINE
  5
90
  8
0
  6
CONTINUOUS
 62
     7
 10
188.1144471853
 20
559.9499599747
 30
0.0
 11
188.1144471853
 21
589.329327803
 31
0.0
  0
LINE
  5
91
  8
0
  6
CONTINUOUS
 62
     7
 10
168.1144476323
 20
589.329327803
 30
0.0
 11
168.1144476323
 21
559.9499599747
 31
0.0
  0
ARC
  5
92
  8
0
  6
CONTINUOUS
 62
     7
 10
178.1144474088
 20
661.7569721671
 30
0.0
 40
10.00000000000003
 50
0.0
 51
180.0
  0
LINE
  5
93
  8
0
  6
CONTINUOUS
 62
     7
 10
168.1144476323
 20
661.7569582275
 30
0.0
 11
168.1144476323
 21
589.329327803
 31
0.0
  0
LINE
  5
94
  8
0
  6
CONTINUOUS
 62
     7
 10
188.1144471853
 20
589.329327803
 30
0.0
 11
188.1144471853
 21
661.7569582275
 31
0.0
  0
LINE
  5
95
  8
0
  6
CONTINUOUS
 62
     7
 10
149.6144473939
 20
372.2529382184
 30
0.0
 11
149.6144473939
 21
363.6529381591
 31
0.0
  0
LINE
  5
96
  8
0
  6
CONTINUOUS
 62
     7
 10
206.6144474237
 20
363.6529381591
 30
0.0
 11
206.6144474237
 21
372.2529382184
 31
0.0
  0
ARC
  5
97
  8
0
  6
CONTINUOUS
 62
     7
 10
150.2144474088
 20
372.2529382042
 30
0.0
 40
0.5999999999999943
 50
90.0
 51
180.0
  0
ARC
  5
98
  8
0
  6
CONTINUOUS
 62
     7
 10
206.0144474088
 20
372.2529382042
 30
0.0
 40
0.5999999999999943
 50
0.0
 51
90.0
  0
ARC
  5
99
  8
0
  6
CONTINUOUS
 62
     7
 10
154.3144474088
 20
373.2529382042
 30
0.0
 40
0.4000000000000341
 50
270.0
 51
0.0
  0
ARC
  5
9A
  8
0
  6
CONTINUOUS
 62
     7
 10
201.9144474088
 20
373.2529382042
 30
0.0
 40
0.4000000000000341
 50
180.0
 51
270.0
  0
ARC
  5
9B
  8
0
  6
CONTINUOUS
 62
     7
 10
155.1144474088
 20
380.9529382042
 30
0.0
 40
0.4000000000000341
 50
90.0
 51
180.0
  0
ARC
  5
9C
  8
0
  6
CONTINUOUS
 62
     7
 10
201.1144474088
 20
380.9529382042
 30
0.0
 40
0.4000000000000341
 50
0.0
 51
90.0
  0
LINE
  5
9D
  8
0
  6
CONTINUOUS
 62
     7
 10
154.7144480436
 20
380.9529378749
 30
0.0
 11
154.7144480436
 21
373.2529383823
 31
0.0
  0
LINE
  5
9E
  8
0
  6
CONTINUOUS
 62
     7
 10
201.514446774
 20
373.2529383823
 30
0.0
 11
201.514446774
 21
380.9529378749
 31
0.0
  0
ARC
  5
9F
  8
0
  6
CONTINUOUS
 62
     7
 10
195.5144474088
 20
479.4529382042
 30
0.0
 40
0.6000000000000227
 50
0.0
 51
90.0
  0
ARC
  5
A0
  8
0
  6
CONTINUOUS
 62
     7
 10
160.7144474088
 20
479.4529382042
 30
0.0
 40
0.6000000000000227
 50
90.0
 51
180.0
  0
LINE
  5
A1
  8
0
  6
CONTINUOUS
 62
     7
 10
160.1144481837
 20
417.9562398903
 30
0.0
 11
160.1144481837
 21
381.7529383785
 31
0.0
  0
LINE
  5
A2
  8
0
  6
CONTINUOUS
 62
     7
 10
160.1144481837
 20
479.4529409818
 30
0.0
 11
160.1144481837
 21
452.1499009542
 31
0.0
  0
LINE
  5
A3
  8
0
  6
CONTINUOUS
 62
     7
 10
196.114446634
 20
452.1470101289
 30
0.0
 11
196.114446634
 21
479.4529409818
 31
0.0
  0
LINE
  5
A4
  8
0
  6
CONTINUOUS
 62
     7
 10
196.114446634
 20
381.7529383785
 30
0.0
 11
196.114446634
 21
417.9616676382
 31
0.0
  0
ARC
  5
A5
  8
0
  6
CONTINUOUS
 62
     7
 10
195.7144474088
 20
381.7529382042
 30
0.0
 40
0.3999999999999773
 50
270.0
 51
0.0
  0
ARC
  5
A6
  8
0
  6
CONTINUOUS
 62
     7
 10
160.5144474088
 20
381.7529382042
 30
0.0
 40
0.4000000000000057
 50
180.0
 51
270.0
  0
ARC
  5
A7
  8
0
  6
CONTINUOUS
 62
     7
 10
197.8974873394
 20
418.2698984385
 30
0.0
 40
1.81484509304441
 50
79.2574255638
 51
190.7426247453
  0
ARC
  5
A8
  8
0
  6
CONTINUOUS
 62
     7
 10
197.8974830029
 20
451.835977002
 30
0.0
 40
1.81484762742223
 50
169.2574809555
 51
280.7425190445
  0
ARC
  5
A9
  8
0
  6
CONTINUOUS
 62
     7
 10
158.3314080199
 20
418.2698939056
 30
0.0
 40
1.814867441344132
 50
349.2586124149
 51
100.7417397487
  0
ARC
  5
AA
  8
0
  6
CONTINUOUS
 62
     7
 10
158.3314110193
 20
451.8359816034
 30
0.0
 40
1.814863515289026
 50
259.2581403559
 51
10.7415577895
  0
LINE
  5
AB
  8
0
  6
CONTINUOUS
 62
     7
 10
198.2106507211
 20
420.0529375784
 30
0.0
 11
232.8144457578
 21
420.0529375784
 31
0.0
  0
LINE
  5
AC
  8
0
  6
CONTINUOUS
 62
     7
 10
232.8144457578
 20
450.0529350452
 30
0.0
 11
198.2130051046
 21
450.0529350452
 31
0.0
  0
LINE
  5
AD
  8
0
  6
CONTINUOUS
 62
     7
 10
158.0508888154
 20
450.0529350452
 30
0.0
 11
123.4144490599
 21
450.0529350452
 31
0.0
  0
LINE
  5
AE
  8
0
  6
CONTINUOUS
 62
     7
 10
123.4144490599
 20
420.0529375784
 30
0.0
 11
158.0142431348
 21
420.0529375784
 31
0.0
  0
ARC
  5
AF
  8
0
  6
CONTINUOUS
 62
     7
 10
233.4144474088
 20
420.3529382042
 30
0.0
 40
0.3000000000000114
 50
180.0
 51
270.0
  0
ARC
  5
B0
  8
0
  6
CONTINUOUS
 62
     7
 10
233.4144474088
 20
449.7529382042
 30
0.0
 40
0.3000000000000114
 50
90.0
 51
180.0
  0
ARC
  5
B1
  8
0
  6
CONTINUOUS
 62
     7
 10
236.9144474088
 20
449.3529382042
 30
0.0
 40
0.700000000000017
 50
0.0
 51
90.0
  0
ARC
  5
B2
  8
0
  6
CONTINUOUS
 62
     7
 10
236.9144474088
 20
420.7529382042
 30
0.0
 40
0.700000000000017
 50
270.0
 51
0.0
  0
ARC
  5
B3
  8
0
  6
CONTINUOUS
 62
     7
 10
119.3144474088
 20
420.7529382042
 30
0.0
 40
0.700000000000017
 50
180.0
 51
270.0
  0
ARC
  5
B4
  8
0
  6
CONTINUOUS
 62
     7
 10
119.3144474088
 20
449.3529382042
 30
0.0
 40
0.700000000000017
 50
90.0
 51
180.0
  0
LINE
  5
B5
  8
0
  6
CONTINUOUS
 62
     7
 10
233.4144484638
 20
420.0529375784
 30
0.0
 11
236.9144481062
 21
420.0529375784
 31
0.0
  0
LINE
  5
B6
  8
0
  6
CONTINUOUS
 62
     7
 10
236.9144481062
 20
450.0529350452
 30
0.0
 11
233.4144484638
 21
450.0529350452
 31
0.0
  0
ARC
  5
B7
  8
0
  6
CONTINUOUS
 62
     7
 10
123.4144474088
 20
420.3529382042
 30
0.0
 40
0.3000000000000114
 50
180.0
 51
270.0
  0
ARC
  5
B8
  8
0
  6
CONTINUOUS
 62
     7
 10
123.4144474088
 20
449.7529382042
 30
0.0
 40
0.3000000000000114
 50
90.0
 51
180.0
  0
ARC
  5
B9
  8
0
  6
CONTINUOUS
 62
     7
 10
122.8144474088
 20
449.7529382042
 30
0.0
 40
0.3000000000000114
 50
0.0
 51
90.0
  0
ARC
  5
BA
  8
0
  6
CONTINUOUS
 62
     7
 10
122.8144474088
 20
420.3529382042
 30
0.0
 40
0.3000000000000114
 50
270.0
 51
360.0
  0
LINE
  5
BB
  8
0
  6
CONTINUOUS
 62
     7
 10
122.8144463538
 20
450.0529350452
 30
0.0
 11
119.3144467115
 21
450.0529350452
 31
0.0
  0
LINE
  5
BC
  8
0
  6
CONTINUOUS
 62
     7
 10
119.3144467115
 20
420.0529375784
 30
0.0
 11
122.8144463538
 21
420.0529375784
 31
0.0
  0
ARC
  5
BD
  8
0
  6
CONTINUOUS
 62
     7
 10
232.8144474088
 20
449.7529382042
 30
0.0
 40
0.3000000000000114
 50
0.0
 51
90.0
  0
ARC
  5
BE
  8
0
  6
CONTINUOUS
 62
     7
 10
232.8144474088
 20
420.3529382042
 30
0.0
 40
0.3000000000000114
 50
270.0
 51
0.0
  0
LINE
  5
BF
  8
0
  6
CONTINUOUS
 62
     7
 10
188.1144471853
 20
480.5529372505
 30
0.0
 11
188.1144471853
 21
559.9499599747
 31
0.0
  0
LINE
  5
C0
  8
0
  6
CONTINUOUS
 62
     7
 10
168.1144476323
 20
559.9499599747
 30
0.0
 11
168.1144476323
 21
480.5529372505
 31
0.0
  0
LINE
  5
C1
  8
0
  6
CONTINUOUS
 62
     7
 10
168.4144471227
 20
480.5529372505
 30
0.0
 11
168.4144471227
 21
480.0529362372
 31
0.0
  0
LINE
  5
C2
  8
0
  6
CONTINUOUS
 62
     7
 10
187.8144476949
 20
480.0529362372
 30
0.0
 11
187.8144476949
 21
480.5529372505
 31
0.0
  0
ARC
  5
C3
  8
0
  6
CONTINUOUS
 62
     7
 10
111.7144474088
 20
426.6529382042
 30
0.0
 40
0.4000000000000057
 50
90.0
 51
180.0
  0
ARC
  5
C4
  8
0
  6
CONTINUOUS
 62
     7
 10
111.7144474088
 20
443.4529382042
 30
0.0
 40
0.4000000000000341
 50
180.0
 51
270.0
  0
ARC
  5
C5
  8
0
  6
CONTINUOUS
 62
     7
 10
244.5144474088
 20
443.4529382042
 30
0.0
 40
0.4000000000000341
 50
270.0
 51
0.0
  0
ARC
  5
C6
  8
0
  6
CONTINUOUS
 62
     7
 10
244.5144474088
 20
426.6529382042
 30
0.0
 40
0.4000000000000057
 50
0.0
 51
90.0
  0
LINE
  5
C7
  8
0
  6
CONTINUOUS
 62
     7
 10
118.6144460379
 20
443.0529357604
 30
0.0
 11
111.7144484459
 21
443.0529357604
 31
0.0
  0
LINE
  5
C8
  8
0
  6
CONTINUOUS
 62
     7
 10
111.7144484459
 20
427.0529368631
 30
0.0
 11
118.6144460379
 21
427.0529368631
 31
0.0
  0
LINE
  5
C9
  8
0
  6
CONTINUOUS
 62
     7
 10
237.6144487797
 20
427.0529368631
 30
0.0
 11
244.5144463717
 21
427.0529368631
 31
0.0
  0
LINE
  5
CA
  8
0
  6
CONTINUOUS
 62
     7
 10
244.5144463717
 20
443.0529357604
 30
0.0
 11
237.6144487797
 21
443.0529357604
 31
0.0
  0
POLYLINE
  5
CB
  8
0
  6
CONTINUOUS
 62
     7
 66
     1
 10
0.0
 20
0.0
 30
0.0
 70
   128
  0
VERTEX
  5
2BC
  8
0
  6
CONTINUOUS
 62
     7
 10
178.1144474088
 20
560.7248203568
 30
0.0
  0
VERTEX
  5
2BD
  8
0
  6
CONTINUOUS
 62
     7
 10
179.9900385239
 20
560.7023196034
 30
0.0
  0
VERTEX
  5
2BE
  8
0
  6
CONTINUOUS
 62
     7
 10
181.7935515582
 20
560.635636907
 30
0.0
  0
VERTEX
  5
2BF
  8
0
  6
CONTINUOUS
 62
     7
 10
183.4556787661
 20
560.5273650698
 30
0.0
  0
VERTEX
  5
2C0
  8
0
  6
CONTINUOUS
 62
     7
 10
184.9125457383
 20
560.3816615156
 30
0.0
  0
VERTEX
  5
2C1
  8
0
  6
CONTINUOUS
 62
     7
 10
186.1081650867
 20
560.20411418
 30
0.0
  0
VERTEX
  5
2C2
  8
0
  6
CONTINUOUS
 62
     7
 10
186.9965909435
 20
560.0015477947
 30
0.0
  0
VERTEX
  5
2C3
  8
0
  6
CONTINUOUS
 62
     7
 10
187.5436805575
 20
559.7817556671
 30
0.0
  0
VERTEX
  5
2C4
  8
0
  6
CONTINUOUS
 62
     7
 10
187.7284102528
 20
559.5531867556
 30
0.0
  0
VERTEX
  5
2C5
  8
0
  6
CONTINUOUS
 62
     7
 10
187.5436805575
 20
559.3246029429
 30
0.0
  0
VERTEX
  5
2C6
  8
0
  6
CONTINUOUS
 62
     7
 10
186.9965909435
 20
559.1048108152
 30
0.0
  0
VERTEX
  5
2C7
  8
0
  6
CONTINUOUS
 62
     7
 10
186.1081650867
 20
558.90224443
 30
0.0
  0
VERTEX
  5
2C8
  8
0
  6
CONTINUOUS
 62
     7
 10
184.9125457383
 20
558.7246970944
 30
0.0
  0
VERTEX
  5
2C9
  8
0
  6
CONTINUOUS
 62
     7
 10
183.4556787661
 20
558.5789935402
 30
0.0
  0
VERTEX
  5
2CA
  8
0
  6
CONTINUOUS
 62
     7
 10
181.7935515582
 20
558.470721703
 30
0.0
  0
VERTEX
  5
2CB
  8
0
  6
CONTINUOUS
 62
     7
 10
179.9900385239
 20
558.4040390066
 30
0.0
  0
VERTEX
  5
2CC
  8
0
  6
CONTINUOUS
 62
     7
 10
178.1144474088
 20
558.3815382532
 30
0.0
  0
VERTEX
  5
2CD
  8
0
  6
CONTINUOUS
 62
     7
 10
176.2388562937
 20
558.4040390066
 30
0.0
  0
VERTEX
  5
2CE
  8
0
  6
CONTINUOUS
 62
     7
 10
174.4353432595
 20
558.470721703
 30
0.0
  0
VERTEX
  5
2CF
  8
0
  6
CONTINUOUS
 62
     7
 10
172.7732160515
 20
558.5789935402
 30
0.0
  0
VERTEX
  5
2D0
  8
0
  6
CONTINUOUS
 62
     7
 10
171.3163490794
 20
558.7246970944
 30
0.0
  0
VERTEX
  5
2D1
  8
0
  6
CONTINUOUS
 62
     7
 10
170.1207297309
 20
558.90224443
 30
0.0
  0
VERTEX
  5
2D2
  8
0
  6
CONTINUOUS
 62
     7
 10
169.2323038741
 20
559.1048108152
 30
0.0
  0
VERTEX
  5
2D3
  8
0
  6
CONTINUOUS
 62
     7
 10
168.6852142601
 20
559.3246029429
 30
0.0
  0
VERTEX
  5
2D4
  8
0
  6
CONTINUOUS
 62
     7
 10
168.5004845648
 20
559.5531867556
 30
0.0
  0
VERTEX
  5
2D5
  8
0
  6
CONTINUOUS
 62
     7
 10
168.6852142601
 20
559.7817556671
 30
0.0
  0
VERTEX
  5
2D6
  8
0
  6
CONTINUOUS
 62
     7
 10
169.2323038741
 20
560.0015477947
 30
0.0
  0
VERTEX
  5
2D7
  8
0
  6
CONTINUOUS
 62
     7
 10
170.1207297309
 20
560.20411418
 30
0.0
  0
VERTEX
  5
2D8
  8
0
  6
CONTINUOUS
 62
     7
 10
171.3163490794
 20
560.3816615156
 30
0.0
  0
VERTEX
  5
2D9
  8
0
  6
CONTINUOUS
 62
     7
 10
172.7732160515
 20
560.5273650698
 30
0.0
  0
VERTEX
  5
2DA
  8
0
  6
CONTINUOUS
 62
     7
 10
174.4353432595
 20
560.635636907
 30
0.0
  0
VERTEX
  5
2DB
  8
0
  6
CONTINUOUS
 62
     7
 10
176.2388562937
 20
560.7023196034
 30
0.0
  0
VERTEX
  5
2DC
  8
0
  6
CONTINUOUS
 62
     7
 10
178.1144474088
 20
560.7248203568
 30
0.0
  0
SEQEND
  5
3E7
  8
0
  6
CONTINUOUS
 62
     7
  0
LINE
  5
CC
  8
0
  6
CONTINUOUS
 62
     7
 10
168.1192299738
 20
559.912274938
 30
0.0
 11
168.1144476323
 21
559.9499599747
 31
0.0
  0
POLYLINE
  5
CD
  8
0
  6
CONTINUOUS
 62
     7
 66
     1
 10
0.0
 20
0.0
 30
0.0
 70
   128
  0
VERTEX
  5
2DD
  8
0
  6
CONTINUOUS
 62
     7
 10
187.4889318287
 20
559.8130630068
 30
0.0
  0
VERTEX
  5
2DE
  8
0
  6
CONTINUOUS
 62
     7
 10
187.4894477814
 20
559.801067572
 30
0.0
  0
VERTEX
  5
2DF
  8
0
  6
CONTINUOUS
 62
     7
 10
187.3093095063
 20
559.5781760029
 30
0.0
  0
VERTEX
  5
2E0
  8
0
  6
CONTINUOUS
 62
     7
 10
186.7758181333
 20
559.3638526014
 30
0.0
  0
VERTEX
  5
2E1
  8
0
  6
CONTINUOUS
 62
     7
 10
185.909474866
 20
559.1663228087
 30
0.0
  0
VERTEX
  5
2E2
  8
0
  6
CONTINUOUS
 62
     7
 10
184.7435735553
 20
558.9931862167
 30
0.0
  0
VERTEX
  5
2E3
  8
0
  6
CONTINUOUS
 62
     7
 10
183.3229182675
 20
558.8511036448
 30
0.0
  0
VERTEX
  5
2E4
  8
0
  6
CONTINUOUS
 62
     7
 10
181.7021045289
 20
558.7455140165
 30
0.0
  0
VERTEX
  5
2E5
  8
0
  6
CONTINUOUS
 62
     7
 10
179.9434191934
 20
558.6805002503
 30
0.0
  0
VERTEX
  5
2E6
  8
0
  6
CONTINUOUS
 62
     7
 10
178.1144474088
 20
558.6585508398
 30
0.0
  0
VERTEX
  5
2E7
  8
0
  6
CONTINUOUS
 62
     7
 10
176.2854756243
 20
558.6805002503
 30
0.0
  0
VERTEX
  5
2E8
  8
0
  6
CONTINUOUS
 62
     7
 10
174.5267902887
 20
558.7455140165
 30
0.0
  0
VERTEX
  5
2E9
  8
0
  6
CONTINUOUS
 62
     7
 10
172.9059765502
 20
558.8511036448
 30
0.0
  0
VERTEX
  5
2EA
  8
0
  6
CONTINUOUS
 62
     7
 10
171.4853212624
 20
558.9931862167
 30
0.0
  0
VERTEX
  5
2EB
  8
0
  6
CONTINUOUS
 62
     7
 10
170.3194199517
 20
559.1663228087
 30
0.0
  0
VERTEX
  5
2EC
  8
0
  6
CONTINUOUS
 62
     7
 10
169.4530766844
 20
559.3638526014
 30
0.0
  0
VERTEX
  5
2ED
  8
0
  6
CONTINUOUS
 62
     7
 10
168.9195853113
 20
559.5781760029
 30
0.0
  0
VERTEX
  5
2EE
  8
0
  6
CONTINUOUS
 62
     7
 10
168.7394470363
 20
559.801067572
 30
0.0
  0
VERTEX
  5
2EF
  8
0
  6
CONTINUOUS
 62
     7
 10
168.739962989
 20
559.8130630068
 30
0.0
  0
SEQEND
  5
3E8
  8
0
  6
CONTINUOUS
 62
     7
  0
ARC
  5
CE
  8
0
  6
CONTINUOUS
 62
     7
 10
110.5144474088
 20
431.3529382042
 30
0.0
 40
0.7999999999999972
 50
270.0
 51
0.0
  0
ARC
  5
CF
  8
0
  6
CONTINUOUS
 62
     7
 10
103.1144474088
 20
438.7529382042
 30
0.0
 40
0.8000000000000114
 50
90.0
 51
180.0
  0
LINE
  5
D0
  8
0
  6
CONTINUOUS
 62
     7
 10
111.3144491254
 20
438.752937477
 30
0.0
 11
111.3144491254
 21
431.3529388718
 31
0.0
  0
LINE
  5
D1
  8
0
  6
CONTINUOUS
 62
     7
 10
103.1144444286
 20
439.552936118
 30
0.0
 11
110.5144504844
 21
439.552936118
 31
0.0
  0
ARC
  5
D2
  8
0
  6
CONTINUOUS
 62
     7
 10
110.5144474088
 20
438.7529382042
 30
0.0
 40
0.7999999999999972
 50
0.0
 51
90.0
  0
ARC
  5
D3
  8
0
  6
CONTINUOUS
 62
     7
 10
245.7144474088
 20
438.7529382042
 30
0.0
 40
0.799999999999983
 50
90.0
 51
180.0
  0
LINE
  5
D4
  8
0
  6
CONTINUOUS
 62
     7
 10
245.7144443332
 20
439.552936118
 30
0.0
 11
253.1144503891
 21
439.552936118
 31
0.0
  0
LINE
  5
D5
  8
0
  6
CONTINUOUS
 62
     7
 10
253.9144490301
 20
438.752937477
 30
0.0
 11
253.9144490301
 21
431.3529388718
 31
0.0
  0
LINE
  5
D6
  8
0
  6
CONTINUOUS
 62
     7
 10
102.3144457876
 20
431.3529388718
 30
0.0
 11
102.3144457876
 21
438.752937477
 31
0.0
  0
ARC
  5
D7
  8
0
  6
CONTINUOUS
 62
     7
 10
103.1144474088
 20
431.3529382042
 30
0.0
 40
0.8000000000000114
 50
180.0
 51
270.0
  0
ARC
  5
D8
  8
0
  6
CONTINUOUS
 62
     7
 10
245.7144474088
 20
431.3529382042
 30
0.0
 40
0.799999999999983
 50
180.0
 51
270.0
  0
ARC
  5
D9
  8
0
  6
CONTINUOUS
 62
     7
 10
253.1144474088
 20
431.3529382042
 30
0.0
 40
0.7999999999999545
 50
270.0
 51
0.0
  0
LINE
  5
DA
  8
0
  6
CONTINUOUS
 62
     7
 10
253.1144503891
 20
430.5529402308
 30
0.0
 11
245.7144443332
 21
430.5529402308
 31
0.0
  0
ARC
  5
DB
  8
0
  6
CONTINUOUS
 62
     7
 10
253.1144474088
 20
438.7529382042
 30
0.0
 40
0.7999999999999545
 50
0.0
 51
90.0
  0
LINE
  5
DC
  8
0
  6
CONTINUOUS
 62
     7
 10
244.9144456922
 20
431.3529388718
 30
0.0
 11
244.9144456922
 21
438.752937477
 31
0.0
  0
LINE
  5
DD
  8
0
  6
CONTINUOUS
 62
     7
 10
110.5144504844
 20
430.5529402308
 30
0.0
 11
103.1144444286
 21
430.5529402308
 31
0.0
  0
LINE
  5
DE
  8
0
  6
CONTINUOUS
 62
     7
 10
149.6144473939
 20
363.6529381591
 30
0.0
 11
206.6144474237
 21
363.6529381591
 31
0.0
  0
LINE
  5
DF
  8
0
  6
CONTINUOUS
 62
     7
 10
150.2144482373
 20
372.8529381304
 30
0.0
 11
206.0142398267
 21
372.8529381304
 31
0.0
  0
LINE
  5
E0
  8
0
  6
CONTINUOUS
 62
     7
 10
155.1144473641
 20
381.3529381267
 30
0.0
 11
201.1144474535
 21
381.3529381267
 31
0.0
  0
LINE
  5
E1
  8
0
  6
CONTINUOUS
 62
     7
 10
195.5144476532
 20
480.0529362372
 30
0.0
 11
160.7144471644
 21
480.0529362372
 31
0.0
  0
LINE
  5
E2
  8
0
  6
CONTINUOUS
 62
     7
 10
233.1144471108
 20
449.7529374174
 30
0.0
 11
233.1144471108
 21
420.3529389314
 31
0.0
  0
LINE
  5
E3
  8
0
  6
CONTINUOUS
 62
     7
 10
237.6144487797
 20
435.0529418997
 30
0.0
 11
237.6144487797
 21
420.7529382519
 31
0.0
  0
LINE
  5
E4
  8
0
  6
CONTINUOUS
 62
     7
 10
237.6144487797
 20
449.3529380969
 30
0.0
 11
237.6144487797
 21
435.0529418997
 31
0.0
  0
LINE
  5
E5
  8
0
  6
CONTINUOUS
 62
     7
 10
118.6144460379
 20
420.7529382519
 30
0.0
 11
118.6144460379
 21
449.3529380969
 31
0.0
  0
LINE
  5
E6
  8
0
  6
CONTINUOUS
 62
     7
 10
123.1144477069
 20
420.3529389314
 30
0.0
 11
123.1144477069
 21
449.7529374174
 31
0.0
  0
LINE
  5
E7
  8
0
  6
CONTINUOUS
 62
     7
 10
244.9144456922
 20
423.5529372207
 30
0.0
 11
244.9144456922
 21
431.3529388718
 31
0.0
  0
LINE
  5
E8
  8
0
  6
CONTINUOUS
 62
     7
 10
102.3144457876
 20
423.5529372207
 30
0.0
 11
102.3144457876
 21
431.3529388718
 31
0.0
  0
LINE
  5
E9
  8
0
  6
CONTINUOUS
 62
     7
 10
111.3144491254
 20
431.3529388718
 30
0.0
 11
111.3144491254
 21
423.5529372207
 31
0.0
  0
LINE
  5
EA
  8
0
  6
CONTINUOUS
 62
     7
 10
244.9144456922
 20
438.752937477
 30
0.0
 11
244.9144456922
 21
446.5529354028
 31
0.0
  0
LINE
  5
EB
  8
0
  6
CONTINUOUS
 62
     7
 10
253.9144490301
 20
431.3529388718
 30
0.0
 11
253.9144490301
 21
423.5529372207
 31
0.0
  0
LINE
  5
EC
  8
0
  6
CONTINUOUS
 62
     7
 10
102.3144457876
 20
438.752937477
 30
0.0
 11
102.3144457876
 21
446.5529354028
 31
0.0
  0
LINE
  5
ED
  8
0
  6
CONTINUOUS
 62
     7
 10
253.9144490301
 20
446.5529354028
 30
0.0
 11
253.9144490301
 21
438.752937477
 31
0.0
  0
LINE
  5
EE
  8
0
  6
CONTINUOUS
 62
     7
 10
111.3144491254
 20
446.5529354028
 30
0.0
 11
111.3144491254
 21
438.752937477
 31
0.0
  0
LINE
  5
EF
  8
0
  6
CONTINUOUS
 62
     7
 10
168.1144476323
 20
480.5529372505
 30
0.0
 11
188.1144471853
 21
480.5529372505
 31
0.0
  0
LINE
  5
F0
  8
0
  6
CONTINUOUS
 62
     7
 10
253.9144490301
 20
469.2529396824
 30
0.0
 11
253.9144490301
 21
446.5529354028
 31
0.0
  0
LINE
  5
F1
  8
0
  6
CONTINUOUS
 62
     7
 10
102.3144457876
 20
400.8529366664
 30
0.0
 11
102.3144457876
 21
423.5529372207
 31
0.0
  0
ARC
  5
F2
  8
0
  6
CONTINUOUS
 62
     7
 10
110.5144474088
 20
400.8529382042
 30
0.0
 40
0.7999999999999972
 50
270.0
 51
0.0
  0
ARC
  5
F3
  8
0
  6
CONTINUOUS
 62
     7
 10
245.7144474088
 20
469.2529382042
 30
0.0
 40
0.8000000000000114
 50
90.0
 51
180.0
  0
LINE
  5
F4
  8
0
  6
CONTINUOUS
 62
     7
 10
110.5144504844
 20
400.0529380254
 30
0.0
 11
103.1144444286
 21
400.0529380254
 31
0.0
  0
ARC
  5
F5
  8
0
  6
CONTINUOUS
 62
     7
 10
253.1144474088
 20
469.2529382042
 30
0.0
 40
0.8000000000000114
 50
0.0
 51
90.0
  0
LINE
  5
F6
  8
0
  6
CONTINUOUS
 62
     7
 10
253.9144490301
 20
423.5529372207
 30
0.0
 11
253.9144490301
 21
400.8529366664
 31
0.0
  0
ARC
  5
F7
  8
0
  6
CONTINUOUS
 62
     7
 10
245.7144474088
 20
400.8529382042
 30
0.0
 40
0.799999999999983
 50
180.0
 51
270.0
  0
ARC
  5
F8
  8
0
  6
CONTINUOUS
 62
     7
 10
103.1144474088
 20
469.2529382042
 30
0.0
 40
0.8000000000000114
 50
90.0
 51
180.0
  0
ARC
  5
F9
  8
0
  6
CONTINUOUS
 62
     7
 10
253.1144474088
 20
400.8529382042
 30
0.0
 40
0.7999999999999545
 50
270.0
 51
0.0
  0
LINE
  5
FA
  8
0
  6
CONTINUOUS
 62
     7
 10
102.3144457876
 20
446.5529354028
 30
0.0
 11
102.3144457876
 21
469.2529396824
 31
0.0
  0
LINE
  5
FB
  8
0
  6
CONTINUOUS
 62
     7
 10
103.1144444286
 20
470.0529383234
 30
0.0
 11
110.5144504844
 21
470.0529383234
 31
0.0
  0
LINE
  5
FC
  8
0
  6
CONTINUOUS
 62
     7
 10
111.3144491254
 20
423.5529372207
 30
0.0
 11
111.3144491254
 21
400.8529366664
 31
0.0
  0
LINE
  5
FD
  8
0
  6
CONTINUOUS
 62
     7
 10
111.3144491254
 20
469.2529396824
 30
0.0
 11
111.3144491254
 21
446.5529354028
 31
0.0
  0
ARC
  5
FE
  8
0
  6
CONTINUOUS
 62
     7
 10
110.5144474088
 20
469.2529382042
 30
0.0
 40
0.8000000000000114
 50
0.0
 51
90.0
  0
LINE
  5
FF
  8
0
  6
CONTINUOUS
 62
     7
 10
245.7144443332
 20
470.0529383234
 30
0.0
 11
253.1144503891
 21
470.0529383234
 31
0.0
  0
LINE
  5
100
  8
0
  6
CONTINUOUS
 62
     7
 10
244.9144456922
 20
400.8529366664
 30
0.0
 11
244.9144456922
 21
423.5529372207
 31
0.0
  0
LINE
  5
101
  8
0
  6
CONTINUOUS
 62
     7
 10
253.1144503891
 20
400.0529380254
 30
0.0
 11
245.7144443332
 21
400.0529380254
 31
0.0
  0
ARC
  5
102
  8
0
  6
CONTINUOUS
 62
     7
 10
103.1144474088
 20
400.8529382042
 30
0.0
 40
0.8000000000000114
 50
180.0
 51
270.0
  0
LINE
  5
103
  8
0
  6
CONTINUOUS
 62
     7
 10
244.9144456922
 20
446.5529354028
 30
0.0
 11
244.9144456922
 21
469.2529396824
 31
0.0
  0
POLYLINE
  5
104
  8
0
  6
CONTINUOUS
 62
     8
 66
     1
 10
0.0
 20
0.0
 30
0.0
 70
   128
  0
VERTEX
  5
2F0
  8
0
  6
CONTINUOUS
 62
     8
 10
178.1144474088
 20
561.1686514429
 30
0.0
  0
VERTEX
  5
2F1
  8
0
  6
CONTINUOUS
 62
     8
 10
180.0069598402
 20
561.1466275267
 30
0.0
  0
VERTEX
  5
2F2
  8
0
  6
CONTINUOUS
 62
     8
 10
181.8310719836
 20
561.0813455395
 30
0.0
  0
VERTEX
  5
2F3
  8
0
  6
CONTINUOUS
 62
     8
 10
183.5208555139
 20
560.9751896671
 30
0.0
  0
VERTEX
  5
2F4
  8
0
  6
CONTINUOUS
 62
     8
 10
185.0152375563
 20
560.8319597057
 30
0.0
  0
VERTEX
  5
2F5
  8
0
  6
CONTINUOUS
 62
     8
 10
186.2602072223
 20
560.6568710617
 30
0.0
  0
VERTEX
  5
2F6
  8
0
  6
CONTINUOUS
 62
     8
 10
187.210767196
 20
560.4562269262
 30
0.0
  0
VERTEX
  5
2F7
  8
0
  6
CONTINUOUS
 62
     8
 10
187.8325628503
 20
560.2372692637
 30
0.0
  0
VERTEX
  5
2F8
  8
0
  6
CONTINUOUS
 62
     8
 10
188.1031204402
 20
560.0079403929
 30
0.0
  0
VERTEX
  5
2F9
  8
0
  6
CONTINUOUS
 62
     8
 10
188.1143903746
 20
559.945832353
 30
0.0
  0
SEQEND
  5
3E9
  8
0
  6
CONTINUOUS
 62
     8
  0
POLYLINE
  5
105
  8
0
  6
CONTINUOUS
 62
     8
 66
     1
 10
0.0
 20
0.0
 30
0.0
 70
   128
  0
VERTEX
  5
2FA
  8
0
  6
CONTINUOUS
 62
     8
 10
168.1144476323
 20
559.9499599747
 30
0.0
  0
VERTEX
  5
2FB
  8
0
  6
CONTINUOUS
 62
     8
 10
168.1257743775
 20
560.0079403929
 30
0.0
  0
VERTEX
  5
2FC
  8
0
  6
CONTINUOUS
 62
     8
 10
168.3963319673
 20
560.2372692637
 30
0.0
  0
VERTEX
  5
2FD
  8
0
  6
CONTINUOUS
 62
     8
 10
169.0181276216
 20
560.4562269262
 30
0.0
  0
VERTEX
  5
2FE
  8
0
  6
CONTINUOUS
 62
     8
 10
169.9686875953
 20
560.6568710617
 30
0.0
  0
VERTEX
  5
2FF
  8
0
  6
CONTINUOUS
 62
     8
 10
171.2136572613
 20
560.8319597057
 30
0.0
  0
VERTEX
  5
300
  8
0
  6
CONTINUOUS
 62
     8
 10
172.7080393038
 20
560.9751896671
 30
0.0
  0
VERTEX
  5
301
  8
0
  6
CONTINUOUS
 62
     8
 10
174.3978228341
 20
561.0813455395
 30
0.0
  0
VERTEX
  5
302
  8
0
  6
CONTINUOUS
 62
     8
 10
176.2219349775
 20
561.1466275267
 30
0.0
  0
VERTEX
  5
303
  8
0
  6
CONTINUOUS
 62
     8
 10
178.1144474088
 20
561.1686514429
 30
0.0
  0
SEQEND
  5
3EA
  8
0
  6
CONTINUOUS
 62
     8
  0
LINE
  5
106
  8
0
  6
CONTINUOUS
 62
     8
 10
110.5144504844
 20
431.3529388718
 30
0.0
 11
111.3144491254
 21
431.3529388718
 31
0.0
  0
LINE
  5
107
  8
0
  6
CONTINUOUS
 62
     8
 10
110.5144504844
 20
431.3529388718
 30
0.0
 11
110.5144504844
 21
430.5529402308
 31
0.0
  0
LINE
  5
108
  8
0
  6
CONTINUOUS
 62
     8
 10
103.1144444286
 20
439.552936118
 30
0.0
 11
103.1144444286
 21
438.752937477
 31
0.0
  0
LINE
  5
109
  8
0
  6
CONTINUOUS
 62
     8
 10
102.3144457876
 20
438.752937477
 30
0.0
 11
103.1144444286
 21
438.752937477
 31
0.0
  0
LINE
  5
10A
  8
0
  6
CONTINUOUS
 62
     8
 10
110.5144504844
 20
431.3529388718
 30
0.0
 11
110.5144504844
 21
438.752937477
 31
0.0
  0
LINE
  5
10B
  8
0
  6
CONTINUOUS
 62
     8
 10
110.5144504844
 20
438.752937477
 30
0.0
 11
111.3144491254
 21
438.752937477
 31
0.0
  0
LINE
  5
10C
  8
0
  6
CONTINUOUS
 62
     8
 10
110.5144504844
 20
439.552936118
 30
0.0
 11
110.5144504844
 21
438.752937477
 31
0.0
  0
LINE
  5
10D
  8
0
  6
CONTINUOUS
 62
     8
 10
110.5144504844
 20
438.752937477
 30
0.0
 11
103.1144444286
 21
438.752937477
 31
0.0
  0
LINE
  5
10E
  8
0
  6
CONTINUOUS
 62
     8
 10
245.7144443332
 20
438.752937477
 30
0.0
 11
244.9144456922
 21
438.752937477
 31
0.0
  0
LINE
  5
10F
  8
0
  6
CONTINUOUS
 62
     8
 10
245.7144443332
 20
438.752937477
 30
0.0
 11
245.7144443332
 21
439.552936118
 31
0.0
  0
LINE
  5
110
  8
0
  6
CONTINUOUS
 62
     8
 10
253.1144503891
 20
438.752937477
 30
0.0
 11
245.7144443332
 21
438.752937477
 31
0.0
  0
LINE
  5
111
  8
0
  6
CONTINUOUS
 62
     8
 10
253.1144503891
 20
438.752937477
 30
0.0
 11
253.1144503891
 21
439.552936118
 31
0.0
  0
LINE
  5
112
  8
0
  6
CONTINUOUS
 62
     8
 10
253.9144490301
 20
431.3529388718
 30
0.0
 11
253.1144503891
 21
431.3529388718
 31
0.0
  0
LINE
  5
113
  8
0
  6
CONTINUOUS
 62
     8
 10
253.1144503891
 20
431.3529388718
 30
0.0
 11
253.1144503891
 21
438.752937477
 31
0.0
  0
LINE
  5
114
  8
0
  6
CONTINUOUS
 62
     8
 10
253.9144490301
 20
438.752937477
 30
0.0
 11
253.1144503891
 21
438.752937477
 31
0.0
  0
LINE
  5
115
  8
0
  6
CONTINUOUS
 62
     8
 10
103.1144444286
 20
438.752937477
 30
0.0
 11
103.1144444286
 21
431.3529388718
 31
0.0
  0
LINE
  5
116
  8
0
  6
CONTINUOUS
 62
     8
 10
102.3144457876
 20
431.3529388718
 30
0.0
 11
103.1144444286
 21
431.3529388718
 31
0.0
  0
LINE
  5
117
  8
0
  6
CONTINUOUS
 62
     8
 10
103.1144444286
 20
431.3529388718
 30
0.0
 11
103.1144444286
 21
430.5529402308
 31
0.0
  0
LINE
  5
118
  8
0
  6
CONTINUOUS
 62
     8
 10
245.7144443332
 20
431.3529388718
 30
0.0
 11
253.1144503891
 21
431.3529388718
 31
0.0
  0
LINE
  5
119
  8
0
  6
CONTINUOUS
 62
     8
 10
245.7144443332
 20
438.752937477
 30
0.0
 11
245.7144443332
 21
431.3529388718
 31
0.0
  0
LINE
  5
11A
  8
0
  6
CONTINUOUS
 62
     8
 10
245.7144443332
 20
431.3529388718
 30
0.0
 11
244.9144456922
 21
431.3529388718
 31
0.0
  0
LINE
  5
11B
  8
0
  6
CONTINUOUS
 62
     8
 10
245.7144443332
 20
430.5529402308
 30
0.0
 11
245.7144443332
 21
431.3529388718
 31
0.0
  0
LINE
  5
11C
  8
0
  6
CONTINUOUS
 62
     8
 10
253.1144503891
 20
430.5529402308
 30
0.0
 11
253.1144503891
 21
431.3529388718
 31
0.0
  0
LINE
  5
11D
  8
0
  6
CONTINUOUS
 62
     8
 10
103.1144444286
 20
431.3529388718
 30
0.0
 11
110.5144504844
 21
431.3529388718
 31
0.0
  0
POLYLINE
  5
11E
  8
0
  6
CONTINUOUS
 62
     8
 66
     1
 10
0.0
 20
0.0
 30
0.0
 70
   128
  0
VERTEX
  5
304
  8
0
  6
CONTINUOUS
 62
     8
 10
192.206401044
 20
447.3271401338
 30
0.0
  0
VERTEX
  5
305
  8
0
  6
CONTINUOUS
 62
     8
 10
193.7462143987
 20
449.310834866
 30
0.0
  0
VERTEX
  5
306
  8
0
  6
CONTINUOUS
 62
     8
 10
194.9846871584
 20
450.8301051072
 30
0.0
  0
VERTEX
  5
307
  8
0
  6
CONTINUOUS
 62
     8
 10
195.8017085134
 20
451.8058778457
 30
0.0
  0
VERTEX
  5
308
  8
0
  6
CONTINUOUS
 62
     8
 10
196.1119264751
 20
452.1712990216
 30
0.0
  0
VERTEX
  5
309
  8
0
  6
CONTINUOUS
 62
     8
 10
196.0912846415
 20
452.1470101289
 30
0.0
  0
SEQEND
  5
3EB
  8
0
  6
CONTINUOUS
 62
     8
  0
POLYLINE
  5
11F
  8
0
  6
CONTINUOUS
 62
     8
 66
     1
 10
0.0
 20
0.0
 30
0.0
 70
   128
  0
VERTEX
  5
30A
  8
0
  6
CONTINUOUS
 62
     8
 10
196.088904181
 20
417.9616676382
 30
0.0
  0
VERTEX
  5
30B
  8
0
  6
CONTINUOUS
 62
     8
 10
195.9047481804
 20
418.1783267967
 30
0.0
  0
VERTEX
  5
30C
  8
0
  6
CONTINUOUS
 62
     8
 10
195.1784450947
 20
419.042735707
 30
0.0
  0
VERTEX
  5
30D
  8
0
  6
CONTINUOUS
 62
     8
 10
194.009596148
 20
420.4671861343
 30
0.0
  0
VERTEX
  5
30E
  8
0
  6
CONTINUOUS
 62
     8
 10
192.5175242513
 20
422.3672257475
 30
0.0
  0
VERTEX
  5
30F
  8
0
  6
CONTINUOUS
 62
     8
 10
191.3959361999
 20
423.8833518437
 30
0.0
  0
VERTEX
  5
310
  8
0
  6
CONTINUOUS
 62
     8
 10
190.223295839
 20
425.5965457968
 30
0.0
  0
VERTEX
  5
311
  8
0
  6
CONTINUOUS
 62
     8
 10
189.1049376144
 20
427.4381765834
 30
0.0
  0
VERTEX
  5
312
  8
0
  6
CONTINUOUS
 62
     8
 10
188.5234523951
 20
428.5358110181
 30
0.0
  0
VERTEX
  5
313
  8
0
  6
CONTINUOUS
 62
     8
 10
188.0182387694
 20
429.6292470507
 30
0.0
  0
VERTEX
  5
314
  8
0
  6
CONTINUOUS
 62
     8
 10
187.5963114589
 20
430.718484681
 30
0.0
  0
VERTEX
  5
315
  8
0
  6
CONTINUOUS
 62
     8
 10
187.0601853742
 20
432.6871217898
 30
0.0
  0
VERTEX
  5
316
  8
0
  6
CONTINUOUS
 62
     8
 10
186.8353901818
 20
434.6502007655
 30
0.0
  0
VERTEX
  5
317
  8
0
  6
CONTINUOUS
 62
     8
 10
186.8650984406
 20
435.9892042092
 30
0.0
  0
VERTEX
  5
318
  8
0
  6
CONTINUOUS
 62
     8
 10
187.0430220305
 20
437.3294518999
 30
0.0
  0
VERTEX
  5
319
  8
0
  6
CONTINUOUS
 62
     8
 10
187.366266401
 20
438.6709512881
 30
0.0
  0
VERTEX
  5
31A
  8
0
  6
CONTINUOUS
 62
     8
 10
187.9717415585
 20
440.3663234524
 30
0.0
  0
VERTEX
  5
31B
  8
0
  6
CONTINUOUS
 62
     8
 10
188.7821989521
 20
442.0747862867
 30
0.0
  0
VERTEX
  5
31C
  8
0
  6
CONTINUOUS
 62
     8
 10
190.4853923633
 20
444.9067072682
 30
0.0
  0
VERTEX
  5
31D
  8
0
  6
CONTINUOUS
 62
     8
 10
192.206401044
 20
447.3271401338
 30
0.0
  0
SEQEND
  5
3EC
  8
0
  6
CONTINUOUS
 62
     8
  0
POLYLINE
  5
120
  8
0
  6
CONTINUOUS
 62
     8
 66
     1
 10
0.0
 20
0.0
 30
0.0
 70
   128
  0
VERTEX
  5
31E
  8
0
  6
CONTINUOUS
 62
     8
 10
164.6277966364
 20
446.5069280676
 30
0.0
  0
VERTEX
  5
31F
  8
0
  6
CONTINUOUS
 62
     8
 10
165.7361030965
 20
444.9181513599
 30
0.0
  0
VERTEX
  5
320
  8
0
  6
CONTINUOUS
 62
     8
 10
166.8386446699
 20
443.1649924926
 30
0.0
  0
VERTEX
  5
321
  8
0
  6
CONTINUOUS
 62
     8
 10
167.8330783187
 20
441.3087250404
 30
0.0
  0
VERTEX
  5
322
  8
0
  6
CONTINUOUS
 62
     8
 10
168.5344014703
 20
439.6613793186
 30
0.0
  0
VERTEX
  5
323
  8
0
  6
CONTINUOUS
 62
     8
 10
169.0358236819
 20
438.0263196043
 30
0.0
  0
VERTEX
  5
324
  8
0
  6
CONTINUOUS
 62
     8
 10
169.3525366872
 20
436.1247973255
 30
0.0
  0
VERTEX
  5
325
  8
0
  6
CONTINUOUS
 62
     8
 10
169.3717461466
 20
434.2241616658
 30
0.0
  0
VERTEX
  5
326
  8
0
  6
CONTINUOUS
 62
     8
 10
169.2286232873
 20
433.0170111469
 30
0.0
  0
VERTEX
  5
327
  8
0
  6
CONTINUOUS
 62
     8
 10
168.9664652958
 20
431.8071411661
 30
0.0
  0
VERTEX
  5
328
  8
0
  6
CONTINUOUS
 62
     8
 10
168.5888801157
 20
430.5945442728
 30
0.0
  0
VERTEX
  5
329
  8
0
  6
CONTINUOUS
 62
     8
 10
167.9645922422
 20
429.07563911
 30
0.0
  0
VERTEX
  5
32A
  8
0
  6
CONTINUOUS
 62
     8
 10
167.1853928282
 20
427.5483036152
 30
0.0
  0
VERTEX
  5
32B
  8
0
  6
CONTINUOUS
 62
     8
 10
165.5621730178
 20
424.9295027665
 30
0.0
  0
VERTEX
  5
32C
  8
0
  6
CONTINUOUS
 62
     8
 10
163.9264036357
 20
422.6509699337
 30
0.0
  0
VERTEX
  5
32D
  8
0
  6
CONTINUOUS
 62
     8
 10
163.1280562296
 20
421.6110327951
 30
0.0
  0
VERTEX
  5
32E
  8
0
  6
CONTINUOUS
 62
     8
 10
162.3972446113
 20
420.688378971
 30
0.0
  0
VERTEX
  5
32F
  8
0
  6
CONTINUOUS
 62
     8
 10
161.708160901
 20
419.8384316377
 30
0.0
  0
VERTEX
  5
330
  8
0
  6
CONTINUOUS
 62
     8
 10
161.1330394088
 20
419.1419290117
 30
0.0
  0
VERTEX
  5
331
  8
0
  6
CONTINUOUS
 62
     8
 10
160.3088282435
 20
418.1602442376
 30
0.0
  0
VERTEX
  5
332
  8
0
  6
CONTINUOUS
 62
     8
 10
160.1382695525
 20
417.9595553986
 30
0.0
  0
VERTEX
  5
333
  8
0
  6
CONTINUOUS
 62
     8
 10
160.1354197054
 20
417.9562398903
 30
0.0
  0
SEQEND
  5
3ED
  8
0
  6
CONTINUOUS
 62
     8
  0
POLYLINE
  5
121
  8
0
  6
CONTINUOUS
 62
     8
 66
     1
 10
0.0
 20
0.0
 30
0.0
 70
   128
  0
VERTEX
  5
334
  8
0
  6
CONTINUOUS
 62
     8
 10
160.1351943254
 20
452.1499009542
 30
0.0
  0
VERTEX
  5
335
  8
0
  6
CONTINUOUS
 62
     8
 10
160.1313293367
 20
452.154416006
 30
0.0
  0
VERTEX
  5
336
  8
0
  6
CONTINUOUS
 62
     8
 10
160.5873421221
 20
451.6164840869
 30
0.0
  0
VERTEX
  5
337
  8
0
  6
CONTINUOUS
 62
     8
 10
161.0430717855
 20
451.0724575929
 30
0.0
  0
VERTEX
  5
338
  8
0
  6
CONTINUOUS
 62
     8
 10
161.6444193213
 20
450.3450648598
 30
0.0
  0
VERTEX
  5
339
  8
0
  6
CONTINUOUS
 62
     8
 10
163.0408248319
 20
448.6060918979
 30
0.0
  0
VERTEX
  5
33A
  8
0
  6
CONTINUOUS
 62
     8
 10
164.6277966364
 20
446.5069280676
 30
0.0
  0
SEQEND
  5
3EE
  8
0
  6
CONTINUOUS
 62
     8
  0
POLYLINE
  5
122
  8
0
  6
CONTINUOUS
 62
     8
 66
     1
 10
0.0
 20
0.0
 30
0.0
 70
   128
  0
VERTEX
  5
33B
  8
0
  6
CONTINUOUS
 62
     8
 10
194.4500223189
 20
445.3582497052
 30
0.0
  0
VERTEX
  5
33C
  8
0
  6
CONTINUOUS
 62
     8
 10
193.6441060542
 20
444.2580150179
 30
0.0
  0
VERTEX
  5
33D
  8
0
  6
CONTINUOUS
 62
     8
 10
192.8308723881
 20
443.080353897
 30
0.0
  0
VERTEX
  5
33E
  8
0
  6
CONTINUOUS
 62
     8
 10
191.9618189721
 20
441.7087839655
 30
0.0
  0
VERTEX
  5
33F
  8
0
  6
CONTINUOUS
 62
     8
 10
191.2961654752
 20
440.526816409
 30
0.0
  0
VERTEX
  5
340
  8
0
  6
CONTINUOUS
 62
     8
 10
190.639328809
 20
439.1451211385
 30
0.0
  0
VERTEX
  5
341
  8
0
  6
CONTINUOUS
 62
     8
 10
190.1282720654
 20
437.7166809253
 30
0.0
  0
VERTEX
  5
342
  8
0
  6
CONTINUOUS
 62
     8
 10
189.7381009921
 20
434.765148323
 30
0.0
  0
VERTEX
  5
343
  8
0
  6
CONTINUOUS
 62
     8
 10
189.9099812298
 20
433.2819463424
 30
0.0
  0
VERTEX
  5
344
  8
0
  6
CONTINUOUS
 62
     8
 10
190.3073355942
 20
431.8257378153
 30
0.0
  0
VERTEX
  5
345
  8
0
  6
CONTINUOUS
 62
     8
 10
190.8843513965
 20
430.4087491445
 30
0.0
  0
VERTEX
  5
346
  8
0
  6
CONTINUOUS
 62
     8
 10
191.5791310757
 20
429.057750266
 30
0.0
  0
VERTEX
  5
347
  8
0
  6
CONTINUOUS
 62
     8
 10
192.3431340992
 20
427.7764180414
 30
0.0
  0
VERTEX
  5
348
  8
0
  6
CONTINUOUS
 62
     8
 10
193.1453567385
 20
426.5605615191
 30
0.0
  0
VERTEX
  5
349
  8
0
  6
CONTINUOUS
 62
     8
 10
193.9582001804
 20
425.4126431159
 30
0.0
  0
VERTEX
  5
34A
  8
0
  6
CONTINUOUS
 62
     8
 10
194.7471142202
 20
424.3545526377
 30
0.0
  0
VERTEX
  5
34B
  8
0
  6
CONTINUOUS
 62
     8
 10
195.5296785026
 20
423.3443805687
 30
0.0
  0
VERTEX
  5
34C
  8
0
  6
CONTINUOUS
 62
     8
 10
196.1843219041
 20
422.5241647772
 30
0.0
  0
VERTEX
  5
34D
  8
0
  6
CONTINUOUS
 62
     8
 10
196.8132999181
 20
421.7518040649
 30
0.0
  0
VERTEX
  5
34E
  8
0
  6
CONTINUOUS
 62
     8
 10
197.3208558201
 20
421.1390310637
 30
0.0
  0
VERTEX
  5
34F
  8
0
  6
CONTINUOUS
 62
     8
 10
198.0280127763
 20
420.297625821
 30
0.0
  0
VERTEX
  5
350
  8
0
  6
CONTINUOUS
 62
     8
 10
198.2105091601
 20
420.0826802961
 30
0.0
  0
SEQEND
  5
3EF
  8
0
  6
CONTINUOUS
 62
     8
  0
POLYLINE
  5
123
  8
0
  6
CONTINUOUS
 62
     8
 66
     1
 10
0.0
 20
0.0
 30
0.0
 70
   128
  0
VERTEX
  5
351
  8
0
  6
CONTINUOUS
 62
     8
 10
198.2129101097
 20
450.026023548
 30
0.0
  0
VERTEX
  5
352
  8
0
  6
CONTINUOUS
 62
     8
 10
198.2333004861
 20
450.0500367693
 30
0.0
  0
VERTEX
  5
353
  8
0
  6
CONTINUOUS
 62
     8
 10
197.9259472727
 20
449.6876405291
 30
0.0
  0
VERTEX
  5
354
  8
0
  6
CONTINUOUS
 62
     8
 10
197.5911647468
 20
449.2902787141
 30
0.0
  0
VERTEX
  5
355
  8
0
  6
CONTINUOUS
 62
     8
 10
197.1319500743
 20
448.7396361045
 30
0.0
  0
VERTEX
  5
356
  8
0
  6
CONTINUOUS
 62
     8
 10
195.9293574481
 20
447.264301937
 30
0.0
  0
VERTEX
  5
357
  8
0
  6
CONTINUOUS
 62
     8
 10
194.4500223189
 20
445.3582497052
 30
0.0
  0
SEQEND
  5
3F0
  8
0
  6
CONTINUOUS
 62
     8
  0
POLYLINE
  5
124
  8
0
  6
CONTINUOUS
 62
     8
 66
     1
 10
0.0
 20
0.0
 30
0.0
 70
   128
  0
VERTEX
  5
358
  8
0
  6
CONTINUOUS
 62
     8
 10
162.353552544
 20
444.5792318992
 30
0.0
  0
VERTEX
  5
359
  8
0
  6
CONTINUOUS
 62
     8
 10
161.2718586265
 20
446.0263954214
 30
0.0
  0
VERTEX
  5
35A
  8
0
  6
CONTINUOUS
 62
     8
 10
160.3314035027
 20
447.2247915081
 30
0.0
  0
VERTEX
  5
35B
  8
0
  6
CONTINUOUS
 62
     8
 10
159.4865356027
 20
448.2674481086
 30
0.0
  0
VERTEX
  5
35C
  8
0
  6
CONTINUOUS
 62
     8
 10
158.9127701162
 20
448.9614324383
 30
0.0
  0
VERTEX
  5
35D
  8
0
  6
CONTINUOUS
 62
     8
 10
158.4807593762
 20
449.4768785051
 30
0.0
  0
VERTEX
  5
35E
  8
0
  6
CONTINUOUS
 62
     8
 10
158.0096591651
 20
450.033503931
 30
0.0
  0
VERTEX
  5
35F
  8
0
  6
CONTINUOUS
 62
     8
 10
158.0522578596
 20
449.9833391718
 30
0.0
  0
SEQEND
  5
3F1
  8
0
  6
CONTINUOUS
 62
     8
  0
POLYLINE
  5
125
  8
0
  6
CONTINUOUS
 62
     8
 66
     1
 10
0.0
 20
0.0
 30
0.0
 70
   128
  0
VERTEX
  5
360
  8
0
  6
CONTINUOUS
 62
     8
 10
158.014341855
 20
420.0777815394
 30
0.0
  0
VERTEX
  5
361
  8
0
  6
CONTINUOUS
 62
     8
 10
158.0177728473
 20
420.0817079953
 30
0.0
  0
VERTEX
  5
362
  8
0
  6
CONTINUOUS
 62
     8
 10
158.1935543954
 20
420.2889794222
 30
0.0
  0
VERTEX
  5
363
  8
0
  6
CONTINUOUS
 62
     8
 10
158.5143689453
 20
420.6686945371
 30
0.0
  0
VERTEX
  5
364
  8
0
  6
CONTINUOUS
 62
     8
 10
158.9885834991
 20
421.2357731275
 30
0.0
  0
VERTEX
  5
365
  8
0
  6
CONTINUOUS
 62
     8
 10
159.3392562508
 20
421.6590704135
 30
0.0
  0
VERTEX
  5
366
  8
0
  6
CONTINUOUS
 62
     8
 10
159.7486880063
 20
422.1588367335
 30
0.0
  0
VERTEX
  5
367
  8
0
  6
CONTINUOUS
 62
     8
 10
160.2168843537
 20
422.7383764199
 30
0.0
  0
VERTEX
  5
368
  8
0
  6
CONTINUOUS
 62
     8
 10
160.6477328031
 20
423.2791879884
 30
0.0
  0
VERTEX
  5
369
  8
0
  6
CONTINUOUS
 62
     8
 10
161.137846896
 20
423.9060127846
 30
0.0
  0
VERTEX
  5
36A
  8
0
  6
CONTINUOUS
 62
     8
 10
161.6872284948
 20
424.6257314197
 30
0.0
  0
VERTEX
  5
36B
  8
0
  6
CONTINUOUS
 62
     8
 10
162.5551689803
 20
425.8060933761
 30
0.0
  0
VERTEX
  5
36C
  8
0
  6
CONTINUOUS
 62
     8
 10
163.7754558041
 20
427.6035273186
 30
0.0
  0
VERTEX
  5
36D
  8
0
  6
CONTINUOUS
 62
     8
 10
164.703978823
 20
429.1551852337
 30
0.0
  0
VERTEX
  5
36E
  8
0
  6
CONTINUOUS
 62
     8
 10
165.3465969875
 20
430.4131598882
 30
0.0
  0
VERTEX
  5
36F
  8
0
  6
CONTINUOUS
 62
     8
 10
165.8869652464
 20
431.7267195992
 30
0.0
  0
VERTEX
  5
370
  8
0
  6
CONTINUOUS
 62
     8
 10
166.4755396931
 20
434.4599054865
 30
0.0
  0
VERTEX
  5
371
  8
0
  6
CONTINUOUS
 62
     8
 10
166.4600890516
 20
435.8431504778
 30
0.0
  0
VERTEX
  5
372
  8
0
  6
CONTINUOUS
 62
     8
 10
166.2317511081
 20
437.2222827486
 30
0.0
  0
VERTEX
  5
373
  8
0
  6
CONTINUOUS
 62
     8
 10
165.8200292303
 20
438.5638342909
 30
0.0
  0
VERTEX
  5
374
  8
0
  6
CONTINUOUS
 62
     8
 10
165.2648166209
 20
439.8659797124
 30
0.0
  0
VERTEX
  5
375
  8
0
  6
CONTINUOUS
 62
     8
 10
164.8464516192
 20
440.6891720108
 30
0.0
  0
VERTEX
  5
376
  8
0
  6
CONTINUOUS
 62
     8
 10
164.390214385
 20
441.5008606128
 30
0.0
  0
VERTEX
  5
377
  8
0
  6
CONTINUOUS
 62
     8
 10
163.8875544458
 20
442.326064568
 30
0.0
  0
VERTEX
  5
378
  8
0
  6
CONTINUOUS
 62
     8
 10
163.4247448682
 20
443.0401431135
 30
0.0
  0
VERTEX
  5
379
  8
0
  6
CONTINUOUS
 62
     8
 10
162.772989498
 20
443.9927221946
 30
0.0
  0
VERTEX
  5
37A
  8
0
  6
CONTINUOUS
 62
     8
 10
162.353552544
 20
444.5792318992
 30
0.0
  0
SEQEND
  5
3F2
  8
0
  6
CONTINUOUS
 62
     8
  0
LINE
  5
126
  8
0
  6
CONTINUOUS
 62
     8
 10
103.1144444286
 20
446.5529354028
 30
0.0
 11
103.1144444286
 21
439.552936118
 31
0.0
  0
LINE
  5
127
  8
0
  6
CONTINUOUS
 62
     8
 10
103.1144444286
 20
446.5529354028
 30
0.0
 11
110.5144504844
 21
446.5529354028
 31
0.0
  0
LINE
  5
128
  8
0
  6
CONTINUOUS
 62
     8
 10
110.5144504844
 20
439.552936118
 30
0.0
 11
110.5144504844
 21
446.5529354028
 31
0.0
  0
LINE
  5
129
  8
0
  6
CONTINUOUS
 62
     8
 10
245.7144443332
 20
430.5529402308
 30
0.0
 11
245.7144443332
 21
423.5529372207
 31
0.0
  0
LINE
  5
12A
  8
0
  6
CONTINUOUS
 62
     8
 10
244.9144456922
 20
423.5529372207
 30
0.0
 11
245.7144443332
 21
423.5529372207
 31
0.0
  0
LINE
  5
12B
  8
0
  6
CONTINUOUS
 62
     8
 10
103.1144444286
 20
430.5529402308
 30
0.0
 11
103.1144444286
 21
423.5529372207
 31
0.0
  0
LINE
  5
12C
  8
0
  6
CONTINUOUS
 62
     8
 10
102.3144457876
 20
423.5529372207
 30
0.0
 11
103.1144444286
 21
423.5529372207
 31
0.0
  0
LINE
  5
12D
  8
0
  6
CONTINUOUS
 62
     8
 10
253.1144503891
 20
423.5529372207
 30
0.0
 11
253.1144503891
 21
430.5529402308
 31
0.0
  0
LINE
  5
12E
  8
0
  6
CONTINUOUS
 62
     8
 10
253.1144503891
 20
423.5529372207
 30
0.0
 11
245.7144443332
 21
423.5529372207
 31
0.0
  0
LINE
  5
12F
  8
0
  6
CONTINUOUS
 62
     8
 10
110.5144504844
 20
423.5529372207
 30
0.0
 11
110.5144504844
 21
430.5529402308
 31
0.0
  0
LINE
  5
130
  8
0
  6
CONTINUOUS
 62
     8
 10
110.5144504844
 20
423.5529372207
 30
0.0
 11
111.3144491254
 21
423.5529372207
 31
0.0
  0
LINE
  5
131
  8
0
  6
CONTINUOUS
 62
     8
 10
245.7144443332
 20
446.5529354028
 30
0.0
 11
245.7144443332
 21
439.552936118
 31
0.0
  0
LINE
  5
132
  8
0
  6
CONTINUOUS
 62
     8
 10
245.7144443332
 20
446.5529354028
 30
0.0
 11
244.9144456922
 21
446.5529354028
 31
0.0
  0
LINE
  5
133
  8
0
  6
CONTINUOUS
 62
     8
 10
253.1144503891
 20
423.5529372207
 30
0.0
 11
253.9144490301
 21
423.5529372207
 31
0.0
  0
LINE
  5
134
  8
0
  6
CONTINUOUS
 62
     8
 10
103.1144444286
 20
423.5529372207
 30
0.0
 11
110.5144504844
 21
423.5529372207
 31
0.0
  0
LINE
  5
135
  8
0
  6
CONTINUOUS
 62
     8
 10
103.1144444286
 20
446.5529354028
 30
0.0
 11
102.3144457876
 21
446.5529354028
 31
0.0
  0
LINE
  5
136
  8
0
  6
CONTINUOUS
 62
     8
 10
253.1144503891
 20
439.552936118
 30
0.0
 11
253.1144503891
 21
446.5529354028
 31
0.0
  0
LINE
  5
137
  8
0
  6
CONTINUOUS
 62
     8
 10
253.9144490301
 20
446.5529354028
 30
0.0
 11
253.1144503891
 21
446.5529354028
 31
0.0
  0
LINE
  5
138
  8
0
  6
CONTINUOUS
 62
     8
 10
111.3144491254
 20
446.5529354028
 30
0.0
 11
110.5144504844
 21
446.5529354028
 31
0.0
  0
LINE
  5
139
  8
0
  6
CONTINUOUS
 62
     8
 10
253.1144503891
 20
446.5529354028
 30
0.0
 11
245.7144443332
 21
446.5529354028
 31
0.0
  0
LINE
  5
13A
  8
0
  6
CONTINUOUS
 62
     8
 10
244.5144463717
 20
427.0529368631
 30
0.0
 11
244.5144463717
 21
443.0529357604
 31
0.0
  0
LINE
  5
13B
  8
0
  6
CONTINUOUS
 62
     8
 10
253.1144503891
 20
446.5529354028
 30
0.0
 11
253.1144503891
 21
469.2529396824
 31
0.0
  0
LINE
  5
13C
  8
0
  6
CONTINUOUS
 62
     8
 10
253.9144490301
 20
469.2529396824
 30
0.0
 11
253.1144503891
 21
469.2529396824
 31
0.0
  0
LINE
  5
13D
  8
0
  6
CONTINUOUS
 62
     8
 10
103.1144444286
 20
423.5529372207
 30
0.0
 11
103.1144444286
 21
400.8529366664
 31
0.0
  0
LINE
  5
13E
  8
0
  6
CONTINUOUS
 62
     8
 10
102.3144457876
 20
400.8529366664
 30
0.0
 11
103.1144444286
 21
400.8529366664
 31
0.0
  0
LINE
  5
13F
  8
0
  6
CONTINUOUS
 62
     8
 10
110.5144504844
 20
400.8529366664
 30
0.0
 11
111.3144491254
 21
400.8529366664
 31
0.0
  0
LINE
  5
140
  8
0
  6
CONTINUOUS
 62
     8
 10
110.5144504844
 20
400.8529366664
 30
0.0
 11
110.5144504844
 21
400.0529380254
 31
0.0
  0
LINE
  5
141
  8
0
  6
CONTINUOUS
 62
     8
 10
245.7144443332
 20
469.2529396824
 30
0.0
 11
244.9144456922
 21
469.2529396824
 31
0.0
  0
LINE
  5
142
  8
0
  6
CONTINUOUS
 62
     8
 10
245.7144443332
 20
469.2529396824
 30
0.0
 11
245.7144443332
 21
470.0529383234
 31
0.0
  0
LINE
  5
143
  8
0
  6
CONTINUOUS
 62
     8
 10
103.1144444286
 20
400.8529366664
 30
0.0
 11
110.5144504844
 21
400.8529366664
 31
0.0
  0
LINE
  5
144
  8
0
  6
CONTINUOUS
 62
     8
 10
103.1144444286
 20
400.8529366664
 30
0.0
 11
103.1144444286
 21
400.0529380254
 31
0.0
  0
LINE
  5
145
  8
0
  6
CONTINUOUS
 62
     8
 10
253.1144503891
 20
469.2529396824
 30
0.0
 11
253.1144503891
 21
470.0529383234
 31
0.0
  0
LINE
  5
146
  8
0
  6
CONTINUOUS
 62
     8
 10
253.1144503891
 20
400.8529366664
 30
0.0
 11
253.1144503891
 21
423.5529372207
 31
0.0
  0
LINE
  5
147
  8
0
  6
CONTINUOUS
 62
     8
 10
253.9144490301
 20
400.8529366664
 30
0.0
 11
253.1144503891
 21
400.8529366664
 31
0.0
  0
LINE
  5
148
  8
0
  6
CONTINUOUS
 62
     8
 10
244.9144456922
 20
400.8529366664
 30
0.0
 11
245.7144443332
 21
400.8529366664
 31
0.0
  0
LINE
  5
149
  8
0
  6
CONTINUOUS
 62
     8
 10
245.7144443332
 20
400.0529380254
 30
0.0
 11
245.7144443332
 21
400.8529366664
 31
0.0
  0
LINE
  5
14A
  8
0
  6
CONTINUOUS
 62
     8
 10
103.1144444286
 20
470.0529383234
 30
0.0
 11
103.1144444286
 21
469.2529396824
 31
0.0
  0
LINE
  5
14B
  8
0
  6
CONTINUOUS
 62
     8
 10
102.3144457876
 20
469.2529396824
 30
0.0
 11
103.1144444286
 21
469.2529396824
 31
0.0
  0
LINE
  5
14C
  8
0
  6
CONTINUOUS
 62
     8
 10
253.1144503891
 20
400.0529380254
 30
0.0
 11
253.1144503891
 21
400.8529366664
 31
0.0
  0
LINE
  5
14D
  8
0
  6
CONTINUOUS
 62
     8
 10
103.1144444286
 20
469.2529396824
 30
0.0
 11
103.1144444286
 21
446.5529354028
 31
0.0
  0
LINE
  5
14E
  8
0
  6
CONTINUOUS
 62
     8
 10
110.5144504844
 20
470.0529383234
 30
0.0
 11
110.5144504844
 21
469.2529396824
 31
0.0
  0
LINE
  5
14F
  8
0
  6
CONTINUOUS
 62
     8
 10
110.5144504844
 20
469.2529396824
 30
0.0
 11
103.1144444286
 21
469.2529396824
 31
0.0
  0
LINE
  5
150
  8
0
  6
CONTINUOUS
 62
     8
 10
110.5144504844
 20
400.8529366664
 30
0.0
 11
110.5144504844
 21
423.5529372207
 31
0.0
  0
LINE
  5
151
  8
0
  6
CONTINUOUS
 62
     8
 10
110.5144504844
 20
446.5529354028
 30
0.0
 11
110.5144504844
 21
469.2529396824
 31
0.0
  0
LINE
  5
152
  8
0
  6
CONTINUOUS
 62
     8
 10
111.3144491254
 20
469.2529396824
 30
0.0
 11
110.5144504844
 21
469.2529396824
 31
0.0
  0
LINE
  5
153
  8
0
  6
CONTINUOUS
 62
     8
 10
253.1144503891
 20
469.2529396824
 30
0.0
 11
245.7144443332
 21
469.2529396824
 31
0.0
  0
LINE
  5
154
  8
0
  6
CONTINUOUS
 62
     8
 10
245.7144443332
 20
423.5529372207
 30
0.0
 11
245.7144443332
 21
400.8529366664
 31
0.0
  0
LINE
  5
155
  8
0
  6
CONTINUOUS
 62
     8
 10
245.7144443332
 20
400.8529366664
 30
0.0
 11
253.1144503891
 21
400.8529366664
 31
0.0
  0
LINE
  5
156
  8
0
  6
CONTINUOUS
 62
     8
 10
245.7144443332
 20
469.2529396824
 30
0.0
 11
245.7144443332
 21
446.5529354028
 31
0.0
  0
LINE
  5
157
  8
0
  6
CONTINUOUS
 62
     7
 10
338.6701635172
 20
372.2529382184
 30
0.0
 11
338.6701635172
 21
363.6529381591
 31
0.0
  0
LINE
  5
158
  8
0
  6
CONTINUOUS
 62
     7
 10
395.670163547
 20
363.6529381591
 30
0.0
 11
395.670163547
 21
372.2529382184
 31
0.0
  0
ARC
  5
159
  8
0
  6
CONTINUOUS
 62
     7
 10
339.2701635321
 20
372.2529382042
 30
0.0
 40
0.6000000000000796
 50
90.0
 51
180.0
  0
ARC
  5
15A
  8
0
  6
CONTINUOUS
 62
     7
 10
395.0701635321
 20
372.2529382042
 30
0.0
 40
0.5999999999999659
 50
0.0
 51
90.0
  0
ARC
  5
15B
  8
0
  6
CONTINUOUS
 62
     7
 10
343.3701635321
 20
373.2529382042
 30
0.0
 40
0.4000000000000341
 50
270.0
 51
0.0
  0
ARC
  5
15C
  8
0
  6
CONTINUOUS
 62
     7
 10
390.9701635321
 20
373.2529382042
 30
0.0
 40
0.4000000000000341
 50
180.0
 51
270.0
  0
LINE
  5
15D
  8
0
  6
CONTINUOUS
 62
     7
 10
343.7701641669
 20
380.9529378749
 30
0.0
 11
343.7701641669
 21
373.2529383823
 31
0.0
  0
LINE
  5
15E
  8
0
  6
CONTINUOUS
 62
     7
 10
390.5701628973
 20
373.2529383823
 30
0.0
 11
390.5701628973
 21
380.9529378749
 31
0.0
  0
ARC
  5
15F
  8
0
  6
CONTINUOUS
 62
     7
 10
344.1701635321
 20
380.9529382042
 30
0.0
 40
0.4000000000000341
 50
90.0
 51
180.0
  0
ARC
  5
160
  8
0
  6
CONTINUOUS
 62
     7
 10
390.1701635321
 20
380.9529382042
 30
0.0
 40
0.4000000000000341
 50
0.0
 51
90.0
  0
LINE
  5
161
  8
0
  6
CONTINUOUS
 62
     7
 10
349.170164307
 20
405.1327103488
 30
0.0
 11
349.170164307
 21
381.7529383785
 31
0.0
  0
LINE
  5
162
  8
0
  6
CONTINUOUS
 62
     7
 10
349.170164307
 20
479.4529409818
 30
0.0
 11
349.170164307
 21
439.552936118
 31
0.0
  0
LINE
  5
163
  8
0
  6
CONTINUOUS
 62
     7
 10
349.170164307
 20
430.5529402308
 30
0.0
 11
349.170164307
 21
420.5793881528
 31
0.0
  0
LINE
  5
164
  8
0
  6
CONTINUOUS
 62
     7
 10
385.1701627573
 20
381.7529383785
 30
0.0
 11
385.1701627573
 21
430.5529402308
 31
0.0
  0
LINE
  5
165
  8
0
  6
CONTINUOUS
 62
     7
 10
385.1701627573
 20
439.552936118
 30
0.0
 11
385.1701627573
 21
479.4529409818
 31
0.0
  0
ARC
  5
166
  8
0
  6
CONTINUOUS
 62
     7
 10
384.5701635321
 20
479.4529382042
 30
0.0
 40
0.6000000000000227
 50
0.0
 51
90.0
  0
ARC
  5
167
  8
0
  6
CONTINUOUS
 62
     7
 10
349.7701635321
 20
479.4529382042
 30
0.0
 40
0.6000000000000227
 50
90.0
 51
180.0
  0
ARC
  5
168
  8
0
  6
CONTINUOUS
 62
     7
 10
384.7701635321
 20
381.7529382042
 30
0.0
 40
0.3999999999999204
 50
270.0
 51
0.0
  0
ARC
  5
169
  8
0
  6
CONTINUOUS
 62
     7
 10
349.5701635321
 20
381.7529382042
 30
0.0
 40
0.3999999999999773
 50
180.0
 51
270.0
  0
ARC
  5
16A
  8
0
  6
CONTINUOUS
 62
     7
 10
449.6495176803
 20
579.2776180189
 30
0.0
 40
72.47935414819409
 50
7.0
 51
180.0
  0
ARC
  5
16B
  8
0
  6
CONTINUOUS
 62
     7
 10
449.6495176803
 20
579.2776180189
 30
0.0
 40
92.47935414819403
 50
7.0
 51
180.0
  0
LINE
  5
16C
  8
0
  6
CONTINUOUS
 62
     7
 10
545.0468744238
 20
561.1686514429
 30
0.0
 11
541.4395417174
 21
590.5480192713
 31
0.0
  0
LINE
  5
16D
  8
0
  6
CONTINUOUS
 62
     7
 10
521.5886171063
 20
588.1106363348
 30
0.0
 11
525.1959498127
 21
558.7312685064
 31
0.0
  0
LINE
  5
16E
  8
0
  6
CONTINUOUS
 62
     7
 10
377.1701633086
 20
480.5529372505
 30
0.0
 11
377.1701633086
 21
579.2776154093
 31
0.0
  0
LINE
  5
16F
  8
0
  6
CONTINUOUS
 62
     7
 10
357.1701637556
 20
579.2776154093
 30
0.0
 11
357.1701637556
 21
480.5529372505
 31
0.0
  0
ARC
  5
170
  8
0
  6
CONTINUOUS
 62
     7
 10
544.6498588505
 20
561.1199023615
 30
0.0
 40
0.4000000000000413
 50
279.0004018954
 51
7.0
  0
ARC
  5
171
  8
0
  6
CONTINUOUS
 62
     7
 10
525.592972739
 20
558.7800109682
 30
0.0
 40
0.400000000000079
 50
187.0
 51
274.9995981046
  0
LINE
  5
172
  8
0
  6
CONTINUOUS
 62
     7
 10
357.470163246
 20
480.5529372505
 30
0.0
 11
357.470163246
 21
480.0529362372
 31
0.0
  0
LINE
  5
173
  8
0
  6
CONTINUOUS
 62
     7
 10
376.8701638182
 20
480.0529362372
 30
0.0
 11
376.8701638182
 21
480.5529372505
 31
0.0
  0
LINE
  5
174
  8
0
  6
CONTINUOUS
 62
     7
 10
344.0201199701
 20
424.352939587
 30
0.0
 11
349.170164307
 21
405.1327103488
 31
0.0
  0
LINE
  5
175
  8
0
  6
CONTINUOUS
 62
     7
 10
349.172211354
 20
420.5798798911
 30
0.0
 11
348.1612234463
 21
424.352939587
 31
0.0
  0
LINE
  5
176
  8
0
  6
CONTINUOUS
 62
     7
 10
348.7906708469
 20
424.5529392473
 30
0.0
 11
348.7906708469
 21
429.2529368512
 31
0.0
  0
ARC
  5
177
  8
0
  6
CONTINUOUS
 62
     7
 10
348.3906716078
 20
429.2529382042
 30
0.0
 40
0.4000000000000341
 50
0.0
 51
90.0
  0
ARC
  5
178
  8
0
  6
CONTINUOUS
 62
     7
 10
348.5906716078
 20
424.5529382042
 30
0.0
 40
0.2000000000000455
 50
270.0
 51
0.0
  0
LINE
  5
179
  8
0
  6
CONTINUOUS
 62
     7
 10
332.1701633831
 20
431.3529388718
 30
0.0
 11
332.1701633831
 21
438.752937477
 31
0.0
  0
ARC
  5
17A
  8
0
  6
CONTINUOUS
 62
     7
 10
332.9701635321
 20
438.7529382042
 30
0.0
 40
0.8000000000000682
 50
90.0
 51
180.0
  0
LINE
  5
17B
  8
0
  6
CONTINUOUS
 62
     7
 10
355.6701635098
 20
430.5529402308
 30
0.0
 11
332.9701620241
 21
430.5529402308
 31
0.0
  0
LINE
  5
17C
  8
0
  6
CONTINUOUS
 62
     7
 10
332.9701620241
 20
439.552936118
 30
0.0
 11
355.6701635098
 21
439.552936118
 31
0.0
  0
ARC
  5
17D
  8
0
  6
CONTINUOUS
 62
     7
 10
332.9701635321
 20
431.3529382042
 30
0.0
 40
0.8000000000000682
 50
180.0
 51
270.0
  0
ARC
  5
17E
  8
0
  6
CONTINUOUS
 62
     7
 10
355.6701635321
 20
446.5529382042
 30
0.0
 40
7.0
 50
270.0
 51
0.0
  0
ARC
  5
17F
  8
0
  6
CONTINUOUS
 62
     7
 10
355.6701635321
 20
423.5529382042
 30
0.0
 40
7.0
 50
0.0
 51
90.0
  0
LINE
  5
180
  8
0
  6
CONTINUOUS
 62
     7
 10
362.6701637258
 20
400.8529366664
 30
0.0
 11
362.6701637258
 21
423.5529372207
 31
0.0
  0
ARC
  5
181
  8
0
  6
CONTINUOUS
 62
     7
 10
363.4701635321
 20
400.8529382042
 30
0.0
 40
0.8000000000000114
 50
180.0
 51
270.0
  0
LINE
  5
182
  8
0
  6
CONTINUOUS
 62
     7
 10
363.470163531
 20
470.0529383234
 30
0.0
 11
370.8701635332
 21
470.0529383234
 31
0.0
  0
LINE
  5
183
  8
0
  6
CONTINUOUS
 62
     7
 10
370.8701635332
 20
400.0529380254
 30
0.0
 11
363.470163531
 21
400.0529380254
 31
0.0
  0
ARC
  5
184
  8
0
  6
CONTINUOUS
 62
     7
 10
363.4701635321
 20
469.2529382042
 30
0.0
 40
0.8000000000000114
 50
90.0
 51
180.0
  0
LINE
  5
185
  8
0
  6
CONTINUOUS
 62
     7
 10
362.6701637258
 20
446.5529354028
 30
0.0
 11
362.6701637258
 21
469.2529396824
 31
0.0
  0
ARC
  5
186
  8
0
  6
CONTINUOUS
 62
     7
 10
370.8701635321
 20
400.8529382042
 30
0.0
 40
0.8000000000000114
 50
270.0
 51
0.0
  0
LINE
  5
187
  8
0
  6
CONTINUOUS
 62
     7
 10
371.6701633384
 20
469.2529396824
 30
0.0
 11
371.6701633384
 21
446.5529354028
 31
0.0
  0
ARC
  5
188
  8
0
  6
CONTINUOUS
 62
     7
 10
378.6701635321
 20
446.5529382042
 30
0.0
 40
7.0
 50
180.0
 51
270.0
  0
LINE
  5
189
  8
0
  6
CONTINUOUS
 62
     7
 10
371.6701633384
 20
423.5529372207
 30
0.0
 11
371.6701633384
 21
400.8529366664
 31
0.0
  0
ARC
  5
18A
  8
0
  6
CONTINUOUS
 62
     7
 10
370.8701635321
 20
469.2529382042
 30
0.0
 40
0.8000000000000114
 50
0.0
 51
90.0
  0
ARC
  5
18B
  8
0
  6
CONTINUOUS
 62
     7
 10
378.6701635321
 20
423.5529382042
 30
0.0
 40
7.0
 50
90.0
 51
180.0
  0
LINE
  5
18C
  8
0
  6
CONTINUOUS
 62
     7
 10
378.6701635545
 20
439.552936118
 30
0.0
 11
401.3701650401
 21
439.552936118
 31
0.0
  0
LINE
  5
18D
  8
0
  6
CONTINUOUS
 62
     7
 10
401.3701650401
 20
430.5529402308
 30
0.0
 11
378.6701635545
 21
430.5529402308
 31
0.0
  0
ARC
  5
18E
  8
0
  6
CONTINUOUS
 62
     7
 10
401.3701635321
 20
431.3529382042
 30
0.0
 40
0.7999999999999545
 50
270.0
 51
0.0
  0
LINE
  5
18F
  8
0
  6
CONTINUOUS
 62
     7
 10
402.1701636811
 20
438.752937477
 30
0.0
 11
402.1701636811
 21
431.3529388718
 31
0.0
  0
ARC
  5
190
  8
0
  6
CONTINUOUS
 62
     7
 10
401.3701635321
 20
438.7529382042
 30
0.0
 40
0.7999999999999545
 50
0.0
 51
90.0
  0
ARC
  5
191
  8
0
  6
CONTINUOUS
 62
     7
 10
367.1701635321
 20
435.0529382042
 30
0.0
 40
15.00000000000004
 50
107.4576031237
 51
162.5423968763
  0
ARC
  5
192
  8
0
  6
CONTINUOUS
 62
     7
 10
367.1701635321
 20
435.0529382042
 30
0.0
 40
15.00000000000002
 50
17.4576031237
 51
72.5423968763
  0
ARC
  5
193
  8
0
  6
CONTINUOUS
 62
     7
 10
367.1701635321
 20
435.0529382042
 30
0.0
 40
14.99999999999998
 50
287.4576031237
 51
342.5423968763
  0
ARC
  5
194
  8
0
  6
CONTINUOUS
 62
     7
 10
367.1701635321
 20
435.0529382042
 30
0.0
 40
14.99999999999998
 50
197.4576031237
 51
252.5423968763
  0
LINE
  5
195
  8
0
  6
CONTINUOUS
 62
     7
 10
367.1701635321
 20
363.6529381591
 30
0.0
 11
395.670163547
 21
363.6529381591
 31
0.0
  0
LINE
  5
196
  8
0
  6
CONTINUOUS
 62
     7
 10
338.6701635172
 20
363.6529381591
 30
0.0
 11
367.1701635321
 21
363.6529381591
 31
0.0
  0
LINE
  5
197
  8
0
  6
CONTINUOUS
 62
     7
 10
367.1701635321
 20
372.8529381304
 30
0.0
 11
395.0701627036
 21
372.8529381304
 31
0.0
  0
LINE
  5
198
  8
0
  6
CONTINUOUS
 62
     7
 10
339.2701643606
 20
372.8529381304
 30
0.0
 11
367.1701635321
 21
372.8529381304
 31
0.0
  0
LINE
  5
199
  8
0
  6
CONTINUOUS
 62
     7
 10
367.1701635321
 20
381.3529381267
 30
0.0
 11
390.1701635768
 21
381.3529381267
 31
0.0
  0
LINE
  5
19A
  8
0
  6
CONTINUOUS
 62
     7
 10
344.1701634874
 20
381.3529381267
 30
0.0
 11
367.1701635321
 21
381.3529381267
 31
0.0
  0
ARC
  5
19B
  8
0
  6
CONTINUOUS
 62
     7
 10
85.2019767539
 20
412.8596461249
 30
0.0
 40
264.0812556327166
 50
358.3233039282
 51
1.6751346289
  0
LINE
  5
19C
  8
0
  6
CONTINUOUS
 62
     7
 10
349.7701632877
 20
480.0529362372
 30
0.0
 11
384.5701637765
 21
480.0529362372
 31
0.0
  0
LINE
  5
19D
  8
0
  6
CONTINUOUS
 62
     7
 10
367.1701635321
 20
480.5529372505
 30
0.0
 11
377.1701633086
 21
480.5529372505
 31
0.0
  0
LINE
  5
19E
  8
0
  6
CONTINUOUS
 62
     7
 10
357.1701637556
 20
480.5529372505
 30
0.0
 11
367.1701635321
 21
480.5529372505
 31
0.0
  0
POLYLINE
  5
19F
  8
0
  6
CONTINUOUS
 62
     7
 66
     1
 10
0.0
 20
0.0
 30
0.0
 70
   128
  0
VERTEX
  5
37B
  8
0
  6
CONTINUOUS
 62
     7
 10
525.6278301676
 20
558.3815382532
 30
0.0
  0
VERTEX
  5
37C
  8
0
  6
CONTINUOUS
 62
     7
 10
525.8111889561
 20
558.4040390066
 30
0.0
  0
VERTEX
  5
37D
  8
0
  6
CONTINUOUS
 62
     7
 10
526.3542021712
 20
558.470721703
 30
0.0
  0
VERTEX
  5
37E
  8
0
  6
CONTINUOUS
 62
     7
 10
527.235993286
 20
558.5789935402
 30
0.0
  0
VERTEX
  5
37F
  8
0
  6
CONTINUOUS
 62
     7
 10
528.4227068623
 20
558.7246970944
 30
0.0
  0
VERTEX
  5
380
  8
0
  6
CONTINUOUS
 62
     7
 10
529.8687155446
 20
558.90224443
 30
0.0
  0
VERTEX
  5
381
  8
0
  6
CONTINUOUS
 62
     7
 10
531.5184529027
 20
559.1048108152
 30
0.0
  0
VERTEX
  5
382
  8
0
  6
CONTINUOUS
 62
     7
 10
533.3085293969
 20
559.3246029429
 30
0.0
  0
VERTEX
  5
383
  8
0
  6
CONTINUOUS
 62
     7
 10
535.1701314648
 20
559.5531867556
 30
0.0
  0
VERTEX
  5
384
  8
0
  6
CONTINUOUS
 62
     7
 10
537.0317484339
 20
559.7817556671
 30
0.0
  0
VERTEX
  5
385
  8
0
  6
CONTINUOUS
 62
     7
 10
538.821810027
 20
560.0015477947
 30
0.0
  0
VERTEX
  5
386
  8
0
  6
CONTINUOUS
 62
     7
 10
540.4715473851
 20
560.20411418
 30
0.0
  0
VERTEX
  5
387
  8
0
  6
CONTINUOUS
 62
     7
 10
541.9175560673
 20
560.3816615156
 30
0.0
  0
VERTEX
  5
388
  8
0
  6
CONTINUOUS
 62
     7
 10
543.1042696436
 20
560.5273650698
 30
0.0
  0
VERTEX
  5
389
  8
0
  6
CONTINUOUS
 62
     7
 10
543.9860756596
 20
560.635636907
 30
0.0
  0
VERTEX
  5
38A
  8
0
  6
CONTINUOUS
 62
     7
 10
544.5290888747
 20
560.7023196034
 30
0.0
  0
VERTEX
  5
38B
  8
0
  6
CONTINUOUS
 62
     7
 10
544.712432762
 20
560.7248203568
 30
0.0
  0
SEQEND
  5
3F3
  8
0
  6
CONTINUOUS
 62
     7
  0
LINE
  5
1A0
  8
0
  6
CONTINUOUS
 62
     7
 10
325.2120177349
 20
424.5529392473
 30
0.0
 11
325.2120177349
 21
429.2529368512
 31
0.0
  0
ARC
  5
1A1
  8
0
  6
CONTINUOUS
 62
     7
 10
325.6120193218
 20
429.2529382042
 30
0.0
 40
0.4000000000000341
 50
90.0
 51
180.0
  0
LINE
  5
1A2
  8
0
  6
CONTINUOUS
 62
     7
 10
325.6120207807
 20
424.352939587
 30
0.0
 11
325.4120211204
 21
424.352939587
 31
0.0
  0
ARC
  5
1A3
  8
0
  6
CONTINUOUS
 62
     7
 10
325.4120193218
 20
424.5529382042
 30
0.0
 40
0.2000000000000455
 50
180.0
 51
270.0
  0
LINE
  5
1A4
  8
0
  6
CONTINUOUS
 62
     7
 10
348.3906715264
 20
424.352939587
 30
0.0
 11
325.6120207807
 21
424.352939587
 31
0.0
  0
LINE
  5
1A5
  8
0
  6
CONTINUOUS
 62
     7
 10
325.6120207807
 20
429.652939897
 30
0.0
 11
348.3906715264
 21
429.652939897
 31
0.0
  0
LINE
  5
1A6
  8
0
  6
CONTINUOUS
 62
     7
 10
348.5906711867
 20
424.352939587
 30
0.0
 11
348.3906715264
 21
424.352939587
 31
0.0
  0
LINE
  5
1A7
  8
0
  6
CONTINUOUS
 62
     8
 10
332.1701633831
 20
438.752937477
 30
0.0
 11
332.9701620241
 21
438.752937477
 31
0.0
  0
LINE
  5
1A8
  8
0
  6
CONTINUOUS
 62
     8
 10
332.9701620241
 20
438.752937477
 30
0.0
 11
332.9701620241
 21
431.3529388718
 31
0.0
  0
LINE
  5
1A9
  8
0
  6
CONTINUOUS
 62
     8
 10
332.1701633831
 20
431.3529388718
 30
0.0
 11
332.9701620241
 21
431.3529388718
 31
0.0
  0
LINE
  5
1AA
  8
0
  6
CONTINUOUS
 62
     8
 10
370.8701635332
 20
400.8529366664
 30
0.0
 11
370.8701635332
 21
423.5529372207
 31
0.0
  0
LINE
  5
1AB
  8
0
  6
CONTINUOUS
 62
     8
 10
363.470163531
 20
400.8529366664
 30
0.0
 11
370.8701635332
 21
400.8529366664
 31
0.0
  0
LINE
  5
1AC
  8
0
  6
CONTINUOUS
 62
     8
 10
363.470163531
 20
423.5529372207
 30
0.0
 11
363.470163531
 21
400.8529366664
 31
0.0
  0
ARC
  5
1AD
  8
0
  6
CONTINUOUS
 62
     8
 10
355.6701635321
 20
423.5529382042
 30
0.0
 40
7.800000000000011
 50
0.0
 51
90.0
  0
LINE
  5
1AE
  8
0
  6
CONTINUOUS
 62
     8
 10
332.9701620241
 20
431.3529388718
 30
0.0
 11
355.6701635098
 21
431.3529388718
 31
0.0
  0
LINE
  5
1AF
  8
0
  6
CONTINUOUS
 62
     8
 10
355.6701635098
 20
438.752937477
 30
0.0
 11
332.9701620241
 21
438.752937477
 31
0.0
  0
ARC
  5
1B0
  8
0
  6
CONTINUOUS
 62
     8
 10
355.6701635321
 20
446.5529382042
 30
0.0
 40
7.800000000000011
 50
270.0
 51
0.0
  0
LINE
  5
1B1
  8
0
  6
CONTINUOUS
 62
     8
 10
363.470163531
 20
469.2529396824
 30
0.0
 11
363.470163531
 21
446.5529354028
 31
0.0
  0
LINE
  5
1B2
  8
0
  6
CONTINUOUS
 62
     8
 10
370.8701635332
 20
469.2529396824
 30
0.0
 11
363.470163531
 21
469.2529396824
 31
0.0
  0
LINE
  5
1B3
  8
0
  6
CONTINUOUS
 62
     8
 10
370.8701635332
 20
446.5529354028
 30
0.0
 11
370.8701635332
 21
469.2529396824
 31
0.0
  0
ARC
  5
1B4
  8
0
  6
CONTINUOUS
 62
     8
 10
378.6701635321
 20
446.5529382042
 30
0.0
 40
7.800000000000011
 50
180.0
 51
270.0
  0
LINE
  5
1B5
  8
0
  6
CONTINUOUS
 62
     8
 10
401.3701650401
 20
438.752937477
 30
0.0
 11
378.6701635545
 21
438.752937477
 31
0.0
  0
LINE
  5
1B6
  8
0
  6
CONTINUOUS
 62
     8
 10
401.3701650401
 20
431.3529388718
 30
0.0
 11
401.3701650401
 21
438.752937477
 31
0.0
  0
LINE
  5
1B7
  8
0
  6
CONTINUOUS
 62
     8
 10
378.6701635545
 20
431.3529388718
 30
0.0
 11
401.3701650401
 21
431.3529388718
 31
0.0
  0
ARC
  5
1B8
  8
0
  6
CONTINUOUS
 62
     8
 10
378.6701635321
 20
423.5529382042
 30
0.0
 40
7.800000000000011
 50
90.0
 51
180.0
  0
LINE
  5
1B9
  8
0
  6
CONTINUOUS
 62
     8
 10
332.9701620241
 20
439.552936118
 30
0.0
 11
332.9701620241
 21
438.752937477
 31
0.0
  0
LINE
  5
1BA
  8
0
  6
CONTINUOUS
 62
     8
 10
355.6701635098
 20
431.3529388718
 30
0.0
 11
355.6701635098
 21
430.5529402308
 31
0.0
  0
LINE
  5
1BB
  8
0
  6
CONTINUOUS
 62
     8
 10
332.9701620241
 20
430.5529402308
 30
0.0
 11
332.9701620241
 21
431.3529388718
 31
0.0
  0
LINE
  5
1BC
  8
0
  6
CONTINUOUS
 62
     8
 10
355.6701635098
 20
439.552936118
 30
0.0
 11
355.6701635098
 21
438.752937477
 31
0.0
  0
LINE
  5
1BD
  8
0
  6
CONTINUOUS
 62
     8
 10
362.6701637258
 20
446.5529354028
 30
0.0
 11
363.470163531
 21
446.5529354028
 31
0.0
  0
LINE
  5
1BE
  8
0
  6
CONTINUOUS
 62
     8
 10
363.470163531
 20
423.5529372207
 30
0.0
 11
362.6701637258
 21
423.5529372207
 31
0.0
  0
LINE
  5
1BF
  8
0
  6
CONTINUOUS
 62
     8
 10
363.470163531
 20
400.8529366664
 30
0.0
 11
362.6701637258
 21
400.8529366664
 31
0.0
  0
LINE
  5
1C0
  8
0
  6
CONTINUOUS
 62
     8
 10
363.470163531
 20
400.8529366664
 30
0.0
 11
363.470163531
 21
400.0529380254
 31
0.0
  0
LINE
  5
1C1
  8
0
  6
CONTINUOUS
 62
     8
 10
370.8701635332
 20
470.0529383234
 30
0.0
 11
370.8701635332
 21
469.2529396824
 31
0.0
  0
LINE
  5
1C2
  8
0
  6
CONTINUOUS
 62
     8
 10
363.470163531
 20
470.0529383234
 30
0.0
 11
363.470163531
 21
469.2529396824
 31
0.0
  0
LINE
  5
1C3
  8
0
  6
CONTINUOUS
 62
     8
 10
370.8701635332
 20
400.8529366664
 30
0.0
 11
370.8701635332
 21
400.0529380254
 31
0.0
  0
LINE
  5
1C4
  8
0
  6
CONTINUOUS
 62
     8
 10
362.6701637258
 20
469.2529396824
 30
0.0
 11
363.470163531
 21
469.2529396824
 31
0.0
  0
LINE
  5
1C5
  8
0
  6
CONTINUOUS
 62
     8
 10
370.8701635332
 20
400.8529366664
 30
0.0
 11
371.6701633384
 21
400.8529366664
 31
0.0
  0
LINE
  5
1C6
  8
0
  6
CONTINUOUS
 62
     8
 10
371.6701633384
 20
446.5529354028
 30
0.0
 11
370.8701635332
 21
446.5529354028
 31
0.0
  0
LINE
  5
1C7
  8
0
  6
CONTINUOUS
 62
     8
 10
370.8701635332
 20
469.2529396824
 30
0.0
 11
371.6701633384
 21
469.2529396824
 31
0.0
  0
LINE
  5
1C8
  8
0
  6
CONTINUOUS
 62
     8
 10
378.6701635545
 20
439.552936118
 30
0.0
 11
378.6701635545
 21
438.752937477
 31
0.0
  0
LINE
  5
1C9
  8
0
  6
CONTINUOUS
 62
     8
 10
370.8701635332
 20
423.5529372207
 30
0.0
 11
371.6701633384
 21
423.5529372207
 31
0.0
  0
LINE
  5
1CA
  8
0
  6
CONTINUOUS
 62
     8
 10
378.6701635545
 20
431.3529388718
 30
0.0
 11
378.6701635545
 21
430.5529402308
 31
0.0
  0
LINE
  5
1CB
  8
0
  6
CONTINUOUS
 62
     8
 10
401.3701650401
 20
439.552936118
 30
0.0
 11
401.3701650401
 21
438.752937477
 31
0.0
  0
LINE
  5
1CC
  8
0
  6
CONTINUOUS
 62
     8
 10
401.3701650401
 20
431.3529388718
 30
0.0
 11
401.3701650401
 21
430.5529402308
 31
0.0
  0
LINE
  5
1CD
  8
0
  6
CONTINUOUS
 62
     8
 10
401.3701650401
 20
431.3529388718
 30
0.0
 11
402.1701636811
 21
431.3529388718
 31
0.0
  0
LINE
  5
1CE
  8
0
  6
CONTINUOUS
 62
     8
 10
401.3701650401
 20
438.752937477
 30
0.0
 11
402.1701636811
 21
438.752937477
 31
0.0
  0
ARC
  5
1CF
  8
0
  6
CONTINUOUS
 62
     8
 10
367.1701635321
 20
435.0529382042
 30
0.0
 40
14.30000000000003
 50
198.3418175796
 51
251.6581824204
  0
ARC
  5
1D0
  8
0
  6
CONTINUOUS
 62
     8
 10
367.1701635321
 20
435.0529382042
 30
0.0
 40
14.29999999999998
 50
288.3418175796
 51
341.6581824204
  0
ARC
  5
1D1
  8
0
  6
CONTINUOUS
 62
     8
 10
367.1701635321
 20
435.0529382042
 30
0.0
 40
14.30000000000001
 50
18.3418175796
 51
71.6581824204
  0
ARC
  5
1D2
  8
0
  6
CONTINUOUS
 62
     8
 10
367.1701635321
 20
435.0529382042
 30
0.0
 40
14.30000000000005
 50
108.3418175796
 51
161.6581824204
  0
ARC
  5
1D3
  8
0
  6
CONTINUOUS
 62
     8
 10
366.8625817783
 20
436.3588924532
 30
0.0
 40
15.89090406720376
 50
11.5953391425
 51
39.6879926452
  0
ARC
  5
1D4
  8
0
  6
CONTINUOUS
 62
     8
 10
367.3382162055
 20
433.4563161706
 30
0.0
 40
15.37045586577415
 50
286.3698109432
 51
349.1117952242
  0
ARC
  5
1D5
  8
0
  6
CONTINUOUS
 62
     8
 10
367.4619246378
 20
433.7641661654
 30
0.0
 40
15.88068481459391
 50
191.6661966051
 51
252.4381495314
  0
ARC
  5
1D6
  8
0
  6
CONTINUOUS
 62
     8
 10
367.0024197895
 20
436.6497004745
 30
0.0
 40
15.37045836777391
 50
106.3710084497
 51
169.1123295815
  0
ARC
  5
1D7
  8
0
  6
CONTINUOUS
 62
     8
 10
367.354582943
 20
437.0188757896
 30
0.0
 40
15.09206592048243
 50
38.9526669873
 51
73.3843405623
  0
POLYLINE
  5
1D8
  8
0
  6
CONTINUOUS
 62
     8
 66
     1
 10
0.0
 20
0.0
 30
0.0
 70
   128
  0
VERTEX
  5
38C
  8
0
  6
CONTINUOUS
 62
     8
 10
525.1959498127
 20
558.7312685064
 30
0.0
  0
VERTEX
  5
38D
  8
0
  6
CONTINUOUS
 62
     8
 10
525.2408917149
 20
558.7367819361
 30
0.0
  0
VERTEX
  5
38E
  8
0
  6
CONTINUOUS
 62
     8
 10
525.5979980429
 20
558.7806360535
 30
0.0
  0
VERTEX
  5
38F
  8
0
  6
CONTINUOUS
 62
     8
 10
526.2993211945
 20
558.8667349629
 30
0.0
  0
VERTEX
  5
390
  8
0
  6
CONTINUOUS
 62
     8
 10
527.319469591
 20
558.9919941239
 30
0.0
  0
VERTEX
  5
391
  8
0
  6
CONTINUOUS
 62
     8
 10
528.6216224631
 20
559.1518835835
 30
0.0
  0
VERTEX
  5
392
  8
0
  6
CONTINUOUS
 62
     8
 10
530.1586921414
 20
559.34060679
 30
0.0
  0
VERTEX
  5
393
  8
0
  6
CONTINUOUS
 62
     8
 10
531.8751121958
 20
559.5513539127
 30
0.0
  0
VERTEX
  5
394
  8
0
  6
CONTINUOUS
 62
     8
 10
533.7088788947
 20
559.7765253595
 30
0.0
  0
VERTEX
  5
395
  8
0
  6
CONTINUOUS
 62
     8
 10
535.5936820706
 20
560.0079403929
 30
0.0
  0
VERTEX
  5
396
  8
0
  6
CONTINUOUS
 62
     8
 10
537.4614383181
 20
560.2372692637
 30
0.0
  0
VERTEX
  5
397
  8
0
  6
CONTINUOUS
 62
     8
 10
539.2446006735
 20
560.4562269262
 30
0.0
  0
VERTEX
  5
398
  8
0
  6
CONTINUOUS
 62
     8
 10
540.878751417
 20
560.6568710617
 30
0.0
  0
VERTEX
  5
399
  8
0
  6
CONTINUOUS
 62
     8
 10
542.3048074444
 20
560.8319597057
 30
0.0
  0
VERTEX
  5
39A
  8
0
  6
CONTINUOUS
 62
     8
 10
543.4712405404
 20
560.9751896671
 30
0.0
  0
VERTEX
  5
39B
  8
0
  6
CONTINUOUS
 62
     8
 10
544.3358953198
 20
561.0813455395
 30
0.0
  0
VERTEX
  5
39C
  8
0
  6
CONTINUOUS
 62
     8
 10
544.8675091465
 20
561.1466275267
 30
0.0
  0
VERTEX
  5
39D
  8
0
  6
CONTINUOUS
 62
     8
 10
545.0468744238
 20
561.1686514429
 30
0.0
  0
VERTEX
  5
39E
  8
0
  6
CONTINUOUS
 62
     8
 10
545.0468744238
 20
561.1686514429
 30
0.0
  0
SEQEND
  5
3F4
  8
0
  6
CONTINUOUS
 62
     8
  0
LINE
  5
1D9
  8
0
  6
CONTINUOUS
 62
     8
 10
325.2120177349
 20
429.2529368512
 30
0.0
 11
325.6120207807
 21
429.2529368512
 31
0.0
  0
LINE
  5
1DA
  8
0
  6
CONTINUOUS
 62
     8
 10
325.6120207807
 20
429.2529368512
 30
0.0
 11
325.6120207807
 21
424.5529392473
 31
0.0
  0
LINE
  5
1DB
  8
0
  6
CONTINUOUS
 62
     8
 10
325.2120177349
 20
424.5529392473
 30
0.0
 11
325.6120207807
 21
424.5529392473
 31
0.0
  0
LINE
  5
1DC
  8
0
  6
CONTINUOUS
 62
     8
 10
325.6120207807
 20
429.652939897
 30
0.0
 11
325.6120207807
 21
429.2529368512
 31
0.0
  0
LINE
  5
1DD
  8
0
  6
CONTINUOUS
 62
     8
 10
325.6120207807
 20
424.352939587
 30
0.0
 11
325.6120207807
 21
424.5529392473
 31
0.0
  0
LINE
  5
1DE
  8
0
  6
CONTINUOUS
 62
     8
 10
325.6120207807
 20
424.5529392473
 30
0.0
 11
348.3906715264
 21
424.5529392473
 31
0.0
  0
LINE
  5
1DF
  8
0
  6
CONTINUOUS
 62
     8
 10
348.3906715264
 20
424.352939587
 30
0.0
 11
348.3906715264
 21
424.5529392473
 31
0.0
  0
LINE
  5
1E0
  8
0
  6
CONTINUOUS
 62
     8
 10
348.3906715264
 20
429.2529368512
 30
0.0
 11
348.3906715264
 21
429.652939897
 31
0.0
  0
LINE
  5
1E1
  8
0
  6
CONTINUOUS
 62
     8
 10
348.3906715264
 20
429.2529368512
 30
0.0
 11
325.6120207807
 21
429.2529368512
 31
0.0
  0
LINE
  5
1E2
  8
0
  6
CONTINUOUS
 62
     8
 10
348.3906715264
 20
424.5529392473
 30
0.0
 11
348.3906715264
 21
429.2529368512
 31
0.0
  0
LINE
  5
1E3
  8
0
  6
CONTINUOUS
 62
     8
 10
348.3906715264
 20
429.2529368512
 30
0.0
 11
348.7906708469
 21
429.2529368512
 31
0.0
  0
LINE
  5
1E4
  8
0
  6
CONTINUOUS
 62
     8
 10
348.3906715264
 20
424.5529392473
 30
0.0
 11
348.7906708469
 21
424.5529392473
 31
0.0
  0
LINE
  5
1E5
  8
0
  6
CONTINUOUS
 62
     7
 10
168.1144476323
 20
273.7311852852
 30
0.0
 11
168.1144476323
 21
109.3872619549
 31
0.0
  0
LINE
  5
1E6
  8
0
  6
CONTINUOUS
 62
     7
 10
188.1144471853
 20
109.3872619549
 30
0.0
 11
188.1144471853
 21
273.7311852852
 31
0.0
  0
LINE
  5
1E7
  8
0
  6
CONTINUOUS
 62
     7
 10
188.1144471853
 20
105.7799292484
 30
0.0
 11
188.1144471853
 21
109.3872619549
 31
0.0
  0
LINE
  5
1E8
  8
0
  6
CONTINUOUS
 62
     7
 10
168.1144476323
 20
109.3872619549
 30
0.0
 11
168.1144476323
 21
105.7799292484
 31
0.0
  0
POLYLINE
  5
1E9
  8
0
  6
CONTINUOUS
 62
     7
 66
     1
 10
0.0
 20
0.0
 30
0.0
 70
   128
  0
VERTEX
  5
39F
  8
0
  6
CONTINUOUS
 62
     7
 10
166.4954970046
 20
258.7311567494
 30
0.0
  0
VERTEX
  5
3A0
  8
0
  6
CONTINUOUS
 62
     7
 10
168.0020733192
 20
258.591942651
 30
0.0
  0
VERTEX
  5
3A1
  8
0
  6
CONTINUOUS
 62
     7
 10
168.1144476323
 20
258.5431292409
 30
0.0
  0
SEQEND
  5
3F5
  8
0
  6
CONTINUOUS
 62
     7
  0
POLYLINE
  5
1EA
  8
0
  6
CONTINUOUS
 62
     7
 66
     1
 10
0.0
 20
0.0
 30
0.0
 70
   128
  0
VERTEX
  5
3A2
  8
0
  6
CONTINUOUS
 62
     7
 10
169.3682527556
 20
289.4634475687
 30
0.0
  0
VERTEX
  5
3A3
  8
0
  6
CONTINUOUS
 62
     7
 10
168.0014111488
 20
288.8700041676
 30
0.0
  0
VERTEX
  5
3A4
  8
0
  6
CONTINUOUS
 62
     7
 10
166.4954942106
 20
288.7312128896
 30
0.0
  0
SEQEND
  5
3F6
  8
0
  6
CONTINUOUS
 62
     7
  0
POLYLINE
  5
1EB
  8
0
  6
CONTINUOUS
 62
     7
 66
     1
 10
0.0
 20
0.0
 30
0.0
 70
   128
  0
VERTEX
  5
3A5
  8
0
  6
CONTINUOUS
 62
     7
 10
189.7333903625
 20
288.7312063703
 30
0.0
  0
VERTEX
  5
3A6
  8
0
  6
CONTINUOUS
 62
     7
 10
188.2225914314
 20
288.8731296861
 30
0.0
  0
VERTEX
  5
3A7
  8
0
  6
CONTINUOUS
 62
     7
 10
186.8360123052
 20
289.4771156588
 30
0.0
  0
SEQEND
  5
3F7
  8
0
  6
CONTINUOUS
 62
     7
  0
POLYLINE
  5
1EC
  8
0
  6
CONTINUOUS
 62
     7
 66
     1
 10
0.0
 20
0.0
 30
0.0
 70
   128
  0
VERTEX
  5
3A8
  8
0
  6
CONTINUOUS
 62
     7
 10
188.1144471853
 20
258.5421066487
 30
0.0
  0
VERTEX
  5
3A9
  8
0
  6
CONTINUOUS
 62
     7
 10
188.2224759474
 20
258.5891673097
 30
0.0
  0
VERTEX
  5
3AA
  8
0
  6
CONTINUOUS
 62
     7
 10
189.7333903625
 20
258.7311651313
 30
0.0
  0
SEQEND
  5
3F8
  8
0
  6
CONTINUOUS
 62
     7
  0
LINE
  5
1ED
  8
0
  6
CONTINUOUS
 62
     7
 10
189.7159867375
 20
258.7311856204
 30
0.0
 11
232.8144457578
 21
258.7311856204
 31
0.0
  0
LINE
  5
1EE
  8
0
  6
CONTINUOUS
 62
     7
 10
232.8144457578
 20
288.7311849499
 30
0.0
 11
189.7159867375
 21
288.7311849499
 31
0.0
  0
LINE
  5
1EF
  8
0
  6
CONTINUOUS
 62
     7
 10
166.5087562441
 20
288.7311849499
 30
0.0
 11
123.4144490599
 21
288.7311849499
 31
0.0
  0
LINE
  5
1F0
  8
0
  6
CONTINUOUS
 62
     7
 10
123.4144490599
 20
258.7311856204
 30
0.0
 11
166.5087562441
 21
258.7311856204
 31
0.0
  0
LINE
  5
1F1
  8
0
  6
CONTINUOUS
 62
     7
 10
233.4144484638
 20
258.7311856204
 30
0.0
 11
236.9144481062
 21
258.7311856204
 31
0.0
  0
LINE
  5
1F2
  8
0
  6
CONTINUOUS
 62
     7
 10
236.9144481062
 20
288.7311849499
 30
0.0
 11
233.4144484638
 21
288.7311849499
 31
0.0
  0
ARC
  5
1F3
  8
0
  6
CONTINUOUS
 62
     7
 10
122.8144474088
 20
288.4311852852
 30
0.0
 40
0.3000000000000114
 50
0.0
 51
90.0
  0
ARC
  5
1F4
  8
0
  6
CONTINUOUS
 62
     7
 10
122.8144474088
 20
259.0311852852
 30
0.0
 40
0.3000000000000114
 50
270.0
 51
0.0
  0
ARC
  5
1F5
  8
0
  6
CONTINUOUS
 62
     7
 10
123.4144474088
 20
259.0311852852
 30
0.0
 40
0.3000000000000114
 50
180.0
 51
270.0
  0
ARC
  5
1F6
  8
0
  6
CONTINUOUS
 62
     7
 10
123.4144474088
 20
288.4311852852
 30
0.0
 40
0.3000000000000114
 50
90.0
 51
180.0
  0
ARC
  5
1F7
  8
0
  6
CONTINUOUS
 62
     7
 10
233.4144474088
 20
259.0311852852
 30
0.0
 40
0.3000000000000114
 50
180.0
 51
270.0
  0
ARC
  5
1F8
  8
0
  6
CONTINUOUS
 62
     7
 10
233.4144474088
 20
288.4311852852
 30
0.0
 40
0.3000000000000114
 50
90.0
 51
180.0
  0
ARC
  5
1F9
  8
0
  6
CONTINUOUS
 62
     7
 10
119.3144474088
 20
259.4311852852
 30
0.0
 40
0.700000000000017
 50
180.0
 51
270.0
  0
ARC
  5
1FA
  8
0
  6
CONTINUOUS
 62
     7
 10
119.3144474088
 20
288.0311852852
 30
0.0
 40
0.700000000000017
 50
90.0
 51
180.0
  0
ARC
  5
1FB
  8
0
  6
CONTINUOUS
 62
     7
 10
232.8144474088
 20
288.4311852852
 30
0.0
 40
0.3000000000000114
 50
0.0
 51
90.0
  0
ARC
  5
1FC
  8
0
  6
CONTINUOUS
 62
     7
 10
232.8144474088
 20
259.0311852852
 30
0.0
 40
0.3000000000000114
 50
270.0
 51
0.0
  0
LINE
  5
1FD
  8
0
  6
CONTINUOUS
 62
     7
 10
122.8144463538
 20
288.7311849499
 30
0.0
 11
119.3144467115
 21
288.7311849499
 31
0.0
  0
LINE
  5
1FE
  8
0
  6
CONTINUOUS
 62
     7
 10
119.3144467115
 20
258.7311856204
 30
0.0
 11
122.8144463538
 21
258.7311856204
 31
0.0
  0
ARC
  5
1FF
  8
0
  6
CONTINUOUS
 62
     7
 10
236.9144474088
 20
288.0311852852
 30
0.0
 40
0.700000000000017
 50
0.0
 51
90.0
  0
ARC
  5
200
  8
0
  6
CONTINUOUS
 62
     7
 10
236.9144474088
 20
259.4311852852
 30
0.0
 40
0.700000000000017
 50
270.0
 51
0.0
  0
ARC
  5
201
  8
0
  6
CONTINUOUS
 62
     7
 10
111.7144474088
 20
265.3311852852
 30
0.0
 40
0.4000000000000057
 50
90.0
 51
180.0
  0
ARC
  5
202
  8
0
  6
CONTINUOUS
 62
     7
 10
111.7144474088
 20
282.1311852852
 30
0.0
 40
0.4000000000000341
 50
180.0
 51
270.0
  0
ARC
  5
203
  8
0
  6
CONTINUOUS
 62
     7
 10
244.5144474088
 20
282.1311852852
 30
0.0
 40
0.4000000000000341
 50
270.0
 51
0.0
  0
ARC
  5
204
  8
0
  6
CONTINUOUS
 62
     7
 10
244.5144474088
 20
265.3311852852
 30
0.0
 40
0.4000000000000057
 50
0.0
 51
90.0
  0
LINE
  5
205
  8
0
  6
CONTINUOUS
 62
     7
 10
118.6144460379
 20
281.7311856651
 30
0.0
 11
111.7144484459
 21
281.7311856651
 31
0.0
  0
LINE
  5
206
  8
0
  6
CONTINUOUS
 62
     7
 10
111.7144484459
 20
265.7311849052
 30
0.0
 11
118.6144460379
 21
265.7311849052
 31
0.0
  0
LINE
  5
207
  8
0
  6
CONTINUOUS
 62
     7
 10
237.6144487797
 20
265.7311849052
 30
0.0
 11
244.5144463717
 21
265.7311849052
 31
0.0
  0
LINE
  5
208
  8
0
  6
CONTINUOUS
 62
     7
 10
244.5144463717
 20
281.7311856651
 30
0.0
 11
237.6144487797
 21
281.7311856651
 31
0.0
  0
LINE
  5
209
  8
0
  6
CONTINUOUS
 62
     7
 10
176.1144473138
 20
292.1369133273
 30
0.0
 11
176.1144473138
 21
291.6305327544
 31
0.0
  0
LINE
  5
20A
  8
0
  6
CONTINUOUS
 62
     7
 10
180.1144475038
 20
291.6197294125
 30
0.0
 11
180.1144475038
 21
292.1369133273
 31
0.0
  0
ARC
  5
20B
  8
0
  6
CONTINUOUS
 62
     7
 10
178.1144474088
 20
273.7311852852
 30
0.0
 40
10.0
 50
0.0
 51
180.0
  0
ARC
  5
20C
  8
0
  6
CONTINUOUS
 62
     7
 10
178.1567089347
 20
105.8121751738
 30
0.0
 40
9.95779046114817
 50
269.7568321663
 51
359.8144609822
  0
ARC
  5
20D
  8
0
  6
CONTINUOUS
 62
     7
 10
178.0755080334
 20
105.8155222752
 30
0.0
 40
9.961123991687842
 50
180.2047293616
 51
270.22397749
  0
ARC
  5
20E
  8
0
  6
CONTINUOUS
 62
     7
 10
178.1144474088
 20
273.7311852852
 30
0.0
 40
18.00000000000002
 50
303.7489885959
 51
0.0
  0
ARC
  5
20F
  8
0
  6
CONTINUOUS
 62
     7
 10
178.1144474088
 20
273.7311852852
 30
0.0
 40
18.00000000000002
 50
0.0
 51
236.2510114041
  0
ARC
  5
210
  8
0
  6
CONTINUOUS
 62
     7
 10
110.5144474088
 20
277.4311852852
 30
0.0
 40
0.8000000000000682
 50
0.0
 51
90.0
  0
ARC
  5
211
  8
0
  6
CONTINUOUS
 62
     7
 10
103.1144474088
 20
277.4311852852
 30
0.0
 40
0.8000000000000682
 50
90.0
 51
180.0
  0
LINE
  5
212
  8
0
  6
CONTINUOUS
 62
     7
 10
245.7144443332
 20
278.2311850915
 30
0.0
 11
253.1144503891
 21
278.2311850915
 31
0.0
  0
LINE
  5
213
  8
0
  6
CONTINUOUS
 62
     7
 10
103.1144444286
 20
278.2311850915
 30
0.0
 11
110.5144504844
 21
278.2311850915
 31
0.0
  0
LINE
  5
214
  8
0
  6
CONTINUOUS
 62
     7
 10
102.3144457876
 20
270.031185284
 30
0.0
 11
102.3144457876
 21
277.4311852863
 31
0.0
  0
ARC
  5
215
  8
0
  6
CONTINUOUS
 62
     7
 10
253.1144474088
 20
277.4311852852
 30
0.0
 40
0.8000000000000682
 50
0.0
 51
90.0
  0
LINE
  5
216
  8
0
  6
CONTINUOUS
 62
     7
 10
253.9144490301
 20
277.4311852863
 30
0.0
 11
253.9144490301
 21
270.031185284
 31
0.0
  0
LINE
  5
217
  8
0
  6
CONTINUOUS
 62
     7
 10
111.3144491254
 20
277.4311852863
 30
0.0
 11
111.3144491254
 21
270.031185284
 31
0.0
  0
ARC
  5
218
  8
0
  6
CONTINUOUS
 62
     7
 10
245.7144474088
 20
277.4311852852
 30
0.0
 40
0.8000000000000682
 50
90.0
 51
180.0
  0
LINE
  5
219
  8
0
  6
CONTINUOUS
 62
     7
 10
244.9144456922
 20
270.031185284
 30
0.0
 11
244.9144456922
 21
277.4311852863
 31
0.0
  0
ARC
  5
21A
  8
0
  6
CONTINUOUS
 62
     7
 10
110.5144474088
 20
270.0311852852
 30
0.0
 40
0.8000000000000682
 50
270.0
 51
0.0
  0
ARC
  5
21B
  8
0
  6
CONTINUOUS
 62
     7
 10
103.1144474088
 20
270.0311852852
 30
0.0
 40
0.8000000000000682
 50
180.0
 51
270.0
  0
LINE
  5
21C
  8
0
  6
CONTINUOUS
 62
     7
 10
253.1144503891
 20
269.2311854789
 30
0.0
 11
245.7144443332
 21
269.2311854789
 31
0.0
  0
ARC
  5
21D
  8
0
  6
CONTINUOUS
 62
     7
 10
253.1144474088
 20
270.0311852852
 30
0.0
 40
0.8000000000000682
 50
270.0
 51
0.0
  0
ARC
  5
21E
  8
0
  6
CONTINUOUS
 62
     7
 10
245.7144474088
 20
270.0311852852
 30
0.0
 40
0.8000000000000682
 50
180.0
 51
270.0
  0
LINE
  5
21F
  8
0
  6
CONTINUOUS
 62
     7
 10
110.5144504844
 20
269.2311854789
 30
0.0
 11
103.1144444286
 21
269.2311854789
 31
0.0
  0
LINE
  5
220
  8
0
  6
CONTINUOUS
 62
     7
 10
123.1144477069
 20
259.0311851108
 30
0.0
 11
123.1144477069
 21
288.4311854595
 31
0.0
  0
LINE
  5
221
  8
0
  6
CONTINUOUS
 62
     7
 10
233.1144471108
 20
273.7311852852
 30
0.0
 11
233.1144471108
 21
259.0311851108
 31
0.0
  0
LINE
  5
222
  8
0
  6
CONTINUOUS
 62
     7
 10
233.1144471108
 20
288.4311854595
 30
0.0
 11
233.1144471108
 21
273.7311852852
 31
0.0
  0
LINE
  5
223
  8
0
  6
CONTINUOUS
 62
     7
 10
118.6144460379
 20
288.0311852077
 30
0.0
 11
118.6144460379
 21
259.4311853627
 31
0.0
  0
LINE
  5
224
  8
0
  6
CONTINUOUS
 62
     7
 10
237.6144487797
 20
259.4311853627
 30
0.0
 11
237.6144487797
 21
288.0311852077
 31
0.0
  0
LINE
  5
225
  8
0
  6
CONTINUOUS
 62
     7
 10
244.9144456922
 20
277.4311852863
 30
0.0
 11
244.9144456922
 21
285.2311853075
 31
0.0
  0
LINE
  5
226
  8
0
  6
CONTINUOUS
 62
     7
 10
253.9144490301
 20
285.2311853075
 30
0.0
 11
253.9144490301
 21
277.4311852863
 31
0.0
  0
LINE
  5
227
  8
0
  6
CONTINUOUS
 62
     7
 10
111.3144491254
 20
285.2311853075
 30
0.0
 11
111.3144491254
 21
277.4311852863
 31
0.0
  0
LINE
  5
228
  8
0
  6
CONTINUOUS
 62
     7
 10
102.3144457876
 20
277.4311852863
 30
0.0
 11
102.3144457876
 21
285.2311853075
 31
0.0
  0
LINE
  5
229
  8
0
  6
CONTINUOUS
 62
     7
 10
111.3144491254
 20
270.031185284
 30
0.0
 11
111.3144491254
 21
262.2311852628
 31
0.0
  0
LINE
  5
22A
  8
0
  6
CONTINUOUS
 62
     7
 10
244.9144456922
 20
262.2311852628
 30
0.0
 11
244.9144456922
 21
270.031185284
 31
0.0
  0
LINE
  5
22B
  8
0
  6
CONTINUOUS
 62
     7
 10
253.9144490301
 20
270.031185284
 30
0.0
 11
253.9144490301
 21
262.2311852628
 31
0.0
  0
LINE
  5
22C
  8
0
  6
CONTINUOUS
 62
     7
 10
102.3144457876
 20
262.2311852628
 30
0.0
 11
102.3144457876
 21
270.031185284
 31
0.0
  0
LINE
  5
22D
  8
0
  6
CONTINUOUS
 62
     7
 10
103.1144444286
 20
308.7311854342
 30
0.0
 11
110.5144504844
 21
308.7311854342
 31
0.0
  0
LINE
  5
22E
  8
0
  6
CONTINUOUS
 62
     7
 10
244.9144456922
 20
285.2311853075
 30
0.0
 11
244.9144456922
 21
307.9311867932
 31
0.0
  0
LINE
  5
22F
  8
0
  6
CONTINUOUS
 62
     7
 10
253.9144490301
 20
307.9311867932
 30
0.0
 11
253.9144490301
 21
285.2311853075
 31
0.0
  0
ARC
  5
230
  8
0
  6
CONTINUOUS
 62
     7
 10
245.7144474088
 20
307.9311852852
 30
0.0
 40
0.8000000000000114
 50
90.0
 51
180.0
  0
ARC
  5
231
  8
0
  6
CONTINUOUS
 62
     7
 10
253.1144474088
 20
307.9311852852
 30
0.0
 40
0.8000000000000114
 50
0.0
 51
90.0
  0
ARC
  5
232
  8
0
  6
CONTINUOUS
 62
     7
 10
110.5144474088
 20
307.9311852852
 30
0.0
 40
0.8000000000000114
 50
0.0
 51
90.0
  0
LINE
  5
233
  8
0
  6
CONTINUOUS
 62
     7
 10
102.3144457876
 20
285.2311853075
 30
0.0
 11
102.3144457876
 21
307.9311867932
 31
0.0
  0
ARC
  5
234
  8
0
  6
CONTINUOUS
 62
     7
 10
103.1144474088
 20
307.9311852852
 30
0.0
 40
0.8000000000000114
 50
90.0
 51
180.0
  0
LINE
  5
235
  8
0
  6
CONTINUOUS
 62
     7
 10
111.3144491254
 20
307.9311867932
 30
0.0
 11
111.3144491254
 21
285.2311853075
 31
0.0
  0
LINE
  5
236
  8
0
  6
CONTINUOUS
 62
     7
 10
245.7144443332
 20
308.7311854342
 30
0.0
 11
253.1144503891
 21
308.7311854342
 31
0.0
  0
LINE
  5
237
  8
0
  6
CONTINUOUS
 62
     7
 10
244.9144456922
 20
239.5311837772
 30
0.0
 11
244.9144456922
 21
262.2311852628
 31
0.0
  0
LINE
  5
238
  8
0
  6
CONTINUOUS
 62
     7
 10
102.3144457876
 20
239.5311837772
 30
0.0
 11
102.3144457876
 21
262.2311852628
 31
0.0
  0
LINE
  5
239
  8
0
  6
CONTINUOUS
 62
     7
 10
253.9144490301
 20
262.2311852628
 30
0.0
 11
253.9144490301
 21
239.5311837772
 31
0.0
  0
LINE
  5
23A
  8
0
  6
CONTINUOUS
 62
     7
 10
111.3144491254
 20
262.2311852628
 30
0.0
 11
111.3144491254
 21
239.5311837772
 31
0.0
  0
ARC
  5
23B
  8
0
  6
CONTINUOUS
 62
     7
 10
103.1144474088
 20
239.5311852852
 30
0.0
 40
0.8000000000000114
 50
180.0
 51
270.0
  0
ARC
  5
23C
  8
0
  6
CONTINUOUS
 62
     7
 10
110.5144474088
 20
239.5311852852
 30
0.0
 40
0.8000000000000114
 50
270.0
 51
0.0
  0
LINE
  5
23D
  8
0
  6
CONTINUOUS
 62
     7
 10
253.1144503891
 20
238.7311851362
 30
0.0
 11
245.7144443332
 21
238.7311851362
 31
0.0
  0
ARC
  5
23E
  8
0
  6
CONTINUOUS
 62
     7
 10
253.1144474088
 20
239.5311852852
 30
0.0
 40
0.8000000000000114
 50
270.0
 51
0.0
  0
ARC
  5
23F
  8
0
  6
CONTINUOUS
 62
     7
 10
245.7144474088
 20
239.5311852852
 30
0.0
 40
0.8000000000000114
 50
180.0
 51
270.0
  0
LINE
  5
240
  8
0
  6
CONTINUOUS
 62
     7
 10
110.5144504844
 20
238.7311851362
 30
0.0
 11
103.1144444286
 21
238.7311851362
 31
0.0
  0
ARC
  5
241
  8
0
  6
CONTINUOUS
 62
     7
 10
180.3644474088
 20
315.2893294955
 30
0.0
 40
0.4000000000000341
 50
0.0
 51
90.0
  0
LINE
  5
242
  8
0
  6
CONTINUOUS
 62
     7
 10
175.8644475057
 20
315.6893310824
 30
0.0
 11
180.364447312
 21
315.6893310824
 31
0.0
  0
ARC
  5
243
  8
0
  6
CONTINUOUS
 62
     7
 10
175.8644474088
 20
315.2893294955
 30
0.0
 40
0.4000000000000341
 50
90.0
 51
180.0
  0
LINE
  5
244
  8
0
  6
CONTINUOUS
 62
     7
 10
180.764447331
 20
315.2893280366
 30
0.0
 11
180.764447331
 21
292.5106772909
 31
0.0
  0
LINE
  5
245
  8
0
  6
CONTINUOUS
 62
     7
 10
175.4644474867
 20
292.5106772909
 30
0.0
 11
175.4644474867
 21
315.2893280366
 31
0.0
  0
ARC
  5
246
  8
0
  6
CONTINUOUS
 62
     7
 10
180.3644474088
 20
292.5106772095
 30
0.0
 40
0.4000000000000057
 50
263.0893795767
 51
0.0
  0
ARC
  5
247
  8
0
  6
CONTINUOUS
 62
     7
 10
175.8644474088
 20
292.5106772095
 30
0.0
 40
0.4000000000000057
 50
180.0
 51
276.9106204233
  0
ARC
  5
248
  8
0
  6
CONTINUOUS
 62
     7
 10
178.1144474088
 20
273.9465316595
 30
0.0
 40
18.29999999999997
 50
83.0893795767
 51
96.9106204233
  0
ARC
  5
249
  8
0
  6
CONTINUOUS
 62
     7
 10
178.1144474088
 20
273.7311852852
 30
0.0
 40
23.40000000000001
 50
96.5025747844
 51
140.13165845
  0
ARC
  5
24A
  8
0
  6
CONTINUOUS
 62
     7
 10
178.1144474088
 20
273.7311852852
 30
0.0
 40
23.40000000000001
 50
39.86834155
 51
83.4974252156
  0
ARC
  5
24B
  8
0
  6
CONTINUOUS
 62
     7
 10
178.1144474088
 20
273.7311852852
 30
0.0
 40
23.40000000000001
 50
295.2995287458
 51
320.13165845
  0
ARC
  5
24C
  8
0
  6
CONTINUOUS
 62
     7
 10
178.1144474088
 20
273.7311852852
 30
0.0
 40
23.39999999999999
 50
219.86834155
 51
244.7004712542
  0
ARC
  5
24D
  8
0
  6
CONTINUOUS
 62
     7
 10
178.1144474088
 20
273.7311852852
 30
0.0
 40
28.5
 50
95.3352090245
 51
148.2431361407
  0
ARC
  5
24E
  8
0
  6
CONTINUOUS
 62
     7
 10
178.1144474088
 20
273.7311852852
 30
0.0
 40
28.5
 50
31.7568638593
 51
84.6647909755
  0
ARC
  5
24F
  8
0
  6
CONTINUOUS
 62
     7
 10
178.1144474088
 20
273.7311852852
 30
0.0
 40
28.50000000000002
 50
290.5409775375
 51
328.2431361407
  0
ARC
  5
250
  8
0
  6
CONTINUOUS
 62
     7
 10
178.1144474088
 20
273.7311852852
 30
0.0
 40
28.49999999999999
 50
211.7568638593
 51
249.4590224625
  0
ARC
  5
251
  8
0
  6
CONTINUOUS
 62
     8
 10
178.1144474088
 20
109.4448025444
 30
0.0
 40
10.0001653210882
 50
180.329679662
 51
359.670320338
  0
ARC
  5
252
  8
0
  6
CONTINUOUS
 62
     8
 10
178.1144474088
 20
273.7311852852
 30
0.0
 40
17.4
 50
0.0
 51
234.9204890595
  0
ARC
  5
253
  8
0
  6
CONTINUOUS
 62
     8
 10
178.1144474088
 20
273.7311852852
 30
0.0
 40
17.4
 50
305.0795109405
 51
0.0
  0
LINE
  5
254
  8
0
  6
CONTINUOUS
 62
     8
 10
111.3144491254
 20
277.4311852863
 30
0.0
 11
110.5144504844
 21
277.4311852863
 31
0.0
  0
LINE
  5
255
  8
0
  6
CONTINUOUS
 62
     8
 10
110.5144504844
 20
278.2311850915
 30
0.0
 11
110.5144504844
 21
277.4311852863
 31
0.0
  0
LINE
  5
256
  8
0
  6
CONTINUOUS
 62
     8
 10
103.1144444286
 20
277.4311852863
 30
0.0
 11
102.3144457876
 21
277.4311852863
 31
0.0
  0
LINE
  5
257
  8
0
  6
CONTINUOUS
 62
     8
 10
103.1144444286
 20
278.2311850915
 30
0.0
 11
103.1144444286
 21
277.4311852863
 31
0.0
  0
LINE
  5
258
  8
0
  6
CONTINUOUS
 62
     8
 10
110.5144504844
 20
277.4311852863
 30
0.0
 11
103.1144444286
 21
277.4311852863
 31
0.0
  0
LINE
  5
259
  8
0
  6
CONTINUOUS
 62
     8
 10
110.5144504844
 20
270.031185284
 30
0.0
 11
110.5144504844
 21
277.4311852863
 31
0.0
  0
LINE
  5
25A
  8
0
  6
CONTINUOUS
 62
     8
 10
103.1144444286
 20
270.031185284
 30
0.0
 11
110.5144504844
 21
270.031185284
 31
0.0
  0
LINE
  5
25B
  8
0
  6
CONTINUOUS
 62
     8
 10
103.1144444286
 20
277.4311852863
 30
0.0
 11
103.1144444286
 21
270.031185284
 31
0.0
  0
LINE
  5
25C
  8
0
  6
CONTINUOUS
 62
     8
 10
253.1144503891
 20
277.4311852863
 30
0.0
 11
245.7144443332
 21
277.4311852863
 31
0.0
  0
LINE
  5
25D
  8
0
  6
CONTINUOUS
 62
     8
 10
245.7144443332
 20
277.4311852863
 30
0.0
 11
245.7144443332
 21
278.2311850915
 31
0.0
  0
LINE
  5
25E
  8
0
  6
CONTINUOUS
 62
     8
 10
253.1144503891
 20
277.4311852863
 30
0.0
 11
253.1144503891
 21
278.2311850915
 31
0.0
  0
LINE
  5
25F
  8
0
  6
CONTINUOUS
 62
     8
 10
103.1144444286
 20
270.031185284
 30
0.0
 11
102.3144457876
 21
270.031185284
 31
0.0
  0
LINE
  5
260
  8
0
  6
CONTINUOUS
 62
     8
 10
253.9144490301
 20
277.4311852863
 30
0.0
 11
253.1144503891
 21
277.4311852863
 31
0.0
  0
LINE
  5
261
  8
0
  6
CONTINUOUS
 62
     8
 10
245.7144443332
 20
270.031185284
 30
0.0
 11
253.1144503891
 21
270.031185284
 31
0.0
  0
LINE
  5
262
  8
0
  6
CONTINUOUS
 62
     8
 10
245.7144443332
 20
277.4311852863
 30
0.0
 11
245.7144443332
 21
270.031185284
 31
0.0
  0
LINE
  5
263
  8
0
  6
CONTINUOUS
 62
     8
 10
253.1144503891
 20
270.031185284
 30
0.0
 11
253.1144503891
 21
277.4311852863
 31
0.0
  0
LINE
  5
264
  8
0
  6
CONTINUOUS
 62
     8
 10
253.9144490301
 20
270.031185284
 30
0.0
 11
253.1144503891
 21
270.031185284
 31
0.0
  0
LINE
  5
265
  8
0
  6
CONTINUOUS
 62
     8
 10
111.3144491254
 20
270.031185284
 30
0.0
 11
110.5144504844
 21
270.031185284
 31
0.0
  0
LINE
  5
266
  8
0
  6
CONTINUOUS
 62
     8
 10
245.7144443332
 20
277.4311852863
 30
0.0
 11
244.9144456922
 21
277.4311852863
 31
0.0
  0
LINE
  5
267
  8
0
  6
CONTINUOUS
 62
     8
 10
245.7144443332
 20
270.031185284
 30
0.0
 11
244.9144456922
 21
270.031185284
 31
0.0
  0
LINE
  5
268
  8
0
  6
CONTINUOUS
 62
     8
 10
110.5144504844
 20
270.031185284
 30
0.0
 11
110.5144504844
 21
269.2311854789
 31
0.0
  0
LINE
  5
269
  8
0
  6
CONTINUOUS
 62
     8
 10
103.1144444286
 20
270.031185284
 30
0.0
 11
103.1144444286
 21
269.2311854789
 31
0.0
  0
LINE
  5
26A
  8
0
  6
CONTINUOUS
 62
     8
 10
245.7144443332
 20
269.2311854789
 30
0.0
 11
245.7144443332
 21
270.031185284
 31
0.0
  0
LINE
  5
26B
  8
0
  6
CONTINUOUS
 62
     8
 10
253.1144503891
 20
269.2311854789
 30
0.0
 11
253.1144503891
 21
270.031185284
 31
0.0
  0
POLYLINE
  5
26C
  8
0
  6
CONTINUOUS
 62
     8
 66
     1
 10
0.0
 20
0.0
 30
0.0
 70
   128
  0
VERTEX
  5
3AB
  8
0
  6
CONTINUOUS
 62
     8
 10
162.353552544
 20
262.1445676068
 30
0.0
  0
VERTEX
  5
3AC
  8
0
  6
CONTINUOUS
 62
     8
 10
161.2718586265
 20
263.5045891383
 30
0.0
  0
VERTEX
  5
3AD
  8
0
  6
CONTINUOUS
 62
     8
 10
160.3314035027
 20
264.9649979302
 30
0.0
  0
VERTEX
  5
3AE
  8
0
  6
CONTINUOUS
 62
     8
 10
159.4865356027
 20
266.6335219273
 30
0.0
  0
VERTEX
  5
3AF
  8
0
  6
CONTINUOUS
 62
     8
 10
158.9127701162
 20
268.113913642
 30
0.0
  0
VERTEX
  5
3B0
  8
0
  6
CONTINUOUS
 62
     8
 10
158.4807593762
 20
269.614161154
 30
0.0
  0
VERTEX
  5
3B1
  8
0
  6
CONTINUOUS
 62
     8
 10
158.0096591651
 20
272.9678939667
 30
0.0
  0
VERTEX
  5
3B2
  8
0
  6
CONTINUOUS
 62
     8
 10
158.1959478944
 20
276.3971226977
 30
0.0
  0
VERTEX
  5
3B3
  8
0
  6
CONTINUOUS
 62
     8
 10
158.9900531261
 20
279.5735585259
 30
0.0
  0
VERTEX
  5
3B4
  8
0
  6
CONTINUOUS
 62
     8
 10
159.5457565426
 20
280.9614158923
 30
0.0
  0
VERTEX
  5
3B5
  8
0
  6
CONTINUOUS
 62
     8
 10
160.216541627
 20
282.2951080033
 30
0.0
  0
VERTEX
  5
3B6
  8
0
  6
CONTINUOUS
 62
     8
 10
160.657817164
 20
283.0415500084
 30
0.0
  0
VERTEX
  5
3B7
  8
0
  6
CONTINUOUS
 62
     8
 10
161.1424159645
 20
283.7750671187
 30
0.0
  0
VERTEX
  5
3B8
  8
0
  6
CONTINUOUS
 62
     8
 10
161.6860792427
 20
284.5127220953
 30
0.0
  0
VERTEX
  5
3B9
  8
0
  6
CONTINUOUS
 62
     8
 10
162.5560267284
 20
285.54295299
 30
0.0
  0
VERTEX
  5
3BA
  8
0
  6
CONTINUOUS
 62
     8
 10
163.7743577748
 20
286.7495232949
 30
0.0
  0
VERTEX
  5
3BB
  8
0
  6
CONTINUOUS
 62
     8
 10
164.6940322979
 20
287.5153945515
 30
0.0
  0
VERTEX
  5
3BC
  8
0
  6
CONTINUOUS
 62
     8
 10
165.334400387
 20
287.9870293418
 30
0.0
  0
VERTEX
  5
3BD
  8
0
  6
CONTINUOUS
 62
     8
 10
165.8756720289
 20
288.3504835645
 30
0.0
  0
VERTEX
  5
3BE
  8
0
  6
CONTINUOUS
 62
     8
 10
166.4730837955
 20
288.7180123234
 30
0.0
  0
VERTEX
  5
3BF
  8
0
  6
CONTINUOUS
 62
     8
 10
166.4687671154
 20
288.7154698128
 30
0.0
  0
SEQEND
  5
3F9
  8
0
  6
CONTINUOUS
 62
     8
  0
ARC
  5
26D
  8
0
  6
CONTINUOUS
 62
     8
 10
175.010203409
 20
273.283173938
 30
0.0
 40
16.85999294542888
 50
221.3496997055
 51
239.5636339619
  0
ARC
  5
26E
  8
0
  6
CONTINUOUS
 62
     8
 10
181.2344595395
 20
273.2722621914
 30
0.0
 40
16.84215209990808
 50
300.4522471494
 51
321.6903393098
  0
POLYLINE
  5
26F
  8
0
  6
CONTINUOUS
 62
     8
 66
     1
 10
0.0
 20
0.0
 30
0.0
 70
   128
  0
VERTEX
  5
3C0
  8
0
  6
CONTINUOUS
 62
     8
 10
189.7722311704
 20
288.7078245858
 30
0.0
  0
VERTEX
  5
3C1
  8
0
  6
CONTINUOUS
 62
     8
 10
189.738536851
 20
288.7281683961
 30
0.0
  0
VERTEX
  5
3C2
  8
0
  6
CONTINUOUS
 62
     8
 10
189.91307974
 20
288.6244060227
 30
0.0
  0
VERTEX
  5
3C3
  8
0
  6
CONTINUOUS
 62
     8
 10
190.3115908071
 20
288.3771901706
 30
0.0
  0
VERTEX
  5
3C4
  8
0
  6
CONTINUOUS
 62
     8
 10
190.8889940395
 20
287.9908794293
 30
0.0
  0
VERTEX
  5
3C5
  8
0
  6
CONTINUOUS
 62
     8
 10
191.5805951147
 20
287.4798701832
 30
0.0
  0
VERTEX
  5
3C6
  8
0
  6
CONTINUOUS
 62
     8
 10
192.3425762369
 20
286.8485610688
 30
0.0
  0
VERTEX
  5
3C7
  8
0
  6
CONTINUOUS
 62
     8
 10
193.1443527727
 20
286.0966372991
 30
0.0
  0
VERTEX
  5
3C8
  8
0
  6
CONTINUOUS
 62
     8
 10
193.9552255361
 20
285.2265482524
 30
0.0
  0
VERTEX
  5
3C9
  8
0
  6
CONTINUOUS
 62
     8
 10
194.7416007905
 20
284.2525673786
 30
0.0
  0
VERTEX
  5
3CA
  8
0
  6
CONTINUOUS
 62
     8
 10
195.5239676326
 20
283.1162476668
 30
0.0
  0
VERTEX
  5
3CB
  8
0
  6
CONTINUOUS
 62
     8
 10
196.1785123139
 20
281.9901361817
 30
0.0
  0
VERTEX
  5
3CC
  8
0
  6
CONTINUOUS
 62
     8
 10
196.8068886935
 20
280.6800884882
 30
0.0
  0
VERTEX
  5
3CD
  8
0
  6
CONTINUOUS
 62
     8
 10
197.3144427328
 20
279.3541072624
 30
0.0
  0
VERTEX
  5
3CE
  8
0
  6
CONTINUOUS
 62
     8
 10
198.0240751444
 20
276.4547366405
 30
0.0
  0
VERTEX
  5
3CF
  8
0
  6
CONTINUOUS
 62
     8
 10
198.2333004861
 20
273.4362106293
 30
0.0
  0
VERTEX
  5
3D0
  8
0
  6
CONTINUOUS
 62
     8
 10
197.9259472727
 20
270.4409865418
 30
0.0
  0
VERTEX
  5
3D1
  8
0
  6
CONTINUOUS
 62
     8
 10
197.5911647468
 20
269.0090920532
 30
0.0
  0
VERTEX
  5
3D2
  8
0
  6
CONTINUOUS
 62
     8
 10
197.1319500743
 20
267.5932498405
 30
0.0
  0
VERTEX
  5
3D3
  8
0
  6
CONTINUOUS
 62
     8
 10
195.9293574481
 20
265.0201210508
 30
0.0
  0
VERTEX
  5
3D4
  8
0
  6
CONTINUOUS
 62
     8
 10
194.4500223189
 20
262.8316210339
 30
0.0
  0
SEQEND
  5
3FA
  8
0
  6
CONTINUOUS
 62
     8
  0
LINE
  5
270
  8
0
  6
CONTINUOUS
 62
     8
 10
122.8144463538
 20
258.7311856204
 30
0.0
 11
122.8144463538
 21
288.7311849499
 31
0.0
  0
LINE
  5
271
  8
0
  6
CONTINUOUS
 62
     8
 10
119.3144467115
 20
288.7311849499
 30
0.0
 11
119.3144467115
 21
258.7311856204
 31
0.0
  0
LINE
  5
272
  8
0
  6
CONTINUOUS
 62
     8
 10
103.1144444286
 20
285.2311853075
 30
0.0
 11
103.1144444286
 21
278.2311850915
 31
0.0
  0
LINE
  5
273
  8
0
  6
CONTINUOUS
 62
     8
 10
103.1144444286
 20
285.2311853075
 30
0.0
 11
110.5144504844
 21
285.2311853075
 31
0.0
  0
LINE
  5
274
  8
0
  6
CONTINUOUS
 62
     8
 10
110.5144504844
 20
278.2311850915
 30
0.0
 11
110.5144504844
 21
285.2311853075
 31
0.0
  0
LINE
  5
275
  8
0
  6
CONTINUOUS
 62
     8
 10
245.7144443332
 20
285.2311853075
 30
0.0
 11
245.7144443332
 21
278.2311850915
 31
0.0
  0
LINE
  5
276
  8
0
  6
CONTINUOUS
 62
     8
 10
245.7144443332
 20
285.2311853075
 30
0.0
 11
244.9144456922
 21
285.2311853075
 31
0.0
  0
LINE
  5
277
  8
0
  6
CONTINUOUS
 62
     8
 10
253.1144503891
 20
278.2311850915
 30
0.0
 11
253.1144503891
 21
285.2311853075
 31
0.0
  0
LINE
  5
278
  8
0
  6
CONTINUOUS
 62
     8
 10
253.9144490301
 20
285.2311853075
 30
0.0
 11
253.1144503891
 21
285.2311853075
 31
0.0
  0
LINE
  5
279
  8
0
  6
CONTINUOUS
 62
     8
 10
111.3144491254
 20
285.2311853075
 30
0.0
 11
110.5144504844
 21
285.2311853075
 31
0.0
  0
LINE
  5
27A
  8
0
  6
CONTINUOUS
 62
     8
 10
253.1144503891
 20
285.2311853075
 30
0.0
 11
245.7144443332
 21
285.2311853075
 31
0.0
  0
LINE
  5
27B
  8
0
  6
CONTINUOUS
 62
     8
 10
103.1144444286
 20
285.2311853075
 30
0.0
 11
102.3144457876
 21
285.2311853075
 31
0.0
  0
LINE
  5
27C
  8
0
  6
CONTINUOUS
 62
     8
 10
103.1144444286
 20
269.2311854789
 30
0.0
 11
103.1144444286
 21
262.2311852628
 31
0.0
  0
LINE
  5
27D
  8
0
  6
CONTINUOUS
 62
     8
 10
110.5144504844
 20
262.2311852628
 30
0.0
 11
110.5144504844
 21
269.2311854789
 31
0.0
  0
LINE
  5
27E
  8
0
  6
CONTINUOUS
 62
     8
 10
103.1144444286
 20
262.2311852628
 30
0.0
 11
110.5144504844
 21
262.2311852628
 31
0.0
  0
LINE
  5
27F
  8
0
  6
CONTINUOUS
 62
     8
 10
111.3144491254
 20
262.2311852628
 30
0.0
 11
110.5144504844
 21
262.2311852628
 31
0.0
  0
LINE
  5
280
  8
0
  6
CONTINUOUS
 62
     8
 10
245.7144443332
 20
269.2311854789
 30
0.0
 11
245.7144443332
 21
262.2311852628
 31
0.0
  0
LINE
  5
281
  8
0
  6
CONTINUOUS
 62
     8
 10
245.7144443332
 20
262.2311852628
 30
0.0
 11
244.9144456922
 21
262.2311852628
 31
0.0
  0
LINE
  5
282
  8
0
  6
CONTINUOUS
 62
     8
 10
253.1144503891
 20
262.2311852628
 30
0.0
 11
253.1144503891
 21
269.2311854789
 31
0.0
  0
LINE
  5
283
  8
0
  6
CONTINUOUS
 62
     8
 10
253.1144503891
 20
262.2311852628
 30
0.0
 11
245.7144443332
 21
262.2311852628
 31
0.0
  0
LINE
  5
284
  8
0
  6
CONTINUOUS
 62
     8
 10
253.9144490301
 20
262.2311852628
 30
0.0
 11
253.1144503891
 21
262.2311852628
 31
0.0
  0
LINE
  5
285
  8
0
  6
CONTINUOUS
 62
     8
 10
103.1144444286
 20
262.2311852628
 30
0.0
 11
102.3144457876
 21
262.2311852628
 31
0.0
  0
LINE
  5
286
  8
0
  6
CONTINUOUS
 62
     8
 10
244.5144463717
 20
273.7311852852
 30
0.0
 11
244.5144463717
 21
281.7311856651
 31
0.0
  0
LINE
  5
287
  8
0
  6
CONTINUOUS
 62
     8
 10
244.5144463717
 20
265.7311849052
 30
0.0
 11
244.5144463717
 21
273.7311852852
 31
0.0
  0
LINE
  5
288
  8
0
  6
CONTINUOUS
 62
     8
 10
110.5144504844
 20
308.7311854342
 30
0.0
 11
110.5144504844
 21
307.9311867932
 31
0.0
  0
LINE
  5
289
  8
0
  6
CONTINUOUS
 62
     8
 10
110.5144504844
 20
307.9311867932
 30
0.0
 11
103.1144444286
 21
307.9311867932
 31
0.0
  0
LINE
  5
28A
  8
0
  6
CONTINUOUS
 62
     8
 10
103.1144444286
 20
308.7311854342
 30
0.0
 11
103.1144444286
 21
307.9311867932
 31
0.0
  0
LINE
  5
28B
  8
0
  6
CONTINUOUS
 62
     8
 10
245.7144443332
 20
307.9311867932
 30
0.0
 11
245.7144443332
 21
285.2311853075
 31
0.0
  0
LINE
  5
28C
  8
0
  6
CONTINUOUS
 62
     8
 10
244.9144456922
 20
307.9311867932
 30
0.0
 11
245.7144443332
 21
307.9311867932
 31
0.0
  0
LINE
  5
28D
  8
0
  6
CONTINUOUS
 62
     8
 10
253.1144503891
 20
285.2311853075
 30
0.0
 11
253.1144503891
 21
307.9311867932
 31
0.0
  0
LINE
  5
28E
  8
0
  6
CONTINUOUS
 62
     8
 10
253.1144503891
 20
307.9311867932
 30
0.0
 11
253.9144490301
 21
307.9311867932
 31
0.0
  0
LINE
  5
28F
  8
0
  6
CONTINUOUS
 62
     8
 10
245.7144443332
 20
307.9311867932
 30
0.0
 11
245.7144443332
 21
308.7311854342
 31
0.0
  0
LINE
  5
290
  8
0
  6
CONTINUOUS
 62
     8
 10
253.1144503891
 20
307.9311867932
 30
0.0
 11
253.1144503891
 21
308.7311854342
 31
0.0
  0
LINE
  5
291
  8
0
  6
CONTINUOUS
 62
     8
 10
253.1144503891
 20
307.9311867932
 30
0.0
 11
245.7144443332
 21
307.9311867932
 31
0.0
  0
LINE
  5
292
  8
0
  6
CONTINUOUS
 62
     8
 10
111.3144491254
 20
307.9311867932
 30
0.0
 11
110.5144504844
 21
307.9311867932
 31
0.0
  0
LINE
  5
293
  8
0
  6
CONTINUOUS
 62
     8
 10
103.1144444286
 20
307.9311867932
 30
0.0
 11
103.1144444286
 21
285.2311853075
 31
0.0
  0
LINE
  5
294
  8
0
  6
CONTINUOUS
 62
     8
 10
103.1144444286
 20
307.9311867932
 30
0.0
 11
102.3144457876
 21
307.9311867932
 31
0.0
  0
LINE
  5
295
  8
0
  6
CONTINUOUS
 62
     8
 10
110.5144504844
 20
285.2311853075
 30
0.0
 11
110.5144504844
 21
307.9311867932
 31
0.0
  0
LINE
  5
296
  8
0
  6
CONTINUOUS
 62
     8
 10
245.7144443332
 20
262.2311852628
 30
0.0
 11
245.7144443332
 21
239.5311837772
 31
0.0
  0
LINE
  5
297
  8
0
  6
CONTINUOUS
 62
     8
 10
245.7144443332
 20
239.5311837772
 30
0.0
 11
244.9144456922
 21
239.5311837772
 31
0.0
  0
LINE
  5
298
  8
0
  6
CONTINUOUS
 62
     8
 10
103.1144444286
 20
262.2311852628
 30
0.0
 11
103.1144444286
 21
239.5311837772
 31
0.0
  0
LINE
  5
299
  8
0
  6
CONTINUOUS
 62
     8
 10
103.1144444286
 20
239.5311837772
 30
0.0
 11
102.3144457876
 21
239.5311837772
 31
0.0
  0
LINE
  5
29A
  8
0
  6
CONTINUOUS
 62
     8
 10
110.5144504844
 20
239.5311837772
 30
0.0
 11
110.5144504844
 21
262.2311852628
 31
0.0
  0
LINE
  5
29B
  8
0
  6
CONTINUOUS
 62
     8
 10
103.1144444286
 20
239.5311837772
 30
0.0
 11
110.5144504844
 21
239.5311837772
 31
0.0
  0
LINE
  5
29C
  8
0
  6
CONTINUOUS
 62
     8
 10
253.9144490301
 20
239.5311837772
 30
0.0
 11
253.1144503891
 21
239.5311837772
 31
0.0
  0
LINE
  5
29D
  8
0
  6
CONTINUOUS
 62
     8
 10
253.1144503891
 20
239.5311837772
 30
0.0
 11
253.1144503891
 21
262.2311852628
 31
0.0
  0
LINE
  5
29E
  8
0
  6
CONTINUOUS
 62
     8
 10
245.7144443332
 20
239.5311837772
 30
0.0
 11
253.1144503891
 21
239.5311837772
 31
0.0
  0
LINE
  5
29F
  8
0
  6
CONTINUOUS
 62
     8
 10
110.5144504844
 20
239.5311837772
 30
0.0
 11
111.3144491254
 21
239.5311837772
 31
0.0
  0
LINE
  5
2A0
  8
0
  6
CONTINUOUS
 62
     8
 10
103.1144444286
 20
239.5311837772
 30
0.0
 11
103.1144444286
 21
238.7311851362
 31
0.0
  0
LINE
  5
2A1
  8
0
  6
CONTINUOUS
 62
     8
 10
110.5144504844
 20
239.5311837772
 30
0.0
 11
110.5144504844
 21
238.7311851362
 31
0.0
  0
LINE
  5
2A2
  8
0
  6
CONTINUOUS
 62
     8
 10
245.7144443332
 20
238.7311851362
 30
0.0
 11
245.7144443332
 21
239.5311837772
 31
0.0
  0
LINE
  5
2A3
  8
0
  6
CONTINUOUS
 62
     8
 10
253.1144503891
 20
238.7311851362
 30
0.0
 11
253.1144503891
 21
239.5311837772
 31
0.0
  0
LINE
  5
2A4
  8
0
  6
CONTINUOUS
 62
     8
 10
180.764447331
 20
315.2893280366
 30
0.0
 11
180.364447312
 21
315.2893280366
 31
0.0
  0
LINE
  5
2A5
  8
0
  6
CONTINUOUS
 62
     8
 10
180.364447312
 20
315.2893280366
 30
0.0
 11
180.364447312
 21
315.6893310824
 31
0.0
  0
LINE
  5
2A6
  8
0
  6
CONTINUOUS
 62
     8
 10
175.8644475057
 20
315.6893310824
 30
0.0
 11
175.8644475057
 21
315.2893280366
 31
0.0
  0
LINE
  5
2A7
  8
0
  6
CONTINUOUS
 62
     8
 10
180.364447312
 20
315.2893280366
 30
0.0
 11
175.8644475057
 21
315.2893280366
 31
0.0
  0
LINE
  5
2A8
  8
0
  6
CONTINUOUS
 62
     8
 10
175.8644475057
 20
315.2893280366
 30
0.0
 11
175.4644474867
 21
315.2893280366
 31
0.0
  0
LINE
  5
2A9
  8
0
  6
CONTINUOUS
 62
     8
 10
180.364447312
 20
292.5106772909
 30
0.0
 11
180.764447331
 21
292.5106772909
 31
0.0
  0
LINE
  5
2AA
  8
0
  6
CONTINUOUS
 62
     8
 10
180.364447312
 20
292.5106772909
 30
0.0
 11
180.364447312
 21
315.2893280366
 31
0.0
  0
ARC
  5
2AB
  8
0
  6
CONTINUOUS
 62
     8
 10
178.1144474088
 20
273.9465316595
 30
0.0
 40
18.69999999999992
 50
83.0893795767
 51
96.9106204233
  0
LINE
  5
2AC
  8
0
  6
CONTINUOUS
 62
     8
 10
175.8644475057
 20
315.2893280366
 30
0.0
 11
175.8644475057
 21
292.5106772909
 31
0.0
  0
LINE
  5
2AD
  8
0
  6
CONTINUOUS
 62
     8
 10
175.4644474867
 20
292.5106772909
 30
0.0
 11
175.8644475057
 21
292.5106772909
 31
0.0
  0
POLYLINE
  5
2AE
  8
0
  6
CONTINUOUS
 62
     8
 66
     1
 10
0.0
 20
0.0
 30
0.0
 70
   128
  0
VERTEX
  5
3D5
  8
0
  6
CONTINUOUS
 62
     8
 10
180.3163191225
 20
292.1135836968
 30
0.0
  0
VERTEX
  5
3D6
  8
0
  6
CONTINUOUS
 62
     8
 10
180.3172439258
 20
292.1212130913
 30
0.0
  0
VERTEX
  5
3D7
  8
0
  6
CONTINUOUS
 62
     8
 10
180.3199827126
 20
292.1438107023
 30
0.0
  0
VERTEX
  5
3D8
  8
0
  6
CONTINUOUS
 62
     8
 10
180.3244302436
 20
292.1805048117
 30
0.0
  0
VERTEX
  5
3D9
  8
0
  6
CONTINUOUS
 62
     8
 10
180.3304156209
 20
292.2298891226
 30
0.0
  0
VERTEX
  5
3DA
  8
0
  6
CONTINUOUS
 62
     8
 10
180.337708808
 20
292.2900637368
 30
0.0
  0
VERTEX
  5
3DB
  8
0
  6
CONTINUOUS
 62
     8
 10
180.3460294767
 20
292.358715249
 30
0.0
  0
VERTEX
  5
3DC
  8
0
  6
CONTINUOUS
 62
     8
 10
180.3550579506
 20
292.4332080165
 30
0.0
  0
VERTEX
  5
3DD
  8
0
  6
CONTINUOUS
 62
     8
 10
180.364447312
 20
292.5106772909
 30
0.0
  0
SEQEND
  5
3FB
  8
0
  6
CONTINUOUS
 62
     8
  0
POLYLINE
  5
2AF
  8
0
  6
CONTINUOUS
 62
     8
 66
     1
 10
0.0
 20
0.0
 30
0.0
 70
   128
  0
VERTEX
  5
3DE
  8
0
  6
CONTINUOUS
 62
     8
 10
175.8644475057
 20
292.5106772909
 30
0.0
  0
VERTEX
  5
3DF
  8
0
  6
CONTINUOUS
 62
     8
 10
175.8738368671
 20
292.4332080165
 30
0.0
  0
VERTEX
  5
3E0
  8
0
  6
CONTINUOUS
 62
     8
 10
175.8828653409
 20
292.358715249
 30
0.0
  0
VERTEX
  5
3E1
  8
0
  6
CONTINUOUS
 62
     8
 10
175.8911860096
 20
292.2900637368
 30
0.0
  0
VERTEX
  5
3E2
  8
0
  6
CONTINUOUS
 62
     8
 10
175.8984791967
 20
292.2298891226
 30
0.0
  0
VERTEX
  5
3E3
  8
0
  6
CONTINUOUS
 62
     8
 10
175.9044645741
 20
292.1805048117
 30
0.0
  0
VERTEX
  5
3E4
  8
0
  6
CONTINUOUS
 62
     8
 10
175.908912105
 20
292.1438107023
 30
0.0
  0
VERTEX
  5
3E5
  8
0
  6
CONTINUOUS
 62
     8
 10
175.9116508919
 20
292.1212130913
 30
0.0
  0
VERTEX
  5
3E6
  8
0
  6
CONTINUOUS
 62
     8
 10
175.9125756952
 20
292.1135836968
 30
0.0
  0
SEQEND
  5
3FC
  8
0
  6
CONTINUOUS
 62
     8
  0
ARC
  5
2B0
  8
0
  6
CONTINUOUS
 62
     8
 10
178.1144474088
 20
273.7311852852
 30
0.0
 40
22.99999999999999
 50
220.705706831
 51
244.2285382594
  0
ARC
  5
2B1
  8
0
  6
CONTINUOUS
 62
     8
 10
178.1144474088
 20
273.7311852852
 30
0.0
 40
23.0
 50
295.7714617406
 51
319.294293169
  0
ARC
  5
2B2
  8
0
  6
CONTINUOUS
 62
     8
 10
178.1144474088
 20
273.7311852852
 30
0.0
 40
23.00000000000001
 50
40.705706831
 51
83.3838359994
  0
ARC
  5
2B3
  8
0
  6
CONTINUOUS
 62
     8
 10
178.1144474088
 20
273.7311852852
 30
0.0
 40
23.00000000000001
 50
96.6161640006
 51
139.294293169
  0
ARC
  5
2B4
  8
0
  6
CONTINUOUS
 62
     8
 10
178.1144474088
 20
273.7311852852
 30
0.0
 40
23.8
 50
96.3928280804
 51
140.9312754713
  0
ARC
  5
2B5
  8
0
  6
CONTINUOUS
 62
     8
 10
178.1144474088
 20
273.7311852852
 30
0.0
 40
23.8
 50
39.0687245287
 51
83.6071719196
  0
ARC
  5
2B6
  8
0
  6
CONTINUOUS
 62
     8
 10
178.1144474088
 20
273.7311852852
 30
0.0
 40
23.8
 50
294.8451987291
 51
320.9312754713
  0
ARC
  5
2B7
  8
0
  6
CONTINUOUS
 62
     8
 10
178.1144474088
 20
273.7311852852
 30
0.0
 40
23.80000000000003
 50
219.0687245287
 51
245.1548012709
  0
ARC
  5
2B8
  8
0
  6
CONTINUOUS
 62
     8
 10
178.1144474088
 20
273.7311852852
 30
0.0
 40
27.9
 50
212.5227475254
 51
248.99662514
  0
ARC
  5
2B9
  8
0
  6
CONTINUOUS
 62
     8
 10
178.1144474088
 20
273.7311852852
 30
0.0
 40
27.9
 50
291.00337486
 51
327.4772524746
  0
ARC
  5
2BA
  8
0
  6
CONTINUOUS
 62
     8
 10
178.1144474088
 20
273.7311852852
 30
0.0
 40
27.90000000000003
 50
32.5227475254
 51
84.5497116578
  0
ARC
  5
2BB
  8
0
  6
CONTINUOUS
 62
     8
 10
178.1144474088
 20
273.7311852852
 30
0.0
 40
27.90000000000003
 50
95.4502883422
 51
147.4772524746
  0
ENDSEC
  0
EOF
