  0
SECTION
  2
HEADER
  9
$ACADVER
  1
AC1015
  9
$ACADMAINTVER
 70
     6
  9
$DWGCODEPAGE
  3
ANSI_1252
  9
$INSBASE
 10
0.0
 20
0.0
 30
0.0
  9
$EXTMIN
 10
0.0
 20
0.0
 30
0.0
  9
$EXTMAX
 10
594.0
 20
841.0
 30
0.0
  9
$LIMMIN
 10
0.0
 20
0.0
  9
$LIMMAX
 10
594.0
 20
841.0
  9
$ORTHOMODE
 70
     0
  9
$REGENMODE
 70
     1
  9
$FILLMODE
 70
     1
  9
$QTEXTMODE
 70
     0
  9
$MIRRTEXT
 70
     1
  9
$LTSCALE
 40
1.0
  9
$ATTMODE
 70
     1
  9
$TEXTSIZE
 40
10.0
  9
$TRACEWID
 40
1.0
  9
$TEXTSTYLE
  7
Standard
  9
$CLAYER
  8
0
  9
$CELTYPE
  6
ByLayer
  9
$CECOLOR
 62
   256
  9
$CELTSCALE
 40
1.0
  9
$DISPSILH
 70
     0
  9
$DIMSCALE
 40
1.0
  9
$DIMASZ
 40
2.5
  9
$DIMEXO
 40
0.0
  9
$DIMDLI
 40
3.75
  9
$DIMRND
 40
0.0
  9
$DIMDLE
 40
0.0
  9
$DIMEXE
 40
1.0
  9
$DIMTP
 40
0.0
  9
$DIMTM
 40
0.0
  9
$DIMTXT
 40
3.5
  9
$DIMCEN
 40
2.5
  9
$DIMTSZ
 40
0.0
  9
$DIMTOL
 70
     0
  9
$DIMLIM
 70
     0
  9
$DIMTIH
 70
     1
  9
$DIMTOH
 70
     1
  9
$DIMSE1
 70
     0
  9
$DIMSE2
 70
     0
  9
$DIMTAD
 70
     1
  9
$DIMZIN
 70
     0
  9
$DIMBLK
  1

  9
$DIMASO
 70
     1
  9
$DIMSHO
 70
     1
  9
$DIMPOST
  1

  9
$DIMAPOST
  1

  9
$DIMALT
 70
     0
  9
$DIMALTD
 70
     3
  9
$DIMALTF
 40
0.0393700787
  9
$DIMLFAC
 40
1.0
  9
$DIMTOFL
 70
     1
  9
$DIMTVP
 40
0.0
  9
$DIMTIX
 70
     0
  9
$DIMSOXD
 70
     0
  9
$DIMSAH
 70
     0
  9
$DIMBLK1
  1

  9
$DIMBLK2
  1

  9
$DIMSTYLE
  2
ISO-25
  9
$DIMCLRD
 70
     0
  9
$DIMCLRE
 70
     0
  9
$DIMCLRT
 70
     0
  9
$DIMTFAC
 40
1.0
  9
$DIMGAP
 40
1.5
  9
$DIMJUST
 70
     0
  9
$DIMSD1
 70
     0
  9
$DIMSD2
 70
     0
  9
$DIMTOLJ
 70
     0
  9
$DIMTZIN
 70
     0
  9
$DIMALTZ
 70
     0
  9
$DIMALTTZ
 70
     0
  9
$DIMUPT
 70
     0
  9
$DIMDEC
 70
     2
  9
$DIMTDEC
 70
     2
  9
$DIMALTU
 70
     2
  9
$DIMALTTD
 70
     3
  9
$DIMTXSTY
  7
Standard
  9
$DIMAUNIT
 70
     0
  9
$DIMADEC
 70
     2
  9
$DIMALTRND
 40
0.0
  9
$DIMAZIN
 70
     0
  9
$DIMDSEP
 70
    44
  9
$DIMATFIT
 70
     3
  9
$DIMFRAC
 70
     0
  9
$DIMLDRBLK
  1

  9
$DIMLUNIT
 70
     2
  9
$DIMLWD
 70
    -2
  9
$DIMLWE
 70
    -2
  9
$DIMTMOVE
 70
     0
  9
$LUNITS
 70
     2
  9
$LUPREC
 70
     2
  9
$SKETCHINC
 40
1.0
  9
$FILLETRAD
 40
10.0
  9
$AUNITS
 70
     0
  9
$AUPREC
 70
     2
  9
$MENU
  1
.
  9
$ELEVATION
 40
0.0
  9
$PELEVATION
 40
0.0
  9
$THICKNESS
 40
0.0
  9
$LIMCHECK
 70
     0
  9
$CHAMFERA
 40
0.0
  9
$CHAMFERB
 40
0.0
  9
$CHAMFERC
 40
0.0
  9
$CHAMFERD
 40
0.0
  9
$SKPOLY
 70
     0
  9
$TDCREATE
 40
2458082.344665833
  9
$TDUCREATE
 40
2458082.302999167
  9
$TDUPDATE
 40
2458082.344666736
  9
$TDUUPDATE
 40
2458082.303000069
  9
$TDINDWG
 40
0.0000000116
  9
$TDUSRTIMER
 40
0.0000000116
  9
$USRTIMER
 70
     1
  9
$ANGBASE
 50
0.0
  9
$ANGDIR
 70
     0
  9
$PDMODE
 70
     0
  9
$PDSIZE
 40
-1.0
  9
$PLINEWID
 40
0.0
  9
$SPLFRAME
 70
     0
  9
$SPLINETYPE
 70
     6
  9
$SPLINESEGS
 70
     8
  9
$HANDSEED
  5
1D8
  9
$SURFTAB1
 70
     6
  9
$SURFTAB2
 70
     6
  9
$SURFTYPE
 70
     6
  9
$SURFU
 70
     6
  9
$SURFV
 70
     6
  9
$UCSBASE
  2

  9
$UCSNAME
  2

  9
$UCSORG
 10
0.0
 20
0.0
 30
0.0
  9
$UCSXDIR
 10
1.0
 20
0.0
 30
0.0
  9
$UCSYDIR
 10
0.0
 20
1.0
 30
0.0
  9
$UCSORTHOREF
  2

  9
$UCSORTHOVIEW
 70
     0
  9
$UCSORGTOP
 10
0.0
 20
0.0
 30
0.0
  9
$UCSORGBOTTOM
 10
0.0
 20
0.0
 30
0.0
  9
$UCSORGLEFT
 10
0.0
 20
0.0
 30
0.0
  9
$UCSORGRIGHT
 10
0.0
 20
0.0
 30
0.0
  9
$UCSORGFRONT
 10
0.0
 20
0.0
 30
0.0
  9
$UCSORGBACK
 10
0.0
 20
0.0
 30
0.0
  9
$PUCSBASE
  2

  9
$PUCSNAME
  2

  9
$PUCSORG
 10
0.0
 20
0.0
 30
0.0
  9
$PUCSXDIR
 10
1.0
 20
0.0
 30
0.0
  9
$PUCSYDIR
 10
0.0
 20
1.0
 30
0.0
  9
$PUCSORTHOREF
  2

  9
$PUCSORTHOVIEW
 70
     0
  9
$PUCSORGTOP
 10
0.0
 20
0.0
 30
0.0
  9
$PUCSORGBOTTOM
 10
0.0
 20
0.0
 30
0.0
  9
$PUCSORGLEFT
 10
0.0
 20
0.0
 30
0.0
  9
$PUCSORGRIGHT
 10
0.0
 20
0.0
 30
0.0
  9
$PUCSORGFRONT
 10
0.0
 20
0.0
 30
0.0
  9
$PUCSORGBACK
 10
0.0
 20
0.0
 30
0.0
  9
$USERI1
 70
     0
  9
$USERI2
 70
     0
  9
$USERI3
 70
     0
  9
$USERI4
 70
     0
  9
$USERI5
 70
     0
  9
$USERR1
 40
0.0
  9
$USERR2
 40
0.0
  9
$USERR3
 40
0.0
  9
$USERR4
 40
0.0
  9
$USERR5
 40
0.0
  9
$WORLDVIEW
 70
     1
  9
$SHADEDGE
 70
     3
  9
$SHADEDIF
 70
    70
  9
$TILEMODE
 70
     1
  9
$MAXACTVP
 70
    64
  9
$PINSBASE
 10
0.0
 20
0.0
 30
0.0
  9
$PLIMCHECK
 70
     0
  9
$PEXTMIN
 10
1.0000000000E+20
 20
1.0000000000E+20
 30
1.0000000000E+20
  9
$PEXTMAX
 10
-1.0000000000E+20
 20
-1.0000000000E+20
 30
-1.0000000000E+20
  9
$PLIMMIN
 10
0.0
 20
0.0
  9
$PLIMMAX
 10
420.0
 20
297.0
  9
$UNITMODE
 70
     0
  9
$VISRETAIN
 70
     1
  9
$PLINEGEN
 70
     0
  9
$PSLTSCALE
 70
     1
  9
$TREEDEPTH
 70
  3020
  9
$CMLSTYLE
  2
Standard
  9
$CMLJUST
 70
     0
  9
$CMLSCALE
 40
20.0
  9
$PROXYGRAPHICS
 70
     1
  9
$MEASUREMENT
 70
     1
  9
$CELWEIGHT
370
    -1
  9
$ENDCAPS
280
     0
  9
$JOINSTYLE
280
     0
  9
$LWDISPLAY
290
     1
  9
$INSUNITS
 70
     4
  9
$HYPERLINKBASE
  1

  9
$STYLESHEET
  1

  9
$XEDIT
290
     1
  9
$CEPSNTYPE
380
     0
  9
$PSTYLEMODE
290
     1
  9
$FINGERPRINTGUID
  2
{90B72135-60C0-4219-B48A-D241BEC4FF4D}
  9
$VERSIONGUID
  2
{FAEB1C32-E019-11D5-929B-00C0DF256EC4}
  9
$EXTNAMES
290
     1
  9
$PSVPSCALE
 40
0.0
  9
$OLESTARTUP
290
     0
  0
ENDSEC
  0
SECTION
  2
CLASSES
  0
CLASS
  1
ACDBDICTIONARYWDFLT
  2
AcDbDictionaryWithDefault
  3
ObjectDBX Classes
 90
        0
280
     0
281
     0
  0
CLASS
  1
VISUALSTYLE
  2
AcDbVisualStyle
  3
ObjectDBX Classes
 90
     4095
280
     0
281
     0
  0
CLASS
  1
MATERIAL
  2
AcDbMaterial
  3
ObjectDBX Classes
 90
     1153
280
     0
281
     0
  0
CLASS
  1
SCALE
  2
AcDbScale
  3
ObjectDBX Classes
 90
     1153
280
     0
281
     0
  0
CLASS
  1
TABLESTYLE
  2
AcDbTableStyle
  3
ObjectDBX Classes
 90
     4095
280
     0
281
     0
  0
CLASS
  1
MLEADERSTYLE
  2
AcDbMLeaderStyle
  3
ACDB_MLEADERSTYLE_CLASS
 90
     4095
280
     0
281
     0
  0
CLASS
  1
SUN
  2
AcDbSun
  3
SCENEOE
 90
     1153
280
     0
281
     0
  0
CLASS
  1
ACDBPLACEHOLDER
  2
AcDbPlaceHolder
  3
ObjectDBX Classes
 90
        0
280
     0
281
     0
  0
CLASS
  1
LAYOUT
  2
AcDbLayout
  3
ObjectDBX Classes
 90
        0
280
     0
281
     0
  0
ENDSEC
  0
SECTION
  2
TABLES
  0
TABLE
  2
VPORT
  5
8
330
0
100
AcDbSymbolTable
 70
     1
  0
VPORT
  5
29
330
8
100
AcDbSymbolTableRecord
100
AcDbViewportTableRecord
  2
*Active
 70
     0
 10
0.0
 20
0.0
 11
1.0
 21
1.0
 12
297.0
 22
420.5
 13
0.0
 23
0.0
 14
10.0
 24
10.0
 15
10.0
 25
10.0
 16
0.0
 26
0.0
 36
1.0
 17
0.0
 27
0.0
 37
0.0
 40
841.0
 41
0.7063020214
 42
50.0
 43
0.0
 44
0.0
 50
0.0
 51
0.0
 71
     0
 72
  2000
 73
     1
 74
     3
 75
     0
 76
     0
 77
     0
 78
     0
281
     0
 65
     1
110
0.0
120
0.0
130
0.0
111
1.0
121
0.0
131
0.0
112
0.0
122
1.0
132
0.0
 79
     0
146
0.0
  0
ENDTAB
  0
TABLE
  2
LTYPE
  5
5
330
0
100
AcDbSymbolTable
 70
     6
  0
LTYPE
  5
14
330
5
100
AcDbSymbolTableRecord
100
AcDbLinetypeTableRecord
  2
ByBlock
 70
     0
  3

 72
    65
 73
     0
 40
0.0
  0
LTYPE
  5
15
330
5
100
AcDbSymbolTableRecord
100
AcDbLinetypeTableRecord
  2
ByLayer
 70
     0
  3

 72
    65
 73
     0
 40
0.0
  0
LTYPE
  5
16
330
5
100
AcDbSymbolTableRecord
100
AcDbLinetypeTableRecord
  2
Continuous
 70
     0
  3
Solid line
 72
    65
 73
     0
 40
0.0
  0
LTYPE
  5
6E
330
5
100
AcDbSymbolTableRecord
100
AcDbLinetypeTableRecord
  2
HIDDEN
 70
     0
  3
Hidden __ __ __ __ __ __ __ __ __ __ __ __ __ __
 72
    65
 73
     2
 40
1.905
 49
1.27
 74
     0
 49
-0.635
 74
     0
  0
LTYPE
  5
6F
330
5
100
AcDbSymbolTableRecord
100
AcDbLinetypeTableRecord
  2
PHANTOM
 70
     0
  3
Phantom ______  __  __  ______  __  __  ______
 72
    65
 73
     6
 40
12.7
 49
6.35
 74
     0
 49
-1.27
 74
     0
 49
1.27
 74
     0
 49
-1.27
 74
     0
 49
1.27
 74
     0
 49
-1.27
 74
     0
  0
LTYPE
  5
70
330
5
100
AcDbSymbolTableRecord
100
AcDbLinetypeTableRecord
  2
CENTER
 70
     0
  3
Center ____ _ ____ _ ____ _ ____ _ ____ _ ____
 72
    65
 73
     4
 40
10.16
 49
6.35
 74
     0
 49
-1.27
 74
     0
 49
1.27
 74
     0
 49
-1.27
 74
     0
  0
LTYPE
  5
71
330
5
100
AcDbSymbolTableRecord
100
AcDbLinetypeTableRecord
  2
CENTERX2
 70
     0
  3
Center (2x) ________  __  ________  __  _____
 72
    65
 73
     4
 40
20.32
 49
12.7
 74
     0
 49
-2.54
 74
     0
 49
2.54
 74
     0
 49
-2.54
 74
     0
  0
LTYPE
  5
72
330
5
100
AcDbSymbolTableRecord
100
AcDbLinetypeTableRecord
  2
DOT2
 70
     0
  3
Dot (.5x) ........................................
 72
    65
 73
     2
 40
0.635
 49
0.0
 74
     0
 49
-0.635
 74
     0
  0
ENDTAB
  0
TABLE
  2
LAYER
  5
2
330
0
100
AcDbSymbolTable
 70
     1
  0
LAYER
  5
10
330
2
100
AcDbSymbolTableRecord
100
AcDbLayerTableRecord
  2
0
 70
     0
 62
     7
  6
Continuous
370
    -3
390
F
  0
ENDTAB
  0
TABLE
  2
STYLE
  5
3
330
0
100
AcDbSymbolTable
 70
     3
  0
STYLE
  5
11
330
3
100
AcDbSymbolTableRecord
100
AcDbTextStyleTableRecord
  2
Standard
 70
     0
 40
0.0
 41
1.0
 50
0.0
 71
     0
 42
10.0
  3
txt
  4

  0
STYLE
  5
76
330
3
100
AcDbSymbolTableRecord
100
AcDbTextStyleTableRecord
  2
SLDTEXTSTYLE0
 70
     0
 40
0.0
 41
0.96
 50
0.0
 71
     0
 42
10.0
  3
ISOCP3
  4

  0
STYLE
  5
8D
330
3
100
AcDbSymbolTableRecord
100
AcDbTextStyleTableRecord
  2
SLDTEXTSTYLE1
 70
     0
 40
0.0
 41
0.605
 50
0.0
 71
     0
 42
10.0
  3
TXT
  4

  0
ENDTAB
  0
TABLE
  2
VIEW
  5
6
330
0
100
AcDbSymbolTable
 70
     0
  0
ENDTAB
  0
TABLE
  2
UCS
  5
7
330
0
100
AcDbSymbolTable
 70
     0
  0
ENDTAB
  0
TABLE
  2
APPID
  5
9
330
0
100
AcDbSymbolTable
 70
     1
  0
APPID
  5
12
330
9
100
AcDbSymbolTableRecord
100
AcDbRegAppTableRecord
  2
ACAD
 70
     0
  0
ENDTAB
  0
TABLE
  2
DIMSTYLE
  5
A
330
0
100
AcDbSymbolTable
 70
     2
100
AcDbDimStyleTable
  0
DIMSTYLE
105
27
330
A
100
AcDbSymbolTableRecord
100
AcDbDimStyleTableRecord
  2
ISO-25
 70
     0
 41
2.5
 42
0.625
 43
3.75
 44
1.25
 73
     0
 74
     0
 77
     1
 78
     8
140
2.5
141
2.5
143
0.0393700787
147
0.625
171
     3
172
     1
178
     0
271
     2
272
     2
274
     3
278
    44
283
     0
284
     8
340
11
  0
DIMSTYLE
105
77
102
{ACAD_REACTORS
330
75
330
82
102
}
330
A
100
AcDbSymbolTableRecord
100
AcDbDimStyleTableRecord
  2
SLDDIMSTYLE0
 70
     0
 41
2.5
 44
0.0
 45
0.000000001
 73
     0
 74
     0
 77
     1
 78
    12
 79
     3
140
6.0
147
1.5
173
     1
178
     0
271
     2
272
     2
276
     2
284
    12
340
76
  0
ENDTAB
  0
TABLE
  2
BLOCK_RECORD
  5
1
330
0
100
AcDbSymbolTable
 70
     3
  0
BLOCK_RECORD
  5
1F
330
1
100
AcDbSymbolTableRecord
100
AcDbBlockTableRecord
  2
*Model_Space
340
22
  0
BLOCK_RECORD
  5
1B
330
1
100
AcDbSymbolTableRecord
100
AcDbBlockTableRecord
  2
*Paper_Space
340
1E
  0
BLOCK_RECORD
  5
23
330
1
100
AcDbSymbolTableRecord
100
AcDbBlockTableRecord
  2
*Paper_Space0
340
26
  0
BLOCK_RECORD
  5
78
330
1
100
AcDbSymbolTableRecord
100
AcDbBlockTableRecord
  2
_D
340
0
  0
BLOCK_RECORD
  5
83
330
1
100
AcDbSymbolTableRecord
100
AcDbBlockTableRecord
  2
_D_1
340
0
  0
ENDTAB
  0
ENDSEC
  0
SECTION
  2
BLOCKS
  0
BLOCK
  5
20
330
1F
100
AcDbEntity
  8
0
100
AcDbBlockBegin
  2
*Model_Space
 70
     0
 10
0.0
 20
0.0
 30
0.0
  3
*Model_Space
  1

  0
ENDBLK
  5
21
330
1F
100
AcDbEntity
  8
0
100
AcDbBlockEnd
  0
BLOCK
  5
1C
330
1B
100
AcDbEntity
 67
     1
  8
0
100
AcDbBlockBegin
  2
*Paper_Space
 70
     0
 10
0.0
 20
0.0
 30
0.0
  3
*Paper_Space
  1

  0
ENDBLK
  5
1D
330
1B
100
AcDbEntity
 67
     1
  8
0
100
AcDbBlockEnd
  0
BLOCK
  5
24
330
23
100
AcDbEntity
  8
0
100
AcDbBlockBegin
  2
*Paper_Space0
 70
     0
 10
0.0
 20
0.0
 30
0.0
  3
*Paper_Space0
  1

  0
ENDBLK
  5
25
330
23
100
AcDbEntity
  8
0
100
AcDbBlockEnd
  0
BLOCK
  5
79
330
78
100
AcDbEntity
  8
0
100
AcDbBlockBegin
  2
_D
 70
     0
 10
0.0
 20
0.0
 30
0.0
  3
_D
  1

  0
SOLID
  5
7B
330
78
100
AcDbEntity
  8
0
  6
Continuous
 62
     7
370
    18
100
AcDbTrace
 10
42.7614395004
 20
152.0299240879
 30
0.0
 11
42.4614395004
 21
149.5299240879
 31
0.0
 12
43.0614395004
 22
149.5299240879
 32
0.0
 13
43.0614395004
 23
149.5299240879
 33
0.0
  0
SOLID
  5
7C
330
78
100
AcDbEntity
  8
0
  6
Continuous
 62
     7
370
    18
100
AcDbTrace
 10
42.7614395004
 20
52.0299240879
 30
0.0
 11
43.0614395004
 21
54.5299240879
 31
0.0
 12
42.4614395004
 22
54.5299240879
 32
0.0
 13
42.4614395004
 23
54.5299240879
 33
0.0
  0
LINE
  5
7D
330
78
100
AcDbEntity
  8
0
  6
Continuous
 62
     7
370
    18
100
AcDbLine
 10
56.6850079902
 20
152.0299240879
 30
0.0
 11
41.7614395004
 21
152.0299240879
 31
0.0
  0
LINE
  5
7E
330
78
100
AcDbEntity
  8
0
  6
Continuous
 62
     7
370
    18
100
AcDbLine
 10
56.6850079902
 20
52.0299240879
 30
0.0
 11
41.7614395004
 21
52.0299240879
 31
0.0
  0
LINE
  5
7F
330
78
100
AcDbEntity
  8
0
  6
Continuous
 62
     7
370
    18
100
AcDbLine
 10
42.7614395004
 20
152.0299240879
 30
0.0
 11
42.7614395004
 21
52.0299240879
 31
0.0
  0
MTEXT
  5
80
330
78
100
AcDbEntity
  8
0
  6
Continuous
 62
     7
370
    18
100
AcDbMText
 10
35.0270332946
 20
94.3680541463
 30
0.0
 40
6.0
 41
0.0
 71
     1
 72
     1
  1
100
  7
SLDTEXTSTYLE0
 11
-7.044195017643634E-15
 21
1.0
 31
0.0
 73
     1
 44
1.0
  0
MTEXT
  5
81
330
78
100
AcDbEntity
  8
0
  6
Continuous
 62
     7
370
    18
100
AcDbMText
 10
35.0270332946
 20
105.7430548466
 30
0.0
 40
6.0
 41
0.0
 71
     1
 72
     1
  1
mm
  7
SLDTEXTSTYLE0
 11
-7.044195017643634E-15
 21
1.0
 31
0.0
 73
     1
 44
1.0
  0
ENDBLK
  5
7A
330
78
100
AcDbEntity
  8
0
100
AcDbBlockEnd
  0
BLOCK
  5
84
330
83
100
AcDbEntity
  8
0
100
AcDbBlockBegin
  2
_D_1
 70
     0
 10
0.0
 20
0.0
 30
0.0
  3
_D_1
  1

  0
SOLID
  5
86
330
83
100
AcDbEntity
  8
0
  6
Continuous
 62
     7
370
    18
100
AcDbTrace
 10
56.6850079902
 20
38.4602342313
 30
0.0
 11
59.1850079902
 21
38.1602342313
 31
0.0
 12
59.1850079902
 22
38.7602342313
 32
0.0
 13
59.1850079902
 23
38.7602342313
 33
0.0
  0
SOLID
  5
87
330
83
100
AcDbEntity
  8
0
  6
Continuous
 62
     7
370
    18
100
AcDbTrace
 10
156.6850079902
 20
38.4602342313
 30
0.0
 11
154.1850079902
 21
38.7602342313
 31
0.0
 12
154.1850079902
 22
38.1602342313
 32
0.0
 13
154.1850079902
 23
38.1602342313
 33
0.0
  0
LINE
  5
88
330
83
100
AcDbEntity
  8
0
  6
Continuous
 62
     7
370
    18
100
AcDbLine
 10
56.6850079902
 20
52.0299240879
 30
0.0
 11
56.6850079902
 21
37.4602342313
 31
0.0
  0
LINE
  5
89
330
83
100
AcDbEntity
  8
0
  6
Continuous
 62
     7
370
    18
100
AcDbLine
 10
156.6850079902
 20
52.0299240879
 30
0.0
 11
156.6850079902
 21
37.4602342313
 31
0.0
  0
LINE
  5
8A
330
83
100
AcDbEntity
  8
0
  6
Continuous
 62
     7
370
    18
100
AcDbLine
 10
56.6850079902
 20
38.4602342313
 30
0.0
 11
156.6850079902
 21
38.4602342313
 31
0.0
  0
MTEXT
  5
8B
330
83
100
AcDbEntity
  8
0
  6
Continuous
 62
     7
370
    18
100
AcDbMText
 10
93.9626484861
 20
46.1946404371
 30
0.0
 40
6.0
 41
0.0
 71
     1
 72
     1
  1
100
  7
SLDTEXTSTYLE0
 73
     1
 44
1.0
  0
MTEXT
  5
8C
330
83
100
AcDbEntity
  8
0
  6
Continuous
 62
     7
370
    18
100
AcDbMText
 10
105.3376491864
 20
46.1946404371
 30
0.0
 40
6.0
 41
0.0
 71
     1
 72
     1
  1
mm
  7
SLDTEXTSTYLE0
 73
     1
 44
1.0
  0
ENDBLK
  5
85
330
83
100
AcDbEntity
  8
0
100
AcDbBlockEnd
  0
ENDSEC
  0
SECTION
  2
ENTITIES
  0
LINE
  5
73
330
1F
100
AcDbEntity
  8
0
  6
Continuous
 62
     7
370
    18
100
AcDbLine
 10
56.6850079902
 20
152.0299240879
 30
0.0
 11
56.6850079902
 21
52.0299240879
 31
0.0
  0
LINE
  5
74
330
1F
100
AcDbEntity
  8
0
  6
Continuous
 62
     7
370
    18
100
AcDbLine
 10
56.6850079902
 20
52.0299240879
 30
0.0
 11
156.6850079902
 21
52.0299240879
 31
0.0
  0
DIMENSION
  5
75
330
1F
100
AcDbEntity
  8
0
  6
Continuous
 62
     7
370
    18
100
AcDbDimension
  2
_D
 10
42.7614395004
 20
52.0299240879
 30
0.0
 11
42.7614395004
 21
105.4472211621
 31
0.0
 70
   160
  1
<>mm
 71
     2
 42
-1.0
  3
SLDDIMSTYLE0
100
AcDbAlignedDimension
 13
56.6850079902
 23
152.0299240879
 33
0.0
 14
56.6850079902
 24
52.0299240879
 34
0.0
 50
90.0
100
AcDbRotatedDimension
  0
DIMENSION
  5
82
330
1F
100
AcDbEntity
  8
0
  6
Continuous
 62
     7
370
    18
100
AcDbDimension
  2
_D_1
 10
156.6850079902
 20
38.4602342313
 30
0.0
 11
105.0418155019
 21
38.4602342313
 31
0.0
 70
   160
  1
<>mm
 71
     2
 42
-1.0
  3
SLDDIMSTYLE0
100
AcDbAlignedDimension
 13
56.6850079902
 23
52.0299240879
 33
0.0
 14
156.6850079902
 24
52.0299240879
 34
0.0
100
AcDbRotatedDimension
  0
MTEXT
  5
8E
330
1F
100
AcDbEntity
  8
0
  6
Continuous
 62
     7
370
     0
100
AcDbMText
 10
412.8252631579
 20
48.4342449499
 30
0.0
 40
10.0
 41
0.0
 71
     1
 72
     1
  1
KLUDI GmbH & Co KG
  7
SLDTEXTSTYLE1
 73
     1
 44
1.0
  0
MTEXT
  5
8F
330
1F
100
AcDbEntity
  8
0
  6
Continuous
 62
     7
370
     0
100
AcDbMText
 10
210.0873490389
 20
48.4342449499
 30
0.0
 40
10.0
 41
0.0
 71
     1
 72
     1
  1
46 803 05 78
  7
SLDTEXTSTYLE1
 73
     1
 44
1.0
  0
LINE
  5
90
330
1F
100
AcDbEntity
  8
0
  6
Continuous
 62
     7
370
    25
100
AcDbLine
 10
298.7122804655
 20
410.8901743154
 30
0.0
 11
298.7122804655
 21
407.7009010058
 31
0.0
  0
LINE
  5
91
330
1F
100
AcDbEntity
  8
0
  6
Continuous
 62
     7
370
    25
100
AcDbLine
 10
348.7122812105
 20
407.7009010058
 30
0.0
 11
348.7122812105
 21
410.8901743154
 31
0.0
  0
ARC
  5
92
330
1F
100
AcDbEntity
  8
0
  6
Continuous
 62
     7
370
    25
100
AcDbCircle
 10
347.712280838
 20
410.8901743723
 30
0.0
 40
1.000000000000032
100
AcDbArc
 50
0.0
 51
63.5200440425
  0
ARC
  5
93
330
1F
100
AcDbEntity
  8
0
  6
Continuous
 62
     7
370
    25
100
AcDbCircle
 10
299.712280838
 20
410.8901743723
 30
0.0
 40
1.0
100
AcDbArc
 50
116.4799559575
 51
180.0
  0
ARC
  5
94
330
1F
100
AcDbEntity
  8
0
  6
Continuous
 62
     7
370
    25
100
AcDbCircle
 10
298.912280838
 20
407.7009010109
 30
0.0
 40
0.1999999999999886
100
AcDbArc
 50
180.0
 51
270.0
  0
ARC
  5
95
330
1F
100
AcDbEntity
  8
0
  6
Continuous
 62
     7
370
    25
100
AcDbCircle
 10
348.512280838
 20
407.7009010109
 30
0.0
 40
0.1999999999999886
100
AcDbArc
 50
270.0
 51
0.0
  0
ARC
  5
96
330
1F
100
AcDbEntity
  8
0
  6
Continuous
 62
     7
370
    25
100
AcDbCircle
 10
310.8593985096
 20
388.5129143163
 30
0.0
 40
25.99999999999999
100
AcDbArc
 50
104.6430576274
 51
116.4799559575
  0
ARC
  5
97
330
1F
100
AcDbEntity
  8
0
  6
Continuous
 62
     7
370
    25
100
AcDbCircle
 10
336.5651631664
 20
388.5129143163
 30
0.0
 40
26.00000000000006
100
AcDbArc
 50
63.5200440425
 51
75.3569423726
  0
ARC
  5
98
330
1F
100
AcDbEntity
  8
0
  6
Continuous
 62
     7
370
    25
100
AcDbCircle
 10
342.8850761136
 20
412.7009010109
 30
0.0
 40
1.0
100
AcDbArc
 50
75.3569423726
 51
90.0
  0
ARC
  5
99
330
1F
100
AcDbEntity
  8
0
  6
Continuous
 62
     7
370
    25
100
AcDbCircle
 10
304.5394855623
 20
412.7009010109
 30
0.0
 40
1.000000000000019
100
AcDbArc
 50
90.0
 51
104.6430576274
  0
ARC
  5
9A
330
1F
100
AcDbEntity
  8
0
  6
Continuous
 62
     7
370
    25
100
AcDbCircle
 10
306.712280838
 20
506.9927230529
 30
0.0
 40
1.0
100
AcDbArc
 50
125.6847825153
 51
180.0
  0
ARC
  5
9B
330
1F
100
AcDbEntity
  8
0
  6
Continuous
 62
     7
370
    25
100
AcDbCircle
 10
340.712280838
 20
506.9927230529
 30
0.0
 40
1.0
100
AcDbArc
 50
0.0
 51
54.3152174847
  0
ARC
  5
9C
330
1F
100
AcDbEntity
  8
0
  6
Continuous
 62
     7
370
    25
100
AcDbCircle
 10
341.512280838
 20
413.9009010109
 30
0.0
 40
0.1999999999999886
100
AcDbArc
 50
270.0
 51
0.0
  0
ARC
  5
9D
330
1F
100
AcDbEntity
  8
0
  6
Continuous
 62
     7
370
    25
100
AcDbCircle
 10
305.912280838
 20
413.9009010109
 30
0.0
 40
0.2000000000000455
100
AcDbArc
 50
180.0
 51
270.0
  0
LINE
  5
9E
330
1F
100
AcDbEntity
  8
0
  6
Continuous
 62
     7
370
    25
100
AcDbLine
 10
341.7122800631
 20
413.9009008492
 30
0.0
 11
341.7122800631
 21
506.9927207502
 31
0.0
  0
LINE
  5
9F
330
1F
100
AcDbEntity
  8
0
  6
Continuous
 62
     7
370
    25
100
AcDbLine
 10
305.7122816128
 20
506.9927207502
 30
0.0
 11
305.7122816128
 21
413.9009008492
 31
0.0
  0
ARC
  5
A0
330
1F
100
AcDbEntity
  8
0
  6
Continuous
 62
     7
370
    25
100
AcDbCircle
 10
325.9620225122
 20
480.188853081
 30
0.0
 40
34.00000000000001
100
AcDbArc
 50
112.9357270896
 51
125.6847825153
  0
ARC
  5
A1
330
1F
100
AcDbEntity
  8
0
  6
Continuous
 62
     7
370
    25
100
AcDbCircle
 10
321.4625391637
 20
480.188853081
 30
0.0
 40
33.99999999999997
100
AcDbArc
 50
54.3152174847
 51
67.0642729104
  0
ARC
  5
A2
330
1F
100
AcDbEntity
  8
0
  6
Continuous
 62
     7
370
    25
100
AcDbCircle
 10
421.712280838
 20
635.9870027692
 30
0.0
 40
87.0
100
AcDbArc
 50
90.0
 51
180.0
  0
ARC
  5
A3
330
1F
100
AcDbEntity
  8
0
  6
Continuous
 62
     7
370
    25
100
AcDbCircle
 10
421.712280838
 20
635.9870027692
 30
0.0
 40
87.00000000000004
100
AcDbArc
 50
15.0
 51
90.0
  0
ARC
  5
A4
330
1F
100
AcDbEntity
  8
0
  6
Continuous
 62
     7
370
    25
100
AcDbCircle
 10
421.712280838
 20
635.9870027692
 30
0.0
 40
109.0000000000001
100
AcDbArc
 50
15.0
 51
180.0
  0
LINE
  5
A5
330
1F
100
AcDbEntity
  8
0
  6
Continuous
 62
     7
370
    25
100
AcDbLine
 10
334.7122807784
 20
511.5009031566
 30
0.0
 11
334.7122807784
 21
635.9870068106
 31
0.0
  0
LINE
  5
A6
330
1F
100
AcDbEntity
  8
0
  6
Continuous
 62
     7
370
    25
100
AcDbLine
 10
312.7122808976
 20
635.9870068106
 30
0.0
 11
312.7122808976
 21
511.5009031566
 31
0.0
  0
LINE
  5
A7
330
1F
100
AcDbEntity
  8
0
  6
Continuous
 62
     7
370
    25
100
AcDbLine
 10
505.7478313131
 20
658.5042557987
 30
0.0
 11
511.4418481273
 21
637.2538886341
 31
0.0
  0
LINE
  5
A8
330
1F
100
AcDbEntity
  8
0
  6
Continuous
 62
     7
370
    25
100
AcDbLine
 10
532.6922152919
 20
642.9479054483
 30
0.0
 11
526.9981984777
 21
664.1982875141
 31
0.0
  0
LINE
  5
A9
330
1F
100
AcDbEntity
  8
0
  6
Continuous
 62
     7
370
    25
100
AcDbLine
 10
532.9510335607
 20
641.9819823774
 30
0.0
 11
532.6922152919
 21
642.9479054483
 31
0.0
  0
LINE
  5
AA
330
1F
100
AcDbEntity
  8
0
  6
Continuous
 62
     7
370
    25
100
AcDbLine
 10
511.4418481273
 20
637.2538886341
 30
0.0
 11
511.7006663961
 21
636.2879655632
 31
0.0
  0
LINE
  5
AB
330
1F
100
AcDbEntity
  8
0
  6
Continuous
 62
     7
370
    25
100
AcDbLine
 10
348.5122815503
 20
407.5009010109
 30
0.0
 11
298.9122801257
 21
407.5009010109
 31
0.0
  0
LINE
  5
AC
330
1F
100
AcDbEntity
  8
0
  6
Continuous
 62
     7
370
    25
100
AcDbLine
 10
304.5394857211
 20
413.7009011889
 30
0.0
 11
342.8850759549
 21
413.7009011889
 31
0.0
  0
LINE
  5
AD
330
1F
100
AcDbEntity
  8
0
  6
Continuous
 62
     7
370
    25
100
AcDbLine
 10
312.7122808976
 20
511.5009031566
 30
0.0
 11
334.7122807784
 21
511.5009031566
 31
0.0
  0
LWPOLYLINE
  5
AE
330
1F
100
AcDbEntity
  8
0
  6
Continuous
 62
     7
370
    25
100
AcDbPolyline
 90
       19
 70
   128
 43
0.0
 10
532.9510335607
 20
641.9819823774
 10
532.8212146444
 20
641.9472030672
 10
532.3568646593
 20
641.8227783712
 10
531.5701280517
 20
641.6119716438
 10
530.48626229
 20
641.3215480121
 10
529.14012119
 20
640.9608505043
 10
527.5749628229
 20
640.5414722236
 10
525.8410935087
 20
640.0768838199
 10
523.9942435903
 20
639.5820162567
 10
522.0937643928
 20
639.0727839741
 10
520.2007506771
 20
638.565548447
 10
518.3760289831
 20
638.0766264471
 10
516.6782651825
 20
637.621708897
 10
515.1620273275
 20
637.2154287371
 10
513.8760273142
 20
636.8708542856
 10
512.8616158647
 20
636.5990422043
 10
512.1513967199
 20
636.4087394747
 10
511.7681835575
 20
636.3060555729
 10
511.7006663961
 20
636.2879655632
  0
LINE
  5
AF
330
1F
100
AcDbEntity
  8
0
  6
Continuous
 62
     8
370
    18
100
AcDbLine
 10
348.7122812105
 20
410.8901743154
 30
0.0
 11
298.7122804655
 21
410.8901743154
 31
0.0
  0
LINE
  5
B0
330
1F
100
AcDbEntity
  8
0
  6
Continuous
 62
     8
370
    18
100
AcDbLine
 10
298.7122804655
 20
407.7009010058
 30
0.0
 11
348.7122812105
 21
407.7009010058
 31
0.0
  0
LINE
  5
B1
330
1F
100
AcDbEntity
  8
0
  6
Continuous
 62
     8
370
    18
100
AcDbLine
 10
299.2663969083
 20
411.7852647165
 30
0.0
 11
348.1581647677
 21
411.7852647165
 31
0.0
  0
LINE
  5
B2
330
1F
100
AcDbEntity
  8
0
  6
Continuous
 62
     8
370
    18
100
AcDbLine
 10
343.1378722919
 20
413.6684203828
 30
0.0
 11
304.2866893841
 21
413.6684203828
 31
0.0
  0
LINE
  5
B3
330
1F
100
AcDbEntity
  8
0
  6
Continuous
 62
     8
370
    18
100
AcDbLine
 10
341.7122800631
 20
506.9927207502
 30
0.0
 11
305.7122816128
 21
506.9927207502
 31
0.0
  0
LINE
  5
B4
330
1F
100
AcDbEntity
  8
0
  6
Continuous
 62
     8
370
    18
100
AcDbLine
 10
306.1289553327
 20
507.8049606952
 30
0.0
 11
341.2956063432
 21
507.8049606952
 31
0.0
  0
LINE
  5
B5
330
1F
100
AcDbEntity
  8
0
  6
Continuous
 62
     8
370
    18
100
AcDbLine
 10
305.7122816128
 20
413.9009008492
 30
0.0
 11
341.7122800631
 21
413.9009008492
 31
0.0
  0
LWPOLYLINE
  5
B6
330
1F
100
AcDbEntity
  8
0
  6
Continuous
 62
     8
370
    18
100
AcDbPolyline
 90
       19
 70
   128
 43
0.0
 10
526.9981984777
 20
664.1982875141
 10
526.8274460716
 20
664.1525409492
 10
526.3206724806
 20
664.0167317661
 10
525.4941944761
 20
663.7952707084
 10
524.3745361252
 20
663.4952805313
 10
522.9976986332
 20
663.1263575825
 10
521.40795335
 20
662.7003631862
 10
519.6563814563
 20
662.2310362133
 10
517.7992646379
 20
661.7334268364
 10
515.8963118477
 20
661.2235389026
 10
514.0086923523
 20
660.7177636894
 10
512.1970538778
 20
660.23231366
 10
510.5196301622
 20
659.7828648361
 10
509.0303485078
 20
659.3838117393
 10
507.7770565433
 20
659.0479991707
 10
506.8000470085
 20
658.7862155708
 10
506.1307315511
 20
658.6068651947
 10
505.7905976457
 20
658.5157296928
 10
505.7478313131
 20
658.5042557987
  0
LINE
  5
B7
330
1F
100
AcDbEntity
  8
0
  6
Continuous
 62
     8
370
    18
100
AcDbLine
 10
312.7122808976
 20
635.9870068106
 30
0.0
 11
334.7122807784
 21
635.9870068106
 31
0.0
  0
LWPOLYLINE
  5
B8
330
1F
100
AcDbEntity
  8
0
  6
Continuous
 62
     8
370
    18
100
AcDbPolyline
 90
       19
 70
   128
 43
0.0
 10
532.6922152919
 20
642.9479054483
 10
532.5214628858
 20
642.9021588835
 10
532.0147041959
 20
642.7663646015
 10
531.1882112903
 20
642.544918445
 10
530.0685529394
 20
642.2448984655
 10
528.6917303486
 20
641.8759755167
 10
527.1019701643
 20
641.4500109228
 10
525.3503982706
 20
640.9806690487
 10
523.4932814521
 20
640.4830596718
 10
521.5903286619
 20
639.973171738
 10
519.7027091665
 20
639.4673816236
 10
517.891070692
 20
638.9819613966
 10
516.2136469764
 20
638.5324976715
 10
514.7243653221
 20
638.1334445747
 10
513.4710733575
 20
637.7976171049
 10
512.4940638227
 20
637.535833505
 10
511.8247483654
 20
637.3564831289
 10
511.48461446
 20
637.2653476271
 10
511.4418481273
 20
637.2538886341
  0
LINE
  5
B9
330
1F
100
AcDbEntity
  8
0
  6
Continuous
 62
     7
370
    25
100
AcDbLine
 10
154.9461246838
 20
639.1349814209
 30
0.0
 11
154.9461246838
 21
640.1009044918
 31
0.0
  0
LINE
  5
BA
330
1F
100
AcDbEntity
  8
0
  6
Continuous
 62
     7
370
    25
100
AcDbLine
 10
132.946124803
 20
640.1009044918
 30
0.0
 11
132.946124803
 21
639.1349814209
 31
0.0
  0
LINE
  5
BB
330
1F
100
AcDbEntity
  8
0
  6
Continuous
 62
     7
370
    25
100
AcDbLine
 10
132.946124803
 20
661.3512716564
 30
0.0
 11
132.946124803
 21
640.1009044918
 31
0.0
  0
LINE
  5
BC
330
1F
100
AcDbEntity
  8
0
  6
Continuous
 62
     7
370
    25
100
AcDbLine
 10
154.9461246838
 20
640.1009044918
 30
0.0
 11
154.9461246838
 21
661.3512716564
 31
0.0
  0
ARC
  5
BD
330
1F
100
AcDbEntity
  8
0
  6
Continuous
 62
     7
370
    25
100
AcDbCircle
 10
143.9461247434
 20
733.9870027692
 30
0.0
 40
11.00000000000003
100
AcDbArc
 50
0.0
 51
180.0
  0
LINE
  5
BE
330
1F
100
AcDbEntity
  8
0
  6
Continuous
 62
     7
370
    25
100
AcDbLine
 10
154.9461246838
 20
635.9870068106
 30
0.0
 11
154.9461246838
 21
639.1349814209
 31
0.0
  0
LINE
  5
BF
330
1F
100
AcDbEntity
  8
0
  6
Continuous
 62
     7
370
    25
100
AcDbLine
 10
154.9461246838
 20
661.3512716564
 30
0.0
 11
154.9461246838
 21
733.9870116981
 31
0.0
  0
LINE
  5
C0
330
1F
100
AcDbEntity
  8
0
  6
Continuous
 62
     7
370
    25
100
AcDbLine
 10
132.946124803
 20
733.9870116981
 30
0.0
 11
132.946124803
 21
661.3512716564
 31
0.0
  0
LINE
  5
C1
330
1F
100
AcDbEntity
  8
0
  6
Continuous
 62
     7
370
    25
100
AcDbLine
 10
132.946124803
 20
639.1349814209
 30
0.0
 11
132.946124803
 21
635.9870068106
 31
0.0
  0
LINE
  5
C2
330
1F
100
AcDbEntity
  8
0
  6
Continuous
 62
     7
370
    25
100
AcDbLine
 10
118.9461243708
 20
410.8901743154
 30
0.0
 11
118.9461243708
 21
407.7009010058
 31
0.0
  0
LINE
  5
C3
330
1F
100
AcDbEntity
  8
0
  6
Continuous
 62
     7
370
    25
100
AcDbLine
 10
168.9461251159
 20
407.7009010058
 30
0.0
 11
168.9461251159
 21
410.8901743154
 31
0.0
  0
ARC
  5
C4
330
1F
100
AcDbEntity
  8
0
  6
Continuous
 62
     7
370
    25
100
AcDbCircle
 10
167.9461247434
 20
410.8901743723
 30
0.0
 40
1.0
100
AcDbArc
 50
0.0
 51
63.5200440425
  0
ARC
  5
C5
330
1F
100
AcDbEntity
  8
0
  6
Continuous
 62
     7
370
    25
100
AcDbCircle
 10
119.9461247434
 20
410.8901743723
 30
0.0
 40
1.0
100
AcDbArc
 50
116.4799559575
 51
180.0
  0
ARC
  5
C6
330
1F
100
AcDbEntity
  8
0
  6
Continuous
 62
     7
370
    25
100
AcDbCircle
 10
119.1461247434
 20
407.7009010109
 30
0.0
 40
0.2000000000000028
100
AcDbArc
 50
180.0
 51
270.0
  0
ARC
  5
C7
330
1F
100
AcDbEntity
  8
0
  6
Continuous
 62
     7
370
    25
100
AcDbCircle
 10
168.7461247434
 20
407.7009010109
 30
0.0
 40
0.1999999999999886
100
AcDbArc
 50
270.0
 51
0.0
  0
ARC
  5
C8
330
1F
100
AcDbEntity
  8
0
  6
Continuous
 62
     7
370
    25
100
AcDbCircle
 10
131.093242415
 20
388.5129143163
 30
0.0
 40
26.00000000000002
100
AcDbArc
 50
104.6430576274
 51
116.4799559575
  0
ARC
  5
C9
330
1F
100
AcDbEntity
  8
0
  6
Continuous
 62
     7
370
    25
100
AcDbCircle
 10
156.7990070718
 20
388.5129143163
 30
0.0
 40
26.00000000000002
100
AcDbArc
 50
63.5200440425
 51
75.3569423726
  0
ARC
  5
CA
330
1F
100
AcDbEntity
  8
0
  6
Continuous
 62
     7
370
    25
100
AcDbCircle
 10
163.118920019
 20
412.7009010109
 30
0.0
 40
1.000000000000019
100
AcDbArc
 50
75.3569423726
 51
90.0
  0
ARC
  5
CB
330
1F
100
AcDbEntity
  8
0
  6
Continuous
 62
     7
370
    25
100
AcDbCircle
 10
124.7733294677
 20
412.7009010109
 30
0.0
 40
1.000000000000016
100
AcDbArc
 50
90.0
 51
104.6430576274
  0
LINE
  5
CC
330
1F
100
AcDbEntity
  8
0
  6
Continuous
 62
     7
370
    25
100
AcDbLine
 10
161.9461239685
 20
494.5008836063
 30
0.0
 11
161.9461239685
 21
506.9927207502
 31
0.0
  0
LINE
  5
CD
330
1F
100
AcDbEntity
  8
0
  6
Continuous
 62
     7
370
    25
100
AcDbLine
 10
161.9461239685
 20
413.9009008492
 30
0.0
 11
161.9461239685
 21
444.5009126636
 31
0.0
  0
LINE
  5
CE
330
1F
100
AcDbEntity
  8
0
  6
Continuous
 62
     7
370
    25
100
AcDbLine
 10
125.9461255182
 20
506.9927207502
 30
0.0
 11
125.9461255182
 21
413.9009008492
 31
0.0
  0
SPLINE
  5
CF
330
1F
100
AcDbEntity
  8
0
  6
Continuous
 62
     7
370
    25
100
AcDbSpline
210
0.0
220
0.0
230
1.0
 70
     8
 71
     3
 72
    14
 73
    10
 74
     0
 42
0.000000001
 43
0.00000001
 40
0.0
 40
0.0
 40
0.0
 40
0.0
 40
0.2026327082070541
 40
0.3887499998735246
 40
0.527371248081827
 40
0.6322932450938081
 40
0.7490235961746171
 40
0.901846501194001
 40
1.0
 40
1.0
 40
1.0
 40
1.0
 10
169.8628706295728
 20
486.5152544649912
 30
0.0
 10
169.2003527994693
 20
486.512974988391
 30
0.0
 10
167.92931512422
 20
486.5086018221049
 30
0.0
 10
166.1978931519904
 20
486.8064488991474
 30
0.0
 10
164.8587961288071
 20
487.3388103791136
 30
0.0
 10
163.8732997507944
 20
488.0297728284316
 30
0.0
 10
163.0613171644672
 20
488.9600611972807
 30
0.0
 10
162.4792450785666
 20
490.0498853539525
 30
0.0
 10
162.3283035975924
 20
490.8686798436924
 30
0.0
 10
162.2692724128007
 20
491.1888993653131
 30
0.0
  0
SPLINE
  5
D0
330
1F
100
AcDbEntity
  8
0
  6
Continuous
 62
     7
370
    25
100
AcDbSpline
210
0.0
220
0.0
230
1.0
 70
     8
 71
     3
 72
    17
 73
    13
 74
     0
 42
0.000000001
 43
0.00000001
 40
0.0
 40
0.0
 40
0.0
 40
0.0
 40
0.1197144736398826
 40
0.2579978233529105
 40
0.3718140722121702
 40
0.4665361195661835
 40
0.5467894829476362
 40
0.615451100147519
 40
0.7208245306692816
 40
0.8118752611309674
 40
0.9469141557280292
 40
0.9999999999999999
 40
0.9999999999999999
 40
0.9999999999999999
 40
0.9999999999999999
 10
161.9361606796026
 20
444.5426098378969
 30
0.0
 10
161.9305901245511
 20
445.0780586940527
 30
0.0
 10
161.9185849673262
 20
446.2320097177239
 30
0.0
 10
162.1163353547863
 20
447.8923012862004
 30
0.0
 10
162.6020120504035
 20
449.3806287170752
 30
0.0
 10
163.2875684498613
 20
450.4961116777167
 30
0.0
 10
164.0803236357593
 20
451.2694022293018
 30
0.0
 10
165.0576146400441
 20
451.8812423049955
 30
0.0
 10
166.2131900363416
 20
452.2745314677
 30
0.0
 10
167.6124141098731
 20
452.4750774770788
 30
0.0
 10
168.8363663176505
 20
452.5342132662321
 30
0.0
 10
169.6566859166831
 20
452.5138325509275
 30
0.0
 10
169.8881672133445
 20
452.5080814334226
 30
0.0
  0
ARC
  5
D1
330
1F
100
AcDbEntity
  8
0
  6
Continuous
 62
     7
370
    25
100
AcDbCircle
 10
126.9461247434
 20
506.9927230529
 30
0.0
 40
1.0
100
AcDbArc
 50
125.6847825153
 51
180.0
  0
ARC
  5
D2
330
1F
100
AcDbEntity
  8
0
  6
Continuous
 62
     7
370
    25
100
AcDbCircle
 10
160.9461247434
 20
506.9927230529
 30
0.0
 40
1.0
100
AcDbArc
 50
0.0
 51
54.3152174847
  0
ARC
  5
D3
330
1F
100
AcDbEntity
  8
0
  6
Continuous
 62
     7
370
    25
100
AcDbCircle
 10
161.7461247434
 20
413.9009010109
 30
0.0
 40
0.1999999999999886
100
AcDbArc
 50
270.0
 51
0.0
  0
ARC
  5
D4
330
1F
100
AcDbEntity
  8
0
  6
Continuous
 62
     7
370
    25
100
AcDbCircle
 10
126.1461247434
 20
413.9009010109
 30
0.0
 40
0.1999999999999744
100
AcDbArc
 50
180.0
 51
270.0
  0
ARC
  5
D5
330
1F
100
AcDbEntity
  8
0
  6
Continuous
 62
     7
370
    25
100
AcDbCircle
 10
146.1958664176
 20
480.188853081
 30
0.0
 40
34.0
100
AcDbArc
 50
112.9357270896
 51
125.6847825153
  0
ARC
  5
D6
330
1F
100
AcDbEntity
  8
0
  6
Continuous
 62
     7
370
    25
100
AcDbCircle
 10
141.6963830691
 20
480.188853081
 30
0.0
 40
34.00000000000003
100
AcDbArc
 50
54.3152174847
 51
67.0642729104
  0
LINE
  5
D7
330
1F
100
AcDbEntity
  8
0
  6
Continuous
 62
     7
370
    25
100
AcDbLine
 10
185.6461265494
 20
486.5009046468
 30
0.0
 11
169.9461159666
 21
486.5009046468
 31
0.0
  0
LINE
  5
D8
330
1F
100
AcDbEntity
  8
0
  6
Continuous
 62
     7
370
    25
100
AcDbLine
 10
169.9460992028
 20
452.500902799
 30
0.0
 11
185.6461265494
 21
452.500902799
 31
0.0
  0
ARC
  5
D9
330
1F
100
AcDbEntity
  8
0
  6
Continuous
 62
     7
370
    25
100
AcDbCircle
 10
185.6461247434
 20
452.8009010109
 30
0.0
 40
0.3000000000000114
100
AcDbArc
 50
270.0
 51
0.0
  0
ARC
  5
DA
330
1F
100
AcDbEntity
  8
0
  6
Continuous
 62
     7
370
    25
100
AcDbCircle
 10
185.6461247434
 20
486.2009010109
 30
0.0
 40
0.3000000000000114
100
AcDbArc
 50
0.0
 51
90.0
  0
ARC
  5
DB
330
1F
100
AcDbEntity
  8
0
  6
Continuous
 62
     7
370
    25
100
AcDbCircle
 10
217.1947634612
 20
453.4281792248
 30
0.0
 40
1.0
100
AcDbArc
 50
270.0
 51
351.0559916206
  0
LINE
  5
DC
330
1F
100
AcDbEntity
  8
0
  6
Continuous
 62
     7
370
    25
100
AcDbLine
 10
195.3225010444
 20
452.4281776818
 30
0.0
 11
217.1947644462
 21
452.4281776818
 31
0.0
  0
LINE
  5
DD
330
1F
100
AcDbEntity
  8
0
  6
Continuous
 62
     7
370
    25
100
AcDbLine
 10
202.4515034069
 20
486.4281795296
 30
0.0
 11
190.4461258461
 21
486.4281795296
 31
0.0
  0
ARC
  5
DE
330
1F
100
AcDbEntity
  8
0
  6
Continuous
 62
     7
370
    25
100
AcDbCircle
 10
190.4461247434
 20
486.0281792248
 30
0.0
 40
0.4000000000000057
100
AcDbArc
 50
90.0
 51
180.0
  0
ARC
  5
DF
330
1F
100
AcDbEntity
  8
0
  6
Continuous
 62
     7
370
    25
100
AcDbCircle
 10
115.5318390291
 20
469.4281792248
 30
0.0
 40
103.9142857142859
100
AcDbArc
 50
351.0559916206
 51
0.0
  0
ARC
  5
E0
330
1F
100
AcDbEntity
  8
0
  6
Continuous
 62
     7
370
    25
100
AcDbCircle
 10
115.5318390291
 20
469.4281792248
 30
0.0
 40
103.9142857142859
100
AcDbArc
 50
0.0
 51
8.6452186568
  0
ARC
  5
E1
330
1F
100
AcDbEntity
  8
0
  6
Continuous
 62
     7
370
    25
100
AcDbCircle
 10
181.1773466089
 20
455.9671918471
 30
0.0
 40
29.99999999999998
100
AcDbArc
 50
72.8049248699
 51
79.8849141309
  0
ARC
  5
E2
330
1F
100
AcDbEntity
  8
0
  6
Continuous
 62
     7
370
    25
100
AcDbCircle
 10
181.1773466089
 20
483.0346101746
 30
0.0
 40
30.00000000000006
100
AcDbArc
 50
280.1150858691
 51
294.3114609946
  0
LINE
  5
E3
330
1F
100
AcDbEntity
  8
0
  6
Continuous
 62
     7
370
    25
100
AcDbLine
 10
185.9461241771
 20
453.5009011003
 30
0.0
 11
186.4461251904
 21
453.5009011003
 31
0.0
  0
LINE
  5
E4
330
1F
100
AcDbEntity
  8
0
  6
Continuous
 62
     7
370
    25
100
AcDbLine
 10
186.4461251904
 20
485.5009026202
 30
0.0
 11
185.9461241771
 21
485.5009026202
 31
0.0
  0
SPLINE
  5
E5
330
1F
100
AcDbEntity
  8
0
  6
Continuous
 62
     7
370
    25
100
AcDbSpline
210
0.0
220
0.0
230
1.0
 70
     8
 71
     3
 72
     9
 73
     5
 74
     0
 42
0.000000001
 43
0.00000001
 40
0.0
 40
0.0
 40
0.0
 40
0.0
 40
0.6916591437338325
 40
0.9999999999999999
 40
0.9999999999999999
 40
0.9999999999999999
 40
0.9999999999999999
 10
194.939947258377
 20
452.6273950311017
 30
0.0
 10
194.9747435873741
 20
452.5620518410719
 30
0.0
 10
195.0250520800938
 20
452.4675787315615
 30
0.0
 10
195.243174920475
 20
452.4603389763804
 30
0.0
 10
195.3104311038493
 20
452.4581066640687
 30
0.0
  0
LINE
  5
E6
330
1F
100
AcDbEntity
  8
0
  6
Continuous
 62
     7
370
    25
100
AcDbLine
 10
154.9461246838
 20
511.5009031566
 30
0.0
 11
154.9461246838
 21
635.9870068106
 31
0.0
  0
LINE
  5
E7
330
1F
100
AcDbEntity
  8
0
  6
Continuous
 62
     7
370
    25
100
AcDbLine
 10
132.946124803
 20
635.9870068106
 30
0.0
 11
132.946124803
 21
511.5009031566
 31
0.0
  0
SPLINE
  5
E8
330
1F
100
AcDbEntity
  8
0
  6
Continuous
 62
     7
370
    25
100
AcDbSpline
210
0.0
220
0.0
230
1.0
 70
     8
 71
     3
 72
    13
 73
     9
 74
     0
 42
0.000000001
 43
0.00000001
 40
0.0
 40
0.0
 40
0.0
 40
0.0
 40
0.0199193473096861
 40
0.2115385957046085
 40
0.3629757726103822
 40
0.4950805754598042
 40
0.6526907255988678
 40
1.0
 40
1.0
 40
1.0
 40
1.0
 10
162.5601542551755
 20
448.8965018960309
 30
0.0
 10
162.574088968535
 20
448.9540835723381
 30
0.0
 10
162.7220722156655
 20
449.5655868889356
 30
0.0
 10
163.3802674099855
 20
450.4772421594986
 30
0.0
 10
164.4130447549753
 20
451.3923137404569
 30
0.0
 10
165.559953385832
 20
451.9711935235728
 30
0.0
 10
167.4090792740827
 20
452.4945218001516
 30
0.0
 10
168.9016016985356
 20
452.4802105799566
 30
0.0
 10
169.9282345731496
 20
452.470366594441
 30
0.0
  0
LINE
  5
E9
330
1F
100
AcDbEntity
  8
0
  6
Continuous
 62
     7
370
    25
100
AcDbLine
 10
169.4993549396
 20
486.5539080771
 30
0.0
 11
167.2227704336
 21
486.689829019
 31
0.0
  0
LINE
  5
EA
330
1F
100
AcDbEntity
  8
0
  6
Continuous
 62
     7
370
    25
100
AcDbLine
 10
163.4102506001
 20
488.6236719164
 30
0.0
 11
162.863437589
 21
489.5108348998
 31
0.0
  0
LINE
  5
EB
330
1F
100
AcDbEntity
  8
0
  6
Continuous
 62
     7
370
    25
100
AcDbLine
 10
169.9351636131
 20
486.5278906497
 30
0.0
 11
169.4993549396
 21
486.5539080771
 31
0.0
  0
SPLINE
  5
EC
330
1F
100
AcDbEntity
  8
0
  6
Continuous
 62
     7
370
    25
100
AcDbSpline
210
0.0
220
0.0
230
1.0
 70
     8
 71
     3
 72
     9
 73
     5
 74
     0
 42
0.000000001
 43
0.00000001
 40
0.0
 40
0.0
 40
0.0
 40
0.0
 40
0.9215942010015853
 40
1.0
 40
1.0
 40
1.0
 40
1.0
 10
218.1227864135741
 20
513.2851532968355
 30
0.0
 10
218.1102996228577
 20
513.6759857464592
 30
0.0
 10
218.0967505025367
 20
514.1000687639078
 30
0.0
 10
217.9853895229115
 20
514.4500444848888
 30
0.0
 10
217.9766581763267
 20
514.4774846109224
 30
0.0
  0
LINE
  5
ED
330
1F
100
AcDbEntity
  8
0
  6
Continuous
 62
     7
370
    25
100
AcDbLine
 10
218.3357463588
 20
485.1125560078
 30
0.0
 11
218.1363092174
 21
513.2844380411
 31
0.0
  0
LINE
  5
EE
330
1F
100
AcDbEntity
  8
0
  6
Continuous
 62
     7
370
    25
100
AcDbLine
 10
214.0995622982
 20
517.4670226249
 30
0.0
 11
208.0461220254
 21
517.4670226249
 31
0.0
  0
SPLINE
  5
EF
330
1F
100
AcDbEntity
  8
0
  6
Continuous
 62
     7
370
    25
100
AcDbSpline
210
0.0
220
0.0
230
1.0
 70
     8
 71
     3
 72
    11
 73
     7
 74
     0
 42
0.000000001
 43
0.00000001
 40
0.0
 40
0.0
 40
0.0
 40
0.0
 40
0.1628999791244932
 40
0.3807037221041497
 40
0.6461832785973799
 40
1.0
 40
1.0
 40
1.0
 40
1.0
 10
218.3796526302337
 20
484.2324412735773
 30
0.0
 10
218.3796241152727
 20
484.2323158404583
 30
0.0
 10
218.3795574746762
 20
484.2320226982769
 30
0.0
 10
218.3664924268462
 20
484.3705984609437
 30
0.0
 10
218.3442270797394
 20
484.6669725929589
 30
0.0
 10
218.3413524199887
 20
484.9572640123795
 30
0.0
 10
218.3397100676536
 20
485.1231134804559
 30
0.0
  0
SPLINE
  5
F0
330
1F
100
AcDbEntity
  8
0
  6
Continuous
 62
     7
370
    25
100
AcDbSpline
210
0.0
220
0.0
230
1.0
 70
     8
 71
     3
 72
    16
 73
    12
 74
     0
 42
0.000000001
 43
0.00000001
 40
0.0
 40
0.0
 40
0.0
 40
0.0
 40
0.0934985650942426
 40
0.2783531758963938
 40
0.4320877815933002
 40
0.555378104036457
 40
0.6435249628974274
 40
0.7151858493376423
 40
0.7914289289158063
 40
0.8867609037195077
 40
1.0
 40
1.0
 40
1.0
 40
1.0
 10
203.8469151963233
 20
487.5525242956949
 30
0.0
 10
203.8155725445258
 20
487.4616177367187
 30
0.0
 10
203.7222628059211
 20
487.1909811833627
 30
0.0
 10
203.4065120485181
 20
486.8650558181741
 30
0.0
 10
203.0302952302924
 20
486.6016336785985
 30
0.0
 10
202.7127175650133
 20
486.4766911300795
 30
0.0
 10
202.5227172925619
 20
486.433484199885
 30
0.0
 10
202.4391657956166
 20
486.4230218561603
 30
0.0
 10
202.4395454826872
 20
486.4238802579949
 30
0.0
 10
202.5126111220639
 20
486.4277715480098
 30
0.0
 10
202.6266144760801
 20
486.4276110288341
 30
0.0
 10
202.6885101009845
 20
486.4275238784624
 30
0.0
  0
LWPOLYLINE
  5
F1
330
1F
100
AcDbEntity
  8
0
  6
Continuous
 62
     7
370
    25
100
AcDbPolyline
 90
       36
 70
   128
 43
0.0
 10
144.1994893618
 20
641.9812224182
 10
142.2318129704
 20
641.9472030672
 10
140.3192358927
 20
641.8227783712
 10
138.5232299004
 20
641.6119716438
 10
136.9015206952
 20
641.3215480121
 10
135.5062299778
 20
640.9608505043
 10
134.3822055866
 20
640.5414722236
 10
133.5655725931
 20
640.0768838199
 10
133.0825793926
 20
639.5820162567
 10
132.94874927
 20
639.0727839741
 10
133.1683840041
 20
638.565548447
 10
133.7344241698
 20
638.0766264471
 10
134.6286763807
 20
637.621708897
 10
135.822400022
 20
637.2154287371
 10
137.2772260007
 20
636.8708542856
 10
138.9463963357
 20
636.5990422043
 10
140.7762617242
 20
636.4087394747
 10
142.7080092623
 20
636.3060555729
 10
144.6795509333
 20
636.2942985567
 10
146.6275195495
 20
636.3738409551
 10
148.4893062521
 20
636.5421346697
 10
150.2050711212
 20
636.7937556776
 10
151.7196679857
 20
637.1206424507
 10
152.9844175462
 20
637.512259868
 10
153.9586685036
 20
637.9560313495
 10
154.6111074646
 20
638.437696484
 10
154.9207657014
 20
638.9417729648
 10
154.8776901697
 20
639.4520483288
 10
154.4832648148
 20
639.9521461996
 10
153.7501677309
 20
640.4259733232
 10
152.7019595165
 20
640.8583156141
 10
151.3723321629
 20
641.2352702888
 10
149.8040203375
 20
641.5447078022
 10
148.0474314091
 20
641.7766890796
 10
146.159022385
 20
641.9237784418
 10
144.1994893618
 20
641.9812224182
  0
LINE
  5
F2
330
1F
100
AcDbEntity
  8
0
  6
Continuous
 62
     7
370
    25
100
AcDbLine
 10
143.9461247434
 20
407.5009010109
 30
0.0
 11
119.1461240311
 21
407.5009010109
 31
0.0
  0
LINE
  5
F3
330
1F
100
AcDbEntity
  8
0
  6
Continuous
 62
     7
370
    25
100
AcDbLine
 10
168.7461254556
 20
407.5009010109
 30
0.0
 11
143.9461247434
 21
407.5009010109
 31
0.0
  0
LINE
  5
F4
330
1F
100
AcDbEntity
  8
0
  6
Continuous
 62
     7
370
    25
100
AcDbLine
 10
124.7733296265
 20
413.7009011889
 30
0.0
 11
163.1189198603
 21
413.7009011889
 31
0.0
  0
LINE
  5
F5
330
1F
100
AcDbEntity
  8
0
  6
Continuous
 62
     7
370
    25
100
AcDbLine
 10
161.8579612483
 20
444.5443532738
 30
0.0
 11
161.9461239685
 21
444.5009126636
 31
0.0
  0
LINE
  5
F6
330
1F
100
AcDbEntity
  8
0
  6
Continuous
 62
     7
370
    25
100
AcDbLine
 10
169.8875860681
 20
452.5729350122
 30
0.0
 11
169.9460992028
 21
452.500902799
 31
0.0
  0
SPLINE
  5
F7
330
1F
100
AcDbEntity
  8
0
  6
Continuous
 62
     7
370
    25
100
AcDbSpline
210
0.0
220
0.0
230
1.0
 70
     8
 71
     3
 72
     9
 73
     5
 74
     0
 42
0.000000001
 43
0.00000001
 40
0.0
 40
0.0
 40
0.0
 40
0.0
 40
0.2695124796981081
 40
1.0
 40
1.0
 40
1.0
 40
1.0
 10
162.8315658678054
 20
489.4979081424547
 30
0.0
 10
162.6413595391117
 20
489.9200777259569
 30
0.0
 10
161.9356173452558
 20
491.4864971510428
 30
0.0
 10
161.9418007694181
 20
493.2284261854419
 30
0.0
 10
161.9463176836013
 20
494.5008836063219
 30
0.0
  0
LINE
  5
F8
330
1F
100
AcDbEntity
  8
0
  6
Continuous
 62
     7
370
    25
100
AcDbLine
 10
132.946124803
 20
511.5009031566
 30
0.0
 11
154.9461246838
 21
511.5009031566
 31
0.0
  0
SPLINE
  5
F9
330
1F
100
AcDbEntity
  8
0
  6
Continuous
 62
     7
370
    25
100
AcDbSpline
210
0.0
220
0.0
230
1.0
 70
     8
 71
     3
 72
    12
 73
     8
 74
     0
 42
0.000000001
 43
0.00000001
 40
0.0
 40
0.0
 40
0.0
 40
0.0
 40
0.5000000000000001
 40
0.5000000000000001
 40
0.75
 40
0.75
 40
1.0
 40
1.0
 40
1.0
 40
1.0
 10
191.1972380212437
 20
462.3958625900027
 30
0.0
 10
190.8218475770217
 20
463.5421919722804
 30
0.0
 10
190.5339519350152
 20
464.7441542726874
 30
0.0
 10
190.2416103393474
 20
466.636078279744
 30
0.0
 10
190.167464759178
 20
467.2850759160689
 30
0.0
 10
190.070045693604
 20
468.5851466123149
 30
0.0
 10
190.0461247433663
 20
469.238759976016
 30
0.0
 10
190.0461247433663
 20
469.8959556189394
 30
0.0
  0
LINE
  5
FA
330
1F
100
AcDbEntity
  8
0
  6
Continuous
 62
     7
370
    25
100
AcDbLine
 10
185.9461241771
 20
486.2008995684
 30
0.0
 11
185.9461241771
 21
452.8009004268
 31
0.0
  0
ELLIPSE
  5
FB
330
1F
100
AcDbEntity
  8
0
  6
Continuous
 62
     7
370
    25
100
AcDbEllipse
 10
190.289204447
 20
469.4281792248
 30
0.0
 11
-5.045424653464579
 21
16.99827567153915
 31
0.0
210
0.0
220
0.0
230
1.0
 40
0.0479888916
 41
1.986311137103229
 42
3.127349563988299
  0
LINE
  5
FC
330
1F
100
AcDbEntity
  8
0
  6
Continuous
 62
     7
370
    25
100
AcDbLine
 10
190.0461265255
 20
469.8959558579
 30
0.0
 11
190.0461265255
 21
486.028180209
 31
0.0
  0
LINE
  5
FD
330
1F
100
AcDbEntity
  8
0
  6
Continuous
 62
     7
370
    25
100
AcDbLine
 10
186.4461251904
 20
453.5009011003
 30
0.0
 11
186.4461251904
 21
485.5009026202
 31
0.0
  0
ELLIPSE
  5
FE
330
1F
100
AcDbEntity
  8
0
  6
Continuous
 62
     7
370
    25
100
AcDbEllipse
 10
189.906913882
 20
469.3122647001
 30
0.0
 11
-5.045943651539204
 21
16.5981621498197
 31
0.0
210
0.0
220
0.0
230
1.0
 40
0.048951914
 41
3.172454539881387
 42
3.196084583649362
  0
ELLIPSE
  5
FF
330
1F
100
AcDbEntity
  8
0
  6
Continuous
 62
     7
370
    25
100
AcDbEllipse
 10
189.906913882
 20
469.3122647001
 30
0.0
 11
-5.045943651539204
 21
16.5981621498197
 31
0.0
210
0.0
220
0.0
230
1.0
 40
0.048951914
 41
1.985673641415971
 42
3.03752266029264
  0
ARC
  5
100
330
1F
100
AcDbEntity
  8
0
  6
Continuous
 62
     7
370
    25
100
AcDbCircle
 10
208.0159759625
 20
512.961031795
 30
0.0
 40
3.969968959812602
100
AcDbArc
 50
89.5649188214
 51
179.5580673561
  0
LINE
  5
101
330
1F
100
AcDbEntity
  8
0
  6
Continuous
 62
     7
370
    25
100
AcDbLine
 10
204.046125095
 20
487.8206557902
 30
0.0
 11
204.046125095
 21
512.9916525754
 31
0.0
  0
SPLINE
  5
102
330
1F
100
AcDbEntity
  8
0
  6
Continuous
 62
     7
370
    25
100
AcDbSpline
210
0.0
220
0.0
230
1.0
 70
     8
 71
     3
 72
    11
 73
     7
 74
     0
 42
0.000000001
 43
0.00000001
 40
0.0
 40
0.0
 40
0.0
 40
0.0
 40
0.2353390398381829
 40
0.4901622293516795
 40
0.7451004256262164
 40
1.0
 40
1.0
 40
1.0
 40
1.0
 10
217.9665849913596
 20
514.473424044497
 30
0.0
 10
217.8347646393674
 20
514.8639364967721
 30
0.0
 10
217.5602102872682
 20
515.6772926417123
 30
0.0
 10
216.643384698133
 20
516.6441458548027
 30
0.0
 10
215.4524764429733
 20
517.3241879448293
 30
0.0
 10
214.5505109041665
 20
517.4092853910945
 30
0.0
 10
214.0995622982024
 20
517.4518308910203
 30
0.0
  0
LINE
  5
103
330
1F
100
AcDbEntity
  8
0
  6
Continuous
 62
     7
370
    25
100
AcDbLine
 10
204.046125095
 20
512.9916525754
 30
0.0
 11
204.046125095
 21
513.5125971707
 31
0.0
  0
ARC
  5
104
330
1F
100
AcDbEntity
  8
0
  6
Continuous
 62
     7
370
    25
100
AcDbCircle
 10
208.0159759625
 20
513.4819763903
 30
0.0
 40
3.969968959812571
100
AcDbArc
 50
89.5649188214
 51
179.5580673561
  0
LINE
  5
105
330
1F
100
AcDbEntity
  8
0
  6
Continuous
 62
     7
370
    25
100
AcDbLine
 10
214.0995622982
 20
517.451830891
 30
0.0
 11
214.0995622982
 21
517.4670226249
 31
0.0
  0
LINE
  5
106
330
1F
100
AcDbEntity
  8
0
  6
Continuous
 62
     7
370
    25
100
AcDbLine
 10
208.0461220254
 20
517.451830891
 30
0.0
 11
208.0461220254
 21
517.4670226249
 31
0.0
  0
ARC
  5
107
330
1F
100
AcDbEntity
  8
0
  6
Continuous
 62
     7
370
    25
100
AcDbCircle
 10
202.0622265033
 20
488.3418681925
 30
0.0
 40
1.983898609805009
100
AcDbArc
 50
335.9221534697
 51
359.9922656282
  0
ARC
  5
108
330
1F
100
AcDbEntity
  8
0
  6
Continuous
 62
     8
370
    18
100
AcDbCircle
 10
138.6001676205
 20
637.7281905758
 30
0.0
 40
2.577241552067314
100
AcDbArc
 50
108.1436976248
 51
135.8543068896
  0
LINE
  5
109
330
1F
100
AcDbEntity
  8
0
  6
Continuous
 62
     8
370
    18
100
AcDbLine
 10
137.7976113369
 20
640.1772878441
 30
0.0
 11
137.2569655438
 21
640.3172246488
 31
0.0
  0
ARC
  5
10A
330
1F
100
AcDbEntity
  8
0
  6
Continuous
 62
     8
370
    18
100
AcDbCircle
 10
138.0694414931
 20
637.603106663
 30
0.0
 40
2.833117295376303
100
AcDbArc
 50
106.6651625613
 51
137.3333206249
  0
LINE
  5
10B
330
1F
100
AcDbEntity
  8
0
  6
Continuous
 62
     8
370
    18
100
AcDbLine
 10
135.9862252508
 20
639.5232013735
 30
0.0
 11
136.7508136105
 21
639.5232013735
 31
0.0
  0
ARC
  5
10C
330
1F
100
AcDbEntity
  8
0
  6
Continuous
 62
     8
370
    18
100
AcDbCircle
 10
144.3107675286
 20
618.4849609325
 30
0.0
 40
22.54090453020086
100
AcDbArc
 50
80.6488583961
 51
87.1128614345
  0
LINE
  5
10D
330
1F
100
AcDbEntity
  8
0
  6
Continuous
 62
     8
370
    18
100
AcDbLine
 10
147.9733176899
 20
640.7263211283
 30
0.0
 11
148.513963483
 21
640.866257933
 31
0.0
  0
ARC
  5
10E
330
1F
100
AcDbEntity
  8
0
  6
Continuous
 62
     8
370
    18
100
AcDbCircle
 10
144.3427916167
 20
616.430302736
 30
0.0
 40
24.78940461424259
100
AcDbArc
 50
80.3130827771
 51
87.4490221255
  0
LINE
  5
10F
330
1F
100
AcDbEntity
  8
0
  6
Continuous
 62
     8
370
    18
100
AcDbLine
 10
145.4461247564
 20
641.1951414617
 30
0.0
 11
145.4461247564
 21
640.9972540411
 31
0.0
  0
ARC
  5
110
330
1F
100
AcDbEntity
  8
0
  6
Continuous
 62
     8
370
    18
100
AcDbCircle
 10
149.2920818662
 20
640.5417573648
 30
0.0
 40
2.577241552067314
100
AcDbArc
 50
288.1436976248
 51
315.8543068896
  0
LINE
  5
111
330
1F
100
AcDbEntity
  8
0
  6
Continuous
 62
     8
370
    18
100
AcDbLine
 10
150.0946381499
 20
638.0926600965
 30
0.0
 11
150.635283943
 21
637.9527381929
 31
0.0
  0
ARC
  5
112
330
1F
100
AcDbEntity
  8
0
  6
Continuous
 62
     8
370
    18
100
AcDbCircle
 10
149.8229528514
 20
640.6666603812
 30
0.0
 40
2.832888181073351
100
AcDbArc
 50
286.6634914952
 51
317.3340252699
  0
LINE
  5
113
330
1F
100
AcDbEntity
  8
0
  6
Continuous
 62
     8
370
    18
100
AcDbLine
 10
151.9060242359
 20
638.7467465671
 30
0.0
 11
151.1414358762
 21
638.7467465671
 31
0.0
  0
ARC
  5
114
330
1F
100
AcDbEntity
  8
0
  6
Continuous
 62
     8
370
    18
100
AcDbCircle
 10
138.0692966353
 20
640.6666603812
 30
0.0
 40
2.832888181073351
100
AcDbArc
 50
222.6659747301
 51
253.3365085048
  0
LINE
  5
115
330
1F
100
AcDbEntity
  8
0
  6
Continuous
 62
     8
370
    18
100
AcDbLine
 10
137.2569655438
 20
637.9527381929
 30
0.0
 11
137.7976113369
 21
638.0926600965
 31
0.0
  0
ARC
  5
116
330
1F
100
AcDbEntity
  8
0
  6
Continuous
 62
     8
370
    18
100
AcDbCircle
 10
138.6001676205
 20
640.5417573648
 30
0.0
 40
2.577241552067121
100
AcDbArc
 50
224.1456931104
 51
251.8563023752
  0
LINE
  5
117
330
1F
100
AcDbEntity
  8
0
  6
Continuous
 62
     8
370
    18
100
AcDbLine
 10
136.7508136105
 20
638.7467465671
 30
0.0
 11
135.9862252508
 21
638.7467465671
 31
0.0
  0
ARC
  5
118
330
1F
100
AcDbEntity
  8
0
  6
Continuous
 62
     8
370
    18
100
AcDbCircle
 10
143.5814819582
 20
659.7849870081
 30
0.0
 40
22.54090453020086
100
AcDbArc
 50
260.6488583961
 51
267.1128614345
  0
LINE
  5
119
330
1F
100
AcDbEntity
  8
0
  6
Continuous
 62
     8
370
    18
100
AcDbLine
 10
139.9189317968
 20
637.5436268123
 30
0.0
 11
139.3782860038
 21
637.4036900076
 31
0.0
  0
ARC
  5
11A
330
1F
100
AcDbEntity
  8
0
  6
Continuous
 62
     8
370
    18
100
AcDbCircle
 10
143.5497305687
 20
661.842188949
 30
0.0
 40
24.7919579756684
100
AcDbArc
 50
260.3134507234
 51
267.4486541792
  0
LINE
  5
11B
330
1F
100
AcDbEntity
  8
0
  6
Continuous
 62
     8
370
    18
100
AcDbLine
 10
142.4461247303
 20
637.0748064789
 30
0.0
 11
142.4461247303
 21
637.2726938995
 31
0.0
  0
ARC
  5
11C
330
1F
100
AcDbEntity
  8
0
  6
Continuous
 62
     8
370
    18
100
AcDbCircle
 10
144.3107675286
 20
659.7849870081
 30
0.0
 40
22.54090453020097
100
AcDbArc
 50
272.8871385655
 51
279.3511416039
  0
LINE
  5
11D
330
1F
100
AcDbEntity
  8
0
  6
Continuous
 62
     8
370
    18
100
AcDbLine
 10
145.4461247564
 20
637.2726938995
 30
0.0
 11
145.4461247564
 21
637.0748064789
 31
0.0
  0
ARC
  5
11E
330
1F
100
AcDbEntity
  8
0
  6
Continuous
 62
     8
370
    18
100
AcDbCircle
 10
144.342518918
 20
661.842188949
 30
0.0
 40
24.7919579756684
100
AcDbArc
 50
272.5513458208
 51
279.6865492766
  0
LINE
  5
11F
330
1F
100
AcDbEntity
  8
0
  6
Continuous
 62
     8
370
    18
100
AcDbLine
 10
148.513963483
 20
637.4036900076
 30
0.0
 11
147.9733176899
 21
637.5436268123
 31
0.0
  0
ARC
  5
120
330
1F
100
AcDbEntity
  8
0
  6
Continuous
 62
     8
370
    18
100
AcDbCircle
 10
149.2920818662
 20
637.7281905758
 30
0.0
 40
2.577241552067121
100
AcDbArc
 50
44.1456931104
 51
71.8563023752
  0
LINE
  5
121
330
1F
100
AcDbEntity
  8
0
  6
Continuous
 62
     8
370
    18
100
AcDbLine
 10
151.1414358762
 20
639.5232013735
 30
0.0
 11
151.9060242359
 21
639.5232013735
 31
0.0
  0
ARC
  5
122
330
1F
100
AcDbEntity
  8
0
  6
Continuous
 62
     8
370
    18
100
AcDbCircle
 10
149.8228079936
 20
637.603106663
 30
0.0
 40
2.833117295376292
100
AcDbArc
 50
42.6666793751
 51
73.3348374387
  0
LINE
  5
123
330
1F
100
AcDbEntity
  8
0
  6
Continuous
 62
     8
370
    18
100
AcDbLine
 10
150.635283943
 20
640.3172246488
 30
0.0
 11
150.0946381499
 21
640.1772878441
 31
0.0
  0
ARC
  5
124
330
1F
100
AcDbEntity
  8
0
  6
Continuous
 62
     8
370
    18
100
AcDbCircle
 10
143.5814819582
 20
618.4849609325
 30
0.0
 40
22.54090453020097
100
AcDbArc
 50
92.8871385655
 51
99.3511416039
  0
LINE
  5
125
330
1F
100
AcDbEntity
  8
0
  6
Continuous
 62
     8
370
    18
100
AcDbLine
 10
142.4461247303
 20
640.9972540411
 30
0.0
 11
142.4461247303
 21
641.1951414617
 31
0.0
  0
ARC
  5
126
330
1F
100
AcDbEntity
  8
0
  6
Continuous
 62
     8
370
    18
100
AcDbCircle
 10
143.54945787
 20
616.430302736
 30
0.0
 40
24.7894046142426
100
AcDbArc
 50
92.5509778745
 51
99.6869172229
  0
LINE
  5
127
330
1F
100
AcDbEntity
  8
0
  6
Continuous
 62
     8
370
    18
100
AcDbLine
 10
139.3782860038
 20
640.866257933
 30
0.0
 11
139.9189317968
 21
640.7263211283
 31
0.0
  0
LWPOLYLINE
  5
128
330
1F
100
AcDbEntity
  8
0
  6
Continuous
 62
     8
370
    18
100
AcDbPolyline
 90
       10
 70
   128
 43
0.0
 10
143.9461247434
 20
642.9479054483
 10
141.9819989611
 20
642.9021588835
 10
140.0810017154
 20
642.7663646015
 10
138.3042326567
 20
642.544918445
 10
136.7087988552
 20
642.2448984655
 10
135.3459782337
 20
641.8759755167
 10
134.2595736866
 20
641.4500109228
 10
133.4845028256
 20
640.9806690487
 10
133.0456775983
 20
640.4830596718
 10
132.946124803
 20
640.1009044918
  0
LWPOLYLINE
  5
129
330
1F
100
AcDbEntity
  8
0
  6
Continuous
 62
     8
370
    18
100
AcDbPolyline
 90
       10
 70
   128
 43
0.0
 10
154.9461246838
 20
640.1009044918
 10
154.8465718885
 20
640.4830596718
 10
154.4077466612
 20
640.9806690487
 10
153.6326758002
 20
641.4500109228
 10
152.5462712531
 20
641.8759755167
 10
151.1834506315
 20
642.2448984655
 10
149.5880168301
 20
642.544918445
 10
147.8112477713
 20
642.7663646015
 10
145.9102505256
 20
642.9021588835
 10
143.9461247434
 20
642.9479054483
  0
LWPOLYLINE
  5
12A
330
1F
100
AcDbEntity
  8
0
  6
Continuous
 62
     8
370
    18
100
AcDbPolyline
 90
       10
 70
   128
 43
0.0
 10
143.9461247434
 20
664.1982875141
 10
141.9819989611
 20
664.1525409492
 10
140.0810017154
 20
664.0167317661
 10
138.3042326567
 20
663.7952707084
 10
136.7087988552
 20
663.4952805313
 10
135.3459782337
 20
663.1263575825
 10
134.2595736866
 20
662.7003631862
 10
133.4845028256
 20
662.2310362133
 10
133.0456775983
 20
661.7334268364
 10
132.946124803
 20
661.3512716564
  0
LWPOLYLINE
  5
12B
330
1F
100
AcDbEntity
  8
0
  6
Continuous
 62
     8
370
    18
100
AcDbPolyline
 90
       10
 70
   128
 43
0.0
 10
154.9461246838
 20
661.3512716564
 10
154.8465718885
 20
661.7334268364
 10
154.4077466612
 20
662.2310362133
 10
153.6326758002
 20
662.7003631862
 10
152.5462712531
 20
663.1263575825
 10
151.1834506315
 20
663.4952805313
 10
149.5880168301
 20
663.7952707084
 10
147.8112477713
 20
664.0167317661
 10
145.9102505256
 20
664.1525409492
 10
143.9461247434
 20
664.1982875141
  0
LINE
  5
12C
330
1F
100
AcDbEntity
  8
0
  6
Continuous
 62
     8
370
    18
100
AcDbLine
 10
132.946124803
 20
635.9870068106
 30
0.0
 11
154.9461246838
 21
635.9870068106
 31
0.0
  0
LINE
  5
12D
330
1F
100
AcDbEntity
  8
0
  6
Continuous
 62
     8
370
    18
100
AcDbLine
 10
168.9461251159
 20
410.8901743154
 30
0.0
 11
118.9461243708
 21
410.8901743154
 31
0.0
  0
LINE
  5
12E
330
1F
100
AcDbEntity
  8
0
  6
Continuous
 62
     8
370
    18
100
AcDbLine
 10
143.9461247434
 20
407.7009010058
 30
0.0
 11
168.9461251159
 21
407.7009010058
 31
0.0
  0
LINE
  5
12F
330
1F
100
AcDbEntity
  8
0
  6
Continuous
 62
     8
370
    18
100
AcDbLine
 10
118.9461243708
 20
407.7009010058
 30
0.0
 11
143.9461247434
 21
407.7009010058
 31
0.0
  0
LINE
  5
130
330
1F
100
AcDbEntity
  8
0
  6
Continuous
 62
     8
370
    18
100
AcDbLine
 10
119.5002408136
 20
411.7852647165
 30
0.0
 11
168.3920086731
 21
411.7852647165
 31
0.0
  0
LINE
  5
131
330
1F
100
AcDbEntity
  8
0
  6
Continuous
 62
     8
370
    18
100
AcDbLine
 10
163.3717161973
 20
413.6684203828
 30
0.0
 11
124.5205332895
 21
413.6684203828
 31
0.0
  0
SPLINE
  5
132
330
1F
100
AcDbEntity
  8
0
  6
Continuous
 62
     8
370
    18
100
AcDbSpline
210
0.0
220
0.0
230
1.0
 70
     8
 71
     3
 72
    56
 73
    52
 74
     0
 42
0.000000001
 43
0.00000001
 40
0.0
 40
0.0
 40
0.0
 40
0.0
 40
0.0160814927129622
 40
0.0321102186349042
 40
0.0480846172535547
 40
0.0600279587992716
 40
0.0659871554845861
 40
0.0778842471996474
 40
0.0956617924914917
 40
0.1095840610952519
 40
0.1303576724113741
 40
0.1441321345048296
 40
0.1509949421364433
 40
0.1850450990260149
 40
0.2052568428097526
 40
0.2185622217956477
 40
0.244936174564693
 40
0.2580035740168184
 40
0.2709911596788592
 40
0.3094659507848199
 40
0.3294828482766434
 40
0.3361121926683331
 40
0.3624150347884231
 40
0.3819256563253703
 40
0.3883894158854889
 40
0.4012594094003845
 40
0.4398941876848532
 40
0.4463106188354627
 40
0.4590925148535152
 40
0.4907662740169599
 40
0.5033323461757023
 40
0.5158424944522364
 40
0.5282979170030631
 40
0.5407023365939042
 40
0.5715044231231718
 40
0.5837505897514218
 40
0.5898589739282436
 40
0.6387065739560269
 40
0.6631160552556793
 40
0.7117117103025378
 40
0.7480223052478595
 40
0.7722612576018655
 40
0.78440512148558
 40
0.8197194690521312
 40
0.8571882630031783
 40
0.8808599841970244
 40
0.9065885111806269
 40
0.9292011991216902
 40
0.952502726291578
 40
0.9762043391734726
 40
1.0
 40
1.0
 40
1.0
 40
1.0
 10
145.3420851502598
 20
486.581218178407
 30
0.0
 10
145.4784739193442
 20
486.6462532409674
 30
0.0
 10
145.7508039370121
 20
486.7761099722437
 30
0.0
 10
146.1576894593231
 20
486.9701844423763
 30
0.0
 10
146.5287403433651
 20
487.1471885847265
 30
0.0
 10
146.8140772870507
 20
487.2833121874276
 30
0.0
 10
147.0646454410918
 20
487.4028364364044
 30
0.0
 10
147.3637359722269
 20
487.5454955069507
 30
0.0
 10
147.7284663315458
 20
487.7194566053722
 30
0.0
 10
148.1656742089125
 20
487.928003645394
 30
0.0
 10
148.5675882963072
 20
488.1197335448605
 30
0.0
 10
148.909091368197
 20
488.2826256569982
 30
0.0
 10
149.358483450022
 20
488.4969774546962
 30
0.0
 10
149.8572111260381
 20
488.7348694017754
 30
0.0
 10
150.4021590204773
 20
488.994783678078
 30
0.0
 10
150.8814566292331
 20
489.2233537859203
 30
0.0
 10
151.2994981993022
 20
489.4227088850745
 30
0.0
 10
151.710488226296
 20
489.6187097978705
 30
0.0
 10
152.2125074679242
 20
489.8581075780709
 30
0.0
 10
152.7599533383478
 20
490.1191981561864
 30
0.0
 10
153.2483635113838
 20
490.3521690714856
 30
0.0
 10
153.6414569464706
 20
490.5396895632689
 30
0.0
 10
154.0258236917804
 20
490.7230427208149
 30
0.0
 10
154.4014900468323
 20
490.902258065971
 30
0.0
 10
154.6773167140764
 20
491.0338484064774
 30
0.0
 10
155.0852082900297
 20
491.2284234330661
 30
0.0
 10
155.4826442075536
 20
491.4180063177451
 30
0.0
 10
155.8695168168656
 20
491.6025330048271
 30
0.0
 10
156.206082139442
 20
491.7630575073488
 30
0.0
 10
156.5733324682658
 20
491.938195474686
 30
0.0
 10
156.9281422023346
 20
492.107402439384
 30
0.0
 10
157.1587235020958
 20
492.2173666621077
 30
0.0
 10
157.3841657695821
 20
492.3248805641733
 30
0.0
 10
157.7136457564624
 20
492.482017973999
 30
0.0
 10
158.0307577321373
 20
492.6332836838047
 30
0.0
 10
158.3013456978844
 20
492.7623714190123
 30
0.0
 10
158.6650252532649
 20
492.9358731473425
 30
0.0
 10
159.0724603253453
 20
493.130277881308
 30
0.0
 10
159.6483269494677
 20
493.4049339985965
 30
0.0
 10
160.1194905369853
 20
493.6295603101894
 30
0.0
 10
160.53294036351
 20
493.826740531994
 30
0.0
 10
160.7800794108044
 20
493.944614876073
 30
0.0
 10
161.0066437084356
 20
494.0526770339766
 30
0.0
 10
161.248231967486
 20
494.1679057640789
 30
0.0
 10
161.474375042978
 20
494.2758109764807
 30
0.0
 10
161.6406901081468
 20
494.3550687742494
 30
0.0
 10
161.7529439320393
 20
494.408678792798
 30
0.0
 10
161.8396540551853
 20
494.4501949308409
 30
0.0
 10
161.9001829742778
 20
494.4791164410091
 30
0.0
 10
161.9386282237753
 20
494.4974124485288
 30
0.0
 10
161.9437507401758
 20
494.4997187350075
 30
0.0
 10
161.9463170698475
 20
494.5008741615517
 30
0.0
  0
LINE
  5
133
330
1F
100
AcDbEntity
  8
0
  6
Continuous
 62
     8
370
    18
100
AcDbLine
 10
145.3420450349
 20
486.5811473998
 30
0.0
 11
145.3420450349
 21
452.4206563207
 31
0.0
  0
SPLINE
  5
134
330
1F
100
AcDbEntity
  8
0
  6
Continuous
 62
     8
370
    18
100
AcDbSpline
210
0.0
220
0.0
230
1.0
 70
     8
 71
     3
 72
    17
 73
    13
 74
     0
 42
0.000000001
 43
0.00000001
 40
0.0
 40
0.0
 40
0.0
 40
0.0
 40
0.1620760986191608
 40
0.305093715504937
 40
0.4291365959701326
 40
0.5343444232773205
 40
0.6015361432198769
 40
0.6672808155020066
 40
0.731661236760525
 40
0.7947655639941736
 40
0.9173719439987413
 40
1.0
 40
1.0
 40
1.0
 40
1.0
 10
145.3420450349092
 20
452.4206563206983
 30
0.0
 10
146.6665871698084
 20
451.7936399094723
 30
0.0
 10
149.159918911639
 20
450.6133377661378
 30
0.0
 10
152.4698473654228
 20
449.0503440695181
 30
0.0
 10
155.0970016467844
 20
447.7819994296403
 30
0.0
 10
156.9639250502795
 20
446.8746071111221
 30
0.0
 10
158.2968741199661
 20
446.2432677260766
 30
0.0
 10
159.2778696104872
 20
445.7783852809503
 30
0.0
 10
160.1101314821699
 20
445.384262911569
 30
0.0
 10
160.9959009107509
 20
444.9631706598074
 30
0.0
 10
161.7050050945644
 20
444.6209012961887
 30
0.0
 10
161.8140567105883
 20
444.5663256197896
 30
0.0
 10
161.8579612483024
 20
444.5443532737565
 30
0.0
  0
LINE
  5
135
330
1F
100
AcDbEntity
  8
0
  6
Continuous
 62
     8
370
    18
100
AcDbLine
 10
143.9461247434
 20
506.9927207502
 30
0.0
 11
125.9461255182
 21
506.9927207502
 31
0.0
  0
LINE
  5
136
330
1F
100
AcDbEntity
  8
0
  6
Continuous
 62
     8
370
    18
100
AcDbLine
 10
161.9461239685
 20
506.9927207502
 30
0.0
 11
143.9461247434
 21
506.9927207502
 31
0.0
  0
LINE
  5
137
330
1F
100
AcDbEntity
  8
0
  6
Continuous
 62
     8
370
    18
100
AcDbLine
 10
125.9461255182
 20
413.9009008492
 30
0.0
 11
161.9461239685
 21
413.9009008492
 31
0.0
  0
SPLINE
  5
138
330
1F
100
AcDbEntity
  8
0
  6
Continuous
 62
     8
370
    18
100
AcDbSpline
210
0.0
220
0.0
230
1.0
 70
     8
 71
     3
 72
    40
 73
    36
 74
     0
 42
0.000000001
 43
0.00000001
 40
0.0
 40
0.0
 40
0.0
 40
0.0
 40
0.0613365666388642
 40
0.0826124371451009
 40
0.1043656368230126
 40
0.1266433692673631
 40
0.1474594140181798
 40
0.1705049007535623
 40
0.1958035360736158
 40
0.2233732683136517
 40
0.2532278435830471
 40
0.2984609474599663
 40
0.3345951404347784
 40
0.3492523790208317
 40
0.3616333485649542
 40
0.3717393236398571
 40
0.3795724983683612
 40
0.4470555383537591
 40
0.5063563599904348
 40
0.5655622188063675
 40
0.581594331103163
 40
0.5981670450835094
 40
0.6153080858783516
 40
0.633042752868274
 40
0.6511250907671948
 40
0.6782579563934266
 40
0.7013820331483985
 40
0.7285331242968237
 40
0.7597112854714524
 40
0.7966287979769248
 40
0.8299786161228121
 40
0.8597897933583175
 40
0.8861035258607571
 40
0.9514947434739527
 40
1.0
 40
1.0
 40
1.0
 40
1.0
 10
169.9461159665822
 20
486.5009046467615
 30
0.0
 10
169.8939486290504
 20
486.4384829935512
 30
0.0
 10
169.8236859598297
 20
486.3544090848715
 30
0.0
 10
169.4640200100252
 20
485.9022676079167
 30
0.0
 10
169.1897596573666
 20
485.5529746106737
 30
0.0
 10
168.8635285201292
 20
485.1318493513316
 30
0.0
 10
168.4796597373561
 20
484.6371459803474
 30
0.0
 10
168.0350282277724
 20
484.0539326734202
 30
0.0
 10
167.5092972173234
 20
483.3389504296633
 30
0.0
 10
166.9033195347135
 20
482.4761593782088
 30
0.0
 10
166.1104329528671
 20
481.3041387540591
 30
0.0
 10
165.23887099066
 20
479.8917138363521
 30
0.0
 10
164.5028762354218
 20
478.5494344856071
 30
0.0
 10
164.0276863248027
 20
477.6219335535643
 30
0.0
 10
163.7536492780587
 20
477.0624368690999
 30
0.0
 10
163.5350293705299
 20
476.5960219937957
 30
0.0
 10
162.9515780649672
 20
475.2539603682621
 30
0.0
 10
162.2166224623171
 20
472.9537808940544
 30
0.0
 10
161.7934238199879
 20
469.5123437375552
 30
0.0
 10
162.0952783324862
 20
467.0149294579973
 30
0.0
 10
162.4782021806834
 20
465.4003501021709
 30
0.0
 10
162.7233561163196
 20
464.5449379620347
 30
0.0
 10
163.0140404526547
 20
463.6852242053088
 30
0.0
 10
163.3434436483449
 20
462.826764994405
 30
0.0
 10
163.7908471843811
 20
461.8495891296401
 30
0.0
 10
164.3027453835601
 20
460.8335716283162
 30
0.0
 10
164.8935418607316
 20
459.7372936926739
 30
0.0
 10
165.5223577000261
 20
458.644627591356
 30
0.0
 10
166.2690118297051
 20
457.4586241944283
 30
0.0
 10
167.0496316900274
 20
456.310351849714
 30
0.0
 10
167.7692401930125
 20
455.3024942178032
 30
0.0
 10
168.3658008069597
 20
454.5116010831691
 30
0.0
 10
169.0790221644596
 20
453.5911179783068
 30
0.0
 10
169.7286046702992
 20
452.7632378948712
 30
0.0
 10
169.8401023777699
 20
452.6297736315118
 30
0.0
 10
169.8875860680579
 20
452.5729350122285
 30
0.0
  0
SPLINE
  5
139
330
1F
100
AcDbEntity
  8
0
  6
Continuous
 62
     8
370
    18
100
AcDbSpline
210
0.0
220
0.0
230
1.0
 70
     8
 71
     3
 72
    12
 73
     8
 74
     0
 42
0.000000001
 43
0.00000001
 40
0.0
 40
0.0
 40
0.0
 40
0.0
 40
0.0609015305010926
 40
0.2314988766871925
 40
0.4025407690871931
 40
0.5825123830082308
 40
0.9999999999999999
 40
0.9999999999999999
 40
0.9999999999999999
 40
0.9999999999999999
 10
162.5747462172746
 20
448.8913423689676
 30
0.0
 10
162.6298069750831
 20
449.0622425670456
 30
0.0
 10
162.8391039086303
 20
449.7118683408997
 30
0.0
 10
163.5570439182447
 20
450.6955475933844
 30
0.0
 10
164.785017076349
 20
451.6426394571034
 30
0.0
 10
166.9307101005016
 20
452.4556684521512
 30
0.0
 10
168.7058166776978
 20
452.4821974484594
 30
0.0
 10
169.9462109614848
 20
452.500735160954
 30
0.0
  0
SPLINE
  5
13A
330
1F
100
AcDbEntity
  8
0
  6
Continuous
 62
     8
370
    18
100
AcDbSpline
210
0.0
220
0.0
230
1.0
 70
     8
 71
     3
 72
    12
 73
     8
 74
     0
 42
0.000000001
 43
0.00000001
 40
0.0
 40
0.0
 40
0.0
 40
0.0
 40
0.4319692760038927
 40
0.6187077509251732
 40
0.7964750147917378
 40
0.9762621177338423
 40
1.0
 40
1.0
 40
1.0
 40
1.0
 10
169.9461494941949
 20
486.5010313066316
 30
0.0
 10
168.761251109146
 20
486.5175119331707
 30
0.0
 10
167.0641262078789
 20
486.5411170642442
 30
0.0
 10
164.9876732623716
 20
487.2617867400013
 30
0.0
 10
163.7687858705845
 20
488.1142756876768
 30
0.0
 10
163.0563141651795
 20
488.9209312666718
 30
0.0
 10
162.8550411001735
 20
489.4376422076813
 30
0.0
 10
162.8315658678054
 20
489.4979081424547
 30
0.0
  0
LINE
  5
13B
330
1F
100
AcDbEntity
  8
0
  6
Continuous
 62
     8
370
    18
100
AcDbLine
 10
126.3627992381
 20
507.8049606952
 30
0.0
 11
161.5294502486
 21
507.8049606952
 31
0.0
  0
SPLINE
  5
13C
330
1F
100
AcDbEntity
  8
0
  6
Continuous
 62
     8
370
    18
100
AcDbSpline
210
0.0
220
0.0
230
1.0
 70
     8
 71
     3
 72
    12
 73
     8
 74
     0
 42
0.000000001
 43
0.00000001
 40
0.0
 40
0.0
 40
0.0
 40
0.0
 40
0.2500000000000001
 40
0.2500000000000001
 40
0.5000000000000001
 40
0.5000000000000001
 40
1.0
 40
1.0
 40
1.0
 40
1.0
 10
190.4461247433663
 20
469.9072273392812
 30
0.0
 10
190.4461247433663
 20
469.2448330809884
 30
0.0
 10
190.4696320389922
 20
468.5859473741953
 30
0.0
 10
190.5654528420626
 20
467.2751941983055
 30
0.0
 10
190.6384101704627
 20
466.6207312801706
 30
0.0
 10
190.9261734386889
 20
464.712946953843
 30
0.0
 10
191.2096649479184
 20
463.500927196412
 30
0.0
 10
191.5795285861994
 20
462.3451168228363
 30
0.0
  0
LWPOLYLINE
  5
13D
330
1F
100
AcDbEntity
  8
0
  6
Continuous
 62
     8
370
    18
100
AcDbPolyline
 90
        9
 70
   128
 43
0.0
 10
191.5795267929
 20
462.3451165232
 10
191.5082396378
 20
462.3287177953
 10
191.4394372512
 20
462.3187042149
 10
191.3755187203
 20
462.3154259595
 10
191.3187229444
 20
462.3189985129
 10
191.2710243274
 20
462.3292989405
 10
191.2340880741
 20
462.3459621641
 10
191.2092031349
 20
462.3684107634
 10
191.1972375025
 20
462.3958624276
  0
ARC
  5
13E
330
1F
100
AcDbEntity
  8
0
  6
Continuous
 62
     8
370
    18
100
AcDbCircle
 10
190.3462590573
 20
466.3484967364
 30
0.0
 40
3.560132828283856
100
AcDbArc
 50
88.3925610448
 51
94.8359887151
  0
LINE
  5
13F
330
1F
100
AcDbEntity
  8
0
  6
Continuous
 62
     8
370
    18
100
AcDbLine
 10
185.6461265494
 20
452.500902799
 30
0.0
 11
185.6461265494
 21
486.5009046468
 31
0.0
  0
LINE
  5
140
330
1F
100
AcDbEntity
  8
0
  6
Continuous
 62
     8
370
    18
100
AcDbLine
 10
218.1826071252
 20
484.2211089405
 30
0.0
 11
218.1826071252
 21
453.2727084431
 31
0.0
  0
LINE
  5
141
330
1F
100
AcDbEntity
  8
0
  6
Continuous
 62
     8
370
    18
100
AcDbLine
 10
217.1947644462
 20
452.4281776818
 30
0.0
 11
217.1947644462
 21
484.9944121512
 31
0.0
  0
ARC
  5
142
330
1F
100
AcDbEntity
  8
0
  6
Continuous
 62
     8
370
    18
100
AcDbCircle
 10
217.2268417323
 20
484.017785927
 30
0.0
 40
0.9771528714133518
100
AcDbArc
 50
12.0096818204
 51
91.8812034649
  0
SPLINE
  5
143
330
1F
100
AcDbEntity
  8
0
  6
Continuous
 62
     8
370
    18
100
AcDbSpline
210
0.0
220
0.0
230
1.0
 70
     8
 71
     3
 72
    13
 73
     9
 74
     0
 42
0.000000001
 43
0.00000001
 40
0.0
 40
0.0
 40
0.0
 40
0.0
 40
0.3410648351346218
 40
0.5172473709594242
 40
0.6038313097892063
 40
0.6904137461739456
 40
0.8675429334400051
 40
1.0
 40
1.0
 40
1.0
 40
1.0
 10
202.046124767208
 20
486.3507083925081
 30
0.0
 10
202.0601135838731
 20
486.367909934831
 30
0.0
 10
202.0813285491744
 20
486.3939972109921
 30
0.0
 10
202.1938221625319
 20
486.4108430786549
 30
0.0
 10
202.2737347274478
 20
486.4182176194315
 30
0.0
 10
202.3657498754747
 20
486.4238072337346
 30
0.0
 10
202.485387088274
 20
486.4277160353611
 30
0.0
 10
202.6008084963572
 20
486.4277901791327
 30
0.0
 10
202.6501917649745
 20
486.4278219016862
 30
0.0
  0
LINE
  5
144
330
1F
100
AcDbEntity
  8
0
  6
Continuous
 62
     8
370
    18
100
AcDbLine
 10
202.0461247672
 20
485.8846000704
 30
0.0
 11
202.0461247672
 21
486.3507083925
 31
0.0
  0
SPLINE
  5
145
330
1F
100
AcDbEntity
  8
0
  6
Continuous
 62
     8
370
    18
100
AcDbSpline
210
0.0
220
0.0
230
1.0
 70
     8
 71
     3
 72
    22
 73
    18
 74
     0
 42
0.000000001
 43
0.00000001
 40
0.0
 40
0.0
 40
0.0
 40
0.0
 40
0.125
 40
0.125
 40
0.25
 40
0.25
 40
0.375
 40
0.375
 40
0.5
 40
0.5
 40
0.625
 40
0.625
 40
0.75
 40
0.75
 40
0.875
 40
0.875
 40
1.0
 40
1.0
 40
1.0
 40
1.0
 10
205.0461247433662
 20
484.9944154655017
 30
0.0
 10
204.8575755481561
 20
484.9944154655017
 30
0.0
 10
204.6715217169815
 20
485.0009599165363
 30
0.0
 10
204.3042645797001
 20
485.0265224215839
 30
0.0
 10
204.1215862047279
 20
485.045767891015
 30
0.0
 10
203.7689591967588
 20
485.0957928834685
 30
0.0
 10
203.5999973630625
 20
485.1262992590256
 30
0.0
 10
203.2770672271429
 20
485.1973705816552
 30
0.0
 10
203.1221417344591
 20
485.238340175471
 30
0.0
 10
202.8399760921931
 20
485.326471683527
 30
0.0
 10
202.7113054061021
 20
485.3738516741695
 30
0.0
 10
202.4807212386526
 20
485.4741805834021
 30
0.0
 10
202.3805515868841
 20
485.526553679681
 30
0.0
 10
202.2181295988284
 20
485.6309108411264
 30
0.0
 10
202.1543297146914
 20
485.6838014160176
 30
0.0
 10
202.0680715015408
 20
485.7874233784431
 30
0.0
 10
202.0461247433662
 20
485.8371679965663
 30
0.0
 10
202.0461247433662
 20
485.8846023570542
 30
0.0
  0
LINE
  5
146
330
1F
100
AcDbEntity
  8
0
  6
Continuous
 62
     8
370
    18
100
AcDbLine
 10
217.1947644462
 20
484.9944121512
 30
0.0
 11
205.0461233963
 21
484.9944121512
 31
0.0
  0
LINE
  5
147
330
1F
100
AcDbEntity
  8
0
  6
Continuous
 62
     8
370
    18
100
AcDbLine
 10
190.4461258461
 20
486.4281795296
 30
0.0
 11
190.4461258461
 21
469.9072285863
 31
0.0
  0
SPLINE
  5
148
330
1F
100
AcDbEntity
  8
0
  6
Continuous
 62
     8
370
    18
100
AcDbSpline
210
0.0
220
0.0
230
1.0
 70
     8
 71
     3
 72
     8
 73
     4
 74
     0
 42
0.000000001
 43
0.00000001
 40
0.0
 40
0.0
 40
0.0
 40
0.0
 40
1.0
 40
1.0
 40
1.0
 40
1.0
 10
218.1740050231403
 20
484.4746468583261
 30
0.0
 10
218.1797365301927
 20
484.3766573080021
 30
0.0
 10
218.1826042038317
 20
484.2921383925962
 30
0.0
 10
218.1826042038317
 20
484.2211115715155
 30
0.0
  0
SPLINE
  5
149
330
1F
100
AcDbEntity
  8
0
  6
Continuous
 62
     8
370
    18
100
AcDbSpline
210
0.0
220
0.0
230
1.0
 70
     8
 71
     3
 72
    17
 73
    13
 74
     0
 42
0.000000001
 43
0.00000001
 40
0.0
 40
0.0
 40
0.0
 40
0.0
 40
0.0108155762302435
 40
0.1415910342270814
 40
0.2751918857368414
 40
0.3769307427013163
 40
0.482667631876916
 40
0.5494324886920351
 40
0.6172505537829781
 40
0.7352307859841815
 40
0.855869878342234
 40
1.0
 40
1.0
 40
1.0
 40
1.0
 10
218.2650179971694
 20
485.0491962703538
 30
0.0
 10
218.2678218731232
 20
485.0313421326405
 30
0.0
 10
218.3045285346724
 20
484.7976064748956
 30
0.0
 10
218.3610056661627
 20
484.3955054722912
 30
0.0
 10
218.4206074392651
 20
483.9345457281495
 30
0.0
 10
218.4498965495838
 20
483.637430004224
 30
0.0
 10
218.4523991155771
 20
483.5160633375147
 30
0.0
 10
218.4386628890178
 20
483.5022425243159
 30
0.0
 10
218.4125060061168
 20
483.5561491691792
 30
0.0
 10
218.3633582370801
 20
483.7216630991072
 30
0.0
 10
218.2825514381685
 20
484.0354687021596
 30
0.0
 10
218.2122636554997
 20
484.3198425962382
 30
0.0
 10
218.1740017045974
 20
484.4746447476221
 30
0.0
  0
SPLINE
  5
14A
330
1F
100
AcDbEntity
  8
0
  6
Continuous
 62
     8
370
    18
100
AcDbSpline
210
0.0
220
0.0
230
1.0
 70
     8
 71
     3
 72
    22
 73
    18
 74
     0
 42
0.000000001
 43
0.00000001
 40
0.0
 40
0.0
 40
0.0
 40
0.0
 40
0.125
 40
0.125
 40
0.25
 40
0.25
 40
0.375
 40
0.375
 40
0.5
 40
0.5
 40
0.625
 40
0.625
 40
0.75
 40
0.75
 40
0.875
 40
0.875
 40
1.0
 40
1.0
 40
1.0
 40
1.0
 10
214.0995655361501
 20
516.9308829793448
 30
0.0
 10
214.3630121551664
 20
516.9303241262782
 30
0.0
 10
214.623643132208
 20
516.9044282178369
 30
0.0
 10
215.1393085364536
 20
516.8022739720806
 30
0.0
 10
215.3900481545299
 20
516.7265972694892
 30
0.0
 10
215.8700559234174
 20
516.5301298517087
 30
0.0
 10
216.1024517387923
 20
516.4078436827843
 30
0.0
 10
216.5386615694012
 20
516.1206169149782
 30
0.0
 10
216.7397247018483
 20
515.9580423141538
 30
0.0
 10
217.1085076339094
 20
515.5957892719929
 30
0.0
 10
217.2774591247579
 20
515.393744782699
 30
0.0
 10
217.5680202266913
 20
514.967118549049
 30
0.0
 10
217.6912154177915
 20
514.7416771200839
 30
0.0
 10
217.8929963797351
 20
514.2662927555956
 30
0.0
 10
217.9705529344398
 20
514.0170488994355
 30
0.0
 10
218.0737830486823
 20
513.5153051099343
 30
0.0
 10
218.1006823020989
 20
513.2602253625856
 30
0.0
 10
218.1018096624455
 20
513.0007574841462
 30
0.0
  0
ARC
  5
14B
330
1F
100
AcDbEntity
  8
0
  6
Continuous
 62
     8
370
    18
100
AcDbCircle
 10
217.3234065269
 20
514.5535312421
 30
0.0
 40
1.736958248042128
100
AcDbArc
 50
262.7036173369
 51
296.6246333752
  0
SPLINE
  5
14C
330
1F
100
AcDbEntity
  8
0
  6
Continuous
 62
     8
370
    18
100
AcDbSpline
210
0.0
220
0.0
230
1.0
 70
     8
 71
     3
 72
    20
 73
    16
 74
     0
 42
0.000000001
 43
0.00000001
 40
0.0
 40
0.0
 40
0.0
 40
0.0
 40
0.1249999999999996
 40
0.1249999999999996
 40
0.2499999999999992
 40
0.2499999999999992
 40
0.3749999999999988
 40
0.3749999999999988
 40
0.4999999999999983
 40
0.4999999999999983
 40
0.6249999999999979
 40
0.6249999999999979
 40
0.7499999999999976
 40
0.7499999999999976
 40
1.0
 40
1.0
 40
1.0
 40
1.0
 10
217.1028128990216
 20
512.830638563818
 30
0.0
 10
217.1019667914766
 20
513.0252849464553
 30
0.0
 10
217.0817738035374
 20
513.2166019369954
 30
0.0
 10
217.004282286164
 20
513.5928504495091
 30
0.0
 10
216.9460623208219
 20
513.779717734827
 30
0.0
 10
216.7946013450916
 20
514.1360317265883
 30
0.0
 10
216.7021316089572
 20
514.3049606636064
 30
0.0
 10
216.4840471896416
 20
514.6245462999999
 30
0.0
 10
216.3572454230245
 20
514.7758410632299
 30
0.0
 10
216.0804859284066
 20
515.046986215199
 30
0.0
 10
215.9296011987639
 20
515.168611956624
 30
0.0
 10
215.602271245952
 20
515.3833557642961
 30
0.0
 10
215.4278998563833
 20
515.474698657548
 30
0.0
 10
214.8876694198977
 20
515.694573884836
 30
0.0
 10
214.4948551562069
 20
515.7724270486655
 30
0.0
 10
214.0995655361502
 20
515.7724270486657
 30
0.0
  0
LINE
  5
14D
330
1F
100
AcDbEntity
  8
0
  6
Continuous
 62
     8
370
    18
100
AcDbLine
 10
214.0995622982
 20
516.9308862957
 30
0.0
 11
214.0995622982
 21
515.772425321
 31
0.0
  0
LWPOLYLINE
  5
14E
330
1F
100
AcDbEntity
  8
0
  6
Continuous
 62
     8
370
    18
100
AcDbPolyline
 90
        6
 70
   128
 43
0.0
 10
217.2111631741
 20
487.1730364236
 10
217.1893404235
 20
492.4697137746
 10
217.1672271003
 20
497.7663911256
 10
217.1448232044
 20
503.0630684766
 10
217.1221585382
 20
508.3597458276
 10
217.1028093804
 20
512.8306380781
  0
LINE
  5
14F
330
1F
100
AcDbEntity
  8
0
  6
Continuous
 62
     8
370
    18
100
AcDbLine
 10
205.0461233963
 20
487.1730364236
 30
0.0
 11
217.2111631741
 21
487.1730364236
 31
0.0
  0
LINE
  5
150
330
1F
100
AcDbEntity
  8
0
  6
Continuous
 62
     8
370
    18
100
AcDbLine
 10
205.0461233963
 20
512.8180018934
 30
0.0
 11
205.0461233963
 21
487.1730364236
 31
0.0
  0
ARC
  5
151
330
1F
100
AcDbEntity
  8
0
  6
Continuous
 62
     8
370
    18
100
AcDbCircle
 10
208.0235053576
 20
512.7950407228
 30
0.0
 40
2.977470496743643
100
AcDbArc
 50
89.5647808861
 51
179.558151388
  0
LINE
  5
152
330
1F
100
AcDbEntity
  8
0
  6
Continuous
 62
     8
370
    18
100
AcDbLine
 10
214.0995622982
 20
515.772425321
 30
0.0
 11
208.0461220254
 21
515.772425321
 31
0.0
  0
LINE
  5
153
330
1F
100
AcDbEntity
  8
0
  6
Continuous
 62
     8
370
    18
100
AcDbLine
 10
208.0461220254
 20
516.9308862957
 30
0.0
 11
214.0995622982
 21
516.9308862957
 31
0.0
  0
LINE
  5
154
330
1F
100
AcDbEntity
  8
0
  6
Continuous
 62
     8
370
    18
100
AcDbLine
 10
208.0461220254
 20
516.9308862957
 30
0.0
 11
208.0461220254
 21
515.772425321
 31
0.0
  0
ARC
  5
155
330
1F
100
AcDbEntity
  8
0
  6
Continuous
 62
     8
370
    18
100
AcDbCircle
 10
204.8036660096
 20
514.3879272343
 30
0.0
 40
1.588537428064337
100
AcDbArc
 50
241.5182060308
 51
278.7793303504
  0
SPLINE
  5
156
330
1F
100
AcDbEntity
  8
0
  6
Continuous
 62
     8
370
    18
100
AcDbSpline
210
0.0
220
0.0
230
1.0
 70
     8
 71
     3
 72
    11
 73
     7
 74
     0
 42
0.000000001
 43
0.00000001
 40
0.0
 40
0.0
 40
0.0
 40
0.0
 40
0.0147142440369684
 40
0.0147142440369684
 40
0.0147142440369684
 40
0.026054069920497
 40
0.026054069920497
 40
0.026054069920497
 40
0.026054069920497
 10
218.1018096624455
 20
513.0007574841462
 30
0.0
 10
218.1220316936846
 20
508.1675821656553
 30
0.0
 10
218.1414620614801
 20
503.3343270015453
 30
0.0
 10
218.159993002194
 20
498.5009955272836
 30
0.0
 10
218.1742742416531
 20
494.7760921219483
 30
0.0
 10
218.1880210523648
 20
491.0511433397608
 30
0.0
 10
218.2011827898517
 20
487.3261524583673
 30
0.0
  0
ARC
  5
157
330
1F
100
AcDbEntity
  8
0
  6
Continuous
 62
     8
370
    18
100
AcDbCircle
 10
217.4000608581
 20
489.2288404463
 30
0.0
 40
2.064464219850763
100
AcDbArc
 50
264.7501152079
 51
292.8333763124
  0
SPLINE
  5
158
330
1F
100
AcDbEntity
  8
0
  6
Continuous
 62
     8
370
    18
100
AcDbSpline
210
0.0
220
0.0
230
1.0
 70
     8
 71
     3
 72
    14
 73
    10
 74
     0
 42
0.000000001
 43
0.00000001
 40
0.0
 40
0.0
 40
0.0
 40
0.0
 40
0.499999999999998
 40
0.499999999999998
 40
0.7499999999999974
 40
0.7499999999999974
 40
0.8749999999999987
 40
0.8749999999999987
 40
1.0
 40
1.0
 40
1.0
 40
1.0
 10
204.0461247433662
 20
487.8206521373249
 30
0.0
 10
204.0461247433662
 20
487.7104193520722
 30
0.0
 10
204.1543171715804
 20
487.5534397381238
 30
0.0
 10
204.420454742635
 20
487.3513921661597
 30
0.0
 10
204.528189165209
 20
487.2892561483429
 30
0.0
 10
204.7109085945165
 20
487.222058962356
 30
0.0
 10
204.7762586605156
 20
487.2038216091759
 30
0.0
 10
204.9086200924096
 20
487.1795000246181
 30
0.0
 10
204.9764536717141
 20
487.1730337315119
 30
0.0
 10
205.0461247433662
 20
487.1730337315119
 30
0.0
  0
SPLINE
  5
159
330
1F
100
AcDbEntity
  8
0
  6
Continuous
 62
     8
370
    18
100
AcDbSpline
210
0.0
220
0.0
230
1.0
 70
     8
 71
     3
 72
     8
 73
     4
 74
     0
 42
0.000000001
 43
0.00000001
 40
0.0
 40
0.0
 40
0.0
 40
0.0
 40
1.0
 40
1.0
 40
1.0
 40
1.0
 10
214.0995655361491
 20
516.9308829793447
 30
0.0
 10
214.1484884689759
 20
517.1044263806918
 30
0.0
 10
214.1484823892629
 20
517.2783056774504
 30
0.0
 10
214.0995655361491
 20
517.4518275123455
 30
0.0
  0
SPLINE
  5
15A
330
1F
100
AcDbEntity
  8
0
  6
Continuous
 62
     8
370
    18
100
AcDbSpline
210
0.0
220
0.0
230
1.0
 70
     8
 71
     3
 72
     9
 73
     5
 74
     0
 42
0.000000001
 43
0.00000001
 40
0.0
 40
0.0
 40
0.0
 40
0.0
 40
0.0893789250759385
 40
1.0
 40
1.0
 40
1.0
 40
1.0
 10
218.1332097758292
 20
513.2862410816026
 30
0.0
 10
218.1342952392303
 20
513.2783576619561
 30
0.0
 10
218.1464397509266
 20
513.1901554415795
 30
0.0
 10
218.1230825702075
 20
513.0910262844719
 30
0.0
 10
218.1018130291938
 20
513.0007571848703
 30
0.0
  0
LINE
  5
15B
330
1F
100
AcDbEntity
  8
0
  6
Continuous
 62
     8
370
    18
100
AcDbLine
 10
208.0461220254
 20
517.451830891
 30
0.0
 11
208.0461220254
 21
516.9308862957
 31
0.0
  0
LINE
  5
15C
330
1F
100
AcDbEntity
  8
0
  6
Continuous
 62
     8
370
    18
100
AcDbLine
 10
214.0995622982
 20
517.451830891
 30
0.0
 11
208.0461220254
 21
517.451830891
 31
0.0
  0
SPLINE
  5
15D
330
1F
100
AcDbEntity
  8
0
  6
Continuous
 62
     8
370
    18
100
AcDbSpline
210
0.0
220
0.0
230
1.0
 70
     8
 71
     3
 72
    13
 73
     9
 74
     0
 42
0.000000001
 43
0.00000001
 40
0.0
 40
0.0
 40
0.0
 40
0.0
 40
0.1800645034899103
 40
0.4609279221347271
 40
0.6361618304724147
 40
0.8167225063971619
 40
0.9400506601529776
 40
1.0
 40
1.0
 40
1.0
 40
1.0
 10
218.1834341396331
 20
486.4585629972291
 30
0.0
 10
218.1959901336901
 20
486.3435424149372
 30
0.0
 10
218.2281308840258
 20
486.0491134910184
 30
0.0
 10
218.2685348101795
 20
485.6686509752585
 30
0.0
 10
218.3039389090946
 20
485.3373983712692
 30
0.0
 10
218.3253660815667
 20
485.1473489516578
 30
0.0
 10
218.3349840867729
 20
485.0852287926028
 30
0.0
 10
218.3355416351694
 20
485.1058205317144
 30
0.0
 10
218.3357240070342
 20
485.1125560077501
 30
0.0
  0
SPLINE
  5
15E
330
1F
100
AcDbEntity
  8
0
  6
Continuous
 62
     8
370
    18
100
AcDbSpline
210
0.0
220
0.0
230
1.0
 70
     8
 71
     3
 72
     8
 73
     4
 74
     0
 42
0.000000001
 43
0.00000001
 40
0.0
 40
0.0
 40
0.0
 40
0.0
 40
1.0
 40
1.0
 40
1.0
 40
1.0
 10
218.2011827898517
 20
487.3261524583673
 30
0.0
 10
218.2022030549371
 20
487.0374004494817
 30
0.0
 10
218.1969330005057
 20
486.7481858614664
 30
0.0
 10
218.183434653031
 20
486.4585651969954
 30
0.0
  0
LINE
  5
15F
330
1F
100
AcDbEntity
  8
0
  6
Continuous
 62
     8
370
    18
100
AcDbLine
 10
205.0461233963
 20
487.1730364236
 30
0.0
 11
205.0461233963
 21
484.9944121512
 31
0.0
  0
ARC
  5
160
330
1F
100
AcDbEntity
  8
0
  6
Continuous
 62
     8
370
    18
100
AcDbCircle
 10
202.077589248
 20
487.8531526899
 30
0.0
 40
1.96880406069298
100
AcDbArc
 50
269.0842873895
 51
359.0542381581
  0
SPLINE
  5
161
330
1F
100
AcDbEntity
  8
0
  6
Continuous
 62
     8
370
    18
100
AcDbSpline
210
0.0
220
0.0
230
1.0
 70
     8
 71
     3
 72
     8
 73
     4
 74
     0
 42
0.000000001
 43
0.00000001
 40
0.0
 40
0.0
 40
0.0
 40
0.0
 40
1.0
 40
1.0
 40
1.0
 40
1.0
 10
217.1947634611547
 20
484.9944154655017
 30
0.0
 10
217.1947634611547
 20
485.0413265506915
 30
0.0
 10
217.1919215043056
 20
485.0971361374797
 30
0.0
 10
217.1862470330957
 20
485.161812423268
 30
0.0
  0
SPLINE
  5
162
330
1F
100
AcDbEntity
  8
0
  6
Continuous
 62
     8
370
    18
100
AcDbSpline
210
0.0
220
0.0
230
1.0
 70
     8
 71
     3
 72
     8
 73
     4
 74
     0
 42
0.000000001
 43
0.00000001
 40
0.0
 40
0.0
 40
0.0
 40
0.0
 40
1.0
 40
1.0
 40
1.0
 40
1.0
 10
217.1956828442385
 20
486.5967436448217
 30
0.0
 10
217.2078173879952
 20
486.7894890015159
 30
0.0
 10
217.2123343782911
 20
486.9816044759935
 30
0.0
 10
217.2111595441726
 20
487.1730337315119
 30
0.0
  0
SPLINE
  5
163
330
1F
100
AcDbEntity
  8
0
  6
Continuous
 62
     8
370
    18
100
AcDbSpline
210
0.0
220
0.0
230
1.0
 70
     8
 71
     3
 72
    12
 73
     8
 74
     0
 42
0.000000001
 43
0.00000001
 40
0.0
 40
0.0
 40
0.0
 40
0.0
 40
0.5
 40
0.5
 40
0.75
 40
0.75
 40
1.0
 40
1.0
 40
1.0
 40
1.0
 10
217.1862470330957
 20
485.161812423268
 30
0.0
 10
217.1720560908232
 20
485.3235574395143
 30
0.0
 10
217.1617106733212
 20
485.5371782059352
 30
0.0
 10
217.1635220419043
 20
485.906374413335
 30
0.0
 10
217.1669370400393
 20
486.0395961000153
 30
0.0
 10
217.178466301548
 20
486.3117848197644
 30
0.0
 10
217.1865743342383
 20
486.4520638740645
 30
0.0
 10
217.1956828442386
 20
486.5967436448217
 30
0.0
  0
ARC
  5
164
330
1F
100
AcDbEntity
  8
0
  6
Continuous
 62
     8
370
    18
100
AcDbCircle
 10
217.2673029132
 20
484.224826077
 30
0.0
 40
0.940485016660803
100
AcDbArc
 50
15.4042414446
 51
94.9440958168
  0
SPLINE
  5
165
330
1F
100
AcDbEntity
  8
0
  6
Continuous
 62
     8
370
    18
100
AcDbSpline
210
0.0
220
0.0
230
1.0
 70
     8
 71
     3
 72
    14
 73
    10
 74
     0
 42
0.000000001
 43
0.00000001
 40
0.0
 40
0.0
 40
0.0
 40
0.0
 40
0.25
 40
0.25
 40
0.5
 40
0.5
 40
0.75
 40
0.75
 40
1.0
 40
1.0
 40
1.0
 40
1.0
 10
218.183434653031
 20
486.4585651969954
 30
0.0
 10
218.1762464817169
 20
486.2556695061407
 30
0.0
 10
218.1695243676618
 20
486.0589358979418
 30
0.0
 10
218.1597287558672
 20
485.6776137971428
 30
0.0
 10
218.1566682101934
 20
485.4908079112292
 30
0.0
 10
218.1553085113497
 20
485.1493396589391
 30
0.0
 10
218.1568840901648
 20
484.9926210722285
 30
0.0
 10
218.1635274038551
 20
484.7070639952069
 30
0.0
 10
218.1685225350664
 20
484.581448642546
 30
0.0
 10
218.1740050231397
 20
484.4746468583284
 30
0.0
  0
ARC
  5
166
330
1F
100
AcDbEntity
  8
0
  6
Continuous
 62
     8
370
    18
100
AcDbCircle
 10
217.2634525878
 20
483.4816890525
 30
0.0
 40
3.115789553031306
100
AcDbArc
 50
72.8266108591
 51
91.2463421292
  0
ARC
  5
167
330
1F
100
AcDbEntity
  8
0
  6
Continuous
 62
     8
370
    18
100
AcDbCircle
 10
202.0484066418
 20
488.3509162443
 30
0.0
 40
2.000209153360207
100
AcDbArc
 50
269.9346359295
 51
335.8470291634
  0
LINE
  5
168
330
1F
100
AcDbEntity
  8
0
  6
Continuous
 62
     7
370
    25
100
AcDbLine
 10
154.9461246838
 20
132.8951965125
 30
0.0
 11
154.9461246838
 21
325.5559305699
 31
0.0
  0
LINE
  5
169
330
1F
100
AcDbEntity
  8
0
  6
Continuous
 62
     7
370
    25
100
AcDbLine
 10
132.946124803
 20
325.5559305699
 30
0.0
 11
132.946124803
 21
132.8951965125
 31
0.0
  0
LINE
  5
16A
330
1F
100
AcDbEntity
  8
0
  6
Continuous
 62
     7
370
    25
100
AcDbLine
 10
132.946124803
 20
132.8951965125
 30
0.0
 11
132.946124803
 21
127.2011796983
 31
0.0
  0
LINE
  5
16B
330
1F
100
AcDbEntity
  8
0
  6
Continuous
 62
     7
370
    25
100
AcDbLine
 10
154.9461246838
 20
127.2011796983
 30
0.0
 11
154.9461246838
 21
132.8951965125
 31
0.0
  0
LINE
  5
16C
330
1F
100
AcDbEntity
  8
0
  6
Continuous
 62
     7
370
    25
100
AcDbLine
 10
154.9461246838
 20
126.9423614295
 30
0.0
 11
154.9461246838
 21
127.2011796983
 31
0.0
  0
LINE
  5
16D
330
1F
100
AcDbEntity
  8
0
  6
Continuous
 62
     7
370
    25
100
AcDbLine
 10
132.946124803
 20
127.2011796983
 30
0.0
 11
132.946124803
 21
126.9423614295
 31
0.0
  0
SPLINE
  5
16E
330
1F
100
AcDbEntity
  8
0
  6
Continuous
 62
     7
370
    25
100
AcDbSpline
210
0.0
220
0.0
230
1.0
 70
     8
 71
     3
 72
    15
 73
    11
 74
     0
 42
0.000000001
 43
0.00000001
 40
0.0
 40
0.0
 40
0.0
 40
0.0
 40
0.0736712893408794
 40
0.2579815209484795
 40
0.4448431170345476
 40
0.6426668437460671
 40
0.7634835596235524
 40
0.8734789929245895
 40
0.9606568691712204
 40
1.0
 40
1.0
 40
1.0
 40
1.0
 10
214.1803414930343
 20
314.8505070285818
 30
0.0
 10
214.3183188931391
 20
314.8493500260091
 30
0.0
 10
214.8014870289765
 20
314.8452984438243
 30
0.0
 10
215.6059459169576
 20
314.8997518931806
 30
0.0
 10
216.4966506130536
 20
315.012950572249
 30
0.0
 10
217.1010534614596
 20
315.1635909608506
 30
0.0
 10
217.56525874263
 20
315.3742103152643
 30
0.0
 10
217.9072824318577
 20
315.6924466070541
 30
0.0
 10
218.0956948701018
 20
316.061255440436
 30
0.0
 10
218.0841644029882
 20
316.276908662587
 30
0.0
 10
218.0805788744926
 20
316.3439684586546
 30
0.0
  0
LINE
  5
16F
330
1F
100
AcDbEntity
  8
0
  6
Continuous
 62
     7
370
    25
100
AcDbLine
 10
208.0461220254
 20
314.843252957
 30
0.0
 11
214.0995622982
 21
314.843252957
 31
0.0
  0
SPLINE
  5
170
330
1F
100
AcDbEntity
  8
0
  6
Continuous
 62
     7
370
    25
100
AcDbSpline
210
0.0
220
0.0
230
1.0
 70
     8
 71
     3
 72
    15
 73
    11
 74
     0
 42
0.000000001
 43
0.00000001
 40
0.0
 40
0.0
 40
0.0
 40
0.0
 40
0.0875285855763607
 40
0.1619865299509393
 40
0.2371873188655656
 40
0.3336864187605543
 40
0.4849356749555291
 40
0.6663376422457138
 40
0.8557693533852708
 40
0.9999999999999999
 40
0.9999999999999999
 40
0.9999999999999999
 40
0.9999999999999999
 10
204.0461250950336
 20
316.3641977162978
 30
0.0
 10
204.0648702475429
 20
316.2127652690615
 30
0.0
 10
204.0995613394691
 20
315.9325137776402
 30
0.0
 10
204.3263338216965
 20
315.6055234720949
 30
0.0
 10
204.5990545774403
 20
315.377317897751
 30
0.0
 10
204.9543799378619
 20
315.2014762045032
 30
0.0
 10
205.452816588267
 20
315.0562014466769
 30
0.0
 10
206.2199409460749
 20
314.9308434914672
 30
0.0
 10
207.1354417150799
 20
314.8553856882988
 30
0.0
 10
207.7712738714872
 20
314.8469146797715
 30
0.0
 10
208.0461220253944
 20
314.8432529570481
 30
0.0
  0
LINE
  5
171
330
1F
100
AcDbEntity
  8
0
  6
Continuous
 62
     7
370
    25
100
AcDbLine
 10
218.1215049137
 20
316.8370283248
 30
0.0
 11
218.3277518858
 21
322.3930359391
 31
0.0
  0
SPLINE
  5
172
330
1F
100
AcDbEntity
  8
0
  6
Continuous
 62
     7
370
    25
100
AcDbSpline
210
0.0
220
0.0
230
1.0
 70
     8
 71
     3
 72
    11
 73
     7
 74
     0
 42
0.000000001
 43
0.00000001
 40
0.0
 40
0.0
 40
0.0
 40
0.0
 40
0.0068081807868676
 40
0.5082104458157507
 40
0.8728720360739333
 40
1.0
 40
1.0
 40
1.0
 40
1.0
 10
154.9461246837615
 20
308.3617731036564
 30
0.0
 10
154.9619479453512
 20
308.362937065959
 30
0.0
 10
156.1431073590745
 20
308.4498233898098
 30
0.0
 10
158.1780956094878
 20
308.5154039267835
 30
0.0
 10
160.4926922735851
 20
308.5568179910278
 30
0.0
 10
161.6390408300014
 20
308.554784509785
 30
0.0
 10
161.9353727807044
 20
308.554258853378
 30
0.0
  0
SPLINE
  5
173
330
1F
100
AcDbEntity
  8
0
  6
Continuous
 62
     7
370
    25
100
AcDbSpline
210
0.0
220
0.0
230
1.0
 70
     8
 71
     3
 72
    12
 73
     8
 74
     0
 42
0.000000001
 43
0.00000001
 40
0.0
 40
0.0
 40
0.0
 40
0.0
 40
0.0912869131936581
 40
0.2206465313021418
 40
0.4166541767570066
 40
0.6751173985307314
 40
1.0
 40
1.0
 40
1.0
 40
1.0
 10
161.9275347699165
 20
342.5577512981316
 30
0.0
 10
161.4137146630752
 20
342.5579120873903
 30
0.0
 10
160.1717773434584
 20
342.558300725706
 30
0.0
 10
157.8268777942833
 20
342.6021671143392
 30
0.0
 10
154.5431179520448
 20
342.7427687632768
 30
0.0
 10
150.1702931352455
 20
343.0967790866636
 30
0.0
 10
146.8992659441509
 20
343.3698784796694
 30
0.0
 10
145.0775338240653
 20
343.5219756366631
 30
0.0
  0
LINE
  5
174
330
1F
100
AcDbEntity
  8
0
  6
Continuous
 62
     7
370
    25
100
AcDbLine
 10
185.6461265494
 20
342.5559314938
 30
0.0
 11
161.9273689945
 21
342.5559314938
 31
0.0
  0
LINE
  5
175
330
1F
100
AcDbEntity
  8
0
  6
Continuous
 62
     7
370
    25
100
AcDbLine
 10
161.9281606187
 20
308.5559296461
 30
0.0
 11
185.6461265494
 21
308.5559296461
 31
0.0
  0
ARC
  5
176
330
1F
100
AcDbEntity
  8
0
  6
Continuous
 62
     7
370
    25
100
AcDbCircle
 10
185.6461247434
 20
308.8559305699
 30
0.0
 40
0.3000000000000682
100
AcDbArc
 50
270.0
 51
0.0
  0
ARC
  5
177
330
1F
100
AcDbEntity
  8
0
  6
Continuous
 62
     7
370
    25
100
AcDbCircle
 10
185.6461247434
 20
342.2559305699
 30
0.0
 40
0.3000000000000114
100
AcDbArc
 50
0.0
 51
90.0
  0
LINE
  5
178
330
1F
100
AcDbEntity
  8
0
  6
Continuous
 62
     7
370
    25
100
AcDbLine
 10
190.4718377997
 20
308.5687539579
 30
0.0
 11
217.1947644462
 21
308.5687539579
 31
0.0
  0
LINE
  5
179
330
1F
100
AcDbEntity
  8
0
  6
Continuous
 62
     7
370
    25
100
AcDbLine
 10
217.1947644462
 20
342.568753943
 30
0.0
 11
191.2519135882
 21
342.568753943
 31
0.0
  0
ARC
  5
17A
330
1F
100
AcDbEntity
  8
0
  6
Continuous
 62
     7
370
    25
100
AcDbCircle
 10
217.1947634612
 20
309.5687533829
 30
0.0
 40
1.0
100
AcDbArc
 50
270.0
 51
351.0559916206
  0
ARC
  5
17B
330
1F
100
AcDbEntity
  8
0
  6
Continuous
 62
     7
370
    25
100
AcDbCircle
 10
217.1947634612
 20
341.5687533829
 30
0.0
 40
1.0
100
AcDbArc
 50
8.9440083794
 51
90.0
  0
ARC
  5
17C
330
1F
100
AcDbEntity
  8
0
  6
Continuous
 62
     7
370
    25
100
AcDbCircle
 10
115.5318390291
 20
325.5687533829
 30
0.0
 40
103.9142857142859
100
AcDbArc
 50
351.0559916206
 51
8.9440083794
  0
ARC
  5
17D
330
1F
100
AcDbEntity
  8
0
  6
Continuous
 62
     7
370
    25
100
AcDbCircle
 10
181.1773466089
 20
312.0222214062
 30
0.0
 40
30.00000000000002
100
AcDbArc
 50
72.8049248699
 51
79.8849141309
  0
ARC
  5
17E
330
1F
100
AcDbEntity
  8
0
  6
Continuous
 62
     7
370
    25
100
AcDbCircle
 10
181.1773466089
 20
339.0896397337
 30
0.0
 40
30.00000000000006
100
AcDbArc
 50
280.1150858691
 51
287.2912572075
  0
LINE
  5
17F
330
1F
100
AcDbEntity
  8
0
  6
Continuous
 62
     7
370
    25
100
AcDbLine
 10
185.9461241771
 20
309.55592981
 30
0.0
 11
186.4461251904
 21
309.55592981
 31
0.0
  0
LINE
  5
180
330
1F
100
AcDbEntity
  8
0
  6
Continuous
 62
     7
370
    25
100
AcDbLine
 10
186.4461251904
 20
341.5559313299
 30
0.0
 11
185.9461241771
 21
341.5559313299
 31
0.0
  0
SPLINE
  5
181
330
1F
100
AcDbEntity
  8
0
  6
Continuous
 62
     7
370
    25
100
AcDbSpline
210
0.0
220
0.0
230
1.0
 70
     8
 71
     3
 72
    12
 73
     8
 74
     0
 42
0.000000001
 43
0.00000001
 40
0.0
 40
0.0
 40
0.0
 40
0.0
 40
0.1348007792842497
 40
0.3718819088738132
 40
0.6201933595448708
 40
0.8737279524775787
 40
1.0
 40
1.0
 40
1.0
 40
1.0
 10
191.349195819044
 20
342.5332202615162
 30
0.0
 10
191.2469943064968
 20
342.5483678648258
 30
0.0
 10
190.9650456873739
 20
342.5901563445624
 30
0.0
 10
190.5083835233141
 20
342.3933373438435
 30
0.0
 10
190.177791428648
 20
341.929639115259
 30
0.0
 10
190.0451570752757
 20
341.4734521016337
 30
0.0
 10
190.0645409474009
 20
341.0994287289523
 30
0.0
 10
190.0709853877067
 20
340.975079409959
 30
0.0
  0
SPLINE
  5
182
330
1F
100
AcDbEntity
  8
0
  6
Continuous
 62
     7
370
    25
100
AcDbSpline
210
0.0
220
0.0
230
1.0
 70
     8
 71
     3
 72
    13
 73
     9
 74
     0
 42
0.000000001
 43
0.00000001
 40
0.0
 40
0.0
 40
0.0
 40
0.0
 40
0.094862757934335
 40
0.3067352340777072
 40
0.5281762921176528
 40
0.7547129453624101
 40
0.9638824637439588
 40
1.0
 40
1.0
 40
1.0
 40
1.0
 10
190.049158911848
 20
308.9664938898703
 30
0.0
 10
190.0484032417089
 20
308.9551832589884
 30
0.0
 10
190.0459598101448
 20
308.9186107505914
 30
0.0
 10
190.0727741308897
 20
308.8056718541754
 30
0.0
 10
190.1622528978537
 20
308.6734660643689
 30
0.0
 10
190.3012842314671
 20
308.5868219911559
 30
0.0
 10
190.4203921155609
 20
308.5625256067428
 30
0.0
 10
190.468952879162
 20
308.5708266777446
 30
0.0
 10
190.4761032570838
 20
308.5720489771983
 30
0.0
  0
ARC
  5
183
330
1F
100
AcDbEntity
  8
0
  6
Continuous
 62
     7
370
    25
100
AcDbCircle
 10
143.9461247434
 20
325.5559305699
 30
0.0
 40
11.0
100
AcDbArc
 50
90.0
 51
180.0
  0
ARC
  5
184
330
1F
100
AcDbEntity
  8
0
  6
Continuous
 62
     7
370
    25
100
AcDbCircle
 10
143.9461247434
 20
325.5559305699
 30
0.0
 40
11.00000000000003
100
AcDbArc
 50
0.0
 51
90.0
  0
ARC
  5
185
330
1F
100
AcDbEntity
  8
0
  6
Continuous
 62
     7
370
    25
100
AcDbCircle
 10
143.7613812349
 20
127.1279672645
 30
0.0
 40
10.81684895035426
100
AcDbArc
 50
180.9831840092
 51
272.3212503772
  0
ARC
  5
186
330
1F
100
AcDbEntity
  8
0
  6
Continuous
 62
     7
370
    25
100
AcDbCircle
 10
144.1407191655
 20
127.1268141092
 30
0.0
 40
10.80697974485584
100
AcDbArc
 50
270.3115857423
 51
359.0220326585
  0
LINE
  5
187
330
1F
100
AcDbEntity
  8
0
  6
Continuous
 62
     7
370
    25
100
AcDbLine
 10
218.1143672575
 20
316.8372034134
 30
0.0
 11
218.1018130292
 21
316.3173270451
 31
0.0
  0
LINE
  5
188
330
1F
100
AcDbEntity
  8
0
  6
Continuous
 62
     7
370
    25
100
AcDbLine
 10
204.046125095
 20
316.3641977163
 30
0.0
 11
204.046125095
 21
319.3186211439
 31
0.0
  0
LINE
  5
189
330
1F
100
AcDbEntity
  8
0
  6
Continuous
 62
     7
370
    25
100
AcDbLine
 10
204.046125095
 20
319.3186211439
 30
0.0
 11
204.046125095
 21
323.7569474887
 31
0.0
  0
SPLINE
  5
18A
330
1F
100
AcDbEntity
  8
0
  6
Continuous
 62
     7
370
    25
100
AcDbSpline
210
0.0
220
0.0
230
1.0
 70
     8
 71
     3
 72
     8
 73
     4
 74
     0
 42
0.000000001
 43
0.00000001
 40
0.0
 40
0.0
 40
0.0
 40
0.0
 40
1.0
 40
1.0
 40
1.0
 40
1.0
 10
218.183434653031
 20
324.2649109744783
 30
0.0
 10
218.1969330005057
 20
324.1264068856082
 30
0.0
 10
218.2022030549371
 20
324.0305266326553
 30
0.0
 10
218.2011827898517
 20
323.9785364053149
 30
0.0
  0
ARC
  5
18B
330
1F
100
AcDbEntity
  8
0
  6
Continuous
 62
     7
370
    25
100
AcDbCircle
 10
143.9461247434
 20
325.5559305699
 30
0.0
 40
18.00000000000004
100
AcDbArc
 50
307.6698869643
 51
232.3301130357
  0
LINE
  5
18C
330
1F
100
AcDbEntity
  8
0
  6
Continuous
 62
     7
370
    25
100
AcDbLine
 10
161.9462115128
 20
325.5559464293
 30
0.0
 11
162.1546359171
 21
325.5559440141
 31
0.0
  0
LINE
  5
18D
330
1F
100
AcDbEntity
  8
0
  6
Continuous
 62
     7
370
    25
100
AcDbLine
 10
162.001599129
 20
325.5559413565
 30
0.0
 11
161.9463176836
 21
325.5559463377
 31
0.0
  0
LINE
  5
18E
330
1F
100
AcDbEntity
  8
0
  6
Continuous
 62
     7
370
    25
100
AcDbLine
 10
185.9461241771
 20
342.2559301408
 30
0.0
 11
185.9461241771
 21
308.8559309991
 31
0.0
  0
LINE
  5
18F
330
1F
100
AcDbEntity
  8
0
  6
Continuous
 62
     7
370
    25
100
AcDbLine
 10
191.3427249898
 20
342.5104289355
 30
0.0
 11
191.2519135882
 21
342.5092759581
 31
0.0
  0
LINE
  5
190
330
1F
100
AcDbEntity
  8
0
  6
Continuous
 62
     7
370
    25
100
AcDbLine
 10
190.0461265255
 20
308.9753451796
 30
0.0
 11
190.0461265255
 21
341.0014675038
 31
0.0
  0
ARC
  5
191
330
1F
100
AcDbEntity
  8
0
  6
Continuous
 62
     7
370
    25
100
AcDbCircle
 10
190.4460431068
 20
308.9754207638
 30
0.0
 40
0.3999165883837249
100
AcDbArc
 50
180.0108288909
 51
270.0118539988
  0
LINE
  5
192
330
1F
100
AcDbEntity
  8
0
  6
Continuous
 62
     7
370
    25
100
AcDbLine
 10
186.4461251904
 20
309.55592981
 30
0.0
 11
186.4461251904
 21
341.5559313299
 31
0.0
  0
ARC
  5
193
330
1F
100
AcDbEntity
  8
0
  6
Continuous
 62
     7
370
    25
100
AcDbCircle
 10
143.9461247434
 20
325.5559305699
 30
0.0
 40
25.0
100
AcDbArc
 50
42.8436430436
 51
90.0
  0
ARC
  5
194
330
1F
100
AcDbEntity
  8
0
  6
Continuous
 62
     7
370
    25
100
AcDbCircle
 10
143.9461247434
 20
325.5559305699
 30
0.0
 40
25.00000000000005
100
AcDbArc
 50
296.1038811373
 51
317.1563569564
  0
ARC
  5
195
330
1F
100
AcDbEntity
  8
0
  6
Continuous
 62
     7
370
    25
100
AcDbCircle
 10
143.9461247434
 20
325.5559305699
 30
0.0
 40
25.00000000000004
100
AcDbArc
 50
90.0
 51
243.8961188627
  0
ARC
  5
196
330
1F
100
AcDbEntity
  8
0
  6
Continuous
 62
     8
370
    18
100
AcDbCircle
 10
143.748688776
 20
133.0722231607
 30
0.0
 40
10.80401438469848
100
AcDbArc
 50
180.9388485937
 51
271.0470994364
  0
ARC
  5
197
330
1F
100
AcDbEntity
  8
0
  6
Continuous
 62
     8
370
    18
100
AcDbCircle
 10
144.1280000941
 20
133.0883326972
 30
0.0
 40
10.81984848429446
100
AcDbArc
 50
269.0368459585
 51
358.9772060114
  0
ARC
  5
198
330
1F
100
AcDbEntity
  8
0
  6
Continuous
 62
     8
370
    18
100
AcDbCircle
 10
143.7486651244
 20
127.3781818605
 30
0.0
 40
10.80399033507834
100
AcDbArc
 50
180.9387208123
 51
271.0472272178
  0
ARC
  5
199
330
1F
100
AcDbEntity
  8
0
  6
Continuous
 62
     8
370
    18
100
AcDbCircle
 10
144.1280161866
 20
127.3942992227
 30
0.0
 40
10.81983209697378
100
AcDbArc
 50
269.0367592706
 51
358.9772926993
  0
SPLINE
  5
19A
330
1F
100
AcDbEntity
  8
0
  6
Continuous
 62
     8
370
    18
100
AcDbSpline
210
0.0
220
0.0
230
1.0
 70
     8
 71
     3
 72
    22
 73
    18
 74
     0
 42
0.000000001
 43
0.00000001
 40
0.0
 40
0.0
 40
0.0
 40
0.0
 40
0.125
 40
0.125
 40
0.25
 40
0.25
 40
0.375
 40
0.375
 40
0.5
 40
0.5
 40
0.625
 40
0.625
 40
0.75
 40
0.75
 40
0.875
 40
0.875
 40
1.0
 40
1.0
 40
1.0
 40
1.0
 10
218.1018096624455
 20
319.3595511721871
 30
0.0
 10
218.1006822787645
 20
319.3137881136993
 30
0.0
 10
218.0737720331408
 20
319.2682728065878
 30
0.0
 10
217.9686825267456
 20
319.1777293483265
 30
0.0
 10
217.8911840360788
 20
319.1334989131821
 30
0.0
 10
217.6902819252879
 20
319.0482749643625
 30
0.0
 10
217.5653076129242
 20
319.0067292071425
 30
0.0
 10
217.2723440504693
 20
318.9282413861238
 30
0.0
 10
217.1066291303013
 20
318.8917548121679
 30
0.0
 10
216.7375537753572
 20
318.8241502654178
 30
0.0
 10
216.5318166166865
 20
318.792800709913
 30
0.0
 10
216.0977378759522
 20
318.7380324598031
 30
0.0
 10
215.8684400713838
 20
318.7143200654021
 30
0.0
 10
215.385082991644
 20
318.6742830207925
 30
0.0
 10
215.1318122927163
 20
318.6581479588327
 30
0.0
 10
214.6220856175034
 20
318.6347243668406
 30
0.0
 10
214.3630174954409
 20
318.6271978730825
 30
0.0
 10
214.0995655361491
 20
318.6240283955996
 30
0.0
  0
LINE
  5
19B
330
1F
100
AcDbEntity
  8
0
  6
Continuous
 62
     8
370
    18
100
AcDbLine
 10
214.0995622982
 20
318.6240281949
 30
0.0
 11
214.0995622982
 21
319.782484513
 31
0.0
  0
SPLINE
  5
19C
330
1F
100
AcDbEntity
  8
0
  6
Continuous
 62
     8
370
    18
100
AcDbSpline
210
0.0
220
0.0
230
1.0
 70
     8
 71
     3
 72
    20
 73
    16
 74
     0
 42
0.000000001
 43
0.00000001
 40
0.0
 40
0.0
 40
0.0
 40
0.0
 40
0.1250000000000006
 40
0.1250000000000006
 40
0.2500000000000012
 40
0.2500000000000012
 40
0.3750000000000018
 40
0.3750000000000018
 40
0.5000000000000023
 40
0.5000000000000023
 40
0.6250000000000029
 40
0.6250000000000029
 40
0.7500000000000036
 40
0.7500000000000036
 40
1.0
 40
1.0
 40
1.0
 40
1.0
 10
214.0995655361491
 20
319.7824843262787
 30
0.0
 10
214.2972139885409
 20
319.7824843262787
 30
0.0
 10
214.4915773414926
 20
319.7858350018241
 30
0.0
 10
214.8740012240204
 20
319.7989649912364
 30
0.0
 10
215.0640191838092
 20
319.8089007658937
 30
0.0
 10
215.4266877391261
 20
319.8348623442859
 30
0.0
 10
215.5987405589879
 20
319.8507512901338
 30
0.0
 10
215.92446320736
 20
319.8882891195194
 30
0.0
 10
216.0788551847395
 20
319.9101517242552
 30
0.0
 10
216.3558375071156
 20
319.957932164058
 30
0.0
 10
216.4802089357711
 20
319.9840036990034
 30
0.0
 10
216.7000918578966
 20
320.0406052535463
 30
0.0
 10
216.7939007454397
 20
320.0708127701635
 30
0.0
 10
217.0201035159025
 20
320.1644106589977
 30
0.0
 10
217.1011206509272
 20
320.2325568509951
 30
0.0
 10
217.1028128990215
 20
320.3012010076949
 30
0.0
  0
ARC
  5
19D
330
1F
100
AcDbEntity
  8
0
  6
Continuous
 62
     8
370
    18
100
AcDbCircle
 10
217.1090243919
 20
319.3070441611
 30
0.0
 40
0.9941761844408566
100
AcDbArc
 50
3.0274735278
 51
90.3581822344
  0
SPLINE
  5
19E
330
1F
100
AcDbEntity
  8
0
  6
Continuous
 62
     8
370
    18
100
AcDbSpline
210
0.0
220
0.0
230
1.0
 70
     8
 71
     3
 72
    22
 73
    18
 74
     0
 42
0.000000001
 43
0.00000001
 40
0.0
 40
0.0
 40
0.0
 40
0.0
 40
0.125
 40
0.125
 40
0.25
 40
0.25
 40
0.375
 40
0.375
 40
0.5
 40
0.5
 40
0.625
 40
0.625
 40
0.75
 40
0.75
 40
0.875
 40
0.875
 40
1.0
 40
1.0
 40
1.0
 40
1.0
 10
214.0995655361501
 20
315.669605136563
 30
0.0
 10
214.3630121551664
 20
315.6664357233266
 30
0.0
 10
214.623643132208
 20
315.6678311994097
 30
0.0
 10
215.1393085364536
 20
315.6796822336489
 30
0.0
 10
215.3900481545299
 20
315.6900869523247
 30
0.0
 10
215.8700559234174
 20
315.7191924807236
 30
0.0
 10
216.1024517387923
 20
315.7381212235865
 30
0.0
 10
216.5386615694012
 20
315.7838935378589
 30
0.0
 10
216.7397247018483
 20
315.8103497017198
 30
0.0
 10
217.1085076339094
 20
315.8702163604596
 30
0.0
 10
217.2774591247579
 20
315.9040313627444
 30
0.0
 10
217.5680202266913
 20
315.9761691016416
 30
0.0
 10
217.6912154177915
 20
316.0146259234707
 30
0.0
 10
217.8929963797351
 20
316.0963396143847
 30
0.0
 10
217.9705529344398
 20
316.139484020158
 30
0.0
 10
218.0737830486823
 20
316.2268867803427
 30
0.0
 10
218.1006823020989
 20
316.2715872809079
 30
0.0
 10
218.1018096624455
 20
316.3173268437517
 30
0.0
  0
SPLINE
  5
19F
330
1F
100
AcDbEntity
  8
0
  6
Continuous
 62
     8
370
    18
100
AcDbSpline
210
0.0
220
0.0
230
1.0
 70
     8
 71
     3
 72
     8
 73
     4
 74
     0
 42
0.000000001
 43
0.00000001
 40
0.0
 40
0.0
 40
0.0
 40
0.0
 40
1.0
 40
1.0
 40
1.0
 40
1.0
 10
214.0995655361491
 20
315.6696051365624
 30
0.0
 10
214.1484884689759
 20
316.6538186735377
 30
0.0
 10
214.1484823892629
 20
317.6399371680521
 30
0.0
 10
214.0995655361491
 20
318.6240283955996
 30
0.0
  0
SPLINE
  5
1A0
330
1F
100
AcDbEntity
  8
0
  6
Continuous
 62
     8
370
    18
100
AcDbSpline
210
0.0
220
0.0
230
1.0
 70
     8
 71
     3
 72
     9
 73
     5
 74
     0
 42
0.000000001
 43
0.00000001
 40
0.0
 40
0.0
 40
0.0
 40
0.0
 40
0.641529930060038
 40
1.0
 40
1.0
 40
1.0
 40
1.0
 10
218.1018130291938
 20
319.3595513740501
 30
0.0
 10
218.1211187549296
 20
318.8192367401199
 30
0.0
 10
218.1512120129853
 20
317.9770084844881
 30
0.0
 10
218.1240897698818
 20
317.1379726483069
 30
0.0
 10
218.1143672574996
 20
316.8372034134289
 30
0.0
  0
LWPOLYLINE
  5
1A1
330
1F
100
AcDbEntity
  8
0
  6
Continuous
 62
     8
370
    18
100
AcDbPolyline
 90
        9
 70
   128
 43
0.0
 10
208.0461220254
 20
318.6240281949
 10
207.2657631148
 20
318.6373749787
 10
206.5153927912
 20
318.6769012401
 10
205.8238448013
 20
318.7410884576
 10
205.2176990916
 20
318.8274700234
 10
204.7202461769
 20
318.9327262381
 10
204.3506079723
 20
319.0528119022
 10
204.1229852845
 20
319.183112778
 10
204.046125095
 20
319.3186211439
  0
ARC
  5
1A2
330
1F
100
AcDbEntity
  8
0
  6
Continuous
 62
     8
370
    18
100
AcDbCircle
 10
205.0385854998
 20
319.3109673509
 30
0.0
 40
0.992489917075137
100
AcDbArc
 50
89.5648380875
 51
179.5581472669
  0
ARC
  5
1A3
330
1F
100
AcDbEntity
  8
0
  6
Continuous
 62
     8
370
    18
100
AcDbCircle
 10
207.3187405723
 20
324.4922869249
 30
0.0
 40
4.765639782624708
100
AcDbArc
 50
241.5184615528
 51
278.7793923421
  0
LINE
  5
1A4
330
1F
100
AcDbEntity
  8
0
  6
Continuous
 62
     8
370
    18
100
AcDbLine
 10
208.0461220254
 20
318.6240281949
 30
0.0
 11
208.0461220254
 21
319.782484513
 31
0.0
  0
LINE
  5
1A5
330
1F
100
AcDbEntity
  8
0
  6
Continuous
 62
     8
370
    18
100
AcDbLine
 10
214.0995622982
 20
318.6240281949
 30
0.0
 11
208.0461220254
 21
318.6240281949
 31
0.0
  0
LINE
  5
1A6
330
1F
100
AcDbEntity
  8
0
  6
Continuous
 62
     8
370
    18
100
AcDbLine
 10
208.0461220254
 20
319.782484513
 30
0.0
 11
214.0995622982
 21
319.782484513
 31
0.0
  0
LINE
  5
1A7
330
1F
100
AcDbEntity
  8
0
  6
Continuous
 62
     8
370
    18
100
AcDbLine
 10
208.0461220254
 20
315.669605233
 30
0.0
 11
214.0995622982
 21
315.669605233
 31
0.0
  0
LINE
  5
1A8
330
1F
100
AcDbEntity
  8
0
  6
Continuous
 62
     8
370
    18
100
AcDbLine
 10
208.0461220254
 20
318.6240281949
 30
0.0
 11
208.0461220254
 21
315.669605233
 31
0.0
  0
LWPOLYLINE
  5
1A9
330
1F
100
AcDbEntity
  8
0
  6
Continuous
 62
     8
370
    18
100
AcDbPolyline
 90
        9
 70
   128
 43
0.0
 10
204.046125095
 20
316.3641977163
 10
204.1229852845
 20
316.2286893504
 10
204.3506079723
 20
316.0983889403
 10
204.7202461769
 20
315.9783032762
 10
205.2176990916
 20
315.8730470614
 10
205.8238448013
 20
315.78666503
 10
206.5153927912
 20
315.7224782782
 10
207.2657631148
 20
315.6829510855
 10
208.0461220254
 20
315.669605233
  0
LINE
  5
1AA
330
1F
100
AcDbEntity
  8
0
  6
Continuous
 62
     8
370
    18
100
AcDbLine
 10
214.0995622982
 20
315.669605233
 30
0.0
 11
214.0995622982
 21
314.843252957
 31
0.0
  0
LINE
  5
1AB
330
1F
100
AcDbEntity
  8
0
  6
Continuous
 62
     8
370
    18
100
AcDbLine
 10
208.0461220254
 20
315.669605233
 30
0.0
 11
208.0461220254
 21
314.843252957
 31
0.0
  0
LINE
  5
1AC
330
1F
100
AcDbEntity
  8
0
  6
Continuous
 62
     8
370
    18
100
AcDbLine
 10
217.2111631741
 20
324.8253290231
 30
0.0
 11
205.0461233963
 21
324.8253290231
 31
0.0
  0
LINE
  5
1AD
330
1F
100
AcDbEntity
  8
0
  6
Continuous
 62
     8
370
    18
100
AcDbLine
 10
217.1028093804
 20
320.301200919
 30
0.0
 11
217.2111631741
 21
324.8253290231
 31
0.0
  0
LINE
  5
1AE
330
1F
100
AcDbEntity
  8
0
  6
Continuous
 62
     8
370
    18
100
AcDbLine
 10
205.0461233963
 20
324.8253290231
 30
0.0
 11
205.0461233963
 21
320.3034286426
 31
0.0
  0
SPLINE
  5
1AF
330
1F
100
AcDbEntity
  8
0
  6
Continuous
 62
     8
370
    18
100
AcDbSpline
210
0.0
220
0.0
230
1.0
 70
     8
 71
     3
 72
    11
 73
     7
 74
     0
 42
0.000000001
 43
0.00000001
 40
0.0
 40
0.0
 40
0.0
 40
0.0
 40
0.0147142621422709
 40
0.0147142621422709
 40
0.0147142621422709
 40
0.0260540698799155
 40
0.0260540698799155
 40
0.0260540698799155
 40
0.0260540698799155
 10
218.2011827898517
 20
323.9785364053149
 30
0.0
 10
218.1841044628711
 20
323.1082663990122
 30
0.0
 10
218.166041095742
 20
322.2383893714462
 30
0.0
 10
218.1471031771329
 20
321.368942559234
 30
0.0
 10
218.1325083333006
 20
320.6988879082124
 30
0.0
 10
218.1173941496932
 20
320.0290881230029
 30
0.0
 10
218.1018096624455
 20
319.3595511721871
 30
0.0
  0
ARC
  5
1B0
330
1F
100
AcDbEntity
  8
0
  6
Continuous
 62
     8
370
    18
100
AcDbCircle
 10
217.2164588786
 20
323.8293896775
 30
0.0
 40
0.995953424982691
100
AcDbArc
 50
8.6125941857
 51
90.3046557611
  0
SPLINE
  5
1B1
330
1F
100
AcDbEntity
  8
0
  6
Continuous
 62
     8
370
    18
100
AcDbSpline
210
0.0
220
0.0
230
1.0
 70
     8
 71
     3
 72
    14
 73
    10
 74
     0
 42
0.000000001
 43
0.00000001
 40
0.0
 40
0.0
 40
0.0
 40
0.0
 40
0.2500000000000001
 40
0.2500000000000001
 40
0.5000000000000001
 40
0.5000000000000001
 40
0.75
 40
0.75
 40
1.0
 40
1.0
 40
1.0
 40
1.0
 10
205.0461247433662
 20
324.8253289999865
 30
0.0
 10
204.9068301961129
 20
324.8253289999865
 30
0.0
 10
204.7699543991879
 20
324.7920107570819
 30
0.0
 10
204.5280036325359
 20
324.6763728491713
 30
0.0
 10
204.4198413268179
 20
324.5932927773596
 30
0.0
 10
204.2424315768844
 20
324.3963918054378
 30
0.0
 10
204.1714645759792
 20
324.2814022755965
 30
0.0
 10
204.07313805109
 20
324.0303239405996
 30
0.0
 10
204.0461247433662
 20
323.8957384081567
 30
0.0
 10
204.0461247433662
 20
323.7569475076996
 30
0.0
  0
SPLINE
  5
1B2
330
1F
100
AcDbEntity
  8
0
  6
Continuous
 62
     8
370
    18
100
AcDbSpline
210
0.0
220
0.0
230
1.0
 70
     8
 71
     3
 72
    12
 73
     8
 74
     0
 42
0.000000001
 43
0.00000001
 40
0.0
 40
0.0
 40
0.0
 40
0.0
 40
0.0919203124623148
 40
0.1994349419137256
 40
0.3172633387998812
 40
0.5235643571199288
 40
1.0
 40
1.0
 40
1.0
 40
1.0
 10
218.327170740509
 20
322.3930513059667
 30
0.0
 10
218.3302004365019
 20
322.4819517268508
 30
0.0
 10
218.336773817599
 20
322.6748345598197
 30
0.0
 10
218.3356860927295
 20
322.9916824467123
 30
0.0
 10
218.3213127777721
 20
323.3514883857147
 30
0.0
 10
218.275135684871
 20
323.8413084607614
 30
0.0
 10
218.2211247267052
 20
324.0908045499112
 30
0.0
 10
218.1834341396331
 20
324.2649109607509
 30
0.0
  0
ARC
  5
1B3
330
1F
100
AcDbEntity
  8
0
  6
Continuous
 62
     8
370
    18
100
AcDbCircle
 10
143.9461247434
 20
325.5559305699
 30
0.0
 40
17.58332550528008
100
AcDbArc
 50
90.0
 51
231.2742970339
  0
ARC
  5
1B4
330
1F
100
AcDbEntity
  8
0
  6
Continuous
 62
     8
370
    18
100
AcDbCircle
 10
143.9461247434
 20
325.5559305699
 30
0.0
 40
17.58332550528008
100
AcDbArc
 50
308.7257029661
 51
90.0
  0
SPLINE
  5
1B5
330
1F
100
AcDbEntity
  8
0
  6
Continuous
 62
     8
370
    18
100
AcDbSpline
210
0.0
220
0.0
230
1.0
 70
     8
 71
     3
 72
    25
 73
    21
 74
     0
 42
0.000000001
 43
0.00000001
 40
0.0
 40
0.0
 40
0.0
 40
0.0
 40
0.1208120816514669
 40
0.1627182779982453
 40
0.205564649741579
 40
0.2494441718368222
 40
0.2904446685373143
 40
0.3358364042952906
 40
0.3856660730139893
 40
0.4399690267822207
 40
0.4987723407393263
 40
0.5878661022324106
 40
0.6590381177412935
 40
0.6879078703518235
 40
0.7122941505995526
 40
0.732199468957285
 40
0.7476281470973918
 40
0.8805466814002121
 40
0.9973490408760962
 40
1.0
 40
1.0
 40
1.0
 40
1.0
 10
169.9461159665822
 20
325.5559305699487
 30
0.0
 10
169.8939486290301
 20
324.4183080997228
 30
0.0
 10
169.8236859597822
 20
322.8860774913529
 30
0.0
 10
169.4640200100825
 20
321.0391870378453
 30
0.0
 10
169.1897596571367
 20
319.9157480827611
 30
0.0
 10
168.8635285209877
 20
318.83984931391
 30
0.0
 10
168.4796597342538
 20
317.7883546915209
 30
0.0
 10
168.0350282413122
 20
316.7394167311592
 30
0.0
 10
167.5092971593138
 20
315.6503482250685
 30
0.0
 10
166.9033197805044
 20
314.5400717893103
 30
0.0
 10
166.1104317344664
 20
313.2721816480715
 30
0.0
 10
165.2388775470371
 20
312.0488650027604
 30
0.0
 10
164.5028620382945
 20
311.1438202836471
 30
0.0
 10
164.0277047696303
 20
310.6158628286089
 30
0.0
 10
163.7535951911838
 20
310.3265326965635
 30
0.0
 10
163.5351764079196
 20
310.1051669108383
 30
0.0
 10
162.9498593339265
 20
309.5099459399764
 30
0.0
 10
162.2806822449105
 20
308.8451087612699
 30
0.0
 10
161.8089714390717
 20
308.4518935688342
 30
0.0
 10
161.9326230630568
 20
308.5606117412801
 30
0.0
 10
161.935367192769
 20
308.5630244614503
 30
0.0
  0
SPLINE
  5
1B6
330
1F
100
AcDbEntity
  8
0
  6
Continuous
 62
     8
370
    18
100
AcDbSpline
210
0.0
220
0.0
230
1.0
 70
     8
 71
     3
 72
    26
 73
    22
 74
     0
 42
0.000000001
 43
0.00000001
 40
0.0
 40
0.0
 40
0.0
 40
0.0
 40
0.0296544607837281
 40
0.058765220073084
 40
0.0873888856847002
 40
0.1155792183469754
 40
0.1433821439770938
 40
0.1708310517525496
 40
0.1979505190544736
 40
0.2247854497738987
 40
0.2513864073776713
 40
0.2777979898706334
 40
0.3040683218665384
 40
0.4028010046103329
 40
0.503188579577578
 40
0.6074661222498551
 40
0.71851162039135
 40
0.7916891635957083
 40
0.8678698003855257
 40
0.9329976279703468
 40
1.0
 40
1.0
 40
1.0
 40
1.0
 10
162.3126600113106
 20
325.5559133288091
 30
0.0
 10
162.3389545253575
 20
325.5559115222337
 30
0.0
 10
162.3910614551023
 20
325.5559079422059
 30
0.0
 10
162.4813252755948
 20
325.5559107841904
 30
0.0
 10
162.5797512669388
 20
325.5559188748004
 30
0.0
 10
162.6873768052148
 20
325.5559277227194
 30
0.0
 10
162.8041256024081
 20
325.5559312277924
 30
0.0
 10
162.930163803559
 20
325.5559262849662
 30
0.0
 10
163.0655673241024
 20
325.5559193260306
 30
0.0
 10
163.2104749855578
 20
325.5559222977735
 30
0.0
 10
163.365009205234
 20
325.5559451457776
 30
0.0
 10
163.5290159963592
 20
325.5559716482672
 30
0.0
 10
163.8614455109263
 20
325.5559966223767
 30
0.0
 10
164.4236011665801
 20
325.5558578036267
 30
0.0
 10
165.2803398054733
 20
325.5558699045181
 30
0.0
 10
166.2346424718702
 20
325.5560266530229
 30
0.0
 10
167.1380514425888
 20
325.5559440189447
 30
0.0
 10
167.9634234958372
 20
325.5557796180696
 30
0.0
 10
168.6466248979834
 20
325.5558187294068
 30
0.0
 10
169.3109697847789
 20
325.556149354409
 30
0.0
 10
169.7324296188395
 20
325.55594975315
 30
0.0
 10
169.946149182419
 20
325.555848536639
 30
0.0
  0
SPLINE
  5
1B7
330
1F
100
AcDbEntity
  8
0
  6
Continuous
 62
     8
370
    18
100
AcDbSpline
210
0.0
220
0.0
230
1.0
 70
     8
 71
     3
 72
    24
 73
    20
 74
     0
 42
0.000000001
 43
0.00000001
 40
0.0
 40
0.0
 40
0.0
 40
0.0
 40
0.0000743518217191
 40
0.1169978316479451
 40
0.1486671887829253
 40
0.1814071088755641
 40
0.21527270407214
 40
0.2503135146933667
 40
0.2859265701975682
 40
0.3393846069393504
 40
0.3849514088574313
 40
0.4384586476538563
 40
0.499905717455169
 40
0.5728641543572479
 40
0.6387686289340055
 40
0.6976768168394655
 40
0.7496703087388362
 40
0.8786376377907691
 40
0.9999999999999999
 40
0.9999999999999999
 40
0.9999999999999999
 40
0.9999999999999999
 10
161.927529181981
 20
342.5557321907899
 30
0.0
 10
161.9274540074255
 20
342.5557980450973
 30
0.0
 10
161.809161546151
 20
342.6594244391237
 30
0.0
 10
162.1106789935932
 20
342.4055557484759
 30
0.0
 10
162.4787199232956
 20
342.0611384896728
 30
0.0
 10
162.7267952517433
 20
341.8224991151321
 30
0.0
 10
163.0174259545738
 20
341.5356379354666
 30
0.0
 10
163.347293211734
 20
341.1962357935357
 30
0.0
 10
163.7943276600621
 20
340.747670175467
 30
0.0
 10
164.3053714604506
 20
340.1957675742931
 30
0.0
 10
164.8951941484322
 20
339.4896901143245
 30
0.0
 10
165.5230065303637
 20
338.6645865114307
 30
0.0
 10
166.2692555332887
 20
337.5956753537787
 30
0.0
 10
167.0500374529007
 20
336.3291423295669
 30
0.0
 10
167.7704683959786
 20
334.9493928666828
 30
0.0
 10
168.3671199058076
 20
333.6184469500359
 30
0.0
 10
169.0817798912236
 20
331.6995098524727
 30
0.0
 10
169.7741212802984
 20
329.0447328314426
 30
0.0
 10
169.8899574309882
 20
326.6950705644213
 30
0.0
 10
169.9461159665822
 20
325.5559305699487
 30
0.0
  0
SPLINE
  5
1B8
330
1F
100
AcDbEntity
  8
0
  6
Continuous
 62
     8
370
    18
100
AcDbSpline
210
0.0
220
0.0
230
1.0
 70
     8
 71
     3
 72
    18
 73
    14
 74
     0
 42
0.000000001
 43
0.00000001
 40
0.0
 40
0.0
 40
0.0
 40
0.0
 40
0.125
 40
0.125
 40
0.25
 40
0.25
 40
0.375
 40
0.375
 40
0.5
 40
0.5
 40
0.75
 40
0.75
 40
1.0
 40
1.0
 40
1.0
 40
1.0
 10
202.0461247433662
 20
323.9476639156183
 30
0.0
 10
202.0461247433662
 20
324.1360047066023
 30
0.0
 10
202.0680870912567
 20
324.3204203399612
 30
0.0
 10
202.1527513829485
 20
324.6819480908817
 30
0.0
 10
202.2167955031963
 20
324.8612836156561
 30
0.0
 10
202.379891901814
 20
325.1975686143399
 30
0.0
 10
202.478491099833
 20
325.3553369055702
 30
0.0
 10
202.7079611861053
 20
325.651211075715
 30
0.0
 10
202.838970831933
 20
325.7886184621597
 30
0.0
 10
203.2613139164731
 20
326.1544873234703
 30
0.0
 10
203.5927528597102
 20
326.3458836706902
 30
0.0
 10
204.293087066058
 20
326.599882247211
 30
0.0
 10
204.6688819742991
 20
326.6658717562127
 30
0.0
 10
205.0461247433662
 20
326.6658717562127
 30
0.0
  0
LINE
  5
1B9
330
1F
100
AcDbEntity
  8
0
  6
Continuous
 62
     8
370
    18
100
AcDbLine
 10
205.0461233963
 20
326.665871734
 30
0.0
 11
205.0461233963
 21
324.8253290231
 31
0.0
  0
ARC
  5
1BA
330
1F
100
AcDbEntity
  8
0
  6
Continuous
 62
     8
370
    18
100
AcDbCircle
 10
202.541578046
 20
318.561237063
 30
0.0
 40
5.409165245269477
100
AcDbArc
 50
73.8503133299
 51
95.2553813028
  0
ARC
  5
1BB
330
1F
100
AcDbEntity
  8
0
  6
Continuous
 62
     8
370
    18
100
AcDbCircle
 10
202.5146609146
 20
318.9347598017
 30
0.0
 40
2.415352390305173
100
AcDbArc
 50
50.6501330185
 51
101.1852914756
  0
LINE
  5
1BC
330
1F
100
AcDbEntity
  8
0
  6
Continuous
 62
     8
370
    18
100
AcDbLine
 10
202.0461247672
 20
321.3042325379
 30
0.0
 11
202.0461247672
 21
323.9476639584
 31
0.0
  0
SPLINE
  5
1BD
330
1F
100
AcDbEntity
  8
0
  6
Continuous
 62
     8
370
    18
100
AcDbSpline
210
0.0
220
0.0
230
1.0
 70
     8
 71
     3
 72
     8
 73
     4
 74
     0
 42
0.000000001
 43
0.00000001
 40
0.0
 40
0.0
 40
0.0
 40
0.0
 40
1.0
 40
1.0
 40
1.0
 40
1.0
 10
217.2111595441726
 20
324.8253289999865
 30
0.0
 10
217.2123343782911
 20
324.8590831426313
 30
0.0
 10
217.2078173879951
 20
324.9194413958422
 30
0.0
 10
217.1956828442386
 20
325.0062393046598
 30
0.0
  0
ARC
  5
1BE
330
1F
100
AcDbEntity
  8
0
  6
Continuous
 62
     8
370
    18
100
AcDbCircle
 10
217.2563926861
 20
324.058422016
 30
0.0
 40
0.9497597279384687
100
AcDbArc
 50
12.5570592026
 51
93.6650367731
  0
LINE
  5
1BF
330
1F
100
AcDbEntity
  8
0
  6
Continuous
 62
     8
370
    18
100
AcDbLine
 10
205.0461233963
 20
326.665871734
 30
0.0
 11
217.1947644462
 21
326.665871734
 31
0.0
  0
SPLINE
  5
1C0
330
1F
100
AcDbEntity
  8
0
  6
Continuous
 62
     8
370
    18
100
AcDbSpline
210
0.0
220
0.0
230
1.0
 70
     8
 71
     3
 72
     8
 73
     4
 74
     0
 42
0.000000001
 43
0.00000001
 40
0.0
 40
0.0
 40
0.0
 40
0.0
 40
1.0
 40
1.0
 40
1.0
 40
1.0
 10
217.186247033096
 20
326.321297471612
 30
0.0
 10
217.1919215043057
 20
326.4345505472293
 30
0.0
 10
217.1947634611547
 20
326.5494067317036
 30
0.0
 10
217.1947634611547
 20
326.6658717562127
 30
0.0
  0
SPLINE
  5
1C1
330
1F
100
AcDbEntity
  8
0
  6
Continuous
 62
     8
370
    18
100
AcDbSpline
210
0.0
220
0.0
230
1.0
 70
     8
 71
     3
 72
    12
 73
     8
 74
     0
 42
0.000000001
 43
0.00000001
 40
0.0
 40
0.0
 40
0.0
 40
0.0
 40
0.5
 40
0.5
 40
0.75
 40
0.75
 40
1.0
 40
1.0
 40
1.0
 40
1.0
 10
217.1956828442386
 20
325.0062393046598
 30
0.0
 10
217.1774643122716
 20
325.136555739145
 30
0.0
 10
217.164087501908
 20
325.323053979253
 30
0.0
 10
217.1623253424139
 20
325.661381359636
 30
0.0
 10
217.1645046000237
 20
325.7858080197125
 30
0.0
 10
217.1729386531918
 20
326.0443782522164
 30
0.0
 10
217.1791519491411
 20
326.1796913113283
 30
0.0
 10
217.186247033096
 20
326.321297471612
 30
0.0
  0
SPLINE
  5
1C2
330
1F
100
AcDbEntity
  8
0
  6
Continuous
 62
     8
370
    18
100
AcDbSpline
210
0.0
220
0.0
230
1.0
 70
     8
 71
     3
 72
    11
 73
     7
 74
     0
 42
0.000000001
 43
0.00000001
 40
0.0
 40
0.0
 40
0.0
 40
0.0
 40
0.2713462241480731
 40
0.5457060001608524
 40
0.8159754031898623
 40
1.0
 40
1.0
 40
1.0
 40
1.0
 10
204.0461250950336
 20
318.8843985127231
 30
0.0
 10
203.7547587977416
 20
318.9959479051948
 30
0.0
 10
203.1687903097846
 20
319.2202855497566
 30
0.0
 10
202.4943875421245
 20
319.8610066405417
 30
0.0
 10
202.104010158024
 20
320.5918438224662
 30
0.0
 10
202.0628128846497
 20
321.0988538339024
 30
0.0
 10
202.046124767208
 20
321.3042325379273
 30
0.0
  0
SPLINE
  5
1C3
330
1F
100
AcDbEntity
  8
0
  6
Continuous
 62
     8
370
    18
100
AcDbSpline
210
0.0
220
0.0
230
1.0
 70
     8
 71
     3
 72
    14
 73
    10
 74
     0
 42
0.000000001
 43
0.00000001
 40
0.0
 40
0.0
 40
0.0
 40
0.0
 40
0.25
 40
0.25
 40
0.5
 40
0.5
 40
0.75
 40
0.75
 40
1.0
 40
1.0
 40
1.0
 40
1.0
 10
218.1740050231405
 20
326.089485120432
 30
0.0
 10
218.1685250147514
 20
325.8903307275581
 30
0.0
 10
218.1636047120357
 20
325.6996752872966
 30
0.0
 10
218.1569789811746
 20
325.3352763971748
 30
0.0
 10
218.1553176608174
 20
325.1595620512305
 30
0.0
 10
218.1566441600738
 20
324.8441451044457
 30
0.0
 10
218.1595690380977
 20
324.7025840337455
 30
0.0
 10
218.1694144151577
 20
324.4531021871825
 30
0.0
 10
218.1762454618227
 20
324.348302042426
 30
0.0
 10
218.183434653031
 20
324.2649109744783
 30
0.0
  0
ARC
  5
1C4
330
1F
100
AcDbEntity
  8
0
  6
Continuous
 62
     8
370
    18
100
AcDbCircle
 10
217.3212923949
 20
324.6764039996
 30
0.0
 40
1.650427629012017
100
AcDbArc
 50
58.8915491264
 51
94.6933951589
  0
SPLINE
  5
1C5
330
1F
100
AcDbEntity
  8
0
  6
Continuous
 62
     8
370
    18
100
AcDbSpline
210
0.0
220
0.0
230
1.0
 70
     8
 71
     3
 72
    13
 73
     9
 74
     0
 42
0.000000001
 43
0.00000001
 40
0.0
 40
0.0
 40
0.0
 40
0.0
 40
0.1249369651105989
 40
0.3814044716086628
 40
0.5822676036429021
 40
0.7129698491204449
 40
0.9445700777993868
 40
1.0
 40
1.0
 40
1.0
 40
1.0
 10
218.1740017045974
 20
326.0894850983231
 30
0.0
 10
218.2080918514346
 20
325.9029375548283
 30
0.0
 10
218.3121614070702
 20
325.3334498360132
 30
0.0
 10
218.429961559225
 20
324.2885094903472
 30
0.0
 10
218.4620437220197
 20
322.9658953740221
 30
0.0
 10
218.4121803669607
 20
321.6650326019854
 30
0.0
 10
218.3324968612529
 20
320.738446008966
 30
0.0
 10
218.2556761249466
 20
320.16292139018
 30
0.0
 10
218.2408408631324
 20
320.0517787637135
 30
0.0
  0
LINE
  5
1C6
330
1F
100
AcDbEntity
  8
0
  6
Continuous
 62
     8
370
    18
100
AcDbLine
 10
185.6461265494
 20
308.5559296461
 30
0.0
 11
185.6461265494
 21
342.5559314938
 31
0.0
  0
SPLINE
  5
1C7
330
1F
100
AcDbEntity
  8
0
  6
Continuous
 62
     8
370
    18
100
AcDbSpline
210
0.0
220
0.0
230
1.0
 70
     8
 71
     3
 72
     8
 73
     4
 74
     0
 42
0.000000001
 43
0.00000001
 40
0.0
 40
0.0
 40
0.0
 40
0.0
 40
1.0
 40
1.0
 40
1.0
 40
1.0
 10
218.1826042038317
 20
326.6113687988437
 30
0.0
 10
218.1826042038317
 20
326.4350322160367
 30
0.0
 10
218.1797365301929
 20
326.2610722457205
 30
0.0
 10
218.1740050231406
 20
326.089485120432
 30
0.0
  0
ARC
  5
1C8
330
1F
100
AcDbEntity
  8
0
  6
Continuous
 62
     8
370
    18
100
AcDbCircle
 10
217.3924648052
 20
321.269744127
 30
0.0
 40
5.399748011066629
100
AcDbArc
 50
81.585725971
 51
92.0982328103
  0
LINE
  5
1C9
330
1F
100
AcDbEntity
  8
0
  6
Continuous
 62
     8
370
    18
100
AcDbLine
 10
217.1947644462
 20
326.665871734
 30
0.0
 11
217.1947644462
 21
342.568753943
 31
0.0
  0
LINE
  5
1CA
330
1F
100
AcDbEntity
  8
0
  6
Continuous
 62
     8
370
    18
100
AcDbLine
 10
217.1947644462
 20
308.5687539579
 30
0.0
 11
217.1947644462
 21
315.1243018957
 31
0.0
  0
LINE
  5
1CB
330
1F
100
AcDbEntity
  8
0
  6
Continuous
 62
     8
370
    18
100
AcDbLine
 10
190.4461258461
 20
308.575504184
 30
0.0
 11
190.4718377997
 21
308.603114173
 31
0.0
  0
LINE
  5
1CC
330
1F
100
AcDbEntity
  8
0
  6
Continuous
 62
     8
370
    18
100
AcDbLine
 10
190.4461258461
 20
341.3733399512
 30
0.0
 11
190.4461258461
 21
308.575504184
 31
0.0
  0
SPLINE
  5
1CD
330
1F
100
AcDbEntity
  8
0
  6
Continuous
 62
     8
370
    18
100
AcDbSpline
210
0.0
220
0.0
230
1.0
 70
     8
 71
     3
 72
    10
 73
     6
 74
     0
 42
0.000000001
 43
0.00000001
 40
0.0
 40
0.0
 40
0.0
 40
0.0
 40
0.2339700236779222
 40
0.611355743858366
 40
1.0
 40
1.0
 40
1.0
 40
1.0
 10
191.25191358819
 20
342.5092759581229
 30
0.0
 10
191.1269691659955
 20
342.5201030766555
 30
0.0
 10
190.80049362451
 20
342.5483939705073
 30
0.0
 10
190.5179924751442
 20
342.1819323548518
 30
0.0
 10
190.4703149652163
 20
341.64549878563
 30
0.0
 10
190.4461258460521
 20
341.3733399512192
 30
0.0
  0
ARC
  5
1CE
330
1F
100
AcDbEntity
  8
0
  6
Continuous
 62
     8
370
    18
100
AcDbCircle
 10
190.4325531875
 20
340.9868761688
 30
0.0
 40
0.3867020457008467
100
AcDbArc
 50
87.98859144
 51
177.8375588415
  0
LINE
  5
1CF
330
1F
100
AcDbEntity
  8
0
  6
Continuous
 62
     8
370
    18
100
AcDbLine
 10
218.1826071252
 20
318.438708041
 30
0.0
 11
218.1826071252
 21
309.4132847192
 31
0.0
  0
LINE
  5
1D0
330
1F
100
AcDbEntity
  8
0
  6
Continuous
 62
     8
370
    18
100
AcDbLine
 10
218.1826071252
 20
341.7242231818
 30
0.0
 11
218.1826071252
 21
326.6113687579
 31
0.0
  0
ARC
  5
1D1
330
1F
100
AcDbEntity
  8
0
  6
Continuous
 62
     8
370
    18
100
AcDbCircle
 10
143.9461247434
 20
325.5559305699
 30
0.0
 40
19.17279527564085
100
AcDbArc
 50
90.0
 51
234.9892868314
  0
ARC
  5
1D2
330
1F
100
AcDbEntity
  8
0
  6
Continuous
 62
     8
370
    18
100
AcDbCircle
 10
143.9461247434
 20
325.5559305699
 30
0.0
 40
19.17279527564079
100
AcDbArc
 50
66.3786824707
 51
90.0
  0
ARC
  5
1D3
330
1F
100
AcDbEntity
  8
0
  6
Continuous
 62
     8
370
    18
100
AcDbCircle
 10
143.9461247434
 20
325.5559305699
 30
0.0
 40
19.42559179353076
100
AcDbArc
 50
64.4748590829
 51
90.0
  0
ARC
  5
1D4
330
1F
100
AcDbEntity
  8
0
  6
Continuous
 62
     8
370
    18
100
AcDbCircle
 10
143.9461247434
 20
325.5559305699
 30
0.0
 40
19.42559179353082
100
AcDbArc
 50
90.0
 51
235.5099357957
  0
ARC
  5
1D5
330
1F
100
AcDbEntity
  8
0
  6
Continuous
 62
     8
370
    18
100
AcDbCircle
 10
143.9461247434
 20
325.5559305699
 30
0.0
 40
24.44588470686434
100
AcDbArc
 50
90.0
 51
243.2580170422
  0
ARC
  5
1D6
330
1F
100
AcDbEntity
  8
0
  6
Continuous
 62
     8
370
    18
100
AcDbCircle
 10
143.9461247434
 20
325.5559305699
 30
0.0
 40
24.44588470686439
100
AcDbArc
 50
296.7419829578
 51
315.5432250435
  0
ARC
  5
1D7
330
1F
100
AcDbEntity
  8
0
  6
Continuous
 62
     8
370
    18
100
AcDbCircle
 10
143.9461247434
 20
325.5559305699
 30
0.0
 40
24.44588470686435
100
AcDbArc
 50
44.2025251033
 51
90.0
  0
ENDSEC
  0
SECTION
  2
OBJECTS
  0
DICTIONARY
  5
C
330
0
100
AcDbDictionary
281
     1
  3
ACAD_GROUP
350
D
  3
ACAD_LAYOUT
350
1A
  3
ACAD_MLINESTYLE
350
17
  3
ACAD_PLOTSETTINGS
350
19
  3
ACAD_PLOTSTYLENAME
350
E
  3
ACAD_SCALELIST
350
47
  0
DICTIONARY
  5
D
102
{ACAD_REACTORS
330
C
102
}
330
C
100
AcDbDictionary
281
     1
  0
DICTIONARY
  5
1A
102
{ACAD_REACTORS
330
C
102
}
330
C
100
AcDbDictionary
281
     1
  3
Layout1
350
1E
  3
Layout2
350
26
  3
Model
350
22
  0
DICTIONARY
  5
17
102
{ACAD_REACTORS
330
C
102
}
330
C
100
AcDbDictionary
281
     1
  3
Standard
350
18
  0
DICTIONARY
  5
19
102
{ACAD_REACTORS
330
C
102
}
330
C
100
AcDbDictionary
281
     1
  0
ACDBDICTIONARYWDFLT
  5
E
102
{ACAD_REACTORS
330
C
102
}
330
C
100
AcDbDictionary
281
     1
  3
Normal
350
F
100
AcDbDictionaryWithDefault
340
F
  0
DICTIONARY
  5
47
102
{ACAD_REACTORS
330
C
102
}
330
C
100
AcDbDictionary
281
     1
  3
A0
350
48
  3
A1
350
49
  3
A2
350
4A
  3
A3
350
4B
  3
A4
350
4C
  3
A5
350
4D
  3
A6
350
4E
  3
A7
350
4F
  3
A8
350
50
  3
A9
350
51
  3
B0
350
52
  3
B1
350
53
  3
B2
350
54
  3
B3
350
55
  3
B4
350
56
  3
B5
350
57
  3
B6
350
58
  3
B7
350
59
  3
B8
350
5A
  3
B9
350
5B
  3
C0
350
5C
  3
C1
350
5D
  3
C2
350
5E
  3
C3
350
5F
  3
C4
350
60
  3
C5
350
61
  3
C6
350
62
  3
C7
350
63
  3
C8
350
64
  3
C9
350
65
  3
D0
350
66
  3
D1
350
67
  3
D2
350
68
  0
LAYOUT
  5
1E
102
{ACAD_REACTORS
330
1A
102
}
330
1A
100
AcDbPlotSettings
  1

  2
none_device
  4

  6

 40
0.0
 41
0.0
 42
0.0
 43
0.0
 44
0.0
 45
0.0
 46
0.0
 47
0.0
 48
0.0
 49
0.0
140
0.0
141
0.0
142
1.0
143
1.0
 70
   688
 72
     1
 73
     0
 74
     5
  7

 75
    16
147
1.0
148
0.0
149
0.0
100
AcDbLayout
  1
Layout1
 70
     1
 71
     1
 10
0.0
 20
0.0
 11
420.0
 21
297.0
 12
0.0
 22
0.0
 32
0.0
 14
1.0000000000E+20
 24
1.0000000000E+20
 34
1.0000000000E+20
 15
-1.0000000000E+20
 25
-1.0000000000E+20
 35
-1.0000000000E+20
146
0.0
 13
0.0
 23
0.0
 33
0.0
 16
1.0
 26
0.0
 36
0.0
 17
0.0
 27
1.0
 37
0.0
 76
     0
330
1B
  0
LAYOUT
  5
26
102
{ACAD_REACTORS
330
1A
102
}
330
1A
100
AcDbPlotSettings
  1

  2
none_device
  4

  6

 40
0.0
 41
0.0
 42
0.0
 43
0.0
 44
0.0
 45
0.0
 46
0.0
 47
0.0
 48
0.0
 49
0.0
140
0.0
141
0.0
142
1.0
143
1.0
 70
   688
 72
     1
 73
     0
 74
     5
  7

 75
    16
147
1.0
148
0.0
149
0.0
100
AcDbLayout
  1
Layout2
 70
     1
 71
     2
 10
0.0
 20
0.0
 11
0.0
 21
0.0
 12
0.0
 22
0.0
 32
0.0
 14
0.0
 24
0.0
 34
0.0
 15
0.0
 25
0.0
 35
0.0
146
0.0
 13
0.0
 23
0.0
 33
0.0
 16
1.0
 26
0.0
 36
0.0
 17
0.0
 27
1.0
 37
0.0
 76
     0
330
23
  0
LAYOUT
  5
22
102
{ACAD_REACTORS
330
1A
102
}
330
1A
100
AcDbPlotSettings
  1

  2
none_device
  4
Letter_(8.50_x_11.00_Inches)
  6

 40
6.35
 41
6.35
 42
6.35000508
 43
6.35000508
 44
215.9
 45
279.4
 46
0.0
 47
0.0
 48
0.0
 49
0.0
140
0.0
141
0.0
142
1.0
143
1.0
 70
  1712
 72
     1
 73
     0
 74
     0
  7

 75
     0
147
1.0
148
0.0
149
0.0
100
AcDbLayout
  1
Model
 70
     1
 71
     0
 10
0.0
 20
0.0
 11
594.0
 21
841.0
 12
0.0
 22
0.0
 32
0.0
 14
0.0
 24
0.0
 34
0.0
 15
594.0
 25
841.0
 35
0.0
146
0.0
 13
0.0
 23
0.0
 33
0.0
 16
1.0
 26
0.0
 36
0.0
 17
0.0
 27
1.0
 37
0.0
 76
     0
330
1F
331
29
  0
MLINESTYLE
  5
18
102
{ACAD_REACTORS
330
17
102
}
330
17
100
AcDbMlineStyle
  2
Standard
 70
     0
  3

 62
   256
 51
90.0
 52
90.0
 71
     2
 49
0.5
 62
   256
  6
BYLAYER
 49
-0.5
 62
   256
  6
BYLAYER
  0
ACDBPLACEHOLDER
  5
F
102
{ACAD_REACTORS
330
E
102
}
330
E
  0
SCALE
  5
48
102
{ACAD_REACTORS
330
47
102
}
330
47
100
AcDbScale
 70
     0
300
1:1
140
1.0
141
1.0
290
     1
  0
SCALE
  5
49
102
{ACAD_REACTORS
330
47
102
}
330
47
100
AcDbScale
 70
     0
300
1:2
140
1.0
141
2.0
290
     0
  0
SCALE
  5
4A
102
{ACAD_REACTORS
330
47
102
}
330
47
100
AcDbScale
 70
     0
300
1:4
140
1.0
141
4.0
290
     0
  0
SCALE
  5
4B
102
{ACAD_REACTORS
330
47
102
}
330
47
100
AcDbScale
 70
     0
300
1:5
140
1.0
141
5.0
290
     0
  0
SCALE
  5
4C
102
{ACAD_REACTORS
330
47
102
}
330
47
100
AcDbScale
 70
     0
300
1:8
140
1.0
141
8.0
290
     0
  0
SCALE
  5
4D
102
{ACAD_REACTORS
330
47
102
}
330
47
100
AcDbScale
 70
     0
300
1:10
140
1.0
141
10.0
290
     0
  0
SCALE
  5
4E
102
{ACAD_REACTORS
330
47
102
}
330
47
100
AcDbScale
 70
     0
300
1:16
140
1.0
141
16.0
290
     0
  0
SCALE
  5
4F
102
{ACAD_REACTORS
330
47
102
}
330
47
100
AcDbScale
 70
     0
300
1:20
140
1.0
141
20.0
290
     0
  0
SCALE
  5
50
102
{ACAD_REACTORS
330
47
102
}
330
47
100
AcDbScale
 70
     0
300
1:30
140
1.0
141
30.0
290
     0
  0
SCALE
  5
51
102
{ACAD_REACTORS
330
47
102
}
330
47
100
AcDbScale
 70
     0
300
1:40
140
1.0
141
40.0
290
     0
  0
SCALE
  5
52
102
{ACAD_REACTORS
330
47
102
}
330
47
100
AcDbScale
 70
     0
300
1:50
140
1.0
141
50.0
290
     0
  0
SCALE
  5
53
102
{ACAD_REACTORS
330
47
102
}
330
47
100
AcDbScale
 70
     0
300
1:100
140
1.0
141
100.0
290
     0
  0
SCALE
  5
54
102
{ACAD_REACTORS
330
47
102
}
330
47
100
AcDbScale
 70
     0
300
2:1
140
2.0
141
1.0
290
     0
  0
SCALE
  5
55
102
{ACAD_REACTORS
330
47
102
}
330
47
100
AcDbScale
 70
     0
300
4:1
140
4.0
141
1.0
290
     0
  0
SCALE
  5
56
102
{ACAD_REACTORS
330
47
102
}
330
47
100
AcDbScale
 70
     0
300
8:1
140
8.0
141
1.0
290
     0
  0
SCALE
  5
57
102
{ACAD_REACTORS
330
47
102
}
330
47
100
AcDbScale
 70
     0
300
10:1
140
10.0
141
1.0
290
     0
  0
SCALE
  5
58
102
{ACAD_REACTORS
330
47
102
}
330
47
100
AcDbScale
 70
     0
300
100:1
140
100.0
141
1.0
290
     0
  0
SCALE
  5
59
102
{ACAD_REACTORS
330
47
102
}
330
47
100
AcDbScale
 70
     0
300
1/128" = 1'-0"
140
0.0078125
141
12.0
290
     0
  0
SCALE
  5
5A
102
{ACAD_REACTORS
330
47
102
}
330
47
100
AcDbScale
 70
     0
300
1/64" = 1'-0"
140
0.015625
141
12.0
290
     0
  0
SCALE
  5
5B
102
{ACAD_REACTORS
330
47
102
}
330
47
100
AcDbScale
 70
     0
300
1/32" = 1'-0"
140
0.03125
141
12.0
290
     0
  0
SCALE
  5
5C
102
{ACAD_REACTORS
330
47
102
}
330
47
100
AcDbScale
 70
     0
300
1/16" = 1'-0"
140
0.0625
141
12.0
290
     0
  0
SCALE
  5
5D
102
{ACAD_REACTORS
330
47
102
}
330
47
100
AcDbScale
 70
     0
300
3/32" = 1'-0"
140
0.09375
141
12.0
290
     0
  0
SCALE
  5
5E
102
{ACAD_REACTORS
330
47
102
}
330
47
100
AcDbScale
 70
     0
300
1/8" = 1'-0"
140
0.125
141
12.0
290
     0
  0
SCALE
  5
5F
102
{ACAD_REACTORS
330
47
102
}
330
47
100
AcDbScale
 70
     0
300
3/16" = 1'-0"
140
0.1875
141
12.0
290
     0
  0
SCALE
  5
60
102
{ACAD_REACTORS
330
47
102
}
330
47
100
AcDbScale
 70
     0
300
1/4" = 1'-0"
140
0.25
141
12.0
290
     0
  0
SCALE
  5
61
102
{ACAD_REACTORS
330
47
102
}
330
47
100
AcDbScale
 70
     0
300
3/8" = 1'-0"
140
0.375
141
12.0
290
     0
  0
SCALE
  5
62
102
{ACAD_REACTORS
330
47
102
}
330
47
100
AcDbScale
 70
     0
300
1/2" = 1'-0"
140
0.5
141
12.0
290
     0
  0
SCALE
  5
63
102
{ACAD_REACTORS
330
47
102
}
330
47
100
AcDbScale
 70
     0
300
3/4" = 1'-0"
140
0.75
141
12.0
290
     0
  0
SCALE
  5
64
102
{ACAD_REACTORS
330
47
102
}
330
47
100
AcDbScale
 70
     0
300
1" = 1'-0"
140
1.0
141
12.0
290
     0
  0
SCALE
  5
65
102
{ACAD_REACTORS
330
47
102
}
330
47
100
AcDbScale
 70
     0
300
1-1/2" = 1'-0"
140
1.5
141
12.0
290
     0
  0
SCALE
  5
66
102
{ACAD_REACTORS
330
47
102
}
330
47
100
AcDbScale
 70
     0
300
3" = 1'-0"
140
3.0
141
12.0
290
     0
  0
SCALE
  5
67
102
{ACAD_REACTORS
330
47
102
}
330
47
100
AcDbScale
 70
     0
300
6" = 1'-0"
140
6.0
141
12.0
290
     0
  0
SCALE
  5
68
102
{ACAD_REACTORS
330
47
102
}
330
47
100
AcDbScale
 70
     0
300
1'-0" = 1'-0"
140
12.0
141
12.0
290
     0
  0
ENDSEC
  0
EOF
