  0
SECTION
  2
HEADER
  9
$ACADVER
  1
AC1015
  9
$ACADMAINTVER
 70
     6
  9
$DWGCODEPAGE
  3
ANSI_1252
  9
$INSBASE
 10
0.0
 20
0.0
 30
0.0
  9
$EXTMIN
 10
0.0
 20
0.0
 30
0.0
  9
$EXTMAX
 10
594.0
 20
841.0
 30
0.0
  9
$LIMMIN
 10
0.0
 20
0.0
  9
$LIMMAX
 10
594.0
 20
841.0
  9
$ORTHOMODE
 70
     0
  9
$REGENMODE
 70
     1
  9
$FILLMODE
 70
     1
  9
$QTEXTMODE
 70
     0
  9
$MIRRTEXT
 70
     1
  9
$LTSCALE
 40
1.0
  9
$ATTMODE
 70
     1
  9
$TEXTSIZE
 40
10.0
  9
$TRACEWID
 40
1.0
  9
$TEXTSTYLE
  7
Standard
  9
$CLAYER
  8
0
  9
$CELTYPE
  6
ByLayer
  9
$CECOLOR
 62
   256
  9
$CELTSCALE
 40
1.0
  9
$DISPSILH
 70
     0
  9
$DIMSCALE
 40
1.0
  9
$DIMASZ
 40
2.5
  9
$DIMEXO
 40
0.0
  9
$DIMDLI
 40
3.75
  9
$DIMRND
 40
0.0
  9
$DIMDLE
 40
0.0
  9
$DIMEXE
 40
1.0
  9
$DIMTP
 40
0.0
  9
$DIMTM
 40
0.0
  9
$DIMTXT
 40
3.5
  9
$DIMCEN
 40
2.5
  9
$DIMTSZ
 40
0.0
  9
$DIMTOL
 70
     0
  9
$DIMLIM
 70
     0
  9
$DIMTIH
 70
     1
  9
$DIMTOH
 70
     1
  9
$DIMSE1
 70
     0
  9
$DIMSE2
 70
     0
  9
$DIMTAD
 70
     1
  9
$DIMZIN
 70
     0
  9
$DIMBLK
  1

  9
$DIMASO
 70
     1
  9
$DIMSHO
 70
     1
  9
$DIMPOST
  1

  9
$DIMAPOST
  1

  9
$DIMALT
 70
     0
  9
$DIMALTD
 70
     3
  9
$DIMALTF
 40
0.0393700787
  9
$DIMLFAC
 40
1.0
  9
$DIMTOFL
 70
     1
  9
$DIMTVP
 40
0.0
  9
$DIMTIX
 70
     0
  9
$DIMSOXD
 70
     0
  9
$DIMSAH
 70
     0
  9
$DIMBLK1
  1

  9
$DIMBLK2
  1

  9
$DIMSTYLE
  2
ISO-25
  9
$DIMCLRD
 70
     0
  9
$DIMCLRE
 70
     0
  9
$DIMCLRT
 70
     0
  9
$DIMTFAC
 40
1.0
  9
$DIMGAP
 40
1.5
  9
$DIMJUST
 70
     0
  9
$DIMSD1
 70
     0
  9
$DIMSD2
 70
     0
  9
$DIMTOLJ
 70
     0
  9
$DIMTZIN
 70
     0
  9
$DIMALTZ
 70
     0
  9
$DIMALTTZ
 70
     0
  9
$DIMUPT
 70
     0
  9
$DIMDEC
 70
     2
  9
$DIMTDEC
 70
     2
  9
$DIMALTU
 70
     2
  9
$DIMALTTD
 70
     3
  9
$DIMTXSTY
  7
Standard
  9
$DIMAUNIT
 70
     0
  9
$DIMADEC
 70
     2
  9
$DIMALTRND
 40
0.0
  9
$DIMAZIN
 70
     0
  9
$DIMDSEP
 70
    44
  9
$DIMATFIT
 70
     3
  9
$DIMFRAC
 70
     0
  9
$DIMLDRBLK
  1

  9
$DIMLUNIT
 70
     2
  9
$DIMLWD
 70
    -2
  9
$DIMLWE
 70
    -2
  9
$DIMTMOVE
 70
     0
  9
$LUNITS
 70
     2
  9
$LUPREC
 70
     2
  9
$SKETCHINC
 40
1.0
  9
$FILLETRAD
 40
10.0
  9
$AUNITS
 70
     0
  9
$AUPREC
 70
     2
  9
$MENU
  1
.
  9
$ELEVATION
 40
0.0
  9
$PELEVATION
 40
0.0
  9
$THICKNESS
 40
0.0
  9
$LIMCHECK
 70
     0
  9
$CHAMFERA
 40
0.0
  9
$CHAMFERB
 40
0.0
  9
$CHAMFERC
 40
0.0
  9
$CHAMFERD
 40
0.0
  9
$SKPOLY
 70
     0
  9
$TDCREATE
 40
2458026.317379502
  9
$TDUCREATE
 40
2458026.234046169
  9
$TDUPDATE
 40
2458026.317381493
  9
$TDUUPDATE
 40
2458026.23404816
  9
$TDINDWG
 40
0.0000000116
  9
$TDUSRTIMER
 40
0.0000000116
  9
$USRTIMER
 70
     1
  9
$ANGBASE
 50
0.0
  9
$ANGDIR
 70
     0
  9
$PDMODE
 70
     0
  9
$PDSIZE
 40
-1.0
  9
$PLINEWID
 40
0.0
  9
$SPLFRAME
 70
     0
  9
$SPLINETYPE
 70
     6
  9
$SPLINESEGS
 70
     8
  9
$HANDSEED
  5
27D
  9
$SURFTAB1
 70
     6
  9
$SURFTAB2
 70
     6
  9
$SURFTYPE
 70
     6
  9
$SURFU
 70
     6
  9
$SURFV
 70
     6
  9
$UCSBASE
  2

  9
$UCSNAME
  2

  9
$UCSORG
 10
0.0
 20
0.0
 30
0.0
  9
$UCSXDIR
 10
1.0
 20
0.0
 30
0.0
  9
$UCSYDIR
 10
0.0
 20
1.0
 30
0.0
  9
$UCSORTHOREF
  2

  9
$UCSORTHOVIEW
 70
     0
  9
$UCSORGTOP
 10
0.0
 20
0.0
 30
0.0
  9
$UCSORGBOTTOM
 10
0.0
 20
0.0
 30
0.0
  9
$UCSORGLEFT
 10
0.0
 20
0.0
 30
0.0
  9
$UCSORGRIGHT
 10
0.0
 20
0.0
 30
0.0
  9
$UCSORGFRONT
 10
0.0
 20
0.0
 30
0.0
  9
$UCSORGBACK
 10
0.0
 20
0.0
 30
0.0
  9
$PUCSBASE
  2

  9
$PUCSNAME
  2

  9
$PUCSORG
 10
0.0
 20
0.0
 30
0.0
  9
$PUCSXDIR
 10
1.0
 20
0.0
 30
0.0
  9
$PUCSYDIR
 10
0.0
 20
1.0
 30
0.0
  9
$PUCSORTHOREF
  2

  9
$PUCSORTHOVIEW
 70
     0
  9
$PUCSORGTOP
 10
0.0
 20
0.0
 30
0.0
  9
$PUCSORGBOTTOM
 10
0.0
 20
0.0
 30
0.0
  9
$PUCSORGLEFT
 10
0.0
 20
0.0
 30
0.0
  9
$PUCSORGRIGHT
 10
0.0
 20
0.0
 30
0.0
  9
$PUCSORGFRONT
 10
0.0
 20
0.0
 30
0.0
  9
$PUCSORGBACK
 10
0.0
 20
0.0
 30
0.0
  9
$USERI1
 70
     0
  9
$USERI2
 70
     0
  9
$USERI3
 70
     0
  9
$USERI4
 70
     0
  9
$USERI5
 70
     0
  9
$USERR1
 40
0.0
  9
$USERR2
 40
0.0
  9
$USERR3
 40
0.0
  9
$USERR4
 40
0.0
  9
$USERR5
 40
0.0
  9
$WORLDVIEW
 70
     1
  9
$SHADEDGE
 70
     3
  9
$SHADEDIF
 70
    70
  9
$TILEMODE
 70
     1
  9
$MAXACTVP
 70
    64
  9
$PINSBASE
 10
0.0
 20
0.0
 30
0.0
  9
$PLIMCHECK
 70
     0
  9
$PEXTMIN
 10
1.0000000000E+20
 20
1.0000000000E+20
 30
1.0000000000E+20
  9
$PEXTMAX
 10
-1.0000000000E+20
 20
-1.0000000000E+20
 30
-1.0000000000E+20
  9
$PLIMMIN
 10
0.0
 20
0.0
  9
$PLIMMAX
 10
420.0
 20
297.0
  9
$UNITMODE
 70
     0
  9
$VISRETAIN
 70
     1
  9
$PLINEGEN
 70
     0
  9
$PSLTSCALE
 70
     1
  9
$TREEDEPTH
 70
  3020
  9
$CMLSTYLE
  2
Standard
  9
$CMLJUST
 70
     0
  9
$CMLSCALE
 40
20.0
  9
$PROXYGRAPHICS
 70
     1
  9
$MEASUREMENT
 70
     1
  9
$CELWEIGHT
370
    -1
  9
$ENDCAPS
280
     0
  9
$JOINSTYLE
280
     0
  9
$LWDISPLAY
290
     1
  9
$INSUNITS
 70
     4
  9
$HYPERLINKBASE
  1

  9
$STYLESHEET
  1

  9
$XEDIT
290
     1
  9
$CEPSNTYPE
380
     0
  9
$PSTYLEMODE
290
     1
  9
$FINGERPRINTGUID
  2
{F39A53E8-BF2A-4930-8B6B-39E7502BE3ED}
  9
$VERSIONGUID
  2
{FAEB1C32-E019-11D5-929B-00C0DF256EC4}
  9
$EXTNAMES
290
     1
  9
$PSVPSCALE
 40
0.0
  9
$OLESTARTUP
290
     0
  0
ENDSEC
  0
SECTION
  2
CLASSES
  0
CLASS
  1
ACDBDICTIONARYWDFLT
  2
AcDbDictionaryWithDefault
  3
ObjectDBX Classes
 90
        0
280
     0
281
     0
  0
CLASS
  1
VISUALSTYLE
  2
AcDbVisualStyle
  3
ObjectDBX Classes
 90
     4095
280
     0
281
     0
  0
CLASS
  1
MATERIAL
  2
AcDbMaterial
  3
ObjectDBX Classes
 90
     1153
280
     0
281
     0
  0
CLASS
  1
SCALE
  2
AcDbScale
  3
ObjectDBX Classes
 90
     1153
280
     0
281
     0
  0
CLASS
  1
TABLESTYLE
  2
AcDbTableStyle
  3
ObjectDBX Classes
 90
     4095
280
     0
281
     0
  0
CLASS
  1
MLEADERSTYLE
  2
AcDbMLeaderStyle
  3
ACDB_MLEADERSTYLE_CLASS
 90
     4095
280
     0
281
     0
  0
CLASS
  1
SUN
  2
AcDbSun
  3
SCENEOE
 90
     1153
280
     0
281
     0
  0
CLASS
  1
ACDBPLACEHOLDER
  2
AcDbPlaceHolder
  3
ObjectDBX Classes
 90
        0
280
     0
281
     0
  0
CLASS
  1
LAYOUT
  2
AcDbLayout
  3
ObjectDBX Classes
 90
        0
280
     0
281
     0
  0
ENDSEC
  0
SECTION
  2
TABLES
  0
TABLE
  2
VPORT
  5
8
330
0
100
AcDbSymbolTable
 70
     1
  0
VPORT
  5
29
330
8
100
AcDbSymbolTableRecord
100
AcDbViewportTableRecord
  2
*Active
 70
     0
 10
0.0
 20
0.0
 11
1.0
 21
1.0
 12
297.0
 22
420.5
 13
0.0
 23
0.0
 14
10.0
 24
10.0
 15
10.0
 25
10.0
 16
0.0
 26
0.0
 36
1.0
 17
0.0
 27
0.0
 37
0.0
 40
841.0
 41
0.7063020214
 42
50.0
 43
0.0
 44
0.0
 50
0.0
 51
0.0
 71
     0
 72
  2000
 73
     1
 74
     3
 75
     0
 76
     0
 77
     0
 78
     0
281
     0
 65
     1
110
0.0
120
0.0
130
0.0
111
1.0
121
0.0
131
0.0
112
0.0
122
1.0
132
0.0
 79
     0
146
0.0
  0
ENDTAB
  0
TABLE
  2
LTYPE
  5
5
330
0
100
AcDbSymbolTable
 70
     6
  0
LTYPE
  5
14
330
5
100
AcDbSymbolTableRecord
100
AcDbLinetypeTableRecord
  2
ByBlock
 70
     0
  3

 72
    65
 73
     0
 40
0.0
  0
LTYPE
  5
15
330
5
100
AcDbSymbolTableRecord
100
AcDbLinetypeTableRecord
  2
ByLayer
 70
     0
  3

 72
    65
 73
     0
 40
0.0
  0
LTYPE
  5
16
330
5
100
AcDbSymbolTableRecord
100
AcDbLinetypeTableRecord
  2
Continuous
 70
     0
  3
Solid line
 72
    65
 73
     0
 40
0.0
  0
LTYPE
  5
6E
330
5
100
AcDbSymbolTableRecord
100
AcDbLinetypeTableRecord
  2
HIDDEN
 70
     0
  3
Hidden __ __ __ __ __ __ __ __ __ __ __ __ __ __
 72
    65
 73
     2
 40
1.905
 49
1.27
 74
     0
 49
-0.635
 74
     0
  0
LTYPE
  5
6F
330
5
100
AcDbSymbolTableRecord
100
AcDbLinetypeTableRecord
  2
PHANTOM
 70
     0
  3
Phantom ______  __  __  ______  __  __  ______
 72
    65
 73
     6
 40
12.7
 49
6.35
 74
     0
 49
-1.27
 74
     0
 49
1.27
 74
     0
 49
-1.27
 74
     0
 49
1.27
 74
     0
 49
-1.27
 74
     0
  0
LTYPE
  5
70
330
5
100
AcDbSymbolTableRecord
100
AcDbLinetypeTableRecord
  2
CENTER
 70
     0
  3
Center ____ _ ____ _ ____ _ ____ _ ____ _ ____
 72
    65
 73
     4
 40
10.16
 49
6.35
 74
     0
 49
-1.27
 74
     0
 49
1.27
 74
     0
 49
-1.27
 74
     0
  0
LTYPE
  5
71
330
5
100
AcDbSymbolTableRecord
100
AcDbLinetypeTableRecord
  2
CENTERX2
 70
     0
  3
Center (2x) ________  __  ________  __  _____
 72
    65
 73
     4
 40
20.32
 49
12.7
 74
     0
 49
-2.54
 74
     0
 49
2.54
 74
     0
 49
-2.54
 74
     0
  0
LTYPE
  5
72
330
5
100
AcDbSymbolTableRecord
100
AcDbLinetypeTableRecord
  2
DOT2
 70
     0
  3
Dot (.5x) ........................................
 72
    65
 73
     2
 40
0.635
 49
0.0
 74
     0
 49
-0.635
 74
     0
  0
ENDTAB
  0
TABLE
  2
LAYER
  5
2
330
0
100
AcDbSymbolTable
 70
     1
  0
LAYER
  5
10
330
2
100
AcDbSymbolTableRecord
100
AcDbLayerTableRecord
  2
0
 70
     0
 62
     7
  6
Continuous
370
    -3
390
F
  0
ENDTAB
  0
TABLE
  2
STYLE
  5
3
330
0
100
AcDbSymbolTable
 70
     3
  0
STYLE
  5
11
330
3
100
AcDbSymbolTableRecord
100
AcDbTextStyleTableRecord
  2
Standard
 70
     0
 40
0.0
 41
1.0
 50
0.0
 71
     0
 42
10.0
  3
txt
  4

  0
STYLE
  5
76
330
3
100
AcDbSymbolTableRecord
100
AcDbTextStyleTableRecord
  2
SLDTEXTSTYLE0
 70
     0
 40
0.0
 41
0.96
 50
0.0
 71
     0
 42
10.0
  3
ISOCP3
  4

  0
STYLE
  5
8D
330
3
100
AcDbSymbolTableRecord
100
AcDbTextStyleTableRecord
  2
SLDTEXTSTYLE1
 70
     0
 40
0.0
 41
0.605
 50
0.0
 71
     0
 42
10.0
  3
TXT
  4

  0
ENDTAB
  0
TABLE
  2
VIEW
  5
6
330
0
100
AcDbSymbolTable
 70
     0
  0
ENDTAB
  0
TABLE
  2
UCS
  5
7
330
0
100
AcDbSymbolTable
 70
     0
  0
ENDTAB
  0
TABLE
  2
APPID
  5
9
330
0
100
AcDbSymbolTable
 70
     1
  0
APPID
  5
12
330
9
100
AcDbSymbolTableRecord
100
AcDbRegAppTableRecord
  2
ACAD
 70
     0
  0
ENDTAB
  0
TABLE
  2
DIMSTYLE
  5
A
330
0
100
AcDbSymbolTable
 70
     2
100
AcDbDimStyleTable
  0
DIMSTYLE
105
27
330
A
100
AcDbSymbolTableRecord
100
AcDbDimStyleTableRecord
  2
ISO-25
 70
     0
 41
2.5
 42
0.625
 43
3.75
 44
1.25
 73
     0
 74
     0
 77
     1
 78
     8
140
2.5
141
2.5
143
0.0393700787
147
0.625
171
     3
172
     1
178
     0
271
     2
272
     2
274
     3
278
    44
283
     0
284
     8
340
11
  0
DIMSTYLE
105
77
102
{ACAD_REACTORS
330
75
330
82
102
}
330
A
100
AcDbSymbolTableRecord
100
AcDbDimStyleTableRecord
  2
SLDDIMSTYLE0
 70
     0
 41
2.5
 44
0.0
 45
0.000000001
 73
     0
 74
     0
 77
     1
 78
    12
 79
     3
140
6.0
147
1.5
173
     1
178
     0
271
     2
272
     2
276
     2
284
    12
340
76
  0
ENDTAB
  0
TABLE
  2
BLOCK_RECORD
  5
1
330
0
100
AcDbSymbolTable
 70
     3
  0
BLOCK_RECORD
  5
1F
330
1
100
AcDbSymbolTableRecord
100
AcDbBlockTableRecord
  2
*Model_Space
340
22
  0
BLOCK_RECORD
  5
1B
330
1
100
AcDbSymbolTableRecord
100
AcDbBlockTableRecord
  2
*Paper_Space
340
1E
  0
BLOCK_RECORD
  5
23
330
1
100
AcDbSymbolTableRecord
100
AcDbBlockTableRecord
  2
*Paper_Space0
340
26
  0
BLOCK_RECORD
  5
78
330
1
100
AcDbSymbolTableRecord
100
AcDbBlockTableRecord
  2
_D
340
0
  0
BLOCK_RECORD
  5
83
330
1
100
AcDbSymbolTableRecord
100
AcDbBlockTableRecord
  2
_D_1
340
0
  0
ENDTAB
  0
ENDSEC
  0
SECTION
  2
BLOCKS
  0
BLOCK
  5
20
330
1F
100
AcDbEntity
  8
0
100
AcDbBlockBegin
  2
*Model_Space
 70
     0
 10
0.0
 20
0.0
 30
0.0
  3
*Model_Space
  1

  0
ENDBLK
  5
21
330
1F
100
AcDbEntity
  8
0
100
AcDbBlockEnd
  0
BLOCK
  5
1C
330
1B
100
AcDbEntity
 67
     1
  8
0
100
AcDbBlockBegin
  2
*Paper_Space
 70
     0
 10
0.0
 20
0.0
 30
0.0
  3
*Paper_Space
  1

  0
ENDBLK
  5
1D
330
1B
100
AcDbEntity
 67
     1
  8
0
100
AcDbBlockEnd
  0
BLOCK
  5
24
330
23
100
AcDbEntity
  8
0
100
AcDbBlockBegin
  2
*Paper_Space0
 70
     0
 10
0.0
 20
0.0
 30
0.0
  3
*Paper_Space0
  1

  0
ENDBLK
  5
25
330
23
100
AcDbEntity
  8
0
100
AcDbBlockEnd
  0
BLOCK
  5
79
330
78
100
AcDbEntity
  8
0
100
AcDbBlockBegin
  2
_D
 70
     0
 10
0.0
 20
0.0
 30
0.0
  3
_D
  1

  0
SOLID
  5
7B
330
78
100
AcDbEntity
  8
0
  6
Continuous
 62
     7
370
    18
100
AcDbTrace
 10
42.7614395004
 20
152.0299240879
 30
0.0
 11
42.4614395004
 21
149.5299240879
 31
0.0
 12
43.0614395004
 22
149.5299240879
 32
0.0
 13
43.0614395004
 23
149.5299240879
 33
0.0
  0
SOLID
  5
7C
330
78
100
AcDbEntity
  8
0
  6
Continuous
 62
     7
370
    18
100
AcDbTrace
 10
42.7614395004
 20
52.0299240879
 30
0.0
 11
43.0614395004
 21
54.5299240879
 31
0.0
 12
42.4614395004
 22
54.5299240879
 32
0.0
 13
42.4614395004
 23
54.5299240879
 33
0.0
  0
LINE
  5
7D
330
78
100
AcDbEntity
  8
0
  6
Continuous
 62
     7
370
    18
100
AcDbLine
 10
56.6850079902
 20
152.0299240879
 30
0.0
 11
41.7614395004
 21
152.0299240879
 31
0.0
  0
LINE
  5
7E
330
78
100
AcDbEntity
  8
0
  6
Continuous
 62
     7
370
    18
100
AcDbLine
 10
56.6850079902
 20
52.0299240879
 30
0.0
 11
41.7614395004
 21
52.0299240879
 31
0.0
  0
LINE
  5
7F
330
78
100
AcDbEntity
  8
0
  6
Continuous
 62
     7
370
    18
100
AcDbLine
 10
42.7614395004
 20
152.0299240879
 30
0.0
 11
42.7614395004
 21
52.0299240879
 31
0.0
  0
MTEXT
  5
80
330
78
100
AcDbEntity
  8
0
  6
Continuous
 62
     7
370
    18
100
AcDbMText
 10
35.0270332946
 20
94.3680541463
 30
0.0
 40
6.0
 41
0.0
 71
     1
 72
     1
  1
100
  7
SLDTEXTSTYLE0
 11
-7.044195017643634E-15
 21
1.0
 31
0.0
 73
     1
 44
1.0
  0
MTEXT
  5
81
330
78
100
AcDbEntity
  8
0
  6
Continuous
 62
     7
370
    18
100
AcDbMText
 10
35.0270332946
 20
105.7430548466
 30
0.0
 40
6.0
 41
0.0
 71
     1
 72
     1
  1
mm
  7
SLDTEXTSTYLE0
 11
-7.044195017643634E-15
 21
1.0
 31
0.0
 73
     1
 44
1.0
  0
ENDBLK
  5
7A
330
78
100
AcDbEntity
  8
0
100
AcDbBlockEnd
  0
BLOCK
  5
84
330
83
100
AcDbEntity
  8
0
100
AcDbBlockBegin
  2
_D_1
 70
     0
 10
0.0
 20
0.0
 30
0.0
  3
_D_1
  1

  0
SOLID
  5
86
330
83
100
AcDbEntity
  8
0
  6
Continuous
 62
     7
370
    18
100
AcDbTrace
 10
56.6850079902
 20
38.4602342313
 30
0.0
 11
59.1850079902
 21
38.1602342313
 31
0.0
 12
59.1850079902
 22
38.7602342313
 32
0.0
 13
59.1850079902
 23
38.7602342313
 33
0.0
  0
SOLID
  5
87
330
83
100
AcDbEntity
  8
0
  6
Continuous
 62
     7
370
    18
100
AcDbTrace
 10
156.6850079902
 20
38.4602342313
 30
0.0
 11
154.1850079902
 21
38.7602342313
 31
0.0
 12
154.1850079902
 22
38.1602342313
 32
0.0
 13
154.1850079902
 23
38.1602342313
 33
0.0
  0
LINE
  5
88
330
83
100
AcDbEntity
  8
0
  6
Continuous
 62
     7
370
    18
100
AcDbLine
 10
56.6850079902
 20
52.0299240879
 30
0.0
 11
56.6850079902
 21
37.4602342313
 31
0.0
  0
LINE
  5
89
330
83
100
AcDbEntity
  8
0
  6
Continuous
 62
     7
370
    18
100
AcDbLine
 10
156.6850079902
 20
52.0299240879
 30
0.0
 11
156.6850079902
 21
37.4602342313
 31
0.0
  0
LINE
  5
8A
330
83
100
AcDbEntity
  8
0
  6
Continuous
 62
     7
370
    18
100
AcDbLine
 10
56.6850079902
 20
38.4602342313
 30
0.0
 11
156.6850079902
 21
38.4602342313
 31
0.0
  0
MTEXT
  5
8B
330
83
100
AcDbEntity
  8
0
  6
Continuous
 62
     7
370
    18
100
AcDbMText
 10
93.9626484861
 20
46.1946404371
 30
0.0
 40
6.0
 41
0.0
 71
     1
 72
     1
  1
100
  7
SLDTEXTSTYLE0
 73
     1
 44
1.0
  0
MTEXT
  5
8C
330
83
100
AcDbEntity
  8
0
  6
Continuous
 62
     7
370
    18
100
AcDbMText
 10
105.3376491864
 20
46.1946404371
 30
0.0
 40
6.0
 41
0.0
 71
     1
 72
     1
  1
mm
  7
SLDTEXTSTYLE0
 73
     1
 44
1.0
  0
ENDBLK
  5
85
330
83
100
AcDbEntity
  8
0
100
AcDbBlockEnd
  0
ENDSEC
  0
SECTION
  2
ENTITIES
  0
LINE
  5
73
330
1F
100
AcDbEntity
  8
0
  6
Continuous
 62
     7
370
    18
100
AcDbLine
 10
56.6850079902
 20
152.0299240879
 30
0.0
 11
56.6850079902
 21
52.0299240879
 31
0.0
  0
LINE
  5
74
330
1F
100
AcDbEntity
  8
0
  6
Continuous
 62
     7
370
    18
100
AcDbLine
 10
56.6850079902
 20
52.0299240879
 30
0.0
 11
156.6850079902
 21
52.0299240879
 31
0.0
  0
DIMENSION
  5
75
330
1F
100
AcDbEntity
  8
0
  6
Continuous
 62
     7
370
    18
100
AcDbDimension
  2
_D
 10
42.7614395004
 20
52.0299240879
 30
0.0
 11
42.7614395004
 21
105.4472211621
 31
0.0
 70
   160
  1
<>mm
 71
     2
 42
-1.0
  3
SLDDIMSTYLE0
100
AcDbAlignedDimension
 13
56.6850079902
 23
152.0299240879
 33
0.0
 14
56.6850079902
 24
52.0299240879
 34
0.0
 50
90.0
100
AcDbRotatedDimension
  0
DIMENSION
  5
82
330
1F
100
AcDbEntity
  8
0
  6
Continuous
 62
     7
370
    18
100
AcDbDimension
  2
_D_1
 10
156.6850079902
 20
38.4602342313
 30
0.0
 11
105.0418155019
 21
38.4602342313
 31
0.0
 70
   160
  1
<>mm
 71
     2
 42
-1.0
  3
SLDDIMSTYLE0
100
AcDbAlignedDimension
 13
56.6850079902
 23
52.0299240879
 33
0.0
 14
156.6850079902
 24
52.0299240879
 34
0.0
100
AcDbRotatedDimension
  0
MTEXT
  5
8E
330
1F
100
AcDbEntity
  8
0
  6
Continuous
 62
     7
370
     0
100
AcDbMText
 10
412.8252631579
 20
48.4342449499
 30
0.0
 40
10.0
 41
0.0
 71
     1
 72
     1
  1
KLUDI GmbH & Co KG
  7
SLDTEXTSTYLE1
 73
     1
 44
1.0
  0
MTEXT
  5
8F
330
1F
100
AcDbEntity
  8
0
  6
Continuous
 62
     7
370
     0
100
AcDbMText
 10
210.0873490389
 20
48.4342449499
 30
0.0
 40
10.0
 41
0.0
 71
     1
 72
     1
  1
40 841 05 75
  7
SLDTEXTSTYLE1
 73
     1
 44
1.0
  0
LINE
  5
90
330
1F
100
AcDbEntity
  8
0
  6
Continuous
 62
     7
370
    25
100
AcDbLine
 10
402.3036050894
 20
351.2526376176
 30
0.0
 11
426.2633051076
 21
351.670857333
 31
0.0
  0
LINE
  5
91
330
1F
100
AcDbEntity
  8
0
  6
Continuous
 62
     7
370
    25
100
AcDbLine
 10
426.2633051076
 20
420.8344182003
 30
0.0
 11
402.3036050894
 21
421.2526379157
 31
0.0
  0
ARC
  5
92
330
1F
100
AcDbEntity
  8
0
  6
Continuous
 62
     7
370
    25
100
AcDbCircle
 10
426.2284011426
 20
353.6705512386
 30
0.0
 40
1.999999999999855
100
AcDbArc
 50
271.0
 51
359.3191140165
  0
ARC
  5
93
330
1F
100
AcDbEntity
  8
0
  6
Continuous
 62
     7
370
    25
100
AcDbCircle
 10
426.2284011426
 20
418.8347242947
 30
0.0
 40
1.999999999999951
100
AcDbArc
 50
0.6808859835
 51
89.0
  0
ARC
  5
94
330
1F
100
AcDbEntity
  8
0
  6
Continuous
 62
     7
370
    25
100
AcDbCircle
 10
-771.6870076479
 20
367.906891438
 30
0.0
 40
1200.0
100
AcDbArc
 50
359.3191140165
 51
0.0
  0
ARC
  5
95
330
1F
100
AcDbEntity
  8
0
  6
Continuous
 62
     7
370
    25
100
AcDbCircle
 10
-771.6870076479
 20
404.5983840953
 30
0.0
 40
1200.0
100
AcDbArc
 50
0.0
 51
0.6808859835
  0
LINE
  5
96
330
1F
100
AcDbEntity
  8
0
  6
Continuous
 62
     7
370
    25
100
AcDbLine
 10
428.3129933574
 20
367.9068906236
 30
0.0
 11
428.3129933574
 21
404.5983849097
 31
0.0
  0
ARC
  5
97
330
1F
100
AcDbEntity
  8
0
  6
Continuous
 62
     7
370
    25
100
AcDbCircle
 10
441.3349811371
 20
376.2526377666
 30
0.0
 40
6.000000000000091
100
AcDbArc
 50
303.2806108528
 51
311.4096221093
  0
ARC
  5
98
330
1F
100
AcDbEntity
  8
0
  6
Continuous
 62
     7
370
    25
100
AcDbCircle
 10
441.3349811371
 20
396.2526377666
 30
0.0
 40
6.000000000000109
100
AcDbArc
 50
48.5903778907
 51
56.446911169
  0
ARC
  5
99
330
1F
100
AcDbEntity
  8
0
  6
Continuous
 62
     7
370
    25
100
AcDbCircle
 10
432.2722350702
 20
376.2526377665
 30
0.0
 40
5.999999999875691
100
AcDbArc
 50
228.6315026427
 51
236.7073833473
  0
ARC
  5
9A
330
1F
100
AcDbEntity
  8
0
  6
Continuous
 62
     7
370
    25
100
AcDbCircle
 10
432.2722350702
 20
396.2526377668
 30
0.0
 40
5.999999999875691
100
AcDbArc
 50
123.5370638143
 51
131.3684973573
  0
LINE
  5
9B
330
1F
100
AcDbEntity
  8
0
  6
Continuous
 62
     7
370
    25
100
AcDbLine
 10
445.3036084123
 20
375.7526379082
 30
0.0
 11
446.3036085763
 21
375.7526379082
 31
0.0
  0
LINE
  5
9C
330
1F
100
AcDbEntity
  8
0
  6
Continuous
 62
     7
370
    25
100
AcDbLine
 10
446.3036085763
 20
396.7526376251
 30
0.0
 11
445.3036084123
 21
396.7526376251
 31
0.0
  0
SPLINE
  5
9D
330
1F
100
AcDbEntity
  8
0
  6
Continuous
 62
     7
370
    25
100
AcDbSpline
210
0.0
220
0.0
230
1.0
 70
     8
 71
     3
 72
     9
 73
     5
 74
     0
 42
0.000000001
 43
0.00000001
 40
0.0
 40
0.0
 40
0.0
 40
0.0
 40
0.4887781631216199
 40
1.0
 40
1.0
 40
1.0
 40
1.0
 10
475.595606065313
 20
372.8915227580549
 30
0.0
 10
475.6059227538561
 20
373.3230479411815
 30
0.0
 10
475.6270298517617
 20
374.2059130437686
 30
0.0
 10
475.6435871136591
 20
375.0888369652602
 30
0.0
 10
475.6520515475
 20
375.540206954229
 30
0.0
  0
SPLINE
  5
9E
330
1F
100
AcDbEntity
  8
0
  6
Continuous
 62
     7
370
    25
100
AcDbSpline
210
0.0
220
0.0
230
1.0
 70
     8
 71
     3
 72
     9
 73
     5
 74
     0
 42
0.000000001
 43
0.00000001
 40
0.0
 40
0.0
 40
0.0
 40
0.0
 40
0.5115718872220619
 40
1.0
 40
1.0
 40
1.0
 40
1.0
 10
475.6511155101048
 20
397.0176948237897
 30
0.0
 10
475.6427668639527
 20
397.4604105869697
 30
0.0
 10
475.6264472686804
 20
398.3258134252374
 30
0.0
 10
475.6057404979716
 20
399.1911582814672
 30
0.0
 10
475.5956267290326
 20
399.6138170364977
 30
0.0
  0
SPLINE
  5
9F
330
1F
100
AcDbEntity
  8
0
  6
Continuous
 62
     7
370
    25
100
AcDbSpline
210
0.0
220
0.0
230
1.0
 70
     8
 71
     3
 72
    11
 73
     7
 74
     0
 42
0.000000001
 43
0.00000001
 40
0.0
 40
0.0
 40
0.0
 40
0.0
 40
0.1860129572027484
 40
0.4223072821473662
 40
0.7003236245335875
 40
1.0
 40
1.0
 40
1.0
 40
1.0
 10
473.7329316376286
 20
363.2880503315212
 30
0.0
 10
473.8766127068225
 20
363.2935722407282
 30
0.0
 10
474.2028134335878
 20
363.3061086925139
 30
0.0
 10
474.6848795593152
 20
363.5424266293132
 30
0.0
 10
475.1100567896472
 20
363.997624596216
 30
0.0
 10
475.192690656657
 20
364.3989758563259
 30
0.0
 10
475.2355567288628
 20
364.6071756262065
 30
0.0
  0
LINE
  5
A0
330
1F
100
AcDbEntity
  8
0
  6
Continuous
 62
     7
370
    25
100
AcDbLine
 10
475.2378663361
 20
407.8687408942
 30
0.0
 11
475.1933878106
 21
408.1251209605
 31
0.0
  0
SPLINE
  5
A1
330
1F
100
AcDbEntity
  8
0
  6
Continuous
 62
     7
370
    25
100
AcDbSpline
210
0.0
220
0.0
230
1.0
 70
     8
 71
     3
 72
     9
 73
     5
 74
     0
 42
0.000000001
 43
0.00000001
 40
0.0
 40
0.0
 40
0.0
 40
0.0
 40
0.4952262946177091
 40
1.0
 40
1.0
 40
1.0
 40
1.0
 10
462.385370145044
 20
407.1151016283513
 30
0.0
 10
461.0136465884917
 20
406.7763123851367
 30
0.0
 10
458.2437541747393
 20
406.0922024198607
 30
0.0
 10
455.5343888822449
 20
405.3608313687427
 30
0.0
 10
454.1667725243183
 20
404.9916544932605
 30
0.0
  0
LINE
  5
A2
330
1F
100
AcDbEntity
  8
0
  6
Continuous
 62
     7
370
    25
100
AcDbLine
 10
475.735796248
 20
389.4769645299
 30
0.0
 11
475.7291806563
 21
390.6567942355
 31
0.0
  0
LINE
  5
A3
330
1F
100
AcDbEntity
  8
0
  6
Continuous
 62
     7
370
    25
100
AcDbLine
 10
475.7367257662
 20
383.302263264
 30
0.0
 11
475.7398072797
 21
384.0816820044
 31
0.0
  0
SPLINE
  5
A4
330
1F
100
AcDbEntity
  8
0
  6
Continuous
 62
     7
370
    25
100
AcDbSpline
210
0.0
220
0.0
230
1.0
 70
     8
 71
     3
 72
    15
 73
    11
 74
     0
 42
0.000000001
 43
0.00000001
 40
0.0
 40
0.0
 40
0.0
 40
0.0
 40
0.1922567510011723
 40
0.2827791136754785
 40
0.3665004043254061
 40
0.4495759984093795
 40
0.5858490179351592
 40
0.7395062181040376
 40
0.8838619618317303
 40
1.0
 40
1.0
 40
1.0
 40
1.0
 10
508.7638448276135
 20
396.2068369615556
 30
0.0
 10
507.8680686220534
 20
396.3889191336481
 30
0.0
 10
506.5505242438157
 20
396.6567330594131
 30
0.0
 10
504.6463805811509
 20
396.9751452018292
 30
0.0
 10
503.0832491303991
 20
397.2322828943846
 30
0.0
 10
501.1238402264513
 20
397.5856555671694
 30
0.0
 10
498.8308389177783
 20
398.0498940570839
 30
0.0
 10
496.3595234076456
 20
398.5483589850175
 30
0.0
 10
494.0521233675705
 20
398.957369319871
 30
0.0
 10
492.488301817759
 20
399.1711165708184
 30
0.0
 10
491.7910906769844
 20
399.2664132270695
 30
0.0
  0
SPLINE
  5
A5
330
1F
100
AcDbEntity
  8
0
  6
Continuous
 62
     7
370
    25
100
AcDbSpline
210
0.0
220
0.0
230
1.0
 70
     8
 71
     3
 72
    17
 73
    13
 74
     0
 42
0.000000001
 43
0.00000001
 40
0.0
 40
0.0
 40
0.0
 40
0.0
 40
0.3394266320308619
 40
0.4470784143296868
 40
0.465058007216813
 40
0.4804414541888173
 40
0.4945537713279232
 40
0.5088209353131
 40
0.5244097996800269
 40
0.5843351847105583
 40
0.6982182783752099
 40
1.0
 40
1.0
 40
1.0
 40
1.0
 10
509.9370505013081
 20
394.8884231973173
 30
0.0
 10
509.9138761602509
 20
395.0228609707876
 30
0.0
 10
509.8833518976407
 20
395.1999367241824
 30
0.0
 10
509.7527422604003
 20
395.4664453663029
 30
0.0
 10
509.6629569375149
 20
395.5979841015446
 30
0.0
 10
509.6244996379372
 20
395.6494768684448
 30
0.0
 10
509.5832611906077
 20
395.7001712671432
 30
0.0
 10
509.5403453415432
 20
395.7486513999249
 30
0.0
 10
509.4575909438138
 20
395.8346920213013
 30
0.0
 10
509.3163336048826
 20
395.9549203209405
 30
0.0
 10
509.0480441056766
 20
396.1266784249855
 30
0.0
 10
508.8586434101542
 20
396.1782294313672
 30
0.0
 10
508.7211343743417
 20
396.2156565863372
 30
0.0
  0
SPLINE
  5
A6
330
1F
100
AcDbEntity
  8
0
  6
Continuous
 62
     7
370
    25
100
AcDbSpline
210
0.0
220
0.0
230
1.0
 70
     8
 71
     3
 72
     9
 73
     5
 74
     0
 42
0.000000001
 43
0.00000001
 40
0.0
 40
0.0
 40
0.0
 40
0.0
 40
0.4988506012202672
 40
1.0
 40
1.0
 40
1.0
 40
1.0
 10
509.829806844196
 20
289.3176859248163
 30
0.0
 10
509.8468709995965
 20
289.3172248345425
 30
0.0
 10
509.8810779452405
 20
289.3163005292039
 30
0.0
 10
509.9158257086108
 20
289.3174318756234
 30
0.0
 10
509.9332395293328
 20
289.3179988492013
 30
0.0
  0
ARC
  5
A7
330
1F
100
AcDbEntity
  8
0
  6
Continuous
 62
     7
370
    25
100
AcDbCircle
 10
474.8002949077
 20
377.2526377666
 30
0.0
 40
21.64486082191332
100
AcDbArc
 50
55.2797267718
 51
80.9531540197
  0
ARC
  5
A8
330
1F
100
AcDbEntity
  8
0
  6
Continuous
 62
     7
370
    25
100
AcDbCircle
 10
474.8002949077
 20
377.2526377666
 30
0.0
 40
21.64486082191336
100
AcDbArc
 50
279.0468459803
 51
279.3056538434
  0
SPLINE
  5
A9
330
1F
100
AcDbEntity
  8
0
  6
Continuous
 62
     7
370
    25
100
AcDbSpline
210
0.0
220
0.0
230
1.0
 70
     8
 71
     3
 72
    13
 73
     9
 74
     0
 42
0.000000001
 43
0.00000001
 40
0.0
 40
0.0
 40
0.0
 40
0.0
 40
0.2961541158909204
 40
0.5530163803878854
 40
0.6682048971606437
 40
0.7775653356327273
 40
0.8860872595988459
 40
0.9999999999999999
 40
0.9999999999999999
 40
0.9999999999999999
 40
0.9999999999999999
 10
506.3173982598397
 20
292.7215954292299
 30
0.0
 10
506.4437581898882
 20
292.2312242918737
 30
0.0
 10
506.6797134151981
 20
291.3155413522271
 30
0.0
 10
507.3146906313113
 20
290.4116158693765
 30
0.0
 10
507.9805627706946
 20
289.8897485327627
 30
0.0
 10
508.545550286478
 20
289.6123467959099
 30
0.0
 10
509.1907039203504
 20
289.4319356170639
 30
0.0
 10
509.6477010486815
 20
289.4012372098694
 30
0.0
 10
509.8817373909566
 20
289.3855160105707
 30
0.0
  0
LINE
  5
AA
330
1F
100
AcDbEntity
  8
0
  6
Continuous
 62
     7
370
    25
100
AcDbLine
 10
476.6313556865
 20
398.7526379529
 30
0.0
 11
475.6155227478
 21
398.7526379529
 31
0.0
  0
LINE
  5
AB
330
1F
100
AcDbEntity
  8
0
  6
Continuous
 62
     7
370
    25
100
AcDbLine
 10
475.2995026902
 20
355.7526374239
 30
0.0
 11
476.6313556865
 21
355.7526374239
 31
0.0
  0
ARC
  5
AC
330
1F
100
AcDbEntity
  8
0
  6
Continuous
 62
     7
370
    25
100
AcDbCircle
 10
476.6313556827
 20
365.7526377666
 30
0.0
 40
10.0
100
AcDbArc
 50
270.0
 51
279.0468459803
  0
ARC
  5
AD
330
1F
100
AcDbEntity
  8
0
  6
Continuous
 62
     7
370
    25
100
AcDbCircle
 10
476.6313556827
 20
388.7526377666
 30
0.0
 40
10.0
100
AcDbArc
 50
80.9531540197
 51
90.0
  0
SPLINE
  5
AE
330
1F
100
AcDbEntity
  8
0
  6
Continuous
 62
     7
370
    25
100
AcDbSpline
210
0.0
220
0.0
230
1.0
 70
     8
 71
     3
 72
    12
 73
     8
 74
     0
 42
0.000000001
 43
0.00000001
 40
0.0
 40
0.0
 40
0.0
 40
0.0
 40
0.231658935174805
 40
0.4400253849992431
 40
0.6432834660914372
 40
0.8439991385957482
 40
0.9999999999999999
 40
0.9999999999999999
 40
0.9999999999999999
 40
0.9999999999999999
 10
510.5131703712556
 20
384.8081110514433
 30
0.0
 10
510.4932201163533
 20
385.6298167004654
 30
0.0
 10
510.4553255340113
 20
387.1906084061431
 30
0.0
 10
510.3622605964221
 20
389.4500075198895
 30
0.0
 10
510.2425923355511
 20
391.5348768364429
 30
0.0
 10
510.1035626697862
 20
393.363474717216
 30
0.0
 10
509.9837381138237
 20
394.41853383804
 30
0.0
 10
509.9313359059903
 20
394.8799369860174
 30
0.0
  0
LINE
  5
AF
330
1F
100
AcDbEntity
  8
0
  6
Continuous
 62
     7
370
    25
100
AcDbLine
 10
494.379912252
 20
354.0068378675
 30
0.0
 11
497.543846006
 21
354.0068378675
 31
0.0
  0
LINE
  5
B0
330
1F
100
AcDbEntity
  8
0
  6
Continuous
 62
     7
370
    25
100
AcDbLine
 10
478.3002948206
 20
354.0068378675
 30
0.0
 11
486.4219527044
 21
354.0068378675
 31
0.0
  0
SPLINE
  5
B1
330
1F
100
AcDbEntity
  8
0
  6
Continuous
 62
     7
370
    25
100
AcDbSpline
210
0.0
220
0.0
230
1.0
 70
     8
 71
     3
 72
    14
 73
    10
 74
     0
 42
0.000000001
 43
0.00000001
 40
0.0
 40
0.0
 40
0.0
 40
0.0
 40
0.2343545346903679
 40
0.3485159743122964
 40
0.4640588279506433
 40
0.5836187600595756
 40
0.7101911404509661
 40
0.8475097469993443
 40
1.0
 40
1.0
 40
1.0
 40
1.0
 10
497.5438460059973
 20
354.0069645274164
 30
0.0
 10
498.3703461701934
 20
354.0100744816984
 30
0.0
 10
499.5994604707749
 20
354.0146993921918
 30
0.0
 10
501.1850790803567
 20
353.5831250202922
 30
0.0
 10
502.259902283392
 20
352.9694033837915
 30
0.0
 10
503.1904364146816
 20
352.0887308261293
 30
0.0
 10
503.9217625189593
 20
350.9469107195816
 30
0.0
 10
504.4271814279281
 20
349.5584344202651
 30
0.0
 10
504.5115527786101
 20
348.5415303806287
 30
0.0
 10
504.5559468962762
 20
348.0064606297494
 30
0.0
  0
LINE
  5
B2
330
1F
100
AcDbEntity
  8
0
  6
Continuous
 62
     7
370
    25
100
AcDbLine
 10
440.2711863913
 20
353.2526379455
 30
0.0
 11
440.5502963163
 21
353.2526379455
 31
0.0
  0
LINE
  5
B3
330
1F
100
AcDbEntity
  8
0
  6
Continuous
 62
     7
370
    25
100
AcDbLine
 10
419.3002942302
 20
337.8526380289
 30
0.0
 11
419.9002932109
 21
337.2526390481
 31
0.0
  0
LINE
  5
B4
330
1F
100
AcDbEntity
  8
0
  6
Continuous
 62
     7
370
    25
100
AcDbLine
 10
439.7002931037
 20
337.2526390481
 30
0.0
 11
440.3002958097
 21
337.8526380289
 31
0.0
  0
LINE
  5
B5
330
1F
100
AcDbEntity
  8
0
  6
Continuous
 62
     7
370
    25
100
AcDbLine
 10
440.3002958097
 20
337.8526380289
 30
0.0
 11
440.3002958097
 21
353.2658813525
 31
0.0
  0
LINE
  5
B6
330
1F
100
AcDbEntity
  8
0
  6
Continuous
 62
     7
370
    25
100
AcDbLine
 10
419.3002942302
 20
351.5493160117
 30
0.0
 11
419.3002942302
 21
337.8526380289
 31
0.0
  0
SPLINE
  5
B7
330
1F
100
AcDbEntity
  8
0
  6
Continuous
 62
     7
370
    25
100
AcDbSpline
210
0.0
220
0.0
230
1.0
 70
     8
 71
     3
 72
    12
 73
     8
 74
     0
 42
0.000000001
 43
0.00000001
 40
0.0
 40
0.0
 40
0.0
 40
0.0
 40
0.2510979069985482
 40
0.4787714768956253
 40
0.6964340519539177
 40
0.9163314402502641
 40
1.0
 40
1.0
 40
1.0
 40
1.0
 10
509.8796177007767
 20
289.3161213028909
 30
0.0
 10
509.5825928929478
 20
289.3401133743023
 30
0.0
 10
509.0162520276706
 20
289.3858593528361
 30
0.0
 10
508.2320744056856
 20
289.6830397182441
 30
0.0
 10
507.597742580578
 20
290.1482073705522
 30
0.0
 10
507.1473375612215
 20
290.5968947336382
 30
0.0
 10
507.0144190663071
 20
290.9323147917245
 30
0.0
 10
506.9777841963383
 20
291.0247629511834
 30
0.0
  0
SPLINE
  5
B8
330
1F
100
AcDbEntity
  8
0
  6
Continuous
 62
     7
370
    25
100
AcDbSpline
210
0.0
220
0.0
230
1.0
 70
     8
 71
     3
 72
     9
 73
     5
 74
     0
 42
0.000000001
 43
0.00000001
 40
0.0
 40
0.0
 40
0.0
 40
0.0
 40
0.5000114296006412
 40
1.0
 40
1.0
 40
1.0
 40
1.0
 10
511.1738506056878
 20
290.4438933361055
 30
0.0
 10
511.2746173201578
 20
292.1462452277698
 30
0.0
 10
511.4761461423099
 20
295.5508711840684
 30
0.0
 10
511.444064094621
 20
298.9578094127293
 30
0.0
 10
511.4280234374615
 20
300.6612395871164
 30
0.0
  0
SPLINE
  5
B9
330
1F
100
AcDbEntity
  8
0
  6
Continuous
 62
     7
370
    25
100
AcDbSpline
210
0.0
220
0.0
230
1.0
 70
     8
 71
     3
 72
    11
 73
     7
 74
     0
 42
0.000000001
 43
0.00000001
 40
0.0
 40
0.0
 40
0.0
 40
0.0
 40
0.3174861314701989
 40
0.5863953323485489
 40
0.8122007561200452
 40
1.0
 40
1.0
 40
1.0
 40
1.0
 10
510.0618290998551
 20
289.3299421298981
 30
0.0
 10
510.080198768926
 20
289.3308073720866
 30
0.0
 10
510.1141274578741
 20
289.3324054701777
 30
0.0
 10
510.4040792641671
 20
289.4136033626548
 30
0.0
 10
510.9260348872126
 20
289.6901126590029
 30
0.0
 10
511.1003983390669
 20
290.2564364841606
 30
0.0
 10
511.1795689262959
 20
290.5135786164285
 30
0.0
  0
LINE
  5
BA
330
1F
100
AcDbEntity
  8
0
  6
Continuous
 62
     7
370
    25
100
AcDbLine
 10
486.4186912127
 20
354.0062939752
 30
0.0
 11
486.6188762062
 21
353.4562883902
 31
0.0
  0
LINE
  5
BB
330
1F
100
AcDbEntity
  8
0
  6
Continuous
 62
     7
370
    25
100
AcDbLine
 10
494.1817137696
 20
353.4562883902
 30
0.0
 11
494.3819723376
 21
354.0064988661
 31
0.0
  0
ARC
  5
BC
330
1F
100
AcDbEntity
  8
0
  6
Continuous
 62
     7
370
    25
100
AcDbCircle
 10
493.9937750167
 20
353.5246934066
 30
0.0
 40
0.2000000000000359
100
AcDbArc
 50
270.0
 51
340.0
  0
ARC
  5
BD
330
1F
100
AcDbEntity
  8
0
  6
Continuous
 62
     7
370
    25
100
AcDbCircle
 10
486.8068147988
 20
353.5246934066
 30
0.0
 40
0.2000000000000019
100
AcDbArc
 50
200.0
 51
270.0
  0
LINE
  5
BE
330
1F
100
AcDbEntity
  8
0
  6
Continuous
 62
     7
370
    25
100
AcDbLine
 10
486.8068152391
 20
353.3246925104
 30
0.0
 11
493.9937747367
 21
353.3246925104
 31
0.0
  0
SPLINE
  5
BF
330
1F
100
AcDbEntity
  8
0
  6
Continuous
 62
     7
370
    25
100
AcDbSpline
210
0.0
220
0.0
230
1.0
 70
     8
 71
     3
 72
     9
 73
     5
 74
     0
 42
0.000000001
 43
0.00000001
 40
0.0
 40
0.0
 40
0.0
 40
0.0
 40
0.6162641338716673
 40
1.0
 40
1.0
 40
1.0
 40
1.0
 10
492.8243297435852
 20
399.1204973313691
 30
0.0
 10
492.6032128366996
 20
399.1562627891898
 30
0.0
 10
492.2444106693619
 20
399.2142987121893
 30
0.0
 10
491.8638506197214
 20
399.2587378305133
 30
0.0
 10
491.7178160794588
 20
399.2757907140733
 30
0.0
  0
LINE
  5
C0
330
1F
100
AcDbEntity
  8
0
  6
Continuous
 62
     7
370
    25
100
AcDbLine
 10
402.3036050894
 20
419.9932625521
 30
0.0
 11
402.3036050894
 21
421.2526379157
 31
0.0
  0
LINE
  5
C1
330
1F
100
AcDbEntity
  8
0
  6
Continuous
 62
     7
370
    25
100
AcDbLine
 10
402.3036050894
 20
419.9932625521
 30
0.0
 11
402.3036050894
 21
351.2526376176
 31
0.0
  0
SPLINE
  5
C2
330
1F
100
AcDbEntity
  8
0
  6
Continuous
 62
     7
370
    25
100
AcDbSpline
210
0.0
220
0.0
230
1.0
 70
     8
 71
     3
 72
    23
 73
    19
 74
     0
 42
0.000000001
 43
0.00000001
 40
0.0422036896270863
 40
0.0422036896270863
 40
0.0422036896270863
 40
0.0422036896270863
 40
0.0510882686340494
 40
0.0823382686340494
 40
0.1448382686340494
 40
0.2073382686340494
 40
0.2698382686340494
 40
0.3948382686340494
 40
0.5198382686340494
 40
0.5823382686340494
 40
0.6448382686340494
 40
0.7073382686340494
 40
0.7698382686340494
 40
0.8323382686340494
 40
0.8948382686340494
 40
0.9260882686340494
 40
0.9573382686340494
 40
0.977634579006963
 40
0.977634579006963
 40
0.977634579006963
 40
0.977634579006963
 10
447.6874037154456
 20
370.0635135998104
 30
0.0
 10
447.7647574337398
 20
370.0384620750159
 30
0.0
 10
448.1142810761301
 20
369.9252816329484
 30
0.0
 10
449.0091769839623
 20
369.6356962135229
 30
0.0
 10
450.375595727629
 20
369.1944521340275
 30
0.0
 10
452.0224666789492
 20
368.6648740617001
 30
0.0
 10
454.2292143077458
 20
367.9599319296504
 30
0.0
 10
457.0106765478275
 20
367.0833245733717
 30
0.0
 10
459.8320880775784
 20
366.2240798013017
 30
0.0
 10
462.1227470842164
 20
365.5597905235601
 30
0.0
 10
463.8610972094726
 20
365.0786904547155
 30
0.0
 10
465.6239955746999
 20
364.6215756541052
 30
0.0
 10
467.4178958171275
 20
364.1986842554875
 30
0.0
 10
469.249265777118
 20
363.8242119882532
 30
0.0
 10
470.8170903148936
 20
363.5690756198101
 30
0.0
 10
472.1014308101015
 20
363.4125125881139
 30
0.0
 10
472.9675510753903
 20
363.3336106691834
 30
0.0
 10
473.5157750918353
 20
363.2991769471695
 30
0.0
 10
473.7329371846145
 20
363.2880868614146
 30
0.0
  0
LINE
  5
C3
330
1F
100
AcDbEntity
  8
0
  6
Continuous
 62
     7
370
    25
100
AcDbLine
 10
475.5951475636
 20
372.8544700894
 30
0.0
 11
475.5951477382
 21
372.8915330026
 31
0.0
  0
SPLINE
  5
C4
330
1F
100
AcDbEntity
  8
0
  6
Continuous
 62
     7
370
    25
100
AcDbSpline
210
0.0
220
0.0
230
1.0
 70
     8
 71
     3
 72
    14
 73
    10
 74
     0
 42
0.000000001
 43
0.00000001
 40
0.0
 40
0.0
 40
0.0
 40
0.0
 40
0.2151677906613671
 40
0.4092422307724548
 40
0.5822282203208703
 40
0.7372720581095077
 40
0.8733416664338071
 40
0.9392908701720972
 40
0.9999999999999999
 40
0.9999999999999999
 40
0.9999999999999999
 40
0.9999999999999999
 10
475.5951389204417
 20
372.8541210205937
 30
0.0
 10
475.5796770354856
 20
372.2623660249033
 30
0.0
 10
475.5502690266384
 20
371.136867018929
 30
0.0
 10
475.4970565501891
 20
369.5360088579356
 30
0.0
 10
475.4402408053384
 20
368.1011007980669
 30
0.0
 10
475.3796106967167
 20
366.8251359353949
 30
0.0
 10
475.3232702024176
 20
365.8439316074692
 30
0.0
 10
475.2752348221062
 20
365.1218544386418
 30
0.0
 10
475.2484954777057
 20
364.7738517708684
 30
0.0
 10
475.2356789319244
 20
364.6070491725437
 30
0.0
  0
SPLINE
  5
C5
330
1F
100
AcDbEntity
  8
0
  6
Continuous
 62
     7
370
    25
100
AcDbSpline
210
0.0
220
0.0
230
1.0
 70
     8
 71
     3
 72
    12
 73
     8
 74
     0
 42
0.000000001
 43
0.00000001
 40
0.0
 40
0.0
 40
0.0
 40
0.0
 40
0.25
 40
0.5
 40
0.625
 40
0.75
 40
0.8558099583368084
 40
0.8558099583368084
 40
0.8558099583368084
 40
0.8558099583368084
 10
475.5951475368239
 20
399.6508058128094
 30
0.0
 10
475.5753523486765
 20
400.4513217662129
 30
0.0
 10
475.5304267489677
 20
402.0523287639896
 30
0.0
 10
475.4566162217646
 20
404.0532496194784
 30
0.0
 10
475.3808304838423
 20
405.6538929698905
 30
0.0
 10
475.3163271076894
 20
406.792563465909
 30
0.0
 10
475.2645646211373
 20
407.5312358451343
 30
0.0
 10
475.2378124294954
 20
407.8697377652266
 30
0.0
  0
LINE
  5
C6
330
1F
100
AcDbEntity
  8
0
  6
Continuous
 62
     7
370
    25
100
AcDbLine
 10
475.5951475636
 20
399.6508054439
 30
0.0
 11
475.5951477382
 21
399.6138058606
 31
0.0
  0
LINE
  5
C7
330
1F
100
AcDbEntity
  8
0
  6
Continuous
 62
     7
370
    25
100
AcDbLine
 10
475.2377155346
 20
407.8686496246
 30
0.0
 11
475.2378585945
 21
407.8691544015
 31
0.0
  0
SPLINE
  5
C8
330
1F
100
AcDbEntity
  8
0
  6
Continuous
 62
     7
370
    25
100
AcDbSpline
210
0.0
220
0.0
230
1.0
 70
    24
 71
     3
 72
    28
 73
    24
 74
     0
 42
0.000000001
 43
0.00000001
 40
0.0
 40
0.0
 40
0.0
 40
0.0
 40
0.2500000000000042
 40
0.2500000000000042
 40
0.3125000000000043
 40
0.3125000000000043
 40
0.3750000000000044
 40
0.3750000000000044
 40
0.5000000000000047
 40
0.5000000000000047
 40
0.562500000000004
 40
0.562500000000004
 40
0.6250000000000034
 40
0.6250000000000034
 40
0.6875000000000028
 40
0.6875000000000028
 40
0.7500000000000021
 40
0.7500000000000021
 40
0.8750000000000007
 40
0.8750000000000007
 40
0.9375000000000004
 40
0.9375000000000004
 40
1.0
 40
1.0
 40
1.0
 40
1.0
 10
446.303608081541
 20
400.5209319793733
 30
0.0
 10
446.303608081541
 20
400.5009960174779
 30
0.0
 10
446.3036080815409
 20
400.4704881986012
 30
0.0
 10
446.3036080815409
 20
400.1768403437169
 30
0.0
 10
446.303608081541
 20
400.1051908805405
 30
0.0
 10
446.303608081541
 20
399.9317363158395
 30
0.0
 10
446.303608081541
 20
399.8298344110844
 30
0.0
 10
446.303608081541
 20
399.470069138318
 30
0.0
 10
446.3036080815412
 20
399.1591472935532
 30
0.0
 10
446.3036080815412
 20
398.5500448720571
 30
0.0
 10
446.3036080815411
 20
398.3219419669768
 30
0.0
 10
446.3036080815411
 20
397.8162879435016
 30
0.0
 10
446.3036080815411
 20
397.5419815020925
 30
0.0
 10
446.3036080815411
 20
396.9493407208932
 30
0.0
 10
446.3036080815408
 20
396.6310799428795
 30
0.0
 10
446.3036080815408
 20
395.9497303788272
 30
0.0
 10
446.3036080815411
 20
395.5841137976345
 30
0.0
 10
446.3036080815411
 20
394.4396242610758
 30
0.0
 10
446.3036080815413
 20
393.6174959244265
 30
0.0
 10
446.3036080815413
 20
392.3043596974462
 30
0.0
 10
446.303608081541
 20
391.8512724911785
 30
0.0
 10
446.303608081541
 20
390.9315938258525
 30
0.0
 10
446.303608081541
 20
390.464002516869
 30
0.0
 10
446.303608081541
 20
389.9874434486809
 30
0.0
  0
SPLINE
  5
C9
330
1F
100
AcDbEntity
  8
0
  6
Continuous
 62
     7
370
    25
100
AcDbSpline
210
0.0
220
0.0
230
1.0
 70
     8
 71
     3
 72
    10
 73
     6
 74
     0
 42
0.000000001
 43
0.00000001
 40
0.0
 40
0.0
 40
0.0
 40
0.0
 40
0.5
 40
0.5
 40
1.0
 40
1.0
 40
1.0
 40
1.0
 10
446.3036080815409
 20
371.9662217129814
 30
0.0
 10
446.3036080815409
 20
371.5470209726588
 30
0.0
 10
446.4395779411461
 20
371.128892090678
 30
0.0
 10
446.9327052342828
 20
370.450848939019
 30
0.0
 10
447.2886017859695
 20
370.1926683642947
 30
0.0
 10
447.6874102228895
 20
370.0635130650288
 30
0.0
  0
SPLINE
  5
CA
330
1F
100
AcDbEntity
  8
0
  6
Continuous
 62
     7
370
    25
100
AcDbSpline
210
0.0
220
0.0
230
1.0
 70
    24
 71
     3
 72
    28
 73
    24
 74
     0
 42
0.000000001
 43
0.00000001
 40
0.0
 40
0.0
 40
0.0
 40
0.0
 40
0.0624999999999993
 40
0.0624999999999993
 40
0.1249999999999986
 40
0.1249999999999986
 40
0.1874999999999979
 40
0.1874999999999979
 40
0.2499999999999973
 40
0.2499999999999973
 40
0.3749999999999957
 40
0.3749999999999957
 40
0.4999999999999941
 40
0.4999999999999941
 40
0.5624999999999942
 40
0.5624999999999942
 40
0.6249999999999943
 40
0.6249999999999943
 40
0.7499999999999961
 40
0.7499999999999961
 40
0.874999999999998
 40
0.874999999999998
 40
1.0
 40
1.0
 40
1.0
 40
1.0
 10
446.303608081541
 20
381.962788280458
 30
0.0
 10
446.303608081541
 20
381.4949854542978
 30
0.0
 10
446.3036080815406
 20
381.039158260138
 30
0.0
 10
446.3036080815406
 20
380.1480653274446
 30
0.0
 10
446.3036080815406
 20
379.7129215903955
 30
0.0
 10
446.3036080815406
 20
378.8634474109551
 30
0.0
 10
446.3036080815405
 20
378.4491195115866
 30
0.0
 10
446.3036080815405
 20
377.6430251612967
 30
0.0
 10
446.3036080815407
 20
377.2595491710027
 30
0.0
 10
446.3036080815407
 20
376.1670473835067
 30
0.0
 10
446.3036080815409
 20
375.5151754092943
 30
0.0
 10
446.3036080815408
 20
374.3708851800073
 30
0.0
 10
446.3036080815411
 20
373.9014415539454
 30
0.0
 10
446.3036080815411
 20
373.3276289816177
 30
0.0
 10
446.3036080815411
 20
373.1578189901517
 30
0.0
 10
446.3036080815411
 20
372.8603386107102
 30
0.0
 10
446.303608081541
 20
372.7334048895106
 30
0.0
 10
446.303608081541
 20
372.4071193149248
 30
0.0
 10
446.3036080815409
 20
372.2623458750633
 30
0.0
 10
446.3036080815409
 20
372.0672460381707
 30
0.0
 10
446.3036080815409
 20
372.0174731465209
 30
0.0
 10
446.3036080815409
 20
371.966747304189
 30
0.0
 10
446.3036080815409
 20
371.9662201298288
 30
0.0
 10
446.3036080815409
 20
371.9662201402956
 30
0.0
  0
SPLINE
  5
CB
330
1F
100
AcDbEntity
  8
0
  6
Continuous
 62
     7
370
    25
100
AcDbSpline
210
0.0
220
0.0
230
1.0
 70
    24
 71
     3
 72
    14
 73
    10
 74
     0
 42
0.000000001
 43
0.00000001
 40
0.0
 40
0.0
 40
0.0
 40
0.0
 40
0.25
 40
0.25
 40
0.5
 40
0.5
 40
0.75
 40
0.75
 40
1.0
 40
1.0
 40
1.0
 40
1.0
 10
446.303608081541
 20
389.9921176533124
 30
0.0
 10
446.303608081541
 20
389.3304529986319
 30
0.0
 10
446.303608081541
 20
388.6630922596446
 30
0.0
 10
446.303608081541
 20
387.3187567468834
 30
0.0
 10
446.303608081541
 20
386.643064799485
 30
0.0
 10
446.303608081541
 20
385.2941697145118
 30
0.0
 10
446.303608081541
 20
384.6188199055948
 30
0.0
 10
446.303608081541
 20
383.2799252922964
 30
0.0
 10
446.303608081541
 20
382.6137170559243
 30
0.0
 10
446.303608081541
 20
381.9569228777827
 30
0.0
  0
SPLINE
  5
CC
330
1F
100
AcDbEntity
  8
0
  6
Continuous
 62
     7
370
    25
100
AcDbSpline
210
0.0
220
0.0
230
1.0
 70
     8
 71
     3
 72
    40
 73
    36
 74
     0
 42
0.000000001
 43
0.00000001
 40
0.0
 40
0.0
 40
0.0
 40
0.0
 40
0.031250000000001
 40
0.031250000000001
 40
0.062500000000002
 40
0.062500000000002
 40
0.093750000000003
 40
0.093750000000003
 40
0.125000000000004
 40
0.125000000000004
 40
0.1875000000000037
 40
0.1875000000000037
 40
0.2500000000000034
 40
0.2500000000000034
 40
0.3750000000000035
 40
0.3750000000000035
 40
0.5000000000000036
 40
0.5000000000000036
 40
0.5625000000000028
 40
0.5625000000000028
 40
0.625000000000002
 40
0.625000000000002
 40
0.6875000000000012
 40
0.6875000000000012
 40
0.7500000000000004
 40
0.7500000000000004
 40
0.8124999999999997
 40
0.8124999999999997
 40
0.8749999999999989
 40
0.8749999999999989
 40
0.906249999999999
 40
0.906249999999999
 40
0.9374999999999991
 40
0.9374999999999991
 40
1.0
 40
1.0
 40
1.0
 40
1.0
 10
441.3349811370784
 20
398.5744631471446
 30
0.0
 10
441.4855924474451
 20
398.5744631471445
 30
0.0
 10
441.6333066395956
 20
398.5604346690548
 30
0.0
 10
441.9233984357078
 20
398.5065367892786
 30
0.0
 10
442.0671770558654
 20
398.4660384447175
 30
0.0
 10
442.3412386434574
 20
398.3631593831175
 30
0.0
 10
442.4716043890384
 20
398.3011326660106
 30
0.0
 10
442.7207907526072
 20
398.1587402171607
 30
0.0
 10
442.8395052453168
 20
398.0781827151552
 30
0.0
 10
443.1703887125126
 20
397.8200818149867
 30
0.0
 10
443.3623960168005
 20
397.6236334340915
 30
0.0
 10
443.7015426007694
 20
397.1972248415983
 30
0.0
 10
443.8442093187489
 20
396.9729975062197
 30
0.0
 10
444.2135925041918
 20
396.2763014008748
 30
0.0
 10
444.3825035366523
 20
395.7760924749228
 30
0.0
 10
444.6001984672907
 20
394.7742948902312
 30
0.0
 10
444.651533125488
 20
394.2668931651447
 30
0.0
 10
444.6516422160077
 20
393.4970963516373
 30
0.0
 10
444.6383987780775
 20
393.2396085615379
 30
0.0
 10
444.5853413967042
 20
392.7314270607914
 30
0.0
 10
444.5455613592871
 20
392.4795491883946
 30
0.0
 10
444.4371403188537
 20
391.9806130137516
 30
0.0
 10
444.3685477999676
 20
391.7335466150102
 30
0.0
 10
444.1969432488867
 20
391.2451616244873
 30
0.0
 10
444.0930405773128
 20
391.0020368635559
 30
0.0
 10
443.8450932151452
 20
390.5335146658738
 30
0.0
 10
443.7017531745849
 20
390.3084183379083
 30
0.0
 10
443.3633290131622
 20
389.8827126094614
 30
0.0
 10
443.1705035368491
 20
389.6855504919488
 30
0.0
 10
442.8422499477243
 20
389.429101883724
 30
0.0
 10
442.7259782623007
 20
389.3498489393178
 30
0.0
 10
442.4765887453158
 20
389.2066557068833
 30
0.0
 10
442.3444310562057
 20
389.1435608920198
 30
0.0
 10
441.9351745358313
 20
388.9892025608755
 30
0.0
 10
441.6367669273268
 20
388.9308123861508
 30
0.0
 10
441.3349811370783
 20
388.9308123861507
 30
0.0
  0
LINE
  5
CD
330
1F
100
AcDbEntity
  8
0
  6
Continuous
 62
     7
370
    25
100
AcDbLine
 10
441.3349802889
 20
388.9308122921
 30
0.0
 11
432.2722356119
 21
388.9308122921
 31
0.0
  0
SPLINE
  5
CE
330
1F
100
AcDbEntity
  8
0
  6
Continuous
 62
     7
370
    25
100
AcDbSpline
210
0.0
220
0.0
230
1.0
 70
     8
 71
     3
 72
    40
 73
    36
 74
     0
 42
0.000000001
 43
0.00000001
 40
0.0
 40
0.0
 40
0.0
 40
0.0
 40
0.03125
 40
0.03125
 40
0.0624999999999999
 40
0.0624999999999999
 40
0.0937499999999999
 40
0.0937499999999999
 40
0.1249999999999998
 40
0.1249999999999998
 40
0.1875000000000007
 40
0.1875000000000007
 40
0.2500000000000017
 40
0.2500000000000017
 40
0.3750000000000022
 40
0.3750000000000022
 40
0.5000000000000028
 40
0.5000000000000028
 40
0.5625000000000029
 40
0.5625000000000029
 40
0.625000000000003
 40
0.625000000000003
 40
0.6875000000000031
 40
0.6875000000000031
 40
0.7500000000000032
 40
0.7500000000000032
 40
0.8125000000000034
 40
0.8125000000000034
 40
0.8750000000000036
 40
0.8750000000000036
 40
0.9062500000000024
 40
0.9062500000000024
 40
0.9375000000000014
 40
0.9375000000000014
 40
1.0
 40
1.0
 40
1.0
 40
1.0
 10
432.2722350703141
 20
388.9308123861508
 30
0.0
 10
432.121623759946
 20
388.9308123861451
 30
0.0
 10
431.9739095677934
 20
388.9448408642299
 30
0.0
 10
431.6838177716762
 20
388.9987387439977
 30
0.0
 10
431.5400391515154
 20
389.0392370885555
 30
0.0
 10
431.2659775639181
 20
389.1421161501501
 30
0.0
 10
431.1356118183343
 20
389.204142867255
 30
0.0
 10
430.8864254547597
 20
389.3465353161025
 30
0.0
 10
430.7677109620478
 20
389.427092818107
 30
0.0
 10
430.4368274948459
 20
389.6851937182738
 30
0.0
 10
430.2448201905524
 20
389.8816420991721
 30
0.0
 10
429.90567360658
 20
390.3080506916656
 30
0.0
 10
429.7630068885986
 20
390.5322780270455
 30
0.0
 10
429.3936237031509
 20
391.228974132397
 30
0.0
 10
429.2247126706894
 20
391.7291830583537
 30
0.0
 10
429.0070177400497
 20
392.7309806430527
 30
0.0
 10
428.9556830818518
 20
393.238382368145
 30
0.0
 10
428.9555739913323
 20
394.0081791816639
 30
0.0
 10
428.9688174292626
 20
394.265666971763
 30
0.0
 10
429.0218748106359
 20
394.7738484725124
 30
0.0
 10
429.0616548480532
 20
395.0257263449113
 30
0.0
 10
429.1700758884875
 20
395.5246625195601
 30
0.0
 10
429.2386684073743
 20
395.771728918305
 30
0.0
 10
429.4102729584587
 20
396.2601139088368
 30
0.0
 10
429.5141756300358
 20
396.5032386697737
 30
0.0
 10
429.7621229922048
 20
396.9717608674551
 30
0.0
 10
429.9054630327667
 20
397.196857195422
 30
0.0
 10
430.2438871941981
 20
397.6225629238742
 30
0.0
 10
430.4367126705089
 20
397.8197250413807
 30
0.0
 10
430.7649662596402
 20
398.0761736496042
 30
0.0
 10
430.8812379450669
 20
398.1554265940102
 30
0.0
 10
431.1306274620613
 20
398.2986198264441
 30
0.0
 10
431.2627851511708
 20
398.3617146413037
 30
0.0
 10
431.6720416715529
 20
398.5160729724396
 30
0.0
 10
431.9704492800631
 20
398.5744631471557
 30
0.0
 10
432.2722350703141
 20
398.5744631471445
 30
0.0
  0
LINE
  5
CF
330
1F
100
AcDbEntity
  8
0
  6
Continuous
 62
     7
370
    25
100
AcDbLine
 10
432.2722356119
 20
398.5744629059
 30
0.0
 11
441.3349802889
 21
398.5744629059
 31
0.0
  0
LINE
  5
D0
330
1F
100
AcDbEntity
  8
0
  6
Continuous
 62
     7
370
    25
100
AcDbLine
 10
445.3036084123
 20
371.7526381839
 30
0.0
 11
445.3036084123
 21
400.7526373494
 31
0.0
  0
SPLINE
  5
D1
330
1F
100
AcDbEntity
  8
0
  6
Continuous
 62
     7
370
    25
100
AcDbSpline
210
0.0
220
0.0
230
1.0
 70
    24
 71
     3
 72
    12
 73
     8
 74
     0
 42
0.000000001
 43
0.00000001
 40
0.0
 40
0.0
 40
0.0
 40
0.0
 40
0.1057456006021401
 40
0.2110372119141572
 40
0.3724804272939103
 40
0.6244442283259389
 40
1.0
 40
1.0
 40
1.0
 40
1.0
 10
441.3349802889439
 20
371.2526381019236
 30
0.0
 10
441.5853774527995
 20
371.2526381019236
 30
0.0
 10
442.0850967700138
 20
371.2526381019236
 30
0.0
 10
442.8621814107472
 20
371.2526381019236
 30
0.0
 10
443.6957810353446
 20
371.2526381019236
 30
0.0
 10
444.4860326282417
 20
371.2526381019236
 30
0.0
 10
444.5686691635543
 20
371.2526381019236
 30
0.0
 10
444.6181251951071
 20
371.2526381019236
 30
0.0
  0
SPLINE
  5
D2
330
1F
100
AcDbEntity
  8
0
  6
Continuous
 62
     7
370
    25
100
AcDbSpline
210
0.0
220
0.0
230
1.0
 70
     8
 71
     3
 72
    40
 73
    36
 74
     0
 42
0.000000001
 43
0.00000001
 40
0.0
 40
0.0
 40
0.0
 40
0.0
 40
0.0312499999999997
 40
0.0312499999999997
 40
0.0624999999999994
 40
0.0624999999999994
 40
0.0937499999999991
 40
0.0937499999999991
 40
0.1249999999999989
 40
0.1249999999999989
 40
0.1874999999999983
 40
0.1874999999999983
 40
0.2499999999999979
 40
0.2499999999999979
 40
0.3749999999999989
 40
0.3749999999999989
 40
0.4999999999999999
 40
0.4999999999999999
 40
0.5625000000000004
 40
0.5625000000000004
 40
0.625000000000001
 40
0.625000000000001
 40
0.6875000000000016
 40
0.6875000000000016
 40
0.750000000000002
 40
0.750000000000002
 40
0.8125000000000026
 40
0.8125000000000026
 40
0.8750000000000031
 40
0.8750000000000031
 40
0.9062500000000023
 40
0.9062500000000023
 40
0.9375000000000014
 40
0.9375000000000014
 40
1.0
 40
1.0
 40
1.0
 40
1.0
 10
441.3349811370783
 20
383.5744631471443
 30
0.0
 10
441.485592447445
 20
383.5744631471442
 30
0.0
 10
441.6333066395955
 20
383.5604346690545
 30
0.0
 10
441.9233984357077
 20
383.5065367892784
 30
0.0
 10
442.0671770558653
 20
383.4660384447172
 30
0.0
 10
442.3412386434573
 20
383.3631593831171
 30
0.0
 10
442.4716043890383
 20
383.3011326660103
 30
0.0
 10
442.7207907526071
 20
383.1587402171604
 30
0.0
 10
442.8395052453167
 20
383.0781827151549
 30
0.0
 10
443.1703887125124
 20
382.8200818149865
 30
0.0
 10
443.3623960168003
 20
382.6236334340912
 30
0.0
 10
443.7015426007692
 20
382.1972248415981
 30
0.0
 10
443.8442093187488
 20
381.9729975062195
 30
0.0
 10
444.2135925041916
 20
381.2763014008747
 30
0.0
 10
444.3825035366521
 20
380.7760924749227
 30
0.0
 10
444.6001984672905
 20
379.7742948902311
 30
0.0
 10
444.6515331254877
 20
379.2668931651447
 30
0.0
 10
444.6516422160075
 20
378.4970963516373
 30
0.0
 10
444.6383987780772
 20
378.2396085615379
 30
0.0
 10
444.585341396704
 20
377.7314270607914
 30
0.0
 10
444.5455613592868
 20
377.4795491883947
 30
0.0
 10
444.4371403188534
 20
376.9806130137517
 30
0.0
 10
444.3685477999674
 20
376.7335466150104
 30
0.0
 10
444.1969432488864
 20
376.2451616244874
 30
0.0
 10
444.0930405773125
 20
376.0020368635561
 30
0.0
 10
443.845093215145
 20
375.533514665874
 30
0.0
 10
443.7017531745847
 20
375.3084183379086
 30
0.0
 10
443.3633290131619
 20
374.8827126094615
 30
0.0
 10
443.1705035368489
 20
374.6855504919491
 30
0.0
 10
442.8422499477241
 20
374.4291018837242
 30
0.0
 10
442.7259782623005
 20
374.3498489393181
 30
0.0
 10
442.4765887453156
 20
374.2066557068836
 30
0.0
 10
442.3444310562056
 20
374.1435608920201
 30
0.0
 10
441.9351745358312
 20
373.9892025608758
 30
0.0
 10
441.6367669273268
 20
373.9308123861511
 30
0.0
 10
441.3349811370783
 20
373.930812386151
 30
0.0
  0
SPLINE
  5
D3
330
1F
100
AcDbEntity
  8
0
  6
Continuous
 62
     7
370
    25
100
AcDbSpline
210
0.0
220
0.0
230
1.0
 70
    24
 71
     3
 72
    22
 73
    18
 74
     0
 42
0.000000001
 43
0.00000001
 40
0.0
 40
0.0
 40
0.0
 40
0.0
 40
0.2500000000000005
 40
0.2500000000000005
 40
0.3750000000000009
 40
0.3750000000000009
 40
0.5000000000000012
 40
0.5000000000000012
 40
0.6250000000000016
 40
0.6250000000000016
 40
0.750000000000002
 40
0.750000000000002
 40
0.8750000000000023
 40
0.8750000000000023
 40
0.9375000000000012
 40
0.9375000000000012
 40
1.0
 40
1.0
 40
1.0
 40
1.0
 10
444.6516059274333
 20
401.2526377666475
 30
0.0
 10
444.6516059274333
 20
401.2526377666475
 30
0.0
 10
444.5999655943901
 20
401.2526377666476
 30
0.0
 10
444.4373047947495
 20
401.2526377666475
 30
0.0
 10
444.3686204033497
 20
401.2526377666475
 30
0.0
 10
444.1963234189459
 20
401.2526377666475
 30
0.0
 10
444.0919962513415
 20
401.2526377666476
 30
0.0
 10
443.8444874496039
 20
401.2526377666475
 30
0.0
 10
443.7009490143543
 20
401.2526377666476
 30
0.0
 10
443.361695748959
 20
401.2526377666476
 30
0.0
 10
443.1708634679642
 20
401.2526377666475
 30
0.0
 10
442.7331968378404
 20
401.2526377666476
 30
0.0
 10
442.4808574397283
 20
401.2526377666476
 30
0.0
 10
442.0715536038409
 20
401.2526377666476
 30
0.0
 10
441.9281170759629
 20
401.2526377666476
 30
0.0
 10
441.6346424117623
 20
401.2526377666476
 30
0.0
 10
441.4858794511668
 20
401.2526377666476
 30
0.0
 10
441.3349811370784
 20
401.2526377666476
 30
0.0
  0
LINE
  5
D4
330
1F
100
AcDbEntity
  8
0
  6
Continuous
 62
     7
370
    25
100
AcDbLine
 10
441.3349802889
 20
373.9308126274
 30
0.0
 11
432.2722356119
 21
373.9308126274
 31
0.0
  0
SPLINE
  5
D5
330
1F
100
AcDbEntity
  8
0
  6
Continuous
 62
     7
370
    25
100
AcDbSpline
210
0.0
220
0.0
230
1.0
 70
     8
 71
     3
 72
    40
 73
    36
 74
     0
 42
0.000000001
 43
0.00000001
 40
0.0
 40
0.0
 40
0.0
 40
0.0
 40
0.0312499999999999
 40
0.0312499999999999
 40
0.0624999999999998
 40
0.0624999999999998
 40
0.0937499999999998
 40
0.0937499999999998
 40
0.1249999999999997
 40
0.1249999999999997
 40
0.1875000000000003
 40
0.1875000000000003
 40
0.2500000000000009
 40
0.2500000000000009
 40
0.3750000000000017
 40
0.3750000000000017
 40
0.5000000000000026
 40
0.5000000000000026
 40
0.5625000000000023
 40
0.5625000000000023
 40
0.625000000000002
 40
0.625000000000002
 40
0.6875000000000018
 40
0.6875000000000018
 40
0.7500000000000014
 40
0.7500000000000014
 40
0.8125000000000012
 40
0.8125000000000012
 40
0.8750000000000009
 40
0.8750000000000009
 40
0.9062500000000007
 40
0.9062500000000007
 40
0.9375000000000004
 40
0.9375000000000004
 40
1.0
 40
1.0
 40
1.0
 40
1.0
 10
432.272235070314
 20
373.9308123861509
 30
0.0
 10
432.1216237599459
 20
373.9308123861453
 30
0.0
 10
431.9739095677934
 20
373.94484086423
 30
0.0
 10
431.6838177716762
 20
373.9987387439978
 30
0.0
 10
431.5400391515154
 20
374.0392370885556
 30
0.0
 10
431.2659775639181
 20
374.1421161501502
 30
0.0
 10
431.1356118183343
 20
374.2041428672551
 30
0.0
 10
430.8864254547597
 20
374.3465353161026
 30
0.0
 10
430.7677109620478
 20
374.4270928181072
 30
0.0
 10
430.4368274948459
 20
374.6851937182739
 30
0.0
 10
430.2448201905524
 20
374.8816420991722
 30
0.0
 10
429.90567360658
 20
375.3080506916657
 30
0.0
 10
429.7630068885986
 20
375.5322780270456
 30
0.0
 10
429.3936237031509
 20
376.228974132397
 30
0.0
 10
429.2247126706894
 20
376.7291830583537
 30
0.0
 10
429.0070177400498
 20
377.7309806430528
 30
0.0
 10
428.9556830818518
 20
378.238382368145
 30
0.0
 10
428.9555739913323
 20
379.0081791816639
 30
0.0
 10
428.9688174292626
 20
379.265666971763
 30
0.0
 10
429.0218748106359
 20
379.7738484725124
 30
0.0
 10
429.0616548480533
 20
380.0257263449113
 30
0.0
 10
429.1700758884875
 20
380.52466251956
 30
0.0
 10
429.2386684073743
 20
380.771728918305
 30
0.0
 10
429.4102729584587
 20
381.2601139088367
 30
0.0
 10
429.5141756300358
 20
381.5032386697736
 30
0.0
 10
429.7621229922048
 20
381.9717608674551
 30
0.0
 10
429.9054630327667
 20
382.1968571954218
 30
0.0
 10
430.2438871941981
 20
382.6225629238741
 30
0.0
 10
430.4367126705089
 20
382.8197250413806
 30
0.0
 10
430.7649662596402
 20
383.0761736496041
 30
0.0
 10
430.8812379450669
 20
383.1554265940101
 30
0.0
 10
431.1306274620613
 20
383.298619826444
 30
0.0
 10
431.2627851511708
 20
383.3617146413036
 30
0.0
 10
431.6720416715529
 20
383.5160729724395
 30
0.0
 10
431.9704492800631
 20
383.5744631471555
 30
0.0
 10
432.272235070314
 20
383.5744631471444
 30
0.0
  0
LINE
  5
D6
330
1F
100
AcDbEntity
  8
0
  6
Continuous
 62
     7
370
    25
100
AcDbLine
 10
432.2722356119
 20
383.5744632411
 30
0.0
 11
441.3349802889
 21
383.5744632411
 31
0.0
  0
SPLINE
  5
D7
330
1F
100
AcDbEntity
  8
0
  6
Continuous
 62
     7
370
    25
100
AcDbSpline
210
0.0
220
0.0
230
1.0
 70
    24
 71
     3
 72
    22
 73
    18
 74
     0
 42
0.000000001
 43
0.00000001
 40
0.0
 40
0.0
 40
0.0
 40
0.0
 40
0.0624999999999985
 40
0.0624999999999985
 40
0.124999999999997
 40
0.124999999999997
 40
0.1874999999999956
 40
0.1874999999999956
 40
0.2499999999999941
 40
0.2499999999999941
 40
0.3749999999999932
 40
0.3749999999999932
 40
0.4999999999999925
 40
0.4999999999999925
 40
0.7499999999999961
 40
0.7499999999999961
 40
1.0
 40
1.0
 40
1.0
 40
1.0
 10
432.2722350703141
 20
401.2526377666476
 30
0.0
 10
432.121707286377
 20
401.2526377666476
 30
0.0
 10
431.9740734260754
 20
401.2526377666476
 30
0.0
 10
431.6841365580452
 20
401.2526377666476
 30
0.0
 10
431.5404340307041
 20
401.2526377666476
 30
0.0
 10
431.2664946732016
 20
401.2526377666476
 30
0.0
 10
431.1361839784846
 20
401.2526377666476
 30
0.0
 10
430.8870971412355
 20
401.2526377666476
 30
0.0
 10
430.7684167366468
 20
401.2526377666476
 30
0.0
 10
430.4376183005303
 20
401.2526377666476
 30
0.0
 10
430.2456641156749
 20
401.2526377666476
 30
0.0
 10
429.9065229011806
 20
401.2526377666476
 30
0.0
 10
429.7638469723289
 20
401.2526377666476
 30
0.0
 10
429.3944026635439
 20
401.2526377666476
 30
0.0
 10
429.2253812109822
 20
401.2526377666476
 30
0.0
 10
429.0071973443596
 20
401.2526377666476
 30
0.0
 10
428.9556102799066
 20
401.2526377666476
 30
0.0
 10
428.9556102799066
 20
401.2526377666476
 30
0.0
  0
SPLINE
  5
D8
330
1F
100
AcDbEntity
  8
0
  6
Continuous
 62
     7
370
    25
100
AcDbSpline
210
0.0
220
0.0
230
1.0
 70
    24
 71
     3
 72
    14
 73
    10
 74
     0
 42
0.000000001
 43
0.00000001
 40
0.0
 40
0.0
 40
0.0
 40
0.0
 40
0.0335317410036772
 40
0.2440147135448572
 40
0.4608736850562431
 40
0.6414229851042075
 40
0.823690036947545
 40
0.93140978001788
 40
0.9999999999999999
 40
0.9999999999999999
 40
0.9999999999999999
 40
0.9999999999999999
 10
428.9890776671978
 20
371.2526381019236
 30
0.0
 10
428.977597020228
 20
371.2526381019236
 30
0.0
 10
428.8940509024964
 20
371.2526381019236
 30
0.0
 10
429.097471418341
 20
371.2526381019236
 30
0.0
 10
429.4447415906091
 20
371.2526381019236
 30
0.0
 10
430.0950880079385
 20
371.2526381019236
 30
0.0
 10
430.897273570453
 20
371.2526381019236
 30
0.0
 10
431.6913594519356
 20
371.2526381019236
 30
0.0
 10
432.1095471928687
 20
371.2526381019236
 30
0.0
 10
432.2722356118771
 20
371.2526381019236
 30
0.0
  0
SPLINE
  5
D9
330
1F
100
AcDbEntity
  8
0
  6
Continuous
 62
     7
370
    25
100
AcDbSpline
210
0.0
220
0.0
230
1.0
 70
     8
 71
     3
 72
    11
 73
     7
 74
     0
 42
0.000000001
 43
0.00000001
 40
0.0
 40
0.0
 40
0.0
 40
0.0
 40
0.1745738677345968
 40
0.4987747229394599
 40
0.8229755781443233
 40
1.0
 40
1.0
 40
1.0
 40
1.0
 10
475.6415518167938
 20
375.5403885621311
 30
0.0
 10
475.6655741861652
 20
376.7900310620518
 30
0.0
 10
475.7342084599145
 20
380.3603826831713
 30
0.0
 10
475.7494447388775
 20
386.252638212686
 30
0.0
 10
475.7340589649163
 20
392.1624366951922
 30
0.0
 10
475.6650242380944
 20
395.7503292930426
 30
0.0
 10
475.640642322092
 20
397.0175132158877
 30
0.0
  0
LINE
  5
DA
330
1F
100
AcDbEntity
  8
0
  6
Continuous
 62
     7
370
    25
100
AcDbLine
 10
462.385370145
 20
407.1190988648
 30
0.0
 11
462.385370145
 21
407.1051886309
 31
0.0
  0
SPLINE
  5
DB
330
1F
100
AcDbEntity
  8
0
  6
Continuous
 62
     7
370
    25
100
AcDbSpline
210
0.0
220
0.0
230
1.0
 70
     8
 71
     3
 72
    15
 73
    11
 74
     0
 42
0.000000001
 43
0.00000001
 40
0.5499999999999995
 40
0.5499999999999995
 40
0.5499999999999995
 40
0.5499999999999995
 40
0.625
 40
0.6875
 40
0.75
 40
0.8125
 40
0.875
 40
0.90625
 40
0.9375
 40
0.9519359669740288
 40
0.9519359669740288
 40
0.9519359669740288
 40
0.9519359669740288
 10
462.3853703296392
 20
407.1190981272674
 30
0.0
 10
463.0831294827829
 20
407.2880796289224
 30
0.0
 10
464.3637649164122
 20
407.5920474906418
 30
0.0
 10
466.2317028088062
 20
408.0127093315637
 30
0.0
 10
467.9883895470883
 20
408.3813616050753
 30
0.0
 10
469.751638278913
 20
408.7168785227483
 30
0.0
 10
471.22897846044
 20
408.950098360742
 30
0.0
 10
472.4171290948979
 20
409.097588796976
 30
0.0
 10
473.1505190255255
 20
409.1679988052781
 30
0.0
 10
473.5867221206036
 20
409.1990883786869
 30
0.0
 10
473.7246152768776
 20
409.2077549809594
 30
0.0
  0
LINE
  5
DC
330
1F
100
AcDbEntity
  8
0
  6
Continuous
 62
     7
370
    25
100
AcDbLine
 10
432.2722356119
 20
371.2526381019
 30
0.0
 11
441.3349802889
 21
371.2526381019
 31
0.0
  0
LINE
  5
DD
330
1F
100
AcDbEntity
  8
0
  6
Continuous
 62
     7
370
    25
100
AcDbLine
 10
441.3349802889
 20
401.2526374314
 30
0.0
 11
432.2722356119
 21
401.2526374314
 31
0.0
  0
SPLINE
  5
DE
330
1F
100
AcDbEntity
  8
0
  6
Continuous
 62
     7
370
    25
100
AcDbSpline
210
0.0
220
0.0
230
1.0
 70
     8
 71
     3
 72
     8
 73
     4
 74
     0
 42
0.000000001
 43
0.00000001
 40
0.0
 40
0.0
 40
0.0
 40
0.0
 40
1.0
 40
1.0
 40
1.0
 40
1.0
 10
473.7323851271599
 20
363.2880785694171
 30
0.0
 10
473.7326742513151
 20
363.2880637825514
 30
0.0
 10
473.7331003849027
 20
363.288041989441
 30
0.0
 10
473.7329624491545
 20
363.288049042216
 30
0.0
  0
ARC
  5
DF
330
1F
100
AcDbEntity
  8
0
  6
Continuous
 62
     7
370
    25
100
AcDbCircle
 10
473.8140727896
 20
407.7844083927
 30
0.0
 40
1.426155025542098
100
AcDbArc
 50
4.5518404919
 51
93.5963166342
  0
SPLINE
  5
E0
330
1F
100
AcDbEntity
  8
0
  6
Continuous
 62
     7
370
    25
100
AcDbSpline
210
0.0
220
0.0
230
1.0
 70
    24
 71
     3
 72
     8
 73
     4
 74
     0
 42
0.000000001
 43
0.00000001
 40
0.0
 40
0.0
 40
0.0
 40
0.0
 40
1.0
 40
1.0
 40
1.0
 40
1.0
 10
446.3036080815409
 20
400.8729631310882
 30
0.0
 10
446.303608081541
 20
400.7615992884865
 30
0.0
 10
446.303608081541
 20
400.6428357349657
 30
0.0
 10
446.303608081541
 20
400.5210229911029
 30
0.0
  0
SPLINE
  5
E1
330
1F
100
AcDbEntity
  8
0
  6
Continuous
 62
     7
370
    25
100
AcDbSpline
210
0.0
220
0.0
230
1.0
 70
     8
 71
     3
 72
    12
 73
     8
 74
     0
 42
0.000000001
 43
0.00000001
 40
0.0
 40
0.0
 40
0.0
 40
0.0
 40
0.0045037411920461
 40
0.2325386147147068
 40
0.4603519666899147
 40
0.7588801908218569
 40
1.0
 40
1.0
 40
1.0
 40
1.0
 10
447.4278099187227
 20
402.814190648842
 30
0.0
 10
447.4260826857191
 20
402.8140769519514
 30
0.0
 10
447.3369016353783
 20
402.8082065175065
 30
0.0
 10
446.8546624255785
 20
402.7093078729262
 30
0.0
 10
445.7057326447714
 20
402.4416550473033
 30
0.0
 10
443.8358595850659
 20
401.9639378713779
 30
0.0
 10
442.006702748304
 20
401.4723040429163
 30
0.0
 10
441.1894182958218
 20
401.2526374313713
 30
0.0
  0
SPLINE
  5
E2
330
1F
100
AcDbEntity
  8
0
  6
Continuous
 62
     7
370
    25
100
AcDbSpline
210
0.0
220
0.0
230
1.0
 70
     8
 71
     3
 72
    10
 73
     6
 74
     0
 42
0.000000001
 43
0.00000001
 40
0.0
 40
0.0
 40
0.0
 40
0.0
 40
0.1835816419592311
 40
0.6233933686802668
 40
0.9999999999999999
 40
0.9999999999999999
 40
0.9999999999999999
 40
0.9999999999999999
 10
440.8689017691227
 20
401.2526374313713
 30
0.0
 10
442.1040596049971
 20
401.6022298393053
 30
0.0
 10
446.2983199675259
 20
402.789350656622
 30
0.0
 10
453.0184062441457
 20
404.7245272725002
 30
0.0
 10
458.5505445387984
 20
406.1349427177001
 30
0.0
 10
461.102471435866
 20
406.7855549979688
 30
0.0
  0
SPLINE
  5
E3
330
1F
100
AcDbEntity
  8
0
  6
Continuous
 62
     7
370
    25
100
AcDbSpline
210
0.0
220
0.0
230
1.0
 70
     8
 71
     3
 72
    11
 73
     7
 74
     0
 42
0.000000001
 43
0.00000001
 40
0.0
 40
0.0
 40
0.0
 40
0.0
 40
0.2749116711009019
 40
0.550295336111871
 40
0.8264873719537785
 40
1.0
 40
1.0
 40
1.0
 40
1.0
 10
447.414071048102
 20
370.1520485806943
 30
0.0
 10
447.4660708691279
 20
370.1352045814825
 30
0.0
 10
447.5701597893058
 20
370.1014876637153
 30
0.0
 10
447.6443430327591
 20
370.0774608023791
 30
0.0
 10
447.6795982590855
 20
370.0660417041085
 30
0.0
 10
447.6825648157068
 20
370.0650814959695
 30
0.0
 10
447.6837094225498
 20
370.064711012292
 30
0.0
  0
SPLINE
  5
E4
330
1F
100
AcDbEntity
  8
0
  6
Continuous
 62
     7
370
    25
100
AcDbSpline
210
0.0
220
0.0
230
1.0
 70
     8
 71
     3
 72
     8
 73
     4
 74
     0
 42
0.000000001
 43
0.00000001
 40
0.0
 40
0.0
 40
0.0
 40
0.0
 40
1.0
 40
1.0
 40
1.0
 40
1.0
 10
473.7352604242746
 20
363.2877972252154
 30
0.0
 10
473.7352063819209
 20
363.2877722061717
 30
0.0
 10
473.7351678896219
 20
363.2877118613795
 30
0.0
 10
473.7351498305607
 20
363.2876498087504
 30
0.0
  0
SPLINE
  5
E5
330
1F
100
AcDbEntity
  8
0
  6
Continuous
 62
     7
370
    25
100
AcDbSpline
210
0.0
220
0.0
230
1.0
 70
     8
 71
     3
 72
     8
 73
     4
 74
     0
 42
0.000000001
 43
0.00000001
 40
0.0
 40
0.0
 40
0.0
 40
0.0
 40
1.0
 40
1.0
 40
1.0
 40
1.0
 10
475.2359088095729
 20
364.6099372062687
 30
0.0
 10
475.2359781630839
 20
364.6108088237173
 30
0.0
 10
475.2353922440661
 20
364.6049919447202
 30
0.0
 10
475.2343397391153
 20
364.5622641654191
 30
0.0
  0
SPLINE
  5
E6
330
1F
100
AcDbEntity
  8
0
  6
Continuous
 62
     7
370
    25
100
AcDbSpline
210
0.0
220
0.0
230
1.0
 70
     8
 71
     3
 72
    14
 73
    10
 74
     0
 42
0.000000001
 43
0.00000001
 40
0.0
 40
0.0
 40
0.0
 40
0.0
 40
0.102897996058724
 40
0.2450564557346837
 40
0.3913340671324508
 40
0.5335674928532754
 40
0.6799256515940004
 40
0.8371400166223506
 40
1.0
 40
1.0
 40
1.0
 40
1.0
 10
475.6947184614415
 20
378.616812918681
 30
0.0
 10
475.6843070654634
 20
377.7455698168469
 30
0.0
 10
475.6595118323649
 20
375.6706630665065
 30
0.0
 10
475.5912155653494
 20
372.3735882433324
 30
0.0
 10
475.4938776598494
 20
368.8864682247093
 30
0.0
 10
475.383214730782
 20
365.6012928923124
 30
0.0
 10
475.3068654112724
 20
362.5836585011962
 30
0.0
 10
475.2864994829472
 20
359.8473514398003
 30
0.0
 10
475.2907631705913
 20
358.4975794681073
 30
0.0
 10
475.2929326168538
 20
357.8107895333053
 30
0.0
  0
SPLINE
  5
E7
330
1F
100
AcDbEntity
  8
0
  6
Continuous
 62
     7
370
    25
100
AcDbSpline
210
0.0
220
0.0
230
1.0
 70
    24
 71
     3
 72
     8
 73
     4
 74
     0
 42
0.000000001
 43
0.00000001
 40
0.0
 40
0.0
 40
0.0
 40
0.0
 40
1.0
 40
1.0
 40
1.0
 40
1.0
 10
478.3002949077346
 20
362.0326870412717
 30
0.0
 10
478.3002949077346
 20
363.1106205402492
 30
0.0
 10
478.3002949077345
 20
364.2662531873426
 30
0.0
 10
478.3002949077345
 20
365.498183109711
 30
0.0
  0
SPLINE
  5
E8
330
1F
100
AcDbEntity
  8
0
  6
Continuous
 62
     7
370
    25
100
AcDbSpline
210
0.0
220
0.0
230
1.0
 70
     8
 71
     3
 72
    14
 73
    10
 74
     0
 42
0.000000001
 43
0.00000001
 40
0.0
 40
0.0
 40
0.0
 40
0.0
 40
0.2499999999999986
 40
0.2499999999999986
 40
0.3749999999999985
 40
0.3749999999999985
 40
0.4999999999999984
 40
0.4999999999999984
 40
1.0
 40
1.0
 40
1.0
 40
1.0
 10
478.3002949077346
 20
365.498183109711
 30
0.0
 10
478.3002949077346
 20
366.3002411361058
 30
0.0
 10
478.332430612067
 20
367.1236587810792
 30
0.0
 10
478.4367886602394
 20
368.387778238143
 30
0.0
 10
478.4809387826428
 20
368.814006641147
 30
0.0
 10
478.5894409994455
 20
369.6759630760296
 30
0.0
 10
478.653804736411
 20
370.1111572868404
 30
0.0
 10
479.0242181820738
 20
372.2815373942245
 30
0.0
 10
479.4773860297923
 20
374.022023809459
 30
0.0
 10
480.1095162841575
 20
375.7587874094811
 30
0.0
  0
SPLINE
  5
E9
330
1F
100
AcDbEntity
  8
0
  6
Continuous
 62
     7
370
    25
100
AcDbSpline
210
0.0
220
0.0
230
1.0
 70
    24
 71
     3
 72
     8
 73
     4
 74
     0
 42
0.000000001
 43
0.00000001
 40
0.0
 40
0.0
 40
0.0
 40
0.0
 40
1.0
 40
1.0
 40
1.0
 40
1.0
 10
480.1095162841574
 20
375.7587874094811
 30
0.0
 10
480.2951698206304
 20
376.2688663087827
 30
0.0
 10
480.4810481267975
 20
376.7795627577016
 30
0.0
 10
480.6671488259139
 20
377.2908702262685
 30
0.0
  0
SPLINE
  5
EA
330
1F
100
AcDbEntity
  8
0
  6
Continuous
 62
     7
370
    25
100
AcDbSpline
210
0.0
220
0.0
230
1.0
 70
     8
 71
     3
 72
     8
 73
     4
 74
     0
 42
0.000000001
 43
0.00000001
 40
0.0013999840203585
 40
0.0013999840203585
 40
0.0013999840203585
 40
0.0013999840203585
 40
0.6262686277567391
 40
0.6262686277567391
 40
0.6262686277567391
 40
0.6262686277567391
 10
508.7211361673083
 20
396.2156566414216
 30
0.0
 10
502.3668498711337
 20
397.5278782213674
 30
0.0
 10
496.0106541462938
 20
398.8389518595996
 30
0.0
 10
488.8002949077346
 20
399.6365054352383
 30
0.0
  0
SPLINE
  5
EB
330
1F
100
AcDbEntity
  8
0
  6
Continuous
 62
     7
370
    25
100
AcDbSpline
210
0.0
220
0.0
230
1.0
 70
     8
 71
     3
 72
    38
 73
    34
 74
     0
 42
0.000000001
 43
0.00000001
 40
0.0
 40
0.0
 40
0.0
 40
0.0
 40
0.1250000000000004
 40
0.1250000000000004
 40
0.1875000000000006
 40
0.1875000000000006
 40
0.2500000000000008
 40
0.2500000000000008
 40
0.2812500000000008
 40
0.2812500000000008
 40
0.3125000000000008
 40
0.3125000000000008
 40
0.3750000000000008
 40
0.3750000000000008
 40
0.4375000000000008
 40
0.4375000000000008
 40
0.4687500000000006
 40
0.4687500000000006
 40
0.5000000000000004
 40
0.5000000000000004
 40
0.5625000000000003
 40
0.5625000000000003
 40
0.5937500000000003
 40
0.5937500000000003
 40
0.6250000000000001
 40
0.6250000000000001
 40
0.7500000000000001
 40
0.7500000000000001
 40
0.8125000000000001
 40
0.8125000000000001
 40
0.875
 40
0.875
 40
1.0
 40
1.0
 40
1.0
 40
1.0
 10
488.8002949097761
 20
399.6365054354519
 30
0.0
 10
488.8003056891533
 20
399.6365350515476
 30
0.0
 10
488.7687446808579
 20
399.549821899316
 30
0.0
 10
488.6637021530328
 20
399.261219926034
 30
0.0
 10
488.6190519270045
 20
399.1385444382479
 30
0.0
 10
488.5087938138343
 20
398.835612762001
 30
0.0
 10
488.4436599722943
 20
398.6566590031273
 30
0.0
 10
488.3279860772104
 20
398.338847588364
 30
0.0
 10
488.2862227911891
 20
398.2241039030583
 30
0.0
 10
488.1952505322837
 20
397.9741596759188
 30
0.0
 10
488.1458864879941
 20
397.8385330789004
 30
0.0
 10
487.9859537633184
 20
397.399121529222
 30
0.0
 10
487.8646771425041
 20
397.0659167520271
 30
0.0
 10
487.5906109001223
 20
396.312925939648
 30
0.0
 10
487.4376648718958
 20
395.8927101807004
 30
0.0
 10
487.1830548981915
 20
395.19317502718
 30
0.0
 10
487.0936585990466
 20
394.9475607138967
 30
0.0
 10
486.908064661188
 20
394.4376455604424
 30
0.0
 10
486.8121603310827
 20
394.1741505790501
 30
0.0
 10
486.5154923022789
 20
393.3590618688377
 30
0.0
 10
486.3058820165425
 20
392.7831623418913
 30
0.0
 10
485.9750667029845
 20
391.8742547378811
 30
0.0
 10
485.8620421182786
 20
391.5637222435584
 30
0.0
 10
485.630664519437
 20
390.9280175153735
 30
0.0
 10
485.5119112530875
 20
390.6017455975917
 30
0.0
 10
484.9108953799496
 20
388.9504680574114
 30
0.0
 10
484.4084642944052
 20
387.5700499950463
 30
0.0
 10
483.6304599877583
 20
385.4325007302953
 30
0.0
 10
483.3670131407247
 20
384.7086864668441
 30
0.0
 10
482.8328920746164
 20
383.2412008984566
 30
0.0
 10
482.5637122166756
 20
382.5016353169922
 30
0.0
 10
481.7551862575787
 20
380.2802285013307
 30
0.0
 10
481.2129353220195
 20
378.7904063001091
 30
0.0
 10
480.6671488259331
 20
377.2908702262685
 30
0.0
  0
LINE
  5
EC
330
1F
100
AcDbEntity
  8
0
  6
Continuous
 62
     7
370
    25
100
AcDbLine
 10
504.3856564262
 20
353.7441415716
 30
0.0
 11
505.9191107102
 21
302.0766785372
 31
0.0
  0
SPLINE
  5
ED
330
1F
100
AcDbEntity
  8
0
  6
Continuous
 62
     7
370
    25
100
AcDbSpline
210
0.0
220
0.0
230
1.0
 70
     8
 71
     3
 72
    12
 73
     8
 74
     0
 42
0.000000001
 43
0.00000001
 40
0.0
 40
0.0
 40
0.0
 40
0.0
 40
0.5
 40
0.5
 40
0.75
 40
0.75
 40
1.0
 40
1.0
 40
1.0
 40
1.0
 10
475.3002949077344
 20
355.5026377666475
 30
0.0
 10
475.3002949077344
 20
355.5026377666475
 30
0.0
 10
475.2996759123308
 20
355.6986779269498
 30
0.0
 10
475.2978415067888
 20
356.2761347571869
 30
0.0
 10
475.297075315777
 20
356.5169607424659
 30
0.0
 10
475.2952282198701
 20
357.0954461963696
 30
0.0
 10
475.2941563343403
 20
357.4302797318684
 30
0.0
 10
475.2929326117718
 20
357.8107889738813
 30
0.0
  0
LINE
  5
EE
330
1F
100
AcDbEntity
  8
0
  6
Continuous
 62
     7
370
    25
100
AcDbLine
 10
475.6162448139
 20
398.7526379529
 30
0.0
 11
475.6106005334
 21
399.0026375282
 31
0.0
  0
SPLINE
  5
EF
330
1F
100
AcDbEntity
  8
0
  6
Continuous
 62
     7
370
    25
100
AcDbSpline
210
0.0
220
0.0
230
1.0
 70
    24
 71
     3
 72
    15
 73
    11
 74
     0
 42
0.000000001
 43
0.00000001
 40
0.0
 40
0.0
 40
0.0
 40
0.0
 40
0.2499999999999999
 40
0.2499999999999999
 40
0.4999999999999999
 40
0.4999999999999999
 40
0.7499999999999998
 40
0.7499999999999998
 40
0.8124999999999998
 40
1.0
 40
1.0
 40
1.0
 40
1.0
 10
505.9191113629365
 20
302.0766777929624
 30
0.0
 10
505.9512305894384
 20
300.9944683478675
 30
0.0
 10
505.9817762483254
 20
299.9652779172596
 30
0.0
 10
506.0372790951722
 20
298.0951922511681
 30
0.0
 10
506.0622362831317
 20
297.2542970156843
 30
0.0
 10
506.1041208524254
 20
295.8430589059905
 30
0.0
 10
506.1210482337595
 20
295.2727160317804
 30
0.0
 10
506.135662996475
 20
294.7802933936575
 30
0.0
 10
506.1460459138569
 20
294.4304564740871
 30
0.0
 10
506.150888093115
 20
294.2673064639972
 30
0.0
 10
506.150888093115
 20
294.2673064639972
 30
0.0
  0
LINE
  5
F0
330
1F
100
AcDbEntity
  8
0
  6
Continuous
 62
     7
370
    25
100
AcDbLine
 10
511.4134165742
 20
302.1210094917
 30
0.0
 11
510.6261956789
 21
377.2923059765
 31
0.0
  0
LINE
  5
F1
330
1F
100
AcDbEntity
  8
0
  6
Continuous
 62
     7
370
    25
100
AcDbLine
 10
510.5087037482
 20
384.8080413187
 30
0.0
 11
510.6261956789
 21
377.2923059765
 31
0.0
  0
SPLINE
  5
F2
330
1F
100
AcDbEntity
  8
0
  6
Continuous
 62
     7
370
    25
100
AcDbSpline
210
0.0
220
0.0
230
1.0
 70
     8
 71
     3
 72
     9
 73
     5
 74
     0
 42
0.000000001
 43
0.00000001
 40
0.0
 40
0.0
 40
0.0
 40
0.0
 40
0.9920371042211299
 40
0.9999999999999999
 40
0.9999999999999999
 40
0.9999999999999999
 40
0.9999999999999999
 10
494.1077965595337
 20
354.0568349886419
 30
0.0
 10
494.2892342375768
 20
354.0237707261815
 30
0.0
 10
494.4721282818329
 20
353.9904410630876
 30
0.0
 10
494.3806407576502
 20
354.0071037900499
 30
0.0
 10
494.37991225203
 20
354.0072364736081
 30
0.0
  0
SPLINE
  5
F3
330
1F
100
AcDbEntity
  8
0
  6
Continuous
 62
     7
370
    25
100
AcDbSpline
210
0.0
220
0.0
230
1.0
 70
     8
 71
     3
 72
    32
 73
    28
 74
     0
 42
0.000000001
 43
0.00000001
 40
0.0
 40
0.0
 40
0.0
 40
0.0
 40
0.1249999999999999
 40
0.1249999999999999
 40
0.1874999999999999
 40
0.1874999999999999
 40
0.2499999999999999
 40
0.2499999999999999
 40
0.3124999999999999
 40
0.3124999999999999
 40
0.3749999999999999
 40
0.3749999999999999
 40
0.4374999999999999
 40
0.4374999999999999
 40
0.4999999999999999
 40
0.4999999999999999
 40
0.6249999999999999
 40
0.6249999999999999
 40
0.6874999999999998
 40
0.6874999999999998
 40
0.7499999999999998
 40
0.7499999999999998
 40
0.8124999999999997
 40
0.8124999999999997
 40
0.8749999999999997
 40
0.8749999999999997
 40
1.0
 40
1.0
 40
1.0
 40
1.0
 10
486.6954039408042
 20
354.0568367478654
 30
0.0
 10
486.8458538461487
 20
354.081328927641
 30
0.0
 10
487.0464337246874
 20
354.1126398952278
 30
0.0
 10
487.4209037555491
 20
354.1638356298475
 30
0.0
 10
487.5580899756326
 20
354.181564153214
 30
0.0
 10
487.8486258199031
 20
354.2161658316504
 30
0.0
 10
488.0029731703044
 20
354.2331832033186
 30
0.0
 10
488.3300171603005
 20
354.2655527237292
 30
0.0
 10
488.5041832158785
 20
354.281001468965
 30
0.0
 10
488.8611799177366
 20
354.3082798402101
 30
0.0
 10
489.0446365172023
 20
354.3202031496571
 30
0.0
 10
489.4214029368976
 20
354.3398670291161
 30
0.0
 10
489.6159070147976
 20
354.347638932777
 30
0.0
 10
490.0098976892837
 20
354.3580880041793
 30
0.0
 10
490.2069216120817
 20
354.3607296884367
 30
0.0
 10
490.7980766444952
 20
354.3608747574739
 30
0.0
 10
491.1980984237313
 20
354.3500860688297
 30
0.0
 10
491.763080094826
 20
354.3207608078667
 30
0.0
 10
491.9465799551591
 20
354.3088695156903
 30
0.0
 10
492.3038223109492
 20
354.281585543422
 30
0.0
 10
492.4775514938095
 20
354.2661528538887
 30
0.0
 10
492.8038876812037
 20
354.2337733516849
 30
0.0
 10
492.9580491389861
 20
354.216716182389
 30
0.0
 10
493.2484315980013
 20
354.1819688365208
 30
0.0
 10
493.385612707794
 20
354.1641345526455
 30
0.0
 10
493.7581818473433
 20
354.1128671038571
 30
0.0
 10
493.9579871672084
 20
354.0814333687304
 30
0.0
 10
494.1077963069807
 20
354.0568367478654
 30
0.0
  0
LINE
  5
F4
330
1F
100
AcDbEntity
  8
0
  6
Continuous
 62
     7
370
    25
100
AcDbLine
 10
486.4219527044
 20
354.007459991
 30
0.0
 11
486.6954039135
 21
354.0568349886
 31
0.0
  0
SPLINE
  5
F5
330
1F
100
AcDbEntity
  8
0
  6
Continuous
 62
     7
370
    25
100
AcDbSpline
210
0.0
220
0.0
230
1.0
 70
    24
 71
     3
 72
    13
 73
     9
 74
     0
 42
0.000000001
 43
0.00000001
 40
0.0
 40
0.0
 40
0.0
 40
0.0
 40
0.1550348280881736
 40
0.3513485119309027
 40
0.5476615730643793
 40
0.7436790453594669
 40
0.9396936243935657
 40
1.0
 40
1.0
 40
1.0
 40
1.0
 10
478.3002948206427
 20
354.0634697306634
 30
0.0
 10
478.3002948206427
 20
354.0801834960591
 30
0.0
 10
478.3002948206427
 20
354.1180611566658
 30
0.0
 10
478.3002948206427
 20
354.9647083033366
 30
0.0
 10
478.3002948206427
 20
356.4165871086517
 30
0.0
 10
478.3002948206427
 20
358.4899459993269
 30
0.0
 10
478.3002948206427
 20
360.4675308728951
 30
0.0
 10
478.3002948206427
 20
361.7343838412217
 30
0.0
 10
478.3002948206427
 20
362.0324449617149
 30
0.0
  0
LINE
  5
F6
330
1F
100
AcDbEntity
  8
0
  6
Continuous
 62
     7
370
    25
100
AcDbLine
 10
473.7666479596
 20
353.2526379455
 30
0.0
 11
440.5502963163
 21
353.2526379455
 31
0.0
  0
LINE
  5
F7
330
1F
100
AcDbEntity
  8
0
  6
Continuous
 62
     7
370
    25
100
AcDbLine
 10
429.8002931573
 20
355.7892551649
 30
0.0
 11
428.1366083123
 21
355.7142706591
 31
0.0
  0
SPLINE
  5
F8
330
1F
100
AcDbEntity
  8
0
  6
Continuous
 62
     7
370
    25
100
AcDbSpline
210
0.0
220
0.0
230
1.0
 70
     8
 71
     3
 72
    15
 73
    11
 74
     0
 42
0.000000001
 43
0.00000001
 40
0.0
 40
0.0
 40
0.0
 40
0.0
 40
0.0762110397034009
 40
0.2693211697224609
 40
0.4685336896654915
 40
0.5754717111203024
 40
0.6853306072789
 40
0.7948552350592267
 40
0.9081640803345801
 40
1.0
 40
1.0
 40
1.0
 40
1.0
 10
440.2711863913151
 20
353.2658962536336
 30
0.0
 10
440.2666282117376
 20
353.2679723518787
 30
0.0
 10
440.2505201221433
 20
353.2753090475858
 30
0.0
 10
439.4755274707717
 20
353.6278456429171
 30
0.0
 10
437.9697135801277
 20
354.2386855972299
 30
0.0
 10
436.3159041684733
 20
354.7904491034805
 30
0.0
 10
434.8315080310828
 20
355.1989412748823
 30
0.0
 10
433.1555805501108
 20
355.5382218194379
 30
0.0
 10
431.4541338881995
 20
355.7525999380159
 30
0.0
 10
430.3117135707313
 20
355.7779201971933
 30
0.0
 10
429.8002931573006
 20
355.7892551649095
 30
0.0
  0
LINE
  5
F9
330
1F
100
AcDbEntity
  8
0
  6
Continuous
 62
     7
370
    25
100
AcDbLine
 10
475.2358821097
 20
354.6096010137
 30
0.0
 11
475.2358821097
 21
357.1193868298
 31
0.0
  0
ARC
  5
FA
330
1F
100
AcDbEntity
  8
0
  6
Continuous
 62
     7
370
    25
100
AcDbCircle
 10
473.7666479819
 20
354.7265163087
 30
0.0
 40
1.473878542047158
100
AcDbArc
 50
269.9999999999
 51
355.4502630501
  0
LINE
  5
FB
330
1F
100
AcDbEntity
  8
0
  6
Continuous
 62
     7
370
    25
100
AcDbLine
 10
439.7002931037
 20
337.2526390481
 30
0.0
 11
419.9002932109
 21
337.2526390481
 31
0.0
  0
LINE
  5
FC
330
1F
100
AcDbEntity
  8
0
  6
Continuous
 62
     7
370
    25
100
AcDbLine
 10
419.3002942302
 20
337.8526380289
 30
0.0
 11
440.3002958097
 21
337.8526380289
 31
0.0
  0
SPLINE
  5
FD
330
1F
100
AcDbEntity
  8
0
  6
Continuous
 62
     7
370
    25
100
AcDbSpline
210
0.0
220
0.0
230
1.0
 70
     8
 71
     3
 72
     8
 73
     4
 74
     0
 42
0.000000001
 43
0.00000001
 40
0.9161092157468556
 40
0.9161092157468556
 40
0.9161092157468556
 40
0.9161092157468556
 40
0.9453262181071493
 40
0.9453262181071493
 40
0.9453262181071493
 40
0.9453262181071493
 10
475.3002949077345
 20
355.5026377666481
 30
0.0
 10
475.2795521976671
 20
355.1866693594459
 30
0.0
 10
475.2580812655536
 20
354.8885723858211
 30
0.0
 10
475.235882111394
 20
354.6096016839202
 30
0.0
  0
LINE
  5
FE
330
1F
100
AcDbEntity
  8
0
  6
Continuous
 62
     7
370
    25
100
AcDbLine
 10
509.8344709076
 20
289.3175294626
 30
0.0
 11
510.0663255252
 21
289.3298974264
 31
0.0
  0
LINE
  5
FF
330
1F
100
AcDbEntity
  8
0
  6
Continuous
 62
     7
370
    25
100
AcDbLine
 10
486.6954039135
 20
354.0568349886
 30
0.0
 11
494.1077965595
 21
354.0568349886
 31
0.0
  0
LINE
  5
100
330
1F
100
AcDbEntity
  8
0
  6
Continuous
 62
     8
370
    18
100
AcDbLine
 10
426.2633051076
 20
419.5900930095
 30
0.0
 11
426.2633051076
 21
420.8344182003
 31
0.0
  0
LINE
  5
101
330
1F
100
AcDbEntity
  8
0
  6
Continuous
 62
     8
370
    18
100
AcDbLine
 10
426.2633051076
 20
351.670857333
 30
0.0
 11
426.2633051076
 21
419.5900930095
 31
0.0
  0
LINE
  5
102
330
1F
100
AcDbEntity
  8
0
  6
Continuous
 62
     8
370
    18
100
AcDbLine
 10
428.2282616295
 20
417.6852626729
 30
0.0
 11
428.2282616295
 21
418.8584906984
 31
0.0
  0
LINE
  5
103
330
1F
100
AcDbEntity
  8
0
  6
Continuous
 62
     8
370
    18
100
AcDbLine
 10
428.2282616295
 20
353.6467848349
 30
0.0
 11
428.2282616295
 21
417.6852626729
 31
0.0
  0
SPLINE
  5
104
330
1F
100
AcDbEntity
  8
0
  6
Continuous
 62
     8
370
    18
100
AcDbSpline
210
0.0
220
0.0
230
1.0
 70
     8
 71
     3
 72
    18
 73
    14
 74
     0
 42
0.000000001
 43
0.00000001
 40
0.0
 40
0.0
 40
0.0
 40
0.0
 40
0.25
 40
0.25
 40
0.375
 40
0.375
 40
0.5
 40
0.5
 40
0.625
 40
0.625
 40
0.75
 40
0.75
 40
1.0
 40
1.0
 40
1.0
 40
1.0
 10
473.7330079308614
 20
363.288083248618
 30
0.0
 10
473.7317304519438
 20
363.2881816518066
 30
0.0
 10
473.7102861506448
 20
363.2936729751967
 30
0.0
 10
473.6820523856238
 20
363.7149735907283
 30
0.0
 10
473.6733661156227
 20
363.9281276809468
 30
0.0
 10
473.6615283391563
 20
364.5520810779929
 30
0.0
 10
473.6584573506186
 20
364.9717679132756
 30
0.0
 10
473.6603881436256
 20
365.9785196523723
 30
0.0
 10
473.6653879801609
 20
366.5811252725784
 30
0.0
 10
473.6800327897836
 20
367.8428032320108
 30
0.0
 10
473.68960728862
 20
368.515893312824
 30
0.0
 10
473.7168898696276
 20
370.4836079403977
 30
0.0
 10
473.733489075733
 20
371.7604058507761
 30
0.0
 10
473.7355963773743
 20
372.9207919806535
 30
0.0
  0
SPLINE
  5
105
330
1F
100
AcDbEntity
  8
0
  6
Continuous
 62
     8
370
    18
100
AcDbSpline
210
0.0
220
0.0
230
1.0
 70
     8
 71
     3
 72
    14
 73
    10
 74
     0
 42
0.000000001
 43
0.00000001
 40
0.0
 40
0.0
 40
0.0
 40
0.0
 40
0.25
 40
0.25
 40
0.5
 40
0.5
 40
0.75
 40
0.75
 40
1.0
 40
1.0
 40
1.0
 40
1.0
 10
475.2335221260162
 20
372.9163795416732
 30
0.0
 10
475.221084756027
 20
372.9162915927955
 30
0.0
 10
475.1778523435001
 20
372.9163091797428
 30
0.0
 10
475.0171099107932
 20
372.9166326098269
 30
0.0
 10
474.8992510149442
 20
372.9169405753487
 30
0.0
 10
474.6084479614255
 20
372.9178089864586
 30
0.0
 10
474.4364164284863
 20
372.9183667067194
 30
0.0
 10
474.0828440226197
 20
372.9195791501908
 30
0.0
 10
473.9022849267665
 20
372.9202298610135
 30
0.0
 10
473.7358050267162
 20
372.920852101891
 30
0.0
  0
SPLINE
  5
106
330
1F
100
AcDbEntity
  8
0
  6
Continuous
 62
     8
370
    18
100
AcDbSpline
210
0.0
220
0.0
230
1.0
 70
     8
 71
     3
 72
    18
 73
    14
 74
     0
 42
0.000000001
 43
0.00000001
 40
0.0
 40
0.0
 40
0.0
 40
0.0
 40
0.2500000000000004
 40
0.2500000000000004
 40
0.3750000000000004
 40
0.3750000000000004
 40
0.5000000000000003
 40
0.5000000000000003
 40
0.6250000000000002
 40
0.6250000000000002
 40
0.7500000000000002
 40
0.7500000000000002
 40
1.0
 40
1.0
 40
1.0
 40
1.0
 10
475.2335035608817
 20
372.9163221205655
 30
0.0
 10
475.2293874285031
 20
371.7592911682003
 30
0.0
 10
475.2189573285644
 20
370.5937709629514
 30
0.0
 10
475.207437514109
 20
368.8948002042395
 30
0.0
 10
475.2041277525138
 20
368.3307176836526
 30
0.0
 10
475.1997510688009
 20
367.2901216814646
 30
0.0
 10
475.1987134826243
 20
366.8026759748874
 30
0.0
 10
475.1992544249592
 20
365.987947982463
 30
0.0
 10
475.2008616203052
 20
365.6487325374376
 30
0.0
 10
475.2060512427443
 20
365.1386598152721
 30
0.0
 10
475.20957638627
 20
364.9620009036502
 30
0.0
 10
475.2214582751797
 20
364.6121901095233
 30
0.0
 10
475.2309351585691
 20
364.611964294352
 30
0.0
 10
475.2340759054492
 20
364.6097407157275
 30
0.0
  0
SPLINE
  5
107
330
1F
100
AcDbEntity
  8
0
  6
Continuous
 62
     8
370
    18
100
AcDbSpline
210
0.0
220
0.0
230
1.0
 70
     8
 71
     3
 72
    14
 73
    10
 74
     0
 42
0.000000001
 43
0.00000001
 40
0.0
 40
0.0
 40
0.0
 40
0.0
 40
0.25
 40
0.25
 40
0.5
 40
0.5
 40
0.75
 40
0.75
 40
1.0
 40
1.0
 40
1.0
 40
1.0
 10
475.2340759054492
 20
364.6097407157275
 30
0.0
 10
475.221434079377
 20
364.4435541881125
 30
0.0
 10
475.1779390719586
 20
364.2669532779453
 30
0.0
 10
475.016528666656
 20
363.9305890551578
 30
0.0
 10
474.8982623606081
 20
363.7718653371006
 30
0.0
 10
474.6066547710222
 20
363.515111242838
 30
0.0
 10
474.4342352026306
 20
363.4178924166266
 30
0.0
 10
474.0801429067623
 20
363.3003678043631
 30
0.0
 10
473.8994569744453
 20
363.2795823083176
 30
0.0
 10
473.7330079308614
 20
363.288083248618
 30
0.0
  0
SPLINE
  5
108
330
1F
100
AcDbEntity
  8
0
  6
Continuous
 62
     8
370
    18
100
AcDbSpline
210
0.0
220
0.0
230
1.0
 70
     8
 71
     3
 72
    18
 73
    14
 74
     0
 42
0.000000001
 43
0.00000001
 40
0.0
 40
0.0
 40
0.0
 40
0.0
 40
0.2499999999999999
 40
0.2499999999999999
 40
0.3749999999999995
 40
0.3749999999999995
 40
0.4999999999999991
 40
0.4999999999999991
 40
0.6249999999999988
 40
0.6249999999999988
 40
0.7499999999999983
 40
0.7499999999999983
 40
1.0
 40
1.0
 40
1.0
 40
1.0
 10
473.7368759311682
 20
399.5803885202836
 30
0.0
 10
473.7335776470529
 20
400.7814708596611
 30
0.0
 10
473.7003920711634
 20
402.0687858537058
 30
0.0
 10
473.6594397413695
 20
404.0544399404462
 30
0.0
 10
473.6470452294643
 20
404.7211413918403
 30
0.0
 10
473.6297160841936
 20
405.9765350037844
 30
0.0
 10
473.6249895146128
 20
406.5680426654244
 30
0.0
 10
473.6251549527983
 20
407.5539046828468
 30
0.0
 10
473.630284852419
 20
407.9620275934417
 30
0.0
 10
473.6457707188642
 20
408.5631412558776
 30
0.0
 10
473.6563149698462
 20
408.7675567517231
 30
0.0
 10
473.6858941752468
 20
409.1576296080748
 30
0.0
 10
473.701540584135
 20
409.1449721598449
 30
0.0
 10
473.7002052981506
 20
409.146411793608
 30
0.0
  0
SPLINE
  5
109
330
1F
100
AcDbEntity
  8
0
  6
Continuous
 62
     8
370
    18
100
AcDbSpline
210
0.0
220
0.0
230
1.0
 70
     8
 71
     3
 72
    14
 73
    10
 74
     0
 42
0.000000001
 43
0.00000001
 40
0.0
 40
0.0
 40
0.0
 40
0.0
 40
0.25
 40
0.25
 40
0.5
 40
0.5
 40
0.75
 40
0.75
 40
1.0
 40
1.0
 40
1.0
 40
1.0
 10
475.2370532415923
 20
407.8663148334482
 30
0.0
 10
475.2243480453828
 20
408.0324963695484
 30
0.0
 10
475.1798466950008
 20
408.2099412065397
 30
0.0
 10
475.0129626403006
 20
408.5470193334149
 30
0.0
 10
474.8901540508386
 20
408.7054503443764
 30
0.0
 10
474.5881866616656
 20
408.9568864854334
 30
0.0
 10
474.410133878587
 20
409.048970679812
 30
0.0
 10
474.0484059989145
 20
409.152046522077
 30
0.0
 10
473.8658361646708
 20
409.1636747587173
 30
0.0
 10
473.7001019892425
 20
409.1460725349069
 30
0.0
  0
SPLINE
  5
10A
330
1F
100
AcDbEntity
  8
0
  6
Continuous
 62
     8
370
    18
100
AcDbSpline
210
0.0
220
0.0
230
1.0
 70
     8
 71
     3
 72
    18
 73
    14
 74
     0
 42
0.000000001
 43
0.00000001
 40
0.0
 40
0.0
 40
0.0
 40
0.0
 40
0.2499999999999978
 40
0.2499999999999978
 40
0.3749999999999982
 40
0.3749999999999982
 40
0.4999999999999986
 40
0.4999999999999986
 40
0.6249999999999989
 40
0.6249999999999989
 40
0.7499999999999993
 40
0.7499999999999993
 40
1.0
 40
1.0
 40
1.0
 40
1.0
 10
475.2370375178507
 20
407.8665111095145
 30
0.0
 10
475.2350283160406
 20
407.8610644594153
 30
0.0
 10
475.2259169441649
 20
407.8726737554887
 30
0.0
 10
475.2142417607665
 20
407.5502691271353
 30
0.0
 10
475.2106482674971
 20
407.3819744315575
 30
0.0
 10
475.2052627201438
 20
406.8889971841083
 30
0.0
 10
475.2034198417667
 20
406.5563542706106
 30
0.0
 10
475.2022979288448
 20
405.7487134653391
 30
0.0
 10
475.2029499944804
 20
405.2639151457772
 30
0.0
 10
475.2065608774469
 20
404.215740801826
 30
0.0
 10
475.2094345420223
 20
403.6505671284974
 30
0.0
 10
475.2197692776153
 20
401.9211444690101
 30
0.0
 10
475.2292794868786
 20
400.7551725337997
 30
0.0
 10
475.2335159702001
 20
399.5849955097013
 30
0.0
  0
SPLINE
  5
10B
330
1F
100
AcDbEntity
  8
0
  6
Continuous
 62
     8
370
    18
100
AcDbSpline
210
0.0
220
0.0
230
1.0
 70
     8
 71
     3
 72
    14
 73
    10
 74
     0
 42
0.000000001
 43
0.00000001
 40
0.0
 40
0.0
 40
0.0
 40
0.0
 40
0.25
 40
0.25
 40
0.5
 40
0.5
 40
0.75
 40
0.75
 40
1.0
 40
1.0
 40
1.0
 40
1.0
 10
475.2335159702001
 20
399.5849955097013
 30
0.0
 10
475.2210750356629
 20
399.5850647945541
 30
0.0
 10
475.1778678887957
 20
399.5850276669253
 30
0.0
 10
475.0172810278615
 20
399.5846679486916
 30
0.0
 10
474.8995545714305
 20
399.5843433654924
 30
0.0
 10
474.6090589752699
 20
399.5834491557276
 30
0.0
 10
474.4371973158235
 20
399.5828823225871
 30
0.0
 10
474.0838630183544
 20
399.5816600777057
 30
0.0
 10
473.9033685535651
 20
399.5810086022431
 30
0.0
 10
473.7368759311682
 20
399.5803885202836
 30
0.0
  0
SPLINE
  5
10C
330
1F
100
AcDbEntity
  8
0
  6
Continuous
 62
     8
370
    18
100
AcDbSpline
210
0.0
220
0.0
230
1.0
 70
     8
 71
     3
 72
     8
 73
     4
 74
     0
 42
0.000000001
 43
0.00000001
 40
0.0
 40
0.0
 40
0.0
 40
0.0
 40
1.0
 40
1.0
 40
1.0
 40
1.0
 10
473.7358050267162
 20
372.920852101891
 30
0.0
 10
473.7366489942761
 20
373.5290741686042
 30
0.0
 10
473.7357345013544
 20
374.1372805962583
 30
0.0
 10
473.7359151820199
 20
374.7454991726359
 30
0.0
  0
SPLINE
  5
10D
330
1F
100
AcDbEntity
  8
0
  6
Continuous
 62
     8
370
    18
100
AcDbSpline
210
0.0
220
0.0
230
1.0
 70
     8
 71
     3
 72
     8
 73
     4
 74
     0
 42
0.000000001
 43
0.00000001
 40
0.0
 40
0.0
 40
0.0
 40
0.0
 40
1.0
 40
1.0
 40
1.0
 40
1.0
 10
475.2357331989999
 20
374.7462931132367
 30
0.0
 10
475.2357438874942
 20
374.1379474395064
 30
0.0
 10
475.235678835967
 20
373.5277387224881
 30
0.0
 10
475.2335221260162
 20
372.9163795416732
 30
0.0
  0
SPLINE
  5
10E
330
1F
100
AcDbEntity
  8
0
  6
Continuous
 62
     8
370
    18
100
AcDbSpline
210
0.0
220
0.0
230
1.0
 70
     8
 71
     3
 72
     8
 73
     4
 74
     0
 42
0.000000001
 43
0.00000001
 40
0.0
 40
0.0
 40
0.0
 40
0.0
 40
1.0
 40
1.0
 40
1.0
 40
1.0
 10
473.7359704762981
 20
374.7473206578945
 30
0.0
 10
473.739893931727
 20
382.4181415047389
 30
0.0
 10
473.7402354085613
 20
390.0889493113143
 30
0.0
 10
473.7370480386127
 20
397.7597603085686
 30
0.0
  0
LINE
  5
10F
330
1F
100
AcDbEntity
  8
0
  6
Continuous
 62
     8
370
    18
100
AcDbLine
 10
475.2358386722
 20
374.7481133792
 30
0.0
 11
475.2358367077
 21
397.7591225881
 31
0.0
  0
SPLINE
  5
110
330
1F
100
AcDbEntity
  8
0
  6
Continuous
 62
     8
370
    18
100
AcDbSpline
210
0.0
220
0.0
230
1.0
 70
     8
 71
     3
 72
     8
 73
     4
 74
     0
 42
0.000000001
 43
0.00000001
 40
0.0
 40
0.0
 40
0.0
 40
0.0
 40
1.0
 40
1.0
 40
1.0
 40
1.0
 10
473.7369938198305
 20
397.7596564171386
 30
0.0
 10
473.7368718692799
 20
398.3665537255547
 30
0.0
 10
473.7378414463481
 20
398.9734366708667
 30
0.0
 10
473.7370679991258
 20
399.5803106470814
 30
0.0
  0
SPLINE
  5
111
330
1F
100
AcDbEntity
  8
0
  6
Continuous
 62
     8
370
    18
100
AcDbSpline
210
0.0
220
0.0
230
1.0
 70
     8
 71
     3
 72
     8
 73
     4
 74
     0
 42
0.000000001
 43
0.00000001
 40
0.0
 40
0.0
 40
0.0
 40
0.0
 40
1.0
 40
1.0
 40
1.0
 40
1.0
 10
475.2335336222711
 20
399.5849242983482
 30
0.0
 10
475.235677153111
 20
398.9749207732201
 30
0.0
 10
475.2357417468722
 20
398.366042036221
 30
0.0
 10
475.235731228693
 20
397.7590170092424
 30
0.0
  0
SPLINE
  5
112
330
1F
100
AcDbEntity
  8
0
  6
Continuous
 62
     8
370
    18
100
AcDbSpline
210
0.0
220
0.0
230
1.0
 70
     8
 71
     3
 72
    23
 73
    19
 74
     0
 42
0.000000001
 43
0.00000001
 40
0.0459234023335506
 40
0.0459234023335506
 40
0.0459234023335506
 40
0.0459234023335506
 40
0.0538212861304308
 40
0.0850712861304308
 40
0.1475712861304308
 40
0.2100712861304308
 40
0.2725712861304308
 40
0.3975712861304308
 40
0.5225712861304308
 40
0.5850712861304308
 40
0.6475712861304308
 40
0.7100712861304308
 40
0.7725712861304308
 40
0.8350712861304308
 40
0.8975712861304308
 40
0.9288212861304308
 40
0.9600712861304308
 40
0.9766478837968802
 40
0.9766478837968802
 40
0.9766478837968802
 40
0.9766478837968802
 10
447.7391756124252
 20
381.5043206481357
 30
0.0
 10
447.8108285998825
 20
381.4753843714688
 30
0.0
 10
448.1659989508065
 20
381.3319624486542
 30
0.0
 10
449.0882714946908
 20
380.9597057545012
 30
0.0
 10
450.5064770030932
 20
380.3885086309708
 30
0.0
 10
452.2099893494368
 20
379.7063423917557
 30
0.0
 10
454.484763354336
 20
378.8036480944921
 30
0.0
 10
457.3369073064622
 20
377.6928320316962
 30
0.0
 10
460.207821279575
 20
376.6207981165781
 30
0.0
 10
462.5213383748592
 20
375.800182336752
 30
0.0
 10
464.2668034009341
 20
375.20847990089
 30
0.0
 10
466.0245298778354
 20
374.6457905869091
 30
0.0
 10
467.7973152873917
 20
374.1226660215665
 30
0.0
 10
469.5879571114316
 20
373.6496578316193
 30
0.0
 10
471.0985546129975
 20
373.3142312283765
 30
0.0
 10
472.3193883273608
 20
373.0971523212661
 30
0.0
 10
473.0971832701138
 20
372.9873156682127
 30
0.0
 10
473.5702649076214
 20
372.9363250638601
 30
0.0
 10
473.7344840528991
 20
372.9208964498758
 30
0.0
  0
SPLINE
  5
113
330
1F
100
AcDbEntity
  8
0
  6
Continuous
 62
     8
370
    18
100
AcDbSpline
210
0.0
220
0.0
230
1.0
 70
     8
 71
     3
 72
    22
 73
    18
 74
     0
 42
0.000000001
 43
0.00000001
 40
0.0455538497947203
 40
0.0455538497947203
 40
0.0455538497947203
 40
0.0455538497947203
 40
0.0526514586669143
 40
0.0839014586669143
 40
0.1464014586669143
 40
0.2089014586669143
 40
0.2714014586669143
 40
0.3964014586669143
 40
0.5214014586669143
 40
0.6464014586669143
 40
0.7089014586669143
 40
0.7714014586669143
 40
0.8339014586669143
 40
0.8964014586669143
 40
0.9276514586669143
 40
0.9589014586669143
 40
0.975847608872194
 40
0.975847608872194
 40
0.975847608872194
 40
0.975847608872194
 10
447.7591000888426
 20
390.3854114203679
 30
0.0
 10
447.8233109553335
 20
390.4132589518647
 30
0.0
 10
448.1702391228156
 20
390.5637082514545
 30
0.0
 10
449.0826723581837
 20
390.9592197525515
 30
0.0
 10
450.496928221774
 20
391.5709285985662
 30
0.0
 10
452.195859272213
 20
392.3015255139662
 30
0.0
 10
454.4648441466473
 20
393.2684020804927
 30
0.0
 10
457.3105532312975
 20
394.4584345856689
 30
0.0
 10
460.7500502758649
 20
395.8372076212188
 30
0.0
 10
463.6469543744653
 20
396.9207587106723
 30
0.0
 10
465.9914088866535
 20
397.7258957859092
 30
0.0
 10
467.7663221210398
 20
398.2875747030012
 30
0.0
 10
469.5609144392623
 20
398.7957577395848
 30
0.0
 10
471.0767172260051
 20
399.1563111225644
 30
0.0
 10
472.3030464829286
 20
399.3897699025091
 30
0.0
 10
473.0885568355432
 20
399.5084484960702
 30
0.0
 10
473.5680760826069
 20
399.5635552509407
 30
0.0
 10
473.7369661903993
 20
399.5803975215368
 30
0.0
  0
SPLINE
  5
114
330
1F
100
AcDbEntity
  8
0
  6
Continuous
 62
     8
370
    18
100
AcDbSpline
210
0.0
220
0.0
230
1.0
 70
     8
 71
     3
 72
    22
 73
    18
 74
     0
 42
0.000000001
 43
0.00000001
 40
0.0461118149319005
 40
0.0461118149319005
 40
0.0461118149319005
 40
0.0461118149319005
 40
0.0625
 40
0.09375
 40
0.125
 40
0.1875
 40
0.25
 40
0.3125
 40
0.375
 40
0.5
 40
0.625
 40
0.75
 40
0.8125
 40
0.875
 40
0.9375
 40
0.96875
 40
0.9769962205666489
 40
0.9769962205666489
 40
0.9769962205666489
 40
0.9769962205666489
 10
473.6997784182132
 20
409.1463667636366
 30
0.0
 10
473.5347503916921
 20
409.1289571831209
 30
0.0
 10
473.0563244667169
 20
409.0737999935366
 30
0.0
 10
472.2700812052144
 20
408.9627629843381
 30
0.0
 10
471.0360901050861
 20
408.7546142274936
 30
0.0
 10
469.5144773935095
 20
408.4504248411644
 30
0.0
 10
467.7151340757158
 20
408.0373688074366
 30
0.0
 10
465.9355727683838
 20
407.598660737881
 30
0.0
 10
463.5856595066971
 20
406.9885266442814
 30
0.0
 10
460.6844447087675
 20
406.195526613631
 30
0.0
 10
457.243689104651
 20
405.2227869909145
 30
0.0
 10
454.4048754721774
 20
404.4021101601677
 30
0.0
 10
452.1470330833066
 20
403.7424043107578
 30
0.0
 10
450.4598989437673
 20
403.2462164901472
 30
0.0
 10
449.0588630322127
 20
402.8316977440547
 30
0.0
 10
448.1464968094867
 20
402.5606887735611
 30
0.0
 10
447.7935405942703
 20
402.4556834023923
 30
0.0
 10
447.7198632974453
 20
402.4337572262742
 30
0.0
  0
SPLINE
  5
115
330
1F
100
AcDbEntity
  8
0
  6
Continuous
 62
     8
370
    18
100
AcDbSpline
210
0.0
220
0.0
230
1.0
 70
     8
 71
     3
 72
    12
 73
     8
 74
     0
 42
0.000000001
 43
0.00000001
 40
0.0
 40
0.0
 40
0.0
 40
0.0
 40
0.1085881366139755
 40
0.2335881366139755
 40
0.3585881366139755
 40
0.6085881366139755
 40
0.8585881366139755
 40
0.8585881366139755
 40
0.8585881366139755
 40
0.8585881366139755
 10
475.2356921208242
 20
374.7455720161921
 30
0.0
 10
475.2633086072224
 20
375.2303310772573
 30
0.0
 10
475.3158114398531
 20
376.2732550589046
 30
0.0
 10
475.3808132164314
 20
377.8750650229227
 30
0.0
 10
475.4565917831886
 20
380.1086802407979
 30
0.0
 10
475.5303933464353
 20
382.9012774264873
 30
0.0
 10
475.5753112088343
 20
385.1354853160597
 30
0.0
 10
475.5951022452545
 20
386.2526377666475
 30
0.0
  0
SPLINE
  5
116
330
1F
100
AcDbEntity
  8
0
  6
Continuous
 62
     8
370
    18
100
AcDbSpline
210
0.0
220
0.0
230
1.0
 70
     8
 71
     3
 72
    15
 73
    11
 74
     0
 42
0.000000001
 43
0.00000001
 40
0.0
 40
0.0
 40
0.0
 40
0.0
 40
0.0970615083305149
 40
0.2378104523079843
 40
0.3639805980016969
 40
0.487324656224812
 40
0.6126261473376065
 40
0.7397869212180808
 40
0.8682671573031232
 40
1.0
 40
1.0
 40
1.0
 40
1.0
 10
475.595147738191
 20
372.8915330026032
 30
0.0
 10
475.5951479245357
 20
372.8937010836055
 30
0.0
 10
475.5951483810991
 20
372.8990131000029
 30
0.0
 10
475.5951466175785
 20
373.2932649147145
 30
0.0
 10
475.5951378294784
 20
374.428971487188
 30
0.0
 10
475.5951247124303
 20
376.1944450602917
 30
0.0
 10
475.5951120621921
 20
378.4006846676173
 30
0.0
 10
475.5951034584221
 20
380.8962002273062
 30
0.0
 10
475.5951012004139
 20
383.5518306803417
 30
0.0
 10
475.5951018771849
 20
385.3448977556976
 30
0.0
 10
475.5951022198001
 20
386.2526377666475
 30
0.0
  0
SPLINE
  5
117
330
1F
100
AcDbEntity
  8
0
  6
Continuous
 62
     8
370
    18
100
AcDbSpline
210
0.0
220
0.0
230
1.0
 70
     8
 71
     3
 72
     8
 73
     4
 74
     0
 42
0.000000001
 43
0.00000001
 40
0.0
 40
0.0
 40
0.0
 40
0.0
 40
1.0
 40
1.0
 40
1.0
 40
1.0
 10
475.2340709405985
 20
364.6096603718099
 30
0.0
 10
475.2355520705221
 20
364.6081936940087
 30
0.0
 10
475.2355662214608
 20
364.6071997322509
 30
0.0
 10
475.2355573269846
 20
364.6070939971924
 30
0.0
  0
SPLINE
  5
118
330
1F
100
AcDbEntity
  8
0
  6
Continuous
 62
     8
370
    18
100
AcDbSpline
210
0.0
220
0.0
230
1.0
 70
     8
 71
     3
 72
    15
 73
    11
 74
     0
 42
0.000000001
 43
0.00000001
 40
0.0
 40
0.0
 40
0.0
 40
0.0
 40
0.0971764695953892
 40
0.2379074935519728
 40
0.3640615753834487
 40
0.48738992955908
 40
0.612675467405908
 40
0.7398200512983126
 40
0.8682839294026201
 40
1.0
 40
1.0
 40
1.0
 40
1.0
 10
475.595147738191
 20
399.6138058606268
 30
0.0
 10
475.5951479246896
 20
399.6116452744135
 30
0.0
 10
475.5951483812757
 20
399.6063557258969
 30
0.0
 10
475.595146617699
 20
399.2120228297648
 30
0.0
 10
475.5951378294484
 20
398.0763010062157
 30
0.0
 10
475.5951247124383
 20
396.310831293563
 30
0.0
 10
475.5951120621899
 20
394.1045906408576
 30
0.0
 10
475.5951034584227
 20
391.6090753669616
 30
0.0
 10
475.5951012004137
 20
388.9534448371917
 30
0.0
 10
475.5951018771848
 20
387.1603777722999
 30
0.0
 10
475.5951022198001
 20
386.2526377666475
 30
0.0
  0
SPLINE
  5
119
330
1F
100
AcDbEntity
  8
0
  6
Continuous
 62
     8
370
    18
100
AcDbSpline
210
0.0
220
0.0
230
1.0
 70
     8
 71
     3
 72
    14
 73
    10
 74
     0
 42
0.000000001
 43
0.00000001
 40
0.0
 40
0.0
 40
0.0
 40
0.0
 40
0.0606227289517613
 40
0.1264621014243514
 40
0.2626155580953544
 40
0.4176306991236899
 40
0.708806917326217
 40
0.8490604792499414
 40
1.0
 40
1.0
 40
1.0
 40
1.0
 10
475.235844684999
 20
397.7589823804808
 30
0.0
 10
475.2486321132368
 20
397.526628966333
 30
0.0
 10
475.275307340082
 20
397.0419279056197
 30
0.0
 10
475.323294096167
 20
396.0351155554185
 30
0.0
 10
475.3796083449914
 20
394.6660080933945
 30
0.0
 10
475.4556198016752
 20
392.4325767648776
 30
0.0
 10
475.5150241047606
 20
390.1829579329885
 30
0.0
 10
475.5638473259482
 20
387.9488190733234
 30
0.0
 10
475.5844321376442
 20
386.8316966090678
 30
0.0
 10
475.5951022455452
 20
386.2526377666475
 30
0.0
  0
LINE
  5
11A
330
1F
100
AcDbEntity
  8
0
  6
Continuous
 62
     8
370
    18
100
AcDbLine
 10
475.2370532478
 20
407.8663157303
 30
0.0
 11
475.2377155346
 21
407.8686496246
 31
0.0
  0
SPLINE
  5
11B
330
1F
100
AcDbEntity
  8
0
  6
Continuous
 62
     8
370
    18
100
AcDbSpline
210
0.0
220
0.0
230
1.0
 70
     8
 71
     3
 72
    10
 73
     6
 74
     0
 42
0.000000001
 43
0.00000001
 40
0.0
 40
0.0
 40
0.0
 40
0.0
 40
0.5
 40
0.5
 40
1.0
 40
1.0
 40
1.0
 40
1.0
 10
446.303608081541
 20
389.9921176533124
 30
0.0
 10
446.303608081541
 20
390.0804295768189
 30
0.0
 10
446.4481440051694
 20
390.168487553725
 30
0.0
 10
446.9692371628421
 20
390.3093377857665
 30
0.0
 10
447.3442959600879
 20
390.3617250170254
 30
0.0
 10
447.7598462575969
 20
390.3857353433264
 30
0.0
  0
SPLINE
  5
11C
330
1F
100
AcDbEntity
  8
0
  6
Continuous
 62
     8
370
    18
100
AcDbSpline
210
0.0
220
0.0
230
1.0
 70
     8
 71
     3
 72
    10
 73
     6
 74
     0
 42
0.000000001
 43
0.00000001
 40
0.0
 40
0.0
 40
0.0
 40
0.0
 40
0.5
 40
0.5
 40
1.0
 40
1.0
 40
1.0
 40
1.0
 10
446.303608081541
 20
400.5209319793743
 30
0.0
 10
446.303608081541
 20
400.9461045768639
 30
0.0
 10
446.4436130593648
 20
401.3701271411575
 30
0.0
 10
446.949955904927
 20
402.0533045046199
 30
0.0
 10
447.314924185151
 20
402.3106114033092
 30
0.0
 10
447.721726001968
 20
402.4343115609116
 30
0.0
  0
SPLINE
  5
11D
330
1F
100
AcDbEntity
  8
0
  6
Continuous
 62
     8
370
    18
100
AcDbSpline
210
0.0
220
0.0
230
1.0
 70
     8
 71
     3
 72
    10
 73
     6
 74
     0
 42
0.000000001
 43
0.00000001
 40
0.0
 40
0.0
 40
0.0
 40
0.0
 40
0.5
 40
0.5
 40
1.0
 40
1.0
 40
1.0
 40
1.0
 10
446.303608081541
 20
381.962788280458
 30
0.0
 10
446.303608081541
 20
381.8605637089819
 30
0.0
 10
446.4455784005058
 20
381.7586231494507
 30
0.0
 10
446.9583308759678
 20
381.5948948125558
 30
0.0
 10
447.3276884451497
 20
381.5335619239015
 30
0.0
 10
447.7383143290929
 20
381.5046684681005
 30
0.0
  0
LINE
  5
11E
330
1F
100
AcDbEntity
  8
0
  6
Continuous
 62
     8
370
    18
100
AcDbLine
 10
441.3349802889
 20
371.2526381019
 30
0.0
 11
441.3349802889
 21
373.9308126274
 31
0.0
  0
LINE
  5
11F
330
1F
100
AcDbEntity
  8
0
  6
Continuous
 62
     8
370
    18
100
AcDbLine
 10
441.3349802889
 20
383.5744632411
 30
0.0
 11
441.3349802889
 21
388.9308122921
 31
0.0
  0
LINE
  5
120
330
1F
100
AcDbEntity
  8
0
  6
Continuous
 62
     8
370
    18
100
AcDbLine
 10
441.3349802889
 20
398.5744629059
 30
0.0
 11
441.3349802889
 21
401.2526374314
 31
0.0
  0
LINE
  5
121
330
1F
100
AcDbEntity
  8
0
  6
Continuous
 62
     8
370
    18
100
AcDbLine
 10
432.2722356119
 20
398.5744629059
 30
0.0
 11
432.2722356119
 21
401.2526374314
 31
0.0
  0
LINE
  5
122
330
1F
100
AcDbEntity
  8
0
  6
Continuous
 62
     8
370
    18
100
AcDbLine
 10
432.2722356119
 20
383.5744632411
 30
0.0
 11
432.2722356119
 21
388.9308122921
 31
0.0
  0
LINE
  5
123
330
1F
100
AcDbEntity
  8
0
  6
Continuous
 62
     8
370
    18
100
AcDbLine
 10
432.2722356119
 20
371.2526381019
 30
0.0
 11
432.2722356119
 21
373.9308126274
 31
0.0
  0
SPLINE
  5
124
330
1F
100
AcDbEntity
  8
0
  6
Continuous
 62
     8
370
    18
100
AcDbSpline
210
0.0
220
0.0
230
1.0
 70
     8
 71
     3
 72
     8
 73
     4
 74
     0
 42
0.000000001
 43
0.00000001
 40
0.0
 40
0.0
 40
0.0
 40
0.0
 40
1.0
 40
1.0
 40
1.0
 40
1.0
 10
473.7001686307669
 20
409.1479165074355
 30
0.0
 10
473.7147050919845
 20
409.1858251992558
 30
0.0
 10
473.7246152114744
 20
409.2077549768488
 30
0.0
 10
473.7246152768877
 20
409.2077549809601
 30
0.0
  0
SPLINE
  5
125
330
1F
100
AcDbEntity
  8
0
  6
Continuous
 62
     8
370
    18
100
AcDbSpline
210
0.0
220
0.0
230
1.0
 70
     8
 71
     3
 72
     8
 73
     4
 74
     0
 42
0.000000001
 43
0.00000001
 40
0.0
 40
0.0
 40
0.0
 40
0.0
 40
1.0
 40
1.0
 40
1.0
 40
1.0
 10
473.7001019892425
 20
409.1460725349069
 30
0.0
 10
473.7002910655029
 20
409.1467087240235
 30
0.0
 10
473.6999149903908
 20
409.1472812041209
 30
0.0
 10
473.7000715612256
 20
409.1479059149084
 30
0.0
  0
SPLINE
  5
126
330
1F
100
AcDbEntity
  8
0
  6
Continuous
 62
     8
370
    18
100
AcDbSpline
210
0.0
220
0.0
230
1.0
 70
     8
 71
     3
 72
     8
 73
     4
 74
     0
 42
0.000000001
 43
0.00000001
 40
0.0
 40
0.0
 40
0.0
 40
0.0
 40
1.0
 40
1.0
 40
1.0
 40
1.0
 10
447.7142731916499
 20
402.4319420431868
 30
0.0
 10
447.7209994980616
 20
402.5558446818381
 30
0.0
 10
447.7281699049544
 20
402.6767952192362
 30
0.0
 10
447.7356835088602
 20
402.7903986529896
 30
0.0
  0
ARC
  5
127
330
1F
100
AcDbEntity
  8
0
  6
Continuous
 62
     8
370
    18
100
AcDbCircle
 10
447.9739224559
 20
402.7758073197
 30
0.0
 40
0.2386860874960157
100
AcDbArc
 50
176.379979043
 51
176.4951117896
  0
SPLINE
  5
128
330
1F
100
AcDbEntity
  8
0
  6
Continuous
 62
     8
370
    18
100
AcDbSpline
210
0.0
220
0.0
230
1.0
 70
     8
 71
     3
 72
    13
 73
     9
 74
     0
 42
0.000000001
 43
0.00000001
 40
0.041523863409714
 40
0.041523863409714
 40
0.041523863409714
 40
0.041523863409714
 40
0.166523863409714
 40
0.2915238634097139
 40
0.4165238634097139
 40
0.5415238634097139
 40
0.7915238634097139
 40
1.0
 40
1.0
 40
1.0
 40
1.0
 10
462.3853703296735
 20
406.9132286208451
 30
0.0
 10
461.7450021006539
 20
406.7469311303589
 30
0.0
 10
460.4656354902103
 20
406.4090871874125
 30
0.0
 10
458.5500220326932
 20
405.8894377840165
 30
0.0
 10
456.6371719486864
 20
405.3597682885901
 30
0.0
 10
454.0898775665721
 20
404.6421757999539
 30
0.0
 10
451.1219632530407
 20
403.788373081862
 30
0.0
 10
448.7937446995638
 20
403.1042122248397
 30
0.0
 10
447.7357301110223
 20
402.7908769621282
 30
0.0
  0
SPLINE
  5
129
330
1F
100
AcDbEntity
  8
0
  6
Continuous
 62
     8
370
    18
100
AcDbSpline
210
0.0
220
0.0
230
1.0
 70
    24
 71
     3
 72
     9
 73
     5
 74
     0
 42
0.000000001
 43
0.00000001
 40
0.0
 40
0.0
 40
0.0
 40
0.0
 40
0.3995333769064326
 40
1.0
 40
1.0
 40
1.0
 40
1.0
 10
462.385370145044
 20
407.1051886308671
 30
0.0
 10
462.385370145044
 20
407.0964068189624
 30
0.0
 10
462.385370145044
 20
407.0744266480622
 30
0.0
 10
462.385370145044
 20
406.97370695878
 30
0.0
 10
462.385370145044
 20
406.9132281470777
 30
0.0
  0
SPLINE
  5
12A
330
1F
100
AcDbEntity
  8
0
  6
Continuous
 62
     8
370
    18
100
AcDbSpline
210
0.0
220
0.0
230
1.0
 70
     8
 71
     3
 72
    14
 73
    10
 74
     0
 42
0.000000001
 43
0.00000001
 40
0.0
 40
0.0
 40
0.0
 40
0.0
 40
0.25
 40
0.25
 40
0.5
 40
0.5
 40
0.75
 40
0.75
 40
1.0
 40
1.0
 40
1.0
 40
1.0
 10
475.237982352617
 20
407.8691961866483
 30
0.0
 10
475.2248452837417
 20
408.0353441574042
 30
0.0
 10
475.1799488902599
 20
408.2126106908523
 30
0.0
 10
475.0125697522722
 20
408.5491976485755
 30
0.0
 10
474.8896699681154
 20
408.7073268333477
 30
0.0
 10
474.5877789057823
 20
408.9583547898449
 30
0.0
 10
474.4098820401515
 20
409.0503435374615
 30
0.0
 10
474.0484075454276
 20
409.1535080771153
 30
0.0
 10
473.865925082311
 20
409.1653112341755
 30
0.0
 10
473.7001686307669
 20
409.1479165074355
 30
0.0
  0
ARC
  5
12B
330
1F
100
AcDbEntity
  8
0
  6
Continuous
 62
     8
370
    18
100
AcDbCircle
 10
448.303398069
 20
400.8728857431
 30
0.0
 40
1.999789494198303
100
AcDbArc
 50
106.4923611506
 51
179.9977780768
  0
SPLINE
  5
12C
330
1F
100
AcDbEntity
  8
0
  6
Continuous
 62
     8
370
    18
100
AcDbSpline
210
0.0
220
0.0
230
1.0
 70
     8
 71
     3
 72
    10
 73
     6
 74
     0
 42
0.000000001
 43
0.00000001
 40
0.0
 40
0.0
 40
0.0
 40
0.0
 40
0.5000000000000008
 40
0.5000000000000008
 40
1.0
 40
1.0
 40
1.0
 40
1.0
 10
446.303605393011
 20
400.8734345152241
 30
0.0
 10
446.3036068428213
 20
401.3010109122366
 30
0.0
 10
446.4452692638034
 20
401.7274042577496
 30
0.0
 10
446.9570163633738
 20
402.4125808800129
 30
0.0
 10
447.3256851951244
 20
402.6694684837739
 30
0.0
 10
447.7357125703769
 20
402.7908784232211
 30
0.0
  0
SPLINE
  5
12D
330
1F
100
AcDbEntity
  8
0
  6
Continuous
 62
     8
370
    18
100
AcDbSpline
210
0.0
220
0.0
230
1.0
 70
     8
 71
     3
 72
    11
 73
     7
 74
     0
 42
0.000000001
 43
0.00000001
 40
0.0
 40
0.0
 40
0.0
 40
0.0
 40
0.108540179455269
 40
0.3971425628694563
 40
0.6984532664774045
 40
1.0
 40
1.0
 40
1.0
 40
1.0
 10
445.0330480285498
 20
400.8671397346736
 30
0.0
 10
445.1631998019761
 20
400.8865074863767
 30
0.0
 10
445.6394180017242
 20
400.9573730274786
 30
0.0
 10
446.0288122102311
 20
400.9658746014379
 30
0.0
 10
446.2872614509963
 20
400.9347723956591
 30
0.0
 10
446.2981556292202
 20
400.8938870720753
 30
0.0
 10
446.303604850969
 20
400.8734364066006
 30
0.0
  0
SPLINE
  5
12E
330
1F
100
AcDbEntity
  8
0
  6
Continuous
 62
     8
370
    18
100
AcDbSpline
210
0.0
220
0.0
230
1.0
 70
     8
 71
     3
 72
     9
 73
     5
 74
     0
 42
0.000000001
 43
0.00000001
 40
0.0
 40
0.0
 40
0.0
 40
0.0
 40
0.5053307429570482
 40
0.9999999999999999
 40
0.9999999999999999
 40
0.9999999999999999
 40
0.9999999999999999
 10
447.7357461400839
 20
402.7908815074445
 30
0.0
 10
447.7340546218752
 20
402.809270346806
 30
0.0
 10
447.7307072731689
 20
402.8456600571449
 30
0.0
 10
447.5280555139125
 20
402.8246056277756
 30
0.0
 10
447.4278099187227
 20
402.814190648842
 30
0.0
  0
SPLINE
  5
12F
330
1F
100
AcDbEntity
  8
0
  6
Continuous
 62
     8
370
    18
100
AcDbSpline
210
0.0
220
0.0
230
1.0
 70
     8
 71
     3
 72
    11
 73
     7
 74
     0
 42
0.000000001
 43
0.00000001
 40
0.0
 40
0.0
 40
0.0
 40
0.0
 40
0.1636327778519876
 40
0.4420049828279989
 40
0.7208231051759961
 40
1.0
 40
1.0
 40
1.0
 40
1.0
 10
446.2997752525421
 20
371.965313144374
 30
0.0
 10
446.2987428145767
 20
371.9649465444226
 30
0.0
 10
446.2959539923665
 20
371.9639562843576
 30
0.0
 10
446.263188226445
 20
371.9600019820155
 30
0.0
 10
446.1935104726001
 20
371.9583329026309
 30
0.0
 10
446.0939404846243
 20
371.9669929534447
 30
0.0
 10
446.0441234805199
 20
371.9713257629157
 30
0.0
  0
SPLINE
  5
130
330
1F
100
AcDbEntity
  8
0
  6
Continuous
 62
     8
370
    18
100
AcDbSpline
210
0.0
220
0.0
230
1.0
 70
     8
 71
     3
 72
    10
 73
     6
 74
     0
 42
0.000000001
 43
0.00000001
 40
0.0
 40
0.0
 40
0.0
 40
0.0
 40
0.4999999999999991
 40
0.4999999999999991
 40
1.0
 40
1.0
 40
1.0
 40
1.0
 10
446.0440749154341
 20
371.9713329052438
 30
0.0
 10
446.0592976600119
 20
371.5660226926038
 30
0.0
 10
446.200873765862
 20
371.1669307388512
 30
0.0
 10
446.6870088229213
 20
370.5213510643931
 30
0.0
 10
447.03047362972
 20
370.2763163501762
 30
0.0
 10
447.4140204455964
 20
370.1520668874059
 30
0.0
  0
SPLINE
  5
131
330
1F
100
AcDbEntity
  8
0
  6
Continuous
 62
     8
370
    18
100
AcDbSpline
210
0.0
220
0.0
230
1.0
 70
     8
 71
     3
 72
    14
 73
    10
 74
     0
 42
0.000000001
 43
0.00000001
 40
0.0
 40
0.0
 40
0.0
 40
0.0
 40
0.25
 40
0.25
 40
0.5
 40
0.5
 40
0.75
 40
0.75
 40
1.0
 40
1.0
 40
1.0
 40
1.0
 10
473.7666098471289
 20
355.9357819741293
 30
0.0
 10
473.7666186451627
 20
356.7533301567341
 30
0.0
 10
473.7681172608691
 20
357.7404411870569
 30
0.0
 10
473.771332784113
 20
359.7119645443303
 30
0.0
 10
473.7702722124594
 20
360.6799348069956
 30
0.0
 10
473.7591476261716
 20
362.1858742770418
 30
0.0
 10
473.7526739863403
 20
362.6999644766581
 30
0.0
 10
473.7429988506926
 20
363.2503164178989
 30
0.0
 10
473.7364476372696
 20
363.2883468486743
 30
0.0
 10
473.7352604242746
 20
363.2877972252154
 30
0.0
  0
SPLINE
  5
132
330
1F
100
AcDbEntity
  8
0
  6
Continuous
 62
     8
370
    18
100
AcDbSpline
210
0.0
220
0.0
230
1.0
 70
     8
 71
     3
 72
    12
 73
     8
 74
     0
 42
0.000000001
 43
0.00000001
 40
0.0
 40
0.0
 40
0.0
 40
0.0
 40
0.3749886587420881
 40
0.7478499165157778
 40
0.8318805102438149
 40
0.9159461450908327
 40
1.0
 40
1.0
 40
1.0
 40
1.0
 10
475.7375031456564
 20
383.3300127447014
 30
0.0
 10
475.7373614626455
 20
383.3294300256554
 30
0.0
 10
475.7370789004255
 20
383.328267893469
 30
0.0
 10
475.7349006432943
 20
383.237817533053
 30
0.0
 10
475.7327256826215
 20
383.1079792928001
 30
0.0
 10
475.7315828586014
 20
383.0356941028214
 30
0.0
 10
475.730705419172
 20
382.9753050717666
 30
0.0
 10
475.7302667301978
 20
382.945112671934
 30
0.0
  0
SPLINE
  5
133
330
1F
100
AcDbEntity
  8
0
  6
Continuous
 62
     8
370
    18
100
AcDbSpline
210
0.0
220
0.0
230
1.0
 70
     8
 71
     3
 72
    18
 73
    14
 74
     0
 42
0.000000001
 43
0.00000001
 40
0.0
 40
0.0
 40
0.0
 40
0.0
 40
0.1250000000000001
 40
0.1250000000000001
 40
0.2500000000000001
 40
0.2500000000000001
 40
0.3750000000000002
 40
0.3750000000000002
 40
0.5000000000000002
 40
0.5000000000000002
 40
0.7500000000000001
 40
0.7500000000000001
 40
1.0
 40
1.0
 40
1.0
 40
1.0
 10
475.2343397391153
 20
364.5622641654191
 30
0.0
 10
475.2334187970728
 20
364.5248773499806
 30
0.0
 10
475.2321406250118
 20
364.4592306135713
 30
0.0
 10
475.2291226315831
 20
364.2309239721104
 30
0.0
 10
475.2278260670469
 20
364.0644527351491
 30
0.0
 10
475.2270766844021
 20
363.6278751356952
 30
0.0
 10
475.227422980105
 20
363.3587805233479
 30
0.0
 10
475.2296618116204
 20
362.726513641052
 30
0.0
 10
475.231750087118
 20
362.3598707442288
 30
0.0
 10
475.2362904484891
 20
361.1840394318103
 30
0.0
 10
475.2376455753422
 20
360.2944726912703
 30
0.0
 10
475.2368311386489
 20
358.6076061632206
 30
0.0
 10
475.2358879332293
 20
357.8070191952615
 30
0.0
 10
475.2358872410598
 20
357.134410410181
 30
0.0
  0
SPLINE
  5
134
330
1F
100
AcDbEntity
  8
0
  6
Continuous
 62
     8
370
    18
100
AcDbSpline
210
0.0
220
0.0
230
1.0
 70
     8
 71
     3
 72
     8
 73
     4
 74
     0
 42
0.000000001
 43
0.00000001
 40
0.0
 40
0.0
 40
0.0
 40
0.0
 40
1.0
 40
1.0
 40
1.0
 40
1.0
 10
475.2929326117722
 20
357.8107889738862
 30
0.0
 10
475.2744825058746
 20
357.5676705747302
 30
0.0
 10
475.2554656724663
 20
357.336949232182
 30
0.0
 10
475.2358821115474
 20
357.1193865411146
 30
0.0
  0
SPLINE
  5
135
330
1F
100
AcDbEntity
  8
0
  6
Continuous
 62
     8
370
    18
100
AcDbSpline
210
0.0
220
0.0
230
1.0
 70
     8
 71
     3
 72
    24
 73
    20
 74
     0
 42
0.000000001
 43
0.00000001
 40
0.0
 40
0.0
 40
0.0
 40
0.0
 40
0.1249999999999999
 40
0.1249999999999999
 40
0.1874999999999999
 40
0.1874999999999999
 40
0.2499999999999999
 40
0.2499999999999999
 40
0.3749999999999998
 40
0.3749999999999998
 40
0.4999999999999998
 40
0.4999999999999998
 40
0.6249999999999998
 40
0.6249999999999998
 40
0.7499999999999999
 40
0.7499999999999999
 40
0.8749999999999999
 40
0.8749999999999999
 40
1.0
 40
1.0
 40
1.0
 40
1.0
 10
508.7938131722952
 20
377.294186604602
 30
0.0
 10
508.7781799042555
 20
378.6765908652283
 30
0.0
 10
508.7602637748361
 20
380.0111001773035
 30
0.0
 10
508.7297478362679
 20
382.1158634646408
 30
0.0
 10
508.7191058719056
 20
382.8353867037569
 30
0.0
 10
508.6981695657622
 20
384.310817853018
 30
0.0
 10
508.6880321770968
 20
385.0637539572004
 30
0.0
 10
508.6615423289611
 20
387.265052545518
 30
0.0
 10
508.6480198943814
 20
388.6816426559978
 30
0.0
 10
508.6303232609343
 20
391.1986288808679
 30
0.0
 10
508.6259300866509
 20
392.3143517800639
 30
0.0
 10
508.6243169431178
 20
394.1518338884884
 30
0.0
 10
508.6271626753099
 20
394.867146937443
 30
0.0
 10
508.6406589404441
 20
395.8046637435198
 30
0.0
 10
508.6517910727115
 20
396.0092003486235
 30
0.0
 10
508.6780972470863
 20
396.1670051887551
 30
0.0
 10
508.6927374743257
 20
396.1713921521762
 30
0.0
 10
508.7147312768406
 20
396.2072445675969
 30
0.0
 10
508.7211408864579
 20
396.2156559443717
 30
0.0
 10
508.7211361673083
 20
396.2156566414216
 30
0.0
  0
SPLINE
  5
136
330
1F
100
AcDbEntity
  8
0
  6
Continuous
 62
     8
370
    18
100
AcDbSpline
210
0.0
220
0.0
230
1.0
 70
     8
 71
     3
 72
    10
 73
     6
 74
     0
 42
0.000000001
 43
0.00000001
 40
0.0
 40
0.0
 40
0.0
 40
0.0
 40
0.4999999999999999
 40
0.4999999999999999
 40
1.0
 40
1.0
 40
1.0
 40
1.0
 10
508.9704021740341
 20
358.4689588479068
 30
0.0
 10
508.9384791700555
 20
361.6029534462915
 30
0.0
 10
508.9026962774744
 20
364.7456338411801
 30
0.0
 10
508.849880393343
 20
371.0182133620036
 30
0.0
 10
508.8302133152361
 20
374.1539479485775
 30
0.0
 10
508.7940268857857
 20
377.2922728114018
 30
0.0
  0
SPLINE
  5
137
330
1F
100
AcDbEntity
  8
0
  6
Continuous
 62
     8
370
    18
100
AcDbSpline
210
0.0
220
0.0
230
1.0
 70
     8
 71
     3
 72
    43
 73
    39
 74
     0
 42
0.000000001
 43
0.00000001
 40
0.0
 40
0.0
 40
0.0
 40
0.0
 40
0.0205282890803588
 40
0.0407639424507082
 40
0.0607118193738486
 40
0.0803697316221534
 40
0.0997337777086959
 40
0.1408590872330649
 40
0.1803167060628847
 40
0.2075110767361522
 40
0.234238832147649
 40
0.286496106525563
 40
0.3119452391513178
 40
0.3497094686330813
 40
0.3746587739869403
 40
0.3870841411691797
 40
0.437552082044699
 40
0.4627304285819359
 40
0.4753186170218047
 40
0.5004736428805844
 40
0.5382447319656233
 40
0.5888801455420455
 40
0.6296129204153792
 40
0.6706491497447832
 40
0.6982469489454114
 40
0.7250383618020494
 40
0.7452722884098388
 40
0.7520207630424418
 40
0.7655548876169884
 40
0.8065647371005209
 40
0.8194476827065031
 40
0.8453991691107853
 40
0.8650575801911089
 40
0.871645696027305
 40
0.88455506748581
 40
0.9109848611261371
 40
0.9550668562724824
 40
1.0
 40
1.0
 40
1.0
 40
1.0
 10
508.9707258145465
 20
358.4689718740817
 30
0.0
 10
508.9078638518819
 20
358.4658790535349
 30
0.0
 10
508.7830360389859
 20
358.4597375013437
 30
0.0
 10
508.5979400896375
 20
358.4431474358449
 30
0.0
 10
508.416503599117
 20
358.4213479737368
 30
0.0
 10
508.2390679389004
 20
358.3939664981522
 30
0.0
 10
508.0002364210575
 20
358.348935747354
 30
0.0
 10
507.7077134304725
 20
358.2773634482804
 30
0.0
 10
507.4031164164202
 20
358.1785984077651
 30
0.0
 10
507.1489082448186
 20
358.0783233319104
 30
0.0
 10
506.8698081033663
 20
357.9514528812155
 30
0.0
 10
506.6106991077755
 20
357.8090459706098
 30
0.0
 10
506.3432544780928
 20
357.6360069824717
 30
0.0
 10
506.1509162226147
 20
357.4949621056189
 30
0.0
 10
505.9973570672765
 20
357.3684649482246
 30
0.0
 10
505.8250192685063
 20
357.2167364770731
 30
0.0
 10
505.6642161307947
 20
357.0584038147585
 30
0.0
 10
505.5173863906627
 20
356.8945795553169
 30
0.0
 10
505.417637506419
 20
356.7761139560755
 30
0.0
 10
505.3037899891852
 20
356.6321717557376
 30
0.0
 10
505.1470195192211
 20
356.4120590044694
 30
0.0
 10
504.9908246319748
 20
356.1578193601609
 30
0.0
 10
504.8526759330547
 20
355.8949451011789
 30
0.0
 10
504.7538959836393
 20
355.6770432669299
 30
0.0
 10
504.6783313400174
 20
355.4870592180491
 30
0.0
 10
504.625606400885
 20
355.338785763496
 30
0.0
 10
504.5914737284209
 20
355.232221434117
 30
0.0
 10
504.5673860537428
 20
355.152105369441
 30
0.0
 10
504.5327995996879
 20
355.0310693226813
 30
0.0
 10
504.5001106301548
 20
354.8986207808489
 30
0.0
 10
504.4674238196238
 20
354.7428900951713
 30
0.0
 10
504.4466058036161
 20
354.6294167562295
 30
0.0
 10
504.4312164078632
 20
354.5288182072837
 30
0.0
 10
504.4210100202963
 20
354.4537036446853
 30
0.0
 10
504.4101994781198
 20
354.3657630260085
 30
0.0
 10
504.3948309232831
 20
354.207155805445
 30
0.0
 10
504.3826969158376
 20
353.9904869016561
 30
0.0
 10
504.384632083784
 20
353.8267671663955
 30
0.0
 10
504.385608919641
 20
353.7441245677481
 30
0.0
  0
SPLINE
  5
138
330
1F
100
AcDbEntity
  8
0
  6
Continuous
 62
     8
370
    18
100
AcDbSpline
210
0.0
220
0.0
230
1.0
 70
     8
 71
     3
 72
    14
 73
    10
 74
     0
 42
0.000000001
 43
0.00000001
 40
0.0
 40
0.0
 40
0.0
 40
0.0
 40
0.25
 40
0.25
 40
0.5
 40
0.5
 40
0.75
 40
0.75
 40
1.0
 40
1.0
 40
1.0
 40
1.0
 10
510.3017705449478
 20
358.4887411471606
 30
0.0
 10
510.2927834843715
 20
358.4881508475636
 30
0.0
 10
510.2561922016302
 20
358.4871997799451
 30
0.0
 10
510.11583382403
 20
358.4845421296987
 30
0.0
 10
510.0117366910671
 20
358.4828346099932
 30
0.0
 10
509.7531252592432
 20
358.4789920005048
 30
0.0
 10
509.5994271353822
 20
358.4768690379574
 30
0.0
 10
509.2825687559792
 20
358.472733077278
 30
0.0
 10
509.1203022412299
 20
358.4707293920687
 30
0.0
 10
508.9704021740341
 20
358.4689588479068
 30
0.0
  0
SPLINE
  5
139
330
1F
100
AcDbEntity
  8
0
  6
Continuous
 62
     8
370
    18
100
AcDbSpline
210
0.0
220
0.0
230
1.0
 70
     8
 71
     3
 72
    12
 73
     8
 74
     0
 42
0.000000001
 43
0.00000001
 40
0.0
 40
0.0
 40
0.0
 40
0.0
 40
0.25
 40
0.25
 40
0.5
 40
0.5
 40
1.0
 40
1.0
 40
1.0
 40
1.0
 10
510.301776581627
 20
358.4906428671659
 30
0.0
 10
510.3581491787787
 20
353.7951770556422
 30
0.0
 10
510.4145419385329
 20
349.1000005511369
 30
0.0
 10
510.5274172738443
 20
339.710320235434
 30
0.0
 10
510.5838501290986
 20
335.0154790257021
 30
0.0
 10
510.7531406682126
 20
320.9309539666637
 30
0.0
 10
510.8659855213913
 20
311.5412674137576
 30
0.0
 10
510.9788106814732
 20
302.1515761308073
 30
0.0
  0
SPLINE
  5
13A
330
1F
100
AcDbEntity
  8
0
  6
Continuous
 62
     8
370
    18
100
AcDbSpline
210
0.0
220
0.0
230
1.0
 70
     8
 71
     3
 72
    12
 73
     8
 74
     0
 42
0.000000001
 43
0.00000001
 40
0.0
 40
0.0
 40
0.0
 40
0.0
 40
0.5
 40
0.5
 40
0.75
 40
0.75
 40
1.0
 40
1.0
 40
1.0
 40
1.0
 10
509.6414015213895
 20
302.1175544720566
 30
0.0
 10
509.530240866493
 20
311.5072443180356
 30
0.0
 10
509.4187072248788
 20
320.8969308062221
 30
0.0
 10
509.2510300365955
 20
334.9814545910589
 30
0.0
 10
509.1950996896648
 20
339.6762944480815
 30
0.0
 10
509.0830742875589
 20
349.0659775655199
 30
0.0
 10
509.0269974807934
 20
353.7671481711689
 30
0.0
 10
508.9710454378206
 20
358.4689422296522
 30
0.0
  0
SPLINE
  5
13B
330
1F
100
AcDbEntity
  8
0
  6
Continuous
 62
     8
370
    18
100
AcDbSpline
210
0.0
220
0.0
230
1.0
 70
     8
 71
     3
 72
    10
 73
     6
 74
     0
 42
0.000000001
 43
0.00000001
 40
0.0
 40
0.0
 40
0.0
 40
0.0
 40
0.5000000000000001
 40
0.5000000000000001
 40
1.0
 40
1.0
 40
1.0
 40
1.0
 10
510.0783793079206
 20
377.2923062178278
 30
0.0
 10
510.1157286128203
 20
374.1587910833022
 30
0.0
 10
510.1529051974508
 20
371.0249175641791
 30
0.0
 10
510.2268734227771
 20
364.7570335052938
 30
0.0
 10
510.2647100784113
 20
361.6242715048225
 30
0.0
 10
510.3017705449478
 20
358.4887411471606
 30
0.0
  0
SPLINE
  5
13C
330
1F
100
AcDbEntity
  8
0
  6
Continuous
 62
     8
370
    18
100
AcDbSpline
210
0.0
220
0.0
230
1.0
 70
     8
 71
     3
 72
    24
 73
    20
 74
     0
 42
0.000000001
 43
0.00000001
 40
0.0
 40
0.0
 40
0.0
 40
0.0
 40
0.1249999999999999
 40
0.1249999999999999
 40
0.2499999999999997
 40
0.2499999999999997
 40
0.3749999999999996
 40
0.3749999999999996
 40
0.4999999999999993
 40
0.4999999999999993
 40
0.6249999999999996
 40
0.6249999999999996
 40
0.7499999999999997
 40
0.7499999999999997
 40
0.8124999999999998
 40
0.8124999999999998
 40
0.8749999999999998
 40
0.8749999999999998
 40
1.0
 40
1.0
 40
1.0
 40
1.0
 10
509.9370517666841
 20
394.8884229561971
 30
0.0
 10
509.9370522959401
 20
394.8884184190777
 30
0.0
 10
509.9362785531021
 20
394.8851684588521
 30
0.0
 10
509.9338819613126
 20
394.867884142309
 30
0.0
 10
509.933026178765
 20
394.8752020701612
 30
0.0
 10
509.926370843774
 20
394.7432252206509
 30
0.0
 10
509.9218678049551
 20
394.5573841131683
 30
0.0
 10
509.919212551142
 20
393.7185586886841
 30
0.0
 10
509.9210246666192
 20
393.0761246915362
 30
0.0
 10
509.9305146620623
 20
391.4143171835091
 30
0.0
 10
509.9381764090738
 20
390.3992347585839
 30
0.0
 10
509.9586001243223
 20
388.1134759400788
 30
0.0
 10
509.9714256020729
 20
386.8332512469021
 30
0.0
 10
509.9926138888736
 20
384.8291901936718
 30
0.0
 10
510.0002811985776
 20
384.1390569617031
 30
0.0
 10
510.0157676849604
 20
382.7650195158532
 30
0.0
 10
510.0234741674551
 20
382.0782803042973
 30
0.0
 10
510.0464417454513
 20
380.0230508393525
 30
0.0
 10
510.0618140217765
 20
378.6600602856631
 30
0.0
 10
510.0783568861288
 20
377.2923062178257
 30
0.0
  0
SPLINE
  5
13D
330
1F
100
AcDbEntity
  8
0
  6
Continuous
 62
     8
370
    18
100
AcDbSpline
210
0.0
220
0.0
230
1.0
 70
     8
 71
     3
 72
    18
 73
    14
 74
     0
 42
0.000000001
 43
0.00000001
 40
0.0
 40
0.0
 40
0.0
 40
0.0
 40
0.25
 40
0.25
 40
0.375
 40
0.375
 40
0.5
 40
0.5
 40
0.625
 40
0.625
 40
0.75
 40
0.75
 40
1.0
 40
1.0
 40
1.0
 40
1.0
 10
509.8298474747494
 20
289.3176963792695
 30
0.0
 10
509.8294294557981
 20
289.3174942998281
 30
0.0
 10
509.8275458652161
 20
289.3159412088468
 30
0.0
 10
509.817503123833
 20
289.8233238446702
 30
0.0
 10
509.8123175650466
 20
290.0944992918948
 30
0.0
 10
509.7981904447745
 20
290.8899887430129
 30
0.0
 10
509.7890601206914
 20
291.4293469329685
 30
0.0
 10
509.7679813435534
 20
292.7717267207136
 30
0.0
 10
509.7560150286802
 20
293.5745067588206
 30
0.0
 10
509.7322217742393
 20
295.2465323764121
 30
0.0
 10
509.7200998396057
 20
296.137148335104
 30
0.0
 10
509.6854261749063
 20
298.76107539213
 30
0.0
 10
509.6634824168195
 20
300.4509930799454
 30
0.0
 10
509.6418049936108
 20
302.0870691151703
 30
0.0
  0
SPLINE
  5
13E
330
1F
100
AcDbEntity
  8
0
  6
Continuous
 62
     8
370
    18
100
AcDbSpline
210
0.0
220
0.0
230
1.0
 70
     8
 71
     3
 72
    18
 73
    14
 74
     0
 42
0.000000001
 43
0.00000001
 40
0.0
 40
0.0
 40
0.0
 40
0.0
 40
0.25
 40
0.25
 40
0.375
 40
0.375
 40
0.5
 40
0.5
 40
0.625
 40
0.625
 40
0.75
 40
0.75
 40
1.0
 40
1.0
 40
1.0
 40
1.0
 10
510.9791799479417
 20
302.1210071211714
 30
0.0
 10
510.9987192992575
 20
300.5035751056932
 30
0.0
 10
511.022122701718
 20
298.8707096501791
 30
0.0
 10
511.0579937834398
 20
296.4886668035791
 30
0.0
 10
511.0702520023029
 20
295.6981363722974
 30
0.0
 10
511.0937005475893
 20
294.2330362791972
 30
0.0
 10
511.105108915788
 20
293.5446559572372
 30
0.0
 10
511.1251659924999
 20
292.4047978113408
 30
0.0
 10
511.1341251148197
 20
291.9380395034202
 30
0.0
 10
511.1485063174654
 20
291.2379482735676
 30
0.0
 10
511.154119400161
 20
290.9936412369664
 30
0.0
 10
511.1660006897744
 20
290.5282762932298
 30
0.0
 10
511.1681020705416
 20
290.520842262259
 30
0.0
 10
511.1712961868853
 20
290.5179075565309
 30
0.0
  0
SPLINE
  5
13F
330
1F
100
AcDbEntity
  8
0
  6
Continuous
 62
     8
370
    18
100
AcDbSpline
210
0.0
220
0.0
230
1.0
 70
     8
 71
     3
 72
    14
 73
    10
 74
     0
 42
0.000000001
 43
0.00000001
 40
0.0
 40
0.0
 40
0.0
 40
0.0
 40
0.25
 40
0.25
 40
0.5
 40
0.5
 40
0.75
 40
0.75
 40
1.0
 40
1.0
 40
1.0
 40
1.0
 10
511.1712961868853
 20
290.5179075565309
 30
0.0
 10
511.1601901997408
 20
290.3683192680966
 30
0.0
 10
511.1215262447644
 20
290.2094786422148
 30
0.0
 10
510.9778862856716
 20
289.9066403349349
 30
0.0
 10
510.8726066780101
 20
289.7635469365698
 30
0.0
 10
510.6126560033827
 20
289.5309657708479
 30
0.0
 10
510.4587791769704
 20
289.4421886205888
 30
0.0
 10
510.1418911021026
 20
289.3329866546912
 30
0.0
 10
509.9797449282419
 20
289.3121599112901
 30
0.0
 10
509.8298474747494
 20
289.3176963792695
 30
0.0
  0
SPLINE
  5
140
330
1F
100
AcDbEntity
  8
0
  6
Continuous
 62
     8
370
    18
100
AcDbSpline
210
0.0
220
0.0
230
1.0
 70
     8
 71
     3
 72
     9
 73
     5
 74
     0
 42
0.000000001
 43
0.00000001
 40
0.0
 40
0.0
 40
0.0
 40
0.0
 40
0.7257939726559614
 40
1.0
 40
1.0
 40
1.0
 40
1.0
 10
509.8298515476796
 20
289.3176933753969
 30
0.0
 10
509.3912271408259
 20
289.3483589272495
 30
0.0
 10
508.7868897897614
 20
289.3906099695671
 30
0.0
 10
508.2992594757397
 20
289.728201771571
 30
0.0
 10
508.1655483045193
 20
289.8207714784623
 30
0.0
  0
LINE
  5
141
330
1F
100
AcDbEntity
  8
0
  6
Continuous
 62
     8
370
    18
100
AcDbLine
 10
506.335475231
 20
292.7183544267
 30
0.0
 11
506.1508889594
 21
294.267307781
 31
0.0
  0
SPLINE
  5
142
330
1F
100
AcDbEntity
  8
0
  6
Continuous
 62
     8
370
    18
100
AcDbSpline
210
0.0
220
0.0
230
1.0
 70
    24
 71
     3
 72
     9
 73
     5
 74
     0
 42
0.000000001
 43
0.00000001
 40
0.0
 40
0.0
 40
0.0
 40
0.0
 40
0.5
 40
1.0
 40
1.0
 40
1.0
 40
1.0
 10
511.4134152079598
 20
302.1210071211714
 30
0.0
 10
511.4134152079598
 20
302.1210071211713
 30
0.0
 10
511.4028922685887
 20
302.1210071211713
 30
0.0
 10
511.3713234504752
 20
302.1210071211713
 30
0.0
 10
511.3502775717329
 20
302.1210071211713
 30
0.0
  0
LINE
  5
143
330
1F
100
AcDbEntity
  8
0
  6
Continuous
 62
     8
370
    18
100
AcDbLine
 10
509.9370505013
 20
394.8884231973
 30
0.0
 11
509.9596853652
 21
394.6165291596
 31
0.0
  0
LINE
  5
144
330
1F
100
AcDbEntity
  8
0
  6
Continuous
 62
     8
370
    18
100
AcDbLine
 10
510.5026762285
 20
385.1935721937
 30
0.0
 11
510.5087037482
 21
384.8080413187
 31
0.0
  0
SPLINE
  5
145
330
1F
100
AcDbEntity
  8
0
  6
Continuous
 62
     8
370
    18
100
AcDbSpline
210
0.0
220
0.0
230
1.0
 70
     8
 71
     3
 72
    10
 73
     6
 74
     0
 42
0.000000001
 43
0.00000001
 40
0.0
 40
0.0
 40
0.0
 40
0.0
 40
0.0311540302368695
 40
0.5780290302368695
 40
0.9061540302368695
 40
0.9061540302368695
 40
0.9061540302368695
 40
0.9061540302368695
 10
511.1711699736592
 20
290.5160335461134
 30
0.0
 10
511.1810462751491
 20
290.6489672260925
 30
0.0
 10
511.3560109308448
 20
293.1154738545567
 30
0.0
 10
511.4141602748594
 20
296.9838732172703
 30
0.0
 10
511.3652630880076
 20
300.7203991294131
 30
0.0
 10
511.3502775717329
 20
302.1210071211713
 30
0.0
  0
LINE
  5
146
330
1F
100
AcDbEntity
  8
0
  6
Continuous
 62
     8
370
    18
100
AcDbLine
 10
473.7666479596
 20
355.9197800237
 30
0.0
 11
473.7666479596
 21
353.2526379455
 31
0.0
  0
ARC
  5
147
330
1F
100
AcDbEntity
  8
0
  6
Continuous
 62
     8
370
    18
100
AcDbCircle
 10
473.8386300307
 20
357.3311543281
 30
0.0
 40
1.413208705582308
100
AcDbArc
 50
267.0803645085
 51
351.381840944
  0
LINE
  5
148
330
1F
100
AcDbEntity
  8
0
  6
Continuous
 62
     8
370
    18
100
AcDbLine
 10
429.8002931573
 20
353.7526389587
 30
0.0
 11
429.8002931573
 21
355.7892551649
 31
0.0
  0
SPLINE
  5
149
330
1F
100
AcDbEntity
  8
0
  6
Continuous
 62
     8
370
    18
100
AcDbSpline
210
0.0
220
0.0
230
1.0
 70
     8
 71
     3
 72
     8
 73
     4
 74
     0
 42
0.000000001
 43
0.00000001
 40
0.0
 40
0.0
 40
0.0
 40
0.0
 40
1.0
 40
1.0
 40
1.0
 40
1.0
 10
509.8313288122716
 20
289.3176420559442
 30
0.0
 10
509.833439331941
 20
289.3175649615847
 30
0.0
 10
509.8344794055146
 20
289.3175283592312
 30
0.0
 10
509.8344727035582
 20
289.3175286001868
 30
0.0
  0
SPLINE
  5
14A
330
1F
100
AcDbEntity
  8
0
  6
Continuous
 62
     8
370
    18
100
AcDbSpline
210
0.0
220
0.0
230
1.0
 70
     8
 71
     3
 72
    10
 73
     6
 74
     0
 42
0.000000001
 43
0.00000001
 40
0.0
 40
0.0
 40
0.0
 40
0.0
 40
0.328125
 40
0.875
 40
0.9063474602971325
 40
0.9063474602971325
 40
0.9063474602971325
 40
0.9063474602971325
 10
511.4134152079598
 20
302.1210071211714
 30
0.0
 10
511.4280839948239
 20
300.7202923621319
 30
0.0
 10
511.4674885736272
 20
296.9836218692958
 30
0.0
 10
511.3834447085192
 20
293.1145070520088
 30
0.0
 10
511.1906045100573
 20
290.6472661813527
 30
0.0
 10
511.1796951195961
 20
290.5135121499674
 30
0.0
  0
SPLINE
  5
14B
330
1F
100
AcDbEntity
  8
0
  6
Continuous
 62
     8
370
    18
100
AcDbSpline
210
0.0
220
0.0
230
1.0
 70
     8
 71
     3
 72
     8
 73
     4
 74
     0
 42
0.000000001
 43
0.00000001
 40
0.0
 40
0.0
 40
0.0
 40
0.0
 40
1.0
 40
1.0
 40
1.0
 40
1.0
 10
511.1713084780809
 20
290.5178981909539
 30
0.0
 10
511.1769806309871
 20
290.5149147947669
 30
0.0
 10
511.1797090746407
 20
290.513505294003
 30
0.0
 10
511.1796951195961
 20
290.5135121499673
 30
0.0
  0
LINE
  5
14C
330
1F
100
AcDbEntity
  8
0
  6
Continuous
 62
     8
370
    18
100
AcDbLine
 10
486.6188762062
 20
353.4562883902
 30
0.0
 11
494.1817137696
 21
353.4562883902
 31
0.0
  0
LINE
  5
14D
330
1F
100
AcDbEntity
  8
0
  6
Continuous
 62
     7
370
    25
100
AcDbLine
 10
188.2139947814
 20
302.1187445152
 30
0.0
 11
188.2144492668
 21
302.0880853761
 31
0.0
  0
SPLINE
  5
14E
330
1F
100
AcDbEntity
  8
0
  6
Continuous
 62
     7
370
    25
100
AcDbSpline
210
0.0
220
0.0
230
1.0
 70
     8
 71
     3
 72
    20
 73
    16
 74
     0
 42
0.000000001
 43
0.00000001
 40
0.0
 40
0.0
 40
0.0
 40
0.0
 40
0.0887216193342547
 40
0.1733067969870845
 40
0.2477513561831425
 40
0.3120552916439632
 40
0.3662184673329084
 40
0.4102407483734679
 40
0.4491150328625725
 40
0.5062691154629751
 40
0.5772720275437884
 40
0.6621237716831929
 40
0.7608249437767252
 40
0.8734412503813441
 40
1.0
 40
1.0
 40
1.0
 40
1.0
 10
231.4178180498351
 20
302.1208679306985
 30
0.0
 10
231.4425359695737
 20
303.7873716327712
 30
0.0
 10
231.4908193928277
 20
307.0426821302639
 30
0.0
 10
231.5598533319557
 20
311.6963220977449
 30
0.0
 10
231.6220872211227
 20
315.8913117853546
 30
0.0
 10
231.6758504806445
 20
319.5148692771593
 30
0.0
 10
231.7211318408363
 20
322.5669896268528
 30
0.0
 10
231.7593305492765
 20
325.1414519588262
 30
0.0
 10
231.7983583192418
 20
327.7720943023717
 30
0.0
 10
231.8449013072358
 20
330.9095277537238
 30
0.0
 10
231.904258668851
 20
334.9105786560392
 30
0.0
 10
231.9751941993809
 20
339.6920313807848
 30
0.0
 10
232.0577529360849
 20
345.2551200237256
 30
0.0
 10
232.1516380974803
 20
351.6016548692288
 30
0.0
 10
232.1846951808325
 20
356.0945917247684
 30
0.0
 10
232.202187235402
 20
358.4720155227662
 30
0.0
  0
LINE
  5
14F
330
1F
100
AcDbEntity
  8
0
  6
Continuous
 62
     7
370
    25
100
AcDbLine
 10
231.4318921966
 20
302.0880853761
 30
0.0
 11
231.4323429567
 21
302.1185806025
 31
0.0
  0
SPLINE
  5
150
330
1F
100
AcDbEntity
  8
0
  6
Continuous
 62
     7
370
    25
100
AcDbSpline
210
0.0
220
0.0
230
1.0
 70
     8
 71
     3
 72
    14
 73
    10
 74
     0
 42
0.000000001
 43
0.00000001
 40
0.0
 40
0.0
 40
0.0
 40
0.0
 40
0.0970413354366619
 40
0.2093509514789457
 40
0.3368816764548012
 40
0.4797072244667916
 40
0.6378356622562698
 40
0.8112667713505678
 40
1.0
 40
1.0
 40
1.0
 40
1.0
 10
187.4441579533089
 20
358.471076749611
 30
0.0
 10
187.4564899517465
 20
356.6481653840512
 30
0.0
 10
187.4830942394444
 20
352.7155295941118
 30
0.0
 10
187.5708364874505
 20
346.3876924849177
 30
0.0
 10
187.6787078120917
 20
339.2000354878241
 30
0.0
 10
187.7977404392366
 20
331.1517166493387
 30
0.0
 10
187.9300736872788
 20
322.241254067668
 30
0.0
 10
188.0750303362096
 20
312.4684937431786
 30
0.0
 10
188.1759378771161
 20
305.6658890851147
 30
0.0
 10
188.2285234135855
 20
302.1208753812791
 30
0.0
  0
SPLINE
  5
151
330
1F
100
AcDbEntity
  8
0
  6
Continuous
 62
     7
370
    25
100
AcDbSpline
210
0.0
220
0.0
230
1.0
 70
     8
 71
     3
 72
    19
 73
    15
 74
     0
 42
0.000000001
 43
0.00000001
 40
0.0
 40
0.0
 40
0.0
 40
0.0
 40
0.0419843896485888
 40
0.0871311379587679
 40
0.1351959183103097
 40
0.2462939333242186
 40
0.3606248604126688
 40
0.4679776980247325
 40
0.5390215886730635
 40
0.6115154966753511
 40
0.6902079420940904
 40
0.8360455014353697
 40
0.9252217710742049
 40
1.0
 40
1.0
 40
1.0
 40
1.0
 10
187.4679383439291
 20
373.0221481997253
 30
0.0
 10
187.4671325377575
 20
373.0105024347454
 30
0.0
 10
187.4654602302811
 20
372.9863337195733
 30
0.0
 10
187.4765684350266
 20
372.7555539106183
 30
0.0
 10
187.4975403428424
 20
372.2276634984461
 30
0.0
 10
187.5219715024218
 20
371.2017377804934
 30
0.0
 10
187.5209193522916
 20
369.7712007416259
 30
0.0
 10
187.5248196814478
 20
368.3705857714618
 30
0.0
 10
187.544173685502
 20
367.1366252139926
 30
0.0
 10
187.6041136645076
 20
366.0618287257844
 30
0.0
 10
187.6579022726565
 20
364.5941104704738
 30
0.0
 10
187.566933946437
 20
363.1301643268412
 30
0.0
 10
187.4539379040844
 20
361.7898293665416
 30
0.0
 10
187.4364644579304
 20
361.147701318995
 30
0.0
 10
187.428494970249
 20
360.8548322695972
 30
0.0
  0
SPLINE
  5
152
330
1F
100
AcDbEntity
  8
0
  6
Continuous
 62
     7
370
    25
100
AcDbSpline
210
0.0
220
0.0
230
1.0
 70
     8
 71
     3
 72
    19
 73
    15
 74
     0
 42
0.000000001
 43
0.00000001
 40
0.0
 40
0.0
 40
0.0
 40
0.0
 40
0.0746849915518908
 40
0.1637765337549414
 40
0.3095101794045821
 40
0.388200378128658
 40
0.4607271250445696
 40
0.5318039288019601
 40
0.6392068827048136
 40
0.7535923018176058
 40
0.8647438353719066
 40
0.9128313966617934
 40
0.9579992508917565
 40
0.9999999999999999
 40
0.9999999999999999
 40
0.9999999999999999
 40
0.9999999999999999
 10
232.2178576690424
 20
360.8626218516113
 30
0.0
 10
232.2098932619687
 20
361.1547253571883
 30
0.0
 10
232.192428133342
 20
361.7952784140612
 30
0.0
 10
232.0794159261768
 20
363.133150427172
 30
0.0
 10
231.9884177381899
 20
364.5953765043456
 30
0.0
 10
232.0422075305348
 20
366.0620611369293
 30
0.0
 10
232.1021414595024
 20
367.1366438797999
 30
0.0
 10
232.1215026973704
 20
368.3705896539079
 30
0.0
 10
232.1254081316209
 20
369.7711968473885
 30
0.0
 10
232.1243567085037
 20
371.2017291585942
 30
0.0
 10
232.1487983201934
 20
372.227657933826
 30
0.0
 10
232.1697690663456
 20
372.7555459193331
 30
0.0
 10
232.1808773808027
 20
372.9863161219641
 30
0.0
 10
232.1792051371392
 20
373.0104788032308
 30
0.0
 10
232.1783993942011
 20
373.0221211913706
 30
0.0
  0
LINE
  5
153
330
1F
100
AcDbEntity
  8
0
  6
Continuous
 62
     7
370
    25
100
AcDbLine
 10
294.6898062331
 20
409.1429261494
 30
0.0
 11
293.2936866385
 21
409.1445168484
 31
0.0
  0
LINE
  5
154
330
1F
100
AcDbEntity
  8
0
  6
Continuous
 62
     7
370
    25
100
AcDbLine
 10
126.3526548249
 20
409.1445168484
 30
0.0
 11
124.9565352303
 21
409.1429261494
 31
0.0
  0
SPLINE
  5
155
330
1F
100
AcDbEntity
  8
0
  6
Continuous
 62
     7
370
    25
100
AcDbSpline
210
0.0
220
0.0
230
1.0
 70
     8
 71
     3
 72
    15
 73
    11
 74
     0
 42
0.000000001
 43
0.00000001
 40
0.0
 40
0.0
 40
0.0
 40
0.0
 40
0.1703952035738597
 40
0.3248724757588223
 40
0.4553529731505251
 40
0.5539415135547013
 40
0.6300246115714851
 40
0.7306812646464004
 40
0.8561168471453673
 40
1.0
 40
1.0
 40
1.0
 40
1.0
 10
304.7748003703821
 20
399.5814293626429
 30
0.0
 10
304.7583406602388
 20
400.502354881395
 30
0.0
 10
304.726958868543
 20
402.2581751567983
 30
0.0
 10
304.0852997320078
 20
404.6650936183964
 30
0.0
 10
302.9735501760123
 20
406.4474851435236
 30
0.0
 10
301.7404012212996
 20
407.5612976522184
 30
0.0
 10
300.4545760575352
 20
408.3177463184392
 30
0.0
 10
298.906686723889
 20
408.8640539765507
 30
0.0
 10
296.9198177600975
 20
409.1451360848475
 30
0.0
 10
295.4663300064946
 20
409.1438899294147
 30
0.0
 10
294.6898062330951
 20
409.14322417264
 30
0.0
  0
SPLINE
  5
156
330
1F
100
AcDbEntity
  8
0
  6
Continuous
 62
     7
370
    25
100
AcDbSpline
210
0.0
220
0.0
230
1.0
 70
     8
 71
     3
 72
    15
 73
    11
 74
     0
 42
0.000000001
 43
0.00000001
 40
0.0
 40
0.0
 40
0.0
 40
0.0
 40
0.1438831528546327
 40
0.2693187353535997
 40
0.3699753884285149
 40
0.4460584864452987
 40
0.5446470268494749
 40
0.6751275242411777
 40
0.8296047964261404
 40
1.0
 40
1.0
 40
1.0
 40
1.0
 10
124.9565352303255
 20
409.14322417264
 30
0.0
 10
124.1800114569259
 20
409.1438899294147
 30
0.0
 10
122.7265237033229
 20
409.1451360848475
 30
0.0
 10
120.7396547395315
 20
408.8640539765507
 30
0.0
 10
119.1917654058853
 20
408.3177463184392
 30
0.0
 10
117.905940242121
 20
407.5612976522184
 30
0.0
 10
116.6727912874082
 20
406.4474851435236
 30
0.0
 10
115.5610417314127
 20
404.6650936183964
 30
0.0
 10
114.9193825948776
 20
402.2581751567983
 30
0.0
 10
114.8880008031817
 20
400.502354881395
 30
0.0
 10
114.8715410930384
 20
399.5814293626429
 30
0.0
  0
SPLINE
  5
157
330
1F
100
AcDbEntity
  8
0
  6
Continuous
 62
     7
370
    25
100
AcDbSpline
210
0.0
220
0.0
230
1.0
 70
     8
 71
     3
 72
    15
 73
    11
 74
     0
 42
0.000000001
 43
0.00000001
 40
0.0
 40
0.0
 40
0.0
 40
0.0
 40
0.1450911477484278
 40
0.271535996703887
 40
0.3733365753849195
 40
0.4500871008764062
 40
0.5485819703903706
 40
0.6785579608933154
 40
0.8320872880091718
 40
1.0
 40
1.0
 40
1.0
 40
1.0
 10
114.8726661307085
 20
372.9198070246459
 30
0.0
 10
114.8773335292149
 20
372.1454867087988
 30
0.0
 10
114.8860684984057
 20
370.696357371865
 30
0.0
 10
115.2351101093694
 20
368.7227958889127
 30
0.0
 10
115.8505370843551
 20
367.2039936573224
 30
0.0
 10
116.6744478598405
 20
365.9691252902497
 30
0.0
 10
117.8479763696337
 20
364.8194640968821
 30
0.0
 10
119.6623268020505
 20
363.8288764023364
 30
0.0
 10
122.0425636276662
 20
363.3150871361458
 30
0.0
 10
123.7584572798898
 20
363.306797492693
 30
0.0
 10
124.6547941667307
 20
363.3024672049762
 30
0.0
  0
SPLINE
  5
158
330
1F
100
AcDbEntity
  8
0
  6
Continuous
 62
     7
370
    25
100
AcDbSpline
210
0.0
220
0.0
230
1.0
 70
     8
 71
     3
 72
    15
 73
    11
 74
     0
 42
0.000000001
 43
0.00000001
 40
0.0
 40
0.0
 40
0.0
 40
0.0
 40
0.1679127119908282
 40
0.3214420391066845
 40
0.4514180296096293
 40
0.5499128991235936
 40
0.6266634246150804
 40
0.7284640032961129
 40
0.8549088522515723
 40
1.0
 40
1.0
 40
1.0
 40
1.0
 10
294.9915472966898
 20
363.3024672049762
 30
0.0
 10
295.8878841835307
 20
363.306797492693
 30
0.0
 10
297.6037778357543
 20
363.3150871361458
 30
0.0
 10
299.9840146613701
 20
363.8288764023364
 30
0.0
 10
301.7983650937867
 20
364.8194640968821
 30
0.0
 10
302.97189360358
 20
365.9691252902497
 30
0.0
 10
303.7958043790654
 20
367.2039936573224
 30
0.0
 10
304.4112313540512
 20
368.7227958889127
 30
0.0
 10
304.7602729650148
 20
370.696357371865
 30
0.0
 10
304.7690079342057
 20
372.1454867087988
 30
0.0
 10
304.773675332712
 20
372.9198070246459
 30
0.0
  0
LINE
  5
159
330
1F
100
AcDbEntity
  8
0
  6
Continuous
 62
     7
370
    25
100
AcDbLine
 10
237.4664806378
 20
363.2862137634
 30
0.0
 11
293.4332583648
 21
363.2862137634
 31
0.0
  0
SPLINE
  5
15A
330
1F
100
AcDbEntity
  8
0
  6
Continuous
 62
     7
370
    25
100
AcDbSpline
210
0.0
220
0.0
230
1.0
 70
     8
 71
     3
 72
     9
 73
     5
 74
     0
 42
0.000000001
 43
0.00000001
 40
0.0
 40
0.0
 40
0.0
 40
0.0
 40
0.4843801665625529
 40
1.0
 40
1.0
 40
1.0
 40
1.0
 10
209.8231707317103
 20
409.1956185180427
 30
0.0
 10
196.3460130321253
 20
409.1932818216342
 30
0.0
 10
168.5225003659756
 20
409.188457725666
 30
0.0
 10
140.6990022758019
 20
409.1594718526275
 30
0.0
 10
126.3526548248995
 20
409.1445261615993
 30
0.0
  0
SPLINE
  5
15B
330
1F
100
AcDbEntity
  8
0
  6
Continuous
 62
     7
370
    25
100
AcDbSpline
210
0.0
220
0.0
230
1.0
 70
     8
 71
     3
 72
     9
 73
     5
 74
     0
 42
0.000000001
 43
0.00000001
 40
0.0
 40
0.0
 40
0.0
 40
0.0
 40
0.4843698998618937
 40
1.0
 40
1.0
 40
1.0
 40
1.0
 10
293.293686638521
 20
409.1445261615993
 30
0.0
 10
279.8168218210993
 20
409.1586653189619
 30
0.0
 10
251.9933240743064
 20
409.1878561447473
 30
0.0
 10
224.1698113723922
 20
409.1929776933987
 30
0.0
 10
209.8231707317103
 20
409.1956185180427
 30
0.0
  0
LINE
  5
15C
330
1F
100
AcDbEntity
  8
0
  6
Continuous
 62
     7
370
    25
100
AcDbLine
 10
293.3327202303
 20
363.302409463
 30
0.0
 11
294.9915472967
 21
363.3024225015
 31
0.0
  0
LINE
  5
15D
330
1F
100
AcDbEntity
  8
0
  6
Continuous
 62
     7
370
    25
100
AcDbLine
 10
124.6547941667
 20
363.3024225015
 30
0.0
 11
126.3136212332
 21
363.302409463
 31
0.0
  0
SPLINE
  5
15E
330
1F
100
AcDbEntity
  8
0
  6
Continuous
 62
     7
370
    25
100
AcDbSpline
210
0.0
220
0.0
230
1.0
 70
     8
 71
     3
 72
    18
 73
    14
 74
     0
 42
0.000000001
 43
0.00000001
 40
0.0
 40
0.0
 40
0.0
 40
0.0
 40
0.2499999999999998
 40
0.2499999999999998
 40
0.3749999999999998
 40
0.3749999999999998
 40
0.4999999999999997
 40
0.4999999999999997
 40
0.6249999999999996
 40
0.6249999999999996
 40
0.7499999999999997
 40
0.7499999999999997
 40
1.0
 40
1.0
 40
1.0
 40
1.0
 10
231.4302402861478
 20
302.0870691151703
 30
0.0
 10
231.4061491081804
 20
300.4561428987569
 30
0.0
 10
231.3823942034759
 20
298.7860593202092
 30
0.0
 10
230.8245409982121
 20
296.154323275829
 30
0.0
 10
230.5376377063602
 20
295.2686412422776
 30
0.0
 10
229.7087512561558
 20
293.5976208074361
 30
0.0
 10
229.1558352538468
 20
292.7979314882047
 30
0.0
 10
227.7860775741164
 20
291.449584188204
 30
0.0
 10
226.9732377453435
 20
290.9064291050964
 30
0.0
 10
225.2876351300606
 20
290.1041416656793
 30
0.0
 10
224.3935769038043
 20
289.8310199113409
 30
0.0
 10
221.7667325783464
 20
289.3179226196346
 30
0.0
 10
220.0718948080967
 20
289.3174937830185
 30
0.0
 10
218.4394566367097
 20
289.3176963792696
 30
0.0
  0
SPLINE
  5
15F
330
1F
100
AcDbEntity
  8
0
  6
Continuous
 62
     7
370
    25
100
AcDbSpline
210
0.0
220
0.0
230
1.0
 70
     8
 71
     3
 72
    18
 73
    14
 74
     0
 42
0.000000001
 43
0.00000001
 40
0.0
 40
0.0
 40
0.0
 40
0.0
 40
0.25
 40
0.25
 40
0.375
 40
0.375
 40
0.5
 40
0.5
 40
0.625
 40
0.625
 40
0.75
 40
0.75
 40
1.0
 40
1.0
 40
1.0
 40
1.0
 10
201.2068848267112
 20
289.3176963792695
 30
0.0
 10
199.5786107553589
 20
289.3174942998281
 30
0.0
 10
197.9114173677458
 20
289.3159412088468
 30
0.0
 10
195.2816075111502
 20
289.8233238446702
 30
0.0
 10
194.3859069205209
 20
290.0944992918948
 30
0.0
 10
192.7009261663932
 20
290.8899887430129
 30
0.0
 10
191.8867216347016
 20
291.4293469329685
 30
0.0
 10
190.5114281815774
 20
292.7717267207136
 30
0.0
 10
189.9518284573388
 20
293.5745067588206
 30
0.0
 10
189.1169716251373
 20
295.2465323764121
 30
0.0
 10
188.8268737480905
 20
296.137148335104
 30
0.0
 10
188.2664257794852
 20
298.76107539213
 30
0.0
 10
188.2402684256293
 20
300.4509930799454
 30
0.0
 10
188.216101177273
 20
302.0870691151703
 30
0.0
  0
SPLINE
  5
160
330
1F
100
AcDbEntity
  8
0
  6
Continuous
 62
     7
370
    25
100
AcDbSpline
210
0.0
220
0.0
230
1.0
 70
     8
 71
     3
 72
     8
 73
     4
 74
     0
 42
0.000000001
 43
0.00000001
 40
0.0
 40
0.0
 40
0.0
 40
0.0
 40
1.0
 40
1.0
 40
1.0
 40
1.0
 10
218.4340164791556
 20
289.3176962510074
 30
0.0
 10
215.5637332727934
 20
289.317582032972
 30
0.0
 10
212.6934553944762
 20
289.3175283084306
 30
0.0
 10
209.8231772954504
 20
289.3175286001868
 30
0.0
  0
SPLINE
  5
161
330
1F
100
AcDbEntity
  8
0
  6
Continuous
 62
     7
370
    25
100
AcDbSpline
210
0.0
220
0.0
230
1.0
 70
     8
 71
     3
 72
     8
 73
     4
 74
     0
 42
0.000000001
 43
0.00000001
 40
0.0
 40
0.0
 40
0.0
 40
0.0
 40
1.0
 40
1.0
 40
1.0
 40
1.0
 10
209.8231641679705
 20
289.3175286001868
 30
0.0
 10
206.952886116341
 20
289.3175283084264
 30
0.0
 10
204.0826082433288
 20
289.3175820329815
 30
0.0
 10
201.2123249842652
 20
289.3176962510074
 30
0.0
  0
SPLINE
  5
162
330
1F
100
AcDbEntity
  8
0
  6
Continuous
 62
     7
370
    25
100
AcDbSpline
210
0.0
220
0.0
230
1.0
 70
     8
 71
     3
 72
     9
 73
     5
 74
     0
 42
0.000000001
 43
0.00000001
 40
0.0
 40
0.0
 40
0.0
 40
0.0
 40
0.7745969269504773
 40
1.0
 40
1.0
 40
1.0
 40
1.0
 10
231.4306870651711
 20
302.1175524223329
 30
0.0
 10
231.5772676434158
 20
311.5070895374256
 30
0.0
 10
231.7665022932636
 20
323.6289257962636
 30
0.0
 10
231.9221797175387
 20
335.7512213125791
 30
0.0
 10
231.9572698873747
 20
338.4836239743711
 30
0.0
  0
LINE
  5
163
330
1F
100
AcDbEntity
  8
0
  6
Continuous
 62
     7
370
    25
100
AcDbLine
 10
232.1706638289
 20
354.8355286944
 30
0.0
 11
232.2180793238
 21
358.4689421583
 31
0.0
  0
LINE
  5
164
330
1F
100
AcDbEntity
  8
0
  6
Continuous
 62
     7
370
    25
100
AcDbLine
 10
187.4690950466
 20
368.5325158763
 30
0.0
 11
187.4284577173
 21
358.4689589221
 31
0.0
  0
LINE
  5
165
330
1F
100
AcDbEntity
  8
0
  6
Continuous
 62
     7
370
    25
100
AcDbLine
 10
232.2178837461
 20
358.4689589221
 30
0.0
 11
232.1772464169
 21
368.5325158763
 31
0.0
  0
SPLINE
  5
166
330
1F
100
AcDbEntity
  8
0
  6
Continuous
 62
     7
370
    25
100
AcDbSpline
210
0.0
220
0.0
230
1.0
 70
     8
 71
     3
 72
    38
 73
    34
 74
     0
 42
0.000000001
 43
0.00000001
 40
0.0
 40
0.0
 40
0.0
 40
0.0
 40
0.1250000000000004
 40
0.1250000000000004
 40
0.1875000000000006
 40
0.1875000000000006
 40
0.2500000000000008
 40
0.2500000000000008
 40
0.2812500000000008
 40
0.2812500000000008
 40
0.3125000000000008
 40
0.3125000000000008
 40
0.3750000000000008
 40
0.3750000000000008
 40
0.4375000000000008
 40
0.4375000000000008
 40
0.4687500000000006
 40
0.4687500000000006
 40
0.5000000000000004
 40
0.5000000000000004
 40
0.5625000000000003
 40
0.5625000000000003
 40
0.5937500000000003
 40
0.5937500000000003
 40
0.6250000000000001
 40
0.6250000000000001
 40
0.7500000000000001
 40
0.7500000000000001
 40
0.8125000000000001
 40
0.8125000000000001
 40
0.875
 40
0.875
 40
1.0
 40
1.0
 40
1.0
 40
1.0
 10
209.8231707317103
 20
399.6365054354519
 30
0.0
 10
208.2343970580205
 20
399.6365350515476
 30
0.0
 10
206.661817614922
 20
399.549821899316
 30
0.0
 10
204.3325452430865
 20
399.261219926034
 30
0.0
 10
203.5610637732856
 20
399.1385444382479
 30
0.0
 10
202.0288507228631
 20
398.835612762001
 30
0.0
 10
201.2678759883104
 20
398.6566590031273
 30
0.0
 10
200.1356329107073
 20
398.338847588364
 30
0.0
 10
199.7598626684369
 20
398.2241039030583
 30
0.0
 10
199.0121413270821
 20
397.9741596759188
 30
0.0
 10
198.6391304551861
 20
397.8385330789004
 30
0.0
 10
197.5340722747411
 20
397.399121529222
 30
0.0
 10
196.8239350169958
 20
397.0659167520271
 30
0.0
 10
195.460791498013
 20
396.312925939648
 30
0.0
 10
194.8080687917549
 20
395.8927101807004
 30
0.0
 10
193.8746542331265
 20
395.19317502718
 30
0.0
 10
193.5699747849721
 20
394.9475607138967
 30
0.0
 10
192.9817977514833
 20
394.4376455604424
 30
0.0
 10
192.6991153732842
 20
394.1741505790501
 30
0.0
 10
191.8839393482512
 20
393.3590618688377
 30
0.0
 10
191.3839187200639
 20
392.7831623418913
 30
0.0
 10
190.6940865603867
 20
391.8742547378811
 30
0.0
 10
190.4742472135725
 20
391.5637222435584
 30
0.0
 10
190.0541274964721
 20
390.9280175153735
 30
0.0
 10
189.8532289751473
 20
390.6017455975917
 30
0.0
 10
188.904992826873
 20
388.9504680574114
 30
0.0
 10
188.3246289056527
 20
387.5700499950463
 30
0.0
 10
187.6548911206651
 20
385.4325007302953
 30
0.0
 10
187.4655457380454
 20
384.7086864668441
 30
0.0
 10
187.1464384357729
 20
383.2412008984566
 30
0.0
 10
187.0174195493182
 20
382.5016353169922
 30
0.0
 10
186.7127390128651
 20
380.2802285013307
 30
0.0
 10
186.6134482472902
 20
378.7904063001091
 30
0.0
 10
186.6276818690261
 20
377.2908702262685
 30
0.0
  0
SPLINE
  5
167
330
1F
100
AcDbEntity
  8
0
  6
Continuous
 62
     7
370
    25
100
AcDbSpline
210
0.0
220
0.0
230
1.0
 70
     8
 71
     3
 72
    34
 73
    30
 74
     0
 42
0.000000001
 43
0.00000001
 40
0.0
 40
0.0
 40
0.0
 40
0.0
 40
0.125
 40
0.125
 40
0.2499999999999999
 40
0.2499999999999999
 40
0.2812499999999999
 40
0.2812499999999999
 40
0.3124999999999999
 40
0.3124999999999999
 40
0.3749999999999999
 40
0.3749999999999999
 40
0.4374999999999999
 40
0.4374999999999999
 40
0.4999999999999999
 40
0.4999999999999999
 40
0.6249999999999999
 40
0.6249999999999999
 40
0.6562499999999999
 40
0.6562499999999999
 40
0.6874999999999999
 40
0.6874999999999999
 40
0.7499999999999999
 40
0.7499999999999999
 40
0.8125
 40
0.8125
 40
0.875
 40
0.875
 40
1.0
 40
1.0
 40
1.0
 40
1.0
 10
233.0186595943919
 20
377.2908702263152
 30
0.0
 10
233.0328563336527
 20
378.7865206691687
 30
0.0
 10
232.9340516284144
 20
380.2643699964519
 30
0.0
 10
232.5363918277069
 20
383.1885547163772
 30
0.0
 10
232.2352612599963
 20
384.6345316539628
 30
0.0
 10
231.6850541461245
 20
386.4146250751867
 30
0.0
 10
231.5661818215405
 20
386.7692526276207
 30
0.0
 10
231.309120400767
 20
387.4754647617883
 30
0.0
 10
231.1705249507568
 20
387.8279958166997
 30
0.0
 10
230.7259225558487
 20
388.8735367072385
 30
0.0
 10
230.3929028027089
 20
389.5509205436423
 30
0.0
 10
229.646597703633
 20
390.8626305855491
 30
0.0
 10
229.2334142532831
 20
391.4970114518648
 30
0.0
 10
228.3169134599014
 20
392.717421808177
 30
0.0
 10
227.8097371162721
 20
393.3068559475441
 30
0.0
 10
226.1865153624436
 20
394.9438905100644
 30
0.0
 10
224.9601920445406
 20
395.8749354903164
 30
0.0
 10
223.2441449433538
 20
396.835101665639
 30
0.0
 10
222.8918527346392
 20
397.0168548883533
 30
0.0
 10
222.1813609628902
 20
397.3551741578112
 30
0.0
 10
221.8217075803634
 20
397.5125744464323
 30
0.0
 10
220.7304998568176
 20
397.952098376584
 30
0.0
 10
219.9867924022732
 20
398.2017971113015
 30
0.0
 10
218.4737841308356
 20
398.6329106477782
 30
0.0
 10
217.7051845123329
 20
398.8161962699181
 30
0.0
 10
216.1475063860624
 20
399.128129163731
 30
0.0
 10
215.36126537416
 20
399.2544403717436
 30
0.0
 10
213.0004004713771
 20
399.549589030059
 30
0.0
 10
211.4159568674053
 20
399.6365351261297
 30
0.0
 10
209.8231707317103
 20
399.6365054352383
 30
0.0
  0
SPLINE
  5
168
330
1F
100
AcDbEntity
  8
0
  6
Continuous
 62
     7
370
    25
100
AcDbSpline
210
0.0
220
0.0
230
1.0
 70
     8
 71
     3
 72
     9
 73
     5
 74
     0
 42
0.000000001
 43
0.00000001
 40
0.0
 40
0.0
 40
0.0
 40
0.0
 40
0.3027656063756599
 40
1.0
 40
1.0
 40
1.0
 40
1.0
 10
187.5145529014338
 20
371.2793875489117
 30
0.0
 10
187.3792102997715
 20
371.7311280473248
 30
0.0
 10
186.9321892418568
 20
373.2231749935443
 30
0.0
 10
186.790644587839
 20
374.7171421480808
 30
0.0
 10
186.6919547868241
 20
375.7587874311687
 30
0.0
  0
SPLINE
  5
169
330
1F
100
AcDbEntity
  8
0
  6
Continuous
 62
     7
370
    25
100
AcDbSpline
210
0.0
220
0.0
230
1.0
 70
     8
 71
     3
 72
     8
 73
     4
 74
     0
 42
0.000000001
 43
0.00000001
 40
0.0
 40
0.0
 40
0.0
 40
0.0
 40
1.0
 40
1.0
 40
1.0
 40
1.0
 10
186.6919548747433
 20
375.7587874094811
 30
0.0
 10
186.6539185973702
 20
376.2688663087827
 30
0.0
 10
186.6325530208817
 20
376.7795627577016
 30
0.0
 10
186.627681869026
 20
377.2908702262685
 30
0.0
  0
SPLINE
  5
16A
330
1F
100
AcDbEntity
  8
0
  6
Continuous
 62
     7
370
    25
100
AcDbSpline
210
0.0
220
0.0
230
1.0
 70
     8
 71
     3
 72
     8
 73
     4
 74
     0
 42
0.000000001
 43
0.00000001
 40
0.0
 40
0.0
 40
0.0
 40
0.0
 40
1.0
 40
1.0
 40
1.0
 40
1.0
 10
233.0186595943935
 20
377.2908702262894
 30
0.0
 10
233.0137884425378
 20
376.7795627577274
 30
0.0
 10
232.9924228660501
 20
376.2688663087778
 30
0.0
 10
232.9543865886773
 20
375.7587874094812
 30
0.0
  0
SPLINE
  5
16B
330
1F
100
AcDbEntity
  8
0
  6
Continuous
 62
     7
370
    25
100
AcDbSpline
210
0.0
220
0.0
230
1.0
 70
     8
 71
     3
 72
    10
 73
     6
 74
     0
 42
0.000000001
 43
0.00000001
 40
0.0
 40
0.0
 40
0.0
 40
0.0
 40
0.4636522064037059
 40
0.9338375478416152
 40
1.0
 40
1.0
 40
1.0
 40
1.0
 10
232.9543866765965
 20
375.7587874311687
 30
0.0
 10
232.8797938428019
 20
375.0446382985922
 30
0.0
 10
232.7295571178704
 20
373.6062772479004
 30
0.0
 10
232.4112132286536
 20
372.0419382113296
 30
0.0
 10
232.1603982664955
 20
371.2148406969978
 30
0.0
 10
232.1294583929051
 20
371.1128121245386
 30
0.0
  0
LINE
  5
16C
330
1F
100
AcDbEntity
  8
0
  6
Continuous
 62
     7
370
    25
100
AcDbLine
 10
126.3135690791
 20
363.2880875844
 30
0.0
 11
182.0693836165
 21
363.2880875844
 31
0.0
  0
SPLINE
  5
16D
330
1F
100
AcDbEntity
  8
0
  6
Continuous
 62
     7
370
    25
100
AcDbSpline
210
0.0
220
0.0
230
1.0
 70
     8
 71
     3
 72
    10
 73
     6
 74
     0
 42
0.000000001
 43
0.00000001
 40
0.0
 40
0.0
 40
0.0
 40
0.0
 40
0.4453405986463463
 40
0.8690868976439948
 40
1.0
 40
1.0
 40
1.0
 40
1.0
 10
237.3560667586792
 20
363.2877970117809
 30
0.0
 10
236.5725965148548
 20
363.2774927866618
 30
0.0
 10
235.0436460314012
 20
363.2573839821454
 30
0.0
 10
233.2682334612569
 20
363.13776137445
 30
0.0
 10
232.3318609652113
 20
362.8528060356131
 30
0.0
 10
232.1108542931546
 20
362.7855496484519
 30
0.0
  0
SPLINE
  5
16E
330
1F
100
AcDbEntity
  8
0
  6
Continuous
 62
     7
370
    25
100
AcDbSpline
210
0.0
220
0.0
230
1.0
 70
     8
 71
     3
 72
    10
 73
     6
 74
     0
 42
0.000000001
 43
0.00000001
 40
0.0
 40
0.0
 40
0.0
 40
0.0
 40
0.4453166149377265
 40
0.8690400931824618
 40
1.0
 40
1.0
 40
1.0
 40
1.0
 10
182.2902747047413
 20
363.2877970117809
 30
0.0
 10
183.073745211777
 20
363.2774939841888
 30
0.0
 10
184.6026962088899
 20
363.2573875166591
 30
0.0
 10
186.378201529247
 20
363.1377454117644
 30
0.0
 10
187.3146636833454
 20
362.852756797419
 30
0.0
 10
187.5357609791029
 20
362.7854714173557
 30
0.0
  0
LINE
  5
16F
330
1F
100
AcDbEntity
  8
0
  6
Continuous
 62
     7
370
    25
100
AcDbLine
 10
209.8231707317
 20
409.2077555138
 30
0.0
 11
179.7283534509
 21
409.1861804951
 31
0.0
  0
LINE
  5
170
330
1F
100
AcDbEntity
  8
0
  6
Continuous
 62
     7
370
    25
100
AcDbLine
 10
145.6550974948
 20
409.1617537666
 30
0.0
 11
126.352617572
 21
409.1479161758
 31
0.0
  0
SPLINE
  5
171
330
1F
100
AcDbEntity
  8
0
  6
Continuous
 62
     7
370
    25
100
AcDbSpline
210
0.0
220
0.0
230
1.0
 70
     8
 71
     3
 72
     8
 73
     4
 74
     0
 42
0.000000001
 43
0.00000001
 40
0.0
 40
0.0
 40
0.0
 40
0.0
 40
1.0
 40
1.0
 40
1.0
 40
1.0
 10
304.7910251587979
 20
397.7597603085686
 30
0.0
 10
304.7944110158939
 20
390.0888442426406
 30
0.0
 10
304.7940224190152
 20
382.4173026074731
 30
0.0
 10
304.7897775338926
 20
374.7473206578945
 30
0.0
  0
SPLINE
  5
172
330
1F
100
AcDbEntity
  8
0
  6
Continuous
 62
     7
370
    25
100
AcDbSpline
210
0.0
220
0.0
230
1.0
 70
     8
 71
     3
 72
     8
 73
     4
 74
     0
 42
0.000000001
 43
0.00000001
 40
0.0
 40
0.0
 40
0.0
 40
0.0
 40
1.0
 40
1.0
 40
1.0
 40
1.0
 10
114.8565639295279
 20
374.7473206578945
 30
0.0
 10
114.8521551805669
 20
382.4181415047389
 30
0.0
 10
114.8517737140971
 20
390.0889493113143
 30
0.0
 10
114.8553163046227
 20
397.7597603085686
 30
0.0
  0
LINE
  5
173
330
1F
100
AcDbEntity
  8
0
  6
Continuous
 62
     7
370
    25
100
AcDbLine
 10
304.7897760374
 20
374.7454991568
 30
0.0
 11
304.7886882526
 21
372.9208519686
 31
0.0
  0
SPLINE
  5
174
330
1F
100
AcDbEntity
  8
0
  6
Continuous
 62
     7
370
    25
100
AcDbSpline
210
0.0
220
0.0
230
1.0
 70
     8
 71
     3
 72
     8
 73
     4
 74
     0
 42
0.000000001
 43
0.00000001
 40
0.0
 40
0.0
 40
0.0
 40
0.0
 40
1.0
 40
1.0
 40
1.0
 40
1.0
 10
114.8576515970906
 20
372.920852101891
 30
0.0
 10
114.8572277817921
 20
373.5290741686042
 30
0.0
 10
114.8569111417364
 20
374.1372805962583
 30
0.0
 10
114.8565674632655
 20
374.7454991726359
 30
0.0
  0
SPLINE
  5
175
330
1F
100
AcDbEntity
  8
0
  6
Continuous
 62
     7
370
    25
100
AcDbSpline
210
0.0
220
0.0
230
1.0
 70
     8
 71
     3
 72
     8
 73
     4
 74
     0
 42
0.000000001
 43
0.00000001
 40
0.0
 40
0.0
 40
0.0
 40
0.0
 40
1.0
 40
1.0
 40
1.0
 40
1.0
 10
237.5756232027546
 20
363.2876498087504
 30
0.0
 10
237.5024357235183
 20
363.2877244597763
 30
0.0
 10
237.4292436289209
 20
363.2877852393385
 30
0.0
 10
237.356066239225
 20
363.2877972252154
 30
0.0
  0
SPLINE
  5
176
330
1F
100
AcDbEntity
  8
0
  6
Continuous
 62
     7
370
    25
100
AcDbSpline
210
0.0
220
0.0
230
1.0
 70
     8
 71
     3
 72
     8
 73
     4
 74
     0
 42
0.000000001
 43
0.00000001
 40
0.0
 40
0.0
 40
0.0
 40
0.0
 40
1.0
 40
1.0
 40
1.0
 40
1.0
 10
182.2902752241956
 20
363.2877972252154
 30
0.0
 10
182.2173126605527
 20
363.2877722061717
 30
0.0
 10
182.144131919392
 20
363.2877118613795
 30
0.0
 10
182.0707182606659
 20
363.2876498087504
 30
0.0
  0
LINE
  5
177
330
1F
100
AcDbEntity
  8
0
  6
Continuous
 62
     7
370
    25
100
AcDbLine
 10
304.7901485664
 20
399.5803108442
 30
0.0
 11
304.7910202843
 21
397.7596562359
 31
0.0
  0
SPLINE
  5
178
330
1F
100
AcDbEntity
  8
0
  6
Continuous
 62
     7
370
    25
100
AcDbSpline
210
0.0
220
0.0
230
1.0
 70
     8
 71
     3
 72
     8
 73
     4
 74
     0
 42
0.000000001
 43
0.00000001
 40
0.0
 40
0.0
 40
0.0
 40
0.0
 40
1.0
 40
1.0
 40
1.0
 40
1.0
 10
114.8553186500199
 20
397.7596564171386
 30
0.0
 10
114.8555932056266
 20
398.3665537255547
 30
0.0
 10
114.8558422723941
 20
398.9734366708667
 30
0.0
 10
114.8561937599557
 20
399.5803106470814
 30
0.0
  0
ARC
  5
179
330
1F
100
AcDbEntity
  8
0
  6
Continuous
 62
     7
370
    25
100
AcDbCircle
 10
284.8231707317
 20
386.2526377666
 30
0.0
 40
34.99999999999999
100
AcDbArc
 50
221.0094538587
 51
130.9003356401
  0
LWPOLYLINE
  5
17A
330
1F
100
AcDbEntity
  8
0
  6
Continuous
 62
     7
370
    25
100
AcDbPolyline
 90
        3
 70
   128
 43
0.0
 10
258.4526520771
 20
409.2655869204
 10
259.6279550893
 20
410.546693765
 10
261.9070876939
 20
412.7073751766
  0
ARC
  5
17B
330
1F
100
AcDbEntity
  8
0
  6
Continuous
 62
     7
370
    25
100
AcDbCircle
 10
134.8231707317
 20
386.2526377666
 30
0.0
 40
34.99999999999998
100
AcDbArc
 50
41.0678482228
 51
105.416723532
  0
ARC
  5
17C
330
1F
100
AcDbEntity
  8
0
  6
Continuous
 62
     7
370
    25
100
AcDbCircle
 10
134.8231707317
 20
386.2526377666
 30
0.0
 40
35.0
100
AcDbArc
 50
105.416723532
 51
318.9946107953
  0
SPLINE
  5
17D
330
1F
100
AcDbEntity
  8
0
  6
Continuous
 62
     8
370
    18
100
AcDbSpline
210
0.0
220
0.0
230
1.0
 70
     8
 71
     3
 72
    18
 73
    14
 74
     0
 42
0.000000001
 43
0.00000001
 40
0.0
 40
0.0
 40
0.0
 40
0.0
 40
0.25
 40
0.25
 40
0.375
 40
0.375
 40
0.5
 40
0.5
 40
0.625
 40
0.625
 40
0.75
 40
0.75
 40
1.0
 40
1.0
 40
1.0
 40
1.0
 10
189.4203754165046
 20
302.1210071211714
 30
0.0
 10
189.446387697707
 20
300.5035751056932
 30
0.0
 10
189.4783170453535
 20
298.8707096501791
 30
0.0
 10
189.9815767422543
 20
296.4886668035791
 30
0.0
 10
190.2391562075156
 20
295.6981363722974
 30
0.0
 10
190.9669666904184
 20
294.2330362791972
 30
0.0
 10
191.4474401914452
 20
293.5446559572372
 30
0.0
 10
192.6111282249127
 20
292.4047978113408
 30
0.0
 10
193.309166898392
 20
291.9380395034202
 30
0.0
 10
194.7861726563434
 20
291.2379482735676
 30
0.0
 10
195.5818902815483
 20
290.9936412369664
 30
0.0
 10
197.976261097741
 20
290.5282762932298
 30
0.0
 10
199.5927565258323
 20
290.520842262259
 30
0.0
 10
201.2039723216051
 20
290.5179075565309
 30
0.0
  0
SPLINE
  5
17E
330
1F
100
AcDbEntity
  8
0
  6
Continuous
 62
     8
370
    18
100
AcDbSpline
210
0.0
220
0.0
230
1.0
 70
     8
 71
     3
 72
    18
 73
    14
 74
     0
 42
0.000000001
 43
0.00000001
 40
0.0
 40
0.0
 40
0.0
 40
0.0
 40
0.2499999999999998
 40
0.2499999999999998
 40
0.3749999999999999
 40
0.3749999999999999
 40
0.4999999999999999
 40
0.4999999999999999
 40
0.6249999999999999
 40
0.6249999999999999
 40
0.75
 40
0.75
 40
1.0
 40
1.0
 40
1.0
 40
1.0
 10
218.4423691418158
 20
290.5179075565308
 30
0.0
 10
220.0582205012032
 20
290.5208507055601
 30
0.0
 10
221.7002202307116
 20
290.530341547694
 30
0.0
 10
224.090107176712
 20
291.0005728282087
 30
0.0
 10
224.8843067704582
 20
291.2465799523347
 30
0.0
 10
226.3612584400606
 20
291.9523577977128
 30
0.0
 10
227.0577630540174
 20
292.4221425749178
 30
0.0
 10
228.2164354866981
 20
293.5667409662407
 30
0.0
 10
228.691684811416
 20
294.2530612588458
 30
0.0
 10
229.4144983956867
 20
295.7177439094575
 30
0.0
 10
229.6692493074741
 20
296.5038730102009
 30
0.0
 10
230.1703944997168
 20
298.8941746068652
 30
0.0
 10
230.2000424246063
 20
300.5090878980382
 30
0.0
 10
230.2259660469162
 20
302.1210071211714
 30
0.0
  0
SPLINE
  5
17F
330
1F
100
AcDbEntity
  8
0
  6
Continuous
 62
     8
370
    18
100
AcDbSpline
210
0.0
220
0.0
230
1.0
 70
     8
 71
     3
 72
     8
 73
     4
 74
     0
 42
0.000000001
 43
0.00000001
 40
0.0
 40
0.0
 40
0.0
 40
0.0
 40
1.0
 40
1.0
 40
1.0
 40
1.0
 10
201.2096694802785
 20
290.5178981909539
 30
0.0
 10
204.0808738726832
 20
290.5149147947669
 30
0.0
 10
206.952015771408
 20
290.513505294003
 30
0.0
 10
209.8231707317105
 20
290.5135121499673
 30
0.0
  0
SPLINE
  5
180
330
1F
100
AcDbEntity
  8
0
  6
Continuous
 62
     8
370
    18
100
AcDbSpline
210
0.0
220
0.0
230
1.0
 70
     8
 71
     3
 72
     8
 73
     4
 74
     0
 42
0.000000001
 43
0.00000001
 40
0.0
 40
0.0
 40
0.0
 40
0.0
 40
1.0
 40
1.0
 40
1.0
 40
1.0
 10
209.8231707317104
 20
290.5135121499674
 30
0.0
 10
212.6943257394428
 20
290.5135052940058
 30
0.0
 10
215.5654676434361
 20
290.5149147946832
 30
0.0
 10
218.4366719831423
 20
290.517898190954
 30
0.0
  0
SPLINE
  5
181
330
1F
100
AcDbEntity
  8
0
  6
Continuous
 62
     8
370
    18
100
AcDbSpline
210
0.0
220
0.0
230
1.0
 70
     8
 71
     3
 72
    10
 73
     6
 74
     0
 42
0.000000001
 43
0.00000001
 40
0.0
 40
0.0
 40
0.0
 40
0.0
 40
0.5
 40
0.5
 40
1.0
 40
1.0
 40
1.0
 40
1.0
 10
231.00665857927
 20
358.4887411471607
 30
0.0
 10
231.0113743028155
 20
361.6242715048159
 30
0.0
 10
231.0144133665091
 20
364.7570335053027
 30
0.0
 10
230.9591676727626
 20
371.02491756417
 30
0.0
 10
230.9184959906853
 20
374.1587910833106
 30
0.0
 10
230.8807493527141
 20
377.2923062178278
 30
0.0
  0
SPLINE
  5
182
330
1F
100
AcDbEntity
  8
0
  6
Continuous
 62
     8
370
    18
100
AcDbSpline
210
0.0
220
0.0
230
1.0
 70
     8
 71
     3
 72
    12
 73
     8
 74
     0
 42
0.000000001
 43
0.00000001
 40
0.0
 40
0.0
 40
0.0
 40
0.0
 40
0.5
 40
0.5
 40
0.75
 40
0.75
 40
1.0
 40
1.0
 40
1.0
 40
1.0
 10
230.2264535806618
 20
302.1515761308074
 30
0.0
 10
230.3645692894474
 20
311.5412098128674
 30
0.0
 10
230.5029762114012
 20
320.9308387656371
 30
0.0
 10
230.7108778960571
 20
335.0152774238676
 30
0.0
 10
230.7802065040479
 20
339.7100898386691
 30
0.0
 10
230.9189938258121
 20
349.0997125407203
 30
0.0
 10
230.9845693332559
 20
353.7948942037605
 30
0.0
 10
231.0061867351972
 20
358.490642867166
 30
0.0
  0
SPLINE
  5
183
330
1F
100
AcDbEntity
  8
0
  6
Continuous
 62
     8
370
    18
100
AcDbSpline
210
0.0
220
0.0
230
1.0
 70
     8
 71
     3
 72
    10
 73
     6
 74
     0
 42
0.000000001
 43
0.00000001
 40
0.0
 40
0.0
 40
0.0
 40
0.0
 40
0.5000000000000001
 40
0.5000000000000001
 40
1.0
 40
1.0
 40
1.0
 40
1.0
 10
188.7655921107066
 20
377.2923062178278
 30
0.0
 10
188.7278454729215
 20
374.1587910833022
 30
0.0
 10
188.6871737906066
 20
371.0249175641791
 30
0.0
 10
188.6319280969632
 20
364.7570335052938
 30
0.0
 10
188.634967160578
 20
361.6242715048225
 30
0.0
 10
188.6396828841507
 20
358.4887411471606
 30
0.0
  0
SPLINE
  5
184
330
1F
100
AcDbEntity
  8
0
  6
Continuous
 62
     8
370
    18
100
AcDbSpline
210
0.0
220
0.0
230
1.0
 70
     8
 71
     3
 72
    12
 73
     8
 74
     0
 42
0.000000001
 43
0.00000001
 40
0.0
 40
0.0
 40
0.0
 40
0.0
 40
0.25
 40
0.25
 40
0.5
 40
0.5
 40
1.0
 40
1.0
 40
1.0
 40
1.0
 10
188.6401547282235
 20
358.4906428671659
 30
0.0
 10
188.6617708280412
 20
353.7951770556422
 30
0.0
 10
188.7273433777259
 20
349.1000005511369
 30
0.0
 10
188.8661315567171
 20
339.710320235434
 30
0.0
 10
188.9354605903748
 20
335.0154790257021
 30
0.0
 10
189.1433635537784
 20
320.9309539666637
 30
0.0
 10
189.2817713263325
 20
311.5412674137576
 30
0.0
 10
189.419887882759
 20
302.1515761308073
 30
0.0
  0
LWPOLYLINE
  5
185
330
1F
100
AcDbEntity
  8
0
  6
Continuous
 62
     8
370
    18
100
AcDbPolyline
 90
        9
 70
   128
 43
0.0
 10
209.823164168
 20
289.3175294626
 10
209.8231654132
 20
289.3322518099
 10
209.8231666133
 20
289.3936296928
 10
209.8231677247
 20
289.4994279373
 10
209.8231687073
 20
289.6458243955
 10
209.8231695253
 20
289.8275142539
 10
209.8231701491
 20
290.0378962982
 10
209.8231705562
 20
290.2693634856
 10
209.8231707317
 20
290.5135115612
  0
SPLINE
  5
186
330
1F
100
AcDbEntity
  8
0
  6
Continuous
 62
     8
370
    18
100
AcDbSpline
210
0.0
220
0.0
230
1.0
 70
     8
 71
     3
 72
    22
 73
    18
 74
     0
 42
0.000000001
 43
0.00000001
 40
0.0
 40
0.0
 40
0.0
 40
0.0
 40
0.125
 40
0.125
 40
0.2500000000000001
 40
0.2500000000000001
 40
0.3750000000000001
 40
0.3750000000000001
 40
0.5000000000000001
 40
0.5000000000000001
 40
0.6250000000000002
 40
0.6250000000000002
 40
0.7500000000000001
 40
0.7500000000000001
 40
0.8750000000000001
 40
0.8750000000000001
 40
1.0
 40
1.0
 40
1.0
 40
1.0
 10
230.8811046025853
 20
377.2923062178257
 30
0.0
 10
230.8610766700481
 20
378.6541008406979
 30
0.0
 10
230.8502039901534
 20
380.0110509205151
 30
0.0
 10
230.7844846575441
 20
382.7395018254533
 30
0.0
 10
230.6909631205354
 20
384.1121432015598
 30
0.0
 10
229.9873866399439
 20
386.8417308946454
 30
0.0
 10
229.4098193505194
 20
388.106790382823
 30
0.0
 10
227.8257663454787
 20
390.4331190941166
 30
0.0
 10
226.8624589717985
 20
391.4384357609144
 30
0.0
 10
224.6099776217534
 20
393.1208394562423
 30
0.0
 10
223.3703116383505
 20
393.7516890059906
 30
0.0
 10
220.6893521721107
 20
394.5826316744643
 30
0.0
 10
219.3252776167748
 20
394.7526241990184
 30
0.0
 10
216.6057144812049
 20
394.8742408026707
 30
0.0
 10
215.249828971395
 20
394.8683808351903
 30
0.0
 10
212.5373245109054
 20
394.8852204257819
 30
0.0
 10
211.1804483759268
 20
394.8884184662175
 30
0.0
 10
209.8231710350696
 20
394.8884229561971
 30
0.0
  0
SPLINE
  5
187
330
1F
100
AcDbEntity
  8
0
  6
Continuous
 62
     8
370
    18
100
AcDbSpline
210
0.0
220
0.0
230
1.0
 70
     8
 71
     3
 72
    24
 73
    20
 74
     0
 42
0.000000001
 43
0.00000001
 40
0.0
 40
0.0
 40
0.0
 40
0.0
 40
0.1249999999999999
 40
0.1249999999999999
 40
0.2499999999999997
 40
0.2499999999999997
 40
0.3749999999999996
 40
0.3749999999999996
 40
0.4999999999999993
 40
0.4999999999999993
 40
0.6249999999999996
 40
0.6249999999999996
 40
0.7499999999999997
 40
0.7499999999999997
 40
0.8124999999999998
 40
0.8124999999999998
 40
0.8749999999999998
 40
0.8749999999999998
 40
1.0
 40
1.0
 40
1.0
 40
1.0
 10
209.8231704283511
 20
394.8884229561971
 30
0.0
 10
208.4516488167378
 20
394.8884184190777
 30
0.0
 10
207.0801696335047
 20
394.8851684588521
 30
0.0
 10
204.3376468916654
 20
394.867884142309
 30
0.0
 10
202.9670381029804
 20
394.8752020701612
 30
0.0
 10
200.2124219141599
 20
394.7432252206509
 30
0.0
 10
198.8398002066808
 20
394.5573841131683
 30
0.0
 10
196.2074733753211
 20
393.7185586886841
 30
0.0
 10
194.9661160429461
 20
393.0761246915362
 30
0.0
 10
192.7624135329819
 20
391.4143171835091
 30
0.0
 10
191.7953027982653
 20
390.3992347585839
 30
0.0
 10
190.2433004736129
 20
388.1134759400788
 30
0.0
 10
189.6591825615958
 20
386.8332512469021
 30
0.0
 10
189.1390243634067
 20
384.8291901936718
 30
0.0
 10
189.0214711733715
 20
384.1390569617031
 30
0.0
 10
188.8760435552271
 20
382.7650195158532
 30
0.0
 10
188.8461638332637
 20
382.0782803042973
 30
0.0
 10
188.7959682155505
 20
380.0230508393525
 30
0.0
 10
188.7853524390287
 20
378.6600602856631
 30
0.0
 10
188.7652368608354
 20
377.2923062178257
 30
0.0
  0
LINE
  5
188
330
1F
100
AcDbEntity
  8
0
  6
Continuous
 62
     8
370
    18
100
AcDbLine
 10
187.504466678
 20
377.2922724489
 30
0.0
 11
187.4690950466
 21
368.5325158763
 31
0.0
  0
LINE
  5
189
330
1F
100
AcDbEntity
  8
0
  6
Continuous
 62
     8
370
    18
100
AcDbLine
 10
232.1772464169
 20
368.5325158763
 30
0.0
 11
232.1418747855
 21
377.2922724489
 31
0.0
  0
SPLINE
  5
18A
330
1F
100
AcDbEntity
  8
0
  6
Continuous
 62
     8
370
    18
100
AcDbSpline
210
0.0
220
0.0
230
1.0
 70
     8
 71
     3
 72
    24
 73
    20
 74
     0
 42
0.000000001
 43
0.00000001
 40
0.0
 40
0.0
 40
0.0
 40
0.0
 40
0.1249999999999999
 40
0.1249999999999999
 40
0.1874999999999999
 40
0.1874999999999999
 40
0.2499999999999999
 40
0.2499999999999999
 40
0.3749999999999998
 40
0.3749999999999998
 40
0.4999999999999998
 40
0.4999999999999998
 40
0.6249999999999998
 40
0.6249999999999998
 40
0.7499999999999999
 40
0.7499999999999999
 40
0.8749999999999999
 40
0.8749999999999999
 40
1.0
 40
1.0
 40
1.0
 40
1.0
 10
187.5043070803179
 20
377.294186604602
 30
0.0
 10
187.5235281496971
 20
378.6765908652283
 30
0.0
 10
187.5363047202972
 20
380.0111001773035
 30
0.0
 10
187.5951055322919
 20
382.1158634646408
 30
0.0
 10
187.6285039220768
 20
382.8353867037569
 30
0.0
 10
187.7895450232744
 20
384.310817853018
 30
0.0
 10
187.9193075955035
 20
385.0637539572004
 30
0.0
 10
188.4945350438707
 20
387.265052545518
 30
0.0
 10
189.139409379776
 20
388.6816426559978
 30
0.0
 10
190.8416263966437
 20
391.1986288808679
 30
0.0
 10
191.8979056084408
 20
392.3143517800639
 30
0.0
 10
194.3174435955437
 20
394.1518338884884
 30
0.0
 10
195.6859416409164
 20
394.867146937443
 30
0.0
 10
198.587926121936
 20
395.8046637435198
 30
0.0
 10
200.0840800630693
 20
396.0092003486235
 30
0.0
 10
202.9562535218334
 20
396.1670051887551
 30
0.0
 10
204.3121388171754
 20
396.1713921521762
 30
0.0
 10
207.0675029084256
 20
396.2072445675969
 30
0.0
 10
208.4453190134376
 20
396.2156559443717
 30
0.0
 10
209.8231707317103
 20
396.2156566414216
 30
0.0
  0
SPLINE
  5
18B
330
1F
100
AcDbEntity
  8
0
  6
Continuous
 62
     8
370
    18
100
AcDbSpline
210
0.0
220
0.0
230
1.0
 70
     8
 71
     3
 72
    22
 73
    18
 74
     0
 42
0.000000001
 43
0.00000001
 40
0.0
 40
0.0
 40
0.0
 40
0.0
 40
0.1250000000000001
 40
0.1250000000000001
 40
0.2500000000000001
 40
0.2500000000000001
 40
0.3750000000000002
 40
0.3750000000000002
 40
0.5000000000000002
 40
0.5000000000000002
 40
0.6250000000000001
 40
0.6250000000000001
 40
0.7500000000000002
 40
0.7500000000000002
 40
0.8750000000000001
 40
0.8750000000000001
 40
1.0
 40
1.0
 40
1.0
 40
1.0
 10
209.8231707317103
 20
396.2156566414216
 30
0.0
 10
211.1867182149363
 20
396.2156559515614
 30
0.0
 10
212.5498510707605
 20
396.2074145063793
 30
0.0
 10
215.2750663458293
 20
396.1723622719301
 30
0.0
 10
216.6162951993035
 20
396.1665299967894
 30
0.0
 10
219.4462368624639
 20
396.0198084230112
 30
0.0
 10
220.9307830233164
 20
395.8326229541814
 30
0.0
 10
223.8833632500066
 20
394.904416449981
 30
0.0
 10
225.2515916046882
 20
394.2014465782883
 30
0.0
 10
227.7250353287074
 20
392.3408558366945
 30
0.0
 10
228.7770259735402
 20
391.235920936023
 30
0.0
 10
230.5143375711372
 20
388.674300574817
 30
0.0
 10
231.1520598799984
 20
387.2741784626884
 30
0.0
 10
231.9301208908089
 20
384.276327079586
 30
0.0
 10
232.0328111044785
 20
382.7924507112175
 30
0.0
 10
232.1098805791465
 20
379.9993892048031
 30
0.0
 10
232.1228979417502
 20
378.6705043079967
 30
0.0
 10
232.1420343831029
 20
377.2941866046019
 30
0.0
  0
ARC
  5
18C
330
1F
100
AcDbEntity
  8
0
  6
Continuous
 62
     8
370
    18
100
AcDbCircle
 10
284.8231707317
 20
386.2526377666
 30
0.0
 40
32.60585337309742
100
AcDbArc
 50
224.7782717739
 51
135.1197030294
  0
ARC
  5
18D
330
1F
100
AcDbEntity
  8
0
  6
Continuous
 62
     8
370
    18
100
AcDbCircle
 10
134.8231707317
 20
386.2526377666
 30
0.0
 40
32.60585337309747
100
AcDbArc
 50
44.862909681
 51
105.416723532
  0
ARC
  5
18E
330
1F
100
AcDbEntity
  8
0
  6
Continuous
 62
     8
370
    18
100
AcDbCircle
 10
134.8231707317
 20
386.2526377666
 30
0.0
 40
32.60585337309746
100
AcDbArc
 50
105.416723532
 51
315.2263664358
  0
ARC
  5
18F
330
1F
100
AcDbEntity
  8
0
  6
Continuous
 62
     8
370
    18
100
AcDbCircle
 10
284.8231707317
 20
386.2526377666
 30
0.0
 40
34.58178191833579
100
AcDbArc
 50
221.6147856676
 51
130.9003356401
  0
LWPOLYLINE
  5
190
330
1F
100
AcDbEntity
  8
0
  6
Continuous
 62
     8
370
    18
100
AcDbPolyline
 90
        3
 70
   128
 43
0.0
 10
258.9923013551
 20
409.2453716326
 10
259.8978113932
 20
410.2239979434
 10
262.1809151572
 20
412.3912656683
  0
ARC
  5
191
330
1F
100
AcDbEntity
  8
0
  6
Continuous
 62
     8
370
    18
100
AcDbCircle
 10
134.8231707317
 20
386.2526377666
 30
0.0
 40
34.58178191833583
100
AcDbArc
 50
41.6357149679
 51
105.416723532
  0
ARC
  5
192
330
1F
100
AcDbEntity
  8
0
  6
Continuous
 62
     8
370
    18
100
AcDbCircle
 10
134.8231707317
 20
386.2526377666
 30
0.0
 40
34.58178191833581
100
AcDbArc
 50
105.416723532
 51
318.3893665148
  0
LINE
  5
193
330
1F
100
AcDbEntity
  8
0
  6
Continuous
 62
     7
370
    25
100
AcDbLine
 10
99.8231713278
 20
213.5731196493
 30
0.0
 11
100.2413873178
 21
189.6134196311
 31
0.0
  0
LINE
  5
194
330
1F
100
AcDbEntity
  8
0
  6
Continuous
 62
     7
370
    25
100
AcDbLine
 10
169.4049519104
 20
189.6134196311
 30
0.0
 11
169.8231716258
 21
213.5731196493
 31
0.0
  0
LINE
  5
195
330
1F
100
AcDbEntity
  8
0
  6
Continuous
 62
     7
370
    25
100
AcDbLine
 10
249.8231698376
 20
213.5731196493
 30
0.0
 11
250.241389553
 21
189.6134196311
 31
0.0
  0
LINE
  5
196
330
1F
100
AcDbEntity
  8
0
  6
Continuous
 62
     7
370
    25
100
AcDbLine
 10
319.4049541456
 20
189.6134196311
 30
0.0
 11
319.8231701357
 21
213.5731196493
 31
0.0
  0
ARC
  5
197
330
1F
100
AcDbEntity
  8
0
  6
Continuous
 62
     7
370
    25
100
AcDbCircle
 10
102.2410842037
 20
189.648323596
 30
0.0
 40
1.999999999999894
100
AcDbArc
 50
181.0
 51
269.3191140165
  0
ARC
  5
198
330
1F
100
AcDbEntity
  8
0
  6
Continuous
 62
     7
370
    25
100
AcDbCircle
 10
167.4052572597
 20
189.648323596
 30
0.0
 40
1.999999999999865
100
AcDbArc
 50
270.6808859835
 51
359.0
  0
ARC
  5
199
330
1F
100
AcDbEntity
  8
0
  6
Continuous
 62
     7
370
    25
100
AcDbCircle
 10
252.2410842037
 20
189.648323596
 30
0.0
 40
1.999999999999865
100
AcDbArc
 50
181.0
 51
269.3191140165
  0
ARC
  5
19A
330
1F
100
AcDbEntity
  8
0
  6
Continuous
 62
     7
370
    25
100
AcDbCircle
 10
317.4052572597
 20
189.648323596
 30
0.0
 40
1.999999999999866
100
AcDbArc
 50
270.6808859835
 51
359.0
  0
ARC
  5
19B
330
1F
100
AcDbEntity
  8
0
  6
Continuous
 62
     7
370
    25
100
AcDbCircle
 10
266.4774244031
 20
1387.5637323866
 30
0.0
 40
1200.0
100
AcDbArc
 50
269.3191140165
 51
270.0
  0
ARC
  5
19C
330
1F
100
AcDbEntity
  8
0
  6
Continuous
 62
     7
370
    25
100
AcDbCircle
 10
303.1689170603
 20
1387.5637323866
 30
0.0
 40
1200.0
100
AcDbArc
 50
270.0
 51
270.6808859835
  0
LINE
  5
19D
330
1F
100
AcDbEntity
  8
0
  6
Continuous
 62
     7
370
    25
100
AcDbLine
 10
266.4774228436
 20
187.5637313813
 30
0.0
 11
303.1689171297
 21
187.5637313813
 31
0.0
  0
ARC
  5
19E
330
1F
100
AcDbEntity
  8
0
  6
Continuous
 62
     7
370
    25
100
AcDbCircle
 10
116.4774244031
 20
1387.5637323866
 30
0.0
 40
1200.0
100
AcDbArc
 50
269.3191140165
 51
270.0
  0
ARC
  5
19F
330
1F
100
AcDbEntity
  8
0
  6
Continuous
 62
     7
370
    25
100
AcDbCircle
 10
153.1689170603
 20
1387.5637323866
 30
0.0
 40
1200.0
100
AcDbArc
 50
270.0
 51
270.6808859835
  0
LINE
  5
1A0
330
1F
100
AcDbEntity
  8
0
  6
Continuous
 62
     7
370
    25
100
AcDbLine
 10
116.4774243337
 20
187.5637313813
 30
0.0
 11
153.1689186198
 21
187.5637313813
 31
0.0
  0
LINE
  5
1A1
330
1F
100
AcDbEntity
  8
0
  6
Continuous
 62
     7
370
    25
100
AcDbLine
 10
237.3566087884
 20
140.1333025886
 30
0.0
 11
281.8231676323
 21
140.1333025886
 31
0.0
  0
LINE
  5
1A2
330
1F
100
AcDbEntity
  8
0
  6
Continuous
 62
     7
370
    25
100
AcDbLine
 10
137.8231738312
 20
140.1333025886
 30
0.0
 11
182.289732675
 21
140.1333025886
 31
0.0
  0
SPLINE
  5
1A3
330
1F
100
AcDbEntity
  8
0
  6
Continuous
 62
     7
370
    25
100
AcDbSpline
210
0.0
220
0.0
230
1.0
 70
     8
 71
     3
 72
    29
 73
    25
 74
     0
 42
0.000000001
 43
0.00000001
 40
0.0
 40
0.0
 40
0.0
 40
0.0
 40
0.0660946953631135
 40
0.1304813292632909
 40
0.1625228734329811
 40
0.1949511905873365
 40
0.2281487439170493
 40
0.2619747839574454
 40
0.3318410824531654
 40
0.4040127270528114
 40
0.4759158168248219
 40
0.5446809315834903
 40
0.585350136981592
 40
0.6199298438341417
 40
0.6501144724935455
 40
0.6891086725320508
 40
0.7224930225807757
 40
0.7452503010003485
 40
0.771053967882596
 40
0.8003784184162799
 40
0.8319614363490143
 40
0.8762779540587551
 40
0.9338970097285342
 40
1.0
 40
1.0
 40
1.0
 40
1.0
 10
259.1428366107214
 20
169.5731161624165
 30
0.0
 10
257.6784206413002
 20
169.6036831587541
 30
0.0
 10
254.7874330781574
 20
169.6640272195264
 30
0.0
 10
251.1349927493767
 20
170.3767739507097
 30
0.0
 10
248.3732256925072
 20
171.4072909052458
 30
0.0
 10
246.3752776709435
 20
172.4319034520979
 30
0.0
 10
244.4781707496305
 20
173.7230525748777
 30
0.0
 10
242.1036058190117
 20
175.7642988476329
 30
0.0
 10
239.4842506116072
 20
178.7679977929459
 30
0.0
 10
236.7392913591598
 20
182.6603130990081
 30
0.0
 10
234.1481275630833
 20
186.5605077690777
 30
0.0
 10
231.7865305052077
 20
189.7493002455277
 30
0.0
 10
229.6625016852628
 20
192.0470406334966
 30
0.0
 10
227.9881655152146
 20
193.547307073905
 30
0.0
 10
226.2632842789961
 20
194.8431988608445
 30
0.0
 10
224.5121099170079
 20
195.913256027593
 30
0.0
 10
222.9966972491404
 20
196.662244628748
 30
0.0
 10
221.8229242933426
 20
197.1676633042336
 30
0.0
 10
220.7419166196535
 20
197.586689320532
 30
0.0
 10
219.547069587193
 20
197.9995312986873
 30
0.0
 10
218.2895277023613
 20
198.3888435042527
 30
0.0
 10
216.7738733381275
 20
198.8048233920618
 30
0.0
 10
214.8956346058615
 20
199.2543515476016
 30
0.0
 10
213.4663631532812
 20
199.4677292008237
 30
0.0
 10
212.7027230420429
 20
199.5817339509697
 30
0.0
  0
SPLINE
  5
1A4
330
1F
100
AcDbEntity
  8
0
  6
Continuous
 62
     7
370
    25
100
AcDbSpline
210
0.0
220
0.0
230
1.0
 70
     8
 71
     3
 72
    29
 73
    25
 74
     0
 42
0.000000001
 43
0.00000001
 40
0.0
 40
0.0
 40
0.0
 40
0.0
 40
0.055639605844198
 40
0.1045454339435201
 40
0.1426886598750029
 40
0.1718480725479846
 40
0.1984061913225081
 40
0.2237754439500286
 40
0.2481366085026446
 40
0.2896638996180903
 40
0.3316018523607013
 40
0.3763707997085934
 40
0.4262267030857772
 40
0.4846732732465732
 40
0.551886334961606
 40
0.6259836493964626
 40
0.7015609995021597
 40
0.7384828719467508
 40
0.7747596937190779
 40
0.8106337700069494
 40
0.8465574840597656
 40
0.8954465998765384
 40
0.9465249473503813
 40
1.0
 40
1.0
 40
1.0
 40
1.0
 10
206.9978621405829
 20
199.5920381039353
 30
0.0
 10
206.5222139078057
 20
199.5251321389159
 30
0.0
 10
205.6284827221569
 20
199.399417496617
 30
0.0
 10
204.205368564974
 20
199.1042224902956
 30
0.0
 10
202.8708825360248
 20
198.7940890695483
 30
0.0
 10
201.418024243574
 20
198.4069306841723
 30
0.0
 10
200.2167565375665
 20
198.0370329206606
 30
0.0
 10
199.1760707348849
 20
197.6824607963656
 30
0.0
 10
197.9663996408237
 20
197.2318359029215
 30
0.0
 10
196.2923111083806
 20
196.5173516606462
 30
0.0
 10
194.1131663760104
 20
195.333323390812
 30
0.0
 10
191.8104137079768
 20
193.7092639232483
 30
0.0
 10
189.4209850885782
 20
191.5260204644399
 30
0.0
 10
186.9638472484831
 20
188.6135900838107
 30
0.0
 10
184.4583319366878
 20
185.0097302998655
 30
0.0
 10
181.769709793485
 20
180.9785229106523
 30
0.0
 10
179.2364584565961
 20
177.6457058392521
 30
0.0
 10
176.9367928682783
 20
175.2374969350703
 30
0.0
 10
175.0769486230637
 20
173.6436460029092
 30
0.0
 10
173.0498659011553
 20
172.2883423566013
 30
0.0
 10
170.5910797180578
 20
171.0832366049886
 30
0.0
 10
167.6247994673681
 20
170.1546840419746
 30
0.0
 10
164.1342081364128
 20
169.6412472540445
 30
0.0
 10
161.7320940456246
 20
169.596170958233
 30
0.0
 10
160.5035048526991
 20
169.5731161624165
 30
0.0
  0
ARC
  5
1A5
330
1F
100
AcDbEntity
  8
0
  6
Continuous
 62
     7
370
    25
100
AcDbCircle
 10
124.8231707316
 20
183.6044896685
 30
0.0
 40
5.999999999875715
100
AcDbArc
 50
138.6315026427
 51
180.0000000009
  0
ARC
  5
1A6
330
1F
100
AcDbEntity
  8
0
  6
Continuous
 62
     7
370
    25
100
AcDbCircle
 10
144.8231707318
 20
183.6044896685
 30
0.0
 40
5.99999999987574
100
AcDbArc
 50
359.9999999991
 51
41.3684973573
  0
ARC
  5
1A7
330
1F
100
AcDbEntity
  8
0
  6
Continuous
 62
     7
370
    25
100
AcDbCircle
 10
274.8231707316
 20
183.6044896685
 30
0.0
 40
5.999999999875669
100
AcDbArc
 50
138.6315026427
 51
180.0000000009
  0
ARC
  5
1A8
330
1F
100
AcDbEntity
  8
0
  6
Continuous
 62
     7
370
    25
100
AcDbCircle
 10
294.8231707318
 20
183.6044896685
 30
0.0
 40
5.999999999875712
100
AcDbArc
 50
359.9999999991
 51
41.3684973573
  0
ARC
  5
1A9
330
1F
100
AcDbEntity
  8
0
  6
Continuous
 62
     7
370
    25
100
AcDbCircle
 10
124.8231707317
 20
174.5417436016
 30
0.0
 40
6.000000000000061
100
AcDbArc
 50
180.0
 51
221.4096221093
  0
ARC
  5
1AA
330
1F
100
AcDbEntity
  8
0
  6
Continuous
 62
     7
370
    25
100
AcDbCircle
 10
144.8231707317
 20
174.5417436016
 30
0.0
 40
6.000000000000104
100
AcDbArc
 50
318.5903778907
 51
360.0
  0
ARC
  5
1AB
330
1F
100
AcDbEntity
  8
0
  6
Continuous
 62
     7
370
    25
100
AcDbCircle
 10
274.8231707317
 20
174.5417436016
 30
0.0
 40
6.000000000000057
100
AcDbArc
 50
180.0
 51
221.4096221093
  0
ARC
  5
1AC
330
1F
100
AcDbEntity
  8
0
  6
Continuous
 62
     7
370
    25
100
AcDbCircle
 10
294.8231707317
 20
174.5417436016
 30
0.0
 40
6.000000000000043
100
AcDbArc
 50
318.5903778907
 51
360.0
  0
SPLINE
  5
1AD
330
1F
100
AcDbEntity
  8
0
  6
Continuous
 62
     7
370
    25
100
AcDbSpline
210
0.0
220
0.0
230
1.0
 70
     8
 71
     3
 72
     9
 73
     5
 74
     0
 42
0.000000001
 43
0.00000001
 40
0.0
 40
0.0
 40
0.0
 40
0.0
 40
0.4060771052249634
 40
1.0
 40
1.0
 40
1.0
 40
1.0
 10
232.6681707603205
 20
120.1506527602644
 30
0.0
 10
232.7383210122962
 20
122.168397987798
 30
0.0
 10
232.9110720762519
 20
127.1372701590468
 30
0.0
 10
232.9776448190449
 20
132.1139797216008
 30
0.0
 10
233.0171838951577
 20
135.0697614714475
 30
0.0
  0
LINE
  5
1AE
330
1F
100
AcDbEntity
  8
0
  6
Continuous
 62
     7
370
    25
100
AcDbLine
 10
232.5934470249
 20
117.8058134854
 30
0.0
 11
232.6681707603
 21
120.1506527603
 31
0.0
  0
LINE
  5
1AF
330
1F
100
AcDbEntity
  8
0
  6
Continuous
 62
     7
370
    25
100
AcDbLine
 10
186.9790442837
 20
120.1233817726
 30
0.0
 11
187.0528944386
 21
117.8058134854
 31
0.0
  0
SPLINE
  5
1B0
330
1F
100
AcDbEntity
  8
0
  6
Continuous
 62
     7
370
    25
100
AcDbSpline
210
0.0
220
0.0
230
1.0
 70
     8
 71
     3
 72
     9
 73
     5
 74
     0
 42
0.000000001
 43
0.00000001
 40
0.0
 40
0.0
 40
0.0
 40
0.0
 40
0.5927390881354804
 40
1.0
 40
1.0
 40
1.0
 40
1.0
 10
186.6291575682629
 20
135.0696934848995
 30
0.0
 10
186.6687141270056
 20
132.1143795733414
 30
0.0
 10
186.7354493221944
 20
127.1285199080805
 30
0.0
 10
186.9085479703747
 20
122.1506667776581
 30
0.0
 10
186.9790442836751
 20
120.1233817726345
 30
0.0
  0
SPLINE
  5
1B1
330
1F
100
AcDbEntity
  8
0
  6
Continuous
 62
     7
370
    25
100
AcDbSpline
210
0.0
220
0.0
230
1.0
 70
     8
 71
     3
 72
     9
 73
     5
 74
     0
 42
0.000000001
 43
0.00000001
 40
0.0
 40
0.0
 40
0.0
 40
0.0
 40
0.5029953592762133
 40
0.9999999999999999
 40
0.9999999999999999
 40
0.9999999999999999
 40
0.9999999999999999
 10
124.3427787524927
 20
140.2836245713727
 30
0.0
 10
126.6027780815982
 20
140.2411268427739
 30
0.0
 10
131.0958599508972
 20
140.1566375372266
 30
0.0
 10
135.5897096673563
 20
140.1415301739032
 30
0.0
 10
137.8231738311518
 20
140.1340217442223
 30
0.0
  0
SPLINE
  5
1B2
330
1F
100
AcDbEntity
  8
0
  6
Continuous
 62
     7
370
    25
100
AcDbSpline
210
0.0
220
0.0
230
1.0
 70
     8
 71
     3
 72
     9
 73
     5
 74
     0
 42
0.000000001
 43
0.00000001
 40
0.0
 40
0.0
 40
0.0
 40
0.0
 40
0.4970046407237866
 40
0.9999999999999999
 40
0.9999999999999999
 40
0.9999999999999999
 40
0.9999999999999999
 10
281.8231676322687
 20
140.1340217442223
 30
0.0
 10
284.0566317960642
 20
140.1415301739032
 30
0.0
 10
288.5504815125234
 20
140.1566375372266
 30
0.0
 10
293.0435633818223
 20
140.2411268427739
 30
0.0
 10
295.3035627109278
 20
140.2836245713727
 30
0.0
  0
SPLINE
  5
1B3
330
1F
100
AcDbEntity
  8
0
  6
Continuous
 62
     7
370
    25
100
AcDbSpline
210
0.0
220
0.0
230
1.0
 70
     8
 71
     3
 72
    12
 73
     8
 74
     0
 42
0.000000001
 43
0.00000001
 40
0.0
 40
0.0
 40
0.0
 40
0.0
 40
0.1567813956556065
 40
0.3439444420010246
 40
0.55423200084908
 40
0.7802028436631788
 40
1.0
 40
1.0
 40
1.0
 40
1.0
 10
304.7977332574595
 20
142.0279067704426
 30
0.0
 10
304.707673409368
 20
143.3949694730619
 30
0.0
 10
304.510101598829
 20
146.3940091006058
 30
0.0
 10
303.8600679440092
 20
151.1935034288559
 30
0.0
 10
303.0296023992393
 20
156.5752333202557
 30
0.0
 10
302.0622316520573
 20
162.2244489891401
 30
0.0
 10
301.3802799388246
 20
166.0583525983305
 30
0.0
 10
301.0440264446009
 20
167.9487554818363
 30
0.0
  0
SPLINE
  5
1B4
330
1F
100
AcDbEntity
  8
0
  6
Continuous
 62
     7
370
    25
100
AcDbSpline
210
0.0
220
0.0
230
1.0
 70
     8
 71
     3
 72
    12
 73
     8
 74
     0
 42
0.000000001
 43
0.00000001
 40
0.0
 40
0.0
 40
0.0
 40
0.0
 40
0.2197928108415637
 40
0.4457660057947782
 40
0.6560654677349949
 40
0.8432309212993726
 40
1.0
 40
1.0
 40
1.0
 40
1.0
 10
118.6023150188196
 20
167.9487554818363
 30
0.0
 10
118.2660668292102
 20
166.0583991163964
 30
0.0
 10
117.5841154411551
 20
162.2245311963108
 30
0.0
 10
116.6167663184865
 20
156.5753821643461
 30
0.0
 10
115.7863670679249
 20
151.1940593307472
 30
0.0
 10
115.1362805065434
 20
146.3945106191463
 30
0.0
 10
114.9386777012519
 20
143.3950797794243
 30
0.0
 10
114.8486082059611
 20
142.0279067704426
 30
0.0
  0
SPLINE
  5
1B5
330
1F
100
AcDbEntity
  8
0
  6
Continuous
 62
     7
370
    25
100
AcDbSpline
210
0.0
220
0.0
230
1.0
 70
     8
 71
     3
 72
     9
 73
     5
 74
     0
 42
0.000000001
 43
0.00000001
 40
0.0
 40
0.0
 40
0.0
 40
0.0
 40
0.5161543198777051
 40
1.0
 40
1.0
 40
1.0
 40
1.0
 10
115.4374275905359
 20
140.9187848064787
 30
0.0
 10
115.5558211869183
 20
140.8441606274292
 30
0.0
 10
115.7851975416688
 20
140.6995833640496
 30
0.0
 10
116.0510819250813
 20
140.6601006028208
 30
0.0
 10
116.1797289354075
 20
140.6409970393609
 30
0.0
  0
SPLINE
  5
1B6
330
1F
100
AcDbEntity
  8
0
  6
Continuous
 62
     7
370
    25
100
AcDbSpline
210
0.0
220
0.0
230
1.0
 70
     8
 71
     3
 72
     9
 73
     5
 74
     0
 42
0.000000001
 43
0.00000001
 40
0.0
 40
0.0
 40
0.0
 40
0.0
 40
0.4838456801222949
 40
1.0
 40
1.0
 40
1.0
 40
1.0
 10
303.4666125280131
 20
140.6409970393609
 30
0.0
 10
303.5952595383392
 20
140.6601006028208
 30
0.0
 10
303.8611439217516
 20
140.6995833640496
 30
0.0
 10
304.0905202765022
 20
140.8441606274292
 30
0.0
 10
304.2089138728846
 20
140.9187848064787
 30
0.0
  0
LINE
  5
1B7
330
1F
100
AcDbEntity
  8
0
  6
Continuous
 62
     7
370
    25
100
AcDbLine
 10
231.3231714619
 20
139.2453690521
 30
0.0
 11
231.3231714619
 21
140.1396602621
 31
0.0
  0
LINE
  5
1B8
330
1F
100
AcDbEntity
  8
0
  6
Continuous
 62
     7
370
    25
100
AcDbLine
 10
188.3231700016
 20
140.1396602621
 30
0.0
 11
188.3231700016
 21
139.2453690521
 31
0.0
  0
ARC
  5
1B9
330
1F
100
AcDbEntity
  8
0
  6
Continuous
 62
     7
370
    25
100
AcDbCircle
 10
198.3231707317
 20
139.2453690559
 30
0.0
 40
9.999999999999979
100
AcDbArc
 50
180.0
 51
189.0468459803
  0
ARC
  5
1BA
330
1F
100
AcDbEntity
  8
0
  6
Continuous
 62
     7
370
    25
100
AcDbCircle
 10
221.3231707317
 20
139.2453690559
 30
0.0
 40
10.0
100
AcDbArc
 50
350.9531540197
 51
0.0
  0
ARC
  5
1BB
330
1F
100
AcDbEntity
  8
0
  6
Continuous
 62
     7
370
    25
100
AcDbCircle
 10
209.8231707317
 20
141.0764298309
 30
0.0
 40
21.64486082191338
100
AcDbArc
 50
189.0468459803
 51
195.6885326843
  0
ARC
  5
1BC
330
1F
100
AcDbEntity
  8
0
  6
Continuous
 62
     7
370
    25
100
AcDbCircle
 10
209.8231707317
 20
141.0764298309
 30
0.0
 40
21.64486082191334
100
AcDbArc
 50
344.3114673157
 51
350.9531540197
  0
LINE
  5
1BD
330
1F
100
AcDbEntity
  8
0
  6
Continuous
 62
     7
370
    25
100
AcDbLine
 10
124.3231688244
 20
170.5731163263
 30
0.0
 11
124.3231688244
 21
169.5731161624
 31
0.0
  0
LINE
  5
1BE
330
1F
100
AcDbEntity
  8
0
  6
Continuous
 62
     7
370
    25
100
AcDbLine
 10
145.3231741292
 20
169.5731161624
 30
0.0
 11
145.3231741292
 21
170.5731163263
 31
0.0
  0
LINE
  5
1BF
330
1F
100
AcDbEntity
  8
0
  6
Continuous
 62
     7
370
    25
100
AcDbLine
 10
274.3231673342
 20
170.5731163263
 30
0.0
 11
274.3231673342
 21
169.5731161624
 31
0.0
  0
LINE
  5
1C0
330
1F
100
AcDbEntity
  8
0
  6
Continuous
 62
     7
370
    25
100
AcDbLine
 10
295.3231726391
 20
169.5731161624
 30
0.0
 11
295.3231726391
 21
170.5731163263
 31
0.0
  0
LINE
  5
1C1
330
1F
100
AcDbEntity
  8
0
  6
Continuous
 62
     7
370
    25
100
AcDbLine
 10
228.9244440002
 20
140.1419830388
 30
0.0
 11
237.3566087884
 21
140.133817901
 31
0.0
  0
LINE
  5
1C2
330
1F
100
AcDbEntity
  8
0
  6
Continuous
 62
     7
370
    25
100
AcDbLine
 10
182.289732675
 20
140.133817901
 30
0.0
 11
190.8037439538
 21
140.1420623177
 31
0.0
  0
ARC
  5
1C3
330
1F
100
AcDbEntity
  8
0
  6
Continuous
 62
     7
370
    25
100
AcDbCircle
 10
120.5664004647
 20
167.5731166571
 30
0.0
 40
1.999999999999992
100
AcDbArc
 50
90.0025955338
 51
169.1200730166
  0
ARC
  5
1C4
330
1F
100
AcDbEntity
  8
0
  6
Continuous
 62
     7
370
    25
100
AcDbCircle
 10
299.0799409988
 20
167.5731166571
 30
0.0
 40
2.00000000000002
100
AcDbArc
 50
10.8272614932
 51
89.9974044662
  0
LINE
  5
1C5
330
1F
100
AcDbEntity
  8
0
  6
Continuous
 62
     7
370
    25
100
AcDbLine
 10
300.823168884
 20
174.5417444497
 30
0.0
 11
300.823168884
 21
183.6044891268
 31
0.0
  0
LINE
  5
1C6
330
1F
100
AcDbEntity
  8
0
  6
Continuous
 62
     7
370
    25
100
AcDbLine
 10
150.8231703741
 20
174.5417444497
 30
0.0
 11
150.8231703741
 21
183.6044891268
 31
0.0
  0
LINE
  5
1C7
330
1F
100
AcDbEntity
  8
0
  6
Continuous
 62
     7
370
    25
100
AcDbLine
 10
268.8231710893
 20
183.6044891268
 30
0.0
 11
268.8231710893
 21
174.5417444497
 31
0.0
  0
LINE
  5
1C8
330
1F
100
AcDbEntity
  8
0
  6
Continuous
 62
     7
370
    25
100
AcDbLine
 10
118.8231725795
 20
183.6044891268
 30
0.0
 11
118.8231725795
 21
174.5417444497
 31
0.0
  0
SPLINE
  5
1C9
330
1F
100
AcDbEntity
  8
0
  6
Continuous
 62
     7
370
    25
100
AcDbSpline
210
0.0
220
0.0
230
1.0
 70
     8
 71
     3
 72
    17
 73
    13
 74
     0
 42
0.000000001
 43
0.00000001
 40
0.0
 40
0.0
 40
0.0
 40
0.0
 40
0.0262624424403877
 40
0.1671130985185087
 40
0.3191083820515321
 40
0.4703803044291449
 40
0.5405530884172313
 40
0.6081492717175059
 40
0.6789167791226868
 40
0.7606223970526325
 40
0.8844684719286116
 40
1.0
 40
1.0
 40
1.0
 40
1.0
 10
232.226401622342
 20
106.965380766985
 30
0.0
 10
232.2260439757523
 20
106.998501911058
 30
0.0
 10
232.2237681999977
 20
107.2092582801611
 30
0.0
 10
232.2038732166604
 20
107.5276956621593
 30
0.0
 10
232.200982691518
 20
107.7846885807464
 30
0.0
 10
232.1981614768187
 20
108.1009929767369
 30
0.0
 10
232.220757904792
 20
108.7850904180301
 30
0.0
 10
232.2555114643455
 20
109.5925330323835
 30
0.0
 10
232.30797002731
 20
110.7948519067414
 30
0.0
 10
232.3809841846636
 20
112.5152470929747
 30
0.0
 10
232.4664573418085
 20
114.5483002761807
 30
0.0
 10
232.525982602056
 20
116.0651025292442
 30
0.0
 10
232.5547114563454
 20
116.7971613347502
 30
0.0
  0
SPLINE
  5
1CA
330
1F
100
AcDbEntity
  8
0
  6
Continuous
 62
     7
370
    25
100
AcDbSpline
210
0.0
220
0.0
230
1.0
 70
     8
 71
     3
 72
    13
 73
     9
 74
     0
 42
0.000000001
 43
0.00000001
 40
0.0
 40
0.0
 40
0.0
 40
0.0
 40
0.2070672308780658
 40
0.3727510763342243
 40
0.5307693556763532
 40
0.6794117762163111
 40
0.8190418079887299
 40
1.0
 40
1.0
 40
1.0
 40
1.0
 10
187.1904731345643
 20
114.3238982647629
 30
0.0
 10
187.217712508242
 20
113.6618686664028
 30
0.0
 10
187.2667473353077
 20
112.470119279948
 30
0.0
 10
187.3361044009148
 20
110.8817552266183
 30
0.0
 10
187.3938745657976
 20
109.5870852270791
 30
0.0
 10
187.4348294497946
 20
108.5251940275905
 30
0.0
 10
187.4573084772087
 20
107.5699892562892
 30
0.0
 10
187.4556974336261
 20
107.2264735773174
 30
0.0
 10
187.4547880691756
 20
107.0325738280983
 30
0.0
  0
LINE
  5
1CB
330
1F
100
AcDbEntity
  8
0
  6
Continuous
 62
     7
370
    25
100
AcDbLine
 10
187.4186397148
 20
106.9606570989
 30
0.0
 11
187.4732859982
 21
106.5219743639
 31
0.0
  0
LINE
  5
1CC
330
1F
100
AcDbEntity
  8
0
  6
Continuous
 62
     7
370
    25
100
AcDbLine
 10
232.1730573279
 20
106.5219780892
 30
0.0
 11
232.2277017487
 21
106.9606570989
 31
0.0
  0
SPLINE
  5
1CD
330
1F
100
AcDbEntity
  8
0
  6
Continuous
 62
     7
370
    25
100
AcDbSpline
210
0.0
220
0.0
230
1.0
 70
     8
 71
     3
 72
    19
 73
    15
 74
     0
 42
0.000000001
 43
0.00000001
 40
0.0
 40
0.0
 40
0.0
 40
0.0
 40
0.1071673777839341
 40
0.2071831467122881
 40
0.2940469122287785
 40
0.3677584019633907
 40
0.4283173461474861
 40
0.4798456846089799
 40
0.5323671658518975
 40
0.6083232105015742
 40
0.6871094050575186
 40
0.7745943357325071
 40
0.878854996365776
 40
1.0
 40
1.0
 40
1.0
 40
1.0
 10
230.9650183272828
 20
105.1826095670433
 30
0.0
 10
230.994606494938
 20
105.2068814889485
 30
0.0
 10
231.0518083207832
 20
105.2538055927293
 30
0.0
 10
231.1330807649625
 20
105.3204360683214
 30
0.0
 10
231.2051296048089
 20
105.379476140765
 30
0.0
 10
231.266348010988
 20
105.4296319301792
 30
0.0
 10
231.3176391918568
 20
105.4716476257245
 30
0.0
 10
231.363574675315
 20
105.5092604775754
 30
0.0
 10
231.4168220270609
 20
105.5528414709496
 30
0.0
 10
231.4840195178346
 20
105.6079721217239
 30
0.0
 10
231.5567919962708
 20
105.6675788404651
 30
0.0
 10
231.6882797165343
 20
105.7776315129184
 30
0.0
 10
231.9375015856936
 20
106.0142454926088
 30
0.0
 10
232.0671480860079
 20
106.2716204372479
 30
0.0
 10
232.1368270171155
 20
106.4099474340649
 30
0.0
  0
SPLINE
  5
1CE
330
1F
100
AcDbEntity
  8
0
  6
Continuous
 62
     7
370
    25
100
AcDbSpline
210
0.0
220
0.0
230
1.0
 70
     8
 71
     3
 72
    13
 73
     9
 74
     0
 42
0.000000001
 43
0.00000001
 40
0.0
 40
0.0
 40
0.0
 40
0.0
 40
0.1321015393791085
 40
0.277972377720211
 40
0.4376626628241913
 40
0.6112288790461979
 40
0.7986740006568743
 40
1.0
 40
1.0
 40
1.0
 40
1.0
 10
187.509549836563
 20
106.4098580270977
 30
0.0
 10
187.557009918466
 20
106.3141187475086
 30
0.0
 10
187.6568769743335
 20
106.1126610255645
 30
0.0
 10
187.8813308071298
 20
105.8786655870461
 30
0.0
 10
188.0990929031842
 20
105.6693691501672
 30
0.0
 10
188.3114438592924
 20
105.4871703680219
 30
0.0
 10
188.5106512387623
 20
105.322397223536
 30
0.0
 10
188.6230832186724
 20
105.2303113466524
 30
0.0
 10
188.6813063723315
 20
105.1826244682045
 30
0.0
  0
SPLINE
  5
1CF
330
1F
100
AcDbEntity
  8
0
  6
Continuous
 62
     7
370
    25
100
AcDbSpline
210
0.0
220
0.0
230
1.0
 70
     8
 71
     3
 72
    11
 73
     7
 74
     0
 42
0.000000001
 43
0.00000001
 40
0.0
 40
0.0
 40
0.0
 40
0.0
 40
0.3028659831553723
 40
0.6567309516235366
 40
0.8934810655217188
 40
1.0
 40
1.0
 40
1.0
 40
1.0
 10
229.8547328067292
 20
104.8357924908371
 30
0.0
 10
229.9679866039631
 20
104.8439640734456
 30
0.0
 10
230.2135647744051
 20
104.8616832347949
 30
0.0
 10
230.3523470979181
 20
104.8947592362115
 30
0.0
 10
230.4521306822232
 20
104.9210496214032
 30
0.0
 10
230.540425586107
 20
104.953468996939
 30
0.0
 10
230.5678241503705
 20
104.9635289698811
 30
0.0
  0
SPLINE
  5
1D0
330
1F
100
AcDbEntity
  8
0
  6
Continuous
 62
     7
370
    25
100
AcDbSpline
210
0.0
220
0.0
230
1.0
 70
     8
 71
     3
 72
    11
 73
     7
 74
     0
 42
0.000000001
 43
0.00000001
 40
0.0
 40
0.0
 40
0.0
 40
0.0
 40
0.2428810080775102
 40
0.5227016052298475
 40
0.7870559769780191
 40
1.0
 40
1.0
 40
1.0
 40
1.0
 10
218.4300860938896
 20
104.4893367677899
 30
0.0
 10
219.2530846454239
 20
104.4985407784072
 30
0.0
 10
221.0242509765993
 20
104.518348630665
 30
0.0
 10
224.0739036609247
 20
104.5878438227997
 30
0.0
 10
227.1267335031195
 20
104.6892469658454
 30
0.0
 10
228.8418953815342
 20
104.7791576686101
 30
0.0
 10
229.6071053100098
 20
104.8192708283634
 30
0.0
  0
SPLINE
  5
1D1
330
1F
100
AcDbEntity
  8
0
  6
Continuous
 62
     7
370
    25
100
AcDbSpline
210
0.0
220
0.0
230
1.0
 70
     8
 71
     3
 72
    11
 73
     7
 74
     0
 42
0.000000001
 43
0.00000001
 40
0.0
 40
0.0
 40
0.0
 40
0.0
 40
0.2128372315292224
 40
0.477204107143825
 40
0.7570710820119926
 40
1.0
 40
1.0
 40
1.0
 40
1.0
 10
190.0384110016097
 20
104.8193267077179
 30
0.0
 10
190.8032561995005
 20
104.7792235271532
 30
0.0
 10
192.5181219076302
 20
104.6893078562084
 30
0.0
 10
195.5711153108935
 20
104.5878775018543
 30
0.0
 10
198.6215653745637
 20
104.5183511160177
 30
0.0
 10
200.3930807458737
 20
104.4985416728959
 30
0.0
 10
201.216255369531
 20
104.4893367677899
 30
0.0
  0
SPLINE
  5
1D2
330
1F
100
AcDbEntity
  8
0
  6
Continuous
 62
     7
370
    25
100
AcDbSpline
210
0.0
220
0.0
230
1.0
 70
     8
 71
     3
 72
     9
 73
     5
 74
     0
 42
0.000000001
 43
0.00000001
 40
0.0
 40
0.0
 40
0.0
 40
0.0
 40
0.4170827380360535
 40
1.0
 40
1.0
 40
1.0
 40
1.0
 10
188.705664182948
 20
105.163234332201
 30
0.0
 10
188.8340976569785
 20
105.0796049778412
 30
0.0
 10
189.1420305017547
 20
104.8790947511326
 30
0.0
 10
189.6628530911405
 20
104.8424780062068
 30
0.0
 10
189.9664495689143
 20
104.8211334735127
 30
0.0
  0
SPLINE
  5
1D3
330
1F
100
AcDbEntity
  8
0
  6
Continuous
 62
     7
370
    25
100
AcDbSpline
210
0.0
220
0.0
230
1.0
 70
     8
 71
     3
 72
     9
 73
     5
 74
     0
 42
0.000000001
 43
0.00000001
 40
0.0
 40
0.0
 40
0.0
 40
0.0
 40
0.488224774431906
 40
1.0
 40
1.0
 40
1.0
 40
1.0
 10
201.2165235904325
 20
104.4889456123085
 30
0.0
 10
202.6078155531988
 20
104.4736189744933
 30
0.0
 10
205.4575110943257
 20
104.4422263893196
 30
0.0
 10
208.3452814212565
 20
104.4379906957067
 30
0.0
 10
209.8231707317104
 20
104.4358229726525
 30
0.0
  0
SPLINE
  5
1D4
330
1F
100
AcDbEntity
  8
0
  6
Continuous
 62
     7
370
    25
100
AcDbSpline
210
0.0
220
0.0
230
1.0
 70
     8
 71
     3
 72
     9
 73
     5
 74
     0
 42
0.000000001
 43
0.00000001
 40
0.0
 40
0.0
 40
0.0
 40
0.0
 40
0.5117752255680772
 40
1.0
 40
1.0
 40
1.0
 40
1.0
 10
209.8231707317104
 20
104.4358229726525
 30
0.0
 10
211.3010600421642
 20
104.4379906957067
 30
0.0
 10
214.1888303690949
 20
104.4422263893196
 30
0.0
 10
217.0385259102218
 20
104.4736189744933
 30
0.0
 10
218.4298178729881
 20
104.4889456123085
 30
0.0
  0
LINE
  5
1D5
330
1F
100
AcDbEntity
  8
0
  6
Continuous
 62
     7
370
    25
100
AcDbLine
 10
125.5188603503
 20
213.5731196493
 30
0.0
 11
169.8231716258
 21
213.5731196493
 31
0.0
  0
LINE
  5
1D6
330
1F
100
AcDbEntity
  8
0
  6
Continuous
 62
     7
370
    25
100
AcDbLine
 10
99.8231713278
 20
213.5731196493
 30
0.0
 11
125.5188603503
 21
213.5731196493
 31
0.0
  0
LINE
  5
1D7
330
1F
100
AcDbEntity
  8
0
  6
Continuous
 62
     7
370
    25
100
AcDbLine
 10
261.9070876939
 20
213.5731196493
 30
0.0
 11
319.8231701357
 21
213.5731196493
 31
0.0
  0
LINE
  5
1D8
330
1F
100
AcDbEntity
  8
0
  6
Continuous
 62
     7
370
    25
100
AcDbLine
 10
249.8231698376
 20
213.5731196493
 30
0.0
 11
261.9070876939
 21
213.5731196493
 31
0.0
  0
SPLINE
  5
1D9
330
1F
100
AcDbEntity
  8
0
  6
Continuous
 62
     7
370
    25
100
AcDbSpline
210
0.0
220
0.0
230
1.0
 70
     8
 71
     3
 72
    14
 73
    10
 74
     0
 42
0.000000001
 43
0.00000001
 40
0.0
 40
0.0
 40
0.0
 40
0.0
 40
0.0606227289517613
 40
0.1264621014243514
 40
0.2626155580953544
 40
0.4176306991236899
 40
0.708806917326217
 40
0.8490604792499414
 40
1.0
 40
1.0
 40
1.0
 40
1.0
 10
116.1796643484936
 20
140.6408800536767
 30
0.0
 10
116.3461570721106
 20
140.6280926254389
 30
0.0
 10
116.6934693766627
 20
140.6014173985937
 30
0.0
 10
117.4148767773324
 20
140.5534306425087
 30
0.0
 10
118.3955593608637
 20
140.4971163936843
 30
0.0
 10
119.9958173414993
 20
140.4211049370005
 30
0.0
 10
121.6074374843562
 20
140.3617006339151
 30
0.0
 10
123.2079488664542
 20
140.3128774127275
 30
0.0
 10
124.0083064929586
 20
140.2922926010314
 30
0.0
 10
124.4231707317102
 20
140.2816224931306
 30
0.0
  0
LINE
  5
1DA
330
1F
100
AcDbEntity
  8
0
  6
Continuous
 62
     7
370
    25
100
AcDbLine
 10
116.1796246273
 20
140.6409935032
 30
0.0
 11
116.1800046069
 21
140.6412380336
 31
0.0
  0
LINE
  5
1DB
330
1F
100
AcDbEntity
  8
0
  6
Continuous
 62
     7
370
    25
100
AcDbLine
 10
303.4667168361
 20
140.6409935032
 30
0.0
 11
303.4663368565
 21
140.6412380336
 31
0.0
  0
SPLINE
  5
1DC
330
1F
100
AcDbEntity
  8
0
  6
Continuous
 62
     7
370
    25
100
AcDbSpline
210
0.0
220
0.0
230
1.0
 70
     8
 71
     3
 72
    12
 73
     8
 74
     0
 42
0.000000001
 43
0.00000001
 40
0.0
 40
0.0
 40
0.0
 40
0.0
 40
0.1085334447242721
 40
0.2335334447242721
 40
0.3585334447242721
 40
0.6085334447242721
 40
0.8585334447242721
 40
0.8585334447242721
 40
0.8585334447242721
 40
0.8585334447242721
 10
303.4666841162271
 20
140.6409908920392
 30
0.0
 10
303.1195442182128
 20
140.6133915461806
 30
0.0
 10
302.3722985277216
 20
140.5609033847473
 30
0.0
 10
301.225124371835
 20
140.4959115222449
 30
0.0
 10
299.6247710826414
 20
140.4201329554877
 30
0.0
 10
297.6242128036761
 20
140.3463313922411
 30
0.0
 10
296.0235187666879
 20
140.3014135298421
 30
0.0
 10
295.2231707434636
 20
140.2816224934218
 30
0.0
  0
LINE
  5
1DD
330
1F
100
AcDbEntity
  8
0
  6
Continuous
 62
     7
370
    25
100
AcDbLine
 10
237.3566087884
 20
140.1333025886
 30
0.0
 11
237.3566087884
 21
140.1338583553
 31
0.0
  0
SPLINE
  5
1DE
330
1F
100
AcDbEntity
  8
0
  6
Continuous
 62
     7
370
    25
100
AcDbSpline
210
0.0
220
0.0
230
1.0
 70
     8
 71
     3
 72
    20
 73
    16
 74
     0
 42
0.000000001
 43
0.00000001
 40
0.0
 40
0.0
 40
0.0
 40
0.0
 40
0.125
 40
0.125
 40
0.2500000000000001
 40
0.2500000000000001
 40
0.3750000000000001
 40
0.3750000000000001
 40
0.5000000000000001
 40
0.5000000000000001
 40
0.75
 40
0.75
 40
0.8750000000000001
 40
0.8750000000000001
 40
1.0
 40
1.0
 40
1.0
 40
1.0
 10
226.9518350711352
 20
140.1479120939175
 30
0.0
 10
226.4457742640818
 20
140.1522451090897
 30
0.0
 10
225.8965896985684
 20
140.1574428170485
 30
0.0
 10
224.7427704829288
 20
140.1688387843561
 30
0.0
 10
224.1366006698629
 20
140.1750462595493
 30
0.0
 10
222.8669368412374
 20
140.1879923927596
 30
0.0
 10
222.2034422694691
 20
140.1947325531729
 30
0.0
 10
220.8181060372702
 20
140.2082504290221
 30
0.0
 10
220.0920439198477
 20
140.2150616932415
 30
0.0
 10
217.8754917180587
 20
140.2342919057687
 30
0.0
 10
216.3362961044357
 20
140.2456127448061
 30
0.0
 10
213.9353866430016
 20
140.2576123637929
 30
0.0
 10
213.1163401696075
 20
140.2607862283537
 30
0.0
 10
211.4757357055743
 20
140.2650320341206
 30
0.0
 10
210.6514593817139
 20
140.2661241845634
 30
0.0
 10
209.8231707317103
 20
140.2661241845634
 30
0.0
  0
LINE
  5
1DF
330
1F
100
AcDbEntity
  8
0
  6
Continuous
 62
     7
370
    25
100
AcDbLine
 10
182.289732675
 20
140.1333025886
 30
0.0
 11
182.289732675
 21
140.1338583553
 31
0.0
  0
SPLINE
  5
1E0
330
1F
100
AcDbEntity
  8
0
  6
Continuous
 62
     7
370
    25
100
AcDbSpline
210
0.0
220
0.0
230
1.0
 70
     8
 71
     3
 72
    18
 73
    14
 74
     0
 42
0.000000001
 43
0.00000001
 40
0.0
 40
0.0
 40
0.0
 40
0.0
 40
0.2500000000000001
 40
0.2500000000000001
 40
0.3750000000000001
 40
0.3750000000000001
 40
0.5000000000000001
 40
0.5000000000000001
 40
0.6250000000000001
 40
0.6250000000000001
 40
0.7500000000000002
 40
0.7500000000000002
 40
1.0
 40
1.0
 40
1.0
 40
1.0
 10
209.8231707317109
 20
140.2661241845634
 30
0.0
 10
208.1633479600123
 20
140.2661241845634
 30
0.0
 10
206.5354758810317
 20
140.26169129923
 30
0.0
 10
204.1398068846157
 20
140.2497802964415
 30
0.0
 10
203.3482866158325
 20
140.2449402553832
 30
0.0
 10
201.7843632298373
 20
140.2339130993436
 30
0.0
 10
201.0256451319424
 20
140.2278284452917
 30
0.0
 10
199.5529874283752
 20
140.2150485830599
 30
0.0
 10
198.8390530611716
 20
140.2083528654578
 30
0.0
 10
197.4560332461313
 20
140.1948637797009
 30
0.0
 10
196.785789049177
 20
140.1880575861227
 30
0.0
 10
194.8522680140532
 20
140.1683421454813
 30
0.0
 10
193.7049215898561
 20
140.1565635135103
 30
0.0
 10
192.6945063922749
 20
140.1479120939172
 30
0.0
  0
SPLINE
  5
1E1
330
1F
100
AcDbEntity
  8
0
  6
Continuous
 62
     7
370
    25
100
AcDbSpline
210
0.0
220
0.0
230
1.0
 70
    24
 71
     3
 72
    28
 73
    24
 74
     0
 42
0.000000001
 43
0.00000001
 40
0.0
 40
0.0
 40
0.0
 40
0.0
 40
0.2500000000000039
 40
0.2500000000000039
 40
0.3125000000000039
 40
0.3125000000000039
 40
0.3750000000000041
 40
0.3750000000000041
 40
0.5000000000000041
 40
0.5000000000000041
 40
0.5625000000000034
 40
0.5625000000000034
 40
0.6250000000000026
 40
0.6250000000000026
 40
0.6875000000000018
 40
0.6875000000000018
 40
0.750000000000001
 40
0.750000000000001
 40
0.8750000000000006
 40
0.8750000000000006
 40
0.9375000000000003
 40
0.9375000000000003
 40
1.0
 40
1.0
 40
1.0
 40
1.0
 10
280.4726877741508
 20
169.5731166571352
 30
0.0
 10
282.3997408846522
 20
169.5731166571352
 30
0.0
 10
284.3261945132865
 20
169.5731166571353
 30
0.0
 10
286.7197725657953
 20
169.5731166571353
 30
0.0
 10
287.1981800461166
 20
169.5731166571353
 30
0.0
 10
288.1427769377332
 20
169.5731166571353
 30
0.0
 10
288.6100989841128
 20
169.5731166571352
 30
0.0
 10
289.9943367113762
 20
169.5731166571352
 30
0.0
 10
290.8938522773599
 20
169.5731166571352
 30
0.0
 10
292.1963218253952
 20
169.5731166571352
 30
0.0
 10
292.6245355591008
 20
169.5731166571355
 30
0.0
 10
293.4545628040494
 20
169.5731166571355
 30
0.0
 10
293.8514777709951
 20
169.5731166571354
 30
0.0
 10
294.6082096171524
 20
169.5731166571354
 30
0.0
 10
294.9680884798184
 20
169.5731166571355
 30
0.0
 10
295.6500739417491
 20
169.5731166571355
 30
0.0
 10
295.9741929459561
 20
169.573116657135
 30
0.0
 10
296.8719999920306
 20
169.573116657135
 30
0.0
 10
297.3708857005861
 20
169.573116657135
 30
0.0
 10
297.984496491019
 20
169.573116657135
 30
0.0
 10
298.1667893425249
 20
169.5731166571354
 30
0.0
 10
298.4782510801812
 20
169.5731166571354
 30
0.0
 10
298.6084457986958
 20
169.5731166571353
 30
0.0
 10
298.7090993992352
 20
169.5731166571353
 30
0.0
  0
SPLINE
  5
1E2
330
1F
100
AcDbEntity
  8
0
  6
Continuous
 62
     7
370
    25
100
AcDbSpline
210
0.0
220
0.0
230
1.0
 70
    24
 71
     3
 72
    28
 73
    24
 74
     0
 42
0.000000001
 43
0.00000001
 40
0.0
 40
0.0
 40
0.0
 40
0.0
 40
0.2500000000000042
 40
0.2500000000000042
 40
0.3125000000000043
 40
0.3125000000000043
 40
0.3750000000000044
 40
0.3750000000000044
 40
0.5000000000000047
 40
0.5000000000000047
 40
0.562500000000004
 40
0.562500000000004
 40
0.6250000000000034
 40
0.6250000000000034
 40
0.6875000000000028
 40
0.6875000000000028
 40
0.7500000000000021
 40
0.7500000000000021
 40
0.8750000000000007
 40
0.8750000000000007
 40
0.9375000000000004
 40
0.9375000000000004
 40
1.0
 40
1.0
 40
1.0
 40
1.0
 10
139.1736536892696
 20
169.5731166571347
 30
0.0
 10
137.2466005787682
 20
169.5731166571347
 30
0.0
 10
135.3201469501339
 20
169.5731166571349
 30
0.0
 10
132.9265688976251
 20
169.5731166571349
 30
0.0
 10
132.4481614173037
 20
169.5731166571347
 30
0.0
 10
131.5035645256872
 20
169.5731166571347
 30
0.0
 10
131.0362424793074
 20
169.5731166571347
 30
0.0
 10
129.6520047520441
 20
169.5731166571347
 30
0.0
 10
128.7524891860608
 20
169.5731166571345
 30
0.0
 10
127.4500196380254
 20
169.5731166571345
 30
0.0
 10
127.0218059043194
 20
169.5731166571346
 30
0.0
 10
126.1917786593709
 20
169.5731166571346
 30
0.0
 10
125.7948636924252
 20
169.5731166571346
 30
0.0
 10
125.0381318462679
 20
169.5731166571346
 30
0.0
 10
124.6782529836018
 20
169.5731166571349
 30
0.0
 10
123.9962675216713
 20
169.5731166571349
 30
0.0
 10
123.6721485174644
 20
169.5731166571346
 30
0.0
 10
122.7743414713898
 20
169.5731166571346
 30
0.0
 10
122.2754557628344
 20
169.5731166571344
 30
0.0
 10
121.6618449724014
 20
169.5731166571344
 30
0.0
 10
121.4795521208953
 20
169.5731166571347
 30
0.0
 10
121.168090383239
 20
169.5731166571347
 30
0.0
 10
121.0378956647246
 20
169.5731166571347
 30
0.0
 10
120.9372420641851
 20
169.5731166571347
 30
0.0
  0
LWPOLYLINE
  5
1E3
330
1F
100
AcDbEntity
  8
0
  6
Continuous
 62
     7
370
    25
100
AcDbPolyline
 90
        5
 70
   128
 43
0.0
 10
160.5332065922
 20
169.5731198877
 10
160.5183873874
 20
169.5731180251
 10
160.5109740597
 20
169.5731161624
 10
160.5035644573
 20
169.5731161624
 10
160.5035048527
 20
169.5731161624
  0
LWPOLYLINE
  5
1E4
330
1F
100
AcDbEntity
  8
0
  6
Continuous
 62
     7
370
    25
100
AcDbPolyline
 90
        5
 70
   128
 43
0.0
 10
259.1131348712
 20
169.5731198877
 10
259.127954076
 20
169.5731180251
 10
259.1353674037
 20
169.5731161624
 10
259.1427770061
 20
169.5731161624
 10
259.1428366107
 20
169.5731161624
  0
SPLINE
  5
1E5
330
1F
100
AcDbEntity
  8
0
  6
Continuous
 62
     7
370
    25
100
AcDbSpline
210
0.0
220
0.0
230
1.0
 70
    24
 71
     3
 72
     8
 73
     4
 74
     0
 42
0.000000001
 43
0.00000001
 40
0.0
 40
0.0
 40
0.0
 40
0.0
 40
1.0
 40
1.0
 40
1.0
 40
1.0
 10
259.1428369890037
 20
169.5731166571352
 30
0.0
 10
266.2499541151266
 20
169.5731166571352
 30
0.0
 10
273.3569490964924
 20
169.5731166571352
 30
0.0
 10
280.4638937458092
 20
169.5731166571352
 30
0.0
  0
SPLINE
  5
1E6
330
1F
100
AcDbEntity
  8
0
  6
Continuous
 62
     7
370
    25
100
AcDbSpline
210
0.0
220
0.0
230
1.0
 70
    24
 71
     3
 72
     8
 73
     4
 74
     0
 42
0.000000001
 43
0.00000001
 40
0.0
 40
0.0
 40
0.0
 40
0.0
 40
1.0
 40
1.0
 40
1.0
 40
1.0
 10
160.5035044744167
 20
169.5731166571348
 30
0.0
 10
153.3963873482938
 20
169.5731166571348
 30
0.0
 10
146.2893923669279
 20
169.5731166571348
 30
0.0
 10
139.1824477176111
 20
169.5731166571347
 30
0.0
  0
LWPOLYLINE
  5
1E7
330
1F
100
AcDbEntity
  8
0
  6
Continuous
 62
     7
370
    25
100
AcDbPolyline
 90
        5
 70
   128
 43
0.0
 10
212.7031232779
 20
199.5838424653
 10
212.6198534937
 20
199.5994700581
 10
209.8232307317
 20
199.7635765463
 10
209.8231707317
 20
199.7635765463
 10
209.8231707317
 20
199.7635765463
  0
LWPOLYLINE
  5
1E8
330
1F
100
AcDbEntity
  8
0
  6
Continuous
 62
     7
370
    25
100
AcDbPolyline
 90
        5
 70
   128
 43
0.0
 10
206.9974844893
 20
199.594027409
 10
207.0264879697
 20
199.5994700581
 10
209.8231107317
 20
199.7635765463
 10
209.8231707317
 20
199.7635765463
 10
209.8231707317
 20
199.7635765463
  0
SPLINE
  5
1E9
330
1F
100
AcDbEntity
  8
0
  6
Continuous
 62
     7
370
    25
100
AcDbSpline
210
0.0
220
0.0
230
1.0
 70
     8
 71
     3
 72
     8
 73
     4
 74
     0
 42
0.000000001
 43
0.00000001
 40
0.0
 40
0.0
 40
0.0
 40
0.0
 40
1.0
 40
1.0
 40
1.0
 40
1.0
 10
233.0186595943935
 20
135.2095759127045
 30
0.0
 10
233.0137884425378
 20
135.395676611819
 30
0.0
 10
232.9924228660501
 20
135.5815549180472
 30
0.0
 10
232.9543865886773
 20
135.7672084545185
 30
0.0
  0
SPLINE
  5
1EA
330
1F
100
AcDbEntity
  8
0
  6
Continuous
 62
     7
370
    25
100
AcDbSpline
210
0.0
220
0.0
230
1.0
 70
     8
 71
     3
 72
    18
 73
    14
 74
     0
 42
0.000000001
 43
0.00000001
 40
0.0
 40
0.0
 40
0.0
 40
0.0
 40
0.0916985607550365
 40
0.1945451326520019
 40
0.2968356303659986
 40
0.3799624445038369
 40
0.4629954594183314
 40
0.5466960358537312
 40
0.6303879475004751
 40
0.725076303600107
 40
0.8200184500341319
 40
0.9099862937054227
 40
1.0
 40
1.0
 40
1.0
 40
1.0
 10
233.0005858642329
 20
135.0700585633488
 30
0.0
 10
232.9755088601035
 20
134.6769730510035
 30
0.0
 10
232.9223061810792
 20
133.8430136898847
 30
0.0
 10
232.3104160699562
 20
132.5842041923748
 30
0.0
 10
231.2849477499964
 20
131.3961292608764
 30
0.0
 10
229.8557702026136
 20
130.350805151059
 30
0.0
 10
228.1014781404978
 20
129.4581139297841
 30
0.0
 10
225.8896402277168
 20
128.6887574397939
 30
0.0
 10
223.1832653783118
 20
128.0415899138888
 30
0.0
 10
220.0205750195546
 20
127.5745005037154
 30
0.0
 10
216.6218158548102
 20
127.2749479594102
 30
0.0
 10
213.2062811714712
 20
127.1041313319611
 30
0.0
 10
210.9510657684772
 20
127.085665540745
 30
0.0
 10
209.8231707317103
 20
127.0764302924247
 30
0.0
  0
SPLINE
  5
1EB
330
1F
100
AcDbEntity
  8
0
  6
Continuous
 62
     7
370
    25
100
AcDbSpline
210
0.0
220
0.0
230
1.0
 70
     8
 71
     3
 72
    18
 73
    14
 74
     0
 42
0.000000001
 43
0.00000001
 40
0.0
 40
0.0
 40
0.0
 40
0.0
 40
0.1518529415101529
 40
0.2305000472251134
 40
0.3090616142151373
 40
0.3871058749944104
 40
0.4650918169191636
 40
0.5431299606558784
 40
0.621231879526973
 40
0.724563313993997
 40
0.8280877702970149
 40
0.9194769277788739
 40
1.0
 40
1.0
 40
1.0
 40
1.0
 10
209.8231707317103
 20
127.0764302924247
 30
0.0
 10
207.9180177175368
 20
127.1021288058403
 30
0.0
 10
205.0261550023934
 20
127.1411369969034
 30
0.0
 10
201.2327099925928
 20
127.4210794129362
 30
0.0
 10
198.4247473936385
 20
127.7342107173918
 30
0.0
 10
195.7917844455154
 20
128.1901733435658
 30
0.0
 10
193.4214411047778
 20
128.7890698298491
 30
0.0
 10
191.4107867375408
 20
129.5261622224831
 30
0.0
 10
189.5986491578583
 20
130.4538589235805
 30
0.0
 10
188.1538321863692
 20
131.5779884479736
 30
0.0
 10
187.2155908365004
 20
132.8179051958535
 30
0.0
 10
186.7110129289408
 20
133.9881211890491
 30
0.0
 10
186.6655721382839
 20
134.7248720880388
 30
0.0
 10
186.6442878348101
 20
135.0699635684462
 30
0.0
  0
SPLINE
  5
1EC
330
1F
100
AcDbEntity
  8
0
  6
Continuous
 62
     7
370
    25
100
AcDbSpline
210
0.0
220
0.0
230
1.0
 70
     8
 71
     3
 72
     8
 73
     4
 74
     0
 42
0.000000001
 43
0.00000001
 40
0.0
 40
0.0
 40
0.0
 40
0.0
 40
1.0
 40
1.0
 40
1.0
 40
1.0
 10
186.6919548747433
 20
135.7672084545183
 30
0.0
 10
186.6539185973702
 20
135.5815549180453
 30
0.0
 10
186.6325530208817
 20
135.3956766118782
 30
0.0
 10
186.627681869026
 20
135.2095759127618
 30
0.0
  0
LWPOLYLINE
  5
1ED
330
1F
100
AcDbEntity
  8
0
  6
Continuous
 62
     7
370
    25
100
AcDbPolyline
 90
       27
 70
   128
 43
0.0
 10
230.6616716636
 20
135.2234911635
 10
230.5556815666
 20
134.9160979032
 10
230.0630137873
 20
134.0790940911
 10
229.2825468433
 20
133.2680988587
 10
228.2253765119
 20
132.4946433768
 10
226.9065380645
 20
131.7697260991
 10
225.3447827501
 20
131.1036553696
 10
223.5623188866
 20
130.5059018075
 10
221.5844914866
 20
129.9849655941
 10
219.4394246293
 20
129.5482535377
 10
217.1576200602
 20
129.2019756973
 10
214.7715231953
 20
128.9510569066
 10
212.3150637456
 20
128.7990631998
 10
209.8231707317
 20
128.7481580391
 10
207.3312777178
 20
128.7990631998
 10
204.8748182682
 20
128.9510569066
 10
202.4887214032
 20
129.2019756973
 10
200.2069168342
 20
129.5482535377
 10
198.0618499768
 20
129.9849655941
 10
196.0840225769
 20
130.5059018075
 10
194.3015587134
 20
131.1036553696
 10
192.7398033989
 20
131.7697260991
 10
191.4209649516
 20
132.4946433768
 10
190.3637946201
 20
133.2680988587
 10
189.5833276761
 20
134.0790940911
 10
189.0906598968
 20
134.9160979032
 10
188.9846697999
 20
135.2234911635
  0
SPLINE
  5
1EE
330
1F
100
AcDbEntity
  8
0
  6
Continuous
 62
     7
370
    25
100
AcDbSpline
210
0.0
220
0.0
230
1.0
 70
     8
 71
     3
 72
    22
 73
    18
 74
     0
 42
0.000000001
 43
0.00000001
 40
0.0
 40
0.0
 40
0.0
 40
0.0
 40
0.2500000000000005
 40
0.2500000000000005
 40
0.3750000000000009
 40
0.3750000000000009
 40
0.5000000000000012
 40
0.5000000000000012
 40
0.6250000000000016
 40
0.6250000000000016
 40
0.750000000000002
 40
0.750000000000002
 40
0.8750000000000023
 40
0.8750000000000023
 40
0.9375000000000012
 40
0.9375000000000012
 40
1.0
 40
1.0
 40
1.0
 40
1.0
 10
134.8231707317101
 20
171.2251188112424
 30
0.0
 10
134.2285783075713
 20
171.2251188112424
 30
0.0
 10
133.6425687905279
 20
171.2767591442856
 30
0.0
 10
132.7777152729783
 20
171.4394199439262
 30
0.0
 10
132.4918347841538
 20
171.508104335326
 30
0.0
 10
131.9258790655284
 20
171.6804013197298
 30
0.0
 10
131.6445340052092
 20
171.7847284873342
 30
0.0
 10
131.1049651498509
 20
172.0322372890718
 30
0.0
 10
130.8447082336365
 20
172.1757757243214
 30
0.0
 10
130.3524479890847
 20
172.5150289897167
 30
0.0
 10
130.1272872468032
 20
172.7058612707115
 30
0.0
 10
129.7323438686165
 20
173.1435279008354
 30
0.0
 10
129.5604794758104
 20
173.3958672989475
 30
0.0
 10
129.3822265342624
 20
173.8051711348348
 30
0.0
 10
129.335074994968
 20
173.9486076627128
 30
0.0
 10
129.2716744681793
 20
174.2420823269134
 30
0.0
 10
129.2554063688796
 20
174.3908452875089
 30
0.0
 10
129.2554063688796
 20
174.5417436015974
 30
0.0
  0
LINE
  5
1EF
330
1F
100
AcDbEntity
  8
0
  6
Continuous
 62
     7
370
    25
100
AcDbLine
 10
129.255408476
 20
174.5417444497
 30
0.0
 11
129.255408476
 21
183.6044891268
 31
0.0
  0
SPLINE
  5
1F0
330
1F
100
AcDbEntity
  8
0
  6
Continuous
 62
     7
370
    25
100
AcDbSpline
210
0.0
220
0.0
230
1.0
 70
     8
 71
     3
 72
    22
 73
    18
 74
     0
 42
0.000000001
 43
0.00000001
 40
0.0
 40
0.0
 40
0.0
 40
0.0
 40
0.0624999999999985
 40
0.0624999999999985
 40
0.124999999999997
 40
0.124999999999997
 40
0.1874999999999956
 40
0.1874999999999956
 40
0.2499999999999941
 40
0.2499999999999941
 40
0.3749999999999932
 40
0.3749999999999932
 40
0.4999999999999925
 40
0.4999999999999925
 40
0.7499999999999961
 40
0.7499999999999961
 40
1.0
 40
1.0
 40
1.0
 40
1.0
 10
129.2554063688797
 20
183.6044896683616
 30
0.0
 10
129.2554063688733
 20
183.7550174522987
 30
0.0
 10
129.2715871981769
 20
183.9026513126003
 30
0.0
 10
129.3337553155647
 20
184.1925881806305
 30
0.0
 10
129.3804670657392
 20
184.3362907079716
 30
0.0
 10
129.4991411068841
 20
184.6102300654741
 30
0.0
 10
129.5706920342672
 20
184.7405407601911
 30
0.0
 10
129.7349505616982
 20
184.9896275974403
 30
0.0
 10
129.8278869434214
 20
185.1083080020288
 30
0.0
 10
130.1256572434263
 20
185.4391064381454
 30
0.0
 10
130.3522810266154
 20
185.6310606230008
 30
0.0
 10
130.844295761145
 20
185.9702018374952
 30
0.0
 10
131.1030258103451
 20
186.1128777663468
 30
0.0
 10
131.9069292082538
 20
186.4823220751318
 30
0.0
 10
132.4839746699874
 20
186.6513435276935
 30
0.0
 10
133.6416709577734
 20
186.8695273943162
 30
0.0
 10
134.2287354439469
 20
186.9211144587691
 30
0.0
 10
134.8231707317101
 20
186.9211144587691
 30
0.0
  0
SPLINE
  5
1F1
330
1F
100
AcDbEntity
  8
0
  6
Continuous
 62
     7
370
    25
100
AcDbSpline
210
0.0
220
0.0
230
1.0
 70
     8
 71
     3
 72
    22
 73
    18
 74
     0
 42
0.000000001
 43
0.00000001
 40
0.0
 40
0.0
 40
0.0
 40
0.0
 40
0.2500000000000011
 40
0.2500000000000011
 40
0.3750000000000013
 40
0.3750000000000013
 40
0.5000000000000016
 40
0.5000000000000016
 40
0.6250000000000019
 40
0.6250000000000019
 40
0.7500000000000021
 40
0.7500000000000021
 40
0.8750000000000024
 40
0.8750000000000024
 40
0.9375000000000013
 40
0.9375000000000013
 40
1.0
 40
1.0
 40
1.0
 40
1.0
 10
134.8231707317101
 20
186.9211144587691
 30
0.0
 10
135.4177631558542
 20
186.9211144587691
 30
0.0
 10
136.0037726729033
 20
186.8694741257257
 30
0.0
 10
136.8686261904618
 20
186.7068133260838
 30
0.0
 10
137.1545066792893
 20
186.6381289346834
 30
0.0
 10
137.7204623979208
 20
186.4658319502776
 30
0.0
 10
138.0018074582422
 20
186.3615047826722
 30
0.0
 10
138.5413763136045
 20
186.1139959809317
 30
0.0
 10
138.8016332298227
 20
185.970457545679
 30
0.0
 10
139.2938934743749
 20
185.6312042802796
 30
0.0
 10
139.5190542166566
 20
185.440371999282
 30
0.0
 10
139.913997594842
 20
185.0027053691485
 30
0.0
 10
140.0858619876454
 20
184.7503659710306
 30
0.0
 10
140.264114929184
 20
184.3410621351345
 30
0.0
 10
140.3112664684748
 20
184.1976256072519
 30
0.0
 10
140.3746669952531
 20
183.9041509430484
 30
0.0
 10
140.390935094547
 20
183.7553879824515
 30
0.0
 10
140.3909350945405
 20
183.6044896683617
 30
0.0
  0
LINE
  5
1F2
330
1F
100
AcDbEntity
  8
0
  6
Continuous
 62
     7
370
    25
100
AcDbLine
 10
140.3909344775
 20
183.6044891268
 30
0.0
 11
140.3909344775
 21
174.5417444497
 31
0.0
  0
SPLINE
  5
1F3
330
1F
100
AcDbEntity
  8
0
  6
Continuous
 62
     7
370
    25
100
AcDbSpline
210
0.0
220
0.0
230
1.0
 70
     8
 71
     3
 72
    22
 73
    18
 74
     0
 42
0.000000001
 43
0.00000001
 40
0.0
 40
0.0
 40
0.0
 40
0.0
 40
0.0625000000000001
 40
0.0625000000000001
 40
0.1250000000000001
 40
0.1250000000000001
 40
0.1875000000000002
 40
0.1875000000000002
 40
0.2500000000000003
 40
0.2500000000000003
 40
0.3749999999999982
 40
0.3749999999999982
 40
0.4999999999999962
 40
0.4999999999999962
 40
0.7499999999999981
 40
0.7499999999999981
 40
1.0
 40
1.0
 40
1.0
 40
1.0
 10
140.3909350945407
 20
174.5417436015974
 30
0.0
 10
140.3909350945407
 20
174.3912158176618
 30
0.0
 10
140.3747542652314
 20
174.2435819573624
 30
0.0
 10
140.312586147834
 20
173.9536450893374
 30
0.0
 10
140.2658743976557
 20
173.8099425619996
 30
0.0
 10
140.1472003565047
 20
173.5360032045027
 30
0.0
 10
140.0756494291194
 20
173.4056925097885
 30
0.0
 10
139.9113909016858
 20
173.1566056725453
 30
0.0
 10
139.8184545199617
 20
173.0379252679589
 30
0.0
 10
139.5206842199552
 20
172.7071268318487
 30
0.0
 10
139.2940604367699
 20
172.515172646999
 30
0.0
 10
138.8020457022413
 20
172.1760314325083
 30
0.0
 10
138.543315653043
 20
172.0333555036584
 30
0.0
 10
137.7394122551428
 20
171.6639111948781
 30
0.0
 10
137.1623667934156
 20
171.4948897423174
 30
0.0
 10
136.0046705056369
 20
171.2767058756951
 30
0.0
 10
135.4176060194679
 20
171.2251188112424
 30
0.0
 10
134.8231707317102
 20
171.2251188112424
 30
0.0
  0
SPLINE
  5
1F4
330
1F
100
AcDbEntity
  8
0
  6
Continuous
 62
     7
370
    25
100
AcDbSpline
210
0.0
220
0.0
230
1.0
 70
     8
 71
     3
 72
    40
 73
    36
 74
     0
 42
0.000000001
 43
0.00000001
 40
0.0
 40
0.0
 40
0.0
 40
0.0
 40
0.0312500000000001
 40
0.0312500000000001
 40
0.0625000000000002
 40
0.0625000000000002
 40
0.0937500000000002
 40
0.0937500000000002
 40
0.1250000000000003
 40
0.1250000000000003
 40
0.1875000000000002
 40
0.1875000000000002
 40
0.25
 40
0.25
 40
0.375000000000001
 40
0.375000000000001
 40
0.500000000000002
 40
0.500000000000002
 40
0.5625000000000022
 40
0.5625000000000022
 40
0.6250000000000023
 40
0.6250000000000023
 40
0.6875000000000026
 40
0.6875000000000026
 40
0.7500000000000027
 40
0.7500000000000027
 40
0.8125000000000029
 40
0.8125000000000029
 40
0.875000000000003
 40
0.875000000000003
 40
0.9062500000000026
 40
0.9062500000000026
 40
0.937500000000002
 40
0.937500000000002
 40
1.0
 40
1.0
 40
1.0
 40
1.0
 10
145.0296696070614
 20
183.6044896683617
 30
0.0
 10
145.0296696070582
 20
183.7551009787298
 30
0.0
 10
145.0377689526567
 20
183.9028151708823
 30
0.0
 10
145.0688869080494
 20
184.1929069669995
 30
0.0
 10
145.0922686381817
 20
184.3366855871604
 30
0.0
 10
145.1516658920872
 20
184.6107471747576
 30
0.0
 10
145.1874770339047
 20
184.7411129203415
 30
0.0
 10
145.2696873525773
 20
184.9902992839161
 30
0.0
 10
145.3161972480449
 20
185.1090137766279
 30
0.0
 10
145.4652118722343
 20
185.4398972438298
 30
0.0
 10
145.5786313978278
 20
185.6319045481234
 30
0.0
 10
145.8248185134887
 20
185.9710511320958
 30
0.0
 10
145.9542762259299
 20
186.1137178500772
 30
0.0
 10
146.356513909898
 20
186.4831010355248
 30
0.0
 10
146.6453096679501
 20
186.6520120679864
 30
0.0
 10
147.2236977731496
 20
186.8697069986261
 30
0.0
 10
147.5166462957189
 20
186.921041656824
 30
0.0
 10
147.9610886932254
 20
186.9211507473435
 30
0.0
 10
148.1097493381522
 20
186.9079073094131
 30
0.0
 10
148.403148064407
 20
186.8548499280399
 30
0.0
 10
148.5485698218394
 20
186.8150698906226
 30
0.0
 10
148.8366307565813
 20
186.7066488501883
 30
0.0
 10
148.9792746084045
 20
186.6380563313015
 30
0.0
 10
149.2612438141561
 20
186.4664517802171
 30
0.0
 10
149.4016119603297
 20
186.36254910864
 30
0.0
 10
149.6721133772824
 20
186.1146017464711
 30
0.0
 10
149.8020728028277
 20
185.9712617059091
 30
0.0
 10
150.0478541197451
 20
185.6328375444776
 30
0.0
 10
150.1616857213615
 20
185.4400120681669
 30
0.0
 10
150.3097463943526
 20
185.1117584790357
 30
0.0
 10
150.3555031031395
 20
184.9954867936089
 30
0.0
 10
150.4381757544314
 20
184.7460972766145
 30
0.0
 10
150.474603562775
 20
184.6139395875051
 30
0.0
 10
150.563722386808
 20
184.2046830671229
 30
0.0
 10
150.5974339698983
 20
183.9062754586128
 30
0.0
 10
150.5974339698919
 20
183.6044896683618
 30
0.0
  0
SPLINE
  5
1F5
330
1F
100
AcDbEntity
  8
0
  6
Continuous
 62
     7
370
    25
100
AcDbSpline
210
0.0
220
0.0
230
1.0
 70
     8
 71
     3
 72
    40
 73
    36
 74
     0
 42
0.000000001
 43
0.00000001
 40
0.0
 40
0.0
 40
0.0
 40
0.0
 40
0.03125
 40
0.03125
 40
0.0624999999999999
 40
0.0624999999999999
 40
0.0937499999999999
 40
0.0937499999999999
 40
0.1249999999999998
 40
0.1249999999999998
 40
0.1875000000000007
 40
0.1875000000000007
 40
0.2500000000000017
 40
0.2500000000000017
 40
0.3750000000000022
 40
0.3750000000000022
 40
0.5000000000000028
 40
0.5000000000000028
 40
0.5625000000000029
 40
0.5625000000000029
 40
0.625000000000003
 40
0.625000000000003
 40
0.6875000000000031
 40
0.6875000000000031
 40
0.7500000000000032
 40
0.7500000000000032
 40
0.8125000000000034
 40
0.8125000000000034
 40
0.8750000000000036
 40
0.8750000000000036
 40
0.9062500000000024
 40
0.9062500000000024
 40
0.9375000000000014
 40
0.9375000000000014
 40
1.0
 40
1.0
 40
1.0
 40
1.0
 10
119.0489074935283
 20
183.6044896683617
 30
0.0
 10
119.0489074935251
 20
183.7551009787298
 30
0.0
 10
119.0570068391236
 20
183.9028151708823
 30
0.0
 10
119.0881247945163
 20
184.1929069669995
 30
0.0
 10
119.1115065246485
 20
184.3366855871603
 30
0.0
 10
119.1709037785541
 20
184.6107471747576
 30
0.0
 10
119.2067149203716
 20
184.7411129203414
 30
0.0
 10
119.2889252390443
 20
184.990299283916
 30
0.0
 10
119.3354351345118
 20
185.1090137766279
 30
0.0
 10
119.4844497587012
 20
185.4398972438297
 30
0.0
 10
119.5978692842947
 20
185.6319045481233
 30
0.0
 10
119.8440563999555
 20
185.9710511320958
 30
0.0
 10
119.9735141123968
 20
186.1137178500772
 30
0.0
 10
120.3757517963649
 20
186.4831010355248
 30
0.0
 10
120.664547554417
 20
186.6520120679863
 30
0.0
 10
121.2429356596165
 20
186.869706998626
 30
0.0
 10
121.5358841821859
 20
186.9210416568239
 30
0.0
 10
121.9803265796923
 20
186.9211507473434
 30
0.0
 10
122.1289872246191
 20
186.9079073094131
 30
0.0
 10
122.4223859508739
 20
186.8548499280398
 30
0.0
 10
122.5678077083063
 20
186.8150698906225
 30
0.0
 10
122.8558686430482
 20
186.7066488501882
 30
0.0
 10
122.9985124948714
 20
186.6380563313014
 30
0.0
 10
123.280481700623
 20
186.4664517802171
 30
0.0
 10
123.4208498467966
 20
186.3625491086399
 30
0.0
 10
123.6913512637494
 20
186.114601746471
 30
0.0
 10
123.8213106892945
 20
185.971261705909
 30
0.0
 10
124.067092006212
 20
185.6328375444776
 30
0.0
 10
124.1809236078284
 20
185.4400120681668
 30
0.0
 10
124.3289842808195
 20
185.1117584790356
 30
0.0
 10
124.3747409896064
 20
184.9954867936088
 30
0.0
 10
124.4574136408983
 20
184.7460972766144
 30
0.0
 10
124.4938414492419
 20
184.6139395875049
 30
0.0
 10
124.5829602732749
 20
184.2046830671228
 30
0.0
 10
124.6166718563653
 20
183.9062754586126
 30
0.0
 10
124.6166718563588
 20
183.6044896683616
 30
0.0
  0
SPLINE
  5
1F6
330
1F
100
AcDbEntity
  8
0
  6
Continuous
 62
     7
370
    25
100
AcDbSpline
210
0.0
220
0.0
230
1.0
 70
     8
 71
     3
 72
    22
 73
    18
 74
     0
 42
0.000000001
 43
0.00000001
 40
0.0
 40
0.0
 40
0.0
 40
0.0
 40
0.2499999999999992
 40
0.2499999999999992
 40
0.3749999999999988
 40
0.3749999999999988
 40
0.4999999999999986
 40
0.4999999999999986
 40
0.6249999999999982
 40
0.6249999999999982
 40
0.7499999999999979
 40
0.7499999999999979
 40
0.8749999999999977
 40
0.8749999999999977
 40
0.9374999999999989
 40
0.9374999999999989
 40
1.0
 40
1.0
 40
1.0
 40
1.0
 10
284.8231707317101
 20
171.2251188112429
 30
0.0
 10
284.2285783075713
 20
171.2251188112429
 30
0.0
 10
283.6425687905279
 20
171.2767591442862
 30
0.0
 10
282.7777152729784
 20
171.4394199439268
 30
0.0
 10
282.4918347841539
 20
171.5081043353265
 30
0.0
 10
281.9258790655284
 20
171.6804013197304
 30
0.0
 10
281.6445340052093
 20
171.7847284873347
 30
0.0
 10
281.104965149851
 20
172.0322372890724
 30
0.0
 10
280.8447082336365
 20
172.175775724322
 30
0.0
 10
280.3524479890847
 20
172.5150289897173
 30
0.0
 10
280.1272872468032
 20
172.7058612707121
 30
0.0
 10
279.7323438686166
 20
173.1435279008359
 30
0.0
 10
279.5604794758104
 20
173.395867298948
 30
0.0
 10
279.3822265342625
 20
173.8051711348353
 30
0.0
 10
279.3350749949681
 20
173.9486076627133
 30
0.0
 10
279.2716744681794
 20
174.242082326914
 30
0.0
 10
279.2554063688797
 20
174.3908452875095
 30
0.0
 10
279.2554063688796
 20
174.5417436015979
 30
0.0
  0
LINE
  5
1F7
330
1F
100
AcDbEntity
  8
0
  6
Continuous
 62
     7
370
    25
100
AcDbLine
 10
279.2554069859
 20
174.5417444497
 30
0.0
 11
279.2554069859
 21
183.6044891268
 31
0.0
  0
SPLINE
  5
1F8
330
1F
100
AcDbEntity
  8
0
  6
Continuous
 62
     7
370
    25
100
AcDbSpline
210
0.0
220
0.0
230
1.0
 70
     8
 71
     3
 72
    22
 73
    18
 74
     0
 42
0.000000001
 43
0.00000001
 40
0.0
 40
0.0
 40
0.0
 40
0.0
 40
0.0624999999999984
 40
0.0624999999999984
 40
0.1249999999999967
 40
0.1249999999999967
 40
0.1874999999999951
 40
0.1874999999999951
 40
0.2499999999999934
 40
0.2499999999999934
 40
0.3749999999999923
 40
0.3749999999999923
 40
0.4999999999999912
 40
0.4999999999999912
 40
0.7499999999999956
 40
0.7499999999999956
 40
1.0
 40
1.0
 40
1.0
 40
1.0
 10
279.2554063688797
 20
183.6044896683622
 30
0.0
 10
279.2554063688733
 20
183.7550174522993
 30
0.0
 10
279.2715871981769
 20
183.9026513126008
 30
0.0
 10
279.3337553155648
 20
184.192588180631
 30
0.0
 10
279.3804670657392
 20
184.3362907079721
 30
0.0
 10
279.4991411068841
 20
184.6102300654746
 30
0.0
 10
279.5706920342673
 20
184.7405407601916
 30
0.0
 10
279.7349505616982
 20
184.9896275974408
 30
0.0
 10
279.8278869434214
 20
185.1083080020294
 30
0.0
 10
280.1256572434264
 20
185.4391064381459
 30
0.0
 10
280.3522810266155
 20
185.6310606230014
 30
0.0
 10
280.8442957611451
 20
185.9702018374957
 30
0.0
 10
281.1030258103452
 20
186.1128777663474
 30
0.0
 10
281.9069292082538
 20
186.4823220751323
 30
0.0
 10
282.4839746699874
 20
186.651343527694
 30
0.0
 10
283.6416709577734
 20
186.8695273943167
 30
0.0
 10
284.228735443947
 20
186.9211144587696
 30
0.0
 10
284.8231707317101
 20
186.9211144587696
 30
0.0
  0
SPLINE
  5
1F9
330
1F
100
AcDbEntity
  8
0
  6
Continuous
 62
     7
370
    25
100
AcDbSpline
210
0.0
220
0.0
230
1.0
 70
     8
 71
     3
 72
    22
 73
    18
 74
     0
 42
0.000000001
 43
0.00000001
 40
0.0
 40
0.0
 40
0.0
 40
0.0
 40
0.2499999999999997
 40
0.2499999999999997
 40
0.3749999999999993
 40
0.3749999999999993
 40
0.4999999999999989
 40
0.4999999999999989
 40
0.6249999999999986
 40
0.6249999999999986
 40
0.7499999999999982
 40
0.7499999999999982
 40
0.8749999999999978
 40
0.8749999999999978
 40
0.937499999999999
 40
0.937499999999999
 40
1.0
 40
1.0
 40
1.0
 40
1.0
 10
284.8231707317101
 20
186.9211144587696
 30
0.0
 10
285.4177631558543
 20
186.9211144587696
 30
0.0
 10
286.0037726729033
 20
186.8694741257262
 30
0.0
 10
286.8686261904617
 20
186.7068133260843
 30
0.0
 10
287.1545066792893
 20
186.6381289346839
 30
0.0
 10
287.7204623979208
 20
186.4658319502782
 30
0.0
 10
288.0018074582422
 20
186.3615047826728
 30
0.0
 10
288.5413763136045
 20
186.1139959809322
 30
0.0
 10
288.8016332298227
 20
185.9704575456795
 30
0.0
 10
289.293893474375
 20
185.6312042802801
 30
0.0
 10
289.5190542166566
 20
185.4403719992825
 30
0.0
 10
289.913997594842
 20
185.0027053691491
 30
0.0
 10
290.0858619876454
 20
184.7503659710312
 30
0.0
 10
290.264114929184
 20
184.341062135135
 30
0.0
 10
290.3112664684749
 20
184.1976256072524
 30
0.0
 10
290.3746669952531
 20
183.9041509430489
 30
0.0
 10
290.3909350945469
 20
183.755387982452
 30
0.0
 10
290.3909350945405
 20
183.6044896683622
 30
0.0
  0
LINE
  5
1FA
330
1F
100
AcDbEntity
  8
0
  6
Continuous
 62
     7
370
    25
100
AcDbLine
 10
290.3909329874
 20
183.6044891268
 30
0.0
 11
290.3909329874
 21
174.5417444497
 31
0.0
  0
SPLINE
  5
1FB
330
1F
100
AcDbEntity
  8
0
  6
Continuous
 62
     7
370
    25
100
AcDbSpline
210
0.0
220
0.0
230
1.0
 70
     8
 71
     3
 72
    22
 73
    18
 74
     0
 42
0.000000001
 43
0.00000001
 40
0.0
 40
0.0
 40
0.0
 40
0.0
 40
0.0624999999999986
 40
0.0624999999999986
 40
0.1249999999999972
 40
0.1249999999999972
 40
0.1874999999999958
 40
0.1874999999999958
 40
0.2499999999999944
 40
0.2499999999999944
 40
0.3749999999999933
 40
0.3749999999999933
 40
0.4999999999999923
 40
0.4999999999999923
 40
0.7499999999999961
 40
0.7499999999999961
 40
1.0
 40
1.0
 40
1.0
 40
1.0
 10
290.3909350945407
 20
174.5417436015979
 30
0.0
 10
290.3909350945407
 20
174.3912158176624
 30
0.0
 10
290.3747542652314
 20
174.2435819573629
 30
0.0
 10
290.3125861478339
 20
173.953645089338
 30
0.0
 10
290.2658743976557
 20
173.8099425620002
 30
0.0
 10
290.1472003565047
 20
173.5360032045031
 30
0.0
 10
290.0756494291194
 20
173.405692509789
 30
0.0
 10
289.9113909016859
 20
173.1566056725459
 30
0.0
 10
289.8184545199617
 20
173.0379252679595
 30
0.0
 10
289.5206842199552
 20
172.7071268318493
 30
0.0
 10
289.29406043677
 20
172.5151726469995
 30
0.0
 10
288.8020457022413
 20
172.1760314325088
 30
0.0
 10
288.543315653043
 20
172.0333555036589
 30
0.0
 10
287.7394122551428
 20
171.6639111948786
 30
0.0
 10
287.1623667934157
 20
171.494889742318
 30
0.0
 10
286.0046705056369
 20
171.2767058756956
 30
0.0
 10
285.4176060194679
 20
171.2251188112429
 30
0.0
 10
284.8231707317101
 20
171.2251188112429
 30
0.0
  0
SPLINE
  5
1FC
330
1F
100
AcDbEntity
  8
0
  6
Continuous
 62
     7
370
    25
100
AcDbSpline
210
0.0
220
0.0
230
1.0
 70
     8
 71
     3
 72
    40
 73
    36
 74
     0
 42
0.000000001
 43
0.00000001
 40
0.0
 40
0.0
 40
0.0
 40
0.0
 40
0.0312499999999999
 40
0.0312499999999999
 40
0.0624999999999998
 40
0.0624999999999998
 40
0.0937499999999996
 40
0.0937499999999996
 40
0.1249999999999995
 40
0.1249999999999995
 40
0.187499999999999
 40
0.187499999999999
 40
0.2499999999999984
 40
0.2499999999999984
 40
0.3749999999999986
 40
0.3749999999999986
 40
0.4999999999999988
 40
0.4999999999999988
 40
0.5624999999999991
 40
0.5624999999999991
 40
0.6249999999999994
 40
0.6249999999999994
 40
0.6874999999999998
 40
0.6874999999999998
 40
0.75
 40
0.75
 40
0.8125000000000003
 40
0.8125000000000003
 40
0.8750000000000007
 40
0.8750000000000007
 40
0.9062500000000003
 40
0.9062500000000003
 40
0.9375
 40
0.9375
 40
1.0
 40
1.0
 40
1.0
 40
1.0
 10
295.0296696070615
 20
183.6044896683622
 30
0.0
 10
295.0296696070582
 20
183.7551009787304
 30
0.0
 10
295.0377689526568
 20
183.9028151708828
 30
0.0
 10
295.0688869080495
 20
184.1929069670001
 30
0.0
 10
295.0922686381816
 20
184.3366855871609
 30
0.0
 10
295.1516658920872
 20
184.6107471747582
 30
0.0
 10
295.1874770339047
 20
184.741112920342
 30
0.0
 10
295.2696873525774
 20
184.9902992839166
 30
0.0
 10
295.316197248045
 20
185.1090137766284
 30
0.0
 10
295.4652118722343
 20
185.4398972438303
 30
0.0
 10
295.5786313978278
 20
185.6319045481239
 30
0.0
 10
295.8248185134888
 20
185.9710511320964
 30
0.0
 10
295.95427622593
 20
186.1137178500777
 30
0.0
 10
296.356513909898
 20
186.4831010355254
 30
0.0
 10
296.6453096679502
 20
186.6520120679869
 30
0.0
 10
297.2236977731496
 20
186.8697069986266
 30
0.0
 10
297.5166462957189
 20
186.9210416568245
 30
0.0
 10
297.9610886932254
 20
186.921150747344
 30
0.0
 10
298.1097493381521
 20
186.9079073094137
 30
0.0
 10
298.403148064407
 20
186.8548499280404
 30
0.0
 10
298.5485698218394
 20
186.8150698906231
 30
0.0
 10
298.8366307565814
 20
186.7066488501888
 30
0.0
 10
298.9792746084045
 20
186.638056331302
 30
0.0
 10
299.2612438141562
 20
186.4664517802177
 30
0.0
 10
299.4016119603297
 20
186.3625491086406
 30
0.0
 10
299.6721133772825
 20
186.1146017464716
 30
0.0
 10
299.8020728028277
 20
185.9712617059096
 30
0.0
 10
300.0478541197451
 20
185.6328375444782
 30
0.0
 10
300.1616857213615
 20
185.4400120681674
 30
0.0
 10
300.3097463943527
 20
185.1117584790362
 30
0.0
 10
300.3555031031395
 20
184.9954867936095
 30
0.0
 10
300.4381757544314
 20
184.7460972766151
 30
0.0
 10
300.474603562775
 20
184.6139395875056
 30
0.0
 10
300.563722386808
 20
184.2046830671235
 30
0.0
 10
300.5974339698984
 20
183.9062754586133
 30
0.0
 10
300.5974339698919
 20
183.6044896683623
 30
0.0
  0
SPLINE
  5
1FD
330
1F
100
AcDbEntity
  8
0
  6
Continuous
 62
     7
370
    25
100
AcDbSpline
210
0.0
220
0.0
230
1.0
 70
     8
 71
     3
 72
    40
 73
    36
 74
     0
 42
0.000000001
 43
0.00000001
 40
0.0
 40
0.0
 40
0.0
 40
0.0
 40
0.0312500000000005
 40
0.0312500000000005
 40
0.0625000000000011
 40
0.0625000000000011
 40
0.0937500000000016
 40
0.0937500000000016
 40
0.1250000000000022
 40
0.1250000000000022
 40
0.1875000000000017
 40
0.1875000000000017
 40
0.2500000000000013
 40
0.2500000000000013
 40
0.3750000000000006
 40
0.3750000000000006
 40
0.4999999999999998
 40
0.4999999999999998
 40
0.5624999999999999
 40
0.5624999999999999
 40
0.6249999999999998
 40
0.6249999999999998
 40
0.6874999999999998
 40
0.6874999999999998
 40
0.7499999999999998
 40
0.7499999999999998
 40
0.8124999999999998
 40
0.8124999999999998
 40
0.8749999999999997
 40
0.8749999999999997
 40
0.9062500000000002
 40
0.9062500000000002
 40
0.9375000000000008
 40
0.9375000000000008
 40
1.0
 40
1.0
 40
1.0
 40
1.0
 10
269.0489074935284
 20
183.6044896683622
 30
0.0
 10
269.0489074935251
 20
183.7551009787303
 30
0.0
 10
269.0570068391236
 20
183.9028151708828
 30
0.0
 10
269.0881247945164
 20
184.192906967
 30
0.0
 10
269.1115065246486
 20
184.3366855871608
 30
0.0
 10
269.1709037785541
 20
184.6107471747581
 30
0.0
 10
269.2067149203716
 20
184.7411129203419
 30
0.0
 10
269.2889252390443
 20
184.9902992839166
 30
0.0
 10
269.3354351345118
 20
185.1090137766284
 30
0.0
 10
269.4844497587012
 20
185.4398972438303
 30
0.0
 10
269.5978692842947
 20
185.6319045481239
 30
0.0
 10
269.8440563999556
 20
185.9710511320963
 30
0.0
 10
269.9735141123969
 20
186.1137178500776
 30
0.0
 10
270.3757517963649
 20
186.4831010355254
 30
0.0
 10
270.664547554417
 20
186.6520120679869
 30
0.0
 10
271.2429356596165
 20
186.8697069986265
 30
0.0
 10
271.5358841821859
 20
186.9210416568244
 30
0.0
 10
271.9803265796923
 20
186.921150747344
 30
0.0
 10
272.1289872246191
 20
186.9079073094136
 30
0.0
 10
272.4223859508739
 20
186.8548499280403
 30
0.0
 10
272.5678077083064
 20
186.815069890623
 30
0.0
 10
272.8558686430482
 20
186.7066488501887
 30
0.0
 10
272.9985124948714
 20
186.6380563313019
 30
0.0
 10
273.280481700623
 20
186.4664517802176
 30
0.0
 10
273.4208498467967
 20
186.3625491086405
 30
0.0
 10
273.6913512637494
 20
186.1146017464715
 30
0.0
 10
273.8213106892945
 20
185.9712617059095
 30
0.0
 10
274.067092006212
 20
185.6328375444781
 30
0.0
 10
274.1809236078284
 20
185.4400120681673
 30
0.0
 10
274.3289842808196
 20
185.1117584790361
 30
0.0
 10
274.3747409896064
 20
184.9954867936094
 30
0.0
 10
274.4574136408983
 20
184.746097276615
 30
0.0
 10
274.4938414492419
 20
184.6139395875055
 30
0.0
 10
274.5829602732749
 20
184.2046830671233
 30
0.0
 10
274.6166718563653
 20
183.9062754586132
 30
0.0
 10
274.6166718563588
 20
183.6044896683622
 30
0.0
  0
LINE
  5
1FE
330
1F
100
AcDbEntity
  8
0
  6
Continuous
 62
     7
370
    25
100
AcDbLine
 10
124.6166695458
 20
183.6044891268
 30
0.0
 11
124.6166695458
 21
174.5417444497
 31
0.0
  0
LINE
  5
1FF
330
1F
100
AcDbEntity
  8
0
  6
Continuous
 62
     7
370
    25
100
AcDbLine
 10
145.0296659571
 20
174.5417444497
 30
0.0
 11
145.0296659571
 21
183.6044891268
 31
0.0
  0
LINE
  5
200
330
1F
100
AcDbEntity
  8
0
  6
Continuous
 62
     7
370
    25
100
AcDbLine
 10
295.0296719176
 20
174.5417444497
 30
0.0
 11
295.0296719176
 21
183.6044891268
 31
0.0
  0
LINE
  5
201
330
1F
100
AcDbEntity
  8
0
  6
Continuous
 62
     7
370
    25
100
AcDbLine
 10
274.6166755063
 20
183.6044891268
 30
0.0
 11
274.6166755063
 21
174.5417444497
 31
0.0
  0
LINE
  5
202
330
1F
100
AcDbEntity
  8
0
  6
Continuous
 62
     7
370
    25
100
AcDbLine
 10
134.8231677515
 20
170.5731163263
 30
0.0
 11
149.3231710595
 21
170.5731163263
 31
0.0
  0
LINE
  5
203
330
1F
100
AcDbEntity
  8
0
  6
Continuous
 62
     7
370
    25
100
AcDbLine
 10
120.3231681687
 20
170.5731163263
 30
0.0
 11
134.8231677515
 21
170.5731163263
 31
0.0
  0
SPLINE
  5
204
330
1F
100
AcDbEntity
  8
0
  6
Continuous
 62
     7
370
    25
100
AcDbSpline
210
0.0
220
0.0
230
1.0
 70
     8
 71
     3
 72
    40
 73
    36
 74
     0
 42
0.000000001
 43
0.00000001
 40
0.0
 40
0.0
 40
0.0
 40
0.0
 40
0.031250000000001
 40
0.031250000000001
 40
0.062500000000002
 40
0.062500000000002
 40
0.093750000000003
 40
0.093750000000003
 40
0.125000000000004
 40
0.125000000000004
 40
0.1875000000000037
 40
0.1875000000000037
 40
0.2500000000000034
 40
0.2500000000000034
 40
0.3750000000000035
 40
0.3750000000000035
 40
0.5000000000000036
 40
0.5000000000000036
 40
0.5625000000000028
 40
0.5625000000000028
 40
0.625000000000002
 40
0.625000000000002
 40
0.6875000000000012
 40
0.6875000000000012
 40
0.7500000000000004
 40
0.7500000000000004
 40
0.8124999999999997
 40
0.8124999999999997
 40
0.8749999999999989
 40
0.8749999999999989
 40
0.906249999999999
 40
0.906249999999999
 40
0.9374999999999991
 40
0.9374999999999991
 40
1.0
 40
1.0
 40
1.0
 40
1.0
 10
124.6166718563589
 20
174.5417436015974
 30
0.0
 10
124.6166718563589
 20
174.3911322912307
 30
0.0
 10
124.6085725107575
 20
174.2434180990802
 30
0.0
 10
124.5774545553599
 20
173.953326302968
 30
0.0
 10
124.5540728252258
 20
173.8095476828103
 30
0.0
 10
124.4946755713171
 20
173.5354860952183
 30
0.0
 10
124.4588644294984
 20
173.4051203496373
 30
0.0
 10
124.3766541108244
 20
173.1559339860685
 30
0.0
 10
124.3301442153563
 20
173.0372194933589
 30
0.0
 10
124.181129591166
 20
172.7063360261632
 30
0.0
 10
124.0677100655742
 20
172.5143287218752
 30
0.0
 10
123.8215229499136
 20
172.1751821379063
 30
0.0
 10
123.692065237473
 20
172.0325154199268
 30
0.0
 10
123.2898275535088
 20
171.6631322344839
 30
0.0
 10
123.0010317954593
 20
171.4942212020235
 30
0.0
 10
122.4226436902641
 20
171.276526271385
 30
0.0
 10
122.1296951676981
 20
171.2251916131878
 30
0.0
 10
121.6852527701983
 20
171.225082522668
 30
0.0
 10
121.5365921252714
 20
171.2383259605983
 30
0.0
 10
121.2431933990182
 20
171.2913833419715
 30
0.0
 10
121.097771641587
 20
171.3311633793887
 30
0.0
 10
120.8097107068484
 20
171.4395844198221
 30
0.0
 10
120.6670668550274
 20
171.5081769387081
 30
0.0
 10
120.3850976492808
 20
171.679781489789
 30
0.0
 10
120.2447295031104
 20
171.783684161363
 30
0.0
 10
119.9742280861574
 20
172.0316315235305
 30
0.0
 10
119.8442686606129
 20
172.1749715640909
 30
0.0
 10
119.5984873436985
 20
172.5133957255136
 30
0.0
 10
119.4846557420786
 20
172.7062212018267
 30
0.0
 10
119.3365950690866
 20
173.0344747909515
 30
0.0
 10
119.2908383602997
 20
173.1507464763751
 30
0.0
 10
119.2081657090075
 20
173.40013599336
 30
0.0
 10
119.1717379006616
 20
173.53229368247
 30
0.0
 10
119.0826190766237
 20
173.9415502028444
 30
0.0
 10
119.0489074935284
 20
174.2399578113489
 30
0.0
 10
119.0489074935284
 20
174.5417436015974
 30
0.0
  0
SPLINE
  5
205
330
1F
100
AcDbEntity
  8
0
  6
Continuous
 62
     7
370
    25
100
AcDbSpline
210
0.0
220
0.0
230
1.0
 70
     8
 71
     3
 72
    40
 73
    36
 74
     0
 42
0.000000001
 43
0.00000001
 40
0.0
 40
0.0
 40
0.0
 40
0.0
 40
0.0312500000000008
 40
0.0312500000000008
 40
0.0625000000000017
 40
0.0625000000000017
 40
0.0937500000000025
 40
0.0937500000000025
 40
0.1250000000000033
 40
0.1250000000000033
 40
0.1875000000000033
 40
0.1875000000000033
 40
0.2500000000000033
 40
0.2500000000000033
 40
0.3750000000000033
 40
0.3750000000000033
 40
0.5000000000000033
 40
0.5000000000000033
 40
0.5625000000000037
 40
0.5625000000000037
 40
0.6250000000000032
 40
0.6250000000000032
 40
0.6875000000000028
 40
0.6875000000000028
 40
0.7500000000000022
 40
0.7500000000000022
 40
0.8125000000000018
 40
0.8125000000000018
 40
0.8750000000000013
 40
0.8750000000000013
 40
0.9062500000000012
 40
0.9062500000000012
 40
0.937500000000001
 40
0.937500000000001
 40
1.0
 40
1.0
 40
1.0
 40
1.0
 10
150.5974339698919
 20
174.5417436015975
 30
0.0
 10
150.5974339698919
 20
174.3911322912308
 30
0.0
 10
150.5893346242905
 20
174.2434180990803
 30
0.0
 10
150.558216668893
 20
173.9533263029681
 30
0.0
 10
150.5348349387589
 20
173.8095476828105
 30
0.0
 10
150.4754376848501
 20
173.5354860952184
 30
0.0
 10
150.4396265430315
 20
173.4051203496374
 30
0.0
 10
150.3574162243575
 20
173.1559339860686
 30
0.0
 10
150.3109063288894
 20
173.0372194933589
 30
0.0
 10
150.161891704699
 20
172.7063360261633
 30
0.0
 10
150.0484721791073
 20
172.5143287218753
 30
0.0
 10
149.8022850634466
 20
172.1751821379064
 30
0.0
 10
149.6728273510061
 20
172.0325154199269
 30
0.0
 10
149.2705896670419
 20
171.663132234484
 30
0.0
 10
148.9817939089924
 20
171.4942212020235
 30
0.0
 10
148.4034058037972
 20
171.2765262713851
 30
0.0
 10
148.1104572812312
 20
171.2251916131878
 30
0.0
 10
147.6660148837313
 20
171.2250825226681
 30
0.0
 10
147.5173542388044
 20
171.2383259605983
 30
0.0
 10
147.2239555125512
 20
171.2913833419715
 30
0.0
 10
147.07853375512
 20
171.3311633793887
 30
0.0
 10
146.7904728203815
 20
171.4395844198221
 30
0.0
 10
146.6478289685604
 20
171.5081769387081
 30
0.0
 10
146.3658597628138
 20
171.6797814897891
 30
0.0
 10
146.2254916166434
 20
171.783684161363
 30
0.0
 10
145.9549901996903
 20
172.0316315235305
 30
0.0
 10
145.8250307741459
 20
172.1749715640909
 30
0.0
 10
145.5792494572314
 20
172.5133957255136
 30
0.0
 10
145.4654178556116
 20
172.7062212018267
 30
0.0
 10
145.3173571826197
 20
173.0344747909515
 30
0.0
 10
145.2716004738327
 20
173.1507464763751
 30
0.0
 10
145.1889278225405
 20
173.40013599336
 30
0.0
 10
145.1525000141946
 20
173.53229368247
 30
0.0
 10
145.0633811901567
 20
173.9415502028445
 30
0.0
 10
145.0296696070614
 20
174.2399578113489
 30
0.0
 10
145.0296696070614
 20
174.5417436015974
 30
0.0
  0
LINE
  5
206
330
1F
100
AcDbEntity
  8
0
  6
Continuous
 62
     7
370
    25
100
AcDbLine
 10
284.8231737119
 20
170.5731163263
 30
0.0
 11
299.3231732947
 21
170.5731163263
 31
0.0
  0
LINE
  5
207
330
1F
100
AcDbEntity
  8
0
  6
Continuous
 62
     7
370
    25
100
AcDbLine
 10
270.3231704039
 20
170.5731163263
 30
0.0
 11
284.8231737119
 21
170.5731163263
 31
0.0
  0
SPLINE
  5
208
330
1F
100
AcDbEntity
  8
0
  6
Continuous
 62
     7
370
    25
100
AcDbSpline
210
0.0
220
0.0
230
1.0
 70
     8
 71
     3
 72
    40
 73
    36
 74
     0
 42
0.000000001
 43
0.00000001
 40
0.0
 40
0.0
 40
0.0
 40
0.0
 40
0.0312499999999998
 40
0.0312499999999998
 40
0.0624999999999996
 40
0.0624999999999996
 40
0.0937499999999993
 40
0.0937499999999993
 40
0.1249999999999991
 40
0.1249999999999991
 40
0.1874999999999996
 40
0.1874999999999996
 40
0.25
 40
0.25
 40
0.3750000000000006
 40
0.3750000000000006
 40
0.5000000000000011
 40
0.5000000000000011
 40
0.5625000000000009
 40
0.5625000000000009
 40
0.6250000000000007
 40
0.6250000000000007
 40
0.6875000000000004
 40
0.6875000000000004
 40
0.7500000000000002
 40
0.7500000000000002
 40
0.8125
 40
0.8125
 40
0.8749999999999998
 40
0.8749999999999998
 40
0.9062499999999999
 40
0.9062499999999999
 40
0.9375
 40
0.9375
 40
1.0
 40
1.0
 40
1.0
 40
1.0
 10
274.6166718563589
 20
174.5417436015979
 30
0.0
 10
274.6166718563588
 20
174.3911322912312
 30
0.0
 10
274.6085725107574
 20
174.2434180990807
 30
0.0
 10
274.5774545553599
 20
173.9533263029685
 30
0.0
 10
274.5540728252258
 20
173.8095476828109
 30
0.0
 10
274.494675571317
 20
173.5354860952189
 30
0.0
 10
274.4588644294985
 20
173.4051203496379
 30
0.0
 10
274.3766541108243
 20
173.1559339860691
 30
0.0
 10
274.3301442153563
 20
173.0372194933594
 30
0.0
 10
274.181129591166
 20
172.7063360261637
 30
0.0
 10
274.0677100655742
 20
172.5143287218758
 30
0.0
 10
273.8215229499135
 20
172.1751821379069
 30
0.0
 10
273.692065237473
 20
172.0325154199273
 30
0.0
 10
273.2898275535088
 20
171.6631322344845
 30
0.0
 10
273.0010317954593
 20
171.494221202024
 30
0.0
 10
272.4226436902641
 20
171.2765262713856
 30
0.0
 10
272.1296951676981
 20
171.2251916131883
 30
0.0
 10
271.6852527701984
 20
171.2250825226686
 30
0.0
 10
271.5365921252714
 20
171.2383259605988
 30
0.0
 10
271.2431933990182
 20
171.2913833419721
 30
0.0
 10
271.097771641587
 20
171.3311633793892
 30
0.0
 10
270.8097107068485
 20
171.4395844198226
 30
0.0
 10
270.6670668550274
 20
171.5081769387086
 30
0.0
 10
270.3850976492808
 20
171.6797814897896
 30
0.0
 10
270.2447295031105
 20
171.7836841613636
 30
0.0
 10
269.9742280861574
 20
172.0316315235311
 30
0.0
 10
269.8442686606129
 20
172.1749715640914
 30
0.0
 10
269.5984873436985
 20
172.5133957255141
 30
0.0
 10
269.4846557420786
 20
172.7062212018272
 30
0.0
 10
269.3365950690867
 20
173.034474790952
 30
0.0
 10
269.2908383602997
 20
173.1507464763756
 30
0.0
 10
269.2081657090076
 20
173.4001359933605
 30
0.0
 10
269.1717379006616
 20
173.5322936824705
 30
0.0
 10
269.0826190766238
 20
173.941550202845
 30
0.0
 10
269.0489074935285
 20
174.2399578113494
 30
0.0
 10
269.0489074935284
 20
174.5417436015979
 30
0.0
  0
SPLINE
  5
209
330
1F
100
AcDbEntity
  8
0
  6
Continuous
 62
     7
370
    25
100
AcDbSpline
210
0.0
220
0.0
230
1.0
 70
     8
 71
     3
 72
    40
 73
    36
 74
     0
 42
0.000000001
 43
0.00000001
 40
0.0
 40
0.0
 40
0.0
 40
0.0
 40
0.0312500000000002
 40
0.0312500000000002
 40
0.0625000000000003
 40
0.0625000000000003
 40
0.0937500000000005
 40
0.0937500000000005
 40
0.1250000000000007
 40
0.1250000000000007
 40
0.1875000000000011
 40
0.1875000000000011
 40
0.2500000000000014
 40
0.2500000000000014
 40
0.3750000000000023
 40
0.3750000000000023
 40
0.5000000000000032
 40
0.5000000000000032
 40
0.562500000000003
 40
0.562500000000003
 40
0.6250000000000028
 40
0.6250000000000028
 40
0.6875000000000026
 40
0.6875000000000026
 40
0.7500000000000023
 40
0.7500000000000023
 40
0.8125000000000021
 40
0.8125000000000021
 40
0.8750000000000019
 40
0.8750000000000019
 40
0.9062500000000016
 40
0.9062500000000016
 40
0.9375000000000013
 40
0.9375000000000013
 40
1.0
 40
1.0
 40
1.0
 40
1.0
 10
300.597433969892
 20
174.541743601598
 30
0.0
 10
300.5974339698919
 20
174.3911322912313
 30
0.0
 10
300.5893346242906
 20
174.2434180990808
 30
0.0
 10
300.5582166688931
 20
173.9533263029686
 30
0.0
 10
300.534834938759
 20
173.809547682811
 30
0.0
 10
300.4754376848502
 20
173.5354860952189
 30
0.0
 10
300.4396265430316
 20
173.4051203496379
 30
0.0
 10
300.3574162243575
 20
173.1559339860692
 30
0.0
 10
300.3109063288894
 20
173.0372194933595
 30
0.0
 10
300.1618917046991
 20
172.7063360261637
 30
0.0
 10
300.0484721791073
 20
172.5143287218758
 30
0.0
 10
299.8022850634466
 20
172.1751821379069
 30
0.0
 10
299.6728273510061
 20
172.0325154199273
 30
0.0
 10
299.2705896670419
 20
171.6631322344845
 30
0.0
 10
298.9817939089924
 20
171.4942212020241
 30
0.0
 10
298.4034058037972
 20
171.2765262713856
 30
0.0
 10
298.1104572812312
 20
171.2251916131883
 30
0.0
 10
297.6660148837314
 20
171.2250825226686
 30
0.0
 10
297.5173542388045
 20
171.2383259605988
 30
0.0
 10
297.2239555125512
 20
171.2913833419721
 30
0.0
 10
297.0785337551201
 20
171.3311633793892
 30
0.0
 10
296.7904728203815
 20
171.4395844198226
 30
0.0
 10
296.6478289685605
 20
171.5081769387086
 30
0.0
 10
296.3658597628138
 20
171.6797814897896
 30
0.0
 10
296.2254916166435
 20
171.7836841613635
 30
0.0
 10
295.9549901996904
 20
172.031631523531
 30
0.0
 10
295.8250307741459
 20
172.1749715640914
 30
0.0
 10
295.5792494572315
 20
172.5133957255141
 30
0.0
 10
295.4654178556116
 20
172.7062212018272
 30
0.0
 10
295.3173571826196
 20
173.034474790952
 30
0.0
 10
295.2716004738327
 20
173.1507464763756
 30
0.0
 10
295.1889278225405
 20
173.4001359933605
 30
0.0
 10
295.1525000141946
 20
173.5322936824705
 30
0.0
 10
295.0633811901568
 20
173.941550202845
 30
0.0
 10
295.0296696070615
 20
174.2399578113495
 30
0.0
 10
295.0296696070614
 20
174.541743601598
 30
0.0
  0
LINE
  5
20A
330
1F
100
AcDbEntity
  8
0
  6
Continuous
 62
     7
370
    25
100
AcDbLine
 10
232.6058485163
 20
118.1379193902
 30
0.0
 11
232.6507475776
 21
119.6039105296
 31
0.0
  0
LINE
  5
20B
330
1F
100
AcDbEntity
  8
0
  6
Continuous
 62
     7
370
    25
100
AcDbLine
 10
232.5927224559
 20
117.8109301716
 30
0.0
 11
232.5520273847
 21
116.7972693682
 31
0.0
  0
LINE
  5
20C
330
1F
100
AcDbEntity
  8
0
  6
Continuous
 62
     7
370
    25
100
AcDbLine
 10
187.0404948098
 20
118.1378690988
 30
0.0
 11
187.1936061037
 21
114.3240249246
 31
0.0
  0
LINE
  5
20D
330
1F
100
AcDbEntity
  8
0
  6
Continuous
 62
     7
370
    25
100
AcDbLine
 10
187.0404929471
 20
118.1379193902
 30
0.0
 11
186.9955286932
 21
119.606071198
 31
0.0
  0
LINE
  5
20E
330
1F
100
AcDbEntity
  8
0
  6
Continuous
 62
     7
370
    25
100
AcDbLine
 10
119.0489102704
 20
174.5417444497
 30
0.0
 11
119.0489102704
 21
183.6044891268
 31
0.0
  0
LINE
  5
20F
330
1F
100
AcDbEntity
  8
0
  6
Continuous
 62
     7
370
    25
100
AcDbLine
 10
150.5974326832
 20
183.6044891268
 30
0.0
 11
150.5974326832
 21
174.5417444497
 31
0.0
  0
LINE
  5
210
330
1F
100
AcDbEntity
  8
0
  6
Continuous
 62
     7
370
    25
100
AcDbLine
 10
300.597431193
 20
183.6044891268
 30
0.0
 11
300.597431193
 21
174.5417444497
 31
0.0
  0
LINE
  5
211
330
1F
100
AcDbEntity
  8
0
  6
Continuous
 62
     7
370
    25
100
AcDbLine
 10
269.0489087803
 20
174.5417444497
 30
0.0
 11
269.0489087803
 21
183.6044891268
 31
0.0
  0
SPLINE
  5
212
330
1F
100
AcDbEntity
  8
0
  6
Continuous
 62
     7
370
    25
100
AcDbSpline
210
0.0
220
0.0
230
1.0
 70
     8
 71
     3
 72
    10
 73
     6
 74
     0
 42
0.000000001
 43
0.00000001
 40
0.0
 40
0.0
 40
0.0
 40
0.0
 40
0.4530374078359903
 40
0.7262468130987103
 40
1.0
 40
1.0
 40
1.0
 40
1.0
 10
190.8037439537514
 20
140.1423964878516
 30
0.0
 10
191.0452823837218
 20
140.142674975437
 30
0.0
 10
191.4324833344
 20
140.1431214081552
 30
0.0
 10
192.1087528734951
 20
140.1456946252254
 30
0.0
 10
192.4991254114183
 20
140.147182208436
 30
0.0
 10
192.69450573151
 20
140.1479267395073
 30
0.0
  0
SPLINE
  5
213
330
1F
100
AcDbEntity
  8
0
  6
Continuous
 62
     7
370
    25
100
AcDbSpline
210
0.0
220
0.0
230
1.0
 70
     8
 71
     3
 72
    10
 73
     6
 74
     0
 42
0.000000001
 43
0.00000001
 40
0.0
 40
0.0
 40
0.0
 40
0.0
 40
0.4964293058729267
 40
0.9962440028492798
 40
1.0
 40
1.0
 40
1.0
 40
1.0
 10
226.9518357319106
 20
140.1479267395073
 30
0.0
 10
227.3045284671878
 20
140.1466143620549
 30
0.0
 10
228.0123191197776
 20
140.1439806574146
 30
0.0
 10
228.6562271557478
 20
140.1416559600449
 30
0.0
 10
228.9224582546534
 20
140.1414606846021
 30
0.0
 10
228.9244440001715
 20
140.1414592280956
 30
0.0
  0
LINE
  5
214
330
1F
100
AcDbEntity
  8
0
  6
Continuous
 62
     7
370
    25
100
AcDbLine
 10
303.4667615396
 20
140.640887056
 30
0.0
 11
303.4667764408
 21
140.640888031
 31
0.0
  0
LINE
  5
215
330
1F
100
AcDbEntity
  8
0
  6
Continuous
 62
     7
370
    25
100
AcDbLine
 10
116.1795799238
 20
140.640887056
 30
0.0
 11
116.1795650226
 21
140.640888031
 31
0.0
  0
LINE
  5
216
330
1F
100
AcDbEntity
  8
0
  6
Continuous
 62
     7
370
    25
100
AcDbLine
 10
120.9382210476
 20
169.5731161624
 30
0.0
 11
120.6213031513
 21
169.5731161624
 31
0.0
  0
SPLINE
  5
217
330
1F
100
AcDbEntity
  8
0
  6
Continuous
 62
     7
370
    25
100
AcDbSpline
210
0.0
220
0.0
230
1.0
 70
     8
 71
     3
 72
    12
 73
     8
 74
     0
 42
0.000000001
 43
0.00000001
 40
0.0
 40
0.0
 40
0.0
 40
0.0
 40
0.280336719028382
 40
0.5646235489699929
 40
0.7604713972706489
 40
0.9576203943107996
 40
1.0
 40
1.0
 40
1.0
 40
1.0
 10
232.9543866765965
 20
135.7672084584804
 30
0.0
 10
232.8819949255881
 20
136.0095487161224
 30
0.0
 10
232.7361913807934
 20
136.4976439496058
 30
0.0
 10
232.3056866575078
 20
136.9609161587077
 30
0.0
 10
231.7832110168372
 20
137.2590399128399
 30
0.0
 10
231.3955452489374
 20
137.4076266180307
 30
0.0
 10
231.1289915305016
 20
137.448375945513
 30
0.0
 10
231.0818303925265
 20
137.4555856917025
 30
0.0
  0
SPLINE
  5
218
330
1F
100
AcDbEntity
  8
0
  6
Continuous
 62
     7
370
    25
100
AcDbSpline
210
0.0
220
0.0
230
1.0
 70
     8
 71
     3
 72
    10
 73
     6
 74
     0
 42
0.000000001
 43
0.00000001
 40
0.0
 40
0.0
 40
0.0
 40
0.0
 40
0.1948484377392472
 40
0.5917482285487874
 40
1.0
 40
1.0
 40
1.0
 40
1.0
 10
188.6355598074664
 20
137.3926999974967
 30
0.0
 10
188.4068042887493
 20
137.3686941624529
 30
0.0
 10
187.7120813823604
 20
137.2957892393916
 30
0.0
 10
187.0614060343185
 20
136.7669434978802
 30
0.0
 10
186.8162573349249
 20
136.1035711414213
 30
0.0
 10
186.6919547868241
 20
135.7672084584804
 30
0.0
  0
ARC
  5
219
330
1F
100
AcDbEntity
  8
0
  6
Continuous
 62
     7
370
    25
100
AcDbCircle
 10
230.1612203172
 20
106.1674798028
 30
0.0
 40
1.271242709524126
100
AcDbArc
 50
272.9412256128
 51
309.2411832198
  0
SPLINE
  5
21A
330
1F
100
AcDbEntity
  8
0
  6
Continuous
 62
     7
370
    25
100
AcDbSpline
210
0.0
220
0.0
230
1.0
 70
     8
 71
     3
 72
    10
 73
     6
 74
     0
 42
0.000000001
 43
0.00000001
 40
0.0
 40
0.0
 40
0.0
 40
0.0
 40
0.0561850301419782
 40
0.3864985241799659
 40
1.0
 40
1.0
 40
1.0
 40
1.0
 10
188.7031198096741
 20
105.1699920088024
 30
0.0
 10
188.7138100118513
 20
105.1601006946094
 30
0.0
 10
188.7873482364327
 20
105.0920580446695
 30
0.0
 10
189.0203131762835
 20
104.9655141994455
 30
0.0
 10
189.2627721249824
 20
104.9243223071587
 30
0.0
 10
189.4203760278691
 20
104.8975466281147
 30
0.0
  0
SPLINE
  5
21B
330
1F
100
AcDbEntity
  8
0
  6
Continuous
 62
     7
370
    25
100
AcDbSpline
210
0.0
220
0.0
230
1.0
 70
     8
 71
     3
 72
     9
 73
     5
 74
     0
 42
0.000000001
 43
0.00000001
 40
0.0
 40
0.0
 40
0.0
 40
0.0
 40
0.6652655468059339
 40
0.9999999999999999
 40
0.9999999999999999
 40
0.9999999999999999
 40
0.9999999999999999
 10
230.9108023149241
 20
105.1407224029274
 30
0.0
 10
230.8400355579654
 20
105.089837930838
 30
0.0
 10
230.7336618590741
 20
105.0133504705544
 30
0.0
 10
230.6063495858015
 20
104.9885246144845
 30
0.0
 10
230.5637337816227
 20
104.9802145451279
 30
0.0
  0
SPLINE
  5
21C
330
1F
100
AcDbEntity
  8
0
  6
Continuous
 62
     7
370
    25
100
AcDbSpline
210
0.0
220
0.0
230
1.0
 70
     8
 71
     3
 72
     9
 73
     5
 74
     0
 42
0.000000001
 43
0.00000001
 40
0.0
 40
0.0
 40
0.0
 40
0.0
 40
0.1683756878267006
 40
1.0
 40
1.0
 40
1.0
 40
1.0
 10
229.8548520160187
 20
104.8330506771775
 30
0.0
 10
229.849449284344
 20
104.8323537422184
 30
0.0
 10
229.8173619221814
 20
104.8282145760003
 30
0.0
 10
229.7025379635926
 20
104.8239763539148
 30
0.0
 10
229.6070475680102
 20
104.8204517453881
 30
0.0
  0
LINE
  5
21D
330
1F
100
AcDbEntity
  8
0
  6
Continuous
 62
     7
370
    25
100
AcDbLine
 10
218.4327552644
 20
104.5011273116
 30
0.0
 11
218.4321228964
 21
104.4996595472
 31
0.0
  0
SPLINE
  5
21E
330
1F
100
AcDbEntity
  8
0
  6
Continuous
 62
     7
370
    25
100
AcDbSpline
210
0.0
220
0.0
230
1.0
 70
     8
 71
     3
 72
    10
 73
     6
 74
     0
 42
0.000000001
 43
0.00000001
 40
0.0
 40
0.0
 40
0.0
 40
0.0
 40
0.1253894442361097
 40
0.5624134894995911
 40
1.0
 40
1.0
 40
1.0
 40
1.0
 10
190.0384687436093
 20
104.8204591959687
 30
0.0
 10
189.9587207944604
 20
104.8238661698854
 30
0.0
 10
189.6010246372244
 20
104.8391475845281
 30
0.0
 10
189.4872655404239
 20
104.8666308412647
 30
0.0
 10
189.442682089314
 20
104.8872369485438
 30
0.0
 10
189.4203760278691
 20
104.8975466281147
 30
0.0
  0
LINE
  5
21F
330
1F
100
AcDbEntity
  8
0
  6
Continuous
 62
     8
370
    18
100
AcDbLine
 10
125.630037914
 20
189.6134196311
 30
0.0
 11
169.4049519104
 21
189.6134196311
 31
0.0
  0
LINE
  5
220
330
1F
100
AcDbEntity
  8
0
  6
Continuous
 62
     8
370
    18
100
AcDbLine
 10
100.2413873178
 20
189.6134196311
 30
0.0
 11
125.630037914
 21
189.6134196311
 31
0.0
  0
LINE
  5
221
330
1F
100
AcDbEntity
  8
0
  6
Continuous
 62
     8
370
    18
100
AcDbLine
 10
262.1809151572
 20
189.6134196311
 30
0.0
 11
319.4049541456
 21
189.6134196311
 31
0.0
  0
LINE
  5
222
330
1F
100
AcDbEntity
  8
0
  6
Continuous
 62
     8
370
    18
100
AcDbLine
 10
250.241389553
 20
189.6134196311
 30
0.0
 11
262.1809151572
 21
189.6134196311
 31
0.0
  0
LINE
  5
223
330
1F
100
AcDbEntity
  8
0
  6
Continuous
 62
     8
370
    18
100
AcDbLine
 10
126.1553112966
 20
187.6484631091
 30
0.0
 11
167.4290244085
 21
187.6484631091
 31
0.0
  0
LINE
  5
224
330
1F
100
AcDbEntity
  8
0
  6
Continuous
 62
     8
370
    18
100
AcDbLine
 10
102.217318545
 20
187.6484631091
 30
0.0
 11
126.1553112966
 21
187.6484631091
 31
0.0
  0
LINE
  5
225
330
1F
100
AcDbEntity
  8
0
  6
Continuous
 62
     8
370
    18
100
AcDbLine
 10
263.474645148
 20
187.6484631091
 30
0.0
 11
317.4290229184
 21
187.6484631091
 31
0.0
  0
LINE
  5
226
330
1F
100
AcDbEntity
  8
0
  6
Continuous
 62
     8
370
    18
100
AcDbLine
 10
252.2173170549
 20
187.6484631091
 30
0.0
 11
263.474645148
 21
187.6484631091
 31
0.0
  0
SPLINE
  5
227
330
1F
100
AcDbEntity
  8
0
  6
Continuous
 62
     8
370
    18
100
AcDbSpline
210
0.0
220
0.0
230
1.0
 70
     8
 71
     3
 72
     8
 73
     4
 74
     0
 42
0.000000001
 43
0.00000001
 40
0.0
 40
0.0
 40
0.0
 40
0.0
 40
1.0
 40
1.0
 40
1.0
 40
1.0
 10
124.9571583734778
 20
142.1766227494332
 30
0.0
 10
125.4221292938306
 20
142.1764336731728
 30
0.0
 10
125.8871763336484
 20
142.1768097482849
 30
0.0
 10
126.3523097021431
 20
142.1766531774501
 30
0.0
  0
SPLINE
  5
228
330
1F
100
AcDbEntity
  8
0
  6
Continuous
 62
     8
370
    18
100
AcDbSpline
210
0.0
220
0.0
230
1.0
 70
     8
 71
     3
 72
     8
 73
     4
 74
     0
 42
0.000000001
 43
0.00000001
 40
0.0
 40
0.0
 40
0.0
 40
0.0
 40
1.0
 40
1.0
 40
1.0
 40
1.0
 10
126.3541274320372
 20
140.6388661377335
 30
0.0
 10
125.8888860292252
 20
140.6388341661063
 30
0.0
 10
125.4228654270108
 20
140.6388164175925
 30
0.0
 10
124.9561222954012
 20
140.6396714970834
 30
0.0
  0
SPLINE
  5
229
330
1F
100
AcDbEntity
  8
0
  6
Continuous
 62
     8
370
    18
100
AcDbSpline
210
0.0
220
0.0
230
1.0
 70
     8
 71
     3
 72
     8
 73
     4
 74
     0
 42
0.000000001
 43
0.00000001
 40
0.0
 40
0.0
 40
0.0
 40
0.0
 40
1.0
 40
1.0
 40
1.0
 40
1.0
 10
294.6902191680193
 20
140.6396714970841
 30
0.0
 10
294.2333719264954
 20
140.6394081307373
 30
0.0
 10
293.7673327802156
 20
140.6391396882046
 30
0.0
 10
293.29221403439
 20
140.6388661377345
 30
0.0
  0
LWPOLYLINE
  5
22A
330
1F
100
AcDbEntity
  8
0
  6
Continuous
 62
     8
370
    18
100
AcDbPolyline
 90
        3
 70
   128
 43
0.0
 10
293.2940293652
 20
142.1766531883
 10
293.9914558632
 20
142.1766379379
 10
294.6891803843
 20
142.1766228039
  0
SPLINE
  5
22B
330
1F
100
AcDbEntity
  8
0
  6
Continuous
 62
     8
370
    18
100
AcDbSpline
210
0.0
220
0.0
230
1.0
 70
     8
 71
     3
 72
    20
 73
    16
 74
     0
 42
0.000000001
 43
0.00000001
 40
0.0
 40
0.0
 40
0.0
 40
0.0
 40
0.0519566344019788
 40
0.1234343167560704
 40
0.1966598025411456
 40
0.2473535517287785
 40
0.3783494000997323
 40
0.4992987812261014
 40
0.6176603504657939
 40
0.751593664063222
 40
0.8127010560533288
 40
0.8758531720648001
 40
0.9185307474314548
 40
0.9599569064993427
 40
1.0
 40
1.0
 40
1.0
 40
1.0
 10
303.463515489881
 20
140.6432087684763
 30
0.0
 10
303.4630008794096
 20
140.6442887350098
 30
0.0
 10
303.4617783099982
 20
140.6468544310508
 30
0.0
 10
303.4259226630835
 20
140.6527206089818
 30
0.0
 10
303.3260185088891
 20
140.658757057347
 30
0.0
 10
303.0926006921808
 20
140.6663431020432
 30
0.0
 10
302.5861173798194
 20
140.6730364161812
 30
0.0
 10
301.4871080273246
 20
140.675035805491
 30
0.0
 10
299.9874058311268
 20
140.6698221519958
 30
0.0
 10
298.5485613586687
 20
140.6609325483603
 30
0.0
 10
297.3382561164865
 20
140.6528352453029
 30
0.0
 10
296.5492975245782
 20
140.6475551007337
 30
0.0
 10
295.8528053495472
 20
140.643450130554
 30
0.0
 10
295.2654633881909
 20
140.6409661783013
 30
0.0
 10
294.880017609978
 20
140.6401086875773
 30
0.0
 10
294.6905664876246
 20
140.6396872208256
 30
0.0
  0
SPLINE
  5
22C
330
1F
100
AcDbEntity
  8
0
  6
Continuous
 62
     8
370
    18
100
AcDbSpline
210
0.0
220
0.0
230
1.0
 70
     8
 71
     3
 72
    20
 73
    16
 74
     0
 42
0.000000001
 43
0.00000001
 40
0.0
 40
0.0
 40
0.0
 40
0.0
 40
0.0449350608479206
 40
0.0984993896867356
 40
0.1609598754551355
 40
0.2325133540190179
 40
0.3369972736064148
 40
0.4252515359648906
 40
0.4965656758068558
 40
0.5788676442002756
 40
0.6674386322626543
 40
0.7625680422930893
 40
0.8774383344324802
 40
0.957071136780031
 40
1.0
 40
1.0
 40
1.0
 40
1.0
 10
294.6895829485493
 20
142.1765194405257
 30
0.0
 10
294.9319827651447
 20
142.1767645832249
 30
0.0
 10
295.4633325295442
 20
142.177301945494
 30
0.0
 10
296.3315982384104
 20
142.1840808164838
 30
0.0
 10
297.3422049242686
 20
142.1948970394986
 30
0.0
 10
298.6180756352717
 20
142.2130947712304
 30
0.0
 10
299.997919045075
 20
142.2329689309887
 30
0.0
 10
301.273643601713
 20
142.2473122295374
 30
0.0
 10
302.312049889205
 20
142.2536286885431
 30
0.0
 10
303.1923365515327
 20
142.2475960294087
 30
0.0
 10
303.9267926813247
 20
142.231517097166
 30
0.0
 10
304.4674349045602
 20
142.2018786307393
 30
0.0
 10
304.7210099717255
 20
142.1717560465178
 30
0.0
 10
304.7857860803423
 20
142.1490344512838
 30
0.0
 10
304.7890426142683
 20
142.1422315979198
 30
0.0
 10
304.7901832588478
 20
142.1398488075081
 30
0.0
  0
SPLINE
  5
22D
330
1F
100
AcDbEntity
  8
0
  6
Continuous
 62
     8
370
    18
100
AcDbSpline
210
0.0
220
0.0
230
1.0
 70
     8
 71
     3
 72
    14
 73
    10
 74
     0
 42
0.000000001
 43
0.00000001
 40
0.0
 40
0.0
 40
0.0
 40
0.0
 40
0.2500000000000001
 40
0.2500000000000001
 40
0.5000000000000001
 40
0.5000000000000001
 40
0.7500000000000001
 40
0.7500000000000001
 40
1.0
 40
1.0
 40
1.0
 40
1.0
 10
304.7901390499584
 20
142.1398467985401
 30
0.0
 10
304.7976853921654
 20
141.9733558012527
 30
0.0
 10
304.7759837919499
 20
141.7928906689375
 30
0.0
 10
304.6569231910202
 20
141.4395936888488
 30
0.0
 10
304.5591186377159
 20
141.2677490101576
 30
0.0
 10
304.3016448050946
 20
140.9772642315706
 30
0.0
 10
304.1427789230666
 20
140.8595311357278
 30
0.0
 10
303.8063044730123
 20
140.6989101872325
 30
0.0
 10
303.6297225678138
 20
140.6556764293508
 30
0.0
 10
303.4635154763799
 20
140.6432088005383
 30
0.0
  0
SPLINE
  5
22E
330
1F
100
AcDbEntity
  8
0
  6
Continuous
 62
     8
370
    18
100
AcDbSpline
210
0.0
220
0.0
230
1.0
 70
     8
 71
     3
 72
    18
 73
    14
 74
     0
 42
0.000000001
 43
0.00000001
 40
0.0
 40
0.0
 40
0.0
 40
0.0
 40
0.2499999999999999
 40
0.2499999999999999
 40
0.3749999999999995
 40
0.3749999999999995
 40
0.4999999999999991
 40
0.4999999999999991
 40
0.6249999999999988
 40
0.6249999999999988
 40
0.7499999999999983
 40
0.7499999999999983
 40
1.0
 40
1.0
 40
1.0
 40
1.0
 10
114.8561582045727
 20
142.1398488075075
 30
0.0
 10
114.8569390727983
 20
142.1431470916228
 30
0.0
 10
114.9031039470037
 20
142.1763326675124
 30
0.0
 10
115.4308825287619
 20
142.2172849973062
 30
0.0
 10
115.6855749189749
 20
142.2296795092115
 30
0.0
 10
116.3983742035827
 20
142.2470086544821
 30
0.0
 10
116.8635519362001
 20
142.2517352240629
 30
0.0
 10
117.9429790367853
 20
142.2515697858775
 30
0.0
 10
118.5719146069179
 20
142.2464398862567
 30
0.0
 10
119.866392846554
 20
142.2309540198114
 30
0.0
 10
120.5471137144777
 20
142.2204097688295
 30
0.0
 10
122.5302943923749
 20
142.1908305634289
 30
0.0
 10
123.7969522898793
 20
142.1751841545407
 30
0.0
 10
124.9567585148737
 20
142.1765194405251
 30
0.0
  0
SPLINE
  5
22F
330
1F
100
AcDbEntity
  8
0
  6
Continuous
 62
     8
370
    18
100
AcDbSpline
210
0.0
220
0.0
230
1.0
 70
     8
 71
     3
 72
    18
 73
    14
 74
     0
 42
0.000000001
 43
0.00000001
 40
0.0
 40
0.0
 40
0.0
 40
0.0
 40
0.2499999999999978
 40
0.2499999999999978
 40
0.3749999999999982
 40
0.3749999999999982
 40
0.4999999999999986
 40
0.4999999999999986
 40
0.6249999999999989
 40
0.6249999999999989
 40
0.7499999999999993
 40
0.7499999999999993
 40
1.0
 40
1.0
 40
1.0
 40
1.0
 10
124.955774975796
 20
140.639687220825
 30
0.0
 10
123.7824692130262
 20
140.6416964226351
 30
0.0
 10
122.6024648096276
 20
140.6508077945109
 30
0.0
 10
120.8602790568438
 20
140.6624829779092
 30
0.0
 10
120.278166763683
 20
140.6660764711787
 30
0.0
 10
119.1896564964474
 20
140.671462018532
 30
0.0
 10
118.6721259629867
 20
140.6733048969091
 30
0.0
 10
117.7900938704004
 20
140.6744268098309
 30
0.0
 10
117.4145082730872
 20
140.6737747441953
 30
0.0
 10
116.8379210530611
 20
140.6701638612288
 30
0.0
 10
116.6321350313537
 20
140.6672901966534
 30
0.0
 10
116.2085209959086
 20
140.6569554610604
 30
0.0
 10
116.1847690725759
 20
140.6474452517972
 30
0.0
 10
116.1828259735395
 20
140.6432087684756
 30
0.0
  0
SPLINE
  5
230
330
1F
100
AcDbEntity
  8
0
  6
Continuous
 62
     8
370
    18
100
AcDbSpline
210
0.0
220
0.0
230
1.0
 70
     8
 71
     3
 72
    14
 73
    10
 74
     0
 42
0.000000001
 43
0.00000001
 40
0.0
 40
0.0
 40
0.0
 40
0.0
 40
0.25
 40
0.25
 40
0.5
 40
0.5
 40
0.75
 40
0.75
 40
1.0
 40
1.0
 40
1.0
 40
1.0
 10
116.1828259735395
 20
140.6432087684756
 30
0.0
 10
116.0166243004877
 20
140.6556497030129
 30
0.0
 10
115.8400369752312
 20
140.6988568498801
 30
0.0
 10
115.50353662615
 20
140.8594437108142
 30
0.0
 10
115.3446508041824
 20
140.9771701672452
 30
0.0
 10
115.0871465717671
 20
141.2676657634057
 30
0.0
 10
114.9893325797573
 20
141.4395274228522
 30
0.0
 10
114.870277405224
 20
141.7928617203213
 30
0.0
 10
114.8485687405893
 20
141.9733561851106
 30
0.0
 10
114.8561582045727
 20
142.1398488075075
 30
0.0
  0
LINE
  5
231
330
1F
100
AcDbEntity
  8
0
  6
Continuous
 62
     8
370
    18
100
AcDbLine
 10
293.2919059498
 20
140.6387423802
 30
0.0
 11
209.8231707317
 21
140.640995104
 31
0.0
  0
SPLINE
  5
232
330
1F
100
AcDbEntity
  8
0
  6
Continuous
 62
     8
370
    18
100
AcDbSpline
210
0.0
220
0.0
230
1.0
 70
     8
 71
     3
 72
    12
 73
     8
 74
     0
 42
0.000000001
 43
0.00000001
 40
0.0
 40
0.0
 40
0.0
 40
0.0
 40
0.2499999999999999
 40
0.2499999999999999
 40
0.4999999999999999
 40
0.4999999999999999
 40
1.0
 40
1.0
 40
1.0
 40
1.0
 10
209.8231707317103
 20
142.1521094617881
 30
0.0
 10
216.6543221538123
 20
142.1541467353766
 30
0.0
 10
223.513730294025
 20
142.1561839957367
 30
0.0
 10
237.2841916667857
 20
142.1602584899382
 30
0.0
 10
244.1970476999758
 20
142.1622957237797
 30
0.0
 10
265.0391298277235
 20
142.1684073854336
 30
0.0
 10
279.0724866505471
 20
142.1724817733754
 30
0.0
 10
293.2937215234752
 20
142.1765561079094
 30
0.0
  0
SPLINE
  5
233
330
1F
100
AcDbEntity
  8
0
  6
Continuous
 62
     8
370
    18
100
AcDbSpline
210
0.0
220
0.0
230
1.0
 70
     8
 71
     3
 72
     8
 73
     4
 74
     0
 42
0.000000001
 43
0.00000001
 40
0.0
 40
0.0
 40
0.0
 40
0.0
 40
1.0
 40
1.0
 40
1.0
 40
1.0
 10
126.3526199399453
 20
142.1765561079088
 30
0.0
 10
154.1757402707625
 20
142.1620196466913
 30
0.0
 10
181.9998932626092
 20
142.1521095272014
 30
0.0
 10
209.8231707317002
 20
142.1521094617881
 30
0.0
  0
SPLINE
  5
234
330
1F
100
AcDbEntity
  8
0
  6
Continuous
 62
     8
370
    18
100
AcDbSpline
210
0.0
220
0.0
230
1.0
 70
     8
 71
     3
 72
     8
 73
     4
 74
     0
 42
0.000000001
 43
0.00000001
 40
0.0
 40
0.0
 40
0.0
 40
0.0
 40
1.0
 40
1.0
 40
1.0
 40
1.0
 10
209.8231707317103
 20
140.6409951065128
 30
0.0
 10
182.0002598336703
 20
140.6409951018018
 30
0.0
 10
154.1773600199161
 20
140.6402172283751
 30
0.0
 10
126.3544360058264
 20
140.6387423860587
 30
0.0
  0
SPLINE
  5
235
330
1F
100
AcDbEntity
  8
0
  6
Continuous
 62
     8
370
    18
100
AcDbSpline
210
0.0
220
0.0
230
1.0
 70
     8
 71
     3
 72
     8
 73
     4
 74
     0
 42
0.000000001
 43
0.00000001
 40
0.0
 40
0.0
 40
0.0
 40
0.0
 40
1.0
 40
1.0
 40
1.0
 40
1.0
 10
139.1496946423418
 20
168.1624515470258
 30
0.0
 10
146.257542190678
 20
168.1557252406141
 30
0.0
 10
153.3654400377334
 20
168.1485548337212
 30
0.0
 10
160.4734595231558
 20
168.1410412298155
 30
0.0
  0
LWPOLYLINE
  5
236
330
1F
100
AcDbEntity
  8
0
  6
Continuous
 62
     8
370
    18
100
AcDbPolyline
 90
        5
 70
   128
 43
0.0
 10
160.4734603864
 20
168.1410419285
 10
160.4809780223
 20
168.1410326153
 10
160.4884956581
 20
168.1410251647
 10
160.4960132939
 20
168.1410195768
 10
160.5035309297
 20
168.1410121262
  0
LWPOLYLINE
  5
237
330
1F
100
AcDbEntity
  8
0
  6
Continuous
 62
     8
370
    18
100
AcDbPolyline
 90
        5
 70
   128
 43
0.0
 10
259.172881077
 20
168.1410419285
 10
259.1653634412
 20
168.1410326153
 10
259.1578458053
 20
168.1410251647
 10
259.1503281695
 20
168.1410195768
 10
259.1428105337
 20
168.1410121262
  0
SPLINE
  5
238
330
1F
100
AcDbEntity
  8
0
  6
Continuous
 62
     8
370
    18
100
AcDbSpline
210
0.0
220
0.0
230
1.0
 70
     8
 71
     3
 72
     8
 73
     4
 74
     0
 42
0.000000001
 43
0.00000001
 40
0.0
 40
0.0
 40
0.0
 40
0.0
 40
1.0
 40
1.0
 40
1.0
 40
1.0
 10
280.4966468210786
 20
168.1624515470263
 30
0.0
 10
273.3887992727423
 20
168.1557252406145
 30
0.0
 10
266.2809014256869
 20
168.1485548337216
 30
0.0
 10
259.1728819402646
 20
168.1410412298159
 30
0.0
  0
SPLINE
  5
239
330
1F
100
AcDbEntity
  8
0
  6
Continuous
 62
     8
370
    18
100
AcDbSpline
210
0.0
220
0.0
230
1.0
 70
     8
 71
     3
 72
    36
 73
    32
 74
     0
 42
0.000000001
 43
0.00000001
 40
0.0
 40
0.0
 40
0.0
 40
0.0
 40
0.0312500000000003
 40
0.0312500000000003
 40
0.0625000000000006
 40
0.0625000000000006
 40
0.1250000000000007
 40
0.1250000000000007
 40
0.1875000000000009
 40
0.1875000000000009
 40
0.2500000000000011
 40
0.2500000000000011
 40
0.3125000000000013
 40
0.3125000000000013
 40
0.3750000000000014
 40
0.3750000000000014
 40
0.4375000000000017
 40
0.4375000000000017
 40
0.5000000000000018
 40
0.5000000000000018
 40
0.6250000000000022
 40
0.6250000000000022
 40
0.7500000000000026
 40
0.7500000000000026
 40
0.875000000000003
 40
0.875000000000003
 40
0.9375000000000023
 40
0.9375000000000023
 40
0.9687500000000012
 40
0.9687500000000012
 40
1.0
 40
1.0
 40
1.0
 40
1.0
 10
300.5918040376079
 20
168.1183709550944
 30
0.0
 10
300.5273917219994
 20
168.1523998270797
 30
0.0
 10
300.4553961342727
 20
168.1806875188317
 30
0.0
 10
300.2996761846052
 20
168.2275216156774
 30
0.0
 10
300.21563016799
 20
168.2463361987731
 30
0.0
 10
299.9451736246779
 20
168.2939198155293
 30
0.0
 10
299.7396150039268
 20
168.314265032989
 30
0.0
 10
299.2825587677819
 20
168.348168477438
 30
0.0
 10
299.0306668581194
 20
168.3616281589068
 30
0.0
 10
298.4766981912651
 20
168.3904959488929
 30
0.0
 10
298.174541919447
 20
168.4054738845024
 30
0.0
 10
297.5182126741981
 20
168.4330705924963
 30
0.0
 10
297.1624978802334
 20
168.4457609253635
 30
0.0
 10
296.4156815114434
 20
168.4662792689198
 30
0.0
 10
296.0228396077626
 20
168.4742074077984
 30
0.0
 10
295.1995364703641
 20
168.4844220818929
 30
0.0
 10
294.7690024603643
 20
168.4866673112841
 30
0.0
 10
293.8709569176177
 20
168.4856064145735
 30
0.0
 10
293.4023001193857
 20
168.4822872689949
 30
0.0
 10
291.9789826976712
 20
168.4651333434395
 30
0.0
 10
290.9953902770573
 20
168.4441963954845
 30
0.0
 10
288.9734064588521
 20
168.3918936844547
 30
0.0
 10
287.9330101003364
 20
168.3602776924605
 30
0.0
 10
285.8176811923334
 20
168.2949189161787
 30
0.0
 10
284.7558116704703
 20
168.2610716805924
 30
0.0
 10
283.1592792055636
 20
168.2146179023368
 30
0.0
 10
282.6264858044532
 20
168.1997443893102
 30
0.0
 10
281.8266388608985
 20
168.180211980464
 30
0.0
 10
281.5599109334017
 20
168.174259727768
 30
0.0
 10
281.0262978787752
 20
168.1636385058088
 30
0.0
 10
280.7608050016498
 20
168.158990865088
 30
0.0
 10
280.4924822791513
 20
168.1549987367086
 30
0.0
  0
SPLINE
  5
23A
330
1F
100
AcDbEntity
  8
0
  6
Continuous
 62
     8
370
    18
100
AcDbSpline
210
0.0
220
0.0
230
1.0
 70
     8
 71
     3
 72
    36
 73
    32
 74
     0
 42
0.000000001
 43
0.00000001
 40
0.0
 40
0.0
 40
0.0
 40
0.0
 40
0.0312500000000003
 40
0.0312500000000003
 40
0.0625000000000007
 40
0.0625000000000007
 40
0.1250000000000007
 40
0.1250000000000007
 40
0.1875000000000008
 40
0.1875000000000008
 40
0.2500000000000008
 40
0.2500000000000008
 40
0.3125000000000009
 40
0.3125000000000009
 40
0.375000000000001
 40
0.375000000000001
 40
0.4375000000000011
 40
0.4375000000000011
 40
0.5000000000000011
 40
0.5000000000000011
 40
0.6250000000000012
 40
0.6250000000000012
 40
0.7500000000000014
 40
0.7500000000000014
 40
0.8750000000000016
 40
0.8750000000000016
 40
0.9375000000000017
 40
0.9375000000000017
 40
0.9687500000000009
 40
0.9687500000000009
 40
1.0
 40
1.0
 40
1.0
 40
1.0
 10
119.0545374258124
 20
168.1183709550938
 30
0.0
 10
119.1189491550175
 20
168.1523995696357
 30
0.0
 10
119.1909453291476
 20
168.180687518831
 30
0.0
 10
119.3466652788152
 20
168.2275216156768
 30
0.0
 10
119.4307112954303
 20
168.2463361987722
 30
0.0
 10
119.7011678387425
 20
168.2939198155289
 30
0.0
 10
119.9067264594935
 20
168.3142650329884
 30
0.0
 10
120.3637826956385
 20
168.3481684774374
 30
0.0
 10
120.6156746053012
 20
168.3616281589068
 30
0.0
 10
121.169643272155
 20
168.3904959488915
 30
0.0
 10
121.4717995439734
 20
168.4054738845019
 30
0.0
 10
122.1281287892221
 20
168.4330705924954
 30
0.0
 10
122.4838435831869
 20
168.4457609253628
 30
0.0
 10
123.2306599519771
 20
168.4662792689192
 30
0.0
 10
123.6235018556577
 20
168.4742074077974
 30
0.0
 10
124.4468049930566
 20
168.4844220818924
 30
0.0
 10
124.8773390030563
 20
168.4866673112834
 30
0.0
 10
125.7753845458031
 20
168.485606414573
 30
0.0
 10
126.2440413440351
 20
168.4822872689942
 30
0.0
 10
127.6673587657498
 20
168.465133343439
 30
0.0
 10
128.6509511863638
 20
168.4441963954836
 30
0.0
 10
130.6729350045692
 20
168.3918936844541
 30
0.0
 10
131.713331363085
 20
168.3602776924603
 30
0.0
 10
133.8286602710882
 20
168.294918916178
 30
0.0
 10
134.8905297929513
 20
168.2610716805918
 30
0.0
 10
136.4870622578582
 20
168.2146179023363
 30
0.0
 10
137.0198556589685
 20
168.1997443893096
 30
0.0
 10
137.8197026025233
 20
168.1802119804634
 30
0.0
 10
138.0864305300201
 20
168.1742597277673
 30
0.0
 10
138.6200435846467
 20
168.1636385058082
 30
0.0
 10
138.8855364624029
 20
168.1589909195875
 30
0.0
 10
139.1538591842691
 20
168.1549987367081
 30
0.0
  0
SPLINE
  5
23B
330
1F
100
AcDbEntity
  8
0
  6
Continuous
 62
     8
370
    18
100
AcDbSpline
210
0.0
220
0.0
230
1.0
 70
     8
 71
     3
 72
    12
 73
     8
 74
     0
 42
0.000000001
 43
0.00000001
 40
0.0
 40
0.0
 40
0.0
 40
0.0
 40
0.25
 40
0.5
 40
0.625
 40
0.75
 40
0.8558099583368084
 40
0.8558099583368084
 40
0.8558099583368084
 40
0.8558099583368084
 10
137.8231707317658
 20
140.2815772018518
 30
0.0
 10
136.7060182811729
 20
140.3013723899993
 30
0.0
 10
134.471810391591
 20
140.346297989708
 30
0.0
 10
131.6792132058907
 20
140.4201085169111
 30
0.0
 10
129.4455979880067
 20
140.4958942548334
 30
0.0
 10
127.8561981212269
 20
140.5603976309863
 30
0.0
 10
126.8256721276489
 20
140.6121601175385
 30
0.0
 10
126.3533121327009
 20
140.6389123091803
 30
0.0
  0
SPLINE
  5
23C
330
1F
100
AcDbEntity
  8
0
  6
Continuous
 62
     8
370
    18
100
AcDbSpline
210
0.0
220
0.0
230
1.0
 70
     8
 71
     3
 72
    19
 73
    15
 74
     0
 42
0.000000001
 43
0.00000001
 40
0.0
 40
0.0
 40
0.0
 40
0.0
 40
0.0925307617659343
 40
0.1850417025446711
 40
0.2967667169050054
 40
0.4083148836183426
 40
0.4882192857112475
 40
0.5680956487329143
 40
0.6558685740401898
 40
0.7436489957430958
 40
0.8198193995641172
 40
0.8960162136816894
 40
0.9480054581546531
 40
1.0
 40
1.0
 40
1.0
 40
1.0
 10
124.4231707645733
 20
140.2816296257278
 30
0.0
 10
124.4235500250064
 20
140.2816214690808
 30
0.0
 10
124.4243084646314
 20
140.2816051575342
 30
0.0
 10
124.6067899425049
 20
140.2815309333818
 30
0.0
 10
125.1458712653514
 20
140.2815867913115
 30
0.0
 10
126.0959016105173
 20
140.2815386425561
 30
0.0
 10
127.2885439679481
 20
140.2815156181387
 30
0.0
 10
128.6349757329895
 20
140.2815231769067
 30
0.0
 10
130.2754174646103
 20
140.2814407597128
 30
0.0
 10
132.061119079001
 20
140.2814664722219
 30
0.0
 10
133.8228341682885
 20
140.281497934852
 30
0.0
 10
135.334758740589
 20
140.2815252423815
 30
0.0
 10
136.6684724513267
 20
140.2815191600332
 30
0.0
 10
137.4382582217169
 20
140.2815560648421
 30
0.0
 10
137.8231707149781
 20
140.2815745181867
 30
0.0
  0
LINE
  5
23D
330
1F
100
AcDbEntity
  8
0
  6
Continuous
 62
     8
370
    18
100
AcDbLine
 10
116.1800046069
 20
140.6412380336
 30
0.0
 11
116.1830593449
 21
140.6431911189
 31
0.0
  0
LINE
  5
23E
330
1F
100
AcDbEntity
  8
0
  6
Continuous
 62
     8
370
    18
100
AcDbLine
 10
303.4663368565
 20
140.6412380336
 30
0.0
 11
303.4632821185
 21
140.6431911189
 31
0.0
  0
SPLINE
  5
23F
330
1F
100
AcDbEntity
  8
0
  6
Continuous
 62
     8
370
    18
100
AcDbSpline
210
0.0
220
0.0
230
1.0
 70
     8
 71
     3
 72
    15
 73
    11
 74
     0
 42
0.000000001
 43
0.00000001
 40
0.0
 40
0.0
 40
0.0
 40
0.0
 40
0.125
 40
0.25
 40
0.375
 40
0.5
 40
0.625
 40
0.75
 40
0.875
 40
1.0
 40
1.0
 40
1.0
 40
1.0
 10
281.8231707316547
 20
140.2815772018523
 30
0.0
 10
283.1477103305103
 20
140.2815772018523
 30
0.0
 10
285.4655230970314
 20
140.2815759821608
 30
0.0
 10
288.3033423273607
 20
140.2815784703758
 30
0.0
 10
290.6583909569928
 20
140.2815871169095
 30
0.0
 10
292.5593500335745
 20
140.2815998471611
 30
0.0
 10
293.9686676869897
 20
140.2816125795298
 30
0.0
 10
294.8466772933959
 20
140.2816212228753
 30
0.0
 10
295.2170970235058
 20
140.2816237181041
 30
0.0
 10
295.2231707434636
 20
140.2816224934218
 30
0.0
 10
295.2231707434636
 20
140.2816224934218
 30
0.0
  0
SPLINE
  5
240
330
1F
100
AcDbEntity
  8
0
  6
Continuous
 62
     8
370
    18
100
AcDbSpline
210
0.0
220
0.0
230
1.0
 70
     8
 71
     3
 72
    14
 73
    10
 74
     0
 42
0.000000001
 43
0.00000001
 40
0.0
 40
0.0
 40
0.0
 40
0.0
 40
0.1514216169516964
 40
0.2921231444522212
 40
0.5842293705685807
 40
0.7397396252047864
 40
0.8763279518420982
 40
0.940639285482801
 40
1.0
 40
1.0
 40
1.0
 40
1.0
 10
281.8231707317103
 20
140.2816224931311
 30
0.0
 10
282.4022295740451
 20
140.2922925918924
 30
0.0
 10
283.5193520381359
 20
140.3128773859563
 30
0.0
 10
285.7534908993787
 20
140.3617007759705
 30
0.0
 10
288.0031097210407
 20
140.4211039846879
 30
0.0
 10
290.2365410739541
 20
140.497118051935
 30
0.0
 10
291.5990033063865
 20
140.5531530609416
 30
0.0
 10
292.5936123283156
 20
140.6005134032129
 30
0.0
 10
293.0661147131357
 20
140.6263824688901
 30
0.0
 10
293.292908718667
 20
140.6387992295515
 30
0.0
  0
SPLINE
  5
241
330
1F
100
AcDbEntity
  8
0
  6
Continuous
 62
     8
370
    18
100
AcDbSpline
210
0.0
220
0.0
230
1.0
 70
    24
 71
     3
 72
     8
 73
     4
 74
     0
 42
0.000000001
 43
0.00000001
 40
0.2592630174154821
 40
0.2592630174154821
 40
0.2592630174154821
 40
0.2592630174154821
 40
0.5
 40
0.5
 40
0.5
 40
0.5
 10
281.8231707317102
 20
140.1333026042583
 30
0.0
 10
281.8231707317102
 20
140.1333026042582
 30
0.0
 10
281.8231707317102
 20
140.182742567228
 30
0.0
 10
281.8231707317102
 20
140.2816224931675
 30
0.0
  0
LINE
  5
242
330
1F
100
AcDbEntity
  8
0
  6
Continuous
 62
     8
370
    18
100
AcDbLine
 10
237.3566087884
 20
140.1338583553
 30
0.0
 11
237.3566087884
 21
140.1479120712
 31
0.0
  0
LINE
  5
243
330
1F
100
AcDbEntity
  8
0
  6
Continuous
 62
     8
370
    18
100
AcDbLine
 10
237.3566087884
 20
140.1479120712
 30
0.0
 11
226.9518357319
 21
140.1479120712
 31
0.0
  0
LINE
  5
244
330
1F
100
AcDbEntity
  8
0
  6
Continuous
 62
     8
370
    18
100
AcDbLine
 10
182.289732675
 20
140.1479120712
 30
0.0
 11
192.6945057315
 21
140.1479120712
 31
0.0
  0
LINE
  5
245
330
1F
100
AcDbEntity
  8
0
  6
Continuous
 62
     8
370
    18
100
AcDbLine
 10
182.289732675
 20
140.1338583553
 30
0.0
 11
182.289732675
 21
140.1479120712
 31
0.0
  0
SPLINE
  5
246
330
1F
100
AcDbEntity
  8
0
  6
Continuous
 62
     8
370
    18
100
AcDbSpline
210
0.0
220
0.0
230
1.0
 70
     8
 71
     3
 72
    20
 73
    16
 74
     0
 42
0.000000001
 43
0.00000001
 40
0.0
 40
0.0
 40
0.0
 40
0.0
 40
0.0736839532208615
 40
0.1470210349322824
 40
0.2201994274367244
 40
0.293547234660072
 40
0.367240758130632
 40
0.4410584835493588
 40
0.5147046209445256
 40
0.5881751164367941
 40
0.6616253423625305
 40
0.7352263025880211
 40
0.8090212494094166
 40
0.9045094921592993
 40
0.9999999999999999
 40
0.9999999999999999
 40
0.9999999999999999
 40
0.9999999999999999
 10
137.823170904587
 20
140.2696389339335
 30
0.0
 10
137.8231710382061
 20
140.255507940402
 30
0.0
 10
137.8231713048155
 20
140.2273124758156
 30
0.0
 10
137.8231716051257
 20
140.1958903855219
 30
0.0
 10
137.8231724131066
 20
140.171096186597
 30
0.0
 10
137.8231724907124
 20
140.1528436041027
 30
0.0
 10
137.8231717543354
 20
140.1403823102618
 30
0.0
 10
137.8231726728165
 20
140.1339418953153
 30
0.0
 10
137.8231721702986
 20
140.132877936794
 30
0.0
 10
137.8231729743962
 20
140.1376034490472
 30
0.0
 10
137.8231724772087
 20
140.1478394346961
 30
0.0
 10
137.8231720903366
 20
140.1639904255833
 30
0.0
 10
137.823171691125
 20
140.1889566563794
 30
0.0
 10
137.8231709757875
 20
140.2245468657013
 30
0.0
 10
137.8231708018977
 20
140.2625651503871
 30
0.0
 10
137.8231707149518
 20
140.2815745181867
 30
0.0
  0
SPLINE
  5
247
330
1F
100
AcDbEntity
  8
0
  6
Continuous
 62
     8
370
    18
100
AcDbSpline
210
0.0
220
0.0
230
1.0
 70
     8
 71
     3
 72
    44
 73
    40
 74
     0
 42
0.000000001
 43
0.00000001
 40
0.0
 40
0.0
 40
0.0
 40
0.0
 40
0.0625000000000002
 40
0.0625000000000002
 40
0.1250000000000005
 40
0.1250000000000005
 40
0.2500000000000006
 40
0.2500000000000006
 40
0.3125000000000007
 40
0.3125000000000007
 40
0.3750000000000007
 40
0.3750000000000007
 40
0.4062500000000008
 40
0.4062500000000008
 40
0.4375000000000008
 40
0.4375000000000008
 40
0.500000000000001
 40
0.500000000000001
 40
0.6250000000000012
 40
0.6250000000000012
 40
0.6875000000000013
 40
0.6875000000000013
 40
0.7187500000000012
 40
0.7187500000000012
 40
0.7500000000000011
 40
0.7500000000000011
 40
0.812500000000001
 40
0.812500000000001
 40
0.843750000000001
 40
0.843750000000001
 40
0.859375000000001
 40
0.859375000000001
 40
0.8750000000000009
 40
0.8750000000000009
 40
0.9375000000000006
 40
0.9375000000000006
 40
0.9687500000000003
 40
0.9687500000000003
 40
1.0
 40
1.0
 40
1.0
 40
1.0
 10
160.5035041094236
 20
168.1409788998936
 30
0.0
 10
161.7238541275532
 20
168.1405549623142
 30
0.0
 10
162.9422228408171
 20
168.1534981244375
 30
0.0
 10
165.3689678699419
 20
168.247224511375
 30
0.0
 10
166.5774088571378
 20
168.327587871906
 30
0.0
 10
170.1770458829384
 20
168.7430577073364
 30
0.0
 10
172.5408875669457
 20
169.2643482707473
 30
0.0
 10
176.0049932416213
 20
170.5987784885192
 30
0.0
 10
177.104791936719
 20
171.1243956596533
 30
0.0
 10
179.2007244764449
 20
172.3281791609766
 30
0.0
 10
180.1979341242457
 20
173.0047612258491
 30
0.0
 10
181.6283205338921
 20
174.1158710936495
 30
0.0
 10
182.0942866905639
 20
174.5021691898049
 30
0.0
 10
183.0071119236887
 20
175.3028569016978
 30
0.0
 10
183.4535225269186
 20
175.7169539812751
 30
0.0
 10
184.7571623911951
 20
176.9835092569744
 30
0.0
 10
185.5832546588116
 20
177.8641697614382
 30
0.0
 10
187.9889928674928
 20
180.5671071617396
 30
0.0
 10
189.4947537789523
 20
182.4516214716856
 30
0.0
 10
191.8430553357424
 20
185.2004125004187
 30
0.0
 10
192.6423711987696
 20
186.1022486281254
 30
0.0
 10
193.8999318134566
 20
187.4043763679899
 30
0.0
 10
194.3285127497808
 20
187.8303002080807
 30
0.0
 10
195.2137896969917
 20
188.6578957515559
 30
0.0
 10
195.6725833241613
 20
189.0605321972958
 30
0.0
 10
197.0899818342945
 20
190.2086089440325
 30
0.0
 10
198.0862583110086
 20
190.8969636142611
 30
0.0
 10
199.6810596143762
 20
191.7790382267584
 30
0.0
 10
200.2296045208227
 20
192.0476671161175
 30
0.0
 10
201.0797377017738
 20
192.4096824930126
 30
0.0
 10
201.367916628256
 20
192.5236370891745
 30
0.0
 10
201.9462397576855
 20
192.735260637579
 30
0.0
 10
202.237241216462
 20
192.8333129233012
 30
0.0
 10
203.7010713093866
 20
193.2863716121601
 30
0.0
 10
204.900526562527
 20
193.5291018004538
 30
0.0
 10
206.731690750264
 20
193.7584179500703
 30
0.0
 10
207.3486951952857
 20
193.812340151745
 30
0.0
 10
208.5849076797009
 20
193.8815458682569
 30
0.0
 10
209.2037453883125
 20
193.8969571875081
 30
0.0
 10
209.8231707317101
 20
193.8969565690964
 30
0.0
  0
SPLINE
  5
248
330
1F
100
AcDbEntity
  8
0
  6
Continuous
 62
     8
370
    18
100
AcDbSpline
210
0.0
220
0.0
230
1.0
 70
     8
 71
     3
 72
    44
 73
    40
 74
     0
 42
0.000000001
 43
0.00000001
 40
0.0
 40
0.0
 40
0.0
 40
0.0
 40
0.0625000000000002
 40
0.0625000000000002
 40
0.1250000000000005
 40
0.1250000000000005
 40
0.250000000000001
 40
0.250000000000001
 40
0.3125000000000011
 40
0.3125000000000011
 40
0.3750000000000012
 40
0.3750000000000012
 40
0.4062500000000011
 40
0.4062500000000011
 40
0.4375000000000011
 40
0.4375000000000011
 40
0.5000000000000011
 40
0.5000000000000011
 40
0.6250000000000013
 40
0.6250000000000013
 40
0.6875000000000016
 40
0.6875000000000016
 40
0.7187500000000016
 40
0.7187500000000016
 40
0.7500000000000016
 40
0.7500000000000016
 40
0.8125000000000014
 40
0.8125000000000014
 40
0.8437500000000013
 40
0.8437500000000013
 40
0.8593750000000013
 40
0.8593750000000013
 40
0.8750000000000012
 40
0.8750000000000012
 40
0.9375000000000007
 40
0.9375000000000007
 40
0.9687500000000003
 40
0.9687500000000003
 40
1.0
 40
1.0
 40
1.0
 40
1.0
 10
259.1428373539968
 20
168.1409788998939
 30
0.0
 10
257.9224873358672
 20
168.1405549623145
 30
0.0
 10
256.7041186226032
 20
168.1534981244378
 30
0.0
 10
254.2773735934785
 20
168.2472245113753
 30
0.0
 10
253.0689326062826
 20
168.3275878719063
 30
0.0
 10
249.469295580482
 20
168.7430577073367
 30
0.0
 10
247.1054538964747
 20
169.2643482707476
 30
0.0
 10
243.641348221799
 20
170.5987784885195
 30
0.0
 10
242.5415495267013
 20
171.1243956596535
 30
0.0
 10
240.4456169869754
 20
172.3281791609768
 30
0.0
 10
239.4484073391746
 20
173.0047612258493
 30
0.0
 10
238.0180209295282
 20
174.1158710936497
 30
0.0
 10
237.5520547728564
 20
174.5021691898051
 30
0.0
 10
236.6392295397316
 20
175.302856901698
 30
0.0
 10
236.1928189365017
 20
175.7169539812752
 30
0.0
 10
234.8891790722251
 20
176.9835092569745
 30
0.0
 10
234.0630868046086
 20
177.8641697614383
 30
0.0
 10
231.6573485959274
 20
180.5671071617397
 30
0.0
 10
230.1515876844679
 20
182.4516214716857
 30
0.0
 10
227.8032861276778
 20
185.2004125004188
 30
0.0
 10
227.0039702646507
 20
186.1022486281255
 30
0.0
 10
225.7464096499637
 20
187.40437636799
 30
0.0
 10
225.3178287136394
 20
187.8303002080808
 30
0.0
 10
224.4325517664285
 20
188.657895751556
 30
0.0
 10
223.9737581392589
 20
189.0605321972959
 30
0.0
 10
222.5563596291257
 20
190.2086089440326
 30
0.0
 10
221.5600831524116
 20
190.8969636142611
 30
0.0
 10
219.965281849044
 20
191.7790382267584
 30
0.0
 10
219.4167369425975
 20
192.0476671161175
 30
0.0
 10
218.5666037616464
 20
192.4096824930126
 30
0.0
 10
218.2784248351642
 20
192.5236370891745
 30
0.0
 10
217.7001017057347
 20
192.735260637579
 30
0.0
 10
217.4091002469582
 20
192.8333129233013
 30
0.0
 10
215.9452701540336
 20
193.2863716121601
 30
0.0
 10
214.7458149008932
 20
193.5291018004538
 30
0.0
 10
212.9146507131562
 20
193.7584179500703
 30
0.0
 10
212.2976462681344
 20
193.812340151745
 30
0.0
 10
211.0614337837193
 20
193.8815458682569
 30
0.0
 10
210.4425960751077
 20
193.8969571875081
 30
0.0
 10
209.8231707317101
 20
193.8969565690964
 30
0.0
  0
SPLINE
  5
249
330
1F
100
AcDbEntity
  8
0
  6
Continuous
 62
     8
370
    18
100
AcDbSpline
210
0.0
220
0.0
230
1.0
 70
     8
 71
     3
 72
    44
 73
    40
 74
     0
 42
0.000000001
 43
0.00000001
 40
0.0
 40
0.0
 40
0.0
 40
0.0
 40
0.0312499999999999
 40
0.0312499999999999
 40
0.0624999999999998
 40
0.0624999999999998
 40
0.1249999999999997
 40
0.1249999999999997
 40
0.1562499999999996
 40
0.1562499999999996
 40
0.1874999999999996
 40
0.1874999999999996
 40
0.2499999999999994
 40
0.2499999999999994
 40
0.3124999999999992
 40
0.3124999999999992
 40
0.3749999999999991
 40
0.3749999999999991
 40
0.499999999999999
 40
0.499999999999999
 40
0.5624999999999991
 40
0.5624999999999991
 40
0.5937499999999993
 40
0.5937499999999993
 40
0.6249999999999994
 40
0.6249999999999994
 40
0.6875
 40
0.6875
 40
0.7500000000000006
 40
0.7500000000000006
 40
0.7812500000000006
 40
0.7812500000000006
 40
0.8125000000000006
 40
0.8125000000000006
 40
0.8750000000000004
 40
0.8750000000000004
 40
0.9375000000000002
 40
0.9375000000000002
 40
1.0
 40
1.0
 40
1.0
 40
1.0
 10
209.8231707317101
 20
195.3071770929913
 30
0.0
 10
210.4403767954877
 20
195.3071769689772
 30
0.0
 10
211.057914185954
 20
195.29172642833
 30
0.0
 10
212.2902690683731
 20
195.2236557365885
 30
0.0
 10
212.9058628002952
 20
195.1708608918928
 30
0.0
 10
214.7318323475151
 20
194.9490792650296
 30
0.0
 10
215.9270606270375
 20
194.716931564067
 30
0.0
 10
217.6797598472959
 20
194.2099280485316
 30
0.0
 10
218.2573082360318
 20
194.0144766041772
 30
0.0
 10
219.3983880221775
 20
193.5673342437626
 30
0.0
 10
219.9586645533231
 20
193.3167331310953
 30
0.0
 10
221.5852514147588
 20
192.4973704775471
 30
0.0
 10
222.6072422806535
 20
191.8565980511144
 30
0.0
 10
224.553640262507
 20
190.426156186336
 30
0.0
 10
225.479912867432
 20
189.6315551907974
 30
0.0
 10
227.2249308481752
 20
187.9603702907311
 30
0.0
 10
228.0539099703596
 20
187.0854453402631
 30
0.0
 10
230.4687904847114
 20
184.3953590272945
 30
0.0
 10
231.9832074469349
 20
182.5165880420039
 30
0.0
 10
234.3545546846325
 20
179.7830381527172
 30
0.0
 10
235.1606062495543
 20
178.8850023286125
 30
0.0
 10
236.4246147924959
 20
177.5845015455254
 30
0.0
 10
236.8550949344269
 20
177.1587457297695
 30
0.0
 10
237.7396493170092
 20
176.3272190211549
 30
0.0
 10
238.1945289272907
 20
175.9208797865946
 30
0.0
 10
239.5876258431191
 20
174.7510904379684
 30
0.0
 10
240.5584258637809
 20
174.0338296914865
 30
0.0
 10
242.604169828132
 20
172.7544138264184
 30
0.0
 10
243.6791456017354
 20
172.1922723546468
 30
0.0
 10
245.3799390973726
 20
171.4811933843117
 30
0.0
 10
245.9619839503454
 20
171.265557394389
 30
0.0
 10
247.1256123674278
 20
170.8834834526265
 30
0.0
 10
247.710651099069
 20
170.7154817213133
 30
0.0
 10
249.4743751614135
 20
170.2730211077288
 30
0.0
 10
250.6617410936521
 20
170.0606161316704
 30
0.0
 10
253.0549689816028
 20
169.7683034866835
 30
0.0
 10
254.2603170751448
 20
169.6847461564958
 30
0.0
 10
256.6806570686137
 20
169.5870257267266
 30
0.0
 10
257.895717711812
 20
169.5733439715709
 30
0.0
 10
259.1126280264367
 20
169.5731194381503
 30
0.0
  0
SPLINE
  5
24A
330
1F
100
AcDbEntity
  8
0
  6
Continuous
 62
     8
370
    18
100
AcDbSpline
210
0.0
220
0.0
230
1.0
 70
     8
 71
     3
 72
    44
 73
    40
 74
     0
 42
0.000000001
 43
0.00000001
 40
0.0
 40
0.0
 40
0.0
 40
0.0
 40
0.0312499999999999
 40
0.0312499999999999
 40
0.0624999999999998
 40
0.0624999999999998
 40
0.1249999999999996
 40
0.1249999999999996
 40
0.1562499999999996
 40
0.1562499999999996
 40
0.1874999999999995
 40
0.1874999999999995
 40
0.2499999999999993
 40
0.2499999999999993
 40
0.3124999999999991
 40
0.3124999999999991
 40
0.3749999999999988
 40
0.3749999999999988
 40
0.4999999999999982
 40
0.4999999999999982
 40
0.5624999999999979
 40
0.5624999999999979
 40
0.5937499999999979
 40
0.5937499999999979
 40
0.6249999999999978
 40
0.6249999999999978
 40
0.6874999999999979
 40
0.6874999999999979
 40
0.7499999999999981
 40
0.7499999999999981
 40
0.7812499999999982
 40
0.7812499999999982
 40
0.8124999999999983
 40
0.8124999999999983
 40
0.8749999999999989
 40
0.8749999999999989
 40
0.9374999999999994
 40
0.9374999999999994
 40
1.0
 40
1.0
 40
1.0
 40
1.0
 10
209.8231707317101
 20
195.3071770929913
 30
0.0
 10
209.2059646679328
 20
195.3071765200201
 30
0.0
 10
208.5884272774662
 20
195.29172642833
 30
0.0
 10
207.356072395047
 20
195.2236557365885
 30
0.0
 10
206.740478663125
 20
195.1708608918928
 30
0.0
 10
204.914509115905
 20
194.9490792650296
 30
0.0
 10
203.7192808363827
 20
194.716931564067
 30
0.0
 10
201.9665816161243
 20
194.2099280485316
 30
0.0
 10
201.3890332273883
 20
194.0144766041772
 30
0.0
 10
200.2479534412427
 20
193.5673342437626
 30
0.0
 10
199.6876769100971
 20
193.3167331310952
 30
0.0
 10
198.0610900486614
 20
192.4973704775471
 30
0.0
 10
197.0390991827666
 20
191.8565980511143
 30
0.0
 10
195.0927012009132
 20
190.4261561863358
 30
0.0
 10
194.1664285959881
 20
189.6315551907974
 30
0.0
 10
192.421410615245
 20
187.960370290731
 30
0.0
 10
191.5924314930606
 20
187.085445340263
 30
0.0
 10
189.1775509787088
 20
184.3953590272943
 30
0.0
 10
187.6631340164853
 20
182.5165880420037
 30
0.0
 10
185.2917867787878
 20
179.7830381527169
 30
0.0
 10
184.485735213866
 20
178.8850023286123
 30
0.0
 10
183.2217266709243
 20
177.5845015455252
 30
0.0
 10
182.7912465289933
 20
177.1587457297693
 30
0.0
 10
181.906692146411
 20
176.3272190211546
 30
0.0
 10
181.4518125361296
 20
175.9208797865944
 30
0.0
 10
180.0587156203011
 20
174.7510904379682
 30
0.0
 10
179.0879155996393
 20
174.0338296914862
 30
0.0
 10
177.0421716352882
 20
172.7544138264181
 30
0.0
 10
175.9671958616848
 20
172.1922723546465
 30
0.0
 10
174.2664023660477
 20
171.4811933843114
 30
0.0
 10
173.6843575130748
 20
171.2655573943887
 30
0.0
 10
172.5207290959924
 20
170.8834834526262
 30
0.0
 10
171.9356903643512
 20
170.715481721313
 30
0.0
 10
170.1719663020067
 20
170.2730211077285
 30
0.0
 10
168.9846003697681
 20
170.0606161316701
 30
0.0
 10
166.5913724818174
 20
169.7683034866832
 30
0.0
 10
165.3860243882754
 20
169.6847461564955
 30
0.0
 10
162.9656843948065
 20
169.5870257267263
 30
0.0
 10
161.7506237516084
 20
169.5733439715706
 30
0.0
 10
160.5337134369836
 20
169.5731194381499
 30
0.0
  0
LINE
  5
24B
330
1F
100
AcDbEntity
  8
0
  6
Continuous
 62
     8
370
    18
100
AcDbLine
 10
150.5974326832
 20
183.6044891268
 30
0.0
 11
150.8231703741
 21
183.6044891268
 31
0.0
  0
LINE
  5
24C
330
1F
100
AcDbEntity
  8
0
  6
Continuous
 62
     8
370
    18
100
AcDbLine
 10
140.3909344775
 20
183.6044891268
 30
0.0
 11
145.0296659571
 21
183.6044891268
 31
0.0
  0
LINE
  5
24D
330
1F
100
AcDbEntity
  8
0
  6
Continuous
 62
     8
370
    18
100
AcDbLine
 10
124.6166695458
 20
183.6044891268
 30
0.0
 11
129.255408476
 21
183.6044891268
 31
0.0
  0
LINE
  5
24E
330
1F
100
AcDbEntity
  8
0
  6
Continuous
 62
     8
370
    18
100
AcDbLine
 10
118.8231725795
 20
183.6044891268
 30
0.0
 11
119.0489102704
 21
183.6044891268
 31
0.0
  0
LINE
  5
24F
330
1F
100
AcDbEntity
  8
0
  6
Continuous
 62
     8
370
    18
100
AcDbLine
 10
300.597431193
 20
183.6044891268
 30
0.0
 11
300.823168884
 21
183.6044891268
 31
0.0
  0
LINE
  5
250
330
1F
100
AcDbEntity
  8
0
  6
Continuous
 62
     8
370
    18
100
AcDbLine
 10
290.3909329874
 20
183.6044891268
 30
0.0
 11
295.0296719176
 21
183.6044891268
 31
0.0
  0
LINE
  5
251
330
1F
100
AcDbEntity
  8
0
  6
Continuous
 62
     8
370
    18
100
AcDbLine
 10
274.6166755063
 20
183.6044891268
 30
0.0
 11
279.2554069859
 21
183.6044891268
 31
0.0
  0
LINE
  5
252
330
1F
100
AcDbEntity
  8
0
  6
Continuous
 62
     8
370
    18
100
AcDbLine
 10
268.8231710893
 20
183.6044891268
 30
0.0
 11
269.0489087803
 21
183.6044891268
 31
0.0
  0
LINE
  5
253
330
1F
100
AcDbEntity
  8
0
  6
Continuous
 62
     8
370
    18
100
AcDbLine
 10
124.6166695458
 20
174.5417444497
 30
0.0
 11
129.255408476
 21
174.5417444497
 31
0.0
  0
LINE
  5
254
330
1F
100
AcDbEntity
  8
0
  6
Continuous
 62
     8
370
    18
100
AcDbLine
 10
140.3909344775
 20
174.5417444497
 30
0.0
 11
145.0296659571
 21
174.5417444497
 31
0.0
  0
LINE
  5
255
330
1F
100
AcDbEntity
  8
0
  6
Continuous
 62
     8
370
    18
100
AcDbLine
 10
290.3909329874
 20
174.5417444497
 30
0.0
 11
295.0296719176
 21
174.5417444497
 31
0.0
  0
LINE
  5
256
330
1F
100
AcDbEntity
  8
0
  6
Continuous
 62
     8
370
    18
100
AcDbLine
 10
274.6166755063
 20
174.5417444497
 30
0.0
 11
279.2554069859
 21
174.5417444497
 31
0.0
  0
LINE
  5
257
330
1F
100
AcDbEntity
  8
0
  6
Continuous
 62
     8
370
    18
100
AcDbLine
 10
118.8231725795
 20
174.5417444497
 30
0.0
 11
119.0489102704
 21
174.5417444497
 31
0.0
  0
LINE
  5
258
330
1F
100
AcDbEntity
  8
0
  6
Continuous
 62
     8
370
    18
100
AcDbLine
 10
150.5974326832
 20
174.5417444497
 30
0.0
 11
150.8231703741
 21
174.5417444497
 31
0.0
  0
LINE
  5
259
330
1F
100
AcDbEntity
  8
0
  6
Continuous
 62
     8
370
    18
100
AcDbLine
 10
268.8231710893
 20
174.5417444497
 30
0.0
 11
269.0489087803
 21
174.5417444497
 31
0.0
  0
LINE
  5
25A
330
1F
100
AcDbEntity
  8
0
  6
Continuous
 62
     8
370
    18
100
AcDbLine
 10
300.597431193
 20
174.5417444497
 30
0.0
 11
300.823168884
 21
174.5417444497
 31
0.0
  0
SPLINE
  5
25B
330
1F
100
AcDbEntity
  8
0
  6
Continuous
 62
     8
370
    18
100
AcDbSpline
210
0.0
220
0.0
230
1.0
 70
     8
 71
     3
 72
     9
 73
     5
 74
     0
 42
0.000000001
 43
0.00000001
 40
0.0
 40
0.0
 40
0.0
 40
0.0
 40
0.4474911650112157
 40
1.0
 40
1.0
 40
1.0
 40
1.0
 10
232.5520273846854
 20
116.7972693681689
 30
0.0
 10
232.4950524656495
 20
115.3480460890137
 30
0.0
 10
232.3677316971278
 20
112.1094943756658
 30
0.0
 10
232.2223706097399
 20
108.8717004764894
 30
0.0
 10
232.1420573246945
 20
107.0827907413216
 30
0.0
  0
SPLINE
  5
25C
330
1F
100
AcDbEntity
  8
0
  6
Continuous
 62
     8
370
    18
100
AcDbSpline
210
0.0
220
0.0
230
1.0
 70
     8
 71
     3
 72
    22
 73
    18
 74
     0
 42
0.000000001
 43
0.00000001
 40
0.0
 40
0.0
 40
0.0
 40
0.0
 40
0.1250000000000001
 40
0.1250000000000001
 40
0.2500000000000001
 40
0.2500000000000001
 40
0.3750000000000002
 40
0.3750000000000002
 40
0.5000000000000002
 40
0.5000000000000002
 40
0.6250000000000001
 40
0.6250000000000001
 40
0.7500000000000002
 40
0.7500000000000002
 40
0.8750000000000001
 40
0.8750000000000001
 40
1.0
 40
1.0
 40
1.0
 40
1.0
 10
209.8231707317103
 20
107.1555885713674
 30
0.0
 10
211.1867182149363
 20
107.1555839009835
 30
0.0
 10
212.5498510707605
 20
107.161844678918
 30
0.0
 10
215.2750663458293
 20
107.1834352499139
 30
0.0
 10
216.6162951993035
 20
107.197860663799
 30
0.0
 10
219.4462368624639
 20
107.2239560013601
 30
0.0
 10
220.9307830233164
 20
107.2352339203591
 30
0.0
 10
223.8833632500066
 20
107.2494259464753
 30
0.0
 10
225.2515916046882
 20
107.2523497608496
 30
0.0
 10
227.7250353287074
 20
107.2509154487188
 30
0.0
 10
228.7770259735402
 20
107.2466349581211
 30
0.0
 10
230.5143375711372
 20
107.2286816049153
 30
0.0
 10
231.1520598799984
 20
107.2153298117033
 30
0.0
 10
231.9301208908089
 20
107.1791787282523
 30
0.0
 10
232.0328111044785
 20
107.1567790258434
 30
0.0
 10
232.1098805791465
 20
107.1162986551698
 30
0.0
 10
232.1228979417502
 20
107.0984760031411
 30
0.0
 10
232.1420343831029
 20
107.0829115663806
 30
0.0
  0
SPLINE
  5
25D
330
1F
100
AcDbEntity
  8
0
  6
Continuous
 62
     8
370
    18
100
AcDbSpline
210
0.0
220
0.0
230
1.0
 70
     8
 71
     3
 72
    24
 73
    20
 74
     0
 42
0.000000001
 43
0.00000001
 40
0.0
 40
0.0
 40
0.0
 40
0.0
 40
0.1249999999999999
 40
0.1249999999999999
 40
0.1874999999999999
 40
0.1874999999999999
 40
0.2499999999999999
 40
0.2499999999999999
 40
0.3749999999999998
 40
0.3749999999999998
 40
0.4999999999999998
 40
0.4999999999999998
 40
0.6249999999999998
 40
0.6249999999999998
 40
0.7499999999999999
 40
0.7499999999999999
 40
0.8749999999999999
 40
0.8749999999999999
 40
1.0
 40
1.0
 40
1.0
 40
1.0
 10
187.5043070803179
 20
107.0829115663805
 30
0.0
 10
187.5235281496971
 20
107.0985448344202
 30
0.0
 10
187.5363047202972
 20
107.1164609638396
 30
0.0
 10
187.5951055322919
 20
107.1469769024078
 30
0.0
 10
187.6285039220768
 20
107.1576188667701
 30
0.0
 10
187.7895450232744
 20
107.1785551729135
 30
0.0
 10
187.9193075955035
 20
107.188692561579
 30
0.0
 10
188.4945350438707
 20
107.2151824097146
 30
0.0
 10
189.139409379776
 20
107.2287048442944
 30
0.0
 10
190.8416263966437
 20
107.2464014777415
 30
0.0
 10
191.8979056084408
 20
107.2507946520248
 30
0.0
 10
194.3174435955437
 20
107.2524077955579
 30
0.0
 10
195.6859416409164
 20
107.2495620633658
 30
0.0
 10
198.587926121936
 20
107.2360657982317
 30
0.0
 10
200.0840800630693
 20
107.2249336659642
 30
0.0
 10
202.9562535218334
 20
107.1986274915894
 30
0.0
 10
204.3121388171754
 20
107.1839872643499
 30
0.0
 10
207.0675029084256
 20
107.1619934618351
 30
0.0
 10
208.4453190134376
 20
107.1555838522178
 30
0.0
 10
209.8231707317103
 20
107.1555885713674
 30
0.0
  0
SPLINE
  5
25E
330
1F
100
AcDbEntity
  8
0
  6
Continuous
 62
     8
370
    18
100
AcDbSpline
210
0.0
220
0.0
230
1.0
 70
     8
 71
     3
 72
     9
 73
     5
 74
     0
 42
0.000000001
 43
0.00000001
 40
0.0
 40
0.0
 40
0.0
 40
0.0
 40
0.2588035230921577
 40
1.0
 40
1.0
 40
1.0
 40
1.0
 10
187.1936061037053
 20
114.3240249246331
 30
0.0
 10
187.2183876173524
 20
113.6992544313745
 30
0.0
 10
187.3141417761487
 20
111.2851818337767
 30
0.0
 10
187.4233439053162
 20
108.8716741405392
 30
0.0
 10
187.5042841387261
 20
107.0827907413216
 30
0.0
  0
SPLINE
  5
25F
330
1F
100
AcDbEntity
  8
0
  6
Continuous
 62
     8
370
    18
100
AcDbSpline
210
0.0
220
0.0
230
1.0
 70
     8
 71
     3
 72
    10
 73
     6
 74
     0
 42
0.000000001
 43
0.00000001
 40
0.0
 40
0.0
 40
0.0
 40
0.0
 40
0.5
 40
0.5
 40
1.0
 40
1.0
 40
1.0
 40
1.0
 10
301.0095387828553
 20
167.9344500453995
 30
0.0
 10
301.0665740774691
 20
167.9155223029276
 30
0.0
 10
301.0624153136941
 20
167.920498168488
 30
0.0
 10
300.9285656929264
 20
167.9797480239098
 30
0.0
 10
300.79995083036
 20
168.0339596058085
 30
0.0
 10
300.5920997122398
 20
168.1168784810795
 30
0.0
  0
SPLINE
  5
260
330
1F
100
AcDbEntity
  8
0
  6
Continuous
 62
     8
370
    18
100
AcDbSpline
210
0.0
220
0.0
230
1.0
 70
     8
 71
     3
 72
     8
 73
     4
 74
     0
 42
0.000000001
 43
0.00000001
 40
0.0
 40
0.0
 40
0.0
 40
0.0
 40
1.0
 40
1.0
 40
1.0
 40
1.0
 10
304.7910251587979
 20
142.1396767000637
 30
0.0
 10
304.7944110158939
 20
142.1400438543312
 30
0.0
 10
304.7940224190152
 20
142.1404030365653
 30
0.0
 10
304.7897775338926
 20
142.1407542623783
 30
0.0
  0
LINE
  5
261
330
1F
100
AcDbEntity
  8
0
  6
Continuous
 62
     8
370
    18
100
AcDbLine
 10
304.7901485664
 20
142.1396567482
 30
0.0
 11
304.7910202843
 21
142.1397309048
 31
0.0
  0
SPLINE
  5
262
330
1F
100
AcDbEntity
  8
0
  6
Continuous
 62
     8
370
    18
100
AcDbSpline
210
0.0
220
0.0
230
1.0
 70
     8
 71
     3
 72
     8
 73
     4
 74
     0
 42
0.000000001
 43
0.00000001
 40
0.0
 40
0.0
 40
0.0
 40
0.0
 40
1.0
 40
1.0
 40
1.0
 40
1.0
 10
114.8553186500199
 20
142.1397309188452
 30
0.0
 10
114.8555932056266
 20
142.1398528693958
 30
0.0
 10
114.8558422723941
 20
142.1388832923276
 30
0.0
 10
114.8561937599557
 20
142.1396567395499
 30
0.0
  0
LINE
  5
263
330
1F
100
AcDbEntity
  8
0
  6
Continuous
 62
     8
370
    18
100
AcDbLine
 10
114.8553137285
 20
142.1396766553
 30
0.0
 11
114.8558874232
 21
142.1401722353
 31
0.0
  0
SPLINE
  5
264
330
1F
100
AcDbEntity
  8
0
  6
Continuous
 62
     8
370
    18
100
AcDbSpline
210
0.0
220
0.0
230
1.0
 70
     8
 71
     3
 72
    10
 73
     6
 74
     0
 42
0.000000001
 43
0.00000001
 40
0.0
 40
0.0
 40
0.0
 40
0.0
 40
0.5
 40
0.5
 40
1.0
 40
1.0
 40
1.0
 40
1.0
 10
118.636802680565
 20
167.9344500453989
 30
0.0
 10
118.5797673859513
 20
167.915522302927
 30
0.0
 10
118.5839261497262
 20
167.9204981684874
 30
0.0
 10
118.7177757704939
 20
167.9797480239091
 30
0.0
 10
118.8463921424168
 20
168.0339585765802
 30
0.0
 10
119.0542417511805
 20
168.1168784810788
 30
0.0
  0
SPLINE
  5
265
330
1F
100
AcDbEntity
  8
0
  6
Continuous
 62
     8
370
    18
100
AcDbSpline
210
0.0
220
0.0
230
1.0
 70
     8
 71
     3
 72
    14
 73
    10
 74
     0
 42
0.000000001
 43
0.00000001
 40
0.0
 40
0.0
 40
0.0
 40
0.0
 40
0.25
 40
0.25
 40
0.5
 40
0.5
 40
0.75
 40
0.75
 40
1.0
 40
1.0
 40
1.0
 40
1.0
 10
116.1796244192566
 20
140.6409935099827
 30
0.0
 10
116.0134820639801
 20
140.654202980052
 30
0.0
 10
115.8371901506694
 20
140.6981197080192
 30
0.0
 10
115.5015173478889
 20
140.8596666145886
 30
0.0
 10
115.3431482898264
 20
140.9776312302174
 30
0.0
 10
115.0864196664074
 20
141.2681750009854
 30
0.0
 10
114.9888486987619
 20
141.4398616878461
 30
0.0
 10
114.8698542762614
 20
141.7928687422587
 30
0.0
 10
114.8479743648817
 20
141.9732261464034
 30
0.0
 10
114.8553186500199
 20
142.1397309188452
 30
0.0
  0
SPLINE
  5
266
330
1F
100
AcDbEntity
  8
0
  6
Continuous
 62
     8
370
    18
100
AcDbSpline
210
0.0
220
0.0
230
1.0
 70
     8
 71
     3
 72
    14
 73
    10
 74
     0
 42
0.000000001
 43
0.00000001
 40
0.0
 40
0.0
 40
0.0
 40
0.0
 40
0.2500000000000001
 40
0.2500000000000001
 40
0.5000000000000001
 40
0.5000000000000001
 40
0.7500000000000001
 40
0.7500000000000001
 40
1.0
 40
1.0
 40
1.0
 40
1.0
 10
304.7910228137684
 20
142.1397309185519
 30
0.0
 10
304.7983672495263
 20
141.9732173013056
 30
0.0
 10
304.7764993368543
 20
141.7928551980235
 30
0.0
 10
304.6575138619608
 20
141.4398305715965
 30
0.0
 10
304.5599459674572
 20
141.2681338274196
 30
0.0
 10
304.3032194135801
 20
140.9775691589464
 30
0.0
 10
304.1448493295952
 20
140.8595937525618
 30
0.0
 10
303.8091706652237
 20
140.6980268799898
 30
0.0
 10
303.6328758907404
 20
140.6541071854565
 30
0.0
 10
303.466725761642
 20
140.6408839251885
 30
0.0
  0
LWPOLYLINE
  5
267
330
1F
100
AcDbEntity
  8
0
  6
Continuous
 62
     8
370
    18
100
AcDbPolyline
 90
        9
 70
   128
 43
0.0
 10
209.8231707317
 20
107.1555903643
 10
209.8231707511
 20
106.9249352902
 10
209.8231707774
 20
106.7075012714
 10
209.8231708099
 20
106.5085856706
 10
209.823170848
 20
106.3330425411
 10
209.8231708906
 20
106.1851634175
 10
209.8231709368
 20
106.06854693
 10
209.8231709853
 20
105.986046651
 10
209.8231710351
 20
105.9396742374
  0
SPLINE
  5
268
330
1F
100
AcDbEntity
  8
0
  6
Continuous
 62
     8
370
    18
100
AcDbSpline
210
0.0
220
0.0
230
1.0
 70
     8
 71
     3
 72
    24
 73
    20
 74
     0
 42
0.000000001
 43
0.00000001
 40
0.0
 40
0.0
 40
0.0
 40
0.0
 40
0.1249999999999999
 40
0.1249999999999999
 40
0.2499999999999997
 40
0.2499999999999997
 40
0.3749999999999996
 40
0.3749999999999996
 40
0.4999999999999993
 40
0.4999999999999993
 40
0.6249999999999996
 40
0.6249999999999996
 40
0.7499999999999997
 40
0.7499999999999997
 40
0.8124999999999998
 40
0.8124999999999998
 40
0.8749999999999998
 40
0.8749999999999998
 40
1.0
 40
1.0
 40
1.0
 40
1.0
 10
209.8231704283511
 20
105.9396729719916
 30
0.0
 10
208.4516488167378
 20
105.9396724427356
 30
0.0
 10
207.0801696335047
 20
105.9404461855736
 30
0.0
 10
204.3376468916654
 20
105.9428427773631
 30
0.0
 10
202.9670381029804
 20
105.9436985599107
 30
0.0
 10
200.2124219141599
 20
105.9503538949017
 30
0.0
 10
198.8398002066808
 20
105.9548569337206
 30
0.0
 10
196.2074733753211
 20
105.9575121875337
 30
0.0
 10
194.9661160429461
 20
105.9557000720565
 30
0.0
 10
192.7624135329819
 20
105.9462100766134
 30
0.0
 10
191.7953027982653
 20
105.938548329602
 30
0.0
 10
190.2433004736129
 20
105.9181246143534
 30
0.0
 10
189.6591825615958
 20
105.9052991366028
 30
0.0
 10
189.1390243634067
 20
105.8841108498021
 30
0.0
 10
189.0214711733715
 20
105.8764435400982
 30
0.0
 10
188.8760435552271
 20
105.8609570537153
 30
0.0
 10
188.8461638332637
 20
105.8532505712206
 30
0.0
 10
188.7959682155505
 20
105.8302829932244
 30
0.0
 10
188.7853524390287
 20
105.8149107168992
 30
0.0
 10
188.7652368608354
 20
105.7983678525469
 30
0.0
  0
SPLINE
  5
269
330
1F
100
AcDbEntity
  8
0
  6
Continuous
 62
     8
370
    18
100
AcDbSpline
210
0.0
220
0.0
230
1.0
 70
     8
 71
     3
 72
    14
 73
    10
 74
     0
 42
0.000000001
 43
0.00000001
 40
0.0
 40
0.0
 40
0.0
 40
0.0
 40
0.25
 40
0.25
 40
0.5
 40
0.5
 40
0.75
 40
0.75
 40
1.0
 40
1.0
 40
1.0
 40
1.0
 10
188.7652368608354
 20
105.7983678525469
 30
0.0
 10
188.6155491433544
 20
105.8078411464744
 30
0.0
 10
188.4572670373281
 20
105.8436566130022
 30
0.0
 10
188.1537795718006
 20
105.9778421973069
 30
0.0
 10
188.0093141834161
 20
106.076453637239
 30
0.0
 10
187.7683303590968
 20
106.3219504614458
 30
0.0
 10
187.6724151062788
 20
106.4682213665537
 30
0.0
 10
187.5438796345002
 20
106.7741493848644
 30
0.0
 10
187.5110044257003
 20
106.9330711121972
 30
0.0
 10
187.5043070803179
 20
107.0829115663805
 30
0.0
  0
SPLINE
  5
26A
330
1F
100
AcDbEntity
  8
0
  6
Continuous
 62
     8
370
    18
100
AcDbSpline
210
0.0
220
0.0
230
1.0
 70
     8
 71
     3
 72
    14
 73
    10
 74
     0
 42
0.000000001
 43
0.00000001
 40
0.0
 40
0.0
 40
0.0
 40
0.0
 40
0.25
 40
0.25
 40
0.5
 40
0.5
 40
0.75
 40
0.75
 40
1.0
 40
1.0
 40
1.0
 40
1.0
 10
230.880741615158
 20
105.7983530869063
 30
0.0
 10
231.0304336309008
 20
105.807821499263
 30
0.0
 10
231.1887169841851
 20
105.8436278004395
 30
0.0
 10
231.492210459048
 20
105.9777817341369
 30
0.0
 10
231.6366811269815
 20
106.0763704805564
 30
0.0
 10
231.8776921438389
 20
106.32181729721
 30
0.0
 10
231.973629685721
 20
106.4680614657584
 30
0.0
 10
232.1022258445518
 20
106.7739497611758
 30
0.0
 10
232.135139025812
 20
106.93285896044
 30
0.0
 10
232.1418752581425
 20
107.0826978528901
 30
0.0
  0
SPLINE
  5
26B
330
1F
100
AcDbEntity
  8
0
  6
Continuous
 62
     8
370
    18
100
AcDbSpline
210
0.0
220
0.0
230
1.0
 70
     8
 71
     3
 72
    22
 73
    18
 74
     0
 42
0.000000001
 43
0.00000001
 40
0.0
 40
0.0
 40
0.0
 40
0.0
 40
0.125
 40
0.125
 40
0.2500000000000001
 40
0.2500000000000001
 40
0.3750000000000001
 40
0.3750000000000001
 40
0.5000000000000001
 40
0.5000000000000001
 40
0.6250000000000002
 40
0.6250000000000002
 40
0.7500000000000001
 40
0.7500000000000001
 40
0.8750000000000001
 40
0.8750000000000001
 40
1.0
 40
1.0
 40
1.0
 40
1.0
 10
230.8811046025853
 20
105.798367852547
 30
0.0
 10
230.8610766700481
 20
105.8148386379411
 30
0.0
 10
230.8502039901534
 20
105.8301494895084
 30
0.0
 10
230.7844846575441
 20
105.8606392569805
 30
0.0
 10
230.6909631205354
 20
105.8765186711539
 30
0.0
 10
229.9873866399439
 20
105.9053996997649
 30
0.0
 10
229.4098193505194
 20
105.9180763080103
 30
0.0
 10
227.8257663454787
 20
105.9388395281268
 30
0.0
 10
226.8624589717985
 20
105.946400194833
 30
0.0
 10
224.6099776217534
 20
105.9559008561583
 30
0.0
 10
223.3703116383505
 20
105.9575907146199
 30
0.0
 10
220.6893521721107
 20
105.9545802896576
 30
0.0
 10
219.3252776167748
 20
105.9500199016797
 30
0.0
 10
216.6057144812049
 20
105.9435971946344
 30
0.0
 10
215.249828971395
 20
105.9427857153249
 30
0.0
 10
212.5373245109054
 20
105.9404267819759
 30
0.0
 10
211.1804483759268
 20
105.9396724482345
 30
0.0
 10
209.8231710350696
 20
105.9396729719916
 30
0.0
  0
SPLINE
  5
26C
330
1F
100
AcDbEntity
  8
0
  6
Continuous
 62
     8
370
    18
100
AcDbSpline
210
0.0
220
0.0
230
1.0
 70
     8
 71
     3
 72
     8
 73
     4
 74
     0
 42
0.000000001
 43
0.00000001
 40
0.0
 40
0.0
 40
0.0
 40
0.0
 40
0.9317398741990044
 40
0.9317398741990044
 40
0.9317398741990044
 40
0.9317398741990044
 10
209.8231707317103
 20
105.2505303104089
 30
0.0
 10
218.0751841928864
 20
105.2505303104089
 30
0.0
 10
225.0944362748403
 20
105.4331390874608
 30
0.0
 10
230.8809269775721
 20
105.7983566415644
 30
0.0
  0
SPLINE
  5
26D
330
1F
100
AcDbEntity
  8
0
  6
Continuous
 62
     8
370
    18
100
AcDbSpline
210
0.0
220
0.0
230
1.0
 70
     8
 71
     3
 72
     8
 73
     4
 74
     0
 42
0.000000001
 43
0.00000001
 40
0.0
 40
0.0
 40
0.0
 40
0.0
 40
0.9317398741990033
 40
0.9317398741990033
 40
0.9317398741990033
 40
0.9317398741990033
 10
209.8231707317103
 20
105.2505303104089
 30
0.0
 10
201.5711572705343
 20
105.2505303104089
 30
0.0
 10
194.5519051885804
 20
105.4331390874607
 30
0.0
 10
188.7654144858486
 20
105.7983566415643
 30
0.0
  0
LINE
  5
26E
330
1F
100
AcDbEntity
  8
0
  6
Continuous
 62
     8
370
    18
100
AcDbLine
 10
232.1974374903
 20
106.9537690371
 30
0.0
 11
232.1418747855
 21
107.0826976091
 31
0.0
  0
LINE
  5
26F
330
1F
100
AcDbEntity
  8
0
  6
Continuous
 62
     8
370
    18
100
AcDbLine
 10
187.504466678
 20
107.0826976091
 30
0.0
 11
187.4428559643
 21
106.9397358686
 31
0.0
  0
SPLINE
  5
270
330
1F
100
AcDbEntity
  8
0
  6
Continuous
 62
     8
370
    18
100
AcDbSpline
210
0.0
220
0.0
230
1.0
 70
     8
 71
     3
 72
     9
 73
     5
 74
     0
 42
0.000000001
 43
0.00000001
 40
0.1056634864831676
 40
0.1056634864831676
 40
0.1056634864831676
 40
0.1056634864831676
 40
0.125
 40
1.0
 40
1.0
 40
1.0
 40
1.0
 10
230.2259659675138
 20
104.8975447866391
 30
0.0
 10
230.1508801899467
 20
104.8936723705362
 30
0.0
 10
226.6682448362843
 20
104.7157664738242
 30
0.0
 10
222.7309720391783
 20
104.5932651739979
 30
0.0
 10
218.4436368219245
 20
104.5264471669429
 30
0.0
  0
SPLINE
  5
271
330
1F
100
AcDbEntity
  8
0
  6
Continuous
 62
     8
370
    18
100
AcDbSpline
210
0.0
220
0.0
230
1.0
 70
     8
 71
     3
 72
     8
 73
     4
 74
     0
 42
0.000000001
 43
0.00000001
 40
0.0
 40
0.0
 40
0.0
 40
0.0
 40
0.3553390613026225
 40
0.3553390613026225
 40
0.3553390613026225
 40
0.3553390613026225
 10
218.4436368219245
 20
104.5264471669429
 30
0.0
 10
215.7428457900781
 20
104.4843554094582
 30
0.0
 10
212.8693570933401
 20
104.4633095307159
 30
0.0
 10
209.8231707317104
 20
104.4633095307159
 30
0.0
  0
SPLINE
  5
272
330
1F
100
AcDbEntity
  8
0
  6
Continuous
 62
     8
370
    18
100
AcDbSpline
210
0.0
220
0.0
230
1.0
 70
     8
 71
     3
 72
    10
 73
     6
 74
     0
 42
0.000000001
 43
0.00000001
 40
0.0
 40
0.0
 40
0.0
 40
0.0
 40
0.5
 40
0.5
 40
1.0
 40
1.0
 40
1.0
 40
1.0
 10
231.00665857927
 20
105.574954193728
 30
0.0
 10
231.0113743028155
 20
105.6120146602627
 30
0.0
 10
231.0144133665091
 20
105.649851315902
 30
0.0
 10
230.9591676727626
 20
105.7238195412217
 30
0.0
 10
230.9184959906853
 20
105.7609961258675
 30
0.0
 10
230.8807493527141
 20
105.7983454307553
 30
0.0
  0
SPLINE
  5
273
330
1F
100
AcDbEntity
  8
0
  6
Continuous
 62
     8
370
    18
100
AcDbSpline
210
0.0
220
0.0
230
1.0
 70
     8
 71
     3
 72
    12
 73
     8
 74
     0
 42
0.000000001
 43
0.00000001
 40
0.0
 40
0.0
 40
0.0
 40
0.0
 40
0.5
 40
0.5
 40
0.75
 40
0.75
 40
1.0
 40
1.0
 40
1.0
 40
1.0
 10
230.2264535806618
 20
104.8979140572026
 30
0.0
 10
230.3645692894474
 20
105.0107385251418
 30
0.0
 10
230.5029762114012
 20
105.1235826859732
 30
0.0
 10
230.7108778960571
 20
105.2928721863104
 30
0.0
 10
230.7802065040479
 20
105.3493046953866
 30
0.0
 10
230.9189938258121
 20
105.4621793377055
 30
0.0
 10
230.9845693332559
 20
105.5185721640487
 30
0.0
 10
231.0061867351972
 20
105.5749481570488
 30
0.0
  0
SPLINE
  5
274
330
1F
100
AcDbEntity
  8
0
  6
Continuous
 62
     8
370
    18
100
AcDbSpline
210
0.0
220
0.0
230
1.0
 70
     8
 71
     3
 72
    10
 73
     6
 74
     0
 42
0.000000001
 43
0.00000001
 40
0.0
 40
0.0
 40
0.0
 40
0.0
 40
0.5000000000000001
 40
0.5000000000000001
 40
1.0
 40
1.0
 40
1.0
 40
1.0
 10
188.7655921107066
 20
105.7983454307551
 30
0.0
 10
188.7278454729215
 20
105.7609961258555
 30
0.0
 10
188.6871737906066
 20
105.7238195412249
 30
0.0
 10
188.6319280969632
 20
105.6498513158986
 30
0.0
 10
188.634967160578
 20
105.6120146602643
 30
0.0
 10
188.6396828841507
 20
105.5749541937279
 30
0.0
  0
SPLINE
  5
275
330
1F
100
AcDbEntity
  8
0
  6
Continuous
 62
     8
370
    18
100
AcDbSpline
210
0.0
220
0.0
230
1.0
 70
     8
 71
     3
 72
     9
 73
     5
 74
     0
 42
0.000000001
 43
0.00000001
 40
0.0
 40
0.0
 40
0.0
 40
0.0
 40
0.5
 40
1.0
 40
1.0
 40
1.0
 40
1.0
 10
209.8231707317104
 20
104.4633095307159
 30
0.0
 10
208.3000775508956
 20
104.4633095307159
 30
0.0
 10
205.3402400217118
 20
104.473832470087
 30
0.0
 10
202.5531001574195
 20
104.5054012882005
 30
0.0
 10
201.2027046414963
 20
104.5264471669429
 30
0.0
  0
SPLINE
  5
276
330
1F
100
AcDbEntity
  8
0
  6
Continuous
 62
     8
370
    18
100
AcDbSpline
210
0.0
220
0.0
230
1.0
 70
     8
 71
     3
 72
     8
 73
     4
 74
     0
 42
0.000000001
 43
0.00000001
 40
0.3553390613026225
 40
0.3553390613026225
 40
0.3553390613026225
 40
0.3553390613026225
 40
0.9318828820037537
 40
0.9318828820037537
 40
0.9318828820037537
 40
0.9318828820037537
 10
201.2027046414963
 20
104.5264471669428
 30
0.0
 10
196.8206241161865
 20
104.594741777142
 30
0.0
 10
192.8931810412376
 20
104.7184409850699
 30
0.0
 10
189.4203754166494
 20
104.8975447907265
 30
0.0
  0
SPLINE
  5
277
330
1F
100
AcDbEntity
  8
0
  6
Continuous
 62
     8
370
    18
100
AcDbSpline
210
0.0
220
0.0
230
1.0
 70
     8
 71
     3
 72
    12
 73
     8
 74
     0
 42
0.000000001
 43
0.00000001
 40
0.0
 40
0.0
 40
0.0
 40
0.0
 40
0.25
 40
0.25
 40
0.5
 40
0.5
 40
1.0
 40
1.0
 40
1.0
 40
1.0
 10
188.6401547282235
 20
105.5749481570487
 30
0.0
 10
188.6617708280412
 20
105.518575559897
 30
0.0
 10
188.7273433777259
 20
105.4621828001428
 30
0.0
 10
188.8661315567171
 20
105.3493074648315
 30
0.0
 10
188.9354605903748
 20
105.2928746095771
 30
0.0
 10
189.1433635537784
 20
105.1235840704632
 30
0.0
 10
189.2817713263325
 20
105.0107392172845
 30
0.0
 10
189.419887882759
 20
104.8979140572024
 30
0.0
  0
SPLINE
  5
278
330
1F
100
AcDbEntity
  8
0
  6
Continuous
 62
     8
370
    18
100
AcDbSpline
210
0.0
220
0.0
230
1.0
 70
     8
 71
     3
 72
    10
 73
     6
 74
     0
 42
0.000000001
 43
0.00000001
 40
0.0
 40
0.0
 40
0.0
 40
0.0
 40
0.0844962910485807
 40
0.4049026391187247
 40
1.0
 40
1.0
 40
1.0
 40
1.0
 10
188.6847895187605
 20
105.1864801436634
 30
0.0
 10
188.7012861718616
 20
105.1710547593126
 30
0.0
 10
188.7803374330986
 20
105.0971369724424
 30
0.0
 10
189.0193349366037
 20
104.9653184076671
 30
0.0
 10
189.2620911719067
 20
104.9244686587934
 30
0.0
 10
189.41988801484
 20
104.8979154318543
 30
0.0
  0
SPLINE
  5
279
330
1F
100
AcDbEntity
  8
0
  6
Continuous
 62
     8
370
    18
100
AcDbSpline
210
0.0
220
0.0
230
1.0
 70
     8
 71
     3
 72
     9
 73
     5
 74
     0
 42
0.000000001
 43
0.00000001
 40
0.0
 40
0.0
 40
0.0
 40
0.0
 40
0.5148965965714815
 40
1.0
 40
1.0
 40
1.0
 40
1.0
 10
230.2259654355515
 20
104.8975466281147
 30
0.0
 10
230.2193232031755
 20
104.8872970506555
 30
0.0
 10
230.2064230744502
 20
104.8673909616903
 30
0.0
 10
229.9696913710416
 20
104.8442678010851
 30
0.0
 10
229.8548520160187
 20
104.8330506771775
 30
0.0
  0
LINE
  5
27A
330
1F
100
AcDbEntity
  8
0
  6
Continuous
 62
     8
370
    18
100
AcDbLine
 10
218.4436368374
 20
104.5264481097
 30
0.0
 11
218.4327552644
 21
104.5011273116
 31
0.0
  0
LINE
  5
27B
330
1F
100
AcDbEntity
  8
0
  6
Continuous
 62
     8
370
    18
100
AcDbLine
 10
201.2027046261
 20
104.5264481097
 30
0.0
 11
201.2142157731
 21
104.4995254368
 31
0.0
  0
LINE
  5
27C
330
1F
100
AcDbEntity
  8
0
  6
Continuous
 62
     8
370
    18
100
AcDbLine
 10
209.8231707317
 20
104.4453783423
 30
0.0
 11
209.8231707317
 21
104.4633081645
 31
0.0
  0
ENDSEC
  0
SECTION
  2
OBJECTS
  0
DICTIONARY
  5
C
330
0
100
AcDbDictionary
281
     1
  3
ACAD_GROUP
350
D
  3
ACAD_LAYOUT
350
1A
  3
ACAD_MLINESTYLE
350
17
  3
ACAD_PLOTSETTINGS
350
19
  3
ACAD_PLOTSTYLENAME
350
E
  3
ACAD_SCALELIST
350
47
  0
DICTIONARY
  5
D
102
{ACAD_REACTORS
330
C
102
}
330
C
100
AcDbDictionary
281
     1
  0
DICTIONARY
  5
1A
102
{ACAD_REACTORS
330
C
102
}
330
C
100
AcDbDictionary
281
     1
  3
Layout1
350
1E
  3
Layout2
350
26
  3
Model
350
22
  0
DICTIONARY
  5
17
102
{ACAD_REACTORS
330
C
102
}
330
C
100
AcDbDictionary
281
     1
  3
Standard
350
18
  0
DICTIONARY
  5
19
102
{ACAD_REACTORS
330
C
102
}
330
C
100
AcDbDictionary
281
     1
  0
ACDBDICTIONARYWDFLT
  5
E
102
{ACAD_REACTORS
330
C
102
}
330
C
100
AcDbDictionary
281
     1
  3
Normal
350
F
100
AcDbDictionaryWithDefault
340
F
  0
DICTIONARY
  5
47
102
{ACAD_REACTORS
330
C
102
}
330
C
100
AcDbDictionary
281
     1
  3
A0
350
48
  3
A1
350
49
  3
A2
350
4A
  3
A3
350
4B
  3
A4
350
4C
  3
A5
350
4D
  3
A6
350
4E
  3
A7
350
4F
  3
A8
350
50
  3
A9
350
51
  3
B0
350
52
  3
B1
350
53
  3
B2
350
54
  3
B3
350
55
  3
B4
350
56
  3
B5
350
57
  3
B6
350
58
  3
B7
350
59
  3
B8
350
5A
  3
B9
350
5B
  3
C0
350
5C
  3
C1
350
5D
  3
C2
350
5E
  3
C3
350
5F
  3
C4
350
60
  3
C5
350
61
  3
C6
350
62
  3
C7
350
63
  3
C8
350
64
  3
C9
350
65
  3
D0
350
66
  3
D1
350
67
  3
D2
350
68
  0
LAYOUT
  5
1E
102
{ACAD_REACTORS
330
1A
102
}
330
1A
100
AcDbPlotSettings
  1

  2
none_device
  4

  6

 40
0.0
 41
0.0
 42
0.0
 43
0.0
 44
0.0
 45
0.0
 46
0.0
 47
0.0
 48
0.0
 49
0.0
140
0.0
141
0.0
142
1.0
143
1.0
 70
   688
 72
     1
 73
     0
 74
     5
  7

 75
    16
147
1.0
148
0.0
149
0.0
100
AcDbLayout
  1
Layout1
 70
     1
 71
     1
 10
0.0
 20
0.0
 11
420.0
 21
297.0
 12
0.0
 22
0.0
 32
0.0
 14
1.0000000000E+20
 24
1.0000000000E+20
 34
1.0000000000E+20
 15
-1.0000000000E+20
 25
-1.0000000000E+20
 35
-1.0000000000E+20
146
0.0
 13
0.0
 23
0.0
 33
0.0
 16
1.0
 26
0.0
 36
0.0
 17
0.0
 27
1.0
 37
0.0
 76
     0
330
1B
  0
LAYOUT
  5
26
102
{ACAD_REACTORS
330
1A
102
}
330
1A
100
AcDbPlotSettings
  1

  2
none_device
  4

  6

 40
0.0
 41
0.0
 42
0.0
 43
0.0
 44
0.0
 45
0.0
 46
0.0
 47
0.0
 48
0.0
 49
0.0
140
0.0
141
0.0
142
1.0
143
1.0
 70
   688
 72
     1
 73
     0
 74
     5
  7

 75
    16
147
1.0
148
0.0
149
0.0
100
AcDbLayout
  1
Layout2
 70
     1
 71
     2
 10
0.0
 20
0.0
 11
0.0
 21
0.0
 12
0.0
 22
0.0
 32
0.0
 14
0.0
 24
0.0
 34
0.0
 15
0.0
 25
0.0
 35
0.0
146
0.0
 13
0.0
 23
0.0
 33
0.0
 16
1.0
 26
0.0
 36
0.0
 17
0.0
 27
1.0
 37
0.0
 76
     0
330
23
  0
LAYOUT
  5
22
102
{ACAD_REACTORS
330
1A
102
}
330
1A
100
AcDbPlotSettings
  1

  2
none_device
  4
Letter_(8.50_x_11.00_Inches)
  6

 40
6.35
 41
6.35
 42
6.35000508
 43
6.35000508
 44
215.9
 45
279.4
 46
0.0
 47
0.0
 48
0.0
 49
0.0
140
0.0
141
0.0
142
1.0
143
1.0
 70
  1712
 72
     1
 73
     0
 74
     0
  7

 75
     0
147
1.0
148
0.0
149
0.0
100
AcDbLayout
  1
Model
 70
     1
 71
     0
 10
0.0
 20
0.0
 11
594.0
 21
841.0
 12
0.0
 22
0.0
 32
0.0
 14
0.0
 24
0.0
 34
0.0
 15
594.0
 25
841.0
 35
0.0
146
0.0
 13
0.0
 23
0.0
 33
0.0
 16
1.0
 26
0.0
 36
0.0
 17
0.0
 27
1.0
 37
0.0
 76
     0
330
1F
331
29
  0
MLINESTYLE
  5
18
102
{ACAD_REACTORS
330
17
102
}
330
17
100
AcDbMlineStyle
  2
Standard
 70
     0
  3

 62
   256
 51
90.0
 52
90.0
 71
     2
 49
0.5
 62
   256
  6
BYLAYER
 49
-0.5
 62
   256
  6
BYLAYER
  0
ACDBPLACEHOLDER
  5
F
102
{ACAD_REACTORS
330
E
102
}
330
E
  0
SCALE
  5
48
102
{ACAD_REACTORS
330
47
102
}
330
47
100
AcDbScale
 70
     0
300
1:1
140
1.0
141
1.0
290
     1
  0
SCALE
  5
49
102
{ACAD_REACTORS
330
47
102
}
330
47
100
AcDbScale
 70
     0
300
1:2
140
1.0
141
2.0
290
     0
  0
SCALE
  5
4A
102
{ACAD_REACTORS
330
47
102
}
330
47
100
AcDbScale
 70
     0
300
1:4
140
1.0
141
4.0
290
     0
  0
SCALE
  5
4B
102
{ACAD_REACTORS
330
47
102
}
330
47
100
AcDbScale
 70
     0
300
1:5
140
1.0
141
5.0
290
     0
  0
SCALE
  5
4C
102
{ACAD_REACTORS
330
47
102
}
330
47
100
AcDbScale
 70
     0
300
1:8
140
1.0
141
8.0
290
     0
  0
SCALE
  5
4D
102
{ACAD_REACTORS
330
47
102
}
330
47
100
AcDbScale
 70
     0
300
1:10
140
1.0
141
10.0
290
     0
  0
SCALE
  5
4E
102
{ACAD_REACTORS
330
47
102
}
330
47
100
AcDbScale
 70
     0
300
1:16
140
1.0
141
16.0
290
     0
  0
SCALE
  5
4F
102
{ACAD_REACTORS
330
47
102
}
330
47
100
AcDbScale
 70
     0
300
1:20
140
1.0
141
20.0
290
     0
  0
SCALE
  5
50
102
{ACAD_REACTORS
330
47
102
}
330
47
100
AcDbScale
 70
     0
300
1:30
140
1.0
141
30.0
290
     0
  0
SCALE
  5
51
102
{ACAD_REACTORS
330
47
102
}
330
47
100
AcDbScale
 70
     0
300
1:40
140
1.0
141
40.0
290
     0
  0
SCALE
  5
52
102
{ACAD_REACTORS
330
47
102
}
330
47
100
AcDbScale
 70
     0
300
1:50
140
1.0
141
50.0
290
     0
  0
SCALE
  5
53
102
{ACAD_REACTORS
330
47
102
}
330
47
100
AcDbScale
 70
     0
300
1:100
140
1.0
141
100.0
290
     0
  0
SCALE
  5
54
102
{ACAD_REACTORS
330
47
102
}
330
47
100
AcDbScale
 70
     0
300
2:1
140
2.0
141
1.0
290
     0
  0
SCALE
  5
55
102
{ACAD_REACTORS
330
47
102
}
330
47
100
AcDbScale
 70
     0
300
4:1
140
4.0
141
1.0
290
     0
  0
SCALE
  5
56
102
{ACAD_REACTORS
330
47
102
}
330
47
100
AcDbScale
 70
     0
300
8:1
140
8.0
141
1.0
290
     0
  0
SCALE
  5
57
102
{ACAD_REACTORS
330
47
102
}
330
47
100
AcDbScale
 70
     0
300
10:1
140
10.0
141
1.0
290
     0
  0
SCALE
  5
58
102
{ACAD_REACTORS
330
47
102
}
330
47
100
AcDbScale
 70
     0
300
100:1
140
100.0
141
1.0
290
     0
  0
SCALE
  5
59
102
{ACAD_REACTORS
330
47
102
}
330
47
100
AcDbScale
 70
     0
300
1/128" = 1'-0"
140
0.0078125
141
12.0
290
     0
  0
SCALE
  5
5A
102
{ACAD_REACTORS
330
47
102
}
330
47
100
AcDbScale
 70
     0
300
1/64" = 1'-0"
140
0.015625
141
12.0
290
     0
  0
SCALE
  5
5B
102
{ACAD_REACTORS
330
47
102
}
330
47
100
AcDbScale
 70
     0
300
1/32" = 1'-0"
140
0.03125
141
12.0
290
     0
  0
SCALE
  5
5C
102
{ACAD_REACTORS
330
47
102
}
330
47
100
AcDbScale
 70
     0
300
1/16" = 1'-0"
140
0.0625
141
12.0
290
     0
  0
SCALE
  5
5D
102
{ACAD_REACTORS
330
47
102
}
330
47
100
AcDbScale
 70
     0
300
3/32" = 1'-0"
140
0.09375
141
12.0
290
     0
  0
SCALE
  5
5E
102
{ACAD_REACTORS
330
47
102
}
330
47
100
AcDbScale
 70
     0
300
1/8" = 1'-0"
140
0.125
141
12.0
290
     0
  0
SCALE
  5
5F
102
{ACAD_REACTORS
330
47
102
}
330
47
100
AcDbScale
 70
     0
300
3/16" = 1'-0"
140
0.1875
141
12.0
290
     0
  0
SCALE
  5
60
102
{ACAD_REACTORS
330
47
102
}
330
47
100
AcDbScale
 70
     0
300
1/4" = 1'-0"
140
0.25
141
12.0
290
     0
  0
SCALE
  5
61
102
{ACAD_REACTORS
330
47
102
}
330
47
100
AcDbScale
 70
     0
300
3/8" = 1'-0"
140
0.375
141
12.0
290
     0
  0
SCALE
  5
62
102
{ACAD_REACTORS
330
47
102
}
330
47
100
AcDbScale
 70
     0
300
1/2" = 1'-0"
140
0.5
141
12.0
290
     0
  0
SCALE
  5
63
102
{ACAD_REACTORS
330
47
102
}
330
47
100
AcDbScale
 70
     0
300
3/4" = 1'-0"
140
0.75
141
12.0
290
     0
  0
SCALE
  5
64
102
{ACAD_REACTORS
330
47
102
}
330
47
100
AcDbScale
 70
     0
300
1" = 1'-0"
140
1.0
141
12.0
290
     0
  0
SCALE
  5
65
102
{ACAD_REACTORS
330
47
102
}
330
47
100
AcDbScale
 70
     0
300
1-1/2" = 1'-0"
140
1.5
141
12.0
290
     0
  0
SCALE
  5
66
102
{ACAD_REACTORS
330
47
102
}
330
47
100
AcDbScale
 70
     0
300
3" = 1'-0"
140
3.0
141
12.0
290
     0
  0
SCALE
  5
67
102
{ACAD_REACTORS
330
47
102
}
330
47
100
AcDbScale
 70
     0
300
6" = 1'-0"
140
6.0
141
12.0
290
     0
  0
SCALE
  5
68
102
{ACAD_REACTORS
330
47
102
}
330
47
100
AcDbScale
 70
     0
300
1'-0" = 1'-0"
140
12.0
141
12.0
290
     0
  0
ENDSEC
  0
EOF
