  0
SECTION
  2
HEADER
  9
$ACADVER
  1
AC1015
  9
$ACADMAINTVER
 70
     6
  9
$DWGCODEPAGE
  3
ANSI_1252
  9
$INSBASE
 10
0.0
 20
0.0
 30
0.0
  9
$EXTMIN
 10
0.0
 20
0.0
 30
0.0
  9
$EXTMAX
 10
841.0
 20
594.0
 30
0.0
  9
$LIMMIN
 10
0.0
 20
0.0
  9
$LIMMAX
 10
841.0
 20
594.0
  9
$ORTHOMODE
 70
     0
  9
$REGENMODE
 70
     1
  9
$FILLMODE
 70
     1
  9
$QTEXTMODE
 70
     0
  9
$MIRRTEXT
 70
     1
  9
$LTSCALE
 40
1.0
  9
$ATTMODE
 70
     1
  9
$TEXTSIZE
 40
10.0
  9
$TRACEWID
 40
1.0
  9
$TEXTSTYLE
  7
Standard
  9
$CLAYER
  8
0
  9
$CELTYPE
  6
ByLayer
  9
$CECOLOR
 62
   256
  9
$CELTSCALE
 40
1.0
  9
$DISPSILH
 70
     0
  9
$DIMSCALE
 40
1.0
  9
$DIMASZ
 40
2.5
  9
$DIMEXO
 40
0.0
  9
$DIMDLI
 40
3.75
  9
$DIMRND
 40
0.0
  9
$DIMDLE
 40
0.0
  9
$DIMEXE
 40
1.0
  9
$DIMTP
 40
0.0
  9
$DIMTM
 40
0.0
  9
$DIMTXT
 40
3.5
  9
$DIMCEN
 40
2.5
  9
$DIMTSZ
 40
0.0
  9
$DIMTOL
 70
     0
  9
$DIMLIM
 70
     0
  9
$DIMTIH
 70
     1
  9
$DIMTOH
 70
     1
  9
$DIMSE1
 70
     0
  9
$DIMSE2
 70
     0
  9
$DIMTAD
 70
     1
  9
$DIMZIN
 70
     0
  9
$DIMBLK
  1

  9
$DIMASO
 70
     1
  9
$DIMSHO
 70
     1
  9
$DIMPOST
  1

  9
$DIMAPOST
  1

  9
$DIMALT
 70
     0
  9
$DIMALTD
 70
     3
  9
$DIMALTF
 40
0.0393700787
  9
$DIMLFAC
 40
1.0
  9
$DIMTOFL
 70
     1
  9
$DIMTVP
 40
0.0
  9
$DIMTIX
 70
     0
  9
$DIMSOXD
 70
     0
  9
$DIMSAH
 70
     0
  9
$DIMBLK1
  1

  9
$DIMBLK2
  1

  9
$DIMSTYLE
  2
ISO-25
  9
$DIMCLRD
 70
     0
  9
$DIMCLRE
 70
     0
  9
$DIMCLRT
 70
     0
  9
$DIMTFAC
 40
1.0
  9
$DIMGAP
 40
1.5
  9
$DIMJUST
 70
     0
  9
$DIMSD1
 70
     0
  9
$DIMSD2
 70
     0
  9
$DIMTOLJ
 70
     0
  9
$DIMTZIN
 70
     0
  9
$DIMALTZ
 70
     0
  9
$DIMALTTZ
 70
     0
  9
$DIMUPT
 70
     0
  9
$DIMDEC
 70
     2
  9
$DIMTDEC
 70
     2
  9
$DIMALTU
 70
     2
  9
$DIMALTTD
 70
     3
  9
$DIMTXSTY
  7
Standard
  9
$DIMAUNIT
 70
     0
  9
$DIMADEC
 70
     2
  9
$DIMALTRND
 40
0.0
  9
$DIMAZIN
 70
     0
  9
$DIMDSEP
 70
    44
  9
$DIMATFIT
 70
     3
  9
$DIMFRAC
 70
     0
  9
$DIMLDRBLK
  1

  9
$DIMLUNIT
 70
     2
  9
$DIMLWD
 70
    -2
  9
$DIMLWE
 70
    -2
  9
$DIMTMOVE
 70
     0
  9
$LUNITS
 70
     2
  9
$LUPREC
 70
     2
  9
$SKETCHINC
 40
1.0
  9
$FILLETRAD
 40
0.0
  9
$AUNITS
 70
     0
  9
$AUPREC
 70
     2
  9
$MENU
  1
.
  9
$ELEVATION
 40
0.0
  9
$PELEVATION
 40
0.0
  9
$THICKNESS
 40
0.0
  9
$LIMCHECK
 70
     0
  9
$CHAMFERA
 40
0.0
  9
$CHAMFERB
 40
0.0
  9
$CHAMFERC
 40
0.0
  9
$CHAMFERD
 40
0.0
  9
$SKPOLY
 70
     0
  9
$TDCREATE
 40
2460382.399472037
  9
$TDUCREATE
 40
2460382.35780537
  9
$TDUPDATE
 40
2460382.39947331
  9
$TDUUPDATE
 40
2460382.357806643
  9
$TDINDWG
 40
0.0000000116
  9
$TDUSRTIMER
 40
0.0000000116
  9
$USRTIMER
 70
     1
  9
$ANGBASE
 50
0.0
  9
$ANGDIR
 70
     0
  9
$PDMODE
 70
     0
  9
$PDSIZE
 40
-1.0
  9
$PLINEWID
 40
0.0
  9
$SPLFRAME
 70
     0
  9
$SPLINETYPE
 70
     6
  9
$SPLINESEGS
 70
     8
  9
$HANDSEED
  5
38F
  9
$SURFTAB1
 70
     6
  9
$SURFTAB2
 70
     6
  9
$SURFTYPE
 70
     6
  9
$SURFU
 70
     6
  9
$SURFV
 70
     6
  9
$UCSBASE
  2

  9
$UCSNAME
  2

  9
$UCSORG
 10
0.0
 20
0.0
 30
0.0
  9
$UCSXDIR
 10
1.0
 20
0.0
 30
0.0
  9
$UCSYDIR
 10
0.0
 20
1.0
 30
0.0
  9
$UCSORTHOREF
  2

  9
$UCSORTHOVIEW
 70
     0
  9
$UCSORGTOP
 10
0.0
 20
0.0
 30
0.0
  9
$UCSORGBOTTOM
 10
0.0
 20
0.0
 30
0.0
  9
$UCSORGLEFT
 10
0.0
 20
0.0
 30
0.0
  9
$UCSORGRIGHT
 10
0.0
 20
0.0
 30
0.0
  9
$UCSORGFRONT
 10
0.0
 20
0.0
 30
0.0
  9
$UCSORGBACK
 10
0.0
 20
0.0
 30
0.0
  9
$PUCSBASE
  2

  9
$PUCSNAME
  2

  9
$PUCSORG
 10
0.0
 20
0.0
 30
0.0
  9
$PUCSXDIR
 10
1.0
 20
0.0
 30
0.0
  9
$PUCSYDIR
 10
0.0
 20
1.0
 30
0.0
  9
$PUCSORTHOREF
  2

  9
$PUCSORTHOVIEW
 70
     0
  9
$PUCSORGTOP
 10
0.0
 20
0.0
 30
0.0
  9
$PUCSORGBOTTOM
 10
0.0
 20
0.0
 30
0.0
  9
$PUCSORGLEFT
 10
0.0
 20
0.0
 30
0.0
  9
$PUCSORGRIGHT
 10
0.0
 20
0.0
 30
0.0
  9
$PUCSORGFRONT
 10
0.0
 20
0.0
 30
0.0
  9
$PUCSORGBACK
 10
0.0
 20
0.0
 30
0.0
  9
$USERI1
 70
     0
  9
$USERI2
 70
     0
  9
$USERI3
 70
     0
  9
$USERI4
 70
     0
  9
$USERI5
 70
     0
  9
$USERR1
 40
0.0
  9
$USERR2
 40
0.0
  9
$USERR3
 40
0.0
  9
$USERR4
 40
0.0
  9
$USERR5
 40
0.0
  9
$WORLDVIEW
 70
     1
  9
$SHADEDGE
 70
     3
  9
$SHADEDIF
 70
    70
  9
$TILEMODE
 70
     1
  9
$MAXACTVP
 70
    64
  9
$PINSBASE
 10
0.0
 20
0.0
 30
0.0
  9
$PLIMCHECK
 70
     0
  9
$PEXTMIN
 10
1.0000000000E+20
 20
1.0000000000E+20
 30
1.0000000000E+20
  9
$PEXTMAX
 10
-1.0000000000E+20
 20
-1.0000000000E+20
 30
-1.0000000000E+20
  9
$PLIMMIN
 10
0.0
 20
0.0
  9
$PLIMMAX
 10
420.0
 20
297.0
  9
$UNITMODE
 70
     0
  9
$VISRETAIN
 70
     1
  9
$PLINEGEN
 70
     0
  9
$PSLTSCALE
 70
     1
  9
$TREEDEPTH
 70
  3020
  9
$CMLSTYLE
  2
Standard
  9
$CMLJUST
 70
     0
  9
$CMLSCALE
 40
20.0
  9
$PROXYGRAPHICS
 70
     1
  9
$MEASUREMENT
 70
     1
  9
$CELWEIGHT
370
    -1
  9
$ENDCAPS
280
     0
  9
$JOINSTYLE
280
     0
  9
$LWDISPLAY
290
     1
  9
$INSUNITS
 70
     4
  9
$HYPERLINKBASE
  1

  9
$STYLESHEET
  1

  9
$XEDIT
290
     1
  9
$CEPSNTYPE
380
     0
  9
$PSTYLEMODE
290
     1
  9
$FINGERPRINTGUID
  2
{0e99e2d8-aa77-45e3-88ce-3db458984551}
  9
$VERSIONGUID
  2
{FAEB1C32-E019-11D5-929B-00C0DF256EC4}
  9
$EXTNAMES
290
     1
  9
$PSVPSCALE
 40
0.0
  9
$OLESTARTUP
290
     0
  0
ENDSEC
  0
SECTION
  2
CLASSES
  0
CLASS
  1
ACDBDICTIONARYWDFLT
  2
AcDbDictionaryWithDefault
  3
ObjectDBX Classes
 90
        0
280
     0
281
     0
  0
CLASS
  1
VISUALSTYLE
  2
AcDbVisualStyle
  3
ObjectDBX Classes
 90
     4095
280
     0
281
     0
  0
CLASS
  1
MATERIAL
  2
AcDbMaterial
  3
ObjectDBX Classes
 90
     1153
280
     0
281
     0
  0
CLASS
  1
SCALE
  2
AcDbScale
  3
ObjectDBX Classes
 90
     1153
280
     0
281
     0
  0
CLASS
  1
TABLESTYLE
  2
AcDbTableStyle
  3
ObjectDBX Classes
 90
     4095
280
     0
281
     0
  0
CLASS
  1
MLEADERSTYLE
  2
AcDbMLeaderStyle
  3
ACDB_MLEADERSTYLE_CLASS
 90
     4095
280
     0
281
     0
  0
CLASS
  1
SUN
  2
AcDbSun
  3
SCENEOE
 90
     1153
280
     0
281
     0
  0
CLASS
  1
ACDBPLACEHOLDER
  2
AcDbPlaceHolder
  3
ObjectDBX Classes
 90
        0
280
     0
281
     0
  0
CLASS
  1
LAYOUT
  2
AcDbLayout
  3
ObjectDBX Classes
 90
        0
280
     0
281
     0
  0
ENDSEC
  0
SECTION
  2
TABLES
  0
TABLE
  2
VPORT
  5
8
330
0
100
AcDbSymbolTable
 70
     1
  0
VPORT
  5
29
330
8
100
AcDbSymbolTableRecord
100
AcDbViewportTableRecord
  2
*Active
 70
     0
 10
0.0
 20
0.0
 11
1.0
 21
1.0
 12
420.5
 22
297.0
 13
0.0
 23
0.0
 14
10.0
 24
10.0
 15
10.0
 25
10.0
 16
0.0
 26
0.0
 36
1.0
 17
0.0
 27
0.0
 37
0.0
 40
594.0
 41
1.4158249158
 42
50.0
 43
0.0
 44
0.0
 50
0.0
 51
0.0
 71
     0
 72
  2000
 73
     1
 74
     3
 75
     0
 76
     0
 77
     0
 78
     0
281
     0
 65
     1
110
0.0
120
0.0
130
0.0
111
1.0
121
0.0
131
0.0
112
0.0
122
1.0
132
0.0
 79
     0
146
0.0
  0
ENDTAB
  0
TABLE
  2
LTYPE
  5
5
330
0
100
AcDbSymbolTable
 70
     6
  0
LTYPE
  5
14
330
5
100
AcDbSymbolTableRecord
100
AcDbLinetypeTableRecord
  2
ByBlock
 70
     0
  3

 72
    65
 73
     0
 40
0.0
  0
LTYPE
  5
15
330
5
100
AcDbSymbolTableRecord
100
AcDbLinetypeTableRecord
  2
ByLayer
 70
     0
  3

 72
    65
 73
     0
 40
0.0
  0
LTYPE
  5
16
330
5
100
AcDbSymbolTableRecord
100
AcDbLinetypeTableRecord
  2
Continuous
 70
     0
  3
Solid line
 72
    65
 73
     0
 40
0.0
  0
LTYPE
  5
5E
330
5
100
AcDbSymbolTableRecord
100
AcDbLinetypeTableRecord
  2
HIDDEN
 70
     0
  3
Hidden __ __ __ __ __ __ __ __ __ __ __ __ __ __
 72
    65
 73
     2
 40
1.905
 49
1.27
 74
     0
 49
-0.635
 74
     0
  0
LTYPE
  5
5F
330
5
100
AcDbSymbolTableRecord
100
AcDbLinetypeTableRecord
  2
PHANTOM
 70
     0
  3
Phantom ______  __  __  ______  __  __  ______
 72
    65
 73
     6
 40
12.7
 49
6.35
 74
     0
 49
-1.27
 74
     0
 49
1.27
 74
     0
 49
-1.27
 74
     0
 49
1.27
 74
     0
 49
-1.27
 74
     0
  0
LTYPE
  5
60
330
5
100
AcDbSymbolTableRecord
100
AcDbLinetypeTableRecord
  2
CENTER
 70
     0
  3
Center ____ _ ____ _ ____ _ ____ _ ____ _ ____
 72
    65
 73
     4
 40
10.16
 49
6.35
 74
     0
 49
-1.27
 74
     0
 49
1.27
 74
     0
 49
-1.27
 74
     0
  0
LTYPE
  5
61
330
5
100
AcDbSymbolTableRecord
100
AcDbLinetypeTableRecord
  2
CENTERX2
 70
     0
  3
Center (2x) ________  __  ________  __  _____
 72
    65
 73
     4
 40
20.32
 49
12.7
 74
     0
 49
-2.54
 74
     0
 49
2.54
 74
     0
 49
-2.54
 74
     0
  0
LTYPE
  5
62
330
5
100
AcDbSymbolTableRecord
100
AcDbLinetypeTableRecord
  2
DOT2
 70
     0
  3
Dot (.5x) ........................................
 72
    65
 73
     2
 40
0.635
 49
0.0
 74
     0
 49
-0.635
 74
     0
  0
ENDTAB
  0
TABLE
  2
LAYER
  5
2
330
0
100
AcDbSymbolTable
 70
     1
  0
LAYER
  5
10
330
2
100
AcDbSymbolTableRecord
100
AcDbLayerTableRecord
  2
0
 70
     0
 62
     7
  6
Continuous
370
    -3
390
F
  0
ENDTAB
  0
TABLE
  2
STYLE
  5
3
330
0
100
AcDbSymbolTable
 70
     3
  0
STYLE
  5
11
330
3
100
AcDbSymbolTableRecord
100
AcDbTextStyleTableRecord
  2
Standard
 70
     0
 40
0.0
 41
1.0
 50
0.0
 71
     0
 42
10.0
  3
txt
  4

  0
STYLE
  5
66
330
3
100
AcDbSymbolTableRecord
100
AcDbTextStyleTableRecord
  2
SLDTEXTSTYLE0
 70
     0
 40
0.0
 41
0.96
 50
0.0
 71
     0
 42
10.0
  3
ISOCP3
  4

  0
STYLE
  5
7D
330
3
100
AcDbSymbolTableRecord
100
AcDbTextStyleTableRecord
  2
SLDTEXTSTYLE1
 70
     0
 40
0.0
 41
0.605
 50
0.0
 71
     0
 42
10.0
  3
TXT
  4

  0
ENDTAB
  0
TABLE
  2
VIEW
  5
6
330
0
100
AcDbSymbolTable
 70
     0
  0
ENDTAB
  0
TABLE
  2
UCS
  5
7
330
0
100
AcDbSymbolTable
 70
     0
  0
ENDTAB
  0
TABLE
  2
APPID
  5
9
330
0
100
AcDbSymbolTable
 70
     1
  0
APPID
  5
12
330
9
100
AcDbSymbolTableRecord
100
AcDbRegAppTableRecord
  2
ACAD
 70
     0
  0
ENDTAB
  0
TABLE
  2
DIMSTYLE
  5
A
330
0
100
AcDbSymbolTable
 70
     2
100
AcDbDimStyleTable
  0
DIMSTYLE
105
27
330
A
100
AcDbSymbolTableRecord
100
AcDbDimStyleTableRecord
  2
ISO-25
 70
     0
 41
2.5
 42
0.625
 43
3.75
 44
1.25
 73
     0
 74
     0
 77
     1
 78
     8
140
2.5
141
2.5
143
0.0393700787
147
0.625
171
     3
172
     1
178
     0
271
     2
272
     2
274
     3
278
    44
283
     0
284
     8
340
11
  0
DIMSTYLE
105
67
102
{ACAD_REACTORS
330
65
330
72
102
}
330
A
100
AcDbSymbolTableRecord
100
AcDbDimStyleTableRecord
  2
SLDDIMSTYLE0
 70
     0
 41
2.5
 44
0.0
 45
0.000000001
 73
     0
 74
     0
 77
     1
 78
    12
 79
     3
140
6.0
147
1.5
173
     1
178
     0
271
     2
272
     2
276
     2
284
    12
340
66
  0
ENDTAB
  0
TABLE
  2
BLOCK_RECORD
  5
1
330
0
100
AcDbSymbolTable
 70
     3
  0
BLOCK_RECORD
  5
1F
330
1
100
AcDbSymbolTableRecord
100
AcDbBlockTableRecord
  2
*Model_Space
340
22
  0
BLOCK_RECORD
  5
1B
330
1
100
AcDbSymbolTableRecord
100
AcDbBlockTableRecord
  2
*Paper_Space
340
1E
  0
BLOCK_RECORD
  5
23
330
1
100
AcDbSymbolTableRecord
100
AcDbBlockTableRecord
  2
*Paper_Space0
340
26
  0
BLOCK_RECORD
  5
68
330
1
100
AcDbSymbolTableRecord
100
AcDbBlockTableRecord
  2
_D
340
0
  0
BLOCK_RECORD
  5
73
330
1
100
AcDbSymbolTableRecord
100
AcDbBlockTableRecord
  2
_D_1
340
0
  0
ENDTAB
  0
ENDSEC
  0
SECTION
  2
BLOCKS
  0
BLOCK
  5
20
330
1F
100
AcDbEntity
  8
0
100
AcDbBlockBegin
  2
*Model_Space
 70
     0
 10
0.0
 20
0.0
 30
0.0
  3
*Model_Space
  1

  0
ENDBLK
  5
21
330
1F
100
AcDbEntity
  8
0
100
AcDbBlockEnd
  0
BLOCK
  5
1C
330
1B
100
AcDbEntity
 67
     1
  8
0
100
AcDbBlockBegin
  2
*Paper_Space
 70
     0
 10
0.0
 20
0.0
 30
0.0
  3
*Paper_Space
  1

  0
ENDBLK
  5
1D
330
1B
100
AcDbEntity
 67
     1
  8
0
100
AcDbBlockEnd
  0
BLOCK
  5
24
330
23
100
AcDbEntity
  8
0
100
AcDbBlockBegin
  2
*Paper_Space0
 70
     0
 10
0.0
 20
0.0
 30
0.0
  3
*Paper_Space0
  1

  0
ENDBLK
  5
25
330
23
100
AcDbEntity
  8
0
100
AcDbBlockEnd
  0
BLOCK
  5
69
330
68
100
AcDbEntity
  8
0
100
AcDbBlockBegin
  2
_D
 70
     0
 10
0.0
 20
0.0
 30
0.0
  3
_D
  1

  0
SOLID
  5
6B
330
68
100
AcDbEntity
  8
0
  6
Continuous
 62
     7
370
    18
100
AcDbTrace
 10
42.7614395004
 20
152.0299240879
 30
0.0
 11
42.4614395004
 21
149.5299240879
 31
0.0
 12
43.0614395004
 22
149.5299240879
 32
0.0
 13
43.0614395004
 23
149.5299240879
 33
0.0
  0
SOLID
  5
6C
330
68
100
AcDbEntity
  8
0
  6
Continuous
 62
     7
370
    18
100
AcDbTrace
 10
42.7614395004
 20
52.0299240879
 30
0.0
 11
43.0614395004
 21
54.5299240879
 31
0.0
 12
42.4614395004
 22
54.5299240879
 32
0.0
 13
42.4614395004
 23
54.5299240879
 33
0.0
  0
LINE
  5
6D
330
68
100
AcDbEntity
  8
0
  6
Continuous
 62
     7
370
     0
100
AcDbLine
 10
56.6850079902
 20
152.0299240879
 30
0.0
 11
41.7614395004
 21
152.0299240879
 31
0.0
  0
LINE
  5
6E
330
68
100
AcDbEntity
  8
0
  6
Continuous
 62
     7
370
     0
100
AcDbLine
 10
56.6850079902
 20
52.0299240879
 30
0.0
 11
41.7614395004
 21
52.0299240879
 31
0.0
  0
LINE
  5
6F
330
68
100
AcDbEntity
  8
0
  6
Continuous
 62
     7
370
     0
100
AcDbLine
 10
42.7614395004
 20
152.0299240879
 30
0.0
 11
42.7614395004
 21
52.0299240879
 31
0.0
  0
MTEXT
  5
70
330
68
100
AcDbEntity
  8
0
  6
Continuous
 62
     7
370
    18
100
AcDbMText
 10
35.0270332946
 20
94.3680541463
 30
0.0
 40
6.0
 41
0.0
 71
     1
 72
     1
  1
100
  7
SLDTEXTSTYLE0
 11
-7.044195017643634E-15
 21
1.0
 31
0.0
 73
     1
 44
1.0
  0
MTEXT
  5
71
330
68
100
AcDbEntity
  8
0
  6
Continuous
 62
     7
370
    18
100
AcDbMText
 10
35.0270332946
 20
105.7430548466
 30
0.0
 40
6.0
 41
0.0
 71
     1
 72
     1
  1
mm
  7
SLDTEXTSTYLE0
 11
-7.044195017643634E-15
 21
1.0
 31
0.0
 73
     1
 44
1.0
  0
ENDBLK
  5
6A
330
68
100
AcDbEntity
  8
0
100
AcDbBlockEnd
  0
BLOCK
  5
74
330
73
100
AcDbEntity
  8
0
100
AcDbBlockBegin
  2
_D_1
 70
     0
 10
0.0
 20
0.0
 30
0.0
  3
_D_1
  1

  0
SOLID
  5
76
330
73
100
AcDbEntity
  8
0
  6
Continuous
 62
     7
370
    18
100
AcDbTrace
 10
56.6850079902
 20
38.4602342313
 30
0.0
 11
59.1850079902
 21
38.1602342313
 31
0.0
 12
59.1850079902
 22
38.7602342313
 32
0.0
 13
59.1850079902
 23
38.7602342313
 33
0.0
  0
SOLID
  5
77
330
73
100
AcDbEntity
  8
0
  6
Continuous
 62
     7
370
    18
100
AcDbTrace
 10
156.6850079902
 20
38.4602342313
 30
0.0
 11
154.1850079902
 21
38.7602342313
 31
0.0
 12
154.1850079902
 22
38.1602342313
 32
0.0
 13
154.1850079902
 23
38.1602342313
 33
0.0
  0
LINE
  5
78
330
73
100
AcDbEntity
  8
0
  6
Continuous
 62
     7
370
     0
100
AcDbLine
 10
56.6850079902
 20
52.0299240879
 30
0.0
 11
56.6850079902
 21
37.4602342313
 31
0.0
  0
LINE
  5
79
330
73
100
AcDbEntity
  8
0
  6
Continuous
 62
     7
370
     0
100
AcDbLine
 10
156.6850079902
 20
52.0299240879
 30
0.0
 11
156.6850079902
 21
37.4602342313
 31
0.0
  0
LINE
  5
7A
330
73
100
AcDbEntity
  8
0
  6
Continuous
 62
     7
370
     0
100
AcDbLine
 10
56.6850079902
 20
38.4602342313
 30
0.0
 11
156.6850079902
 21
38.4602342313
 31
0.0
  0
MTEXT
  5
7B
330
73
100
AcDbEntity
  8
0
  6
Continuous
 62
     7
370
    18
100
AcDbMText
 10
93.9626484861
 20
46.1946404371
 30
0.0
 40
6.0
 41
0.0
 71
     1
 72
     1
  1
100
  7
SLDTEXTSTYLE0
 73
     1
 44
1.0
  0
MTEXT
  5
7C
330
73
100
AcDbEntity
  8
0
  6
Continuous
 62
     7
370
    18
100
AcDbMText
 10
105.3376491864
 20
46.1946404371
 30
0.0
 40
6.0
 41
0.0
 71
     1
 72
     1
  1
mm
  7
SLDTEXTSTYLE0
 73
     1
 44
1.0
  0
ENDBLK
  5
75
330
73
100
AcDbEntity
  8
0
100
AcDbBlockEnd
  0
ENDSEC
  0
SECTION
  2
ENTITIES
  0
LINE
  5
63
330
1F
100
AcDbEntity
  8
0
  6
Continuous
 62
     7
370
    18
100
AcDbLine
 10
56.6850079902
 20
152.0299240879
 30
0.0
 11
56.6850079902
 21
52.0299240879
 31
0.0
  0
LINE
  5
64
330
1F
100
AcDbEntity
  8
0
  6
Continuous
 62
     7
370
    18
100
AcDbLine
 10
56.6850079902
 20
52.0299240879
 30
0.0
 11
156.6850079902
 21
52.0299240879
 31
0.0
  0
DIMENSION
  5
65
330
1F
100
AcDbEntity
  8
0
  6
Continuous
 62
     7
370
    18
100
AcDbDimension
  2
_D
 10
42.7614395004
 20
52.0299240879
 30
0.0
 11
42.7614395004
 21
105.4472211621
 31
0.0
 70
   160
  1
<>mm
 71
     2
 42
-1.0
  3
SLDDIMSTYLE0
100
AcDbAlignedDimension
 13
56.6850079902
 23
152.0299240879
 33
0.0
 14
56.6850079902
 24
52.0299240879
 34
0.0
 50
90.0
100
AcDbRotatedDimension
  0
DIMENSION
  5
72
330
1F
100
AcDbEntity
  8
0
  6
Continuous
 62
     7
370
    18
100
AcDbDimension
  2
_D_1
 10
156.6850079902
 20
38.4602342313
 30
0.0
 11
105.0418155019
 21
38.4602342313
 31
0.0
 70
   160
  1
<>mm
 71
     2
 42
-1.0
  3
SLDDIMSTYLE0
100
AcDbAlignedDimension
 13
56.6850079902
 23
52.0299240879
 33
0.0
 14
156.6850079902
 24
52.0299240879
 34
0.0
100
AcDbRotatedDimension
  0
MTEXT
  5
7E
330
1F
100
AcDbEntity
  8
0
  6
Continuous
 62
     7
370
     0
100
AcDbMText
 10
664.658399795
 20
48.4342449499
 30
0.0
 40
10.0
 41
0.0
 71
     1
 72
     1
  1
KLUDI GmbH & Co KG
  7
SLDTEXTSTYLE1
 73
     1
 44
1.0
  0
LINE
  5
7F
330
1F
100
AcDbEntity
  8
0
  6
Continuous
 62
     7
370
    25
100
AcDbLine
 10
595.0005296932
 20
436.971114855
 30
0.0
 11
565.6005296932
 21
436.971114855
 31
0.0
  0
LINE
  5
80
330
1F
100
AcDbEntity
  8
0
  6
Continuous
 62
     7
370
    25
100
AcDbLine
 10
565.6005296932
 20
404.971114855
 30
0.0
 11
565.8875621822
 21
404.971114855
 31
0.0
  0
ARC
  5
81
330
1F
100
AcDbEntity
  8
0
  6
Continuous
 62
     7
370
    25
100
AcDbCircle
 10
-634.6124378176
 20
402.5614542805
 30
0.0
 40
1200.0
100
AcDbArc
 50
359.0774059646
 51
360.0
  0
ARC
  5
82
330
1F
100
AcDbEntity
  8
0
  6
Continuous
 62
     7
370
    25
100
AcDbCircle
 10
-634.6124378176
 20
429.7614542805
 30
0.0
 40
1200.0
100
AcDbArc
 50
360.0
 51
0.9225927655
  0
LINE
  5
83
330
1F
100
AcDbEntity
  8
0
  6
Continuous
 62
     7
370
    25
100
AcDbLine
 10
565.3875621824
 20
402.5614542804
 30
0.0
 11
565.3875621824
 21
429.7614542804
 31
0.0
  0
LINE
  5
84
330
1F
100
AcDbEntity
  8
0
  6
Continuous
 62
     7
370
    25
100
AcDbLine
 10
563.267157872
 20
451.0509078381
 30
0.0
 11
539.3875621825
 21
451.4677277313
 31
0.0
  0
LINE
  5
85
330
1F
100
AcDbEntity
  8
0
  6
Continuous
 62
     7
370
    25
100
AcDbLine
 10
539.3875621824
 20
380.8551808296
 30
0.0
 11
563.267157872
 21
381.2720007228
 31
0.0
  0
ARC
  5
86
330
1F
100
AcDbEntity
  8
0
  6
Continuous
 62
     7
370
    25
100
AcDbCircle
 10
563.2322537844
 20
383.2716961393
 30
0.0
 40
1.999999999987006
100
AcDbArc
 50
271.0216013496
 51
359.1059931341
  0
ARC
  5
87
330
1F
100
AcDbEntity
  8
0
  6
Continuous
 62
     7
370
    25
100
AcDbCircle
 10
563.2322537844
 20
449.0512124215
 30
0.0
 40
1.999999999987073
100
AcDbArc
 50
0.9103692834
 51
88.971499597
  0
SPLINE
  5
88
330
1F
100
AcDbEntity
  8
0
  6
Continuous
 62
     7
370
    25
100
AcDbSpline
210
0.0
220
0.0
230
1.0
 70
     8
 71
     3
 72
    14
 73
    10
 74
     0
 42
0.00000001
 43
0.00000001
 40
0.0
 40
0.0
 40
0.0
 40
0.0
 40
0.1374609648427146
 40
0.280422080718105
 40
0.4256633336107337
 40
0.5698026402149752
 40
0.7156599104523977
 40
0.8661801117029101
 40
1.0
 40
1.0
 40
1.0
 40
1.0
 10
638.1904338250758
 20
462.9887202915096
 30
0.0
 10
638.1913186163622
 20
463.0515494724563
 30
0.0
 10
638.1931236016087
 20
463.1797217842906
 30
0.0
 10
638.1598098476684
 20
463.38367969461
 30
0.0
 10
638.0981242680901
 20
463.5844461360118
 30
0.0
 10
638.0066389495739
 20
463.7720169222965
 30
0.0
 10
637.8884781886343
 20
463.9368350456421
 30
0.0
 10
637.753845648904
 20
464.0703504382963
 30
0.0
 10
637.6522235337014
 20
464.1257127641389
 30
0.0
 10
637.6043967916949
 20
464.1517681131118
 30
0.0
  0
SPLINE
  5
89
330
1F
100
AcDbEntity
  8
0
  6
Continuous
 62
     7
370
    25
100
AcDbSpline
210
0.0
220
0.0
230
1.0
 70
     8
 71
     3
 72
    14
 73
    10
 74
     0
 42
0.00000001
 43
0.00000001
 40
0.0
 40
0.0
 40
0.0
 40
0.0
 40
0.1315943414143449
 40
0.2825335343418472
 40
0.4287849237610399
 40
0.5733014854447215
 40
0.7189092137765588
 40
0.8622177080866448
 40
1.0
 40
1.0
 40
1.0
 40
1.0
 10
596.9668069508277
 20
464.1497915019507
 30
0.0
 10
596.9199347579248
 20
464.1242044932524
 30
0.0
 10
596.8192999876082
 20
464.0692690916
 30
0.0
 10
596.6855956379226
 20
463.9364404482425
 30
0.0
 10
596.5675087342828
 20
463.7716768714913
 30
0.0
 10
596.4761157702802
 20
463.5841675981005
 30
0.0
 10
596.4145118652148
 20
463.3835177849518
 30
0.0
 10
596.3812681789046
 20
463.179712419953
 30
0.0
 10
596.3831033115514
 20
463.0516603382009
 30
0.0
 10
596.3840028386595
 20
462.988893039617
 30
0.0
  0
SPLINE
  5
8A
330
1F
100
AcDbEntity
  8
0
  6
Continuous
 62
     7
370
    25
100
AcDbSpline
210
0.0
220
0.0
230
1.0
 70
     8
 71
     3
 72
    15
 73
    11
 74
     0
 42
0.00000001
 43
0.00000001
 40
0.0
 40
0.0
 40
0.0
 40
0.0
 40
0.1334621873181549
 40
0.2648651792389135
 40
0.3922270577906578
 40
0.513496588695358
 40
0.7316259507556221
 40
0.8285251689493859
 40
0.9184771661374448
 40
0.9999999999999999
 40
0.9999999999999999
 40
0.9999999999999999
 40
0.9999999999999999
 10
637.2492618645767
 20
395.1612782379541
 30
0.0
 10
637.3269257783098
 20
395.1656609455376
 30
0.0
 10
637.4810553249977
 20
395.1743587396692
 30
0.0
 10
637.6981416312822
 20
395.2512050241855
 30
0.0
 10
637.8875139500698
 20
395.3657365130122
 30
0.0
 10
638.0840076815647
 20
395.5511613810489
 30
0.0
 10
638.2106533659501
 20
395.7724967808032
 30
0.0
 10
638.2688137950105
 20
395.977006392571
 30
0.0
 10
638.2865519776637
 20
396.1045620729843
 30
0.0
 10
638.2870959314412
 20
396.162373638179
 30
0.0
 10
638.2873545388014
 20
396.1898585034261
 30
0.0
  0
SPLINE
  5
8B
330
1F
100
AcDbEntity
  8
0
  6
Continuous
 62
     7
370
    25
100
AcDbSpline
210
0.0
220
0.0
230
1.0
 70
     8
 71
     3
 72
    15
 73
    11
 74
     0
 42
0.00000001
 43
0.00000001
 40
0.0
 40
0.0
 40
0.0
 40
0.0
 40
0.0802625898164194
 40
0.1703851781882457
 40
0.2674208618747474
 40
0.4858295692168498
 40
0.6072485497167237
 40
0.734775708876541
 40
0.8663599640480464
 40
1.0
 40
1.0
 40
1.0
 40
1.0
 10
596.2879538505099
 20
396.189808249665
 30
0.0
 10
596.2881659929303
 20
396.163065007019
 30
0.0
 10
596.2886163387786
 20
396.1062932012002
 30
0.0
 10
596.305805193549
 20
395.9801500267088
 30
0.0
 10
596.3628975904777
 20
395.7766304054076
 30
0.0
 10
596.4878635534659
 20
395.5557788898973
 30
0.0
 10
596.6822756658075
 20
395.3699383510069
 30
0.0
 10
596.8700212419624
 20
395.2545808605511
 30
0.0
 10
597.0855501383523
 20
395.1763179605372
 30
0.0
 10
597.2389538276814
 20
395.1662761656009
 30
0.0
 10
597.3162501962389
 20
395.1612163506398
 30
0.0
  0
LINE
  5
8C
330
1F
100
AcDbEntity
  8
0
  6
Continuous
 62
     7
370
    25
100
AcDbLine
 10
638.2675095399
 20
395.9866911157
 30
0.0
 11
638.2675095398
 21
395.986799696
 31
0.0
  0
LINE
  5
8D
330
1F
100
AcDbEntity
  8
0
  6
Continuous
 62
     7
370
    25
100
AcDbLine
 10
596.3077474715
 20
395.9867423509
 30
0.0
 11
596.3077474716
 21
395.9866337705
 31
0.0
  0
LINE
  5
8E
330
1F
100
AcDbEntity
  8
0
  6
Continuous
 62
     7
370
    25
100
AcDbLine
 10
613.2878185111
 20
395.1612359472
 30
0.0
 11
613.2878188527
 21
394.9113104854
 31
0.0
  0
LINE
  5
8F
330
1F
100
AcDbEntity
  8
0
  6
Continuous
 62
     7
370
    25
100
AcDbLine
 10
621.2878188527
 20
394.9113214186
 30
0.0
 11
621.2878185111
 21
395.1612468865
 31
0.0
  0
LINE
  5
90
330
1F
100
AcDbEntity
  8
0
  6
Continuous
 62
     7
370
    25
100
AcDbLine
 10
613.2878188527
 20
394.9113104852
 30
0.0
 11
613.5064010404
 21
394.310763414
 31
0.0
  0
LINE
  5
91
330
1F
100
AcDbEntity
  8
0
  6
Continuous
 62
     7
370
    25
100
AcDbLine
 10
621.0692383065
 20
394.3107737498
 30
0.0
 11
621.2878188526
 21
394.9113214184
 31
0.0
  0
LINE
  5
92
330
1F
100
AcDbEntity
  8
0
  6
Continuous
 62
     7
370
    25
100
AcDbLine
 10
596.2920938528
 20
396.0923534193
 30
0.0
 11
596.2920938529
 21
396.0923002391
 31
0.0
  0
LINE
  5
93
330
1F
100
AcDbEntity
  8
0
  6
Continuous
 62
     7
370
    25
100
AcDbLine
 10
638.2155085269
 20
395.8126409534
 30
0.0
 11
638.2155085049
 21
395.8126944173
 31
0.0
  0
LWPOLYLINE
  5
94
330
1F
100
AcDbEntity
  8
0
  6
Continuous
 62
     7
370
    25
100
AcDbPolyline
 90
       26
 70
   128
 43
0.0
 10
638.8455429963
 20
411.6257880367
 10
638.779184255
 20
411.4491568929
 10
638.7405851886
 20
411.3983535562
 10
638.7723559922
 20
411.4793758139
 10
638.8907204622
 20
411.7161665577
 10
639.068218059
 20
412.1174568625
 10
639.2829384426
 20
412.631770873
 10
639.5240296322
 20
413.2046137552
 10
639.7874805239
 20
413.789020146
 10
640.0732506818
 20
414.3592756735
 10
640.7999044026
 20
415.552675495
 10
642.0130756045
 20
417.0097221848
 10
643.9181326044
 20
418.5439694042
 10
645.1099449612
 20
419.2174049813
 10
646.1678350699
 20
419.6876384512
 10
647.0299646659
 20
420.0002700684
 10
647.6660181981
 20
420.1971078327
 10
647.8925423279
 20
420.2613756081
 10
648.0553841236
 20
420.30626414
 10
648.2826848774
 20
420.368711607
 10
648.5942064401
 20
420.4619909916
 10
648.7441094688
 20
420.5326901449
 10
648.857742494
 20
420.6215388117
 10
649.2021070201
 20
420.6758524306
 10
649.4421519802
 20
420.6900590704
 10
649.4421519802
 20
420.6900590704
  0
SPLINE
  5
95
330
1F
100
AcDbEntity
  8
0
  6
Continuous
 62
     7
370
    25
100
AcDbSpline
210
0.0
220
0.0
230
1.0
 70
     8
 71
     3
 72
     9
 73
     5
 74
     0
 42
0.00000001
 43
0.00000001
 40
0.0
 40
0.0
 40
0.0
 40
0.0
 40
0.4984807536694402
 40
1.0
 40
1.0
 40
1.0
 40
1.0
 10
655.6947225609314
 20
421.1491188475376
 30
0.0
 10
656.1255384670345
 20
421.1534705376077
 30
0.0
 10
656.9897963203853
 20
421.162200443503
 30
0.0
 10
657.8540981701503
 20
421.1617034145117
 30
0.0
 10
658.2875621824467
 20
421.1614541449066
 30
0.0
  0
SPLINE
  5
96
330
1F
100
AcDbEntity
  8
0
  6
Continuous
 62
     7
370
    25
100
AcDbSpline
210
0.0
220
0.0
230
1.0
 70
     8
 71
     3
 72
    12
 73
     8
 74
     0
 42
0.00000001
 43
0.00000001
 40
0.0
 40
0.0
 40
0.0
 40
0.0
 40
0.3111840120458299
 40
0.5902676055003016
 40
0.8025190981449067
 40
0.9503471180513543
 40
1.0
 40
1.0
 40
1.0
 40
1.0
 10
638.2875621824469
 20
401.161452759968
 30
0.0
 10
638.2733338325514
 20
402.7228813456662
 30
0.0
 10
638.2463448687942
 20
405.6846681880571
 30
0.0
 10
638.6042798927652
 20
409.7145112528738
 30
0.0
 10
639.4114751773373
 20
412.8237791274834
 30
0.0
 10
640.2843588472695
 20
414.7248032491515
 30
0.0
 10
640.8176563807583
 20
415.5320670614817
 30
0.0
 10
640.9517440784804
 20
415.7350384597208
 30
0.0
  0
SPLINE
  5
97
330
1F
100
AcDbEntity
  8
0
  6
Continuous
 62
     7
370
    25
100
AcDbSpline
210
0.0
220
0.0
230
1.0
 70
     8
 71
     3
 72
    18
 73
    14
 74
     0
 42
0.00000001
 43
0.00000001
 40
0.0
 40
0.0
 40
0.0
 40
0.0
 40
0.0628197233577549
 40
0.083424445242344
 40
0.0924935894300331
 40
0.1036307062873625
 40
0.1339482046300237
 40
0.1764350873496206
 40
0.2533810626488672
 40
0.3557221599190353
 40
0.4832263210676856
 40
0.7162363931637132
 40
1.0
 40
1.0
 40
1.0
 40
1.0
 10
647.9250849672553
 20
420.2703462246621
 30
0.0
 10
648.4256693059391
 20
420.3994038760553
 30
0.0
 10
649.0904441333271
 20
420.5707921343327
 30
0.0
 10
649.8557509254065
 20
420.7040254421364
 30
0.0
 10
650.1275561784109
 20
420.7504091925314
 30
0.0
 10
650.3677391681264
 20
420.7915893335845
 30
0.0
 10
650.6233363905939
 20
420.8362725478471
 30
0.0
 10
650.9489092960213
 20
420.8951538246009
 30
0.0
 10
651.374720156874
 20
420.963520378841
 30
0.0
 10
652.1665853243182
 20
421.022191023337
 30
0.0
 10
653.2255064243873
 20
421.0798835394927
 30
0.0
 10
654.4521152745851
 20
421.1272398587283
 30
0.0
 10
655.2542604531945
 20
421.1413634869564
 30
0.0
 10
655.6947233064088
 20
421.1491188581197
 30
0.0
  0
LINE
  5
98
330
1F
100
AcDbEntity
  8
0
  6
Continuous
 62
     7
370
    25
100
AcDbLine
 10
658.2875621824
 20
437.0912424484
 30
0.0
 11
655.2736517485
 21
437.1614541449
 31
0.0
  0
LINE
  5
99
330
1F
100
AcDbEntity
  8
0
  6
Continuous
 62
     7
370
    25
100
AcDbLine
 10
720.5875621824
 20
421.1614541449
 30
0.0
 11
720.8375621824
 21
420.9114541449
 31
0.0
  0
LINE
  5
9A
330
1F
100
AcDbEntity
  8
0
  6
Continuous
 62
     7
370
    25
100
AcDbLine
 10
743.7375621824
 20
420.9114541449
 30
0.0
 11
743.9875621825
 21
421.1614541449
 31
0.0
  0
LINE
  5
9B
330
1F
100
AcDbEntity
  8
0
  6
Continuous
 62
     7
370
    25
100
AcDbLine
 10
743.5375621824
 20
419.9114541449
 30
0.0
 11
743.5375621824
 21
420.9114541449
 31
0.0
  0
LINE
  5
9C
330
1F
100
AcDbEntity
  8
0
  6
Continuous
 62
     7
370
    25
100
AcDbLine
 10
721.0375621824
 20
420.9114541449
 30
0.0
 11
721.0375621824
 21
419.9114541449
 31
0.0
  0
LINE
  5
9D
330
1F
100
AcDbEntity
  8
0
  6
Continuous
 62
     7
370
    25
100
AcDbLine
 10
741.4875621824
 20
419.1114541449
 30
0.0
 11
741.4875621824
 21
420.7114541449
 31
0.0
  0
LINE
  5
9E
330
1F
100
AcDbEntity
  8
0
  6
Continuous
 62
     7
370
    25
100
AcDbLine
 10
723.0875621824
 20
420.7114541449
 30
0.0
 11
723.0875621824
 21
419.1114541449
 31
0.0
  0
LINE
  5
9F
330
1F
100
AcDbEntity
  8
0
  6
Continuous
 62
     7
370
    25
100
AcDbLine
 10
724.3219953787
 20
418.116546288
 30
0.0
 11
724.3412208767
 21
417.9786198916
 31
0.0
  0
ARC
  5
A0
330
1F
100
AcDbEntity
  8
0
  6
Continuous
 62
     7
370
    25
100
AcDbCircle
 10
732.2875621824
 20
421.7614541449
 30
0.0
 40
8.759999999999934
100
AcDbArc
 50
197.6085071786
 51
204.5932219699
  0
LINE
  5
A1
330
1F
100
AcDbEntity
  8
0
  6
Continuous
 62
     7
370
    25
100
AcDbLine
 10
606.7875621833
 20
378.0114541449
 30
0.0
 11
607.3875621833
 21
377.4114541449
 31
0.0
  0
LINE
  5
A2
330
1F
100
AcDbEntity
  8
0
  6
Continuous
 62
     7
370
    25
100
AcDbLine
 10
627.1875621834
 20
377.4114541449
 30
0.0
 11
627.7875621834
 21
378.0114541449
 31
0.0
  0
LINE
  5
A3
330
1F
100
AcDbEntity
  8
0
  6
Continuous
 62
     7
370
    25
100
AcDbLine
 10
627.7875621834
 20
378.0114541449
 30
0.0
 11
627.7875621834
 21
395.1614541449
 31
0.0
  0
LINE
  5
A4
330
1F
100
AcDbEntity
  8
0
  6
Continuous
 62
     7
370
    25
100
AcDbLine
 10
606.7875621833
 20
395.1614541449
 30
0.0
 11
606.7875621833
 21
378.0114541449
 31
0.0
  0
LINE
  5
A5
330
1F
100
AcDbEntity
  8
0
  6
Continuous
 62
     7
370
    25
100
AcDbLine
 10
608.9671975275
 20
377.4114541449
 30
0.0
 11
608.9671975275
 21
377.4078377745
 31
0.0
  0
LINE
  5
A6
330
1F
100
AcDbEntity
  8
0
  6
Continuous
 62
     7
370
    25
100
AcDbLine
 10
625.6079268391
 20
377.4078377745
 30
0.0
 11
625.6079268391
 21
377.4114541449
 31
0.0
  0
LINE
  5
A7
330
1F
100
AcDbEntity
  8
0
  6
Continuous
 62
     7
370
    25
100
AcDbLine
 10
595.2875621822
 20
432.1614542804
 30
0.0
 11
565.8875621822
 21
432.1614542804
 31
0.0
  0
LINE
  5
A8
330
1F
100
AcDbEntity
  8
0
  6
Continuous
 62
     7
370
    25
100
AcDbLine
 10
565.8875621822
 20
400.1614542804
 30
0.0
 11
595.2875621822
 21
400.1614542804
 31
0.0
  0
LINE
  5
A9
330
1F
100
AcDbEntity
  8
0
  6
Continuous
 62
     7
370
    25
100
AcDbLine
 10
565.6005296932
 20
436.971114855
 30
0.0
 11
565.6005296932
 21
426.2799505617
 31
0.0
  0
LINE
  5
AA
330
1F
100
AcDbEntity
  8
0
  6
Continuous
 62
     7
370
    25
100
AcDbLine
 10
565.6005296932
 20
415.1460704581
 30
0.0
 11
565.6005296932
 21
404.971114855
 31
0.0
  0
LINE
  5
AB
330
1F
100
AcDbEntity
  8
0
  6
Continuous
 62
     7
370
    25
100
AcDbLine
 10
565.6005296932
 20
415.1460704581
 30
0.0
 11
565.8875621822
 21
415.1460704581
 31
0.0
  0
LINE
  5
AC
330
1F
100
AcDbEntity
  8
0
  6
Continuous
 62
     7
370
    25
100
AcDbLine
 10
565.8875621822
 20
426.2799505617
 30
0.0
 11
565.6005296932
 21
426.2799505617
 31
0.0
  0
LINE
  5
AD
330
1F
100
AcDbEntity
  8
0
  6
Continuous
 62
     7
370
    25
100
AcDbLine
 10
595.0005296932
 20
436.971114855
 30
0.0
 11
595.0005296932
 21
432.1614542804
 31
0.0
  0
LINE
  5
AE
330
1F
100
AcDbEntity
  8
0
  6
Continuous
 62
     7
370
    25
100
AcDbLine
 10
565.6005296932
 20
426.2799505617
 30
0.0
 11
565.6005296932
 21
415.1460704581
 31
0.0
  0
LINE
  5
AF
330
1F
100
AcDbEntity
  8
0
  6
Continuous
 62
     7
370
    25
100
AcDbLine
 10
539.3875621825
 20
449.2279993922
 30
0.0
 11
539.3875621824
 21
383.0949091687
 31
0.0
  0
SPLINE
  5
B0
330
1F
100
AcDbEntity
  8
0
  6
Continuous
 62
     7
370
    25
100
AcDbSpline
210
0.0
220
0.0
230
1.0
 70
    24
 71
     3
 72
    20
 73
    16
 74
     0
 42
0.00000001
 43
0.00000001
 40
0.0
 40
0.0
 40
0.0
 40
0.0
 40
0.1249999999999984
 40
0.1249999999999984
 40
0.2499999999999969
 40
0.2499999999999969
 40
0.3749999999999953
 40
0.3749999999999953
 40
0.4999999999999938
 40
0.4999999999999938
 40
0.6249999999999922
 40
0.6249999999999922
 40
0.7499999999999907
 40
0.7499999999999907
 40
1.0
 40
1.0
 40
1.0
 40
1.0
 10
539.3875621824542
 20
449.2279993921549
 30
0.0
 10
539.3875621824542
 20
449.3572326992128
 30
0.0
 10
539.3875621824541
 20
449.4841479509483
 30
0.0
 10
539.3875621824542
 20
449.7335326105306
 30
0.0
 10
539.3875621824542
 20
449.8572038956494
 30
0.0
 10
539.3875621824542
 20
450.0935799277447
 30
0.0
 10
539.3875621824542
 20
450.2056095660857
 30
0.0
 10
539.3875621824542
 20
450.4175337530068
 30
0.0
 10
539.3875621824542
 20
450.5181173799187
 30
0.0
 10
539.3875621824542
 20
450.6988791020916
 30
0.0
 10
539.3875621824542
 20
450.7800366283593
 30
0.0
 10
539.3875621824542
 20
450.9236828843083
 30
0.0
 10
539.3875621824542
 20
450.9855846383826
 30
0.0
 10
539.3875621824541
 20
451.1351056046807
 30
0.0
 10
539.3875621824541
 20
451.1900860596288
 30
0.0
 10
539.3875621824541
 20
451.1943599474022
 30
0.0
  0
SPLINE
  5
B1
330
1F
100
AcDbEntity
  8
0
  6
Continuous
 62
     7
370
    25
100
AcDbSpline
210
0.0
220
0.0
230
1.0
 70
    24
 71
     3
 72
    20
 73
    16
 74
     0
 42
0.00000001
 43
0.00000001
 40
0.0
 40
0.0
 40
0.0
 40
0.0
 40
0.1249999999999992
 40
0.1249999999999992
 40
0.2499999999999984
 40
0.2499999999999984
 40
0.3749999999999977
 40
0.3749999999999977
 40
0.4999999999999969
 40
0.4999999999999969
 40
0.6249999999999961
 40
0.6249999999999961
 40
0.7499999999999953
 40
0.7499999999999953
 40
1.0
 40
1.0
 40
1.0
 40
1.0
 10
539.3875621824479
 20
381.1285486134742
 30
0.0
 10
539.3875621824479
 20
381.1306855550486
 30
0.0
 10
539.3875621824479
 20
381.1451955810936
 30
0.0
 10
539.3875621824479
 20
381.1979462152133
 30
0.0
 10
539.3875621824479
 20
381.2367430939535
 30
0.0
 10
539.3875621824479
 20
381.3369296908027
 30
0.0
 10
539.3875621824479
 20
381.397714538359
 30
0.0
 10
539.3875621824479
 20
381.5403519423039
 30
0.0
 10
539.387562182448
 20
381.6231481840716
 30
0.0
 10
539.387562182448
 20
381.8037895781478
 30
0.0
 10
539.387562182448
 20
381.9020507749019
 30
0.0
 10
539.3875621824482
 20
382.1146454000822
 30
0.0
 10
539.3875621824482
 20
382.2286709061813
 30
0.0
 10
539.3875621824482
 20
382.5806324262084
 30
0.0
 10
539.3875621824482
 20
382.8364422749187
 30
0.0
 10
539.3875621824482
 20
383.0949091687214
 30
0.0
  0
SPLINE
  5
B2
330
1F
100
AcDbEntity
  8
0
  6
Continuous
 62
     7
370
    25
100
AcDbSpline
210
0.0
220
0.0
230
1.0
 70
     8
 71
     3
 72
    12
 73
     8
 74
     0
 42
0.00000001
 43
0.00000001
 40
0.0
 40
0.0
 40
0.0
 40
0.0
 40
0.141597321692326
 40
0.3132710284522192
 40
0.5148842428809568
 40
0.7449274628310694
 40
0.9999999999999999
 40
0.9999999999999999
 40
0.9999999999999999
 40
0.9999999999999999
 10
637.2587309325216
 20
463.0277040624892
 30
0.0
 10
637.292583299041
 20
463.0278120034928
 30
0.0
 10
637.3674785410437
 20
463.0280508130184
 30
0.0
 10
637.4893353535712
 20
463.0310801388971
 30
0.0
 10
637.6278009968062
 20
463.0379349377214
 30
0.0
 10
637.7780235967596
 20
463.0497466589247
 30
0.0
 10
637.8708246727887
 20
463.061522401162
 30
0.0
 10
637.9196192245371
 20
463.0677140541963
 30
0.0
  0
SPLINE
  5
B3
330
1F
100
AcDbEntity
  8
0
  6
Continuous
 62
     7
370
    25
100
AcDbSpline
210
0.0
220
0.0
230
1.0
 70
     8
 71
     3
 72
    13
 73
     9
 74
     0
 42
0.00000001
 43
0.00000001
 40
0.0
 40
0.0
 40
0.0
 40
0.0
 40
0.2602542443796657
 40
0.5014676260673273
 40
0.5987181890443152
 40
0.7608940898986399
 40
0.9877377059453601
 40
1.0
 40
1.0
 40
1.0
 40
1.0
 10
638.2875659075236
 20
463.1990528923754
 30
0.0
 10
638.277474443285
 20
463.3072276947219
 30
0.0
 10
638.2580298320075
 20
463.5156629556427
 30
0.0
 10
638.1377146459716
 20
463.7396924233204
 30
0.0
 10
638.0068473174184
 20
463.9025550982452
 30
0.0
 10
637.8530556731289
 20
464.0330258568956
 30
0.0
 10
637.7083882263531
 20
464.133852479401
 30
0.0
 10
637.6094382286248
 20
464.150733023406
 30
0.0
 10
637.6043636825027
 20
464.151598724276
 30
0.0
  0
SPLINE
  5
B4
330
1F
100
AcDbEntity
  8
0
  6
Continuous
 62
     7
370
    25
100
AcDbSpline
210
0.0
220
0.0
230
1.0
 70
     8
 71
     3
 72
     9
 73
     5
 74
     0
 42
0.00000001
 43
0.00000001
 40
0.0
 40
0.0
 40
0.0
 40
0.0
 40
0.486575901885726
 40
1.0
 40
1.0
 40
1.0
 40
1.0
 10
638.2872936692685
 20
463.1990528899973
 30
0.0
 10
638.2837107952842
 20
463.1874161092035
 30
0.0
 10
638.2763473521488
 20
463.163500455451
 30
0.0
 10
638.2251035806322
 20
463.1411148595423
 30
0.0
 10
638.1987937934573
 20
463.1296215551521
 30
0.0
  0
SPLINE
  5
B5
330
1F
100
AcDbEntity
  8
0
  6
Continuous
 62
     7
370
    25
100
AcDbSpline
210
0.0
220
0.0
230
1.0
 70
     8
 71
     3
 72
    16
 73
    12
 74
     0
 42
0.00000001
 43
0.00000001
 40
0.0
 40
0.0
 40
0.0
 40
0.0
 40
0.1445574718365583
 40
0.2820175999127084
 40
0.4115512442826523
 40
0.5325406035604857
 40
0.644564594128722
 40
0.7473746712858592
 40
0.8408654665617642
 40
0.9250439641834964
 40
1.0
 40
1.0
 40
1.0
 40
1.0
 10
596.6554750049709
 20
463.0676710536446
 30
0.0
 10
596.6826217857501
 20
463.0640798486206
 30
0.0
 10
596.7355825207675
 20
463.0570737561041
 30
0.0
 10
596.820022435679
 20
463.0483900411744
 30
0.0
 10
596.9033550987702
 20
463.0414041620667
 30
0.0
 10
596.9843491792398
 20
463.0361176273544
 30
0.0
 10
597.0614375565441
 20
463.0323412132701
 30
0.0
 10
597.1335729861595
 20
463.0298566276809
 30
0.0
 10
597.1999950697979
 20
463.02842176104
 30
0.0
 10
597.2602340126621
 20
463.0277387765656
 30
0.0
 10
597.2982889821911
 20
463.0276778291939
 30
0.0
 10
597.3162137506082
 20
463.0276491215759
 30
0.0
  0
SPLINE
  5
B6
330
1F
100
AcDbEntity
  8
0
  6
Continuous
 62
     7
370
    25
100
AcDbSpline
210
0.0
220
0.0
230
1.0
 70
     8
 71
     3
 72
     9
 73
     5
 74
     0
 42
0.00000001
 43
0.00000001
 40
0.0
 40
0.0
 40
0.0
 40
0.0
 40
0.4876178119804378
 40
1.0
 40
1.0
 40
1.0
 40
1.0
 10
596.2876239435149
 20
463.1989954909064
 30
0.0
 10
596.2912000959863
 20
463.187357384728
 30
0.0
 10
596.2985340210058
 20
463.1634901143115
 30
0.0
 10
596.3496624313489
 20
463.1411501741596
 30
0.0
 10
596.3758597181106
 20
463.1297035867443
 30
0.0
  0
SPLINE
  5
B7
330
1F
100
AcDbEntity
  8
0
  6
Continuous
 62
     7
370
    25
100
AcDbSpline
210
0.0
220
0.0
230
1.0
 70
     8
 71
     3
 72
    11
 73
     7
 74
     0
 42
0.00000001
 43
0.00000001
 40
0.0
 40
0.0
 40
0.0
 40
0.0
 40
0.2699888521938922
 40
0.5782572107142553
 40
0.8578714398773095
 40
0.9999999999999999
 40
0.9999999999999999
 40
0.9999999999999999
 40
0.9999999999999999
 10
596.2876239369534
 20
463.1989954909063
 30
0.0
 10
596.2984750251236
 20
463.3108029454664
 30
0.0
 10
596.3217156883118
 20
463.5502701171131
 30
0.0
 10
596.5126015527244
 20
463.8601285391748
 30
0.0
 10
596.7452672048072
 20
464.0683259489967
 30
0.0
 10
596.9136263292446
 20
464.1224848101227
 30
0.0
 10
596.9703638492396
 20
464.1407365055761
 30
0.0
  0
LINE
  5
B8
330
1F
100
AcDbEntity
  8
0
  6
Continuous
 62
     7
370
    25
100
AcDbLine
 10
637.2587309678
 20
463.0277040567
 30
0.0
 11
597.3162179605
 21
463.0276489867
 31
0.0
  0
LINE
  5
B9
330
1F
100
AcDbEntity
  8
0
  6
Continuous
 62
     7
370
    25
100
AcDbLine
 10
597.3162362376
 20
396.1897934104
 30
0.0
 11
637.2589276578
 21
396.1898480446
 31
0.0
  0
SPLINE
  5
BA
330
1F
100
AcDbEntity
  8
0
  6
Continuous
 62
     7
370
    25
100
AcDbSpline
210
0.0
220
0.0
230
1.0
 70
     8
 71
     3
 72
    10
 73
     6
 74
     0
 42
0.00000001
 43
0.00000001
 40
0.0
 40
0.0
 40
0.0
 40
0.0
 40
0.5
 40
0.5
 40
1.0
 40
1.0
 40
1.0
 40
1.0
 10
637.9077568968244
 20
396.1898516457565
 30
0.0
 10
637.8115079114177
 20
396.1898505849653
 30
0.0
 10
637.7018853303315
 20
396.1898497295526
 30
0.0
 10
637.4785247484904
 20
396.1898485219178
 30
0.0
 10
637.3651547653187
 20
396.189848167455
 30
0.0
 10
637.2590076711209
 20
396.1898480223934
 30
0.0
  0
SPLINE
  5
BB
330
1F
100
AcDbEntity
  8
0
  6
Continuous
 62
     7
370
    25
100
AcDbSpline
210
0.0
220
0.0
230
1.0
 70
     8
 71
     3
 72
    10
 73
     6
 74
     0
 42
0.00000001
 43
0.00000001
 40
0.0
 40
0.0
 40
0.0
 40
0.0
 40
0.5
 40
0.5
 40
1.0
 40
1.0
 40
1.0
 40
1.0
 10
597.3162350101541
 20
396.1897934343714
 30
0.0
 10
597.2100723872151
 20
396.1897932892955
 30
0.0
 10
597.0966850191472
 20
396.1897933339371
 30
0.0
 10
596.8732945180486
 20
396.189793931325
 30
0.0
 10
596.7636597162359
 20
396.1897944873198
 30
0.0
 10
596.6674057945194
 20
396.1897952852964
 30
0.0
  0
SPLINE
  5
BC
330
1F
100
AcDbEntity
  8
0
  6
Continuous
 62
     7
370
    25
100
AcDbSpline
210
0.0
220
0.0
230
1.0
 70
     8
 71
     3
 72
    10
 73
     6
 74
     0
 42
0.00000001
 43
0.00000001
 40
0.0
 40
0.0
 40
0.0
 40
0.0
 40
0.5
 40
0.5
 40
1.0
 40
1.0
 40
1.0
 40
1.0
 10
638.2875992156967
 20
396.1898616465743
 30
0.0
 10
638.2875992131446
 20
396.1898600275534
 30
0.0
 10
638.2593848482878
 20
396.1898582241989
 30
0.0
 10
638.1314520417005
 20
396.1898547057093
 30
0.0
 10
638.0313418506732
 20
396.1898530078262
 30
0.0
 10
637.9077568968244
 20
396.1898516457565
 30
0.0
  0
LWPOLYLINE
  5
BD
330
1F
100
AcDbEntity
  8
0
  6
Continuous
 62
     7
370
    25
100
AcDbPolyline
 90
        9
 70
   128
 43
0.0
 10
596.2876560876
 20
396.1898042471
 10
596.2939891033
 20
396.189802902
 10
596.3129101658
 20
396.1898015907
 10
596.3441862834
 20
396.1898003295
 10
596.3874323254
 20
396.1897991338
 10
596.4421157651
 20
396.1897980184
 10
596.5075632366
 20
396.189796997
 10
596.5829688272
 20
396.1897960822
 10
596.667404001
 20
396.1897952853
  0
LINE
  5
BE
330
1F
100
AcDbEntity
  8
0
  6
Continuous
 62
     7
370
    25
100
AcDbLine
 10
614.2875794431
 20
464.5475890954
 30
0.0
 11
597.3162297615
 21
464.547507889
 31
0.0
  0
SPLINE
  5
BF
330
1F
100
AcDbEntity
  8
0
  6
Continuous
 62
     7
370
    25
100
AcDbSpline
210
0.0
220
0.0
230
1.0
 70
     8
 71
     3
 72
    14
 73
    10
 74
     0
 42
0.00000001
 43
0.00000001
 40
0.0
 40
0.0
 40
0.0
 40
0.0
 40
0.0000100169582886
 40
0.2427390622762659
 40
0.4988200464078516
 40
0.6173475230125939
 40
0.749407283751765
 40
0.8551520683094331
 40
1.0
 40
1.0
 40
1.0
 40
1.0
 10
597.3162297618263
 20
464.5475078887222
 30
0.0
 10
597.3162243870198
 20
464.5475078887819
 30
0.0
 10
597.1859777142253
 20
464.5475093355627
 30
0.0
 10
596.9157122268952
 20
464.4967054276429
 30
0.0
 10
596.6317353668819
 20
464.311923105141
 30
0.0
 10
596.4573641015965
 20
464.1057562411451
 30
0.0
 10
596.3662857693721
 20
463.9396260280153
 30
0.0
 10
596.301330746989
 20
463.7471743951473
 30
0.0
 10
596.2926443816639
 20
463.6150514333285
 30
0.0
 10
596.287623477345
 20
463.53868154503
 30
0.0
  0
LINE
  5
C0
330
1F
100
AcDbEntity
  8
0
  6
Continuous
 62
     7
370
    25
100
AcDbLine
 10
596.2876239435
 20
463.1989954909
 30
0.0
 11
596.2876161328
 21
463.5386815741
 31
0.0
  0
LINE
  5
C1
330
1F
100
AcDbEntity
  8
0
  6
Continuous
 62
     7
370
    25
100
AcDbLine
 10
637.2588630486
 20
464.5475485153
 30
0.0
 11
620.2875254932
 21
464.5475972952
 31
0.0
  0
LINE
  5
C2
330
1F
100
AcDbEntity
  8
0
  6
Continuous
 62
     7
370
    25
100
AcDbLine
 10
638.2874843994
 20
463.5387903704
 30
0.0
 11
638.2874751571
 21
463.1990528901
 31
0.0
  0
SPLINE
  5
C3
330
1F
100
AcDbEntity
  8
0
  6
Continuous
 62
     7
370
    25
100
AcDbSpline
210
0.0
220
0.0
230
1.0
 70
     8
 71
     3
 72
    21
 73
    17
 74
     0
 42
0.00000001
 43
0.00000001
 40
0.0
 40
0.0
 40
0.0
 40
0.0
 40
0.0644497833867345
 40
0.1256967720411111
 40
0.1837405986536395
 40
0.2385809195807004
 40
0.2902174157011161
 40
0.338649793555238
 40
0.3838777868869079
 40
0.425901158772493
 40
0.4647197046282119
 40
0.5003332565698965
 40
0.6304254561319863
 40
0.7570652966286617
 40
0.8802557131095257
 40
1.0
 40
1.0
 40
1.0
 40
1.0
 10
638.2875654367422
 20
463.5387903821072
 30
0.0
 10
638.2865585450558
 20
463.572808997559
 30
0.0
 10
638.2845947985833
 20
463.639155693031
 30
0.0
 10
638.2693265845803
 20
463.7351762603566
 30
0.0
 10
638.2469107149225
 20
463.8244854810515
 30
0.0
 10
638.2180430684083
 20
463.9066731168417
 30
0.0
 10
638.1844143337388
 20
463.9815547732334
 30
0.0
 10
638.1473449730187
 20
464.0491351422997
 30
0.0
 10
638.1081010395552
 20
464.1095725590543
 30
0.0
 10
638.0678091698925
 20
464.1631417985249
 30
0.0
 10
638.0274632048028
 20
464.2102133658096
 30
0.0
 10
637.9518410228617
 20
464.2886553730783
 30
0.0
 10
637.8288745713282
 20
464.3870010018119
 30
0.0
 10
637.6464696194358
 20
464.4798319173992
 30
0.0
 10
637.4543643195777
 20
464.5371408212762
 30
0.0
 10
637.3234109270977
 20
464.5441376807375
 30
0.0
 10
637.2588630449682
 20
464.5475864837906
 30
0.0
  0
LINE
  5
C4
330
1F
100
AcDbEntity
  8
0
  6
Continuous
 62
     7
370
    25
100
AcDbLine
 10
620.2875254932
 20
464.5475907573
 30
0.0
 11
614.2875794431
 21
464.5475825574
 31
0.0
  0
LINE
  5
C5
330
1F
100
AcDbEntity
  8
0
  6
Continuous
 62
     7
370
    25
100
AcDbLine
 10
638.2874082055
 20
436.1626994701
 30
0.0
 11
638.2874843994
 21
463.5387903704
 31
0.0
  0
SPLINE
  5
C6
330
1F
100
AcDbEntity
  8
0
  6
Continuous
 62
     7
370
    25
100
AcDbSpline
210
0.0
220
0.0
230
1.0
 70
     8
 71
     3
 72
     8
 73
     4
 74
     0
 42
0.00000001
 43
0.00000001
 40
0.0
 40
0.0
 40
0.0
 40
0.0
 40
1.0
 40
1.0
 40
1.0
 40
1.0
 10
638.2872923660793
 20
436.1626995135283
 30
0.0
 10
638.2875432828815
 20
436.1526982513871
 30
0.0
 10
638.2876388656001
 20
436.1426893742134
 30
0.0
 10
638.2875772439885
 20
436.1326766517525
 30
0.0
  0
LINE
  5
C7
330
1F
100
AcDbEntity
  8
0
  6
Continuous
 62
     7
370
    25
100
AcDbLine
 10
638.2874939789
 20
436.1329309721
 30
0.0
 11
638.2874081185
 21
436.1326753027
 31
0.0
  0
LINE
  5
C8
330
1F
100
AcDbEntity
  8
0
  6
Continuous
 62
     7
370
    25
100
AcDbLine
 10
638.2874116979
 20
413.1614972868
 30
0.0
 11
638.2874939789
 21
436.1329309721
 31
0.0
  0
LINE
  5
C9
330
1F
100
AcDbEntity
  8
0
  6
Continuous
 62
     7
370
    25
100
AcDbLine
 10
638.2873193374
 20
396.1898467363
 30
0.0
 11
638.2874116979
 21
413.1614972868
 31
0.0
  0
LINE
  5
CA
330
1F
100
AcDbEntity
  8
0
  6
Continuous
 62
     7
370
    25
100
AcDbLine
 10
638.2872777256
 20
396.1898613151
 30
0.0
 11
638.2872830913
 21
396.1898606325
 31
0.0
  0
LINE
  5
CB
330
1F
100
AcDbEntity
  8
0
  6
Continuous
 62
     7
370
    25
100
AcDbLine
 10
596.2876161328
 20
463.5386815741
 30
0.0
 11
596.2876961692
 21
436.1812689143
 31
0.0
  0
LINE
  5
CC
330
1F
100
AcDbEntity
  8
0
  6
Continuous
 62
     7
370
    25
100
AcDbLine
 10
596.2878289661
 20
396.1898039152
 30
0.0
 11
596.2878245598
 21
396.1898032334
 31
0.0
  0
LINE
  5
CD
330
1F
100
AcDbEntity
  8
0
  6
Continuous
 62
     7
370
    25
100
AcDbLine
 10
596.2877080445
 20
413.1614383978
 30
0.0
 11
596.2877947761
 21
396.1898464379
 31
0.0
  0
LINE
  5
CE
330
1F
100
AcDbEntity
  8
0
  6
Continuous
 62
     7
370
    25
100
AcDbLine
 10
596.2876257633
 20
436.1328733895
 30
0.0
 11
596.2877080445
 21
413.1614383978
 31
0.0
  0
LINE
  5
CF
330
1F
100
AcDbEntity
  8
0
  6
Continuous
 62
     7
370
    25
100
AcDbLine
 10
620.2875756863
 20
395.1612455188
 30
0.0
 11
637.258959728
 21
395.1612687257
 31
0.0
  0
LINE
  5
D0
330
1F
100
AcDbEntity
  8
0
  6
Continuous
 62
     7
370
    25
100
AcDbLine
 10
614.2876296362
 20
395.1612373143
 30
0.0
 11
620.2875663668
 21
395.1612455187
 31
0.0
  0
LINE
  5
D1
330
1F
100
AcDbEntity
  8
0
  6
Continuous
 62
     7
370
    25
100
AcDbLine
 10
597.3162476449
 20
395.1612141074
 30
0.0
 11
614.2876203168
 21
395.1612373143
 31
0.0
  0
LWPOLYLINE
  5
D2
330
1F
100
AcDbEntity
  8
0
  6
Continuous
 62
     7
370
    25
100
AcDbPolyline
 90
       12
 70
   128
 43
0.0
 10
613.2878188527
 20
394.9113104854
 10
613.4413851864
 20
394.9112976558
 10
613.9358245675
 20
394.9112854432
 10
614.7281033509
 20
394.9112759414
 10
615.7478240897
 20
394.9112699947
 10
616.9043801214
 20
394.9112681315
 10
618.095006367
 20
394.9112705174
 10
619.2139104597
 20
394.9112769403
 10
620.1616728606
 20
394.9112868296
 10
620.8540807212
 20
394.9112993066
 10
621.2296105645
 20
394.9113132625
 10
621.2878188527
 20
394.9113214186
  0
LWPOLYLINE
  5
D3
330
1F
100
AcDbEntity
  8
0
  6
Continuous
 62
     7
370
    25
100
AcDbPolyline
 90
        6
 70
   128
 43
0.0
 10
617.4903785315
 20
394.3107240047
 10
618.6473095248
 20
394.3107285247
 10
619.6711641794
 20
394.3107369657
 10
620.4617204679
 20
394.3107485017
 10
620.9415932329
 20
394.3107620032
 10
621.0692383065
 20
394.3107737498
  0
LWPOLYLINE
  5
D4
330
1F
100
AcDbEntity
  8
0
  6
Continuous
 62
     7
370
    25
100
AcDbPolyline
 90
        7
 70
   128
 43
0.0
 10
613.5064010404
 20
394.310763414
 10
613.5118301624
 20
394.3107610155
 10
613.759234373
 20
394.3107476106
 10
614.3520410979
 20
394.3107362586
 10
615.2322222846
 20
394.3107280706
 10
616.3136196658
 20
394.3107238482
 10
617.4903785315
 20
394.3107240047
  0
LINE
  5
D5
330
1F
100
AcDbEntity
  8
0
  6
Continuous
 62
     7
370
    25
100
AcDbLine
 10
637.5378184582
 20
395.1999773666
 30
0.0
 11
637.5378184583
 21
395.1999257499
 31
0.0
  0
LINE
  5
D6
330
1F
100
AcDbEntity
  8
0
  6
Continuous
 62
     7
370
    25
100
AcDbLine
 10
637.2590068829
 20
395.1613877083
 30
0.0
 11
637.2590068829
 21
395.1613862626
 31
0.0
  0
LINE
  5
D7
330
1F
100
AcDbEntity
  8
0
  6
Continuous
 62
     7
370
    25
100
AcDbLine
 10
637.5378185109
 20
395.1613878174
 30
0.0
 11
637.5378184583
 21
395.1999257499
 31
0.0
  0
LINE
  5
D8
330
1F
100
AcDbEntity
  8
0
  6
Continuous
 62
     7
370
    25
100
AcDbLine
 10
637.2590068829
 20
395.1613877083
 30
0.0
 11
637.5378185109
 21
395.1613878174
 31
0.0
  0
LINE
  5
D9
330
1F
100
AcDbEntity
  8
0
  6
Continuous
 62
     7
370
    25
100
AcDbLine
 10
597.037818511
 20
395.1613324679
 30
0.0
 11
597.0378184585
 21
395.1997556647
 31
0.0
  0
LINE
  5
DA
330
1F
100
AcDbEntity
  8
0
  6
Continuous
 62
     7
370
    25
100
AcDbLine
 10
638.2875621824
 20
436.1614541449
 30
0.0
 11
638.2875621824
 21
396.1614541449
 31
0.0
  0
LINE
  5
DB
330
1F
100
AcDbEntity
  8
0
  6
Continuous
 62
     7
370
    25
100
AcDbLine
 10
596.2875621824
 20
396.1614541449
 30
0.0
 11
596.2875621824
 21
436.1614541449
 31
0.0
  0
SPLINE
  5
DC
330
1F
100
AcDbEntity
  8
0
  6
Continuous
 62
     7
370
    25
100
AcDbSpline
210
0.0
220
0.0
230
1.0
 70
    27
 71
     3
 72
    40
 73
    36
 74
     0
 42
0.00000001
 43
0.00000001
 40
23.54205220847695
 40
23.54205220847695
 40
23.54205220847695
 40
23.54205220847695
 40
23.95668284754973
 40
23.95668284754973
 40
27.37906611148541
 40
27.37906611148541
 40
30.80144937542108
 40
30.80144937542108
 40
32.51264100738892
 40
32.51264100738892
 40
33.36823682337284
 40
33.36823682337284
 40
34.22383263935676
 40
34.22383263935676
 40
37.64621590329244
 40
37.64621590329244
 40
41.06859916722811
 40
41.06859916722811
 40
54.75813222297081
 40
54.75813222297081
 40
68.44766527871352
 40
68.44766527871352
 40
75.29243180658487
 40
75.29243180658487
 40
76.14802762256879
 40
76.14802762256879
 40
77.00362343855271
 40
77.00362343855271
 40
78.71481507052054
 40
78.71481507052054
 40
82.13719833445623
 40
82.13719833445623
 40
85.5595815983919
 40
85.5595815983919
 40
85.97429304453136
 40
85.97429304453136
 40
85.97429304453136
 40
85.97429304453136
 10
658.2875621824469
 20
421.1614837827893
 30
0.0
 10
658.2875621824467
 20
421.1609832429364
 30
0.0
 10
658.2875621824464
 20
421.1623344907937
 30
0.0
 10
658.2875621824464
 20
421.1608740536066
 30
0.0
 10
658.2875621824478
 20
421.1616399455331
 30
0.0
 10
658.2875621824464
 20
421.1614004465612
 30
0.0
 10
658.2875621824469
 20
421.1614728010362
 30
0.0
 10
658.2875621824473
 20
421.1614508663704
 30
0.0
 10
658.2875621824455
 20
421.1614552832256
 30
0.0
 10
658.2875621824473
 20
421.161453946462
 30
0.0
 10
658.2875621824464
 20
421.1614542082793
 30
0.0
 10
658.2875621824473
 20
421.161454126991
 30
0.0
 10
658.2875621824464
 20
421.1614541496828
 30
0.0
 10
658.2875621824464
 20
421.1614541421936
 30
0.0
 10
658.2875621824473
 20
421.1614541457139
 30
0.0
 10
658.2875621824464
 20
421.1614541446214
 30
0.0
 10
658.2875621824473
 20
421.1614541449249
 30
0.0
 10
658.2875621824464
 20
421.1614541448379
 30
0.0
 10
658.2875621824469
 20
421.161454144839
 30
0.0
 10
658.2875621824464
 20
421.1614541449741
 30
0.0
 10
658.2875621824469
 20
421.1614541444999
 30
0.0
 10
658.2875621824464
 20
421.1614541457196
 30
0.0
 10
658.2875621824473
 20
421.1614541419248
 30
0.0
 10
658.2875621824464
 20
421.161454149396
 30
0.0
 10
658.2875621824473
 20
421.1614541270415
 30
0.0
 10
658.2875621824469
 20
421.1614542084122
 30
0.0
 10
658.2875621824469
 20
421.1614539459693
 30
0.0
 10
658.2875621824469
 20
421.1614552860947
 30
0.0
 10
658.2875621824473
 20
421.1614508580988
 30
0.0
 10
658.2875621824469
 20
421.1614728481114
 30
0.0
 10
658.2875621824464
 20
421.1614003110631
 30
0.0
 10
658.2875621824473
 20
421.1616404143685
 30
0.0
 10
658.2875621824469
 20
421.1608725898479
 30
0.0
 10
658.2875621824465
 20
421.1623367430269
 30
0.0
 10
658.2875621824467
 20
421.1609822632893
 30
0.0
 10
658.2875621824469
 20
421.1614831475835
 30
0.0
  0
SPLINE
  5
DD
330
1F
100
AcDbEntity
  8
0
  6
Continuous
 62
     7
370
    25
100
AcDbSpline
210
0.0
220
0.0
230
1.0
 70
    24
 71
     3
 72
    16
 73
    12
 74
     0
 42
0.00000001
 43
0.00000001
 40
0.0
 40
0.0
 40
0.0
 40
0.0
 40
0.0540200734346586
 40
0.0898342022818456
 40
0.1269200388817645
 40
0.2183810037373069
 40
0.3190434779263122
 40
0.4178223028807196
 40
0.6023108210814487
 40
0.806591696609748
 40
1.0
 40
1.0
 40
1.0
 40
1.0
 10
638.2874109852359
 20
437.1614541448613
 30
0.0
 10
638.5219256007689
 20
437.1614541448613
 30
0.0
 10
638.9119182844207
 20
437.1614541448613
 30
0.0
 10
639.6551123021919
 20
437.1614541448613
 30
0.0
 10
640.6653019819356
 20
437.1614541448613
 30
0.0
 10
642.1963752228348
 20
437.1614541448613
 30
0.0
 10
644.1823479631062
 20
437.1614541448613
 30
0.0
 10
646.8244974807145
 20
437.1614541448613
 30
0.0
 10
650.1900493338101
 20
437.1614541448613
 30
0.0
 10
654.2078023228648
 20
437.1614541448613
 30
0.0
 10
656.9526564244333
 20
437.1614541448613
 30
0.0
 10
658.2875621824469
 20
437.1614541448613
 30
0.0
  0
LINE
  5
DE
330
1F
100
AcDbEntity
  8
0
  6
Continuous
 62
     7
370
    25
100
AcDbLine
 10
658.2875621824
 20
437.1614541449
 30
0.0
 11
757.5748119824
 21
437.1614541449
 31
0.0
  0
LINE
  5
DF
330
1F
100
AcDbEntity
  8
0
  6
Continuous
 62
     7
370
    25
100
AcDbLine
 10
658.2875621824
 20
421.1614541449
 30
0.0
 11
757.5748119824
 21
421.1614541449
 31
0.0
  0
ARC
  5
E0
330
1F
100
AcDbEntity
  8
0
  6
Continuous
 62
     7
370
    25
100
AcDbCircle
 10
757.5748119824
 20
436.1614541449
 30
0.0
 40
0.9999999999997726
100
AcDbArc
 50
360.0
 51
90.0
  0
LINE
  5
E1
330
1F
100
AcDbEntity
  8
0
  6
Continuous
 62
     7
370
    25
100
AcDbLine
 10
758.5748119824
 20
436.1614541449
 30
0.0
 11
758.5748119824
 21
426.1614541448
 31
0.0
  0
SPLINE
  5
E2
330
1F
100
AcDbEntity
  8
0
  6
Continuous
 62
     7
370
    25
100
AcDbSpline
210
0.0
220
0.0
230
1.0
 70
    24
 71
     3
 72
    23
 73
    19
 74
     0
 42
0.00000001
 43
0.00000001
 40
0.0
 40
0.0
 40
0.0
 40
0.0
 40
0.0290253459889045
 40
0.0581022520770588
 40
0.0872922502666902
 40
0.1166561616159914
 40
0.17851308103115
 40
0.2401006064757512
 40
0.3040841625075129
 40
0.3688185789791437
 40
0.5000150834623983
 40
0.6312115879453376
 40
0.6958615305825055
 40
0.7599295673748113
 40
0.8214321163015126
 40
0.8833740070477096
 40
0.9418703699175133
 40
1.0
 40
1.0
 40
1.0
 40
1.0
 10
758.5748119823577
 20
426.1614541448109
 30
0.0
 10
758.5748119823577
 20
426.1007067753773
 30
0.0
 10
758.5748119823577
 20
425.9791041259825
 30
0.0
 10
758.5748119823577
 20
425.7968003086201
 30
0.0
 10
758.5748119823577
 20
425.6145621103885
 30
0.0
 10
758.5748119823577
 20
425.3657497238964
 30
0.0
 10
758.5748119823578
 20
425.0538949745062
 30
0.0
 10
758.5748119823577
 20
424.6819952481688
 30
0.0
 10
758.5748119823577
 20
424.3190388627659
 30
0.0
 10
758.5748119823577
 20
423.8491276444001
 30
0.0
 10
758.5748119823577
 20
423.3122236253416
 30
0.0
 10
758.5748119823577
 20
422.8791744462117
 30
0.0
 10
758.5748119823577
 20
422.6037973491447
 30
0.0
 10
758.5748119823577
 20
422.438172853103
 30
0.0
 10
758.5748119823577
 20
422.3113999737728
 30
0.0
 10
758.5748119823577
 20
422.2248171786563
 30
0.0
 10
758.5748119823578
 20
422.1712324878372
 30
0.0
 10
758.5748119823577
 20
422.1647067479432
 30
0.0
 10
758.5748119823577
 20
422.1614541381566
 30
0.0
  0
ARC
  5
E3
330
1F
100
AcDbEntity
  8
0
  6
Continuous
 62
     7
370
    25
100
AcDbCircle
 10
757.5748119824
 20
422.1614541449
 30
0.0
 40
0.9999999999998863
100
AcDbArc
 50
270.0
 51
0.0
  0
LINE
  5
E4
330
1F
100
AcDbEntity
  8
0
  6
Continuous
 62
     7
370
    25
100
AcDbLine
 10
743.7375621824
 20
420.9114541449
 30
0.0
 11
720.8375621824
 21
420.9114541449
 31
0.0
  0
LINE
  5
E5
330
1F
100
AcDbEntity
  8
0
  6
Continuous
 62
     7
370
    25
100
AcDbLine
 10
743.5375621824
 20
419.9114541449
 30
0.0
 11
743.4173408004
 21
419.9114541449
 31
0.0
  0
LINE
  5
E6
330
1F
100
AcDbEntity
  8
0
  6
Continuous
 62
     7
370
    25
100
AcDbLine
 10
743.4173408004
 20
419.9114541449
 30
0.0
 11
743.4173408004
 21
420.7114541449
 31
0.0
  0
LINE
  5
E7
330
1F
100
AcDbEntity
  8
0
  6
Continuous
 62
     7
370
    25
100
AcDbLine
 10
741.2320199401
 20
420.7114541449
 30
0.0
 11
741.2320199401
 21
419.9114541449
 31
0.0
  0
LINE
  5
E8
330
1F
100
AcDbEntity
  8
0
  6
Continuous
 62
     7
370
    25
100
AcDbLine
 10
741.2320199401
 20
419.9114541449
 30
0.0
 11
736.4319248509
 21
419.9114541449
 31
0.0
  0
LINE
  5
E9
330
1F
100
AcDbEntity
  8
0
  6
Continuous
 62
     7
370
    25
100
AcDbLine
 10
736.4319248509
 20
419.9114541449
 30
0.0
 11
736.4319248509
 21
420.7114541449
 31
0.0
  0
LINE
  5
EA
330
1F
100
AcDbEntity
  8
0
  6
Continuous
 62
     7
370
    25
100
AcDbLine
 10
730.8505287075
 20
420.7114541449
 30
0.0
 11
730.8505287075
 21
419.9114541449
 31
0.0
  0
LINE
  5
EB
330
1F
100
AcDbEntity
  8
0
  6
Continuous
 62
     7
370
    25
100
AcDbLine
 10
730.8505287075
 20
419.9114541449
 30
0.0
 11
728.7126444137
 21
419.9114541449
 31
0.0
  0
LINE
  5
EC
330
1F
100
AcDbEntity
  8
0
  6
Continuous
 62
     7
370
    25
100
AcDbLine
 10
728.7126444137
 20
419.9114541449
 30
0.0
 11
728.7126444137
 21
420.2114541449
 31
0.0
  0
LINE
  5
ED
330
1F
100
AcDbEntity
  8
0
  6
Continuous
 62
     7
370
    25
100
AcDbLine
 10
727.1461826491
 20
420.2114541449
 30
0.0
 11
728.7126444137
 21
420.2114541449
 31
0.0
  0
LINE
  5
EE
330
1F
100
AcDbEntity
  8
0
  6
Continuous
 62
     7
370
    25
100
AcDbLine
 10
727.1461826491
 20
420.2114541449
 30
0.0
 11
727.1461826491
 21
419.9114541449
 31
0.0
  0
LINE
  5
EF
330
1F
100
AcDbEntity
  8
0
  6
Continuous
 62
     7
370
    25
100
AcDbLine
 10
727.1461826491
 20
419.9114541449
 30
0.0
 11
725.3021462329
 21
419.9114541449
 31
0.0
  0
LINE
  5
F0
330
1F
100
AcDbEntity
  8
0
  6
Continuous
 62
     7
370
    25
100
AcDbLine
 10
725.3021462329
 20
419.9114541449
 30
0.0
 11
725.3021462329
 21
420.7114541449
 31
0.0
  0
LINE
  5
F1
330
1F
100
AcDbEntity
  8
0
  6
Continuous
 62
     7
370
    25
100
AcDbLine
 10
721.9060709498
 20
420.7114541449
 30
0.0
 11
721.9060709498
 21
419.9114541449
 31
0.0
  0
LINE
  5
F2
330
1F
100
AcDbEntity
  8
0
  6
Continuous
 62
     7
370
    25
100
AcDbLine
 10
721.9060709498
 20
419.9114541449
 30
0.0
 11
721.0375621824
 21
419.9114541449
 31
0.0
  0
LINE
  5
F3
330
1F
100
AcDbEntity
  8
0
  6
Continuous
 62
     7
370
    25
100
AcDbLine
 10
721.9060709498
 20
420.7114541449
 30
0.0
 11
725.3021462329
 21
420.7114541449
 31
0.0
  0
LINE
  5
F4
330
1F
100
AcDbEntity
  8
0
  6
Continuous
 62
     7
370
    25
100
AcDbLine
 10
730.8505287075
 20
420.7114541449
 30
0.0
 11
736.4319248509
 21
420.7114541449
 31
0.0
  0
LINE
  5
F5
330
1F
100
AcDbEntity
  8
0
  6
Continuous
 62
     7
370
    25
100
AcDbLine
 10
741.2320199401
 20
420.7114541449
 30
0.0
 11
743.4173408004
 21
420.7114541449
 31
0.0
  0
LINE
  5
F6
330
1F
100
AcDbEntity
  8
0
  6
Continuous
 62
     7
370
    25
100
AcDbLine
 10
731.0101990936
 20
420.7114541449
 30
0.0
 11
731.0101990936
 21
419.9114541449
 31
0.0
  0
LINE
  5
F7
330
1F
100
AcDbEntity
  8
0
  6
Continuous
 62
     7
370
    25
100
AcDbLine
 10
730.8505287075
 20
419.9114541449
 30
0.0
 11
731.0101990936
 21
419.9114541449
 31
0.0
  0
LINE
  5
F8
330
1F
100
AcDbEntity
  8
0
  6
Continuous
 62
     7
370
    25
100
AcDbLine
 10
735.9714401099
 20
420.7114541449
 30
0.0
 11
735.9714401099
 21
419.9114541449
 31
0.0
  0
LINE
  5
F9
330
1F
100
AcDbEntity
  8
0
  6
Continuous
 62
     7
370
    25
100
AcDbLine
 10
735.9714401099
 20
419.9114541449
 30
0.0
 11
736.4319248509
 21
419.9114541449
 31
0.0
  0
LINE
  5
FA
330
1F
100
AcDbEntity
  8
0
  6
Continuous
 62
     7
370
    25
100
AcDbLine
 10
727.6333764956
 20
419.9114541449
 30
0.0
 11
727.6333764956
 21
420.2114541449
 31
0.0
  0
LINE
  5
FB
330
1F
100
AcDbEntity
  8
0
  6
Continuous
 62
     7
370
    25
100
AcDbLine
 10
727.1461826491
 20
419.9114541449
 30
0.0
 11
727.6333764956
 21
419.9114541449
 31
0.0
  0
LINE
  5
FC
330
1F
100
AcDbEntity
  8
0
  6
Continuous
 62
     7
370
    25
100
AcDbLine
 10
741.4875621824
 20
419.1114541449
 30
0.0
 11
723.0875621824
 21
419.1114541449
 31
0.0
  0
LWPOLYLINE
  5
FD
330
1F
100
AcDbEntity
  8
0
  6
Continuous
 62
     7
370
    25
100
AcDbPolyline
 90
       16
 70
   128
 43
0.0
 10
731.3995858479
 20
419.1114541449
 10
729.7414713766
 20
418.8725825029
 10
728.2070796931
 20
418.6449560524
 10
726.8616055607
 20
418.4382464128
 10
725.7622168254
 20
418.2612364694
 10
724.9556254117
 20
418.121447197
 10
724.4761025796
 20
418.0248181016
 10
724.344022773
 20
417.9754548565
 10
724.5649979305
 20
417.9754548565
 10
725.1296390394
 20
418.0248181016
 10
726.0139550653
 20
418.121447197
 10
727.1803723075
 20
418.2612364694
 10
728.5793308676
 20
418.4382464128
 10
730.1513903999
 20
418.6449560524
 10
731.8297556719
 20
418.8725825029
 10
733.543114627
 20
419.1114541449
  0
ARC
  5
FE
330
1F
100
AcDbEntity
  8
0
  6
Continuous
 62
     7
370
    25
100
AcDbCircle
 10
739.8335222077
 20
342.2538227725
 30
0.0
 40
77.43229483719524
100
AcDbArc
 50
96.9847733408
 51
101.5558910472
  0
LINE
  5
FF
330
1F
100
AcDbEntity
  8
0
  6
Continuous
 62
     7
370
    25
100
AcDbLine
 10
723.0595699757
 20
420.7114541449
 30
0.0
 11
723.0595699757
 21
419.9114541449
 31
0.0
  0
LINE
  5
100
330
1F
100
AcDbEntity
  8
0
  6
Continuous
 62
     7
370
    25
100
AcDbLine
 10
721.9060709498
 20
419.9114541449
 30
0.0
 11
723.0595699757
 21
419.9114541449
 31
0.0
  0
LINE
  5
101
330
1F
100
AcDbEntity
  8
0
  6
Continuous
 62
     7
370
    25
100
AcDbLine
 10
742.1806987317
 20
420.7114541449
 30
0.0
 11
742.1806987317
 21
419.9114541449
 31
0.0
  0
LINE
  5
102
330
1F
100
AcDbEntity
  8
0
  6
Continuous
 62
     7
370
    25
100
AcDbLine
 10
742.1806987317
 20
419.9114541449
 30
0.0
 11
743.4173408004
 21
419.9114541449
 31
0.0
  0
LINE
  5
103
330
1F
100
AcDbEntity
  8
0
  6
Continuous
 62
     7
370
    25
100
AcDbLine
 10
742.0685031607
 20
420.2114541449
 30
0.0
 11
742.1806987317
 21
420.2114541449
 31
0.0
  0
LINE
  5
104
330
1F
100
AcDbEntity
  8
0
  6
Continuous
 62
     7
370
    25
100
AcDbLine
 10
742.0685031607
 20
420.2114541449
 30
0.0
 11
742.0685031607
 21
419.9114541449
 31
0.0
  0
LINE
  5
105
330
1F
100
AcDbEntity
  8
0
  6
Continuous
 62
     7
370
    25
100
AcDbLine
 10
741.5155543892
 20
419.9114541449
 30
0.0
 11
742.0685031607
 21
419.9114541449
 31
0.0
  0
LINE
  5
106
330
1F
100
AcDbEntity
  8
0
  6
Continuous
 62
     7
370
    25
100
AcDbLine
 10
741.5155543892
 20
420.7114541449
 30
0.0
 11
741.5155543892
 21
419.9114541449
 31
0.0
  0
LINE
  5
107
330
1F
100
AcDbEntity
  8
0
  6
Continuous
 62
     7
370
    25
100
AcDbLine
 10
742.0685031607
 20
419.9114541449
 30
0.0
 11
742.1806987317
 21
419.9114541449
 31
0.0
  0
LINE
  5
108
330
1F
100
AcDbEntity
  8
0
  6
Continuous
 62
     7
370
    25
100
AcDbLine
 10
627.1875621834
 20
377.4114541449
 30
0.0
 11
607.3875621833
 21
377.4114541449
 31
0.0
  0
LINE
  5
109
330
1F
100
AcDbEntity
  8
0
  6
Continuous
 62
     7
370
    25
100
AcDbLine
 10
606.7875621833
 20
378.0114541449
 30
0.0
 11
627.7875621834
 21
378.0114541449
 31
0.0
  0
LINE
  5
10A
330
1F
100
AcDbEntity
  8
0
  6
Continuous
 62
     7
370
    25
100
AcDbLine
 10
610.4360646858
 20
377.4078377745
 30
0.0
 11
625.6079268391
 21
377.4078377745
 31
0.0
  0
LINE
  5
10B
330
1F
100
AcDbEntity
  8
0
  6
Continuous
 62
     7
370
    25
100
AcDbLine
 10
608.9671975275
 20
377.4078377745
 30
0.0
 11
610.4360646858
 21
377.4078377745
 31
0.0
  0
LINE
  5
10C
330
1F
100
AcDbEntity
  8
0
  6
Continuous
 62
     7
370
    25
100
AcDbLine
 10
595.2875621822
 20
432.1614542804
 30
0.0
 11
595.2875621822
 21
400.1614542804
 31
0.0
  0
LINE
  5
10D
330
1F
100
AcDbEntity
  8
0
  6
Continuous
 62
     7
370
    25
100
AcDbLine
 10
565.8875621822
 20
432.1614542804
 30
0.0
 11
565.8875621822
 21
421.4702899871
 31
0.0
  0
LINE
  5
10E
330
1F
100
AcDbEntity
  8
0
  6
Continuous
 62
     7
370
    25
100
AcDbLine
 10
565.8875621822
 20
410.3364098835
 30
0.0
 11
565.8875621822
 21
400.1614542804
 31
0.0
  0
LINE
  5
10F
330
1F
100
AcDbEntity
  8
0
  6
Continuous
 62
     7
370
    25
100
AcDbLine
 10
565.8875621822
 20
410.3364098835
 30
0.0
 11
582.8875621822
 21
410.3364098835
 31
0.0
  0
LINE
  5
110
330
1F
100
AcDbEntity
  8
0
  6
Continuous
 62
     7
370
    25
100
AcDbLine
 10
582.8875621822
 20
410.3364098835
 30
0.0
 11
582.8875621822
 21
421.4702899871
 31
0.0
  0
LINE
  5
111
330
1F
100
AcDbEntity
  8
0
  6
Continuous
 62
     7
370
    25
100
AcDbLine
 10
582.8875621822
 20
421.4702899871
 30
0.0
 11
565.8875621822
 21
421.4702899871
 31
0.0
  0
LINE
  5
112
330
1F
100
AcDbEntity
  8
0
  6
Continuous
 62
     7
370
    25
100
AcDbLine
 10
565.8875621822
 20
421.4702899871
 30
0.0
 11
565.8875621822
 21
410.3364098835
 31
0.0
  0
LWPOLYLINE
  5
113
330
1F
100
AcDbEntity
  8
0
  6
Continuous
 62
     8
370
    18
100
AcDbPolyline
 90
        3
 70
   128
 43
0.0
 10
539.3875621824
 20
383.0949091687
 10
552.0956342436
 20
383.313377104
 10
562.9803697845
 20
383.5005176617
  0
LWPOLYLINE
  5
114
330
1F
100
AcDbEntity
  8
0
  6
Continuous
 62
     8
370
    18
100
AcDbPolyline
 90
        3
 70
   128
 43
0.0
 10
562.9803697845
 20
448.8223908992
 10
552.0956342436
 20
449.0095314569
 10
539.3875621825
 20
449.2279993922
  0
SPLINE
  5
115
330
1F
100
AcDbEntity
  8
0
  6
Continuous
 62
     8
370
    18
100
AcDbSpline
210
0.0
220
0.0
230
1.0
 70
     8
 71
     3
 72
    10
 73
     6
 74
     0
 42
0.00000001
 43
0.00000001
 40
0.0
 40
0.0
 40
0.0
 40
0.0
 40
0.5
 40
0.5
 40
1.0
 40
1.0
 40
1.0
 40
1.0
 10
562.980369784508
 20
383.5005176616659
 30
0.0
 10
563.1859810696046
 20
394.3857647922804
 30
0.0
 10
563.2671593414726
 20
405.2731230449527
 30
0.0
 10
563.2671578792606
 20
427.0500648574361
 30
0.0
 10
563.1859814852744
 20
437.937121762876
 30
0.0
 10
562.9803697845142
 20
448.8223908992062
 30
0.0
  0
SPLINE
  5
116
330
1F
100
AcDbEntity
  8
0
  6
Continuous
 62
     8
370
    18
100
AcDbSpline
210
0.0
220
0.0
230
1.0
 70
     8
 71
     3
 72
    10
 73
     6
 74
     0
 42
0.00000001
 43
0.00000001
 40
0.0
 40
0.0
 40
0.0
 40
0.0
 40
0.5
 40
0.5
 40
1.0
 40
1.0
 40
1.0
 40
1.0
 10
564.9447269128566
 20
448.8281449422597
 30
0.0
 10
565.1506324749649
 20
437.9409373738245
 30
0.0
 10
565.2319938148383
 20
427.0519474986873
 30
0.0
 10
565.2319952212647
 20
405.2712292403352
 30
0.0
 10
565.1506320090643
 20
394.3819465528798
 30
0.0
 10
564.9447269128507
 20
383.4947636186121
 30
0.0
  0
ARC
  5
117
330
1F
100
AcDbEntity
  8
0
  6
Continuous
 62
     8
370
    18
100
AcDbCircle
 10
564.0560392462
 20
415.4142441981
 30
0.0
 40
31.93184940199797
100
AcDbArc
 50
268.0695454948
 51
271.5947910615
  0
ARC
  5
118
330
1F
100
AcDbEntity
  8
0
  6
Continuous
 62
     8
370
    18
100
AcDbCircle
 10
564.0560392462
 20
416.9086643627
 30
0.0
 40
31.93184940211172
100
AcDbArc
 50
88.4052089385
 51
91.9304545052
  0
LWPOLYLINE
  5
119
330
1F
100
AcDbEntity
  8
0
  6
Continuous
 62
     8
370
    18
100
AcDbPolyline
 90
        3
 70
   128
 43
0.0
 10
539.3875621825
 20
451.1943599474
 10
552.0956342436
 20
450.9761103439
 10
562.9803697845
 20
450.7891568306
  0
ARC
  5
11A
330
1F
100
AcDbEntity
  8
0
  6
Continuous
 62
     8
370
    18
100
AcDbCircle
 10
533.3896272216
 20
449.8057738649
 30
0.0
 40
29.60707833413018
100
AcDbArc
 50
358.096601839
 51
1.903398161
  0
ARC
  5
11B
330
1F
100
AcDbEntity
  8
0
  6
Continuous
 62
     8
370
    18
100
AcDbCircle
 10
533.3896272221
 20
382.517134696
 30
0.0
 40
29.60707833357609
100
AcDbArc
 50
358.096601839
 51
1.903398161
  0
LWPOLYLINE
  5
11C
330
1F
100
AcDbEntity
  8
0
  6
Continuous
 62
     8
370
    18
100
AcDbPolyline
 90
        3
 70
   128
 43
0.0
 10
562.9803697845
 20
381.5337517302
 10
552.0956342436
 20
381.3467982169
 10
539.3875621824
 20
381.1285486135
  0
ARC
  5
11D
330
1F
100
AcDbEntity
  8
0
  6
Continuous
 62
     8
370
    18
100
AcDbCircle
 10
562.9446984156
 20
383.5338439317
 30
0.0
 40
2.000410273100349
100
AcDbArc
 50
271.0217540109
 51
358.8805899039
  0
ARC
  5
11E
330
1F
100
AcDbEntity
  8
0
  6
Continuous
 62
     8
370
    18
100
AcDbCircle
 10
562.9446984156
 20
448.7890646292
 30
0.0
 40
2.000410273100769
100
AcDbArc
 50
1.1194100961
 51
88.9782459891
  0
SPLINE
  5
11F
330
1F
100
AcDbEntity
  8
0
  6
Continuous
 62
     8
370
    18
100
AcDbSpline
210
0.0
220
0.0
230
1.0
 70
     8
 71
     3
 72
     8
 73
     4
 74
     0
 42
0.00000001
 43
0.00000001
 40
0.0
 40
0.0
 40
0.0
 40
0.0
 40
1.0
 40
1.0
 40
1.0
 40
1.0
 10
565.231994517472
 20
449.0834157033386
 30
0.0
 10
565.232002683518
 20
449.0834236920894
 30
0.0
 10
565.1506409770013
 20
448.9997378862166
 30
0.0
 10
564.9447269128565
 20
448.8281449422595
 30
0.0
  0
SPLINE
  5
120
330
1F
100
AcDbEntity
  8
0
  6
Continuous
 62
     8
370
    18
100
AcDbSpline
210
0.0
220
0.0
230
1.0
 70
     8
 71
     3
 72
     8
 73
     4
 74
     0
 42
0.00000001
 43
0.00000001
 40
0.0
 40
0.0
 40
0.0
 40
0.0
 40
1.0
 40
1.0
 40
1.0
 40
1.0
 10
564.9447269128507
 20
383.4947636186121
 30
0.0
 10
565.1506239690116
 20
383.3231848478006
 30
0.0
 10
565.2319867366009
 20
383.2395004694679
 30
0.0
 10
565.2319945175203
 20
383.2394928574805
 30
0.0
  0
SPLINE
  5
121
330
1F
100
AcDbEntity
  8
0
  6
Continuous
 62
     8
370
    18
100
AcDbSpline
210
0.0
220
0.0
230
1.0
 70
     8
 71
     3
 72
     8
 73
     4
 74
     0
 42
0.00000001
 43
0.00000001
 40
0.0
 40
0.0
 40
0.0
 40
0.0
 40
1.0
 40
1.0
 40
1.0
 40
1.0
 10
562.9803697845142
 20
450.7891568306293
 30
0.0
 10
563.1859801904535
 20
450.9633881640213
 30
0.0
 10
563.2671586103701
 20
451.0509078251814
 30
0.0
 10
563.2671586103712
 20
451.0509078251837
 30
0.0
  0
SPLINE
  5
122
330
1F
100
AcDbEntity
  8
0
  6
Continuous
 62
     8
370
    18
100
AcDbSpline
210
0.0
220
0.0
230
1.0
 70
     8
 71
     3
 72
     8
 73
     4
 74
     0
 42
0.00000001
 43
0.00000001
 40
0.0
 40
0.0
 40
0.0
 40
0.0
 40
1.0
 40
1.0
 40
1.0
 40
1.0
 10
563.2671586103654
 20
381.2720007356886
 30
0.0
 10
563.2671586103686
 20
381.2720007356863
 30
0.0
 10
563.1859823644251
 20
381.3595185546527
 30
0.0
 10
562.9803697845077
 20
381.5337517302428
 30
0.0
  0
SPLINE
  5
123
330
1F
100
AcDbEntity
  8
0
  6
Continuous
 62
     8
370
    18
100
AcDbSpline
210
0.0
220
0.0
230
1.0
 70
     8
 71
     3
 72
    14
 73
    10
 74
     0
 42
0.00000001
 43
0.00000001
 40
0.0
 40
0.0
 40
0.0
 40
0.0
 40
0.25
 40
0.25
 40
0.5
 40
0.5
 40
0.75
 40
0.75
 40
1.0
 40
1.0
 40
1.0
 40
1.0
 10
637.2587309325216
 20
463.0277040564577
 30
0.0
 10
637.2587438074289
 20
463.1604655898654
 30
0.0
 10
637.258756676231
 20
463.2976339573842
 30
0.0
 10
637.258782429875
 20
463.5601094650191
 30
0.0
 10
637.2587953148583
 20
463.6853133322312
 30
0.0
 10
637.2588211269581
 20
463.9047817640006
 30
0.0
 10
637.2588340541929
 20
463.9989599771017
 30
0.0
 10
637.2588599704749
 20
464.1420092537609
 30
0.0
 10
637.2588729595992
 20
464.1908240335371
 30
0.0
 10
637.2588859847641
 20
464.2132501165012
 30
0.0
  0
LINE
  5
124
330
1F
100
AcDbEntity
  8
0
  6
Continuous
 62
     8
370
    18
100
AcDbLine
 10
637.6043636825
 20
464.1515987243
 30
0.0
 11
637.2588859848
 21
464.2132501129
 31
0.0
  0
SPLINE
  5
125
330
1F
100
AcDbEntity
  8
0
  6
Continuous
 62
     8
370
    18
100
AcDbSpline
210
0.0
220
0.0
230
1.0
 70
     8
 71
     3
 72
    10
 73
     6
 74
     0
 42
0.00000001
 43
0.00000001
 40
0.0
 40
0.0
 40
0.0
 40
0.0
 40
0.0041188070348692
 40
0.4980920728971711
 40
0.9999999999999999
 40
0.9999999999999999
 40
0.9999999999999999
 40
0.9999999999999999
 10
638.1987937934573
 20
463.1296215551521
 30
0.0
 10
638.1985975746666
 20
463.1295196710884
 30
0.0
 10
638.1748686105768
 20
463.1171987140615
 30
0.0
 10
638.0856021689193
 20
463.0949644585896
 30
0.0
 10
637.9751166274175
 20
463.076870162349
 30
0.0
 10
637.9194337111201
 20
463.0677509312774
 30
0.0
  0
SPLINE
  5
126
330
1F
100
AcDbEntity
  8
0
  6
Continuous
 62
     8
370
    18
100
AcDbSpline
210
0.0
220
0.0
230
1.0
 70
     8
 71
     3
 72
    10
 73
     6
 74
     0
 42
0.00000001
 43
0.00000001
 40
0.0
 40
0.0
 40
0.0
 40
0.0
 40
0.0060655001413745
 40
0.4990745240109072
 40
1.0
 40
1.0
 40
1.0
 40
1.0
 10
596.3758597181106
 20
463.1297035867443
 30
0.0
 10
596.3761489687769
 20
463.1295532235517
 30
0.0
 10
596.3999487602587
 20
463.1171812118459
 30
0.0
 10
596.4893293596831
 20
463.0948976918118
 30
0.0
 10
596.5998485215913
 20
463.0768043371432
 30
0.0
 10
596.6555482319773
 20
463.0676856051737
 30
0.0
  0
SPLINE
  5
127
330
1F
100
AcDbEntity
  8
0
  6
Continuous
 62
     8
370
    18
100
AcDbSpline
210
0.0
220
0.0
230
1.0
 70
     8
 71
     3
 72
     9
 73
     5
 74
     0
 42
0.00000001
 43
0.00000001
 40
0.0
 40
0.0
 40
0.0
 40
0.0
 40
0.4118811846046598
 40
1.0
 40
1.0
 40
1.0
 40
1.0
 10
596.9703638492396
 20
464.1407365055761
 30
0.0
 10
597.0155204997768
 20
464.1603774609508
 30
0.0
 10
597.1251556378339
 20
464.2080634347433
 30
0.0
 10
597.2454605274594
 20
464.2112949909562
 30
0.0
 10
597.3162140966322
 20
464.2131955299679
 30
0.0
  0
SPLINE
  5
128
330
1F
100
AcDbEntity
  8
0
  6
Continuous
 62
     8
370
    18
100
AcDbSpline
210
0.0
220
0.0
230
1.0
 70
     8
 71
     3
 72
    16
 73
    12
 74
     0
 42
0.00000001
 43
0.00000001
 40
0.0
 40
0.0
 40
0.0
 40
0.0
 40
0.0619326713178588
 40
0.1236508913438766
 40
0.1855061974178575
 40
0.3329013401477338
 40
0.4860308655191562
 40
0.6088461584198953
 40
0.7487374472379904
 40
0.8601739289875648
 40
1.0
 40
1.0
 40
1.0
 40
1.0
 10
597.3162137506082
 20
463.0276491215759
 30
0.0
 10
597.3162403830519
 20
463.0606514876687
 30
0.0
 10
597.3162935557202
 20
463.1265419441432
 30
0.0
 10
597.3163295493496
 20
463.2265159157305
 30
0.0
 10
597.3162221359601
 20
463.371939711769
 30
0.0
 10
597.317525193421
 20
463.5631077976678
 30
0.0
 10
597.3161566891938
 20
463.7673746024579
 30
0.0
 10
597.31601835048
 20
463.9406296984407
 30
0.0
 10
597.3164578652778
 20
464.0662740996952
 30
0.0
 10
597.3157708159794
 20
464.1650333461237
 30
0.0
 10
597.3160536568199
 20
464.1959760849886
 30
0.0
 10
597.3162110560146
 20
464.2131955295667
 30
0.0
  0
LINE
  5
129
330
1F
100
AcDbEntity
  8
0
  6
Continuous
 62
     8
370
    18
100
AcDbLine
 10
614.2875935364
 20
464.2132187205
 30
0.0
 11
597.316211056
 21
464.2131955276
 31
0.0
  0
LINE
  5
12A
330
1F
100
AcDbEntity
  8
0
  6
Continuous
 62
     8
370
    18
100
AcDbLine
 10
620.2875395864
 20
464.2132269195
 30
0.0
 11
614.2875935364
 21
464.21321872
 31
0.0
  0
LINE
  5
12B
330
1F
100
AcDbEntity
  8
0
  6
Continuous
 62
     8
370
    18
100
AcDbLine
 10
637.2588859848
 20
464.2132501137
 30
0.0
 11
620.2875395864
 21
464.2132269208
 31
0.0
  0
SPLINE
  5
12C
330
1F
100
AcDbEntity
  8
0
  6
Continuous
 62
     8
370
    18
100
AcDbSpline
210
0.0
220
0.0
230
1.0
 70
     8
 71
     3
 72
    20
 73
    16
 74
     0
 42
0.00000001
 43
0.00000001
 40
0.0
 40
0.0
 40
0.0
 40
0.0
 40
23.45025224994219
 40
46.90050449988437
 40
49.87385867565246
 40
52.84721285142057
 40
55.82056702718865
 40
58.79392120295675
 40
61.76727537872485
 40
63.25395246660889
 40
64.74062955449294
 40
65.48396809843496
 40
66.22730664237699
 40
66.97064518631902
 40
67.71398373026103
 40
67.71398373026103
 40
67.71398373026103
 40
67.71398373026103
 10
597.3162179604147
 20
463.0276779323863
 30
0.0
 10
597.3162152490272
 20
455.3108736288433
 30
0.0
 10
597.3162131650187
 20
439.8793447297298
 30
0.0
 10
597.3162180567347
 20
423.4584977770862
 30
0.0
 10
597.3162232934745
 20
413.7913350696285
 30
0.0
 10
597.3162250436648
 20
410.8577458880147
 30
0.0
 10
597.3162269549115
 20
407.9241990022641
 30
0.0
 10
597.3162290272476
 20
404.9906200970567
 30
0.0
 10
597.3162308884272
 20
402.5459609219724
 30
0.0
 10
597.3162324579126
 20
400.5902248579922
 30
0.0
 10
597.3162334724003
 20
399.3678863348288
 30
0.0
 10
597.3162343041251
 20
398.3900135174653
 30
0.0
 10
597.316234937987
 20
397.6566078974369
 30
0.0
 10
597.316235581916
 20
396.9232012628133
 30
0.0
 10
597.3162360179143
 20
396.4342628249412
 30
0.0
 10
597.316236237591
 20
396.1897934343762
 30
0.0
  0
SPLINE
  5
12D
330
1F
100
AcDbEntity
  8
0
  6
Continuous
 62
     8
370
    18
100
AcDbSpline
210
0.0
220
0.0
230
1.0
 70
     8
 71
     3
 72
    10
 73
     6
 74
     0
 42
0.00000001
 43
0.00000001
 40
0.0
 40
0.0
 40
0.0
 40
0.0
 40
0.5
 40
0.5
 40
1.0
 40
1.0
 40
1.0
 40
1.0
 10
637.2589276577822
 20
396.1898480212246
 30
0.0
 10
637.2589106646085
 20
407.3247266153568
 30
0.0
 10
637.2588857611605
 20
418.4566779649182
 30
0.0
 10
637.2588205977247
 20
440.7443155257013
 30
0.0
 10
637.258779665369
 20
451.8863675146028
 30
0.0
 10
637.2587309677905
 20
463.0277288836575
 30
0.0
  0
LINE
  5
12E
330
1F
100
AcDbEntity
  8
0
  6
Continuous
 62
     8
370
    18
100
AcDbLine
 10
637.9076975414
 20
396.1898516465
 30
0.0
 11
637.9194337685
 21
463.0677499321
 31
0.0
  0
LINE
  5
12F
330
1F
100
AcDbEntity
  8
0
  6
Continuous
 62
     8
370
    18
100
AcDbLine
 10
596.655548232
 20
463.0676856052
 30
0.0
 11
596.6674032285
 21
396.1897950465
 31
0.0
  0
LINE
  5
130
330
1F
100
AcDbEntity
  8
0
  6
Continuous
 62
     8
370
    18
100
AcDbLine
 10
638.2872751135
 20
396.189861647
 30
0.0
 11
638.2874751571
 21
463.1990528893
 31
0.0
  0
LINE
  5
131
330
1F
100
AcDbEntity
  8
0
  6
Continuous
 62
     8
370
    18
100
AcDbLine
 10
596.2876239435
 20
463.1989954909
 30
0.0
 11
596.2878311152
 21
396.1898042477
 31
0.0
  0
LINE
  5
132
330
1F
100
AcDbEntity
  8
0
  6
Continuous
 62
     8
370
    18
100
AcDbLine
 10
614.2875935364
 20
464.2132187224
 30
0.0
 11
614.2875794431
 21
464.5475890954
 31
0.0
  0
LINE
  5
133
330
1F
100
AcDbEntity
  8
0
  6
Continuous
 62
     8
370
    18
100
AcDbLine
 10
597.3162297615
 20
464.547507889
 30
0.0
 11
597.316211056
 21
464.2131955303
 31
0.0
  0
LINE
  5
134
330
1F
100
AcDbEntity
  8
0
  6
Continuous
 62
     8
370
    18
100
AcDbLine
 10
637.2588859848
 20
464.2132501136
 30
0.0
 11
637.2588630486
 21
464.5475485153
 31
0.0
  0
LINE
  5
135
330
1F
100
AcDbEntity
  8
0
  6
Continuous
 62
     8
370
    18
100
AcDbLine
 10
620.2875395864
 20
464.2132269244
 30
0.0
 11
620.2875254932
 21
464.5475907573
 31
0.0
  0
LINE
  5
136
330
1F
100
AcDbEntity
  8
0
  6
Continuous
 62
     8
370
    18
100
AcDbLine
 10
638.2872830913
 20
396.1898606325
 30
0.0
 11
638.2873193374
 21
396.1898467363
 31
0.0
  0
LINE
  5
137
330
1F
100
AcDbEntity
  8
0
  6
Continuous
 62
     8
370
    18
100
AcDbLine
 10
638.2872751135
 20
396.1898616474
 30
0.0
 11
638.2872777256
 21
396.1898613151
 31
0.0
  0
LINE
  5
138
330
1F
100
AcDbEntity
  8
0
  6
Continuous
 62
     8
370
    18
100
AcDbLine
 10
596.2876963161
 20
436.1326177164
 30
0.0
 11
596.2876257633
 21
436.1328733895
 31
0.0
  0
LINE
  5
139
330
1F
100
AcDbEntity
  8
0
  6
Continuous
 62
     8
370
    18
100
AcDbLine
 10
596.2876961692
 20
436.1812689143
 30
0.0
 11
596.2876963161
 21
436.1326177164
 31
0.0
  0
LINE
  5
13A
330
1F
100
AcDbEntity
  8
0
  6
Continuous
 62
     8
370
    18
100
AcDbLine
 10
596.2878245598
 20
396.1898032325
 30
0.0
 11
596.2877947761
 21
396.1898473581
 31
0.0
  0
SPLINE
  5
13B
330
1F
100
AcDbEntity
  8
0
  6
Continuous
 62
     8
370
    18
100
AcDbSpline
210
0.0
220
0.0
230
1.0
 70
     8
 71
     3
 72
    20
 73
    16
 74
     0
 42
0.00000001
 43
0.00000001
 40
0.0
 40
0.0
 40
0.0
 40
0.0
 40
0.0312500000000003
 40
0.0312500000000003
 40
0.0625000000000007
 40
0.0625000000000007
 40
0.1250000000000006
 40
0.1250000000000006
 40
0.2500000000000004
 40
0.2500000000000004
 40
0.5000000000000003
 40
0.5000000000000003
 40
0.7500000000000002
 40
0.7500000000000002
 40
1.0
 40
1.0
 40
1.0
 40
1.0
 10
597.3162501965414
 20
395.1612141073862
 30
0.0
 10
597.3162501965688
 20
395.1612139074642
 30
0.0
 10
597.316250196127
 20
395.1615486542021
 30
0.0
 10
597.3162501942907
 20
395.1629236620606
 30
0.0
 10
597.3162501928906
 20
395.1639639625476
 30
0.0
 10
597.3162501871756
 20
395.1681930806183
 30
0.0
 10
597.3162501813435
 20
395.1724920692575
 30
0.0
 10
597.3162501573184
 20
395.1901663352581
 30
0.0
 10
597.3162501325324
 20
395.2083654132995
 30
0.0
 10
597.3162500300261
 20
395.2835511275901
 30
0.0
 10
597.3162499228986
 20
395.3620476469331
 30
0.0
 10
597.3162496486493
 20
395.5628867763314
 30
0.0
 10
597.3162494824554
 20
395.6845499424088
 30
0.0
 10
597.3162491364523
 20
395.9377787914769
 30
0.0
 10
597.3162489577162
 20
396.0685594448885
 30
0.0
 10
597.3162487920176
 20
396.1897796525463
 30
0.0
  0
SPLINE
  5
13C
330
1F
100
AcDbEntity
  8
0
  6
Continuous
 62
     8
370
    18
100
AcDbSpline
210
0.0
220
0.0
230
1.0
 70
     8
 71
     3
 72
    14
 73
    10
 74
     0
 42
0.00000001
 43
0.00000001
 40
0.0
 40
0.0
 40
0.0
 40
0.0
 40
0.25
 40
0.25
 40
0.5
 40
0.5
 40
0.75
 40
0.75
 40
1.0
 40
1.0
 40
1.0
 40
1.0
 10
637.25900767112
 20
396.1898480223957
 30
0.0
 10
637.259007836753
 20
396.0686273471136
 30
0.0
 10
637.2590065068862
 20
395.9378456640954
 30
0.0
 10
637.2590007891226
 20
395.6846138963402
 30
0.0
 10
637.2589963993092
 20
395.5629488608305
 30
0.0
 10
637.2589860418121
 20
395.3621062624547
 30
0.0
 10
637.2589801288422
 20
395.2836081901041
 30
0.0
 10
637.258969013067
 20
395.1833585834666
 30
0.0
 10
637.2589638480341
 20
395.161267290536
 30
0.0
 10
637.258959736316
 20
395.1612687323365
 30
0.0
  0
SPLINE
  5
13D
330
1F
100
AcDbEntity
  8
0
  6
Continuous
 62
     8
370
    18
100
AcDbSpline
210
0.0
220
0.0
230
1.0
 70
     8
 71
     3
 72
    15
 73
    11
 74
     0
 42
0.00000001
 43
0.00000001
 40
0.0
 40
0.0
 40
0.0
 40
0.0
 40
0.0323059886358698
 40
0.0857972412313235
 40
0.138886207296335
 40
0.1957319536688115
 40
0.3209956893877753
 40
0.4537333953309085
 40
0.7257857343790718
 40
1.0
 40
1.0
 40
1.0
 40
1.0
 10
638.3483141752076
 20
436.1613788348276
 30
0.0
 10
638.3639403046432
 20
436.1613583171931
 30
0.0
 10
638.4054396938681
 20
436.1613038270966
 30
0.0
 10
638.822431899014
 20
436.1608212670698
 30
0.0
 10
639.645366926218
 20
436.1603174106135
 30
0.0
 10
641.1703549558841
 20
436.1600984455435
 30
0.0
 10
643.4474977380984
 20
436.1603958549565
 30
0.0
 10
647.3086043084907
 20
436.160977287468
 30
0.0
 10
652.2843828992267
 20
436.1614659304725
 30
0.0
 10
656.2812297277278
 20
436.1614580837498
 30
0.0
 10
658.2875621824469
 20
436.1614541448613
 30
0.0
  0
LINE
  5
13E
330
1F
100
AcDbEntity
  8
0
  6
Continuous
 62
     8
370
    18
100
AcDbLine
 10
658.2875621824
 20
436.1614541449
 30
0.0
 11
658.2875621824
 21
426.1614541449
 31
0.0
  0
SPLINE
  5
13F
330
1F
100
AcDbEntity
  8
0
  6
Continuous
 62
     8
370
    18
100
AcDbSpline
210
0.0
220
0.0
230
1.0
 70
    24
 71
     3
 72
    20
 73
    16
 74
     0
 42
0.00000001
 43
0.00000001
 40
85.97429304453136
 40
85.97429304453136
 40
85.97429304453136
 40
85.97429304453136
 40
86.41517741437582
 40
86.41517741437582
 40
87.27077323035974
 40
87.27077323035974
 40
88.98196486232757
 40
88.98196486232757
 40
92.40434812626324
 40
92.40434812626324
 40
94.1155397582311
 40
94.1155397582311
 40
94.97113557421501
 40
94.97113557421501
 40
95.78125925296355
 40
95.78125925296355
 40
95.78125925296355
 40
95.78125925296355
 10
658.2875621824469
 20
421.1614831475835
 30
0.0
 10
658.2875621824472
 20
421.1620156432703
 30
0.0
 10
658.2875621824475
 20
421.1646450813217
 30
0.0
 10
658.2875621824478
 20
421.1904440207904
 30
0.0
 10
658.2875621824473
 20
421.2216535861895
 30
0.0
 10
658.2875621824464
 20
421.3630208999131
 30
0.0
 10
658.2875621824464
 20
421.518932006503
 30
0.0
 10
658.2875621824473
 20
422.1527928362726
 30
0.0
 10
658.287562182446
 20
422.8030921943415
 30
0.0
 10
658.2875621824473
 20
423.9786863158531
 30
0.0
 10
658.2875621824464
 20
424.4023909657828
 30
0.0
 10
658.2875621824473
 20
425.063813995383
 30
0.0
 10
658.287562182446
 20
425.2879973054156
 30
0.0
 10
658.2875621824464
 20
425.7289641227633
 30
0.0
 10
658.2875621824469
 20
425.9451964347202
 30
0.0
 10
658.2875621824469
 20
426.1614512831625
 30
0.0
  0
LINE
  5
140
330
1F
100
AcDbEntity
  8
0
  6
Continuous
 62
     8
370
    18
100
AcDbLine
 10
658.2875621824
 20
437.1614541449
 30
0.0
 11
658.2875621824
 21
436.1614541449
 31
0.0
  0
LINE
  5
141
330
1F
100
AcDbEntity
  8
0
  6
Continuous
 62
     8
370
    18
100
AcDbLine
 10
658.2875621824
 20
426.1614541449
 30
0.0
 11
757.574811984
 21
426.1614541449
 31
0.0
  0
LINE
  5
142
330
1F
100
AcDbEntity
  8
0
  6
Continuous
 62
     8
370
    18
100
AcDbLine
 10
658.2875621824
 20
436.1614541449
 30
0.0
 11
757.5748119824
 21
436.1614541449
 31
0.0
  0
LINE
  5
143
330
1F
100
AcDbEntity
  8
0
  6
Continuous
 62
     8
370
    18
100
AcDbLine
 10
757.5748119857
 20
426.1614541449
 30
0.0
 11
757.5748119857
 21
436.1614541449
 31
0.0
  0
SPLINE
  5
144
330
1F
100
AcDbEntity
  8
0
  6
Continuous
 62
     8
370
    18
100
AcDbSpline
210
0.0
220
0.0
230
1.0
 70
     8
 71
     3
 72
    18
 73
    14
 74
     0
 42
0.00000001
 43
0.00000001
 40
0.0
 40
0.0
 40
0.0
 40
0.0
 40
0.0526861538678192
 40
0.1068442195266497
 40
0.1624742253475402
 40
0.2195761899531427
 40
0.2992900219644782
 40
0.4433941507562712
 40
0.5667180596553584
 40
0.7030369359595456
 40
0.8676134508558063
 40
0.9666892148119217
 40
1.0
 40
1.0
 40
1.0
 40
1.0
 10
757.5748119823578
 20
436.1614541448613
 30
0.0
 10
757.5748014768809
 20
436.1890101726119
 30
0.0
 10
757.574780172432
 20
436.2448920706462
 30
0.0
 10
757.5745674589975
 20
436.3292826740338
 30
0.0
 10
757.5743564462505
 20
436.4147127209372
 30
0.0
 10
757.5734858962551
 20
436.5109784476784
 30
0.0
 10
757.5752586748761
 20
436.6461769787827
 30
0.0
 10
757.5794666935374
 20
436.7991238373778
 30
0.0
 10
757.5822988944186
 20
436.9480895881644
 30
0.0
 10
757.5805439761233
 20
437.0695326774515
 30
0.0
 10
757.5777054988818
 20
437.1392207046221
 30
0.0
 10
757.575857003915
 20
437.1600476412148
 30
0.0
 10
757.5750220671414
 20
437.1611713898445
 30
0.0
 10
757.5748119823578
 20
437.1614541447727
 30
0.0
  0
LINE
  5
145
330
1F
100
AcDbEntity
  8
0
  6
Continuous
 62
     8
370
    18
100
AcDbLine
 10
757.5748119824
 20
426.1614541449
 30
0.0
 11
757.5748119824
 21
421.1614541449
 31
0.0
  0
LINE
  5
146
330
1F
100
AcDbEntity
  8
0
  6
Continuous
 62
     8
370
    18
100
AcDbLine
 10
758.5748119824
 20
436.1614541449
 30
0.0
 11
757.5748119824
 21
436.1614541449
 31
0.0
  0
LINE
  5
147
330
1F
100
AcDbEntity
  8
0
  6
Continuous
 62
     8
370
    18
100
AcDbLine
 10
757.5748119824
 20
426.1614541449
 30
0.0
 11
758.5748119824
 21
426.1614541449
 31
0.0
  0
SPLINE
  5
148
330
1F
100
AcDbEntity
  8
0
  6
Continuous
 62
     7
370
    25
100
AcDbSpline
210
0.0
220
0.0
230
1.0
 70
     8
 71
     3
 72
    14
 73
    10
 74
     0
 42
0.00000001
 43
0.00000001
 40
0.0
 40
0.0
 40
0.0
 40
0.0
 40
0.1281505789132373
 40
0.2569586325889143
 40
0.3836854498926339
 40
0.507280489261147
 40
0.7561109367440042
 40
0.879564974752598
 40
1.0
 40
1.0
 40
1.0
 40
1.0
 10
285.790998918378
 20
436.1614541448615
 30
0.0
 10
285.7853209632934
 20
436.2284910911077
 30
0.0
 10
285.7739359224546
 20
436.3629089157201
 30
0.0
 10
285.7102117059708
 20
436.5574098145095
 30
0.0
 10
285.6155829854106
 20
436.7334602713858
 30
0.0
 10
285.4497327620748
 20
436.9354077217735
 30
0.0
 10
285.2315446815635
 20
437.0797462766013
 30
0.0
 10
284.9858324162952
 20
437.1531333260825
 30
0.0
 10
284.8577819122548
 20
437.1586456836577
 30
0.0
 10
284.7945492052152
 20
437.1613677447247
 30
0.0
  0
LINE
  5
149
330
1F
100
AcDbEntity
  8
0
  6
Continuous
 62
     7
370
    25
100
AcDbLine
 10
244.1081451554
 20
421.1614541449
 30
0.0
 11
244.3581451554
 21
420.9114541449
 31
0.0
  0
LINE
  5
14A
330
1F
100
AcDbEntity
  8
0
  6
Continuous
 62
     7
370
    25
100
AcDbLine
 10
267.2581451554
 20
420.9114541449
 30
0.0
 11
267.5081451555
 21
421.1614541449
 31
0.0
  0
LINE
  5
14B
330
1F
100
AcDbEntity
  8
0
  6
Continuous
 62
     7
370
    25
100
AcDbLine
 10
267.0581451554
 20
420.7114541449
 30
0.0
 11
267.0581451554
 21
420.9114541449
 31
0.0
  0
LINE
  5
14C
330
1F
100
AcDbEntity
  8
0
  6
Continuous
 62
     7
370
    25
100
AcDbLine
 10
244.5581451554
 20
420.9114541449
 30
0.0
 11
244.5581451554
 21
420.7114541449
 31
0.0
  0
LINE
  5
14D
330
1F
100
AcDbEntity
  8
0
  6
Continuous
 62
     7
370
    25
100
AcDbLine
 10
265.0081451554
 20
419.1114541449
 30
0.0
 11
265.0081451554
 21
419.9114541449
 31
0.0
  0
LINE
  5
14E
330
1F
100
AcDbEntity
  8
0
  6
Continuous
 62
     7
370
    25
100
AcDbLine
 10
246.6081451554
 20
419.9114541449
 30
0.0
 11
246.6081451554
 21
419.1114541449
 31
0.0
  0
LINE
  5
14F
330
1F
100
AcDbEntity
  8
0
  6
Continuous
 62
     7
370
    25
100
AcDbLine
 10
264.1521732149
 20
418.9866046422
 30
0.0
 11
264.1544145341
 21
419.1114541449
 31
0.0
  0
SPLINE
  5
150
330
1F
100
AcDbEntity
  8
0
  6
Continuous
 62
     7
370
    25
100
AcDbSpline
210
0.0
220
0.0
230
1.0
 70
     8
 71
     3
 72
    12
 73
     8
 74
     0
 42
0.00000001
 43
0.00000001
 40
0.0
 40
0.0
 40
0.0
 40
0.0
 40
0.0187273050378925
 40
0.1614437437691517
 40
0.4489107307030976
 40
0.7627069462451694
 40
1.0
 40
1.0
 40
1.0
 40
1.0
 10
225.8076935499612
 20
426.9369472023632
 30
0.0
 10
225.8074141272848
 20
426.9846146469312
 30
0.0
 10
225.8050052893407
 20
427.3955446067616
 30
0.0
 10
225.8063170094538
 20
428.8034659797151
 30
0.0
 10
225.8032501157062
 20
431.2052926380148
 30
0.0
 10
225.8054404672344
 20
433.811922070315
 30
0.0
 10
225.8061577165278
 20
435.4542366610869
 30
0.0
 10
225.8064665562832
 20
436.1613994860274
 30
0.0
  0
LINE
  5
151
330
1F
100
AcDbEntity
  8
0
  6
Continuous
 62
     7
370
    25
100
AcDbLine
 10
119.8475663646
 20
437.1614865129
 30
0.0
 11
113.3085254349
 21
437.1614865129
 31
0.0
  0
SPLINE
  5
152
330
1F
100
AcDbEntity
  8
0
  6
Continuous
 62
     7
370
    25
100
AcDbSpline
210
0.0
220
0.0
230
1.0
 70
     8
 71
     3
 72
    15
 73
    11
 74
     0
 42
0.00000001
 43
0.00000001
 40
0.0
 40
0.0
 40
0.0
 40
0.0
 40
0.1257737580087885
 40
0.2539952130592401
 40
0.3817395360633708
 40
0.5061185187494146
 40
0.6297419776929352
 40
0.7551652704897751
 40
0.8795174598529674
 40
0.9999999999999999
 40
0.9999999999999999
 40
0.9999999999999999
 40
0.9999999999999999
 10
84.17982224680756
 20
464.2202615404722
 30
0.0
 10
84.11856291444062
 20
464.2072198511824
 30
0.0
 10
83.99485207505137
 20
464.1808826668425
 30
0.0
 10
83.8222767586326
 20
464.0844097790558
 30
0.0
 10
83.66881339002602
 20
463.9512723654703
 30
0.0
 10
83.54118092621745
 20
463.7857669700809
 30
0.0
 10
83.44288153787052
 20
463.596430466429
 30
0.0
 10
83.37828277522341
 20
463.3906194969398
 30
0.0
 10
83.34637818167643
 20
463.1787278444433
 30
0.0
 10
83.35363305234239
 20
463.0432763630199
 30
0.0
 10
83.35720315552186
 20
462.9766210376858
 30
0.0
  0
SPLINE
  5
153
330
1F
100
AcDbEntity
  8
0
  6
Continuous
 62
     7
370
    25
100
AcDbSpline
210
0.0
220
0.0
230
1.0
 70
     8
 71
     3
 72
    21
 73
    17
 74
     0
 42
0.00000001
 43
0.00000001
 40
0.0
 40
0.0
 40
0.0
 40
0.0
 40
0.1133856413095281
 40
0.1974858676034545
 40
0.255845943862537
 40
0.3115520100193263
 40
0.3687274606136194
 40
0.4263402093728335
 40
0.483952955838248
 40
0.5415656982302435
 40
0.5991784358309097
 40
0.6563565112194886
 40
0.7120705496547831
 40
0.7717737913419735
 40
0.866101784829591
 40
1.0
 40
1.0
 40
1.0
 40
1.0
 10
91.61021093067029
 20
437.1566200171001
 30
0.0
 10
91.41579281083203
 20
438.1223576020811
 30
0.0
 10
91.07717117734609
 20
439.8044006072144
 30
0.0
 10
90.63848170173492
 20
441.9835129087995
 30
0.0
 10
90.29869323122216
 20
443.6713519715562
 30
0.0
 10
90.00507165823643
 20
445.1298651374817
 30
0.0
 10
89.71273150222436
 20
446.5820130933991
 30
0.0
 10
89.41712199863174
 20
448.0504009451276
 30
0.0
 10
89.12076276691658
 20
449.5225129490311
 30
0.0
 10
88.82440321026996
 20
450.9946265242785
 30
0.0
 10
88.52879016923539
 20
452.463032047661
 30
0.0
 10
88.23642824170999
 20
453.9152877395676
 30
0.0
 10
87.94049844213495
 20
455.3852680458191
 30
0.0
 10
87.58079319821657
 20
457.1720331285723
 30
0.0
 10
87.08692244177473
 20
459.6247213539224
 30
0.0
 10
86.69576627013359
 20
461.56786260033
 30
0.0
 10
86.46627854589889
 20
462.7078856776438
 30
0.0
  0
LINE
  5
154
330
1F
100
AcDbEntity
  8
0
  6
Continuous
 62
     7
370
    25
100
AcDbLine
 10
83.2585438398
 20
463.2014218982
 30
0.0
 11
83.2585437125
 21
463.2013672271
 31
0.0
  0
ARC
  5
155
330
1F
100
AcDbEntity
  8
0
  6
Continuous
 62
     7
370
    25
100
AcDbCircle
 10
127.3087770621
 20
431.6432234835
 30
0.0
 40
34.99999999999996
100
AcDbArc
 50
243.8993128731
 51
259.2961675874
  0
ARC
  5
156
330
1F
100
AcDbEntity
  8
0
  6
Continuous
 62
     7
370
    25
100
AcDbCircle
 10
127.3087770621
 20
400.6796848063
 30
0.0
 40
35.00000000000006
100
AcDbArc
 50
100.7038324126
 51
102.3810056517
  0
LINE
  5
157
330
1F
100
AcDbEntity
  8
0
  6
Continuous
 62
     7
370
    25
100
AcDbLine
 10
356.2881451542
 20
378.0114541449
 30
0.0
 11
356.2881451542
 21
395.1614541449
 31
0.0
  0
LINE
  5
158
330
1F
100
AcDbEntity
  8
0
  6
Continuous
 62
     7
370
    25
100
AcDbLine
 10
335.2881451541
 20
395.1614541449
 30
0.0
 11
335.2881451541
 21
378.0114541449
 31
0.0
  0
LINE
  5
159
330
1F
100
AcDbEntity
  8
0
  6
Continuous
 62
     7
370
    25
100
AcDbLine
 10
335.2881451541
 20
378.0114541449
 30
0.0
 11
335.8881451541
 21
377.4114541449
 31
0.0
  0
LINE
  5
15A
330
1F
100
AcDbEntity
  8
0
  6
Continuous
 62
     7
370
    25
100
AcDbLine
 10
355.6881451542
 20
377.4114541449
 30
0.0
 11
356.2881451542
 21
378.0114541449
 31
0.0
  0
LINE
  5
15B
330
1F
100
AcDbEntity
  8
0
  6
Continuous
 62
     7
370
    25
100
AcDbLine
 10
337.4677804984
 20
377.4114541449
 30
0.0
 11
337.4677804984
 21
377.4078377745
 31
0.0
  0
LINE
  5
15C
330
1F
100
AcDbEntity
  8
0
  6
Continuous
 62
     7
370
    25
100
AcDbLine
 10
354.10850981
 20
377.4078377745
 30
0.0
 11
354.10850981
 21
377.4114541449
 31
0.0
  0
LINE
  5
15D
330
1F
100
AcDbEntity
  8
0
  6
Continuous
 62
     7
370
    25
100
AcDbLine
 10
96.8090818647
 20
394.9112684367
 30
0.0
 11
97.0276703654
 21
394.3107236633
 31
0.0
  0
LINE
  5
15E
330
1F
100
AcDbEntity
  8
0
  6
Continuous
 62
     7
370
    25
100
AcDbLine
 10
104.5905076311
 20
394.3108135009
 30
0.0
 11
104.8090818642
 21
394.9113634673
 31
0.0
  0
LINE
  5
15F
330
1F
100
AcDbEntity
  8
0
  6
Continuous
 62
     7
370
    25
100
AcDbLine
 10
96.8090788951
 20
395.1612664797
 30
0.0
 11
96.8090818647
 21
394.9112684367
 31
0.0
  0
LINE
  5
160
330
1F
100
AcDbEntity
  8
0
  6
Continuous
 62
     7
370
    25
100
AcDbLine
 10
104.8090818642
 20
394.9113634673
 30
0.0
 11
104.8090788945
 21
395.1613598507
 31
0.0
  0
ARC
  5
161
330
1F
100
AcDbEntity
  8
0
  6
Continuous
 62
     7
370
    25
100
AcDbCircle
 10
104.4025682944
 20
394.3792152971
 30
0.0
 40
0.2000000000000029
100
AcDbArc
 50
270.0006806061
 51
340.0006806064
  0
ARC
  5
162
330
1F
100
AcDbEntity
  8
0
  6
Continuous
 62
     7
370
    25
100
AcDbCircle
 10
97.215608077
 20
394.3791299245
 30
0.0
 40
0.200000000000003
100
AcDbArc
 50
200.0006806057
 51
270.0006806061
  0
LWPOLYLINE
  5
163
330
1F
100
AcDbEntity
  8
0
  6
Continuous
 62
     7
370
    25
100
AcDbPolyline
 90
       11
 70
   128
 43
0.0
 10
97.2156104528
 20
394.1791299245
 10
97.3914878879
 20
394.1791335313
 10
97.9019040846
 20
394.1791409635
 10
98.6968959491
 20
394.1791514935
 10
99.6986441389
 20
394.1791640907
 10
100.8090905614
 20
394.1791775218
 10
101.9195369839
 20
394.1791904723
 10
102.9212851737
 20
394.1792016743
 10
103.7162770383
 20
394.1792100314
 10
104.226693235
 20
394.1792147255
 10
104.4025706701
 20
394.1792152971
  0
LWPOLYLINE
  5
164
330
1F
100
AcDbEntity
  8
0
  6
Continuous
 62
     7
370
    25
100
AcDbPolyline
 90
       11
 70
   128
 43
0.0
 10
97.2156104528
 20
394.1791299245
 10
97.3914878879
 20
394.1791304961
 10
97.9019040846
 20
394.1791351902
 10
98.6968959492
 20
394.1791435473
 10
99.698644139
 20
394.1791547493
 10
100.8090905615
 20
394.1791676997
 10
101.919536984
 20
394.1791811309
 10
102.9212851738
 20
394.179193728
 10
103.7162770383
 20
394.1792042581
 10
104.226693235
 20
394.1792116903
 10
104.4025706701
 20
394.1792152971
  0
ARC
  5
165
330
1F
100
AcDbEntity
  8
0
  6
Continuous
 62
     7
370
    25
100
AcDbCircle
 10
112.1305041482
 20
400.6614541449
 30
0.0
 40
0.4999999999999629
100
AcDbArc
 50
222.4728291592
 51
243.8993128731
  0
LINE
  5
166
330
1F
100
AcDbEntity
  8
0
  6
Continuous
 62
     7
370
    25
100
AcDbLine
 10
399.8081451554
 20
394.9114541449
 30
0.0
 11
400.0267265224
 21
394.3109067749
 31
0.0
  0
LINE
  5
167
330
1F
100
AcDbEntity
  8
0
  6
Continuous
 62
     7
370
    25
100
AcDbLine
 10
407.5895637885
 20
394.3109067749
 30
0.0
 11
407.8081451554
 21
394.9114541449
 31
0.0
  0
LINE
  5
168
330
1F
100
AcDbEntity
  8
0
  6
Continuous
 62
     7
370
    25
100
AcDbLine
 10
399.8081451554
 20
395.1614541449
 30
0.0
 11
399.8081451554
 21
394.9114541449
 31
0.0
  0
LINE
  5
169
330
1F
100
AcDbEntity
  8
0
  6
Continuous
 62
     7
370
    25
100
AcDbLine
 10
407.8081451554
 20
394.9114541449
 30
0.0
 11
407.8081451554
 21
395.1614541449
 31
0.0
  0
ARC
  5
16A
330
1F
100
AcDbEntity
  8
0
  6
Continuous
 62
     7
370
    25
100
AcDbCircle
 10
407.4016252644
 20
394.3793108036
 30
0.0
 40
0.2000000000000553
100
AcDbArc
 50
270.0
 51
340.0
  0
ARC
  5
16B
330
1F
100
AcDbEntity
  8
0
  6
Continuous
 62
     7
370
    25
100
AcDbCircle
 10
400.2146650465
 20
394.3793108036
 30
0.0
 40
0.1999999999999886
100
AcDbArc
 50
200.0
 51
270.0
  0
LINE
  5
16C
330
1F
100
AcDbEntity
  8
0
  6
Continuous
 62
     7
370
    25
100
AcDbLine
 10
400.2146650465
 20
394.1793108036
 30
0.0
 11
407.4016252644
 21
394.1793108036
 31
0.0
  0
ARC
  5
16D
330
1F
100
AcDbEntity
  8
0
  6
Continuous
 62
     7
370
    25
100
AcDbCircle
 10
180.8081451575
 20
-1548.5322722687
 30
0.0
 40
2000.0
100
AcDbArc
 50
89.052670099
 51
90.947329901
  0
LWPOLYLINE
  5
16E
330
1F
100
AcDbEntity
  8
0
  6
Continuous
 62
     7
370
    25
100
AcDbPolyline
 90
        3
 70
   128
 43
0.0
 10
145.7752394905
 20
449.2279993922
 10
145.6556426176
 20
440.9618574757
 10
145.6121247441
 20
437.1614541449
  0
LWPOLYLINE
  5
16F
330
1F
100
AcDbEntity
  8
0
  6
Continuous
 62
     7
370
    25
100
AcDbPolyline
 90
        3
 70
   128
 43
0.0
 10
145.612124747
 20
395.1614541449
 10
145.6556426176
 20
391.3610510852
 10
145.7752394905
 20
383.0949091687
  0
LWPOLYLINE
  5
170
330
1F
100
AcDbEntity
  8
0
  6
Continuous
 62
     7
370
    25
100
AcDbPolyline
 90
        3
 70
   128
 43
0.0
 10
215.8410508244
 20
383.0949091687
 10
215.9606476973
 20
391.3610510852
 10
216.004165568
 20
395.1614541449
  0
LWPOLYLINE
  5
171
330
1F
100
AcDbEntity
  8
0
  6
Continuous
 62
     7
370
    25
100
AcDbPolyline
 90
        3
 70
   128
 43
0.0
 10
216.0041655708
 20
437.1614541449
 10
215.9606476973
 20
440.9618574757
 10
215.8410508244
 20
449.2279993922
  0
ARC
  5
172
330
1F
100
AcDbEntity
  8
0
  6
Continuous
 62
     7
370
    25
100
AcDbCircle
 10
180.8081451575
 20
2380.8551808296
 30
0.0
 40
2000.0
100
AcDbArc
 50
269.052670099
 51
270.947329901
  0
SPLINE
  5
173
330
1F
100
AcDbEntity
  8
0
  6
Continuous
 62
     7
370
    25
100
AcDbSpline
210
0.0
220
0.0
230
1.0
 70
     8
 71
     3
 72
    20
 73
    16
 74
     0
 42
0.00000001
 43
0.00000001
 40
0.0
 40
0.0
 40
0.0
 40
0.0
 40
0.1249999999999984
 40
0.1249999999999984
 40
0.2499999999999969
 40
0.2499999999999969
 40
0.3749999999999953
 40
0.3749999999999953
 40
0.4999999999999938
 40
0.4999999999999938
 40
0.6249999999999922
 40
0.6249999999999922
 40
0.7499999999999907
 40
0.7499999999999907
 40
1.0
 40
1.0
 40
1.0
 40
1.0
 10
145.7752394905052
 20
449.2279993921549
 30
0.0
 10
145.7773764320796
 20
449.3572326992128
 30
0.0
 10
145.7918864581246
 20
449.4841479509483
 30
0.0
 10
145.8446370922443
 20
449.7335326105306
 30
0.0
 10
145.8834339709845
 20
449.8572038956494
 30
0.0
 10
145.9836205678337
 20
450.0935799277447
 30
0.0
 10
146.0444054153901
 20
450.2056095660857
 30
0.0
 10
146.187042819335
 20
450.4175337530068
 30
0.0
 10
146.2698390611026
 20
450.5181173799187
 30
0.0
 10
146.4504804551788
 20
450.6988791020916
 30
0.0
 10
146.5487416519329
 20
450.7800366283593
 30
0.0
 10
146.7613362771133
 20
450.9236828843083
 30
0.0
 10
146.8753617832124
 20
450.9855846383826
 30
0.0
 10
147.2273233032394
 20
451.1351056046807
 30
0.0
 10
147.4831331519497
 20
451.1900860596288
 30
0.0
 10
147.7416000457523
 20
451.1943599474022
 30
0.0
  0
SPLINE
  5
174
330
1F
100
AcDbEntity
  8
0
  6
Continuous
 62
     7
370
    25
100
AcDbSpline
210
0.0
220
0.0
230
1.0
 70
     8
 71
     3
 72
    20
 73
    16
 74
     0
 42
0.00000001
 43
0.00000001
 40
0.0
 40
0.0
 40
0.0
 40
0.0
 40
0.1249999999999992
 40
0.1249999999999992
 40
0.2499999999999984
 40
0.2499999999999984
 40
0.3749999999999977
 40
0.3749999999999977
 40
0.4999999999999969
 40
0.4999999999999969
 40
0.6249999999999961
 40
0.6249999999999961
 40
0.7499999999999953
 40
0.7499999999999953
 40
1.0
 40
1.0
 40
1.0
 40
1.0
 10
213.8746902691858
 20
451.1943599474021
 30
0.0
 10
214.0039235762437
 20
451.1922230058277
 30
0.0
 10
214.1308388279793
 20
451.1777129797826
 30
0.0
 10
214.3802234875616
 20
451.1249623456629
 30
0.0
 10
214.5038947726803
 20
451.0861654669228
 30
0.0
 10
214.7402708047756
 20
450.9859788700736
 30
0.0
 10
214.8523004431167
 20
450.9251940225171
 30
0.0
 10
215.0642246300378
 20
450.7825566185722
 30
0.0
 10
215.1648082569498
 20
450.6997603768047
 30
0.0
 10
215.3455699791226
 20
450.5191189827285
 30
0.0
 10
215.4267275053904
 20
450.4208577859744
 30
0.0
 10
215.5703737613394
 20
450.2082631607941
 30
0.0
 10
215.6322755154137
 20
450.094237654695
 30
0.0
 10
215.7817964817118
 20
449.7422761346679
 30
0.0
 10
215.8367769366597
 20
449.4864662859575
 30
0.0
 10
215.8410508244332
 20
449.2279993921549
 30
0.0
  0
SPLINE
  5
175
330
1F
100
AcDbEntity
  8
0
  6
Continuous
 62
     7
370
    25
100
AcDbSpline
210
0.0
220
0.0
230
1.0
 70
     8
 71
     3
 72
    20
 73
    16
 74
     0
 42
0.00000001
 43
0.00000001
 40
0.0
 40
0.0
 40
0.0
 40
0.0
 40
0.1249999999999992
 40
0.1249999999999992
 40
0.2499999999999984
 40
0.2499999999999984
 40
0.3749999999999977
 40
0.3749999999999977
 40
0.4999999999999969
 40
0.4999999999999969
 40
0.6249999999999961
 40
0.6249999999999961
 40
0.7499999999999953
 40
0.7499999999999953
 40
1.0
 40
1.0
 40
1.0
 40
1.0
 10
147.7416000457524
 20
381.1285486134742
 30
0.0
 10
147.6123667386945
 20
381.1306855550486
 30
0.0
 10
147.485451486959
 20
381.1451955810936
 30
0.0
 10
147.2360668273766
 20
381.1979462152133
 30
0.0
 10
147.1123955422579
 20
381.2367430939535
 30
0.0
 10
146.8760195101626
 20
381.3369296908027
 30
0.0
 10
146.7639898718215
 20
381.397714538359
 30
0.0
 10
146.5520656849004
 20
381.5403519423039
 30
0.0
 10
146.4514820579885
 20
381.6231481840716
 30
0.0
 10
146.2707203358157
 20
381.8037895781478
 30
0.0
 10
146.1895628095479
 20
381.9020507749019
 30
0.0
 10
146.0459165535988
 20
382.1146454000822
 30
0.0
 10
145.9840147995247
 20
382.2286709061813
 30
0.0
 10
145.8344938332265
 20
382.5806324262084
 30
0.0
 10
145.7795133782786
 20
382.8364422749187
 30
0.0
 10
145.7752394905051
 20
383.0949091687214
 30
0.0
  0
SPLINE
  5
176
330
1F
100
AcDbEntity
  8
0
  6
Continuous
 62
     7
370
    25
100
AcDbSpline
210
0.0
220
0.0
230
1.0
 70
     8
 71
     3
 72
    20
 73
    16
 74
     0
 42
0.00000001
 43
0.00000001
 40
0.0
 40
0.0
 40
0.0
 40
0.0
 40
0.1249999999999997
 40
0.1249999999999997
 40
0.2499999999999993
 40
0.2499999999999993
 40
0.374999999999999
 40
0.374999999999999
 40
0.4999999999999987
 40
0.4999999999999987
 40
0.6249999999999983
 40
0.6249999999999983
 40
0.749999999999998
 40
0.749999999999998
 40
1.0
 40
1.0
 40
1.0
 40
1.0
 10
215.841050824433
 20
383.0949091687213
 30
0.0
 10
215.8389138828586
 20
382.9656758616634
 30
0.0
 10
215.8244038568137
 20
382.8387606099278
 30
0.0
 10
215.771653222694
 20
382.5893759503455
 30
0.0
 10
215.7328563439538
 20
382.4657046652267
 30
0.0
 10
215.6326697471046
 20
382.2293286331314
 30
0.0
 10
215.5718848995483
 20
382.1172989947904
 30
0.0
 10
215.4292474956034
 20
381.9053748078693
 30
0.0
 10
215.3464512538357
 20
381.8047911809574
 30
0.0
 10
215.1658098597595
 20
381.6240294587846
 30
0.0
 10
215.0675486630053
 20
381.5428719325168
 30
0.0
 10
214.854954037825
 20
381.3992256765678
 30
0.0
 10
214.7409285317259
 20
381.3373239224936
 30
0.0
 10
214.3889670116988
 20
381.1878029561954
 30
0.0
 10
214.1331571629884
 20
381.1328225012476
 30
0.0
 10
213.8746902691858
 20
381.1285486134741
 30
0.0
  0
ARC
  5
177
330
1F
100
AcDbEntity
  8
0
  6
Continuous
 62
     7
370
    25
100
AcDbCircle
 10
330.8081451534
 20
-1548.5322722687
 30
0.0
 40
2000.0
100
AcDbArc
 50
89.052670099
 51
90.947329901
  0
LWPOLYLINE
  5
178
330
1F
100
AcDbEntity
  8
0
  6
Continuous
 62
     7
370
    25
100
AcDbPolyline
 90
        3
 70
   128
 43
0.0
 10
365.8410508204
 20
383.0949091688
 10
365.9606476933
 20
391.3610510852
 10
366.0041655639
 20
395.1614541449
  0
LWPOLYLINE
  5
179
330
1F
100
AcDbEntity
  8
0
  6
Continuous
 62
     7
370
    25
100
AcDbPolyline
 90
        3
 70
   128
 43
0.0
 10
366.0041655668
 20
437.1614541449
 10
365.9606476933
 20
440.9618574758
 10
365.8410508204
 20
449.2279993922
  0
LWPOLYLINE
  5
17A
330
1F
100
AcDbEntity
  8
0
  6
Continuous
 62
     7
370
    25
100
AcDbPolyline
 90
        3
 70
   128
 43
0.0
 10
295.7752394865
 20
449.2279993922
 10
295.6556426136
 20
440.9618574758
 10
295.6121247401
 20
437.1614541449
  0
LWPOLYLINE
  5
17B
330
1F
100
AcDbEntity
  8
0
  6
Continuous
 62
     7
370
    25
100
AcDbPolyline
 90
        3
 70
   128
 43
0.0
 10
295.6121247429
 20
395.1614541449
 10
295.6556426136
 20
391.3610510852
 10
295.7752394865
 20
383.0949091688
  0
ARC
  5
17C
330
1F
100
AcDbEntity
  8
0
  6
Continuous
 62
     7
370
    25
100
AcDbCircle
 10
330.8081451534
 20
2380.8551808296
 30
0.0
 40
2000.000000000001
100
AcDbArc
 50
269.052670099
 51
270.1283426535
  0
LINE
  5
17D
330
1F
100
AcDbEntity
  8
0
  6
Continuous
 62
     7
370
    25
100
AcDbLine
 10
356.2881451542
 20
381.0174950161
 30
0.0
 11
363.8746902651
 21
381.1285486135
 31
0.0
  0
SPLINE
  5
17E
330
1F
100
AcDbEntity
  8
0
  6
Continuous
 62
     7
370
    25
100
AcDbSpline
210
0.0
220
0.0
230
1.0
 70
     8
 71
     3
 72
    20
 73
    16
 74
     0
 42
0.00000001
 43
0.00000001
 40
0.0
 40
0.0
 40
0.0
 40
0.0
 40
0.1249999999999992
 40
0.1249999999999992
 40
0.2499999999999984
 40
0.2499999999999984
 40
0.3749999999999977
 40
0.3749999999999977
 40
0.4999999999999969
 40
0.4999999999999969
 40
0.6249999999999961
 40
0.6249999999999961
 40
0.7499999999999953
 40
0.7499999999999953
 40
1.0
 40
1.0
 40
1.0
 40
1.0
 10
363.8746902651463
 20
451.1943599474437
 30
0.0
 10
364.0039235722043
 20
451.1922230058693
 30
0.0
 10
364.1308388239398
 20
451.1777129798243
 30
0.0
 10
364.3802234835221
 20
451.1249623457045
 30
0.0
 10
364.5038947686408
 20
451.0861654669645
 30
0.0
 10
364.7402708007361
 20
450.9859788701152
 30
0.0
 10
364.8523004390771
 20
450.9251940225587
 30
0.0
 10
365.0642246259982
 20
450.7825566186139
 30
0.0
 10
365.1648082529102
 20
450.6997603768463
 30
0.0
 10
365.345569975083
 20
450.5191189827701
 30
0.0
 10
365.4267275013507
 20
450.4208577860159
 30
0.0
 10
365.5703737572997
 20
450.2082631608356
 30
0.0
 10
365.6322755113739
 20
450.0942376547366
 30
0.0
 10
365.7817964776721
 20
449.7422761347094
 30
0.0
 10
365.8367769326203
 20
449.4864662859991
 30
0.0
 10
365.8410508203938
 20
449.2279993921965
 30
0.0
  0
SPLINE
  5
17F
330
1F
100
AcDbEntity
  8
0
  6
Continuous
 62
     7
370
    25
100
AcDbSpline
210
0.0
220
0.0
230
1.0
 70
     8
 71
     3
 72
    20
 73
    16
 74
     0
 42
0.00000001
 43
0.00000001
 40
0.0
 40
0.0
 40
0.0
 40
0.0
 40
0.1249999999999984
 40
0.1249999999999984
 40
0.2499999999999969
 40
0.2499999999999969
 40
0.3749999999999953
 40
0.3749999999999953
 40
0.4999999999999938
 40
0.4999999999999938
 40
0.6249999999999922
 40
0.6249999999999922
 40
0.7499999999999907
 40
0.7499999999999907
 40
1.0
 40
1.0
 40
1.0
 40
1.0
 10
365.8410508203935
 20
383.0949091687629
 30
0.0
 10
365.8389138788192
 20
382.965675861705
 30
0.0
 10
365.824403852774
 20
382.8387606099695
 30
0.0
 10
365.7716532186542
 20
382.5893759503872
 30
0.0
 10
365.7328563399141
 20
382.4657046652685
 30
0.0
 10
365.6326697430649
 20
382.2293286331733
 30
0.0
 10
365.5718848955084
 20
382.1172989948321
 30
0.0
 10
365.4292474915636
 20
381.9053748079111
 30
0.0
 10
365.3464512497959
 20
381.8047911809992
 30
0.0
 10
365.1658098557197
 20
381.6240294588264
 30
0.0
 10
365.0675486589656
 20
381.5428719325586
 30
0.0
 10
364.8549540337853
 20
381.3992256766096
 30
0.0
 10
364.7409285276863
 20
381.3373239225355
 30
0.0
 10
364.3889670076592
 20
381.1878029562373
 30
0.0
 10
364.1331571589489
 20
381.1328225012893
 30
0.0
 10
363.8746902651463
 20
381.1285486135158
 30
0.0
  0
SPLINE
  5
180
330
1F
100
AcDbEntity
  8
0
  6
Continuous
 62
     7
370
    25
100
AcDbSpline
210
0.0
220
0.0
230
1.0
 70
     8
 71
     3
 72
    20
 73
    16
 74
     0
 42
0.00000001
 43
0.00000001
 40
0.0
 40
0.0
 40
0.0
 40
0.0
 40
0.1250000000000008
 40
0.1250000000000008
 40
0.2500000000000016
 40
0.2500000000000016
 40
0.3750000000000023
 40
0.3750000000000023
 40
0.5000000000000031
 40
0.5000000000000031
 40
0.6250000000000039
 40
0.6250000000000039
 40
0.7500000000000047
 40
0.7500000000000047
 40
1.0
 40
1.0
 40
1.0
 40
1.0
 10
295.7752394864658
 20
449.2279993921965
 30
0.0
 10
295.7773764280401
 20
449.3572326992545
 30
0.0
 10
295.791886454085
 20
449.48414795099
 30
0.0
 10
295.8446370882048
 20
449.7335326105722
 30
0.0
 10
295.8834339669449
 20
449.857203895691
 30
0.0
 10
295.9836205637942
 20
450.0935799277863
 30
0.0
 10
296.0444054113502
 20
450.2056095661276
 30
0.0
 10
296.1870428152951
 20
450.4175337530486
 30
0.0
 10
296.2698390570631
 20
450.5181173799604
 30
0.0
 10
296.4504804511393
 20
450.6988791021332
 30
0.0
 10
296.5487416478933
 20
450.7800366284011
 30
0.0
 10
296.7613362730737
 20
450.9236828843501
 30
0.0
 10
296.8753617791729
 20
450.9855846384241
 30
0.0
 10
297.2273232992
 20
451.1351056047223
 30
0.0
 10
297.4831331479103
 20
451.1900860596704
 30
0.0
 10
297.7416000417128
 20
451.1943599474439
 30
0.0
  0
SPLINE
  5
181
330
1F
100
AcDbEntity
  8
0
  6
Continuous
 62
     7
370
    25
100
AcDbSpline
210
0.0
220
0.0
230
1.0
 70
     8
 71
     3
 72
    20
 73
    16
 74
     0
 42
0.00000001
 43
0.00000001
 40
0.0
 40
0.0
 40
0.0
 40
0.0
 40
0.125
 40
0.125
 40
0.25
 40
0.25
 40
0.375
 40
0.375
 40
0.5
 40
0.5
 40
0.625
 40
0.625
 40
0.75
 40
0.75
 40
1.0
 40
1.0
 40
1.0
 40
1.0
 10
297.741600041713
 20
381.1285486135158
 30
0.0
 10
297.612366734655
 20
381.1306855550902
 30
0.0
 10
297.4854514829195
 20
381.1451955811352
 30
0.0
 10
297.2360668233371
 20
381.197946215255
 30
0.0
 10
297.1123955382184
 20
381.2367430939951
 30
0.0
 10
296.8760195061232
 20
381.3369296908443
 30
0.0
 10
296.7639898677821
 20
381.3977145384007
 30
0.0
 10
296.552065680861
 20
381.5403519423456
 30
0.0
 10
296.451482053949
 20
381.6231481841132
 30
0.0
 10
296.2707203317761
 20
381.8037895781894
 30
0.0
 10
296.1895628055084
 20
381.9020507749435
 30
0.0
 10
296.0459165495594
 20
382.1146454001238
 30
0.0
 10
295.9840147954852
 20
382.2286709062229
 30
0.0
 10
295.834493829187
 20
382.5806324262501
 30
0.0
 10
295.7795133742391
 20
382.8364422749605
 30
0.0
 10
295.7752394864656
 20
383.094909168763
 30
0.0
  0
LINE
  5
182
330
1F
100
AcDbEntity
  8
0
  6
Continuous
 62
     7
370
    25
100
AcDbLine
 10
230.80769355
 20
421.1614541449
 30
0.0
 11
280.80769355
 21
421.1614541449
 31
0.0
  0
ARC
  5
183
330
1F
100
AcDbEntity
  8
0
  6
Continuous
 62
     7
370
    25
100
AcDbCircle
 10
230.80769355
 20
426.1614541449
 30
0.0
 40
5.0
100
AcDbArc
 50
180.0
 51
270.0
  0
LINE
  5
184
330
1F
100
AcDbEntity
  8
0
  6
Continuous
 62
     7
370
    25
100
AcDbLine
 10
225.80769355
 20
426.1614541449
 30
0.0
 11
225.80769355
 21
436.1614541449
 31
0.0
  0
ARC
  5
185
330
1F
100
AcDbEntity
  8
0
  6
Continuous
 62
     7
370
    25
100
AcDbCircle
 10
280.80769355
 20
426.1614541449
 30
0.0
 40
4.999999999999091
100
AcDbArc
 50
270.0
 51
0.0
  0
LINE
  5
186
330
1F
100
AcDbEntity
  8
0
  6
Continuous
 62
     7
370
    25
100
AcDbLine
 10
285.80769355
 20
436.1614541449
 30
0.0
 11
285.80769355
 21
426.1614541449
 31
0.0
  0
LINE
  5
187
330
1F
100
AcDbEntity
  8
0
  6
Continuous
 62
     7
370
    25
100
AcDbLine
 10
285.7909604413
 20
436.1614541449
 30
0.0
 11
285.80769355
 21
436.1614541449
 31
0.0
  0
LINE
  5
188
330
1F
100
AcDbEntity
  8
0
  6
Continuous
 62
     7
370
    25
100
AcDbLine
 10
226.80769355
 20
437.1614541449
 30
0.0
 11
284.80769355
 21
437.1614541449
 31
0.0
  0
SPLINE
  5
189
330
1F
100
AcDbEntity
  8
0
  6
Continuous
 62
     7
370
    25
100
AcDbSpline
210
0.0
220
0.0
230
1.0
 70
     8
 71
     3
 72
    18
 73
    14
 74
     0
 42
0.00000001
 43
0.00000001
 40
0.0
 40
0.0
 40
0.0
 40
0.0
 40
0.0526861538678192
 40
0.1068442195266497
 40
0.1624742253475402
 40
0.2195761899531427
 40
0.2992900219644782
 40
0.4433941507562712
 40
0.5667180596553584
 40
0.7030369359595456
 40
0.8676134508558063
 40
0.9666892148119217
 40
1.0
 40
1.0
 40
1.0
 40
1.0
 10
225.8076935500499
 20
436.1614541448613
 30
0.0
 10
225.8083529168124
 20
436.1890101726119
 30
0.0
 10
225.8096900713009
 20
436.2448920706462
 30
0.0
 10
225.8207100006291
 20
436.3292826740338
 30
0.0
 10
225.8389217533052
 20
436.4147127209372
 30
0.0
 10
225.8687082767701
 20
436.5109784476784
 30
0.0
 10
225.926963493233
 20
436.6461769787827
 30
0.0
 10
226.0277884988688
 20
436.7991238373778
 30
0.0
 10
226.1791028884059
 20
436.9480895881644
 30
0.0
 10
226.3667491543479
 20
437.0695326774515
 30
0.0
 10
226.5664995418294
 20
437.1392207046221
 30
0.0
 10
226.7210570543207
 20
437.1600476412148
 30
0.0
 10
226.7902766753486
 20
437.1611713898445
 30
0.0
 10
226.8076935499614
 20
437.1614541447727
 30
0.0
  0
LINE
  5
18A
330
1F
100
AcDbEntity
  8
0
  6
Continuous
 62
     7
370
    25
100
AcDbLine
 10
267.2581451554
 20
420.9114541449
 30
0.0
 11
244.3581451554
 21
420.9114541449
 31
0.0
  0
LINE
  5
18B
330
1F
100
AcDbEntity
  8
0
  6
Continuous
 62
     7
370
    25
100
AcDbLine
 10
256.3587967466
 20
420.2114541449
 30
0.0
 11
258.0456186922
 21
420.2114541449
 31
0.0
  0
LINE
  5
18C
330
1F
100
AcDbEntity
  8
0
  6
Continuous
 62
     7
370
    25
100
AcDbLine
 10
256.3587967466
 20
420.2114541449
 30
0.0
 11
256.3587967466
 21
419.9114541449
 31
0.0
  0
LINE
  5
18D
330
1F
100
AcDbEntity
  8
0
  6
Continuous
 62
     7
370
    25
100
AcDbLine
 10
256.3587967466
 20
419.9114541449
 30
0.0
 11
254.1678622788
 21
419.9114541449
 31
0.0
  0
LINE
  5
18E
330
1F
100
AcDbEntity
  8
0
  6
Continuous
 62
     7
370
    25
100
AcDbLine
 10
254.1678622788
 20
419.9114541449
 30
0.0
 11
254.1678622788
 21
420.7114541449
 31
0.0
  0
LINE
  5
18F
330
1F
100
AcDbEntity
  8
0
  6
Continuous
 62
     7
370
    25
100
AcDbLine
 10
248.9847167341
 20
420.7114541449
 30
0.0
 11
254.1678622788
 21
420.7114541449
 31
0.0
  0
LINE
  5
190
330
1F
100
AcDbEntity
  8
0
  6
Continuous
 62
     7
370
    25
100
AcDbLine
 10
248.9847167341
 20
420.7114541449
 30
0.0
 11
248.9847167341
 21
419.9114541449
 31
0.0
  0
LINE
  5
191
330
1F
100
AcDbEntity
  8
0
  6
Continuous
 62
     7
370
    25
100
AcDbLine
 10
248.9847167341
 20
419.9114541449
 30
0.0
 11
245.3493326955
 21
419.9114541449
 31
0.0
  0
LINE
  5
192
330
1F
100
AcDbEntity
  8
0
  6
Continuous
 62
     7
370
    25
100
AcDbLine
 10
245.3493326955
 20
419.9114541449
 30
0.0
 11
245.3493326955
 21
420.7114541449
 31
0.0
  0
LINE
  5
193
330
1F
100
AcDbEntity
  8
0
  6
Continuous
 62
     7
370
    25
100
AcDbLine
 10
244.5581451554
 20
420.7114541449
 30
0.0
 11
245.3493326955
 21
420.7114541449
 31
0.0
  0
LINE
  5
194
330
1F
100
AcDbEntity
  8
0
  6
Continuous
 62
     7
370
    25
100
AcDbLine
 10
244.6503033036
 20
420.7114541449
 30
0.0
 11
244.6503033036
 21
419.9114541449
 31
0.0
  0
LINE
  5
195
330
1F
100
AcDbEntity
  8
0
  6
Continuous
 62
     7
370
    25
100
AcDbLine
 10
266.9659870073
 20
420.7114541449
 30
0.0
 11
267.0581451554
 21
420.7114541449
 31
0.0
  0
LINE
  5
196
330
1F
100
AcDbEntity
  8
0
  6
Continuous
 62
     7
370
    25
100
AcDbLine
 10
266.9659870073
 20
420.7114541449
 30
0.0
 11
266.9659870073
 21
419.9114541449
 31
0.0
  0
LINE
  5
197
330
1F
100
AcDbEntity
  8
0
  6
Continuous
 62
     7
370
    25
100
AcDbLine
 10
266.9659870073
 20
419.9114541449
 30
0.0
 11
264.6266747388
 21
419.9114541449
 31
0.0
  0
LINE
  5
198
330
1F
100
AcDbEntity
  8
0
  6
Continuous
 62
     7
370
    25
100
AcDbLine
 10
264.6266747388
 20
419.9114541449
 30
0.0
 11
264.6266747388
 21
420.7114541449
 31
0.0
  0
LINE
  5
199
330
1F
100
AcDbEntity
  8
0
  6
Continuous
 62
     7
370
    25
100
AcDbLine
 10
260.142558586
 20
420.7114541449
 30
0.0
 11
264.6266747388
 21
420.7114541449
 31
0.0
  0
LINE
  5
19A
330
1F
100
AcDbEntity
  8
0
  6
Continuous
 62
     7
370
    25
100
AcDbLine
 10
260.142558586
 20
420.7114541449
 30
0.0
 11
260.142558586
 21
419.9114541449
 31
0.0
  0
LINE
  5
19B
330
1F
100
AcDbEntity
  8
0
  6
Continuous
 62
     7
370
    25
100
AcDbLine
 10
260.142558586
 20
419.9114541449
 30
0.0
 11
258.0456186922
 21
419.9114541449
 31
0.0
  0
LINE
  5
19C
330
1F
100
AcDbEntity
  8
0
  6
Continuous
 62
     7
370
    25
100
AcDbLine
 10
258.0456186922
 20
419.9114541449
 30
0.0
 11
258.0456186922
 21
420.2114541449
 31
0.0
  0
LINE
  5
19D
330
1F
100
AcDbEntity
  8
0
  6
Continuous
 62
     7
370
    25
100
AcDbLine
 10
257.8897775869
 20
420.2114541449
 30
0.0
 11
257.8897775869
 21
419.9114541449
 31
0.0
  0
LINE
  5
19E
330
1F
100
AcDbEntity
  8
0
  6
Continuous
 62
     7
370
    25
100
AcDbLine
 10
257.8897775869
 20
419.9114541449
 30
0.0
 11
258.0456186922
 21
419.9114541449
 31
0.0
  0
LINE
  5
19F
330
1F
100
AcDbEntity
  8
0
  6
Continuous
 62
     7
370
    25
100
AcDbLine
 10
265.0081451554
 20
419.1114541449
 30
0.0
 11
246.6081451554
 21
419.1114541449
 31
0.0
  0
LINE
  5
1A0
330
1F
100
AcDbEntity
  8
0
  6
Continuous
 62
     7
370
    25
100
AcDbLine
 10
249.7428754476
 20
420.7114541449
 30
0.0
 11
249.7428754476
 21
419.9114541449
 31
0.0
  0
LINE
  5
1A1
330
1F
100
AcDbEntity
  8
0
  6
Continuous
 62
     7
370
    25
100
AcDbLine
 10
248.9847167341
 20
419.9114541449
 30
0.0
 11
249.7428754476
 21
419.9114541449
 31
0.0
  0
LWPOLYLINE
  5
1A2
330
1F
100
AcDbEntity
  8
0
  6
Continuous
 62
     7
370
    25
100
AcDbPolyline
 90
       16
 70
   128
 43
0.0
 10
247.4627636458
 20
419.1114541449
 10
247.8943447563
 20
418.8725825029
 10
248.6601736386
 20
418.6449560524
 10
249.7277109916
 20
418.4382464128
 10
251.0515982243
 20
418.2612364694
 10
252.5755846964
 20
418.121447197
 10
254.2349177514
 20
418.0248181016
 10
255.9590939927
 20
417.9754548565
 10
257.6748549015
 20
417.9754548565
 10
259.309299518
 20
418.0248181016
 10
260.7929819302
 20
418.121447197
 10
262.062861961
 20
418.2612364694
 10
263.0649836818
 20
418.4382464128
 10
263.7567679461
 20
418.6449560524
 10
264.1088215344
 20
418.8725825029
 10
264.106186043
 20
419.1114541449
  0
LINE
  5
1A3
330
1F
100
AcDbEntity
  8
0
  6
Continuous
 62
     7
370
    25
100
AcDbLine
 10
263.6468381184
 20
420.7114541449
 30
0.0
 11
263.6468381184
 21
419.9114541449
 31
0.0
  0
LINE
  5
1A4
330
1F
100
AcDbEntity
  8
0
  6
Continuous
 62
     7
370
    25
100
AcDbLine
 10
263.6468381184
 20
419.9114541449
 30
0.0
 11
264.6266747388
 21
419.9114541449
 31
0.0
  0
LINE
  5
1A5
330
1F
100
AcDbEntity
  8
0
  6
Continuous
 62
     7
370
    25
100
AcDbLine
 10
244.6503033036
 20
419.9114541449
 30
0.0
 11
245.3493326955
 21
419.9114541449
 31
0.0
  0
SPLINE
  5
1A6
330
1F
100
AcDbEntity
  8
0
  6
Continuous
 62
     7
370
    25
100
AcDbSpline
210
0.0
220
0.0
230
1.0
 70
    24
 71
     3
 72
    27
 73
    23
 74
     0
 42
0.00000001
 43
0.00000001
 40
0.0
 40
0.0
 40
0.0
 40
0.0
 40
0.0623326347783199
 40
0.1248348434029172
 40
0.2500861294499222
 40
0.3204970787013188
 40
0.3752491149712824
 40
0.4377207575018743
 40
0.5001548181785279
 40
0.5626211049248807
 40
0.6251956427551137
 40
0.6877529706573925
 40
0.750222431119889
 40
0.8125182995051619
 40
0.8437941554388515
 40
0.875020157087175
 40
0.9057930893943231
 40
0.9374755727307001
 40
0.9527942074705442
 40
0.9687388011878199
 40
0.9839325423538945
 40
1.0
 40
1.0
 40
1.0
 40
1.0
 10
284.807693549962
 20
437.1614541448613
 30
0.0
 10
284.8081627930554
 20
437.1614541448613
 30
0.0
 10
284.8091025558023
 20
437.1614541448613
 30
0.0
 10
284.8094699877303
 20
437.1614541448613
 30
0.0
 10
284.8133921138207
 20
437.1614541448613
 30
0.0
 10
284.8280311212565
 20
437.1614541448613
 30
0.0
 10
284.8479379219826
 20
437.1614541448613
 30
0.0
 10
284.8860567531131
 20
437.1614541448613
 30
0.0
 10
284.9590456319719
 20
437.1614541448613
 30
0.0
 10
285.0796733109278
 20
437.1614541448613
 30
0.0
 10
285.2542955863059
 20
437.1614541448613
 30
0.0
 10
285.5405862071841
 20
437.1614541448613
 30
0.0
 10
286.0096027151125
 20
437.1614541448613
 30
0.0
 10
286.6380274505683
 20
437.1614541448613
 30
0.0
 10
287.3153496844969
 20
437.1614541448613
 30
0.0
 10
287.9157368213724
 20
437.1614541448613
 30
0.0
 10
288.5868249337392
 20
437.1614541448613
 30
0.0
 10
289.1836644977741
 20
437.1614541448613
 30
0.0
 10
289.6791304412964
 20
437.1614541448613
 30
0.0
 10
290.049195303205
 20
437.1614541448613
 30
0.0
 10
290.4274727808129
 20
437.1614541448613
 30
0.0
 10
290.6786126204646
 20
437.1614541448613
 30
0.0
 10
290.8076920828709
 20
437.1614541448613
 30
0.0
  0
SPLINE
  5
1A7
330
1F
100
AcDbEntity
  8
0
  6
Continuous
 62
     7
370
    25
100
AcDbSpline
210
0.0
220
0.0
230
1.0
 70
    24
 71
     3
 72
    32
 73
    28
 74
     0
 42
0.00000001
 43
0.00000001
 40
0.0
 40
0.0
 40
0.0
 40
0.0
 40
0.0110988333870432
 40
0.0219053505057177
 40
0.0324341510993226
 40
0.0427010197390059
 40
0.0527229786997077
 40
0.0625183271455943
 40
0.094294729322561
 40
0.1249653084979652
 40
0.1606509142104914
 40
0.1963859537708268
 40
0.2224069374316677
 40
0.2498452752136593
 40
0.3070959923671771
 40
0.3748728232715535
 40
0.4373540921675809
 40
0.4998329897769085
 40
0.5623469761339446
 40
0.6248976669203072
 40
0.6781539483071554
 40
0.749947401587622
 40
0.8130782700271526
 40
0.8749486689261962
 40
0.9374955510561591
 40
0.9687560715874722
 40
0.9999999999999999
 40
0.9999999999999999
 40
0.9999999999999999
 40
0.9999999999999999
 10
220.8076950167709
 20
437.1614541448613
 30
0.0
 10
220.896865215222
 20
437.1614541448613
 30
0.0
 10
221.0728570860449
 20
437.1614541448613
 30
0.0
 10
221.3331153541784
 20
437.1614541448613
 30
0.0
 10
221.5860153957224
 20
437.1614541448613
 30
0.0
 10
221.8315503816934
 20
437.1614541448613
 30
0.0
 10
222.069745857065
 20
437.1614541448613
 30
0.0
 10
222.474630018974
 20
437.1614541448613
 30
0.0
 10
223.0295218929261
 20
437.1614541448613
 30
0.0
 10
223.7325130691815
 20
437.1614541448613
 30
0.0
 10
224.3819625417295
 20
437.1614541448613
 30
0.0
 10
224.8928150152221
 20
437.1614541448613
 30
0.0
 10
225.2779333295014
 20
437.1614541448613
 30
0.0
 10
225.6738136809716
 20
437.1614541448613
 30
0.0
 10
226.0605674076334
 20
437.1614541448613
 30
0.0
 10
226.3547062799502
 20
437.1614541448613
 30
0.0
 10
226.5383613223056
 20
437.1614541448613
 30
0.0
 10
226.6583204935145
 20
437.1614541448613
 30
0.0
 10
226.7291157315356
 20
437.1614541448613
 30
0.0
 10
226.7646864304548
 20
437.1614541448613
 30
0.0
 10
226.7844966058081
 20
437.1614541448613
 30
0.0
 10
226.7982860546406
 20
437.1614541448613
 30
0.0
 10
226.8076564147267
 20
437.1614541448613
 30
0.0
 10
226.8094288362456
 20
437.1614541448613
 30
0.0
 10
226.806772603694
 20
437.1614541448613
 30
0.0
 10
226.8056320831039
 20
437.1614541448613
 30
0.0
 10
226.8070065159589
 20
437.1614541448613
 30
0.0
 10
226.8076935499614
 20
437.1614541448613
 30
0.0
  0
SPLINE
  5
1A8
330
1F
100
AcDbEntity
  8
0
  6
Continuous
 62
     7
370
    25
100
AcDbSpline
210
0.0
220
0.0
230
1.0
 70
    24
 71
     3
 72
    14
 73
    10
 74
     0
 42
0.00000001
 43
0.00000001
 40
0.0
 40
0.0
 40
0.0
 40
0.0
 40
0.25
 40
0.25
 40
0.5
 40
0.5
 40
0.75
 40
0.75
 40
1.0
 40
1.0
 40
1.0
 40
1.0
 10
119.808560573892
 20
437.1614863506866
 30
0.0
 10
119.808560573892
 20
437.1615624320658
 30
0.0
 10
119.8085605738919
 20
437.1360582786617
 30
0.0
 10
119.808560573892
 20
437.0327489045384
 30
0.0
 10
119.8085605738921
 20
436.9579867729917
 30
0.0
 10
119.808560573892
 20
436.765629602707
 30
0.0
 10
119.808560573892
 20
436.6520500628575
 30
0.0
 10
119.8085605738919
 20
436.4026143428781
 30
0.0
 10
119.8085605738919
 20
436.2684265861053
 30
0.0
 10
119.8085605738919
 20
436.1329482677918
 30
0.0
  0
LINE
  5
1A9
330
1F
100
AcDbEntity
  8
0
  6
Continuous
 62
     7
370
    25
100
AcDbLine
 10
110.4454083616
 20
397.4878335873
 30
0.0
 11
118.9986737999
 21
415.9160940518
 31
0.0
  0
LWPOLYLINE
  5
1AA
330
1F
100
AcDbEntity
  8
0
  6
Continuous
 62
     7
370
    25
100
AcDbPolyline
 90
        9
 70
   128
 43
0.0
 10
109.9889502848
 20
396.5043763053
 10
109.9977178325
 20
396.5232672207
 10
110.0236847138
 20
396.5792145656
 10
110.065854578
 20
396.6700716372
 10
110.122609365
 20
396.7923522442
 10
110.1917713903
 20
396.9413644728
 10
110.270686903
 20
397.111390715
 10
110.3563279102
 20
397.2959070541
 10
110.4454083616
 20
397.4878335873
  0
LINE
  5
1AB
330
1F
100
AcDbEntity
  8
0
  6
Continuous
 62
     7
370
    25
100
AcDbLine
 10
109.9890124279
 20
396.5043231389
 30
0.0
 11
109.9889502848
 21
396.5043763053
 31
0.0
  0
LWPOLYLINE
  5
1AC
330
1F
100
AcDbEntity
  8
0
  6
Continuous
 62
     7
370
    25
100
AcDbPolyline
 90
        9
 70
   128
 43
0.0
 10
110.4454738864
 20
397.4877775276
 10
110.3563933608
 20
397.295851058
 10
110.2707521542
 20
397.1113348895
 10
110.1918363248
 20
396.9413089182
 10
110.1226738776
 20
396.7922970506
 10
110.0659185796
 20
396.6700168807
 10
110.023748135
 20
396.5791603057
 10
109.9977806262
 20
396.5232134977
 10
109.9890124279
 20
396.5043231389
  0
LINE
  5
1AD
330
1F
100
AcDbEntity
  8
0
  6
Continuous
 62
     7
370
    25
100
AcDbLine
 10
111.7617662235
 20
400.3237673923
 30
0.0
 11
110.4454738864
 21
397.4877775276
 31
0.0
  0
LINE
  5
1AE
330
1F
100
AcDbEntity
  8
0
  6
Continuous
 62
     7
370
    25
100
AcDbLine
 10
109.8430816403
 20
396.1898992749
 30
0.0
 11
111.7617682013
 21
400.3237652325
 31
0.0
  0
SPLINE
  5
1AF
330
1F
100
AcDbEntity
  8
0
  6
Continuous
 62
     7
370
    25
100
AcDbSpline
210
0.0
220
0.0
230
1.0
 70
     8
 71
     3
 72
    16
 73
    12
 74
     0
 42
0.00000001
 43
0.00000001
 40
0.0
 40
0.0
 40
0.0
 40
0.0
 40
0.1250000000000009
 40
0.1250000000000009
 40
0.2500000000000018
 40
0.2500000000000018
 40
0.5000000000000011
 40
0.5000000000000011
 40
0.7500000000000006
 40
0.7500000000000006
 40
1.0
 40
1.0
 40
1.0
 40
1.0
 10
109.3657059064261
 20
395.1613845376235
 30
0.0
 10
109.3658841084686
 20
395.1617681210357
 30
0.0
 10
109.3691347553521
 20
395.1687713826021
 30
0.0
 10
109.3824711946737
 20
395.1975044398346
 30
0.0
 10
109.3925485407102
 20
395.2192160337443
 30
0.0
 10
109.4311564808008
 20
395.3023970048896
 30
0.0
 10
109.4686742786387
 20
395.3832296165706
 30
0.0
 10
109.558645191295
 20
395.5770736389965
 30
0.0
 10
109.6114802843422
 20
395.69090802471
 30
0.0
 10
109.7236535661408
 20
395.9325881396393
 30
0.0
 10
109.782999168847
 20
396.0604498394176
 30
0.0
 10
109.843081640327
 20
396.1898992749016
 30
0.0
  0
LINE
  5
1B0
330
1F
100
AcDbEntity
  8
0
  6
Continuous
 62
     7
370
    25
100
AcDbLine
 10
109.3656796453
 20
395.161413494
 30
0.0
 11
109.3657059064
 21
395.1613845376
 31
0.0
  0
LINE
  5
1B1
330
1F
100
AcDbEntity
  8
0
  6
Continuous
 62
     7
370
    25
100
AcDbLine
 10
109.3656694913
 20
395.1614216938
 30
0.0
 11
109.3656796453
 21
395.161413494
 31
0.0
  0
LINE
  5
1B2
330
1F
100
AcDbEntity
  8
0
  6
Continuous
 62
     7
370
    25
100
AcDbLine
 10
109.3656383093
 20
395.1614391249
 30
0.0
 11
109.3656694913
 21
395.1614216938
 31
0.0
  0
SPLINE
  5
1B3
330
1F
100
AcDbEntity
  8
0
  6
Continuous
 62
     7
370
    25
100
AcDbSpline
210
0.0
220
0.0
230
1.0
 70
     8
 71
     3
 72
    14
 73
    10
 74
     0
 42
0.00000001
 43
0.00000001
 40
0.0
 40
0.0
 40
0.0
 40
0.0
 40
0.25
 40
0.25
 40
0.5
 40
0.5
 40
0.75
 40
0.75
 40
1.0
 40
1.0
 40
1.0
 40
1.0
 10
109.8429840599752
 20
396.1898995722748
 30
0.0
 10
109.782804844524
 20
396.060241708188
 30
0.0
 10
109.7241544047571
 20
395.9338775074417
 30
0.0
 10
109.6112096717617
 20
395.6905343143849
 30
0.0
 10
109.5591518518228
 20
395.5783738766815
 30
0.0
 10
109.4683750787759
 20
395.3827917500532
 30
0.0
 10
109.431375597297
 20
395.3030747255393
 30
0.0
 10
109.3796108333004
 20
395.1915447555675
 30
0.0
 10
109.3659933711231
 20
395.1622048336091
 30
0.0
 10
109.365638309307
 20
395.161439124864
 30
0.0
  0
LINE
  5
1B4
330
1F
100
AcDbEntity
  8
0
  6
Continuous
 62
     7
370
    25
100
AcDbLine
 10
117.7201811741
 20
413.161549688
 30
0.0
 11
109.84298406
 21
396.1898995723
 31
0.0
  0
LINE
  5
1B5
330
1F
100
AcDbEntity
  8
0
  6
Continuous
 62
     7
370
    25
100
AcDbLine
 10
119.6229319246
 20
417.261081479
 30
0.0
 11
117.7201811741
 21
413.161549688
 31
0.0
  0
LINE
  5
1B6
330
1F
100
AcDbEntity
  8
0
  6
Continuous
 62
     7
370
    25
100
AcDbLine
 10
118.9943222674
 20
415.9067199453
 30
0.0
 11
119.6229319246
 21
417.2610777208
 31
0.0
  0
LINE
  5
1B7
330
1F
100
AcDbEntity
  8
0
  6
Continuous
 62
     7
370
    25
100
AcDbLine
 10
109.3824833628
 20
395.1999773666
 30
0.0
 11
105.0372104882
 21
395.1999257499
 31
0.0
  0
SPLINE
  5
1B8
330
1F
100
AcDbEntity
  8
0
  6
Continuous
 62
     7
370
    25
100
AcDbSpline
210
0.0
220
0.0
230
1.0
 70
     8
 71
     3
 72
    12
 73
     8
 74
     0
 42
0.00000001
 43
0.00000001
 40
0.0
 40
0.0
 40
0.0
 40
0.0
 40
0.4999999999999905
 40
0.4999999999999905
 40
0.7499999999999952
 40
0.7499999999999952
 40
1.0
 40
1.0
 40
1.0
 40
1.0
 10
109.3648239002007
 20
395.1619333235761
 30
0.0
 10
108.6439360012444
 20
395.1618423933395
 30
0.0
 10
107.9230492312188
 20
395.161751462813
 30
0.0
 10
106.841726629884
 20
395.1616150660861
 30
0.0
 10
106.4812877425873
 20
395.161569600462
 30
0.0
 10
105.7604207013861
 20
395.1614786689501
 30
0.0
 10
105.3999802188426
 20
395.161433203365
 30
0.0
 10
105.0395904994818
 20
395.1613877365345
 30
0.0
  0
SPLINE
  5
1B9
330
1F
100
AcDbEntity
  8
0
  6
Continuous
 62
     7
370
    25
100
AcDbSpline
210
0.0
220
0.0
230
1.0
 70
     8
 71
     3
 72
     8
 73
     4
 74
     0
 42
0.00000001
 43
0.00000001
 40
0.0
 40
0.0
 40
0.0
 40
0.0
 40
1.0
 40
1.0
 40
1.0
 40
1.0
 10
109.3824833628111
 20
395.1999773666434
 30
0.0
 10
109.3718970715908
 20
395.1771712549723
 30
0.0
 10
109.3659470011436
 20
395.164352930927
 30
0.0
 10
109.364823900206
 20
395.1619333235771
 30
0.0
  0
SPLINE
  5
1BA
330
1F
100
AcDbEntity
  8
0
  6
Continuous
 62
     7
370
    25
100
AcDbSpline
210
0.0
220
0.0
230
1.0
 70
     8
 71
     3
 72
    12
 73
     8
 74
     0
 42
0.00000001
 43
0.00000001
 40
0.0
 40
0.0
 40
0.0
 40
0.0
 40
0.141597321692326
 40
0.3132710284522192
 40
0.5148842428809568
 40
0.7449274628310694
 40
0.9999999999999999
 40
0.9999999999999999
 40
0.9999999999999999
 40
0.9999999999999999
 10
83.27290922701106
 20
463.0277040624892
 30
0.0
 10
83.27387937068632
 20
463.0278120034928
 30
0.0
 10
83.27602572418552
 20
463.0280508130184
 30
0.0
 10
83.29593786694983
 20
463.0310801388971
 30
0.0
 10
83.33654955878706
 20
463.0379349377214
 30
0.0
 10
83.40446527578341
 20
463.0497466589247
 30
0.0
 10
83.47347586573117
 20
463.061522401162
 30
0.0
 10
83.50976144502062
 20
463.0677140541963
 30
0.0
  0
LINE
  5
1BB
330
1F
100
AcDbEntity
  8
0
  6
Continuous
 62
     7
370
    25
100
AcDbLine
 10
290.8076920829
 20
437.1614541449
 30
0.0
 11
389.8081451554
 21
437.1614541449
 31
0.0
  0
LINE
  5
1BC
330
1F
100
AcDbEntity
  8
0
  6
Continuous
 62
     7
370
    25
100
AcDbLine
 10
121.8081451554
 20
437.1614541449
 30
0.0
 11
220.8076950168
 21
437.1614541449
 31
0.0
  0
LINE
  5
1BD
330
1F
100
AcDbEntity
  8
0
  6
Continuous
 62
     7
370
    25
100
AcDbLine
 10
96.3089412996
 20
395.1612488545
 30
0.0
 11
94.3090879433
 21
395.1612191525
 31
0.0
  0
SPLINE
  5
1BE
330
1F
100
AcDbEntity
  8
0
  6
Continuous
 62
     7
370
    25
100
AcDbSpline
210
0.0
220
0.0
230
1.0
 70
     8
 71
     3
 72
    14
 73
    10
 74
     0
 42
0.00000001
 43
0.00000001
 40
0.0
 40
0.0
 40
0.0
 40
0.0
 40
0.25
 40
0.25
 40
0.5
 40
0.5
 40
0.75
 40
0.75
 40
1.0
 40
1.0
 40
1.0
 40
1.0
 10
93.28048418921934
 20
396.1898480223957
 30
0.0
 10
93.28048562917401
 20
396.0686273471136
 30
0.0
 10
93.30258003152025
 20
395.9378456640954
 30
0.0
 10
93.40283565962898
 20
395.6846138963402
 30
0.0
 10
93.4813366253809
 20
395.5629488608305
 30
0.0
 10
93.68218400089296
 20
395.3621062624547
 30
0.0
 10
93.80385090397678
 20
395.2836081901041
 30
0.0
 10
94.05708505749305
 20
395.1833585834666
 30
0.0
 10
94.18786726675319
 20
395.161267290536
 30
0.0
 10
94.30908794256041
 20
395.1612687323365
 30
0.0
  0
SPLINE
  5
1BF
330
1F
100
AcDbEntity
  8
0
  6
Continuous
 62
     7
370
    25
100
AcDbSpline
210
0.0
220
0.0
230
1.0
 70
     8
 71
     3
 72
    10
 73
     6
 74
     0
 42
0.00000001
 43
0.00000001
 40
0.0
 40
0.0
 40
0.0
 40
0.0
 40
0.5
 40
0.5
 40
1.0
 40
1.0
 40
1.0
 40
1.0
 10
93.51087462705216
 20
396.1898516457565
 30
0.0
 10
93.43264690443232
 20
396.1898505849653
 30
0.0
 10
93.3732471520472
 20
396.1898497295526
 30
0.0
 10
93.29728128406443
 20
396.1898485219178
 30
0.0
 10
93.2804841893402
 20
396.189848167455
 30
0.0
 10
93.28048418922025
 20
396.1898480223934
 30
0.0
  0
SPLINE
  5
1C0
330
1F
100
AcDbEntity
  8
0
  6
Continuous
 62
     7
370
    25
100
AcDbSpline
210
0.0
220
0.0
230
1.0
 70
     8
 71
     3
 72
    10
 73
     6
 74
     0
 42
0.00000001
 43
0.00000001
 40
0.0
 40
0.0
 40
0.0
 40
0.0
 40
0.5
 40
0.5
 40
1.0
 40
1.0
 40
1.0
 40
1.0
 10
94.3090757156056
 20
396.1898616465743
 30
0.0
 10
94.17278145972647
 20
396.1898600275534
 30
0.0
 10
94.02421535846783
 20
396.1898582241989
 30
0.0
 10
93.7427359506809
 20
396.1898547057093
 30
0.0
 10
93.61132004420472
 20
396.1898530078262
 30
0.0
 10
93.51087462705216
 20
396.1898516457565
 30
0.0
  0
LINE
  5
1C1
330
1F
100
AcDbEntity
  8
0
  6
Continuous
 62
     7
370
    25
100
AcDbLine
 10
104.9155119532
 20
395.1613766799
 30
0.0
 11
96.3089412996
 21
395.1612488545
 31
0.0
  0
ARC
  5
1C2
330
1F
100
AcDbEntity
  8
0
  6
Continuous
 62
     7
370
    25
100
AcDbCircle
 10
117.8088120329
 20
418.1030844592
 30
0.0
 40
2.000000000004028
100
AcDbArc
 50
335.1021680986
 51
0.0006698009
  0
LINE
  5
1C3
330
1F
100
AcDbEntity
  8
0
  6
Continuous
 62
     7
370
    25
100
AcDbLine
 10
119.8088120328
 20
418.1031078396
 30
0.0
 11
119.8086012598
 21
436.1329482684
 31
0.0
  0
LINE
  5
1C4
330
1F
100
AcDbEntity
  8
0
  6
Continuous
 62
     7
370
    25
100
AcDbLine
 10
91.7802496055
 20
436.1626994701
 30
0.0
 11
86.2990733299
 21
463.5387903704
 31
0.0
  0
SPLINE
  5
1C5
330
1F
100
AcDbEntity
  8
0
  6
Continuous
 62
     7
370
    25
100
AcDbSpline
210
0.0
220
0.0
230
1.0
 70
     8
 71
     3
 72
     8
 73
     4
 74
     0
 42
0.00000001
 43
0.00000001
 40
42.35756088351003
 40
42.35756088351003
 40
42.35756088351003
 40
42.35756088351003
 40
43.16455052238129
 40
43.16455052238129
 40
43.16455052238129
 40
43.16455052238129
 10
91.78024960592433
 20
436.1626994704843
 30
0.0
 10
91.73625379115168
 20
436.4212495581697
 30
0.0
 10
91.69260741511204
 20
436.6759280499191
 30
0.0
 10
91.66104329915728
 20
436.8600894764455
 30
0.0
  0
SPLINE
  5
1C6
330
1F
100
AcDbEntity
  8
0
  6
Continuous
 62
     7
370
    25
100
AcDbSpline
210
0.0
220
0.0
230
1.0
 70
     8
 71
     3
 72
     8
 73
     4
 74
     0
 42
0.00000001
 43
0.00000001
 40
41.93241741382878
 40
41.93241741382878
 40
41.93241741382878
 40
41.93241741382878
 40
42.35756088351003
 40
42.35756088351003
 40
42.35756088351003
 40
42.35756088351003
 10
91.66104329915728
 20
436.8600894764455
 30
0.0
 10
91.64410117770308
 20
436.958938601837
 30
0.0
 10
91.63065699235231
 20
437.0373724044187
 30
0.0
 10
91.62180247919052
 20
437.0890219325207
 30
0.0
  0
SPLINE
  5
1C7
330
1F
100
AcDbEntity
  8
0
  6
Continuous
 62
     7
370
    25
100
AcDbSpline
210
0.0
220
0.0
230
1.0
 70
     8
 71
     3
 72
     8
 73
     4
 74
     0
 42
0.00000001
 43
0.00000001
 40
41.54207261304423
 40
41.54207261304423
 40
41.54207261304423
 40
41.54207261304423
 40
41.93240655977063
 40
41.93240655977063
 40
41.93240655977063
 40
41.93240655977063
 10
91.62180179968662
 20
437.0890258961552
 30
0.0
 10
91.61365646211148
 20
437.136538710159
 30
0.0
 10
91.60940338695927
 20
437.161337201795
 30
0.0
 10
91.60941197588538
 20
437.1612672742005
 30
0.0
  0
LINE
  5
1C8
330
1F
100
AcDbEntity
  8
0
  6
Continuous
 62
     7
370
    25
100
AcDbLine
 10
113.3085246321
 20
437.1614915018
 30
0.0
 11
91.6094119759
 21
437.1612672742
 31
0.0
  0
LINE
  5
1C9
330
1F
100
AcDbEntity
  8
0
  6
Continuous
 62
     7
370
    25
100
AcDbLine
 10
86.299073329
 20
463.5387903696
 30
0.0
 11
86.2990701567
 21
463.5387881754
 31
0.0
  0
ARC
  5
1CA
330
1F
100
AcDbEntity
  8
0
  6
Continuous
 62
     7
370
    25
100
AcDbCircle
 10
389.8081451554
 20
396.1614541449
 30
0.0
 40
0.999999999999261
100
AcDbArc
 50
270.0
 51
0.0000000001
  0
LINE
  5
1CB
330
1F
100
AcDbEntity
  8
0
  6
Continuous
 62
     7
370
    25
100
AcDbLine
 10
390.8081451554
 20
436.1614541449
 30
0.0
 11
390.8081451554
 21
396.1614541449
 31
0.0
  0
LINE
  5
1CC
330
1F
100
AcDbEntity
  8
0
  6
Continuous
 62
     7
370
    25
100
AcDbLine
 10
121.8081451554
 20
395.1614541449
 30
0.0
 11
389.8081451554
 21
395.1614541449
 31
0.0
  0
LINE
  5
1CD
330
1F
100
AcDbEntity
  8
0
  6
Continuous
 62
     7
370
    25
100
AcDbLine
 10
84.1158099264
 20
464.2132501136
 30
0.0
 11
86.0948433487
 21
464.5475485153
 31
0.0
  0
SPLINE
  5
1CE
330
1F
100
AcDbEntity
  8
0
  6
Continuous
 62
     7
370
    25
100
AcDbSpline
210
0.0
220
0.0
230
1.0
 70
     8
 71
     3
 72
    21
 73
    17
 74
     0
 42
0.00000001
 43
0.00000001
 40
0.0
 40
0.0
 40
0.0
 40
0.0
 40
0.0644497833867345
 40
0.1256967720411111
 40
0.1837405986536395
 40
0.2385809195807004
 40
0.2902174157011161
 40
0.338649793555238
 40
0.3838777868869079
 40
0.425901158772493
 40
0.4647197046282119
 40
0.5003332565698965
 40
0.6304254561319863
 40
0.7570652966286617
 40
0.8802557131095257
 40
1.0
 40
1.0
 40
1.0
 40
1.0
 10
86.29907332683639
 20
463.5387903821072
 30
0.0
 10
86.29219881110112
 20
463.572808997559
 30
0.0
 10
86.27879140471647
 20
463.639155693031
 30
0.0
 10
86.2594220323781
 20
463.7351762603566
 30
0.0
 10
86.24140444750594
 20
463.8244854810515
 30
0.0
 10
86.22481202741533
 20
463.9066731168417
 30
0.0
 10
86.2096748480157
 20
463.9815547732334
 30
0.0
 10
86.19599239360112
 20
464.0491351422997
 30
0.0
 10
86.18373754017917
 20
464.1095725590543
 30
0.0
 10
86.17286466496762
 20
464.1631417985249
 30
0.0
 10
86.16330821524542
 20
464.2102133658096
 30
0.0
 10
86.14742176648721
 20
464.2886553730783
 30
0.0
 10
86.12757828814999
 20
464.3870010018119
 30
0.0
 10
86.108822699754
 20
464.4798319173992
 30
0.0
 10
86.09720499175594
 20
464.5371408212762
 30
0.0
 10
86.09577366703446
 20
464.5441376807375
 30
0.0
 10
86.09506815664133
 20
464.5475864837906
 30
0.0
  0
SPLINE
  5
1CF
330
1F
100
AcDbEntity
  8
0
  6
Continuous
 62
     7
370
    25
100
AcDbSpline
210
0.0
220
0.0
230
1.0
 70
     8
 71
     3
 72
    16
 73
    12
 74
     0
 42
0.00000001
 43
0.00000001
 40
0.0
 40
0.0
 40
0.0
 40
0.0
 40
0.0369741612159493
 40
0.1360866160532368
 40
0.2971014615892267
 40
0.4332782409923143
 40
0.556751977520334
 40
0.681204558223964
 40
0.7878361816879116
 40
0.8740487697593476
 40
1.0
 40
1.0
 40
1.0
 40
1.0
 10
389.8081451554488
 20
437.1614541448791
 30
0.0
 10
389.8274755368798
 20
437.1611078482279
 30
0.0
 10
389.8986226869283
 20
437.1598332732851
 30
0.0
 10
390.0531144448208
 20
437.1380525352103
 30
0.0
 10
390.2506836899007
 20
437.0684882542626
 30
0.0
 10
390.436745789566
 20
436.948095506697
 30
0.0
 10
390.5806691540567
 20
436.8063443925765
 30
0.0
 10
390.6858757693113
 20
436.6522154872831
 30
0.0
 10
390.7529110504548
 20
436.4998204421278
 30
0.0
 10
390.7982392459689
 20
436.3385531387875
 30
0.0
 10
390.80445510531
 20
436.2274252876978
 30
0.0
 10
390.8081451554667
 20
436.1614541448795
 30
0.0
  0
LINE
  5
1D0
330
1F
100
AcDbEntity
  8
0
  6
Continuous
 62
     7
370
    25
100
AcDbLine
 10
120.8081451554
 20
396.1614541449
 30
0.0
 11
120.8081451554
 21
436.1614541449
 31
0.0
  0
ARC
  5
1D1
330
1F
100
AcDbEntity
  8
0
  6
Continuous
 62
     7
370
    25
100
AcDbCircle
 10
121.8081451554
 20
396.1614541449
 30
0.0
 40
1.0
100
AcDbArc
 50
180.0
 51
269.9999999999
  0
ARC
  5
1D2
330
1F
100
AcDbEntity
  8
0
  6
Continuous
 62
     7
370
    25
100
AcDbCircle
 10
121.8081451554
 20
436.1614541449
 30
0.0
 40
1.0
100
AcDbArc
 50
90.0
 51
180.0
  0
LINE
  5
1D3
330
1F
100
AcDbEntity
  8
0
  6
Continuous
 62
     7
370
    25
100
AcDbLine
 10
119.8088120328
 20
418.1031040815
 30
0.0
 11
119.8088120346
 21
418.1029573254
 31
0.0
  0
ARC
  5
1D4
330
1F
100
AcDbEntity
  8
0
  6
Continuous
 62
     7
370
    25
100
AcDbCircle
 10
117.808812033
 20
418.103080701
 30
0.0
 40
2.000000005387009
100
AcDbArc
 50
335.1021680987
 51
359.99646555
  0
LINE
  5
1D5
330
1F
100
AcDbEntity
  8
0
  6
Continuous
 62
     7
370
    25
100
AcDbLine
 10
119.8088120328
 20
418.1031078396
 30
0.0
 11
119.8088120328
 21
418.1031040815
 31
0.0
  0
LINE
  5
1D6
330
1F
100
AcDbEntity
  8
0
  6
Continuous
 62
     7
370
    25
100
AcDbLine
 10
105.037210946
 20
395.1613877083
 30
0.0
 11
105.037210946
 21
395.1613878174
 31
0.0
  0
LINE
  5
1D7
330
1F
100
AcDbEntity
  8
0
  6
Continuous
 62
     7
370
    25
100
AcDbLine
 10
109.3648239002
 20
395.1619336635
 30
0.0
 11
105.037210946
 21
395.1613878174
 31
0.0
  0
LINE
  5
1D8
330
1F
100
AcDbEntity
  8
0
  6
Continuous
 62
     7
370
    25
100
AcDbLine
 10
109.3648239002
 20
395.1619333236
 30
0.0
 11
109.3648239002
 21
395.1619336635
 31
0.0
  0
LINE
  5
1D9
330
1F
100
AcDbEntity
  8
0
  6
Continuous
 62
     7
370
    25
100
AcDbLine
 10
105.037210946
 20
395.1613878174
 30
0.0
 11
105.0372104882
 21
395.1999257499
 31
0.0
  0
LINE
  5
1DA
330
1F
100
AcDbEntity
  8
0
  6
Continuous
 62
     7
370
    25
100
AcDbLine
 10
109.3824833628
 20
395.1999773666
 30
0.0
 11
109.3648239002
 21
395.1619336635
 31
0.0
  0
LINE
  5
1DB
330
1F
100
AcDbEntity
  8
0
  6
Continuous
 62
     7
370
    25
100
AcDbLine
 10
118.7650418443
 20
415.4127271726
 30
0.0
 11
119.6229319264
 21
417.2608759892
 31
0.0
  0
LINE
  5
1DC
330
1F
100
AcDbEntity
  8
0
  6
Continuous
 62
     7
370
    25
100
AcDbLine
 10
119.6229319264
 20
417.2609309884
 30
0.0
 11
118.9943222674
 21
415.9067199453
 31
0.0
  0
LINE
  5
1DD
330
1F
100
AcDbEntity
  8
0
  6
Continuous
 62
     7
370
    25
100
AcDbLine
 10
118.9896613349
 20
415.8966764324
 30
0.0
 11
119.6229319264
 21
417.2609287762
 31
0.0
  0
ARC
  5
1DE
330
1F
100
AcDbEntity
  8
0
  6
Continuous
 62
     7
370
    25
100
AcDbCircle
 10
117.8091868179
 20
418.102851234
 30
0.0
 40
1.999625219506655
100
AcDbArc
 50
335.0997973565
 51
0.0030398651
  0
SPLINE
  5
1DF
330
1F
100
AcDbEntity
  8
0
  6
Continuous
 62
     7
370
    25
100
AcDbSpline
210
0.0
220
0.0
230
1.0
 70
     8
 71
     3
 72
    10
 73
     6
 74
     0
 42
0.00000001
 43
0.00000001
 40
0.0
 40
0.0
 40
0.0
 40
0.0
 40
0.5
 40
0.5
 40
1.0
 40
1.0
 40
1.0
 40
1.0
 10
119.622931926362
 20
417.2609287761672
 30
0.0
 10
119.6844039974745
 20
417.3933577987874
 30
0.0
 10
119.7304423747989
 20
417.530064708742
 30
0.0
 10
119.7927570932019
 20
417.8117240323072
 30
0.0
 10
119.8088197455516
 20
417.9576173700225
 30
0.0
 10
119.8088120345633
 20
418.1029550758477
 30
0.0
  0
LINE
  5
1E0
330
1F
100
AcDbEntity
  8
0
  6
Continuous
 62
     7
370
    25
100
AcDbLine
 10
83.2729091913
 20
463.0277040567
 30
0.0
 11
83.2729091584
 21
463.0276622014
 31
0.0
  0
LINE
  5
1E1
330
1F
100
AcDbEntity
  8
0
  6
Continuous
 62
     7
370
    25
100
AcDbLine
 10
93.2804841893
 20
396.1897934104
 30
0.0
 11
93.2804841507
 21
396.1898480446
 31
0.0
  0
SPLINE
  5
1E2
330
1F
100
AcDbEntity
  8
0
  6
Continuous
 62
     7
370
    25
100
AcDbSpline
210
0.0
220
0.0
230
1.0
 70
     8
 71
     3
 72
    20
 73
    16
 74
     0
 42
0.00000001
 43
0.00000001
 40
0.0
 40
0.0
 40
0.0
 40
0.0
 40
0.0312500000000003
 40
0.0312500000000003
 40
0.0625000000000007
 40
0.0625000000000007
 40
0.1250000000000006
 40
0.1250000000000006
 40
0.2500000000000004
 40
0.2500000000000004
 40
0.5000000000000003
 40
0.5000000000000003
 40
0.7500000000000002
 40
0.7500000000000002
 40
1.0
 40
1.0
 40
1.0
 40
1.0
 10
94.30908801102719
 20
395.1612141073862
 30
0.0
 10
94.2922578796678
 20
395.1612139074642
 30
0.0
 10
94.27864423586335
 20
395.1615486542021
 30
0.0
 10
94.24782289169592
 20
395.1629236620606
 30
0.0
 10
94.23229287455811
 20
395.1639639625476
 30
0.0
 10
94.18541021786712
 20
395.1681930806183
 30
0.0
 10
94.15376289020702
 20
395.1724920692575
 30
0.0
 10
94.05824604864488
 20
395.1901663352581
 30
0.0
 10
93.99377960604043
 20
395.2083654132995
 30
0.0
 10
93.80385563980434
 20
395.2835511275901
 30
0.0
 10
93.6821895603383
 20
395.3620476469331
 30
0.0
 10
93.48134248673593
 20
395.5628867763314
 30
0.0
 10
93.40284098403676
 20
395.6845499424088
 30
0.0
 10
93.3025831986603
 20
395.9377787914769
 30
0.0
 10
93.28048721489817
 20
396.0685594448885
 30
0.0
 10
93.28048415074902
 20
396.1897796525463
 30
0.0
  0
SPLINE
  5
1E3
330
1F
100
AcDbEntity
  8
0
  6
Continuous
 62
     7
370
    25
100
AcDbSpline
210
0.0
220
0.0
230
1.0
 70
     8
 71
     3
 72
    16
 73
    12
 74
     0
 42
0.00000001
 43
0.00000001
 40
0.0
 40
0.0
 40
0.0
 40
0.0
 40
0.0619326713178588
 40
0.1236508913438766
 40
0.1855061974178575
 40
0.3329013401477338
 40
0.4860308655191562
 40
0.6088461584198953
 40
0.7487374472379904
 40
0.8601739289875648
 40
1.0
 40
1.0
 40
1.0
 40
1.0
 10
83.27290921868612
 20
463.0276491215759
 30
0.0
 10
83.26828249241564
 20
463.0606514876687
 30
0.0
 10
83.25904506061782
 20
463.1265419441432
 30
0.0
 10
83.25741041647252
 20
463.2265159157305
 30
0.0
 10
83.268159603993
 20
463.371939711769
 30
0.0
 10
83.31487619860434
 20
463.5631077976678
 30
0.0
 10
83.42017705131497
 20
463.7673746024579
 30
0.0
 10
83.56372333501291
 20
463.9406296984407
 30
0.0
 10
83.72263944035619
 20
464.0662740996952
 30
0.0
 10
83.91020898638837
 20
464.1650333461237
 30
0.0
 10
84.0423013319446
 20
464.1959760849886
 30
0.0
 10
84.11580991285689
 20
464.2131955295667
 30
0.0
  0
LINE
  5
1E4
330
1F
100
AcDbEntity
  8
0
  6
Continuous
 62
     7
370
    25
100
AcDbLine
 10
94.3090879433
 20
395.1611959584
 30
0.0
 11
97.7984382842
 21
395.1612477825
 31
0.0
  0
LWPOLYLINE
  5
1E5
330
1F
100
AcDbEntity
  8
0
  6
Continuous
 62
     7
370
    25
100
AcDbPolyline
 90
       10
 70
   128
 43
0.0
 10
103.819719506
 20
395.161337211
 10
103.2516794365
 20
395.161329428
 10
102.609080444
 20
395.1613203925
 10
101.9115374792
 20
395.1613103804
 10
101.1803426243
 20
395.1612996973
 10
100.4378151658
 20
395.1612886692
 10
99.706620311
 20
395.1612776328
 10
99.0090773461
 20
395.161266925
 10
98.3664783536
 20
395.1612568726
 10
97.7984382841
 20
395.1612477825
  0
LINE
  5
1E6
330
1F
100
AcDbEntity
  8
0
  6
Continuous
 62
     7
370
    25
100
AcDbLine
 10
104.9155119534
 20
395.1613692928
 30
0.0
 11
109.3656694913
 21
395.1614216938
 31
0.0
  0
LINE
  5
1E7
330
1F
100
AcDbEntity
  8
0
  6
Continuous
 62
     7
370
    25
100
AcDbLine
 10
351.7455572524
 20
378.0114541449
 30
0.0
 11
356.2881451542
 21
378.0114541449
 31
0.0
  0
LINE
  5
1E8
330
1F
100
AcDbEntity
  8
0
  6
Continuous
 62
     7
370
    25
100
AcDbLine
 10
335.2881451541
 20
378.0114541449
 30
0.0
 11
351.7455572524
 21
378.0114541449
 31
0.0
  0
LINE
  5
1E9
330
1F
100
AcDbEntity
  8
0
  6
Continuous
 62
     7
370
    25
100
AcDbLine
 10
351.405133704
 20
377.4114541449
 30
0.0
 11
335.8881451541
 21
377.4114541449
 31
0.0
  0
LINE
  5
1EA
330
1F
100
AcDbEntity
  8
0
  6
Continuous
 62
     7
370
    25
100
AcDbLine
 10
355.6881451542
 20
377.4114541449
 30
0.0
 11
351.405133704
 21
377.4114541449
 31
0.0
  0
LINE
  5
1EB
330
1F
100
AcDbEntity
  8
0
  6
Continuous
 62
     7
370
    25
100
AcDbLine
 10
337.4677804984
 20
377.4078377745
 30
0.0
 11
354.10850981
 21
377.4078377745
 31
0.0
  0
LWPOLYLINE
  5
1EC
330
1F
100
AcDbEntity
  8
0
  6
Continuous
 62
     7
370
    25
100
AcDbPolyline
 90
        4
 70
   128
 43
0.0
 10
104.8090788945
 20
395.1613619882
 10
104.9027749358
 20
395.1613634838
 10
104.9851695854
 20
395.1613649276
 10
105.0372109459
 20
395.1613660251
  0
LWPOLYLINE
  5
1ED
330
1F
100
AcDbEntity
  8
0
  6
Continuous
 62
     7
370
    25
100
AcDbPolyline
 90
        5
 70
   128
 43
0.0
 10
97.798428998
 20
395.1612862267
 10
97.2720810328
 20
395.1612792041
 10
96.8810580277
 20
395.1612736377
 10
96.6403204589
 20
395.1612697406
 10
96.559078895
 20
395.1612676621
  0
LWPOLYLINE
  5
1EE
330
1F
100
AcDbEntity
  8
0
  6
Continuous
 62
     7
370
    25
100
AcDbPolyline
 90
        3
 70
   128
 43
0.0
 10
105.0372109459
 20
395.161367202
 10
104.9851840358
 20
395.1613670847
 10
104.9756535051
 20
395.1613670402
  0
LWPOLYLINE
  5
1EF
330
1F
100
AcDbEntity
  8
0
  6
Continuous
 62
     7
370
    25
100
AcDbPolyline
 90
       12
 70
   128
 43
0.0
 10
96.8090818647
 20
394.9112684367
 10
96.8913722894
 20
394.9112705174
 10
97.3033478301
 20
394.9112769403
 10
98.0268232244
 20
394.9112868296
 10
98.9975145086
 20
394.9112993066
 10
100.1291715023
 20
394.9113132625
 10
101.3212415155
 20
394.9113274575
 10
102.467803896
 20
394.9113406301
 10
103.4669815449
 20
394.91135161
 10
104.2299931432
 20
394.9113594215
 10
104.6890417619
 20
394.9113633705
 10
104.8090818642
 20
394.9113634673
  0
LINE
  5
1F0
330
1F
100
AcDbEntity
  8
0
  6
Continuous
 62
     7
370
    25
100
AcDbLine
 10
105.0372109459
 20
395.1613660251
 30
0.0
 11
105.0372109459
 21
395.161367202
 31
0.0
  0
LINE
  5
1F1
330
1F
100
AcDbEntity
  8
0
  6
Continuous
 62
     7
370
    25
100
AcDbLine
 10
96.3089412609
 20
395.1611942665
 30
0.0
 11
96.8090788958
 21
395.1612016946
 31
0.0
  0
LINE
  5
1F2
330
1F
100
AcDbEntity
  8
0
  6
Continuous
 62
     7
370
    25
100
AcDbLine
 10
94.3090879346
 20
395.1611645645
 30
0.0
 11
96.3089412609
 21
395.1611942665
 31
0.0
  0
LINE
  5
1F3
330
1F
100
AcDbEntity
  8
0
  6
Continuous
 62
     7
370
    25
100
AcDbLine
 10
104.9155119531
 20
395.1613316746
 30
0.0
 11
105.037210946
 21
395.1613331202
 31
0.0
  0
LINE
  5
1F4
330
1F
100
AcDbEntity
  8
0
  6
Continuous
 62
     7
370
    25
100
AcDbLine
 10
105.0395906103
 20
395.1613331485
 30
0.0
 11
109.3657059064
 21
395.1613845376
 31
0.0
  0
LINE
  5
1F5
330
1F
100
AcDbEntity
  8
0
  6
Continuous
 62
     7
370
    25
100
AcDbLine
 10
105.0429206433
 20
395.161333188
 30
0.0
 11
105.037210946
 21
395.1613324679
 31
0.0
  0
LINE
  5
1F6
330
1F
100
AcDbEntity
  8
0
  6
Continuous
 62
     7
370
    25
100
AcDbLine
 10
105.037210946
 20
395.1613324679
 30
0.0
 11
105.037210946
 21
395.1613328483
 31
0.0
  0
ARC
  5
1F7
330
1F
100
AcDbEntity
  8
0
  6
Continuous
 62
     7
370
    25
100
AcDbCircle
 10
415.8081451554
 20
396.1614541449
 30
0.0
 40
1.000000000000341
100
AcDbArc
 50
270.0
 51
0.0
  0
LINE
  5
1F8
330
1F
100
AcDbEntity
  8
0
  6
Continuous
 62
     7
370
    25
100
AcDbLine
 10
416.8081451554
 20
436.1614541449
 30
0.0
 11
416.8081451554
 21
396.1614541449
 31
0.0
  0
ARC
  5
1F9
330
1F
100
AcDbEntity
  8
0
  6
Continuous
 62
     7
370
    25
100
AcDbCircle
 10
415.8081451554
 20
436.1614541449
 30
0.0
 40
1.000000000000341
100
AcDbArc
 50
0.0
 51
90.0
  0
LINE
  5
1FA
330
1F
100
AcDbEntity
  8
0
  6
Continuous
 62
     7
370
    25
100
AcDbLine
 10
415.8081451554
 20
395.1614541449
 30
0.0
 11
392.3081451554
 21
395.1614541449
 31
0.0
  0
LINE
  5
1FB
330
1F
100
AcDbEntity
  8
0
  6
Continuous
 62
     7
370
    25
100
AcDbLine
 10
392.3081451554
 20
437.1614541449
 30
0.0
 11
415.8081451554
 21
437.1614541449
 31
0.0
  0
ARC
  5
1FC
330
1F
100
AcDbEntity
  8
0
  6
Continuous
 62
     7
370
    25
100
AcDbCircle
 10
392.3081451554
 20
395.6614541449
 30
0.0
 40
0.5
100
AcDbArc
 50
181.8954563287
 51
270.0
  0
ARC
  5
1FD
330
1F
100
AcDbEntity
  8
0
  6
Continuous
 62
     7
370
    25
100
AcDbCircle
 10
392.3081451554
 20
395.6614541449
 30
0.0
 40
0.4999999999998897
100
AcDbArc
 50
180.0
 51
181.8954563287
  0
LINE
  5
1FE
330
1F
100
AcDbEntity
  8
0
  6
Continuous
 62
     7
370
    25
100
AcDbLine
 10
391.8081451554
 20
395.6614541449
 30
0.0
 11
391.8081451554
 21
396.1614541449
 31
0.0
  0
LINE
  5
1FF
330
1F
100
AcDbEntity
  8
0
  6
Continuous
 62
     7
370
    25
100
AcDbLine
 10
391.8081451554
 20
436.1614541449
 30
0.0
 11
391.8081451554
 21
436.6614541449
 31
0.0
  0
ARC
  5
200
330
1F
100
AcDbEntity
  8
0
  6
Continuous
 62
     7
370
    25
100
AcDbCircle
 10
392.3081451554
 20
436.6614541449
 30
0.0
 40
0.5
100
AcDbArc
 50
90.0
 51
180.0
  0
LINE
  5
201
330
1F
100
AcDbEntity
  8
0
  6
Continuous
 62
     7
370
    25
100
AcDbLine
 10
391.8081451554
 20
396.1614541449
 30
0.0
 11
391.8081451554
 21
436.1614541449
 31
0.0
  0
LINE
  5
202
330
1F
100
AcDbEntity
  8
0
  6
Continuous
 62
     7
370
    25
100
AcDbLine
 10
391.8081451554
 20
395.6449161849
 30
0.0
 11
391.8084187344
 21
395.6449161849
 31
0.0
  0
LINE
  5
203
330
1F
100
AcDbEntity
  8
0
  6
Continuous
 62
     7
370
    25
100
AcDbLine
 10
391.8081451554
 20
395.6614541449
 30
0.0
 11
391.8081451554
 21
395.6449161849
 31
0.0
  0
LINE
  5
204
330
1F
100
AcDbEntity
  8
0
  6
Continuous
 62
     7
370
    25
100
AcDbLine
 10
399.8081451554
 20
394.9114541449
 30
0.0
 11
407.8081451554
 21
394.9114541449
 31
0.0
  0
LINE
  5
205
330
1F
100
AcDbEntity
  8
0
  6
Continuous
 62
     8
370
    18
100
AcDbLine
 10
148.1414544956
 20
448.8281449423
 30
0.0
 11
148.0502826197
 21
437.1614541449
 31
0.0
  0
LINE
  5
206
330
1F
100
AcDbEntity
  8
0
  6
Continuous
 62
     8
370
    18
100
AcDbLine
 10
148.0435627561
 20
395.1614541449
 30
0.0
 11
148.1414544956
 21
383.4947636186
 31
0.0
  0
SPLINE
  5
207
330
1F
100
AcDbEntity
  8
0
  6
Continuous
 62
     8
370
    18
100
AcDbSpline
210
0.0
220
0.0
230
1.0
 70
     8
 71
     3
 72
    10
 73
     6
 74
     0
 42
0.00000001
 43
0.00000001
 40
0.0
 40
0.0
 40
0.0
 40
0.0
 40
0.5
 40
0.5
 40
1.0
 40
1.0
 40
1.0
 40
1.0
 10
213.474835819295
 20
448.8281449422597
 30
0.0
 10
202.5876282508599
 20
448.9997308012734
 30
0.0
 10
191.6986383757228
 20
449.0834150159592
 30
0.0
 10
169.9179201173706
 20
449.0834163918522
 30
0.0
 10
159.0286374299153
 20
448.9997304130309
 30
0.0
 10
148.1414544956476
 20
448.8281449422595
 30
0.0
  0
LINE
  5
208
330
1F
100
AcDbEntity
  8
0
  6
Continuous
 62
     8
370
    18
100
AcDbLine
 10
213.4748358193
 20
383.4947636186
 30
0.0
 11
213.5660076931
 21
395.1614541449
 31
0.0
  0
LINE
  5
209
330
1F
100
AcDbEntity
  8
0
  6
Continuous
 62
     8
370
    18
100
AcDbLine
 10
213.5727275611
 20
437.1614541449
 30
0.0
 11
213.4748358193
 21
448.8281449423
 31
0.0
  0
SPLINE
  5
20A
330
1F
100
AcDbEntity
  8
0
  6
Continuous
 62
     8
370
    18
100
AcDbSpline
210
0.0
220
0.0
230
1.0
 70
     8
 71
     3
 72
    10
 73
     6
 74
     0
 42
0.00000001
 43
0.00000001
 40
0.0
 40
0.0
 40
0.0
 40
0.0
 40
0.5
 40
0.5
 40
1.0
 40
1.0
 40
1.0
 40
1.0
 10
148.1414544956475
 20
383.4947636186121
 30
0.0
 10
159.0286620640826
 20
383.3231777595984
 30
0.0
 10
169.9176519392198
 20
383.2394935449127
 30
0.0
 10
191.698370197572
 20
383.2394921690197
 30
0.0
 10
202.5876528850273
 20
383.3231781478406
 30
0.0
 10
213.474835819295
 20
383.4947636186121
 30
0.0
  0
SPLINE
  5
20B
330
1F
100
AcDbEntity
  8
0
  6
Continuous
 62
     8
370
    18
100
AcDbSpline
210
0.0
220
0.0
230
1.0
 70
     8
 71
     3
 72
    10
 73
     6
 74
     0
 42
0.00000001
 43
0.00000001
 40
0.0
 40
0.0
 40
0.0
 40
0.0
 40
0.5
 40
0.5
 40
1.0
 40
1.0
 40
1.0
 40
1.0
 10
148.147208538701
 20
450.7891568306293
 30
0.0
 10
159.0324556693155
 20
450.9633889090051
 30
0.0
 10
169.9198139219878
 20
451.0509085729764
 30
0.0
 10
191.6967557344711
 20
451.0509070773815
 30
0.0
 10
202.5838126399111
 20
450.9633892612341
 30
0.0
 10
213.4690817762413
 20
450.7891568306292
 30
0.0
  0
ARC
  5
20C
330
1F
100
AcDbEntity
  8
0
  6
Continuous
 62
     8
370
    18
100
AcDbCircle
 10
186.6220170529
 20
449.7298672127
 30
0.0
 40
26.86795449514811
100
AcDbArc
 50
358.0767205715
 51
2.2595154686
  0
ARC
  5
20D
330
1F
100
AcDbEntity
  8
0
  6
Continuous
 62
     8
370
    18
100
AcDbCircle
 10
174.9942732622
 20
449.7298672127
 30
0.0
 40
26.86795449532703
100
AcDbArc
 50
177.7404845314
 51
181.9232794285
  0
ARC
  5
20E
330
1F
100
AcDbEntity
  8
0
  6
Continuous
 62
     8
370
    18
100
AcDbCircle
 10
147.2397322252
 20
410.347582385
 30
0.0
 40
26.86795449513412
100
AcDbArc
 50
267.7404845314
 51
271.9232794285
  0
LINE
  5
20F
330
1F
100
AcDbEntity
  8
0
  6
Continuous
 62
     8
370
    18
100
AcDbLine
 10
146.1804426073
 20
383.5005176617
 30
0.0
 11
146.0801056588
 21
395.1614541449
 31
0.0
  0
LINE
  5
210
330
1F
100
AcDbEntity
  8
0
  6
Continuous
 62
     8
370
    18
100
AcDbLine
 10
146.0869859125
 20
437.1614541449
 30
0.0
 11
146.1804426073
 21
448.8223908992
 31
0.0
  0
ARC
  5
211
330
1F
100
AcDbEntity
  8
0
  6
Continuous
 62
     8
370
    18
100
AcDbCircle
 10
147.2397322252
 20
421.9753261755
 30
0.0
 40
26.86795449549463
100
AcDbArc
 50
88.0767205715
 51
92.2595154686
  0
ARC
  5
212
330
1F
100
AcDbEntity
  8
0
  6
Continuous
 62
     8
370
    18
100
AcDbCircle
 10
214.3765580898
 20
421.9753261756
 30
0.0
 40
26.86795449541948
100
AcDbArc
 50
87.7404845314
 51
91.9232794285
  0
LINE
  5
213
330
1F
100
AcDbEntity
  8
0
  6
Continuous
 62
     8
370
    18
100
AcDbLine
 10
215.4358477077
 20
448.8223908992
 30
0.0
 11
215.5361846585
 21
437.1614541449
 31
0.0
  0
LINE
  5
214
330
1F
100
AcDbEntity
  8
0
  6
Continuous
 62
     8
370
    18
100
AcDbLine
 10
215.5293044003
 20
395.1614541449
 30
0.0
 11
215.4358477077
 21
383.5005176617
 31
0.0
  0
ARC
  5
215
330
1F
100
AcDbEntity
  8
0
  6
Continuous
 62
     8
370
    18
100
AcDbCircle
 10
214.3765580898
 20
410.347582385
 30
0.0
 40
26.86795449513088
100
AcDbArc
 50
268.0767205715
 51
272.2595154686
  0
ARC
  5
216
330
1F
100
AcDbEntity
  8
0
  6
Continuous
 62
     8
370
    18
100
AcDbCircle
 10
186.622017053
 20
382.5930413482
 30
0.0
 40
26.86795449510034
100
AcDbArc
 50
357.7404845314
 51
1.9232794285
  0
SPLINE
  5
217
330
1F
100
AcDbEntity
  8
0
  6
Continuous
 62
     8
370
    18
100
AcDbSpline
210
0.0
220
0.0
230
1.0
 70
     8
 71
     3
 72
    10
 73
     6
 74
     0
 42
0.00000001
 43
0.00000001
 40
0.0
 40
0.0
 40
0.0
 40
0.0
 40
0.5
 40
0.5
 40
1.0
 40
1.0
 40
1.0
 40
1.0
 10
213.4690817762412
 20
381.5337517302427
 30
0.0
 10
202.5838346456267
 20
381.3595196518669
 30
0.0
 10
191.6964763929545
 20
381.2719999878959
 30
0.0
 10
169.9195345804712
 20
381.2720014834908
 30
0.0
 10
159.0324776750313
 20
381.3595192996378
 30
0.0
 10
148.1472085387011
 20
381.5337517302428
 30
0.0
  0
ARC
  5
218
330
1F
100
AcDbEntity
  8
0
  6
Continuous
 62
     8
370
    18
100
AcDbCircle
 10
174.9942732622
 20
382.5930413482
 30
0.0
 40
26.86795449527092
100
AcDbArc
 50
178.0767205715
 51
182.2595154686
  0
ARC
  5
219
330
1F
100
AcDbEntity
  8
0
  6
Continuous
 62
     8
370
    18
100
AcDbCircle
 10
148.1805678326
 20
448.7890316053
 30
0.0
 40
2.000403399215198
100
AcDbArc
 50
90.9555249467
 51
179.0444750533
  0
ARC
  5
21A
330
1F
100
AcDbEntity
  8
0
  6
Continuous
 62
     8
370
    18
100
AcDbCircle
 10
213.4357224823
 20
448.7890316053
 30
0.0
 40
2.00040339921508
100
AcDbArc
 50
0.9555249466
 51
89.0444750534
  0
ARC
  5
21B
330
1F
100
AcDbEntity
  8
0
  6
Continuous
 62
     8
370
    18
100
AcDbCircle
 10
148.1805678326
 20
383.5338769556
 30
0.0
 40
2.000403399214618
100
AcDbArc
 50
180.9555249466
 51
269.0444750534
  0
ARC
  5
21C
330
1F
100
AcDbEntity
  8
0
  6
Continuous
 62
     8
370
    18
100
AcDbCircle
 10
213.4357224823
 20
383.5338769556
 30
0.0
 40
2.000403399214964
100
AcDbArc
 50
270.9555249466
 51
359.0444750534
  0
LINE
  5
21D
330
1F
100
AcDbEntity
  8
0
  6
Continuous
 62
     8
370
    18
100
AcDbLine
 10
213.4690817762
 20
450.7891568306
 30
0.0
 11
213.8746902692
 21
451.1943599474
 31
0.0
  0
LINE
  5
21E
330
1F
100
AcDbEntity
  8
0
  6
Continuous
 62
     8
370
    18
100
AcDbLine
 10
147.7416000458
 20
451.1943599474
 30
0.0
 11
148.1472085387
 21
450.7891568306
 31
0.0
  0
LINE
  5
21F
330
1F
100
AcDbEntity
  8
0
  6
Continuous
 62
     8
370
    18
100
AcDbLine
 10
145.7752394905
 20
383.0949091687
 30
0.0
 11
146.1804426073
 21
383.5005176617
 31
0.0
  0
LINE
  5
220
330
1F
100
AcDbEntity
  8
0
  6
Continuous
 62
     8
370
    18
100
AcDbLine
 10
146.1804426073
 20
448.8223908992
 30
0.0
 11
145.7752394905
 21
449.2279993922
 31
0.0
  0
LINE
  5
221
330
1F
100
AcDbEntity
  8
0
  6
Continuous
 62
     8
370
    18
100
AcDbLine
 10
215.4358477077
 20
383.5005176617
 30
0.0
 11
215.8410508244
 21
383.0949091687
 31
0.0
  0
LINE
  5
222
330
1F
100
AcDbEntity
  8
0
  6
Continuous
 62
     8
370
    18
100
AcDbLine
 10
215.8410508244
 20
449.2279993922
 30
0.0
 11
215.4358477077
 21
448.8223908992
 31
0.0
  0
LINE
  5
223
330
1F
100
AcDbEntity
  8
0
  6
Continuous
 62
     8
370
    18
100
AcDbLine
 10
213.8746902692
 20
381.1285486135
 30
0.0
 11
213.4690817762
 21
381.5337517302
 31
0.0
  0
LINE
  5
224
330
1F
100
AcDbEntity
  8
0
  6
Continuous
 62
     8
370
    18
100
AcDbLine
 10
148.1472085387
 20
381.5337517302
 30
0.0
 11
147.7416000458
 21
381.1285486135
 31
0.0
  0
LINE
  5
225
330
1F
100
AcDbEntity
  8
0
  6
Continuous
 62
     8
370
    18
100
AcDbLine
 10
298.1414544916
 20
448.8281449423
 30
0.0
 11
298.0502826157
 21
437.1614541449
 31
0.0
  0
LINE
  5
226
330
1F
100
AcDbEntity
  8
0
  6
Continuous
 62
     8
370
    18
100
AcDbLine
 10
298.0435627521
 20
395.1614541449
 30
0.0
 11
298.1414544916
 21
383.4947636187
 31
0.0
  0
SPLINE
  5
227
330
1F
100
AcDbEntity
  8
0
  6
Continuous
 62
     8
370
    18
100
AcDbSpline
210
0.0
220
0.0
230
1.0
 70
     8
 71
     3
 72
    10
 73
     6
 74
     0
 42
0.00000001
 43
0.00000001
 40
0.0
 40
0.0
 40
0.0
 40
0.0
 40
0.5
 40
0.5
 40
1.0
 40
1.0
 40
1.0
 40
1.0
 10
363.4748358152511
 20
448.8281449423013
 30
0.0
 10
352.587628246816
 20
448.999730801315
 30
0.0
 10
341.6986383716788
 20
449.0834150160006
 30
0.0
 10
319.9179201133267
 20
449.0834163918936
 30
0.0
 10
309.0286374258714
 20
448.9997304130725
 30
0.0
 10
298.1414544916037
 20
448.8281449423011
 30
0.0
  0
LINE
  5
228
330
1F
100
AcDbEntity
  8
0
  6
Continuous
 62
     8
370
    18
100
AcDbLine
 10
363.4748358153
 20
383.4947636187
 30
0.0
 11
363.566007689
 21
395.1614541449
 31
0.0
  0
LINE
  5
229
330
1F
100
AcDbEntity
  8
0
  6
Continuous
 62
     8
370
    18
100
AcDbLine
 10
363.5727275571
 20
437.1614541449
 30
0.0
 11
363.4748358153
 21
448.8281449423
 31
0.0
  0
SPLINE
  5
22A
330
1F
100
AcDbEntity
  8
0
  6
Continuous
 62
     8
370
    18
100
AcDbSpline
210
0.0
220
0.0
230
1.0
 70
     8
 71
     3
 72
    10
 73
     6
 74
     0
 42
0.00000001
 43
0.00000001
 40
0.0
 40
0.0
 40
0.0
 40
0.0
 40
0.8793654987579262
 40
0.9441720798791686
 40
0.9999999999999999
 40
0.9999999999999999
 40
0.9999999999999999
 40
0.9999999999999999
 10
298.1414544916036
 20
383.4947636186537
 30
0.0
 10
309.029456650032
 20
383.377535367772
 30
0.0
 10
320.7198716801561
 20
383.2516677488899
 30
0.0
 10
333.1032202588446
 20
383.2360782817536
 30
0.0
 10
334.5968942261179
 20
383.2512405688611
 30
0.0
 10
335.2881451541105
 20
383.2582574582647
 30
0.0
  0
LINE
  5
22B
330
1F
100
AcDbEntity
  8
0
  6
Continuous
 62
     8
370
    18
100
AcDbLine
 10
356.2881451542
 20
383.4344622291
 30
0.0
 11
363.4748358153
 21
383.4947636187
 31
0.0
  0
SPLINE
  5
22C
330
1F
100
AcDbEntity
  8
0
  6
Continuous
 62
     8
370
    18
100
AcDbSpline
210
0.0
220
0.0
230
1.0
 70
     8
 71
     3
 72
    10
 73
     6
 74
     0
 42
0.00000001
 43
0.00000001
 40
0.0
 40
0.0
 40
0.0
 40
0.0
 40
0.5
 40
0.5
 40
1.0
 40
1.0
 40
1.0
 40
1.0
 10
298.1472085346574
 20
450.7891568306709
 30
0.0
 10
309.0324556652719
 20
450.9633889090466
 30
0.0
 10
319.9198139179442
 20
451.0509085730178
 30
0.0
 10
341.6967557304275
 20
451.0509070774228
 30
0.0
 10
352.5838126358675
 20
450.9633892612757
 30
0.0
 10
363.4690817721977
 20
450.7891568306708
 30
0.0
  0
ARC
  5
22D
330
1F
100
AcDbEntity
  8
0
  6
Continuous
 62
     8
370
    18
100
AcDbCircle
 10
336.6220170486
 20
449.7298672128
 30
0.0
 40
26.86795449538288
100
AcDbArc
 50
358.0767205715
 51
2.2595154686
  0
ARC
  5
22E
330
1F
100
AcDbEntity
  8
0
  6
Continuous
 62
     8
370
    18
100
AcDbCircle
 10
324.9942732581
 20
449.7298672128
 30
0.0
 40
26.86795449524081
100
AcDbArc
 50
177.7404845314
 51
181.9232794285
  0
ARC
  5
22F
330
1F
100
AcDbEntity
  8
0
  6
Continuous
 62
     8
370
    18
100
AcDbCircle
 10
364.3765580857
 20
421.9753261758
 30
0.0
 40
26.86795449529483
100
AcDbArc
 50
87.7404845314
 51
91.9232794285
  0
LINE
  5
230
330
1F
100
AcDbEntity
  8
0
  6
Continuous
 62
     8
370
    18
100
AcDbLine
 10
365.4358477036
 20
448.8223908992
 30
0.0
 11
365.5361846545
 21
437.1614541449
 31
0.0
  0
LINE
  5
231
330
1F
100
AcDbEntity
  8
0
  6
Continuous
 62
     8
370
    18
100
AcDbLine
 10
365.5293043962
 20
395.1614541449
 30
0.0
 11
365.4358477036
 21
383.5005176617
 31
0.0
  0
ARC
  5
232
330
1F
100
AcDbEntity
  8
0
  6
Continuous
 62
     8
370
    18
100
AcDbCircle
 10
364.3765580857
 20
410.3475823851
 30
0.0
 40
26.86795449523675
100
AcDbArc
 50
268.0767205715
 51
272.2595154686
  0
ARC
  5
233
330
1F
100
AcDbEntity
  8
0
  6
Continuous
 62
     8
370
    18
100
AcDbCircle
 10
336.6220170488
 20
382.5930413482
 30
0.0
 40
26.86795449522562
100
AcDbArc
 50
357.7404845314
 51
1.9232794285
  0
LINE
  5
234
330
1F
100
AcDbEntity
  8
0
  6
Continuous
 62
     8
370
    18
100
AcDbLine
 10
363.4690817722
 20
381.5337517303
 30
0.0
 11
356.2881451542
 21
381.4719631022
 31
0.0
  0
SPLINE
  5
235
330
1F
100
AcDbEntity
  8
0
  6
Continuous
 62
     8
370
    18
100
AcDbSpline
210
0.0
220
0.0
230
1.0
 70
     8
 71
     3
 72
    10
 73
     6
 74
     0
 42
0.00000001
 43
0.00000001
 40
0.0
 40
0.0
 40
0.0
 40
0.0
 40
0.0558352836805854
 40
0.1206531192374264
 40
0.9999999999999999
 40
0.9999999999999999
 40
0.9999999999999999
 40
0.9999999999999999
 10
335.2881451541105
 20
381.291267844811
 30
0.0
 10
334.5969106275836
 20
381.284074052012
 30
0.0
 10
333.1032385934777
 20
381.2685291584763
 30
0.0
 10
320.7217846376371
 20
381.284344794628
 30
0.0
 10
309.0332830254686
 20
381.4134809235284
 30
0.0
 10
298.1472085346575
 20
381.5337517302845
 30
0.0
  0
ARC
  5
236
330
1F
100
AcDbEntity
  8
0
  6
Continuous
 62
     8
370
    18
100
AcDbCircle
 10
324.9942732579
 20
382.5930413482
 30
0.0
 40
26.86795449509076
100
AcDbArc
 50
178.0767205715
 51
182.2595154686
  0
ARC
  5
237
330
1F
100
AcDbEntity
  8
0
  6
Continuous
 62
     8
370
    18
100
AcDbCircle
 10
297.2397322211
 20
410.3475823849
 30
0.0
 40
26.86795449505172
100
AcDbArc
 50
267.7404845314
 51
271.9232794285
  0
LINE
  5
238
330
1F
100
AcDbEntity
  8
0
  6
Continuous
 62
     8
370
    18
100
AcDbLine
 10
296.1804426032
 20
383.5005176617
 30
0.0
 11
296.0801056547
 21
395.1614541449
 31
0.0
  0
LINE
  5
239
330
1F
100
AcDbEntity
  8
0
  6
Continuous
 62
     8
370
    18
100
AcDbLine
 10
296.0869859085
 20
437.1614541449
 30
0.0
 11
296.1804426032
 21
448.8223908992
 31
0.0
  0
ARC
  5
23A
330
1F
100
AcDbEntity
  8
0
  6
Continuous
 62
     8
370
    18
100
AcDbCircle
 10
297.2397322211
 20
421.9753261757
 30
0.0
 40
26.86795449537732
100
AcDbArc
 50
88.0767205715
 51
92.2595154686
  0
ARC
  5
23B
330
1F
100
AcDbEntity
  8
0
  6
Continuous
 62
     8
370
    18
100
AcDbCircle
 10
363.4357224783
 20
448.7890316053
 30
0.0
 40
2.000403399215194
100
AcDbArc
 50
0.9555249466
 51
89.0444750534
  0
ARC
  5
23C
330
1F
100
AcDbEntity
  8
0
  6
Continuous
 62
     8
370
    18
100
AcDbCircle
 10
363.4357224783
 20
383.5338769556
 30
0.0
 40
2.000403399214908
100
AcDbArc
 50
270.9555249466
 51
359.0444750534
  0
ARC
  5
23D
330
1F
100
AcDbEntity
  8
0
  6
Continuous
 62
     8
370
    18
100
AcDbCircle
 10
298.1805678286
 20
448.7890316053
 30
0.0
 40
2.000403399215197
100
AcDbArc
 50
90.9555249467
 51
179.0444750533
  0
ARC
  5
23E
330
1F
100
AcDbEntity
  8
0
  6
Continuous
 62
     8
370
    18
100
AcDbCircle
 10
298.1805678286
 20
383.5338769556
 30
0.0
 40
2.00040339921462
100
AcDbArc
 50
180.9555249466
 51
269.0444750534
  0
LINE
  5
23F
330
1F
100
AcDbEntity
  8
0
  6
Continuous
 62
     8
370
    18
100
AcDbLine
 10
363.4690817722
 20
450.7891568307
 30
0.0
 11
363.8746902651
 21
451.1943599474
 31
0.0
  0
LINE
  5
240
330
1F
100
AcDbEntity
  8
0
  6
Continuous
 62
     8
370
    18
100
AcDbLine
 10
297.7416000417
 20
451.1943599474
 30
0.0
 11
298.1472085347
 21
450.7891568307
 31
0.0
  0
LINE
  5
241
330
1F
100
AcDbEntity
  8
0
  6
Continuous
 62
     8
370
    18
100
AcDbLine
 10
365.4358477036
 20
383.5005176617
 30
0.0
 11
365.8410508204
 21
383.0949091688
 31
0.0
  0
LINE
  5
242
330
1F
100
AcDbEntity
  8
0
  6
Continuous
 62
     8
370
    18
100
AcDbLine
 10
365.8410508204
 20
449.2279993922
 30
0.0
 11
365.4358477036
 21
448.8223908992
 31
0.0
  0
LINE
  5
243
330
1F
100
AcDbEntity
  8
0
  6
Continuous
 62
     8
370
    18
100
AcDbLine
 10
295.7752394865
 20
383.0949091688
 30
0.0
 11
296.1804426032
 21
383.5005176617
 31
0.0
  0
LINE
  5
244
330
1F
100
AcDbEntity
  8
0
  6
Continuous
 62
     8
370
    18
100
AcDbLine
 10
296.1804426032
 20
448.8223908992
 30
0.0
 11
295.7752394865
 21
449.2279993922
 31
0.0
  0
LINE
  5
245
330
1F
100
AcDbEntity
  8
0
  6
Continuous
 62
     8
370
    18
100
AcDbLine
 10
363.8746902651
 20
381.1285486135
 30
0.0
 11
363.4690817722
 21
381.5337517303
 31
0.0
  0
LINE
  5
246
330
1F
100
AcDbEntity
  8
0
  6
Continuous
 62
     8
370
    18
100
AcDbLine
 10
298.1472085347
 20
381.5337517303
 30
0.0
 11
297.7416000417
 21
381.1285486135
 31
0.0
  0
LINE
  5
247
330
1F
100
AcDbEntity
  8
0
  6
Continuous
 62
     8
370
    18
100
AcDbLine
 10
284.8076935567
 20
426.1614541448
 30
0.0
 11
284.8076935533
 21
436.1614541449
 31
0.0
  0
SPLINE
  5
248
330
1F
100
AcDbEntity
  8
0
  6
Continuous
 62
     8
370
    18
100
AcDbSpline
210
0.0
220
0.0
230
1.0
 70
     8
 71
     3
 72
    27
 73
    23
 74
     0
 42
0.00000001
 43
0.00000001
 40
0.0
 40
0.0
 40
0.0
 40
0.0
 40
0.0302321642091299
 40
0.0602656232792165
 40
0.0901667484983433
 40
0.1200027943109742
 40
0.1498414552193565
 40
0.1797504079690881
 40
0.2097968543325849
 40
0.2400470797577198
 40
0.3043172651667318
 40
0.3686712791798815
 40
0.4343090181983579
 40
0.500032370044621
 40
0.5656701112728734
 40
0.6313934658068777
 40
0.6956636572582992
 40
0.760017678726561
 40
0.8202677095901557
 40
0.8799880887832418
 40
0.9397189134570348
 40
1.0
 40
1.0
 40
1.0
 40
1.0
 10
280.8076935499279
 20
422.1614541381561
 30
0.0
 10
280.8709989991381
 20
422.1622920409713
 30
0.0
 10
280.9971938136156
 20
422.163962339368
 30
0.0
 10
281.185594527888
 20
422.1776060616467
 30
0.0
 10
281.3723395468507
 20
422.1994271905879
 30
0.0
 10
281.5574263100948
 20
422.2302095621929
 30
0.0
 10
281.7408518208053
 20
422.2697454192415
 30
0.0
 10
281.9226134680636
 20
422.3180844369
 30
0.0
 10
282.1027081653245
 20
422.3752304022327
 30
0.0
 10
282.3474475287152
 20
422.4655937496403
 30
0.0
 10
282.6508065513923
 20
422.6035887991608
 30
0.0
 10
283.0025535255592
 20
422.8091666315159
 30
0.0
 10
283.3342234701418
 20
423.0510766725812
 30
0.0
 10
283.6409768389324
 20
423.3279168747625
 30
0.0
 10
283.9179592265154
 20
423.6347838827286
 30
0.0
 10
284.1597792998822
 20
423.966295712372
 30
0.0
 10
284.3655053395735
 20
424.3181902562321
 30
0.0
 10
284.5294566777882
 20
424.6787903964815
 30
0.0
 10
284.6552279198496
 20
425.0442886189236
 30
0.0
 10
284.7429704884991
 20
425.4106356252556
 30
0.0
 10
284.7977192702508
 20
425.783813368531
 30
0.0
 10
284.8043586472139
 20
426.0351896941669
 30
0.0
 10
284.8076935566678
 20
426.1614541448108
 30
0.0
  0
LINE
  5
249
330
1F
100
AcDbEntity
  8
0
  6
Continuous
 62
     8
370
    18
100
AcDbLine
 10
230.80769355
 20
422.1614541382
 30
0.0
 11
280.8076935499
 21
422.1614541382
 31
0.0
  0
SPLINE
  5
24A
330
1F
100
AcDbEntity
  8
0
  6
Continuous
 62
     8
370
    18
100
AcDbSpline
210
0.0
220
0.0
230
1.0
 70
     8
 71
     3
 72
    23
 73
    19
 74
     0
 42
0.00000001
 43
0.00000001
 40
0.0
 40
0.0
 40
0.0
 40
0.0
 40
0.0290253459889045
 40
0.0581022520770588
 40
0.0872922502666902
 40
0.1166561616159914
 40
0.17851308103115
 40
0.2401006064757512
 40
0.3040841625075129
 40
0.3688185789791437
 40
0.5000150834623983
 40
0.6312115879453376
 40
0.6958615305825055
 40
0.7599295673748113
 40
0.8214321163015126
 40
0.8833740070477096
 40
0.9418703699175133
 40
1.0
 40
1.0
 40
1.0
 40
1.0
 10
226.8076935432583
 20
426.1614541448109
 30
0.0
 10
226.808504421106
 20
426.1007067753773
 30
0.0
 10
226.8101276172303
 20
425.9791041259825
 30
0.0
 10
226.8232529014936
 20
425.7968003086201
 30
0.0
 10
226.8442114719377
 20
425.6145621103885
 30
0.0
 10
226.8845399273173
 20
425.3657497238964
 30
0.0
 10
226.9577095158663
 20
425.0538949745062
 30
0.0
 10
227.0842478513974
 20
424.6819952481688
 30
0.0
 10
227.2499639014924
 20
424.3190388627659
 30
0.0
 10
227.5252965176853
 20
423.8491276444001
 30
0.0
 10
227.9584648156064
 20
423.3122236253416
 30
0.0
 10
228.4952285527774
 20
422.8791744462117
 30
0.0
 10
228.965120353728
 20
422.6037973491447
 30
0.0
 10
229.3279023570662
 20
422.438172853103
 30
0.0
 10
229.6999726115696
 20
422.3113999737728
 30
0.0
 10
230.0712279879496
 20
422.2248171786563
 30
0.0
 10
230.4418461037594
 20
422.1712324878372
 30
0.0
 10
230.6860003171998
 20
422.1647067479432
 30
0.0
 10
230.8076935499955
 20
422.1614541381566
 30
0.0
  0
LINE
  5
24B
330
1F
100
AcDbEntity
  8
0
  6
Continuous
 62
     8
370
    18
100
AcDbLine
 10
226.80769355
 20
436.1614541449
 30
0.0
 11
226.8076935433
 21
426.1614541448
 31
0.0
  0
LINE
  5
24C
330
1F
100
AcDbEntity
  8
0
  6
Continuous
 62
     8
370
    18
100
AcDbLine
 10
226.80769355
 20
436.1614541449
 30
0.0
 11
284.8076935533
 21
436.1614541449
 31
0.0
  0
LINE
  5
24D
330
1F
100
AcDbEntity
  8
0
  6
Continuous
 62
     8
370
    18
100
AcDbLine
 10
230.80769355
 20
422.1614541449
 30
0.0
 11
230.80769355
 21
421.1614541449
 31
0.0
  0
LINE
  5
24E
330
1F
100
AcDbEntity
  8
0
  6
Continuous
 62
     8
370
    18
100
AcDbLine
 10
280.8076935499
 20
422.1614541315
 30
0.0
 11
280.80769355
 21
421.1614541447
 31
0.0
  0
LINE
  5
24F
330
1F
100
AcDbEntity
  8
0
  6
Continuous
 62
     8
370
    18
100
AcDbLine
 10
225.80769355
 20
426.1614541449
 30
0.0
 11
226.80769355
 21
426.1614541449
 31
0.0
  0
LINE
  5
250
330
1F
100
AcDbEntity
  8
0
  6
Continuous
 62
     8
370
    18
100
AcDbLine
 10
226.80769355
 20
436.1614541449
 30
0.0
 11
225.80769355
 21
436.1614541449
 31
0.0
  0
LINE
  5
251
330
1F
100
AcDbEntity
  8
0
  6
Continuous
 62
     8
370
    18
100
AcDbLine
 10
284.80769355
 20
426.1614541449
 30
0.0
 11
285.80769355
 21
426.1614541449
 31
0.0
  0
LINE
  5
252
330
1F
100
AcDbEntity
  8
0
  6
Continuous
 62
     8
370
    18
100
AcDbLine
 10
284.8076935533
 20
436.1614541449
 30
0.0
 11
285.7909604413
 21
436.1614541449
 31
0.0
  0
LINE
  5
253
330
1F
100
AcDbEntity
  8
0
  6
Continuous
 62
     8
370
    18
100
AcDbLine
 10
284.8076935533
 20
436.1614541449
 30
0.0
 11
284.80769355
 21
437.1614541449
 31
0.0
  0
LINE
  5
254
330
1F
100
AcDbEntity
  8
0
  6
Continuous
 62
     8
370
    18
100
AcDbLine
 10
226.80769355
 20
437.1614541449
 30
0.0
 11
226.80769355
 21
436.1614541449
 31
0.0
  0
SPLINE
  5
255
330
1F
100
AcDbEntity
  8
0
  6
Continuous
 62
     8
370
    18
100
AcDbSpline
210
0.0
220
0.0
230
1.0
 70
     8
 71
     3
 72
    76
 73
    72
 74
     0
 42
0.00000001
 43
0.00000001
 40
0.8339501830804078
 40
0.8339501830804078
 40
0.8339501830804078
 40
0.8339501830804078
 40
6.844831785436387
 40
6.844831785436387
 40
10.26721504937206
 40
10.26721504937206
 40
13.68959831330773
 40
13.68959831330773
 40
14.54519412929165
 40
14.54519412929165
 40
15.40078994527557
 40
15.40078994527557
 40
17.11198157724342
 40
17.11198157724342
 40
20.53436484117909
 40
20.53436484117909
 40
22.24555647314692
 40
22.24555647314692
 40
23.10115228913084
 40
23.10115228913084
 40
23.95674810511476
 40
23.95674810511476
 40
27.37913136905043
 40
27.37913136905043
 40
30.80151463298612
 40
30.80151463298612
 40
32.51270626495396
 40
32.51270626495396
 40
33.36830208093787
 40
33.36830208093787
 40
34.22389789692179
 40
34.22389789692179
 40
41.06866442479315
 40
41.06866442479315
 40
54.75819748053585
 40
54.75819748053585
 40
68.44773053627854
 40
68.44773053627854
 40
71.87011380021421
 40
71.87011380021421
 40
75.2924970641499
 40
75.2924970641499
 40
76.14809288013382
 40
76.14809288013382
 40
77.00368869611773
 40
77.00368869611773
 40
78.71488032808557
 40
78.71488032808557
 40
82.13726359202126
 40
82.13726359202126
 40
85.55964685595693
 40
85.55964685595693
 40
86.41524267194085
 40
86.41524267194085
 40
87.27083848792476
 40
87.27083848792476
 40
88.9820301198926
 40
88.9820301198926
 40
92.40441338382827
 40
92.40441338382827
 40
94.11560501579612
 40
94.11560501579612
 40
94.97120083178004
 40
94.97120083178004
 40
95.82679664776396
 40
95.82679664776396
 40
99.24917991169963
 40
99.24917991169963
 40
102.6715631756353
 40
102.6715631756353
 40
108.6823795204263
 40
108.6823795204263
 40
108.6823795204263
 40
108.6823795204263
 10
220.8076950167726
 20
436.1614541448616
 30
0.0
 10
220.8076957230285
 20
433.7587332121269
 30
0.0
 10
220.8076793874096
 20
431.3562819466234
 30
0.0
 10
220.8077380511208
 20
427.5854331014693
 30
0.0
 10
220.8075416655739
 20
426.2179832872319
 30
0.0
 10
220.808228531284
 20
423.4819362082226
 30
0.0
 10
220.8060208868488
 20
422.1138447137898
 30
0.0
 10
220.8107164846447
 20
420.4040434203174
 30
0.0
 10
220.8165421958444
 20
420.0617184056902
 30
0.0
 10
220.832365943434
 20
419.3782000257235
 30
0.0
 10
220.8434390412442
 20
419.036428203535
 30
0.0
 10
220.8860164703422
 20
418.0112312074261
 30
0.0
 10
220.9270472765526
 20
417.3282539717567
 30
0.0
 10
221.0941693559439
 20
415.2836885998639
 30
0.0
 10
221.2630649050263
 20
413.9237190637905
 30
0.0
 10
221.6366373301734
 20
411.9061525383773
 30
0.0
 10
221.7815572230505
 20
411.2374666366953
 30
0.0
 10
222.0359563764879
 20
410.2433573717368
 30
0.0
 10
222.1269522103799
 20
409.9136492146262
 30
0.0
 10
222.322716237558
 20
409.2584265994216
 30
0.0
 10
222.427492948104
 20
408.9324800129677
 30
0.0
 10
222.9901121734838
 20
407.3197370864359
 30
0.0
 10
223.5620127133486
 20
406.0625452675365
 30
0.0
 10
225.083442363689
 20
403.791825295048
 30
0.0
 10
226.0527116368415
 20
402.7758786268138
 30
0.0
 10
227.8372436095129
 20
401.7525545068364
 30
0.0
 10
228.4790303425753
 20
401.4991961165731
 30
0.0
 10
229.4796769595629
 20
401.2691250216051
 30
0.0
 10
229.8181674465855
 20
401.217695023853
 30
0.0
 10
230.5001492857635
 20
401.1575225768844
 30
0.0
 10
230.8423548195283
 20
401.1613157483455
 30
0.0
 10
233.9204029440757
 20
401.1615437664054
 30
0.0
 10
236.6562159900853
 20
401.1614279480683
 30
0.0
 10
244.8643238516279
 20
401.1614651735013
 30
0.0
 10
250.3355119849803
 20
401.1614507028229
 30
0.0
 10
261.2799228535677
 20
401.1614548171463
 30
0.0
 10
266.7512175660755
 20
401.1614548876928
 30
0.0
 10
273.5913826097159
 20
401.161452152472
 30
0.0
 10
274.9590631506037
 20
401.1614616551984
 30
0.0
 10
277.6952977964598
 20
401.1614274534458
 30
0.0
 10
279.063126473864
 20
401.1615376568536
 30
0.0
 10
280.7730074901364
 20
401.1613032036094
 30
0.0
 10
281.1155054813506
 20
401.1575333615532
 30
0.0
 10
281.7972921955439
 20
401.2177117276598
 30
0.0
 10
282.1355971017146
 20
401.2691090276734
 30
0.0
 10
283.136353294749
 20
401.4991654534927
 30
0.0
 10
283.7784473832006
 20
401.7527069968471
 30
0.0
 10
285.5625161111832
 20
402.7757677895142
 30
0.0
 10
286.5321553461826
 20
403.7920296004879
 30
0.0
 10
288.05337925421
 20
406.0626181572908
 30
0.0
 10
288.6252557945045
 20
407.319649182328
 30
0.0
 10
289.1879693906719
 20
408.932707474914
 30
0.0
 10
289.2926550103533
 20
409.2583886336031
 30
0.0
 10
289.4883866744974
 20
409.9134675344212
 30
0.0
 10
289.5795159940474
 20
410.2436767169992
 30
0.0
 10
289.8337773044616
 20
411.2372549643232
 30
0.0
 10
289.9788109706086
 20
411.9064145111761
 30
0.0
 10
290.3523565265263
 20
413.9240265899375
 30
0.0
 10
290.521183607795
 20
415.2834293761301
 30
0.0
 10
290.6883328777321
 20
417.3281012756112
 30
0.0
 10
290.7293757392442
 20
418.0113493969545
 30
0.0
 10
290.7719395902897
 20
419.0362138099367
 30
0.0
 10
290.7830185287719
 20
419.3780627736151
 30
0.0
 10
290.7988487055502
 20
420.0619205268566
 30
0.0
 10
290.8046700925182
 20
420.4040351842249
 30
0.0
 10
290.8093665023224
 20
422.1138969666265
 30
0.0
 10
290.8071584761232
 20
423.4816469482612
 30
0.0
 10
290.807845460613
 20
426.2178041693184
 30
0.0
 10
290.8076490411012
 20
427.5857875289985
 30
0.0
 10
290.807707714558
 20
431.3562850720229
 30
0.0
 10
290.8076913768686
 20
433.7588975354377
 30
0.0
 10
290.8076920828698
 20
436.1614541448612
 30
0.0
  0
SPLINE
  5
256
330
1F
100
AcDbEntity
  8
0
  6
Continuous
 62
     8
370
    18
100
AcDbSpline
210
0.0
220
0.0
230
1.0
 70
     8
 71
     3
 72
    15
 73
    11
 74
     0
 42
0.00000001
 43
0.00000001
 40
0.0
 40
0.0
 40
0.0
 40
0.0
 40
0.0673049919713546
 40
0.129781895525866
 40
0.1917889350270192
 40
0.2581838321601495
 40
0.4044898159549031
 40
0.5595252740881284
 40
0.8772779331450591
 40
1.0
 40
1.0
 40
1.0
 40
1.0
 10
220.8076950167709
 20
436.1614541448614
 30
0.0
 10
221.2310210067863
 20
436.1614247205358
 30
0.0
 10
222.047305918208
 20
436.1613679826233
 30
0.0
 10
223.1856875651287
 20
436.1608273648396
 30
0.0
 10
224.079131192899
 20
436.1603157136907
 30
0.0
 10
224.923145784104
 20
436.1600994545211
 30
0.0
 10
225.422408650686
 20
436.160396549885
 30
0.0
 10
225.7684877188163
 20
436.1609713320765
 30
0.0
 10
225.7985573265529
 20
436.1613811404075
 30
0.0
 10
225.8011009525349
 20
436.1613951957906
 30
0.0
 10
225.8018096402744
 20
436.1613991118057
 30
0.0
  0
SPLINE
  5
257
330
1F
100
AcDbEntity
  8
0
  6
Continuous
 62
     8
370
    18
100
AcDbSpline
210
0.0
220
0.0
230
1.0
 70
     8
 71
     3
 72
    15
 73
    11
 74
     0
 42
0.00000001
 43
0.00000001
 40
0.0
 40
0.0
 40
0.0
 40
0.0
 40
0.1263108645712284
 40
0.4426933885804225
 40
0.5971886564411267
 40
0.7428650205562766
 40
0.8089964142945675
 40
0.870738031422128
 40
0.9329689128331063
 40
1.0
 40
1.0
 40
1.0
 40
1.0
 10
285.8136539335627
 20
436.161400511706
 30
0.0
 10
285.8143589417568
 20
436.1613965816323
 30
0.0
 10
285.816829849287
 20
436.161382807539
 30
0.0
 10
285.849872446759
 20
436.16097690138
 30
0.0
 10
286.1906457571715
 20
436.1603935606258
 30
0.0
 10
286.6925098019756
 20
436.1600996024941
 30
0.0
 10
287.5366344342668
 20
436.1603165931401
 30
0.0
 10
288.4295964595881
 20
436.1608269907086
 30
0.0
 10
289.5679553714962
 20
436.1613678124745
 30
0.0
 10
290.384340888663
 20
436.1614246636668
 30
0.0
 10
290.8076920828701
 20
436.1614541448611
 30
0.0
  0
LINE
  5
258
330
1F
100
AcDbEntity
  8
0
  6
Continuous
 62
     8
370
    18
100
AcDbLine
 10
290.8076920829
 20
437.1614541449
 30
0.0
 11
290.8076920829
 21
436.1614541449
 31
0.0
  0
LINE
  5
259
330
1F
100
AcDbEntity
  8
0
  6
Continuous
 62
     8
370
    18
100
AcDbLine
 10
220.8076950168
 20
437.1614541449
 30
0.0
 11
220.8076950168
 21
436.1614541449
 31
0.0
  0
LINE
  5
25A
330
1F
100
AcDbEntity
  8
0
  6
Continuous
 62
     8
370
    18
100
AcDbLine
 10
119.8086012598
 20
436.132930972
 30
0.0
 11
113.3085620811
 21
436.132930972
 31
0.0
  0
SPLINE
  5
25B
330
1F
100
AcDbEntity
  8
0
  6
Continuous
 62
     8
370
    18
100
AcDbSpline
210
0.0
220
0.0
230
1.0
 70
     8
 71
     3
 72
    10
 73
     6
 74
     0
 42
0.00000001
 43
0.00000001
 40
0.0
 40
0.0
 40
0.0
 40
0.0
 40
0.3993683198037463
 40
0.8320996210881265
 40
1.664209903381074
 40
1.664209903381074
 40
1.664209903381074
 40
1.664209903381074
 10
113.3085246265726
 20
437.1614863506837
 30
0.0
 10
113.308707427674
 20
437.1615596118385
 30
0.0
 10
113.3087117257133
 20
437.1100064039857
 30
0.0
 10
113.3087240913231
 20
436.8087478153936
 30
0.0
 10
113.3087355885192
 20
436.4027939419669
 30
0.0
 10
113.3085605742397
 20
436.1329309720463
 30
0.0
  0
LINE
  5
25C
330
1F
100
AcDbEntity
  8
0
  6
Continuous
 62
     8
370
    18
100
AcDbLine
 10
119.6229319246
 20
417.2610777208
 30
0.0
 11
119.6229319246
 21
417.261081479
 31
0.0
  0
LINE
  5
25D
330
1F
100
AcDbEntity
  8
0
  6
Continuous
 62
     8
370
    18
100
AcDbLine
 10
118.9943222674
 20
415.9067199453
 30
0.0
 11
118.9986737999
 21
415.9160940518
 31
0.0
  0
LINE
  5
25E
330
1F
100
AcDbEntity
  8
0
  6
Continuous
 62
     8
370
    18
100
AcDbLine
 10
105.037210946
 20
395.1613877083
 30
0.0
 11
104.9155119556
 21
395.1613862626
 31
0.0
  0
SPLINE
  5
25F
330
1F
100
AcDbEntity
  8
0
  6
Continuous
 62
     8
370
    18
100
AcDbSpline
210
0.0
220
0.0
230
1.0
 70
     8
 71
     3
 72
     9
 73
     5
 74
     0
 42
0.00000001
 43
0.00000001
 40
0.0
 40
0.0
 40
0.0
 40
0.0
 40
0.4894382836512279
 40
1.0
 40
1.0
 40
1.0
 40
1.0
 10
104.9179070781095
 20
395.1665709153392
 30
0.0
 10
104.9172273524354
 20
395.1650990517833
 30
0.0
 10
104.9158385651322
 20
395.1620918012166
 30
0.0
 10
104.9156223473228
 20
395.1616247308673
 30
0.0
 10
104.915511954787
 20
395.1613862626282
 30
0.0
  0
SPLINE
  5
260
330
1F
100
AcDbEntity
  8
0
  6
Continuous
 62
     8
370
    18
100
AcDbSpline
210
0.0
220
0.0
230
1.0
 70
     8
 71
     3
 72
    10
 73
     6
 74
     0
 42
0.00000001
 43
0.00000001
 40
0.0
 40
0.0
 40
0.0
 40
0.0
 40
0.2931752632226625
 40
0.6263565044222404
 40
1.0
 40
1.0
 40
1.0
 40
1.0
 10
104.9487443163812
 20
395.2336048123101
 30
0.0
 10
104.944374108534
 20
395.2240791963652
 30
0.0
 10
104.9350373449864
 20
395.2037281222663
 30
0.0
 10
104.9241475920017
 20
395.1800922718172
 30
0.0
 10
104.9200651493559
 20
395.1712468204219
 30
0.0
 10
104.9179070781095
 20
395.1665709153392
 30
0.0
  0
SPLINE
  5
261
330
1F
100
AcDbEntity
  8
0
  6
Continuous
 62
     8
370
    18
100
AcDbSpline
210
0.0
220
0.0
230
1.0
 70
     8
 71
     3
 72
    11
 73
     7
 74
     0
 42
0.00000001
 43
0.00000001
 40
0.0
 40
0.0
 40
0.0
 40
0.0
 40
0.1901752790867507
 40
0.4884990507906261
 40
0.8948048304960163
 40
1.0
 40
1.0
 40
1.0
 40
1.0
 10
105.0540719180655
 20
395.4625342074656
 30
0.0
 10
105.0456996727779
 20
395.4444404655957
 30
0.0
 10
105.0241940707057
 20
395.3979634693681
 30
0.0
 10
104.9897618756956
 20
395.3231718439473
 30
0.0
 10
104.9640263257479
 20
395.2670057577507
 30
0.0
 10
104.9513511003658
 20
395.2393022993067
 30
0.0
 10
104.9487443163812
 20
395.2336048123101
 30
0.0
  0
SPLINE
  5
262
330
1F
100
AcDbEntity
  8
0
  6
Continuous
 62
     8
370
    18
100
AcDbSpline
210
0.0
220
0.0
230
1.0
 70
     8
 71
     3
 72
    16
 73
    12
 74
     0
 42
0.00000001
 43
0.00000001
 40
0.0
 40
0.0
 40
0.0
 40
0.0
 40
0.1196130610967654
 40
0.2397825890856873
 40
0.3603469184261407
 40
0.4811170052045842
 40
0.6019048824869304
 40
0.722551887918109
 40
0.8429572572662433
 40
0.9631074410950005
 40
1.0
 40
1.0
 40
1.0
 40
1.0
 10
105.3950791595416
 20
396.1898467364272
 30
0.0
 10
105.3802920876068
 20
396.1581506196456
 30
0.0
 10
105.3506491509492
 20
396.0946109286105
 30
0.0
 10
105.3063640433512
 20
395.9998412432087
 30
0.0
 10
105.2625494399767
 20
395.9061929099163
 30
0.0
 10
105.2195801981378
 20
395.8144858209505
 30
0.0
 10
105.1778523636129
 20
395.7255488503176
 30
0.0
 10
105.1377128481945
 20
395.6401921995462
 30
0.0
 10
105.099687908608
 20
395.5593013816245
 30
0.0
 10
105.0719518664518
 20
395.5009677054673
 30
0.0
 10
105.0574732433708
 20
395.469845460636
 30
0.0
 10
105.0540719180655
 20
395.4625342074656
 30
0.0
  0
LINE
  5
263
330
1F
100
AcDbEntity
  8
0
  6
Continuous
 62
     8
370
    18
100
AcDbLine
 10
105.3950791595
 20
396.1898467364
 30
0.0
 11
109.84298406
 21
396.1898995723
 31
0.0
  0
LINE
  5
264
330
1F
100
AcDbEntity
  8
0
  6
Continuous
 62
     8
370
    18
100
AcDbLine
 10
109.3656383093
 20
395.1614391249
 30
0.0
 11
105.0395904995
 21
395.1613877365
 31
0.0
  0
SPLINE
  5
265
330
1F
100
AcDbEntity
  8
0
  6
Continuous
 62
     8
370
    18
100
AcDbSpline
210
0.0
220
0.0
230
1.0
 70
     8
 71
     3
 72
    18
 73
    14
 74
     0
 42
0.00000001
 43
0.00000001
 40
0.0
 40
0.0
 40
0.0
 40
0.0
 40
0.0649748621626597
 40
0.1324190743042032
 40
0.2030639471088765
 40
0.3196409111192745
 40
0.4442330392230255
 40
0.5723719898351324
 40
0.7246898828399806
 40
0.784562388706883
 40
0.8580047632929195
 40
0.9361134807583903
 40
0.9999999999999999
 40
0.9999999999999999
 40
0.9999999999999999
 40
0.9999999999999999
 10
84.28727925401908
 20
463.1990528923754
 30
0.0
 10
84.28144124586734
 20
463.233530870846
 30
0.0
 10
84.26954335783019
 20
463.303797152928
 30
0.0
 10
84.25149759519823
 20
463.4104207636111
 30
0.0
 10
84.22953129354171
 20
463.5411121993869
 30
0.0
 10
84.20325186004202
 20
463.6936012957273
 30
0.0
 10
84.17637139440151
 20
463.8564384880658
 30
0.0
 10
84.15007766432551
 20
464.0072318415561
 30
0.0
 10
84.13460872071602
 20
464.1029838604674
 30
0.0
 10
84.1246660366623
 20
464.159938309592
 30
0.0
 10
84.11962065858499
 20
464.1909090246655
 30
0.0
 10
84.11640968938697
 20
464.2100601771994
 30
0.0
 10
84.11599604919759
 20
464.2122602537046
 30
0.0
 10
84.11580994413853
 20
464.2132501124721
 30
0.0
  0
SPLINE
  5
266
330
1F
100
AcDbEntity
  8
0
  6
Continuous
 62
     8
370
    18
100
AcDbSpline
210
0.0
220
0.0
230
1.0
 70
     8
 71
     3
 72
    10
 73
     6
 74
     0
 42
0.00000001
 43
0.00000001
 40
0.0
 40
0.0
 40
0.0
 40
0.0
 40
0.5
 40
0.5
 40
1.0
 40
1.0
 40
1.0
 40
1.0
 10
84.2872792144033
 20
463.1990528899973
 30
0.0
 10
84.15510067688636
 20
463.176725286597
 30
0.0
 10
84.01122566023695
 20
463.1524218762187
 30
0.0
 10
83.73765475750719
 20
463.1062101001384
 30
0.0
 10
83.60931017321538
 20
463.0845299958484
 30
0.0
 10
83.50997974131117
 20
463.0677509312774
 30
0.0
  0
LINE
  5
267
330
1F
100
AcDbEntity
  8
0
  6
Continuous
 62
     8
370
    18
100
AcDbLine
 10
290.8076920829
 20
436.1614541449
 30
0.0
 11
389.8081451554
 21
436.1614541449
 31
0.0
  0
LINE
  5
268
330
1F
100
AcDbEntity
  8
0
  6
Continuous
 62
     8
370
    18
100
AcDbLine
 10
389.8081451554
 20
396.1614541449
 30
0.0
 11
389.8081451554
 21
436.1614541449
 31
0.0
  0
LINE
  5
269
330
1F
100
AcDbEntity
  8
0
  6
Continuous
 62
     8
370
    18
100
AcDbLine
 10
121.8081451554
 20
396.1614541449
 30
0.0
 11
389.8081451554
 21
396.1614541449
 31
0.0
  0
LINE
  5
26A
330
1F
100
AcDbEntity
  8
0
  6
Continuous
 62
     8
370
    18
100
AcDbLine
 10
121.8081451554
 20
436.1614541449
 30
0.0
 11
121.8081451554
 21
396.1614541449
 31
0.0
  0
LINE
  5
26B
330
1F
100
AcDbEntity
  8
0
  6
Continuous
 62
     8
370
    18
100
AcDbLine
 10
121.8081451554
 20
436.1614541449
 30
0.0
 11
220.8076950168
 21
436.1614541449
 31
0.0
  0
SPLINE
  5
26C
330
1F
100
AcDbEntity
  8
0
  6
Continuous
 62
     8
370
    18
100
AcDbSpline
210
0.0
220
0.0
230
1.0
 70
     8
 71
     3
 72
    19
 73
    15
 74
     0
 42
0.00000001
 43
0.00000001
 40
0.0
 40
0.0
 40
0.0
 40
0.0
 40
0.0525935426237226
 40
0.1067097876359916
 40
0.1623487544806466
 40
0.2195104526886511
 40
0.2992332221168265
 40
0.4432660754399565
 40
0.5665984622897282
 40
0.7028382722892779
 40
0.7637169906339552
 40
0.8379718018123105
 40
0.9329417519211657
 40
1.0
 40
1.0
 40
1.0
 40
1.0
 10
389.8081451554488
 20
436.1614541448613
 30
0.0
 10
389.8081348463157
 20
436.1889722289518
 30
0.0
 10
389.8081139295767
 20
436.244805108103
 30
0.0
 10
389.8079045892442
 20
436.3291640998365
 30
0.0
 10
389.8076988626956
 20
436.4146429692749
 30
0.0
 10
389.8068370747361
 20
436.5109858305248
 30
0.0
 10
389.8086248074273
 20
436.6462318487893
 30
0.0
 10
389.8128718114552
 20
436.7992024219841
 30
0.0
 10
389.815684038128
 20
436.9481652974292
 30
0.0
 10
389.8145308761722
 20
437.0398925911575
 30
0.0
 10
389.8125747221237
 20
437.0977110390203
 30
0.0
 10
389.8107410569179
 20
437.1346267582794
 30
0.0
 10
389.8087976435535
 20
437.1577245568276
 30
0.0
 10
389.8083361519477
 20
437.1603624188184
 30
0.0
 10
389.8081451554488
 20
437.1614541448621
 30
0.0
  0
LINE
  5
26D
330
1F
100
AcDbEntity
  8
0
  6
Continuous
 62
     8
370
    18
100
AcDbLine
 10
121.8081451554
 20
437.1614541449
 30
0.0
 11
121.8081451554
 21
436.1614541449
 31
0.0
  0
LINE
  5
26E
330
1F
100
AcDbEntity
  8
0
  6
Continuous
 62
     8
370
    18
100
AcDbLine
 10
94.3090757166
 20
396.1898616474
 30
0.0
 11
96.3089290837
 21
396.1898606325
 31
0.0
  0
SPLINE
  5
26F
330
1F
100
AcDbEntity
  8
0
  6
Continuous
 62
     8
370
    18
100
AcDbSpline
210
0.0
220
0.0
230
1.0
 70
     8
 71
     3
 72
    10
 73
     6
 74
     0
 42
0.00000001
 43
0.00000001
 40
0.0
 40
0.0
 40
0.0
 40
0.0
 40
0.5
 40
0.5
 40
1.0
 40
1.0
 40
1.0
 40
1.0
 10
96.30894129903147
 20
395.1612924512662
 30
0.0
 10
96.3089413017958
 20
395.1610907330962
 30
0.0
 10
96.30893998494436
 20
395.2719688982028
 30
0.0
 10
96.30893546031704
 20
395.6529046731076
 30
0.0
 10
96.3089322879976
 20
395.9199726685706
 30
0.0
 10
96.30892908204697
 20
396.1898606322823
 30
0.0
  0
LINE
  5
270
330
1F
100
AcDbEntity
  8
0
  6
Continuous
 62
     8
370
    18
100
AcDbLine
 10
96.3089290837
 20
396.1898606325
 30
0.0
 11
105.3950791595
 21
396.1898467363
 31
0.0
  0
LINE
  5
271
330
1F
100
AcDbEntity
  8
0
  6
Continuous
 62
     8
370
    18
100
AcDbLine
 10
113.3088352265
 20
413.1614972864
 30
0.0
 11
117.7201811741
 21
413.161549688
 31
0.0
  0
LINE
  5
272
330
1F
100
AcDbEntity
  8
0
  6
Continuous
 62
     8
370
    18
100
AcDbLine
 10
113.3088361165
 20
413.1614972868
 30
0.0
 11
113.308563243
 21
436.1329309721
 31
0.0
  0
LINE
  5
273
330
1F
100
AcDbEntity
  8
0
  6
Continuous
 62
     8
370
    18
100
AcDbLine
 10
94.3090756957
 20
396.189861647
 30
0.0
 11
84.2872792137
 21
463.1990528893
 31
0.0
  0
LINE
  5
274
330
1F
100
AcDbEntity
  8
0
  6
Continuous
 62
     8
370
    18
100
AcDbLine
 10
86.2990733299
 20
463.5387903704
 30
0.0
 11
84.2872792411
 21
463.1990528901
 31
0.0
  0
SPLINE
  5
275
330
1F
100
AcDbEntity
  8
0
  6
Continuous
 62
     8
370
    18
100
AcDbSpline
210
0.0
220
0.0
230
1.0
 70
     8
 71
     3
 72
     8
 73
     4
 74
     0
 42
0.00000001
 43
0.00000001
 40
0.0
 40
0.0
 40
0.0
 40
0.0
 40
1.0
 40
1.0
 40
1.0
 40
1.0
 10
91.78024960592334
 20
436.1626995135283
 30
0.0
 10
91.78196489500418
 20
436.1526982513871
 30
0.0
 10
91.78367990700545
 20
436.1426893742134
 30
0.0
 10
91.78539463119695
 20
436.1326766517525
 30
0.0
  0
LINE
  5
276
330
1F
100
AcDbEntity
  8
0
  6
Continuous
 62
     8
370
    18
100
AcDbLine
 10
113.308563243
 20
436.1329309721
 30
0.0
 11
91.7853945972
 21
436.1326753027
 31
0.0
  0
LINE
  5
277
330
1F
100
AcDbEntity
  8
0
  6
Continuous
 62
     8
370
    18
100
AcDbLine
 10
105.3950791595
 20
396.1898467363
 30
0.0
 11
113.3088361165
 21
413.1614972868
 31
0.0
  0
LINE
  5
278
330
1F
100
AcDbEntity
  8
0
  6
Continuous
 62
     8
370
    18
100
AcDbLine
 10
91.6610432992
 20
436.8600894764
 30
0.0
 11
86.4670921793
 21
462.7027882931
 31
0.0
  0
SPLINE
  5
279
330
1F
100
AcDbEntity
  8
0
  6
Continuous
 62
     8
370
    18
100
AcDbSpline
210
0.0
220
0.0
230
1.0
 70
    24
 71
     3
 72
    10
 73
     6
 74
     0
 42
0.00000001
 43
0.00000001
 40
0.0
 40
0.0
 40
0.0
 40
0.0
 40
0.5
 40
0.5
 40
1.0
 40
1.0
 40
1.0
 40
1.0
 10
389.8081451554488
 20
395.1614541443832
 30
0.0
 10
389.8081451554485
 20
395.1614541444458
 30
0.0
 10
389.8081451554484
 20
395.2692272409324
 30
0.0
 10
389.8081451554481
 20
395.639467485968
 30
0.0
 10
389.808145155448
 20
395.8996547570223
 30
0.0
 10
389.8081451554479
 20
396.1614541448612
 30
0.0
  0
SPLINE
  5
27A
330
1F
100
AcDbEntity
  8
0
  6
Continuous
 62
     8
370
    18
100
AcDbSpline
210
0.0
220
0.0
230
1.0
 70
    24
 71
     3
 72
    10
 73
     6
 74
     0
 42
0.00000001
 43
0.00000001
 40
0.0
 40
0.0
 40
0.0
 40
0.0
 40
0.5
 40
0.5
 40
1.0
 40
1.0
 40
1.0
 40
1.0
 10
389.8081451554488
 20
396.1614541448612
 30
0.0
 10
390.0699445432479
 20
396.1614541448612
 30
0.0
 10
390.3301318142117
 20
396.1614541448612
 30
0.0
 10
390.7003720590578
 20
396.1614541448612
 30
0.0
 10
390.8081451554479
 20
396.1614541448612
 30
0.0
 10
390.8081451554479
 20
396.1614541448612
 30
0.0
  0
LINE
  5
27B
330
1F
100
AcDbEntity
  8
0
  6
Continuous
 62
     8
370
    18
100
AcDbLine
 10
389.8081451554
 20
436.1614541449
 30
0.0
 11
390.8081451554
 21
436.1614541449
 31
0.0
  0
LINE
  5
27C
330
1F
100
AcDbEntity
  8
0
  6
Continuous
 62
     8
370
    18
100
AcDbLine
 10
121.8081451554
 20
396.1614541449
 30
0.0
 11
121.8081451554
 21
395.1614541449
 31
0.0
  0
LINE
  5
27D
330
1F
100
AcDbEntity
  8
0
  6
Continuous
 62
     8
370
    18
100
AcDbLine
 10
93.5109476534
 20
396.1898516465
 30
0.0
 11
83.5099798753
 21
463.0677499321
 31
0.0
  0
LINE
  5
27E
330
1F
100
AcDbEntity
  8
0
  6
Continuous
 62
     8
370
    18
100
AcDbLine
 10
121.8081451554
 20
396.1614541449
 30
0.0
 11
120.8081451554
 21
396.1614541449
 31
0.0
  0
LINE
  5
27F
330
1F
100
AcDbEntity
  8
0
  6
Continuous
 62
     8
370
    18
100
AcDbLine
 10
121.8081451554
 20
436.1614541449
 30
0.0
 11
120.8081451554
 21
436.1614541449
 31
0.0
  0
SPLINE
  5
280
330
1F
100
AcDbEntity
  8
0
  6
Continuous
 62
     8
370
    18
100
AcDbSpline
210
0.0
220
0.0
230
1.0
 70
     8
 71
     3
 72
    10
 73
     6
 74
     0
 42
0.00000001
 43
0.00000001
 40
0.0
 40
0.0
 40
0.0
 40
0.0
 40
0.5
 40
0.5
 40
1.0
 40
1.0
 40
1.0
 40
1.0
 10
93.28048416032894
 20
396.1898480212246
 30
0.0
 10
91.61786571258517
 20
407.3247266153568
 30
0.0
 10
89.95377231555504
 20
418.4566779649182
 30
0.0
 10
86.61671369694926
 20
440.7443155257013
 30
0.0
 10
84.94603845890522
 20
451.8863675146028
 30
0.0
 10
83.27305616606625
 20
463.0277288836575
 30
0.0
  0
LINE
  5
281
330
1F
100
AcDbEntity
  8
0
  6
Continuous
 62
     8
370
    18
100
AcDbLine
 10
105.0395904995
 20
395.1613877365
 30
0.0
 11
105.037210946
 21
395.1613877083
 31
0.0
  0
LINE
  5
282
330
1F
100
AcDbEntity
  8
0
  6
Continuous
 62
     8
370
    18
100
AcDbLine
 10
119.6229319264
 20
417.2609287762
 30
0.0
 11
119.6229319264
 21
417.2609309884
 31
0.0
  0
LINE
  5
283
330
1F
100
AcDbEntity
  8
0
  6
Continuous
 62
     8
370
    18
100
AcDbLine
 10
119.6229319264
 20
417.2608759892
 30
0.0
 11
119.6229319264
 21
417.2608778505
 31
0.0
  0
LINE
  5
284
330
1F
100
AcDbEntity
  8
0
  6
Continuous
 62
     8
370
    18
100
AcDbLine
 10
94.3090879427
 20
395.1612455188
 30
0.0
 11
94.3090879427
 21
395.1612687257
 31
0.0
  0
LINE
  5
285
330
1F
100
AcDbEntity
  8
0
  6
Continuous
 62
     8
370
    18
100
AcDbLine
 10
94.3090879339
 20
395.1612373143
 30
0.0
 11
94.3090879339
 21
395.1612455187
 31
0.0
  0
LINE
  5
286
330
1F
100
AcDbEntity
  8
0
  6
Continuous
 62
     8
370
    18
100
AcDbLine
 10
94.309087934
 20
395.1612141074
 30
0.0
 11
94.309087934
 21
395.1612373143
 31
0.0
  0
LINE
  5
287
330
1F
100
AcDbEntity
  8
0
  6
Continuous
 62
     8
370
    18
100
AcDbLine
 10
104.9155119532
 20
395.1613534858
 30
0.0
 11
104.9155119532
 21
395.1613766799
 31
0.0
  0
LINE
  5
288
330
1F
100
AcDbEntity
  8
0
  6
Continuous
 62
     8
370
    18
100
AcDbLine
 10
103.819719506
 20
395.161337211
 30
0.0
 11
104.9155119532
 21
395.1613534858
 31
0.0
  0
LINE
  5
289
330
1F
100
AcDbEntity
  8
0
  6
Continuous
 62
     8
370
    18
100
AcDbLine
 10
111.9105291784
 20
400.6461128008
 30
0.0
 11
111.9105291784
 21
400.212442995
 31
0.0
  0
LWPOLYLINE
  5
28A
330
1F
100
AcDbEntity
  8
0
  6
Continuous
 62
     8
370
    18
100
AcDbPolyline
 90
       12
 70
   128
 43
0.0
 10
97.0276703654
 20
394.3107236633
 10
97.0330994874
 20
394.3107240047
 10
97.280503698
 20
394.3107285247
 10
97.8733104229
 20
394.3107369657
 10
98.7534916095
 20
394.3107485017
 10
99.8348889907
 20
394.3107620032
 10
101.0116478562
 20
394.3107761488
 10
102.1685788495
 20
394.3107895536
 10
103.192433504
 20
394.3108009056
 10
103.9829897925
 20
394.3108090936
 10
104.4628625574
 20
394.310813316
 10
104.5905076311
 20
394.3108135009
  0
LINE
  5
28B
330
1F
100
AcDbEntity
  8
0
  6
Continuous
 62
     8
370
    18
100
AcDbLine
 10
94.3090879339
 20
395.1612373014
 30
0.0
 11
96.3089412994
 21
395.1612606424
 31
0.0
  0
LWPOLYLINE
  5
28C
330
1F
100
AcDbEntity
  8
0
  6
Continuous
 62
     8
370
    18
100
AcDbPolyline
 90
        9
 70
   128
 43
0.0
 10
105.0372109459
 20
395.1613660251
 10
105.0467735529
 20
395.1613662835
 10
105.0536083866
 20
395.1613665103
 10
105.0577110474
 20
395.1613667054
 10
105.0590788944
 20
395.1613668688
 10
105.0577110474
 20
395.1613670001
 10
105.0536083866
 20
395.1613670995
 10
105.0467735529
 20
395.1613671668
 10
105.0372109459
 20
395.161367202
  0
LINE
  5
28D
330
1F
100
AcDbEntity
  8
0
  6
Continuous
 62
     8
370
    18
100
AcDbLine
 10
104.915511953
 20
395.1613610929
 30
0.0
 11
109.3656796453
 21
395.161413494
 31
0.0
  0
LINE
  5
28E
330
1F
100
AcDbEntity
  8
0
  6
Continuous
 62
     8
370
    18
100
AcDbLine
 10
105.037210946
 20
395.1613331202
 30
0.0
 11
105.0395906103
 21
395.1613331485
 31
0.0
  0
LINE
  5
28F
330
1F
100
AcDbEntity
  8
0
  6
Continuous
 62
     8
370
    18
100
AcDbLine
 10
110.4453838018
 20
397.4877806724
 30
0.0
 11
110.4454738864
 21
397.4877775276
 31
0.0
  0
LINE
  5
290
330
1F
100
AcDbEntity
  8
0
  6
Continuous
 62
     8
370
    18
100
AcDbLine
 10
415.8081451554
 20
396.1614541449
 30
0.0
 11
415.8081451554
 21
395.1614541449
 31
0.0
  0
LINE
  5
291
330
1F
100
AcDbEntity
  8
0
  6
Continuous
 62
     8
370
    18
100
AcDbLine
 10
415.8081451554
 20
396.1614541449
 30
0.0
 11
416.8081451554
 21
396.1614541449
 31
0.0
  0
LINE
  5
292
330
1F
100
AcDbEntity
  8
0
  6
Continuous
 62
     8
370
    18
100
AcDbLine
 10
415.8081451554
 20
396.1614541449
 30
0.0
 11
415.8081451554
 21
436.1614541449
 31
0.0
  0
LINE
  5
293
330
1F
100
AcDbEntity
  8
0
  6
Continuous
 62
     8
370
    18
100
AcDbLine
 10
415.8081451554
 20
436.1614541449
 30
0.0
 11
416.8081451554
 21
436.1614541449
 31
0.0
  0
LINE
  5
294
330
1F
100
AcDbEntity
  8
0
  6
Continuous
 62
     8
370
    18
100
AcDbLine
 10
415.8081451554
 20
437.1614541449
 30
0.0
 11
415.8081451554
 21
436.1614541449
 31
0.0
  0
LINE
  5
295
330
1F
100
AcDbEntity
  8
0
  6
Continuous
 62
     8
370
    18
100
AcDbLine
 10
392.3081451554
 20
396.1614541449
 30
0.0
 11
392.3081451554
 21
395.1614541449
 31
0.0
  0
LINE
  5
296
330
1F
100
AcDbEntity
  8
0
  6
Continuous
 62
     8
370
    18
100
AcDbLine
 10
392.3081451554
 20
396.1614541449
 30
0.0
 11
415.8081451554
 21
396.1614541449
 31
0.0
  0
LINE
  5
297
330
1F
100
AcDbEntity
  8
0
  6
Continuous
 62
     8
370
    18
100
AcDbLine
 10
415.8081451554
 20
436.1614541449
 30
0.0
 11
392.3081451554
 21
436.1614541449
 31
0.0
  0
LINE
  5
298
330
1F
100
AcDbEntity
  8
0
  6
Continuous
 62
     8
370
    18
100
AcDbLine
 10
392.3081451554
 20
437.1614541449
 30
0.0
 11
392.3081451554
 21
436.1614541449
 31
0.0
  0
LINE
  5
299
330
1F
100
AcDbEntity
  8
0
  6
Continuous
 62
     8
370
    18
100
AcDbLine
 10
392.3081451554
 20
436.1614541449
 30
0.0
 11
392.3081451554
 21
396.1614541449
 31
0.0
  0
LINE
  5
29A
330
1F
100
AcDbEntity
  8
0
  6
Continuous
 62
     8
370
    18
100
AcDbLine
 10
392.3081451554
 20
396.1614541449
 30
0.0
 11
391.8081451554
 21
396.1614541449
 31
0.0
  0
LINE
  5
29B
330
1F
100
AcDbEntity
  8
0
  6
Continuous
 62
     8
370
    18
100
AcDbLine
 10
392.3081451554
 20
436.1614541449
 30
0.0
 11
391.8081451554
 21
436.1614541449
 31
0.0
  0
LINE
  5
29C
330
1F
100
AcDbEntity
  8
0
  6
Continuous
 62
     8
370
    18
100
AcDbLine
 10
400.0267265224
 20
394.3109067749
 30
0.0
 11
407.5895637885
 21
394.3109067749
 31
0.0
  0
LINE
  5
29D
330
1F
100
AcDbEntity
  8
0
  6
Continuous
 62
     7
370
    25
100
AcDbLine
 10
346.7475841668
 20
227.1780151874
 30
0.0
 11
346.7475841668
 21
239.5780151874
 31
0.0
  0
LINE
  5
29E
330
1F
100
AcDbEntity
  8
0
  6
Continuous
 62
     7
370
    25
100
AcDbLine
 10
314.7475841668
 20
239.5780151874
 30
0.0
 11
314.7475841668
 21
227.1780151874
 31
0.0
  0
ARC
  5
29F
330
1F
100
AcDbEntity
  8
0
  6
Continuous
 62
     7
370
    25
100
AcDbCircle
 10
167.2081451574
 20
1456.7909826982
 30
0.0
 40
1200.0
100
AcDbArc
 50
269.0774059646
 51
270.0
  0
ARC
  5
2A0
330
1F
100
AcDbEntity
  8
0
  6
Continuous
 62
     7
370
    25
100
AcDbCircle
 10
194.4081451574
 20
1456.7909826982
 30
0.0
 40
1200.0
100
AcDbArc
 50
270.0
 51
270.9225927655
  0
LINE
  5
2A1
330
1F
100
AcDbEntity
  8
0
  6
Continuous
 62
     7
370
    25
100
AcDbLine
 10
167.2081451575
 20
256.7909826982
 30
0.0
 11
194.4081451575
 21
256.7909826982
 31
0.0
  0
LINE
  5
2A2
330
1F
100
AcDbEntity
  8
0
  6
Continuous
 62
     7
370
    25
100
AcDbLine
 10
145.5018717066
 20
282.7909826982
 30
0.0
 11
145.9186915998
 21
258.9113870086
 31
0.0
  0
LINE
  5
2A3
330
1F
100
AcDbEntity
  8
0
  6
Continuous
 62
     7
370
    25
100
AcDbLine
 10
215.6975987151
 20
258.9113870087
 30
0.0
 11
216.1144186083
 21
282.7909826982
 31
0.0
  0
ARC
  5
2A4
330
1F
100
AcDbEntity
  8
0
  6
Continuous
 62
     7
370
    25
100
AcDbCircle
 10
147.9183870164
 20
258.9462910962
 30
0.0
 40
1.999999999987059
100
AcDbArc
 50
181.0216013496
 51
269.1059931341
  0
ARC
  5
2A5
330
1F
100
AcDbEntity
  8
0
  6
Continuous
 62
     7
370
    25
100
AcDbCircle
 10
213.6979032986
 20
258.9462910962
 30
0.0
 40
1.999999999986964
100
AcDbArc
 50
270.9103692834
 51
358.9714995971
  0
ARC
  5
2A6
330
1F
100
AcDbEntity
  8
0
  6
Continuous
 62
     7
370
    25
100
AcDbCircle
 10
317.2081451535
 20
1456.7909826982
 30
0.0
 40
1200.0
100
AcDbArc
 50
269.0774059646
 51
270.0
  0
ARC
  5
2A7
330
1F
100
AcDbEntity
  8
0
  6
Continuous
 62
     7
370
    25
100
AcDbCircle
 10
344.4081451535
 20
1456.7909826982
 30
0.0
 40
1200.0
100
AcDbArc
 50
270.0
 51
270.9225927655
  0
LINE
  5
2A8
330
1F
100
AcDbEntity
  8
0
  6
Continuous
 62
     7
370
    25
100
AcDbLine
 10
317.2081451534
 20
256.7909826982
 30
0.0
 11
344.4081451534
 21
256.7909826982
 31
0.0
  0
LINE
  5
2A9
330
1F
100
AcDbEntity
  8
0
  6
Continuous
 62
     7
370
    25
100
AcDbLine
 10
295.5018717026
 20
282.7909826982
 30
0.0
 11
295.9186915958
 21
258.9113870087
 31
0.0
  0
LINE
  5
2AA
330
1F
100
AcDbEntity
  8
0
  6
Continuous
 62
     7
370
    25
100
AcDbLine
 10
365.6975987111
 20
258.9113870086
 30
0.0
 11
366.1144186043
 21
282.7909826982
 31
0.0
  0
ARC
  5
2AB
330
1F
100
AcDbEntity
  8
0
  6
Continuous
 62
     7
370
    25
100
AcDbCircle
 10
297.9183870123
 20
258.9462910962
 30
0.0
 40
1.99999999998695
100
AcDbArc
 50
181.0216013496
 51
269.1059931341
  0
ARC
  5
2AC
330
1F
100
AcDbEntity
  8
0
  6
Continuous
 62
     7
370
    25
100
AcDbCircle
 10
363.6979032945
 20
258.9462910962
 30
0.0
 40
1.999999999987076
100
AcDbArc
 50
270.9103692834
 51
358.971499597
  0
SPLINE
  5
2AD
330
1F
100
AcDbEntity
  8
0
  6
Continuous
 62
     7
370
    25
100
AcDbSpline
210
0.0
220
0.0
230
1.0
 70
     8
 71
     3
 72
    11
 73
     7
 74
     0
 42
0.00000001
 43
0.00000001
 40
0.0
 40
0.0
 40
0.0
 40
0.0
 40
0.2499603475588294
 40
0.500000622501259
 40
0.7498810471225787
 40
1.0
 40
1.0
 40
1.0
 40
1.0
 10
83.2834553980731
 20
184.9591803391031
 30
0.0
 10
83.29962183228162
 20
184.8240760989694
 30
0.0
 10
83.33195987008179
 20
184.5538244177363
 30
0.0
 10
83.57306865142297
 20
184.2072517943402
 30
0.0
 10
83.91569704135077
 20
183.961854747518
 30
0.0
 10
84.18411273434398
 20
183.9271212390867
 30
0.0
 10
84.31838460564747
 20
183.9097461999375
 30
0.0
  0
SPLINE
  5
2AE
330
1F
100
AcDbEntity
  8
0
  6
Continuous
 62
     7
370
    25
100
AcDbSpline
210
0.0
220
0.0
230
1.0
 70
     8
 71
     3
 72
    11
 73
     7
 74
     0
 42
0.00000001
 43
0.00000001
 40
0.0
 40
0.0
 40
0.0
 40
0.0
 40
0.250075696861783
 40
0.5000003197891374
 40
0.7499050636916562
 40
1.0
 40
1.0
 40
1.0
 40
1.0
 10
84.31831763136834
 20
225.8721530951942
 30
0.0
 10
84.18468048009447
 20
225.8549274288555
 30
0.0
 10
83.91748690946305
 20
225.820486502424
 30
0.0
 10
83.57593356681242
 20
225.5772056272715
 30
0.0
 10
83.33446880480275
 20
225.2333071183848
 30
0.0
 10
83.3005010707036
 20
224.96443680745
 30
0.0
 10
83.28351074324489
 20
224.8299505148587
 30
0.0
  0
LINE
  5
2AF
330
1F
100
AcDbEntity
  8
0
  6
Continuous
 62
     7
370
    25
100
AcDbLine
 10
83.2585409239
 20
224.8980048137
 30
0.0
 11
83.2585410512
 21
184.8841088265
 31
0.0
  0
LINE
  5
2B0
330
1F
100
AcDbEntity
  8
0
  6
Continuous
 62
     7
370
    25
100
AcDbLine
 10
113.3085643774
 20
183.8910183226
 30
0.0
 11
119.8476053071
 21
183.8910183226
 31
0.0
  0
LINE
  5
2B1
330
1F
100
AcDbEntity
  8
0
  6
Continuous
 62
     7
370
    25
100
AcDbLine
 10
119.8086051064
 20
225.8909313188
 30
0.0
 11
113.3085807067
 21
225.8909313188
 31
0.0
  0
LINE
  5
2B2
330
1F
100
AcDbEntity
  8
0
  6
Continuous
 62
     7
370
    25
100
AcDbLine
 10
91.9641969273
 20
183.8909496926
 30
0.0
 11
113.438764445
 21
183.8909719132
 31
0.0
  0
LINE
  5
2B3
330
1F
100
AcDbEntity
  8
0
  6
Continuous
 62
     7
370
    25
100
AcDbLine
 10
225.8071867288
 20
164.2108639338
 30
0.0
 11
225.8070548333
 21
163.8909826982
 31
0.0
  0
ARC
  5
2B4
330
1F
100
AcDbEntity
  8
0
  6
Continuous
 62
     7
370
    25
100
AcDbCircle
 10
127.3087770621
 20
220.3727520368
 30
0.0
 40
35.00000000000001
100
AcDbArc
 50
257.626433496
 51
259.2961675874
  0
ARC
  5
2B5
330
1F
100
AcDbEntity
  8
0
  6
Continuous
 62
     7
370
    25
100
AcDbCircle
 10
127.3087770621
 20
189.4092133596
 30
0.0
 40
34.99999999999999
100
AcDbArc
 50
100.7038324126
 51
102.4258366946
  0
LINE
  5
2B6
330
1F
100
AcDbEntity
  8
0
  6
Continuous
 62
     7
370
    25
100
AcDbLine
 10
196.8081451575
 20
226.8909826985
 30
0.0
 11
196.8081451575
 21
239.2909826985
 31
0.0
  0
LINE
  5
2B7
330
1F
100
AcDbEntity
  8
0
  6
Continuous
 62
     7
370
    25
100
AcDbLine
 10
164.8081451575
 20
239.2909826985
 30
0.0
 11
164.8081451575
 21
226.8909826985
 31
0.0
  0
LINE
  5
2B8
330
1F
100
AcDbEntity
  8
0
  6
Continuous
 62
     7
370
    25
100
AcDbLine
 10
346.7475841668
 20
227.1780151874
 30
0.0
 11
314.7475841668
 21
227.1780151874
 31
0.0
  0
LINE
  5
2B9
330
1F
100
AcDbEntity
  8
0
  6
Continuous
 62
     7
370
    25
100
AcDbLine
 10
345.649559129
 20
256.5780151874
 30
0.0
 11
345.649559129
 21
239.5780151874
 31
0.0
  0
LINE
  5
2BA
330
1F
100
AcDbEntity
  8
0
  6
Continuous
 62
     7
370
    25
100
AcDbLine
 10
345.649559129
 20
239.5780151874
 30
0.0
 11
346.7475841668
 21
239.5780151874
 31
0.0
  0
LINE
  5
2BB
330
1F
100
AcDbEntity
  8
0
  6
Continuous
 62
     7
370
    25
100
AcDbLine
 10
345.8411676856
 20
239.5780151874
 30
0.0
 11
345.8411676856
 21
256.5780151874
 31
0.0
  0
LINE
  5
2BC
330
1F
100
AcDbEntity
  8
0
  6
Continuous
 62
     7
370
    25
100
AcDbLine
 10
314.7475841668
 20
239.5780151874
 30
0.0
 11
315.6540006479
 21
239.5780151874
 31
0.0
  0
LINE
  5
2BD
330
1F
100
AcDbEntity
  8
0
  6
Continuous
 62
     7
370
    25
100
AcDbLine
 10
315.6540006479
 20
239.5780151874
 30
0.0
 11
315.6540006479
 21
256.5780151874
 31
0.0
  0
LINE
  5
2BE
330
1F
100
AcDbEntity
  8
0
  6
Continuous
 62
     7
370
    25
100
AcDbLine
 10
345.649559129
 20
256.5780151874
 30
0.0
 11
315.6540006479
 21
256.5780151874
 31
0.0
  0
LINE
  5
2BF
330
1F
100
AcDbEntity
  8
0
  6
Continuous
 62
     7
370
    25
100
AcDbLine
 10
345.8411676856
 20
256.5780151874
 30
0.0
 11
345.649559129
 21
256.5780151874
 31
0.0
  0
LINE
  5
2C0
330
1F
100
AcDbEntity
  8
0
  6
Continuous
 62
     7
370
    25
100
AcDbLine
 10
213.8746902692
 20
282.7909826982
 30
0.0
 11
147.7416000458
 21
282.7909826982
 31
0.0
  0
SPLINE
  5
2C1
330
1F
100
AcDbEntity
  8
0
  6
Continuous
 62
     7
370
    25
100
AcDbSpline
210
0.0
220
0.0
230
1.0
 70
    24
 71
     3
 72
    20
 73
    16
 74
     0
 42
0.00000001
 43
0.00000001
 40
0.0
 40
0.0
 40
0.0
 40
0.0
 40
0.1249999999999984
 40
0.1249999999999984
 40
0.2499999999999969
 40
0.2499999999999969
 40
0.3749999999999953
 40
0.3749999999999953
 40
0.4999999999999938
 40
0.4999999999999938
 40
0.6249999999999922
 40
0.6249999999999922
 40
0.7499999999999907
 40
0.7499999999999907
 40
1.0
 40
1.0
 40
1.0
 40
1.0
 10
145.7752394905052
 20
282.7909826981991
 30
0.0
 10
145.7773764320796
 20
282.7909826981991
 30
0.0
 10
145.7918864581246
 20
282.7909826981991
 30
0.0
 10
145.8446370922443
 20
282.7909826981991
 30
0.0
 10
145.8834339709845
 20
282.7909826981991
 30
0.0
 10
145.9836205678337
 20
282.7909826981991
 30
0.0
 10
146.0444054153901
 20
282.7909826981991
 30
0.0
 10
146.187042819335
 20
282.7909826981991
 30
0.0
 10
146.2698390611026
 20
282.7909826981991
 30
0.0
 10
146.4504804551788
 20
282.7909826981991
 30
0.0
 10
146.5487416519329
 20
282.7909826981991
 30
0.0
 10
146.7613362771133
 20
282.7909826981991
 30
0.0
 10
146.8753617832124
 20
282.7909826981991
 30
0.0
 10
147.2273233032394
 20
282.7909826981991
 30
0.0
 10
147.4831331519497
 20
282.7909826981991
 30
0.0
 10
147.7416000457523
 20
282.7909826981991
 30
0.0
  0
SPLINE
  5
2C2
330
1F
100
AcDbEntity
  8
0
  6
Continuous
 62
     7
370
    25
100
AcDbSpline
210
0.0
220
0.0
230
1.0
 70
    24
 71
     3
 72
    20
 73
    16
 74
     0
 42
0.00000001
 43
0.00000001
 40
0.0
 40
0.0
 40
0.0
 40
0.0
 40
0.1249999999999992
 40
0.1249999999999992
 40
0.2499999999999984
 40
0.2499999999999984
 40
0.3749999999999977
 40
0.3749999999999977
 40
0.4999999999999969
 40
0.4999999999999969
 40
0.6249999999999961
 40
0.6249999999999961
 40
0.7499999999999953
 40
0.7499999999999953
 40
1.0
 40
1.0
 40
1.0
 40
1.0
 10
213.8746902691858
 20
282.7909826982049
 30
0.0
 10
214.0039235762437
 20
282.7909826982049
 30
0.0
 10
214.1308388279793
 20
282.7909826982049
 30
0.0
 10
214.3802234875616
 20
282.7909826982049
 30
0.0
 10
214.5038947726803
 20
282.7909826982049
 30
0.0
 10
214.7402708047756
 20
282.790982698205
 30
0.0
 10
214.8523004431167
 20
282.790982698205
 30
0.0
 10
215.0642246300378
 20
282.790982698205
 30
0.0
 10
215.1648082569498
 20
282.790982698205
 30
0.0
 10
215.3455699791226
 20
282.7909826982051
 30
0.0
 10
215.4267275053904
 20
282.7909826982051
 30
0.0
 10
215.5703737613394
 20
282.7909826982051
 30
0.0
 10
215.6322755154137
 20
282.7909826982051
 30
0.0
 10
215.7817964817118
 20
282.7909826982052
 30
0.0
 10
215.8367769366597
 20
282.7909826982053
 30
0.0
 10
215.8410508244332
 20
282.7909826982053
 30
0.0
  0
LINE
  5
2C3
330
1F
100
AcDbEntity
  8
0
  6
Continuous
 62
     7
370
    25
100
AcDbLine
 10
363.8746902651
 20
282.7909826982
 30
0.0
 11
297.7416000417
 21
282.7909826982
 31
0.0
  0
SPLINE
  5
2C4
330
1F
100
AcDbEntity
  8
0
  6
Continuous
 62
     7
370
    25
100
AcDbSpline
210
0.0
220
0.0
230
1.0
 70
    24
 71
     3
 72
    20
 73
    16
 74
     0
 42
0.00000001
 43
0.00000001
 40
0.0
 40
0.0
 40
0.0
 40
0.0
 40
0.1250000000000008
 40
0.1250000000000008
 40
0.2500000000000016
 40
0.2500000000000016
 40
0.3750000000000023
 40
0.3750000000000023
 40
0.5000000000000031
 40
0.5000000000000031
 40
0.6250000000000039
 40
0.6250000000000039
 40
0.7500000000000047
 40
0.7500000000000047
 40
1.0
 40
1.0
 40
1.0
 40
1.0
 10
295.7752394864658
 20
282.7909826982049
 30
0.0
 10
295.7773764280401
 20
282.7909826982049
 30
0.0
 10
295.791886454085
 20
282.7909826982049
 30
0.0
 10
295.8446370882048
 20
282.7909826982048
 30
0.0
 10
295.8834339669449
 20
282.7909826982048
 30
0.0
 10
295.9836205637942
 20
282.7909826982048
 30
0.0
 10
296.0444054113502
 20
282.7909826982048
 30
0.0
 10
296.1870428152951
 20
282.7909826982047
 30
0.0
 10
296.2698390570631
 20
282.7909826982047
 30
0.0
 10
296.4504804511393
 20
282.7909826982047
 30
0.0
 10
296.5487416478933
 20
282.7909826982047
 30
0.0
 10
296.7613362730737
 20
282.7909826982046
 30
0.0
 10
296.8753617791729
 20
282.7909826982046
 30
0.0
 10
297.2273232992
 20
282.7909826982046
 30
0.0
 10
297.4831331479103
 20
282.7909826982046
 30
0.0
 10
297.7416000417128
 20
282.7909826982046
 30
0.0
  0
SPLINE
  5
2C5
330
1F
100
AcDbEntity
  8
0
  6
Continuous
 62
     7
370
    25
100
AcDbSpline
210
0.0
220
0.0
230
1.0
 70
    24
 71
     3
 72
    20
 73
    16
 74
     0
 42
0.00000001
 43
0.00000001
 40
0.0
 40
0.0
 40
0.0
 40
0.0
 40
0.1249999999999992
 40
0.1249999999999992
 40
0.2499999999999984
 40
0.2499999999999984
 40
0.3749999999999977
 40
0.3749999999999977
 40
0.4999999999999969
 40
0.4999999999999969
 40
0.6249999999999961
 40
0.6249999999999961
 40
0.7499999999999953
 40
0.7499999999999953
 40
1.0
 40
1.0
 40
1.0
 40
1.0
 10
363.8746902651463
 20
282.7909826981989
 30
0.0
 10
364.0039235722043
 20
282.7909826981989
 30
0.0
 10
364.1308388239398
 20
282.7909826981989
 30
0.0
 10
364.3802234835221
 20
282.7909826981988
 30
0.0
 10
364.5038947686408
 20
282.7909826981988
 30
0.0
 10
364.7402708007361
 20
282.7909826981988
 30
0.0
 10
364.8523004390771
 20
282.7909826981988
 30
0.0
 10
365.0642246259982
 20
282.7909826981988
 30
0.0
 10
365.1648082529102
 20
282.7909826981988
 30
0.0
 10
365.345569975083
 20
282.7909826981988
 30
0.0
 10
365.4267275013507
 20
282.7909826981988
 30
0.0
 10
365.5703737572997
 20
282.7909826981988
 30
0.0
 10
365.6322755113739
 20
282.7909826981988
 30
0.0
 10
365.7817964776721
 20
282.7909826981988
 30
0.0
 10
365.8367769326203
 20
282.7909826981989
 30
0.0
 10
365.8410508203938
 20
282.7909826981989
 30
0.0
  0
SPLINE
  5
2C6
330
1F
100
AcDbEntity
  8
0
  6
Continuous
 62
     7
370
    25
100
AcDbSpline
210
0.0
220
0.0
230
1.0
 70
     8
 71
     3
 72
    14
 73
    10
 74
     0
 42
0.00000001
 43
0.00000001
 40
0.0
 40
0.0
 40
0.0
 40
0.0
 40
0.0000100169582886
 40
0.2427390622762659
 40
0.4988200464078516
 40
0.6173475230125939
 40
0.749407283751765
 40
0.8551520683094331
 40
1.0
 40
1.0
 40
1.0
 40
1.0
 10
86.09492596177157
 20
224.862315118827
 30
0.0
 10
86.09492596182966
 20
224.8623204936335
 30
0.0
 10
86.09492736938081
 20
224.9925671664281
 30
0.0
 10
86.10527919600064
 20
225.2628326537582
 30
0.0
 10
86.1425448677561
 20
225.5468095137713
 30
0.0
 10
86.18427653527205
 20
225.7211807790568
 30
0.0
 10
86.21785254502137
 20
225.8122591112812
 30
0.0
 10
86.25679722772836
 20
225.8772141336643
 30
0.0
 10
86.28349564174361
 20
225.8859004989894
 30
0.0
 10
86.29892789415469
 20
225.8909214033082
 30
0.0
  0
LINE
  5
2C7
330
1F
100
AcDbEntity
  8
0
  6
Continuous
 62
     7
370
    25
100
AcDbLine
 10
84.2872792144
 20
225.8909209371
 30
0.0
 11
86.2989278883
 21
225.8909287479
 31
0.0
  0
LINE
  5
2C8
330
1F
100
AcDbEntity
  8
0
  6
Continuous
 62
     7
370
    25
100
AcDbLine
 10
86.0952694123
 20
207.8909654375
 30
0.0
 11
86.0949259617
 21
224.8623151192
 31
0.0
  0
LINE
  5
2C9
330
1F
100
AcDbEntity
  8
0
  6
Continuous
 62
     7
370
    25
100
AcDbLine
 10
86.0948433487
 20
184.919681832
 30
0.0
 11
86.0952694123
 21
201.8910193875
 31
0.0
  0
SPLINE
  5
2CA
330
1F
100
AcDbEntity
  8
0
  6
Continuous
 62
     7
370
    25
100
AcDbSpline
210
0.0
220
0.0
230
1.0
 70
     8
 71
     3
 72
    21
 73
    17
 74
     0
 42
0.00000001
 43
0.00000001
 40
0.0
 40
0.0
 40
0.0
 40
0.0
 40
0.0644497833867345
 40
0.1256967720411111
 40
0.1837405986536395
 40
0.2385809195807004
 40
0.2902174157011161
 40
0.338649793555238
 40
0.3838777868869079
 40
0.425901158772493
 40
0.4647197046282119
 40
0.5003332565698965
 40
0.6304254561319863
 40
0.7570652966286617
 40
0.8802557131095257
 40
1.0
 40
1.0
 40
1.0
 40
1.0
 10
86.29907332683639
 20
183.8909794439111
 30
0.0
 10
86.29219881110112
 20
183.8919863355975
 30
0.0
 10
86.27879140471647
 20
183.89395008207
 30
0.0
 10
86.2594220323781
 20
183.909218296073
 30
0.0
 10
86.24140444750594
 20
183.9316341657309
 30
0.0
 10
86.22481202741533
 20
183.9605018122449
 30
0.0
 10
86.2096748480157
 20
183.9941305469144
 30
0.0
 10
86.19599239360112
 20
184.0311999076345
 30
0.0
 10
86.18373754017917
 20
184.0704438410981
 30
0.0
 10
86.17286466496762
 20
184.1107357107608
 30
0.0
 10
86.16330821524542
 20
184.1510816758506
 30
0.0
 10
86.14742176648721
 20
184.2267038577916
 30
0.0
 10
86.12757828814999
 20
184.3496703093251
 30
0.0
 10
86.108822699754
 20
184.5320752612175
 30
0.0
 10
86.09720499175594
 20
184.7241805610756
 30
0.0
 10
86.09577366703446
 20
184.8551339535555
 30
0.0
 10
86.09506815664133
 20
184.9196818356851
 30
0.0
  0
LINE
  5
2CB
330
1F
100
AcDbEntity
  8
0
  6
Continuous
 62
     7
370
    25
100
AcDbLine
 10
86.2990733299
 20
183.8910604813
 30
0.0
 11
84.2872792411
 21
183.8910697236
 31
0.0
  0
LINE
  5
2CC
330
1F
100
AcDbEntity
  8
0
  6
Continuous
 62
     7
370
    25
100
AcDbLine
 10
86.0952705167
 20
201.8910193875
 30
0.0
 11
86.0952705167
 21
207.8909654375
 31
0.0
  0
LINE
  5
2CD
330
1F
100
AcDbEntity
  8
0
  6
Continuous
 62
     7
370
    25
100
AcDbLine
 10
83.2729091913
 20
184.9198139481
 30
0.0
 11
83.2844811758
 21
184.919775556
 31
0.0
  0
SPLINE
  5
2CE
330
1F
100
AcDbEntity
  8
0
  6
Continuous
 62
     7
370
    25
100
AcDbSpline
210
0.0
220
0.0
230
1.0
 70
     8
 71
     3
 72
    11
 73
     7
 74
     0
 42
0.00000001
 43
0.00000001
 40
0.0
 40
0.0
 40
0.0
 40
0.0
 40
0.4865907243530958
 40
0.7804404717836132
 40
0.9381828041758064
 40
1.0
 40
1.0
 40
1.0
 40
1.0
 10
83.27290912786003
 20
224.8623311300452
 30
0.0
 10
83.26527243002388
 20
224.8622955276229
 30
0.0
 10
83.25302396788953
 20
224.8622384250727
 30
0.0
 10
83.26559599488331
 20
224.8621989176789
 30
0.0
 10
83.27515622465445
 20
224.8621304706734
 30
0.0
 10
83.28351016761349
 20
224.8620353528031
 30
0.0
 10
83.2858622282687
 20
224.8620085722754
 30
0.0
  0
LINE
  5
2CF
330
1F
100
AcDbEntity
  8
0
  6
Continuous
 62
     7
370
    25
100
AcDbLine
 10
86.2989278883
 20
225.8909287479
 30
0.0
 11
91.7767815109
 21
225.8908487114
 31
0.0
  0
SPLINE
  5
2D0
330
1F
100
AcDbEntity
  8
0
  6
Continuous
 62
     7
370
    25
100
AcDbSpline
210
0.0
220
0.0
230
1.0
 70
     8
 71
     3
 72
     8
 73
     4
 74
     0
 42
0.00000001
 43
0.00000001
 40
0.0
 40
0.0
 40
0.0
 40
0.0
 40
0.7852622007704048
 40
0.7852622007704048
 40
0.7852622007704048
 40
0.7852622007704048
 10
91.66013678540699
 20
225.589916758696
 30
0.0
 10
91.69094655158707
 20
225.7693603278011
 30
0.0
 10
91.7332793818976
 20
225.8788140142648
 30
0.0
 10
91.77678151111115
 20
225.8907834592848
 30
0.0
  0
LINE
  5
2D1
330
1F
100
AcDbEntity
  8
0
  6
Continuous
 62
     7
370
    25
100
AcDbLine
 10
91.7802496055
 20
183.8911366752
 30
0.0
 11
86.2990733299
 21
183.8910604813
 31
0.0
  0
SPLINE
  5
2D2
330
1F
100
AcDbEntity
  8
0
  6
Continuous
 62
     7
370
    25
100
AcDbSpline
210
0.0
220
0.0
230
1.0
 70
     8
 71
     3
 72
     8
 73
     4
 74
     0
 42
0.00000001
 43
0.00000001
 40
42.35756088351003
 40
42.35756088351003
 40
42.35756088351003
 40
42.35756088351003
 40
43.16455052238129
 40
43.16455052238129
 40
43.16455052238129
 40
43.16455052238129
 10
91.78024960592433
 20
183.8912542302379
 30
0.0
 10
91.73625379115168
 20
183.8977611899457
 30
0.0
 10
91.69260741511204
 20
184.0081432956174
 30
0.0
 10
91.66104329915728
 20
184.1919622124967
 30
0.0
  0
SPLINE
  5
2D3
330
1F
100
AcDbEntity
  8
0
  6
Continuous
 62
     7
370
    25
100
AcDbSpline
210
0.0
220
0.0
230
1.0
 70
     8
 71
     3
 72
     8
 73
     4
 74
     0
 42
0.00000001
 43
0.00000001
 40
41.93241741382878
 40
41.93241741382878
 40
41.93241741382878
 40
41.93241741382878
 40
42.35756088351003
 40
42.35756088351003
 40
42.35756088351003
 40
42.35756088351003
 10
91.66104329915728
 20
184.1919622124967
 30
0.0
 10
91.64410117770308
 20
184.2906274949427
 30
0.0
 10
91.63065699235231
 20
184.410409871287
 30
0.0
 10
91.62180247919052
 20
184.5409472484329
 30
0.0
  0
SPLINE
  5
2D4
330
1F
100
AcDbEntity
  8
0
  6
Continuous
 62
     7
370
    25
100
AcDbSpline
210
0.0
220
0.0
230
1.0
 70
     8
 71
     3
 72
     8
 73
     4
 74
     0
 42
0.00000001
 43
0.00000001
 40
41.54207261304423
 40
41.54207261304423
 40
41.54207261304423
 40
41.54207261304423
 40
41.93240655977063
 40
41.93240655977063
 40
41.93240655977063
 40
41.93240655977063
 10
91.62180179968662
 20
184.5409572661509
 30
0.0
 10
91.61365646211148
 20
184.6610433365768
 30
0.0
 10
91.60940338695927
 20
184.7901280359134
 30
0.0
 10
91.60941197588538
 20
184.9195604067752
 30
0.0
  0
LINE
  5
2D5
330
1F
100
AcDbEntity
  8
0
  6
Continuous
 62
     7
370
    25
100
AcDbLine
 10
91.6090577668
 20
201.8910048964
 30
0.0
 11
91.6090577668
 21
207.8909534622
 31
0.0
  0
LINE
  5
2D6
330
1F
100
AcDbEntity
  8
0
  6
Continuous
 62
     7
370
    25
100
AcDbLine
 10
91.6094119759
 20
184.9195604068
 30
0.0
 11
91.6090577664
 21
201.8910048965
 31
0.0
  0
LINE
  5
2D7
330
1F
100
AcDbEntity
  8
0
  6
Continuous
 62
     7
370
    25
100
AcDbLine
 10
91.6090577666
 20
207.8909534622
 30
0.0
 11
91.6085387824
 21
224.8623192763
 31
0.0
  0
SPLINE
  5
2D8
330
1F
100
AcDbEntity
  8
0
  6
Continuous
 62
     7
370
    25
100
AcDbSpline
210
0.0
220
0.0
230
1.0
 70
     8
 71
     3
 72
     8
 73
     4
 74
     0
 42
0.00000001
 43
0.00000001
 40
0.0
 40
0.0
 40
0.0
 40
0.0
 40
1.0
 40
1.0
 40
1.0
 40
1.0
 10
91.60853273618812
 20
224.8623192811917
 30
0.0
 10
91.60851367536385
 20
224.9917517543066
 30
0.0
 10
91.61276288403266
 20
225.1208366367762
 30
0.0
 10
91.62090563526564
 20
225.2409229352406
 30
0.0
  0
SPLINE
  5
2D9
330
1F
100
AcDbEntity
  8
0
  6
Continuous
 62
     7
370
    25
100
AcDbSpline
210
0.0
220
0.0
230
1.0
 70
     8
 71
     3
 72
     8
 73
     4
 74
     0
 42
0.00000001
 43
0.00000001
 40
0.7852622007704048
 40
0.7852622007704048
 40
0.7852622007704048
 40
0.7852622007704048
 40
1.210404879910861
 40
1.210404879910861
 40
1.210404879910861
 40
1.210404879910861
 10
91.62090626790312
 20
225.2409322673114
 30
0.0
 10
91.62975574861757
 20
225.3714695793653
 30
0.0
 10
91.64319638596378
 20
225.4912517535789
 30
0.0
 10
91.66013678540699
 20
225.589916758696
 30
0.0
  0
LINE
  5
2DA
330
1F
100
AcDbEntity
  8
0
  6
Continuous
 62
     7
370
    25
100
AcDbLine
 10
83.5666693128
 20
184.2591776377
 30
0.0
 11
83.5099798753
 21
184.2591111121
 31
0.0
  0
SPLINE
  5
2DB
330
1F
100
AcDbEntity
  8
0
  6
Continuous
 62
     7
370
    25
100
AcDbSpline
210
0.0
220
0.0
230
1.0
 70
    24
 71
     3
 72
    14
 73
    10
 74
     0
 42
0.00000001
 43
0.00000001
 40
0.0
 40
0.0
 40
0.0
 40
0.0
 40
0.25
 40
0.25
 40
0.5
 40
0.5
 40
0.75
 40
0.75
 40
1.0
 40
1.0
 40
1.0
 40
1.0
 10
119.808560573892
 20
184.9195863034302
 30
0.0
 10
119.808560573892
 20
184.7853249418385
 30
0.0
 10
119.8085605738919
 20
184.6548381424559
 30
0.0
 10
119.808560573892
 20
184.4030859468007
 30
0.0
 10
119.8085605738921
 20
184.2898993834846
 30
0.0
 10
119.808560573892
 20
184.0970916027344
 30
0.0
 10
119.808560573892
 20
184.0219957438913
 30
0.0
 10
119.8085605738919
 20
183.9179964685251
 30
0.0
 10
119.8085605738919
 20
183.8902029720152
 30
0.0
 10
119.8085605738919
 20
183.8910364389958
 30
0.0
  0
SPLINE
  5
2DC
330
1F
100
AcDbEntity
  8
0
  6
Continuous
 62
     7
370
    25
100
AcDbSpline
210
0.0
220
0.0
230
1.0
 70
    24
 71
     3
 72
    14
 73
    10
 74
     0
 42
0.00000001
 43
0.00000001
 40
0.0
 40
0.0
 40
0.0
 40
0.0
 40
0.25
 40
0.25
 40
0.5
 40
0.5
 40
0.75
 40
0.75
 40
1.0
 40
1.0
 40
1.0
 40
1.0
 10
119.8081451554475
 20
224.8623451849078
 30
0.0
 10
119.8081451554475
 20
224.9978618841101
 30
0.0
 10
119.8081451554475
 20
225.1311299511501
 30
0.0
 10
119.8081451554476
 20
225.3813373177989
 30
0.0
 10
119.8081451554475
 20
225.4934391014394
 30
0.0
 10
119.8081451554475
 20
225.6855934148642
 30
0.0
 10
119.8081451554475
 20
225.7604280523269
 30
0.0
 10
119.8081451554475
 20
225.864050348157
 30
0.0
 10
119.8081451554474
 20
225.8917447758826
 30
0.0
 10
119.8081451554474
 20
225.8909132186525
 30
0.0
  0
SPLINE
  5
2DD
330
1F
100
AcDbEntity
  8
0
  6
Continuous
 62
     7
370
    25
100
AcDbSpline
210
0.0
220
0.0
230
1.0
 70
     8
 71
     3
 72
    27
 73
    23
 74
     0
 42
0.00000001
 43
0.00000001
 40
0.0
 40
0.0
 40
0.0
 40
0.0
 40
0.2499999999999999
 40
0.2499999999999999
 40
0.3749999999999998
 40
0.3749999999999998
 40
0.5000000000000002
 40
0.5625000000000002
 40
0.5625000000000002
 40
0.6250000000000001
 40
0.6250000000000001
 40
0.6875000000000001
 40
0.6875000000000001
 40
0.7500000000000001
 40
0.7500000000000001
 40
0.8125000000000001
 40
0.8125000000000001
 40
0.875
 40
0.875
 40
0.9375
 40
0.9375
 40
1.0
 40
1.0
 40
1.0
 40
1.0
 10
285.8076935499615
 20
163.8909826982064
 30
0.0
 10
285.8045894895057
 20
165.8949062258714
 30
0.0
 10
285.8043456208404
 20
167.9062077718836
 30
0.0
 10
285.8241700027997
 20
170.9140607916413
 30
0.0
 10
285.832068125652
 20
171.91567921794
 30
0.0
 10
285.8703016538025
 20
173.9092667681506
 30
0.0
 10
285.9185201394502
 20
175.3965435147753
 30
0.0
 10
286.0341656124695
 20
176.8594101629223
 30
0.0
 10
286.1304810336838
 20
177.8278368815333
 30
0.0
 10
286.1872456959341
 20
178.3096520239458
 30
0.0
 10
286.3337846104188
 20
179.255435036729
 30
0.0
 10
286.4239217466563
 20
179.7190405741078
 30
0.0
 10
286.6561574511794
 20
180.6121565494969
 30
0.0
 10
286.7982197292476
 20
181.0415226576556
 30
0.0
 10
287.1485756719477
 20
181.8349027270991
 30
0.0
 10
287.3572304607007
 20
182.1990617801011
 30
0.0
 10
287.8533536065532
 20
182.8303520803034
 30
0.0
 10
288.1406137886388
 20
183.0944403152291
 30
0.0
 10
288.7916331875525
 20
183.5060988285772
 30
0.0
 10
289.1557201907261
 20
183.6565265506112
 30
0.0
 10
289.9442964284978
 20
183.8494258035183
 30
0.0
 10
290.3692743433469
 20
183.890224283738
 30
0.0
 10
290.8076920828701
 20
183.8909826982068
 30
0.0
  0
SPLINE
  5
2DE
330
1F
100
AcDbEntity
  8
0
  6
Continuous
 62
     7
370
    25
100
AcDbSpline
210
0.0
220
0.0
230
1.0
 70
     8
 71
     3
 72
    29
 73
    25
 74
     0
 42
0.00000001
 43
0.00000001
 40
0.0
 40
0.0
 40
0.0
 40
0.0
 40
0.0624999999999998
 40
0.0624999999999998
 40
0.1249999999999996
 40
0.1249999999999996
 40
0.1874999999999994
 40
0.1874999999999994
 40
0.2499999999999992
 40
0.2499999999999992
 40
0.312499999999999
 40
0.312499999999999
 40
0.3749999999999988
 40
0.3749999999999988
 40
0.4374999999999987
 40
0.4374999999999987
 40
0.4999999999999984
 40
0.6249999999999984
 40
0.6249999999999984
 40
0.749999999999999
 40
0.749999999999999
 40
0.8749999999999994
 40
0.8749999999999994
 40
1.0
 40
1.0
 40
1.0
 40
1.0
 10
220.8076950167709
 20
183.890982698206
 30
0.0
 10
221.2463754257861
 20
183.891010593639
 30
0.0
 10
221.670932624504
 20
183.8488677281781
 30
0.0
 10
222.4596960634317
 20
183.6565594137578
 30
0.0
 10
222.8239578203143
 20
183.5068879651169
 30
0.0
 10
223.4742962359467
 20
183.0937577157523
 30
0.0
 10
223.7617624652879
 20
182.8296429406901
 30
0.0
 10
224.2591069209631
 20
182.2002857309126
 30
0.0
 10
224.4676089700392
 20
181.8360764955367
 30
0.0
 10
224.8165668386366
 20
181.0409548029471
 30
0.0
 10
224.9576227525085
 20
180.6102754842784
 30
0.0
 10
225.1893081051137
 20
179.7166406868857
 30
0.0
 10
225.2799323607808
 20
179.2538757094261
 30
0.0
 10
225.4277182540461
 20
178.3100251955121
 30
0.0
 10
225.4852026384654
 20
177.8292367358457
 30
0.0
 10
225.5821600883132
 20
176.8614627170647
 30
0.0
 10
225.6979005979882
 20
175.3980083066423
 30
0.0
 10
225.7448328168245
 20
173.9078391173171
 30
0.0
 10
225.7822972135526
 20
171.9126054931474
 30
0.0
 10
225.7907255862002
 20
170.9119805491155
 30
0.0
 10
225.8055834967087
 20
168.9111157580195
 30
0.0
 10
225.8090065976166
 20
167.9092255689186
 30
0.0
 10
225.8078499109413
 20
165.8999797976257
 30
0.0
 10
225.8046691220695
 20
164.8936703951501
 30
0.0
 10
225.8076935499619
 20
163.8909826982064
 30
0.0
  0
LINE
  5
2DF
330
1F
100
AcDbEntity
  8
0
  6
Continuous
 62
     7
370
    25
100
AcDbLine
 10
119.8077175191
 20
201.8910381902
 30
0.0
 11
119.8077175191
 21
207.8909862634
 31
0.0
  0
LINE
  5
2E0
330
1F
100
AcDbEntity
  8
0
  6
Continuous
 62
     7
370
    25
100
AcDbLine
 10
119.8081451554
 20
207.8909862634
 30
0.0
 11
119.8081451554
 21
224.8623451849
 31
0.0
  0
LINE
  5
2E1
330
1F
100
AcDbEntity
  8
0
  6
Continuous
 62
     7
370
    25
100
AcDbLine
 10
119.8085605739
 20
184.9195863034
 30
0.0
 11
119.8085605739
 21
201.8910381902
 31
0.0
  0
LINE
  5
2E2
330
1F
100
AcDbEntity
  8
0
  6
Continuous
 62
     7
370
    25
100
AcDbLine
 10
119.8077234581
 20
207.8909855801
 30
0.0
 11
119.8077175189
 21
207.8909862634
 31
0.0
  0
LINE
  5
2E3
330
1F
100
AcDbEntity
  8
0
  6
Continuous
 62
     7
370
    25
100
AcDbLine
 10
119.8085605739
 20
201.891037507
 30
0.0
 11
119.8085605739
 21
201.8910381902
 31
0.0
  0
ARC
  5
2E4
330
1F
100
AcDbEntity
  8
0
  6
Continuous
 62
     7
370
    25
100
AcDbCircle
 10
284.80769355
 20
64.6037328983
 30
0.0
 40
0.9999999999994458
100
AcDbArc
 50
270.0000001921
 51
0.0
  0
LINE
  5
2E5
330
1F
100
AcDbEntity
  8
0
  6
Continuous
 62
     7
370
    25
100
AcDbLine
 10
121.8081451554
 20
183.8909826982
 30
0.0
 11
220.8076950168
 21
183.8909826982
 31
0.0
  0
LINE
  5
2E6
330
1F
100
AcDbEntity
  8
0
  6
Continuous
 62
     7
370
    25
100
AcDbLine
 10
225.80769355
 20
163.8909826982
 30
0.0
 11
225.80769355
 21
64.6037328983
 31
0.0
  0
LINE
  5
2E7
330
1F
100
AcDbEntity
  8
0
  6
Continuous
 62
     7
370
    25
100
AcDbLine
 10
389.8081451555
 20
225.8909826982
 30
0.0
 11
121.8081451554
 21
225.8909826982
 31
0.0
  0
ARC
  5
2E8
330
1F
100
AcDbEntity
  8
0
  6
Continuous
 62
     7
370
    25
100
AcDbCircle
 10
389.8081451554
 20
224.8909826982
 30
0.0
 40
1.000000000000597
100
AcDbArc
 50
0.0000000001
 51
90.0
  0
LINE
  5
2E9
330
1F
100
AcDbEntity
  8
0
  6
Continuous
 62
     7
370
    25
100
AcDbLine
 10
390.8081451554
 20
184.8909826982
 30
0.0
 11
390.8081451554
 21
224.8909826982
 31
0.0
  0
LINE
  5
2EA
330
1F
100
AcDbEntity
  8
0
  6
Continuous
 62
     7
370
    25
100
AcDbLine
 10
290.8076920829
 20
183.8909826982
 30
0.0
 11
389.8081451554
 21
183.8909826982
 31
0.0
  0
ARC
  5
2EB
330
1F
100
AcDbEntity
  8
0
  6
Continuous
 62
     7
370
    25
100
AcDbCircle
 10
389.8081451554
 20
184.8909826982
 30
0.0
 40
0.9999999999997726
100
AcDbArc
 50
270.0
 51
0.0
  0
ARC
  5
2EC
330
1F
100
AcDbEntity
  8
0
  6
Continuous
 62
     7
370
    25
100
AcDbCircle
 10
226.80769355
 20
64.6037328983
 30
0.0
 40
0.9999999999994458
100
AcDbArc
 50
180.0
 51
270.0
  0
LINE
  5
2ED
330
1F
100
AcDbEntity
  8
0
  6
Continuous
 62
     7
370
    25
100
AcDbLine
 10
226.80769355
 20
63.6037328983
 30
0.0
 11
284.8076935533
 21
63.6037328983
 31
0.0
  0
SPLINE
  5
2EE
330
1F
100
AcDbEntity
  8
0
  6
Continuous
 62
     7
370
    25
100
AcDbSpline
210
0.0
220
0.0
230
1.0
 70
     8
 71
     3
 72
     8
 73
     4
 74
     0
 42
0.00000001
 43
0.00000001
 40
0.0
 40
0.0
 40
0.0
 40
0.0
 40
1.0
 40
1.0
 40
1.0
 40
1.0
 10
91.78024960592334
 20
183.891252514574
 30
0.0
 10
91.78196489500418
 20
183.8910015977718
 30
0.0
 10
91.78367990700545
 20
183.8909060150532
 30
0.0
 10
91.78539463119695
 20
183.8909676366647
 30
0.0
  0
LINE
  5
2EF
330
1F
100
AcDbEntity
  8
0
  6
Continuous
 62
     7
370
    25
100
AcDbLine
 10
285.80769355
 20
64.6037328983
 30
0.0
 11
285.80769355
 21
163.8909826982
 31
0.0
  0
LINE
  5
2F0
330
1F
100
AcDbEntity
  8
0
  6
Continuous
 62
     7
370
    25
100
AcDbLine
 10
91.7851206423
 20
225.8908485645
 30
0.0
 11
113.3085768603
 21
225.8909191173
 31
0.0
  0
LINE
  5
2F1
330
1F
100
AcDbEntity
  8
0
  6
Continuous
 62
     7
370
    25
100
AcDbLine
 10
91.7767815109
 20
225.8908487114
 30
0.0
 11
91.7851206423
 21
225.8908485645
 31
0.0
  0
ARC
  5
2F2
330
1F
100
AcDbEntity
  8
0
  6
Continuous
 62
     7
370
    25
100
AcDbCircle
 10
121.8081451554
 20
224.8909826982
 30
0.0
 40
1.000000000000767
100
AcDbArc
 50
90.0
 51
180.0
  0
LINE
  5
2F3
330
1F
100
AcDbEntity
  8
0
  6
Continuous
 62
     7
370
    25
100
AcDbLine
 10
120.8081451554
 20
184.8909826983
 30
0.0
 11
120.8081451554
 21
224.8909826982
 31
0.0
  0
ARC
  5
2F4
330
1F
100
AcDbEntity
  8
0
  6
Continuous
 62
     7
370
    25
100
AcDbCircle
 10
121.8081451554
 20
184.8909826983
 30
0.0
 40
1.000000000087852
100
AcDbArc
 50
180.0
 51
269.9999999999
  0
LWPOLYLINE
  5
2F5
330
1F
100
AcDbEntity
  8
0
  6
Continuous
 62
     7
370
    25
100
AcDbPolyline
 90
        2
 70
   128
 43
0.0
 10
119.8088120328
 20
184.6407577231
 10
119.8088120328
 20
184.6407577231
  0
LINE
  5
2F6
330
1F
100
AcDbEntity
  8
0
  6
Continuous
 62
     7
370
    25
100
AcDbLine
 10
119.8088120346
 20
223.9541758264
 30
0.0
 11
119.8088120346
 21
223.4951806794
 31
0.0
  0
SPLINE
  5
2F7
330
1F
100
AcDbEntity
  8
0
  6
Continuous
 62
     7
370
    25
100
AcDbSpline
210
0.0
220
0.0
230
1.0
 70
     8
 71
     3
 72
     9
 73
     5
 74
     0
 42
0.00000001
 43
0.00000001
 40
0.0
 40
0.0
 40
0.0
 40
0.0
 40
0.5568621119863719
 40
1.0
 40
1.0
 40
1.0
 40
1.0
 10
119.8088120345632
 20
186.2867900236462
 30
0.0
 10
119.8087641121326
 20
186.4114856389343
 30
0.0
 10
119.8086780541487
 20
186.635411118158
 30
0.0
 10
119.8085966480283
 20
187.2029714568297
 30
0.0
 10
119.808560573892
 20
187.454478946629
 30
0.0
  0
LINE
  5
2F8
330
1F
100
AcDbEntity
  8
0
  6
Continuous
 62
     7
370
    25
100
AcDbLine
 10
119.8088120346
 20
186.2867900236
 30
0.0
 11
119.8088120346
 21
185.8277691415
 31
0.0
  0
LINE
  5
2F9
330
1F
100
AcDbEntity
  8
0
  6
Continuous
 62
     7
370
    25
100
AcDbLine
 10
119.8088120346
 20
184.7160797467
 30
0.0
 11
119.8088120346
 21
184.6407577229
 31
0.0
  0
ELLIPSE
  5
2FA
330
1F
100
AcDbEntity
  8
0
  6
Continuous
 62
     7
370
    25
100
AcDbEllipse
 10
119.8086126223
 20
185.891697782
 30
0.0
 11
1.423103412889759E-8
 21
1.000609542633271
 31
0.0
210
0.0
220
0.0
230
1.0
 40
0.0000116902
 41
1.811919356292192
 42
3.141591493385166
  0
LINE
  5
2FB
330
1F
100
AcDbEntity
  8
0
  6
Continuous
 62
     7
370
    25
100
AcDbLine
 10
113.3088363972
 20
225.8909152487
 30
0.0
 11
117.7202515612
 21
225.8909152488
 31
0.0
  0
LINE
  5
2FC
330
1F
100
AcDbEntity
  8
0
  6
Continuous
 62
     7
370
    25
100
AcDbLine
 10
117.7202515612
 20
225.8909152488
 30
0.0
 11
119.6229319264
 21
225.8909148672
 31
0.0
  0
LWPOLYLINE
  5
2FD
330
1F
100
AcDbEntity
  8
0
  6
Continuous
 62
     7
370
    25
100
AcDbPolyline
 90
        4
 70
   128
 43
0.0
 10
119.8088120346
 20
225.8909147889
 10
119.7878695042
 20
225.8909148157
 10
119.7254738235
 20
225.890914842
 10
119.6229319264
 20
225.8909148672
  0
LINE
  5
2FE
330
1F
100
AcDbEntity
  8
0
  6
Continuous
 62
     7
370
    25
100
AcDbLine
 10
119.8086012598
 20
225.8909131107
 30
0.0
 11
119.8088120346
 21
225.8909147889
 31
0.0
  0
LINE
  5
2FF
330
1F
100
AcDbEntity
  8
0
  6
Continuous
 62
     7
370
    25
100
AcDbLine
 10
113.3085768603
 20
225.8909191173
 30
0.0
 11
113.3088363972
 21
225.8908368361
 31
0.0
  0
LWPOLYLINE
  5
300
330
1F
100
AcDbEntity
  8
0
  6
Continuous
 62
     7
370
    25
100
AcDbPolyline
 90
        8
 70
   128
 43
0.0
 10
119.8086012598
 20
224.1291856994
 10
119.8086019889
 20
224.3083616104
 10
119.8086031005
 20
224.472496977
 10
119.8086045547
 20
224.6156866924
 10
119.8086062992
 20
224.7327792126
 10
119.8086082711
 20
224.8195618938
 10
119.8086103996
 20
224.8729125507
 10
119.8086126081
 20
224.890911784
  0
LINE
  5
301
330
1F
100
AcDbEntity
  8
0
  6
Continuous
 62
     7
370
    25
100
AcDbLine
 10
119.8088120346
 20
224.8908884699
 30
0.0
 11
119.8088120346
 21
225.8909147889
 31
0.0
  0
LINE
  5
302
330
1F
100
AcDbEntity
  8
0
  6
Continuous
 62
     7
370
    25
100
AcDbLine
 10
119.8088120346
 20
224.8908884699
 30
0.0
 11
119.8086126081
 21
224.890911784
 31
0.0
  0
LINE
  5
303
330
1F
100
AcDbEntity
  8
0
  6
Continuous
 62
     7
370
    25
100
AcDbLine
 10
119.8086126081
 20
184.8910882394
 30
0.0
 11
119.8088120329
 21
184.8910649255
 31
0.0
  0
LINE
  5
304
330
1F
100
AcDbEntity
  8
0
  6
Continuous
 62
     7
370
    25
100
AcDbLine
 10
119.8088120328
 20
183.8910323546
 30
0.0
 11
119.8088120328
 21
184.6407577231
 31
0.0
  0
LINE
  5
305
330
1F
100
AcDbEntity
  8
0
  6
Continuous
 62
     7
370
    25
100
AcDbLine
 10
119.8088120328
 20
183.8910323546
 30
0.0
 11
119.8086012598
 21
183.8910365456
 31
0.0
  0
LINE
  5
306
330
1F
100
AcDbEntity
  8
0
  6
Continuous
 62
     7
370
    25
100
AcDbLine
 10
119.8086012598
 20
184.8910895661
 30
0.0
 11
119.8086012598
 21
183.8910365456
 31
0.0
  0
LINE
  5
307
330
1F
100
AcDbEntity
  8
0
  6
Continuous
 62
     7
370
    25
100
AcDbLine
 10
113.3088352265
 20
183.8910312058
 30
0.0
 11
117.7201811741
 21
183.8910312059
 31
0.0
  0
LWPOLYLINE
  5
308
330
1F
100
AcDbEntity
  8
0
  6
Continuous
 62
     7
370
    25
100
AcDbPolyline
 90
        9
 70
   128
 43
0.0
 10
119.6229319246
 20
183.8910321589
 10
119.6659713448
 20
183.8910321821
 10
119.7035322411
 20
183.8910322058
 10
119.7355038109
 20
183.8910322299
 10
119.7617917396
 20
183.8910322544
 10
119.7823184793
 20
183.8910322792
 10
119.7970234771
 20
183.8910323042
 10
119.805863354
 20
183.8910323294
 10
119.8088120328
 20
183.8910323546
  0
LINE
  5
309
330
1F
100
AcDbEntity
  8
0
  6
Continuous
 62
     7
370
    25
100
AcDbLine
 10
119.6229319246
 20
183.8910321589
 30
0.0
 11
117.7201811741
 21
183.8910312059
 31
0.0
  0
LINE
  5
30A
330
1F
100
AcDbEntity
  8
0
  6
Continuous
 62
     7
370
    25
100
AcDbLine
 10
113.3088361165
 20
183.8911331827
 30
0.0
 11
113.308563243
 21
183.8910509018
 31
0.0
  0
LINE
  5
30B
330
1F
100
AcDbEntity
  8
0
  6
Continuous
 62
     7
370
    25
100
AcDbLine
 10
392.3081451554
 20
225.8909826982
 30
0.0
 11
415.8081451554
 21
225.8909826982
 31
0.0
  0
LINE
  5
30C
330
1F
100
AcDbEntity
  8
0
  6
Continuous
 62
     7
370
    25
100
AcDbLine
 10
391.8081451554
 20
224.8909826982
 30
0.0
 11
391.8081451554
 21
225.3909826982
 31
0.0
  0
ARC
  5
30D
330
1F
100
AcDbEntity
  8
0
  6
Continuous
 62
     7
370
    25
100
AcDbCircle
 10
392.3081451554
 20
225.3909826982
 30
0.0
 40
0.4999999999997442
100
AcDbArc
 50
90.0
 51
180.0
  0
ARC
  5
30E
330
1F
100
AcDbEntity
  8
0
  6
Continuous
 62
     7
370
    25
100
AcDbCircle
 10
415.8081451554
 20
224.8909826982
 30
0.0
 40
1.000000000000341
100
AcDbArc
 50
0.0
 51
90.0
  0
LINE
  5
30F
330
1F
100
AcDbEntity
  8
0
  6
Continuous
 62
     7
370
    25
100
AcDbLine
 10
416.8081451554
 20
224.8909826982
 30
0.0
 11
416.8081451554
 21
184.8909826982
 31
0.0
  0
LINE
  5
310
330
1F
100
AcDbEntity
  8
0
  6
Continuous
 62
     7
370
    25
100
AcDbLine
 10
391.8081451554
 20
184.8909826982
 30
0.0
 11
391.8081451554
 21
224.8909826982
 31
0.0
  0
ARC
  5
311
330
1F
100
AcDbEntity
  8
0
  6
Continuous
 62
     7
370
    25
100
AcDbCircle
 10
415.8081451554
 20
184.8909826982
 30
0.0
 40
1.000000000000341
100
AcDbArc
 50
270.0
 51
0.0
  0
LINE
  5
312
330
1F
100
AcDbEntity
  8
0
  6
Continuous
 62
     7
370
    25
100
AcDbLine
 10
415.8081451554
 20
183.8909826982
 30
0.0
 11
392.3081451554
 21
183.8909826982
 31
0.0
  0
LINE
  5
313
330
1F
100
AcDbEntity
  8
0
  6
Continuous
 62
     7
370
    25
100
AcDbLine
 10
391.8081451554
 20
184.3909826982
 30
0.0
 11
391.8081451554
 21
184.8909826982
 31
0.0
  0
ARC
  5
314
330
1F
100
AcDbEntity
  8
0
  6
Continuous
 62
     7
370
    25
100
AcDbCircle
 10
392.3081451554
 20
184.3909826982
 30
0.0
 40
0.5000000000001705
100
AcDbArc
 50
180.0
 51
270.0
  0
LINE
  5
315
330
1F
100
AcDbEntity
  8
0
  6
Continuous
 62
     7
370
    25
100
AcDbLine
 10
196.8081451575
 20
226.8909826985
 30
0.0
 11
164.8081451575
 21
226.8909826985
 31
0.0
  0
LINE
  5
316
330
1F
100
AcDbEntity
  8
0
  6
Continuous
 62
     7
370
    25
100
AcDbLine
 10
195.7101201197
 20
256.2909826985
 30
0.0
 11
165.7145616387
 21
256.2909826985
 31
0.0
  0
LINE
  5
317
330
1F
100
AcDbEntity
  8
0
  6
Continuous
 62
     7
370
    25
100
AcDbLine
 10
195.7101201197
 20
256.2909826985
 30
0.0
 11
195.7101201197
 21
239.2909826985
 31
0.0
  0
LINE
  5
318
330
1F
100
AcDbEntity
  8
0
  6
Continuous
 62
     7
370
    25
100
AcDbLine
 10
195.7101201197
 20
239.2909826985
 30
0.0
 11
196.8081451575
 21
239.2909826985
 31
0.0
  0
LINE
  5
319
330
1F
100
AcDbEntity
  8
0
  6
Continuous
 62
     7
370
    25
100
AcDbLine
 10
195.9017286763
 20
239.2909826985
 30
0.0
 11
195.9017286763
 21
256.2909826985
 31
0.0
  0
LINE
  5
31A
330
1F
100
AcDbEntity
  8
0
  6
Continuous
 62
     7
370
    25
100
AcDbLine
 10
164.8081451575
 20
239.2909826985
 30
0.0
 11
165.7145616387
 21
239.2909826985
 31
0.0
  0
LINE
  5
31B
330
1F
100
AcDbEntity
  8
0
  6
Continuous
 62
     7
370
    25
100
AcDbLine
 10
165.7145616387
 20
239.2909826985
 30
0.0
 11
165.7145616387
 21
256.2909826985
 31
0.0
  0
LINE
  5
31C
330
1F
100
AcDbEntity
  8
0
  6
Continuous
 62
     7
370
    25
100
AcDbLine
 10
195.9017286763
 20
256.2909826985
 30
0.0
 11
195.7101201197
 21
256.2909826985
 31
0.0
  0
LWPOLYLINE
  5
31D
330
1F
100
AcDbEntity
  8
0
  6
Continuous
 62
     8
370
    18
100
AcDbPolyline
 90
        3
 70
   128
 43
0.0
 10
213.4690817762
 20
259.1981750961
 10
213.6562223339
 20
270.0829106371
 10
213.8746902692
 20
282.7909826982
  0
SPLINE
  5
31E
330
1F
100
AcDbEntity
  8
0
  6
Continuous
 62
     8
370
    18
100
AcDbSpline
210
0.0
220
0.0
230
1.0
 70
     8
 71
     3
 72
    10
 73
     6
 74
     0
 42
0.00000001
 43
0.00000001
 40
0.0
 40
0.0
 40
0.0
 40
0.0
 40
0.5
 40
0.5
 40
1.0
 40
1.0
 40
1.0
 40
1.0
 10
148.147208538701
 20
259.1981750961392
 30
0.0
 10
159.0324556693155
 20
258.9925638110445
 30
0.0
 10
169.9198139219878
 20
258.9113855391788
 30
0.0
 10
191.6967557344711
 20
258.9113870013945
 30
0.0
 10
202.5838126399111
 20
258.9925633953825
 30
0.0
 10
213.4690817762413
 20
259.1981750961448
 30
0.0
  0
LWPOLYLINE
  5
31F
330
1F
100
AcDbEntity
  8
0
  6
Continuous
 62
     8
370
    18
100
AcDbPolyline
 90
        3
 70
   128
 43
0.0
 10
147.7416000458
 20
282.7909826982
 10
147.960067981
 20
270.0829106371
 10
148.1472085387
 20
259.1981750961
  0
ARC
  5
320
330
1F
100
AcDbEntity
  8
0
  6
Continuous
 62
     8
370
    18
100
AcDbCircle
 10
181.5553552396
 20
258.1225056344
 30
0.0
 40
31.93184940219944
100
AcDbArc
 50
358.4052089385
 51
1.9304545052
  0
SPLINE
  5
321
330
1F
100
AcDbEntity
  8
0
  6
Continuous
 62
     8
370
    18
100
AcDbSpline
210
0.0
220
0.0
230
1.0
 70
     8
 71
     3
 72
    10
 73
     6
 74
     0
 42
0.00000001
 43
0.00000001
 40
0.0
 40
0.0
 40
0.0
 40
0.0
 40
0.5
 40
0.5
 40
1.0
 40
1.0
 40
1.0
 40
1.0
 10
213.474835819295
 20
257.2338179678025
 30
0.0
 10
202.5876282508599
 20
257.0279124056923
 30
0.0
 10
191.6986383757228
 20
256.9465510658168
 30
0.0
 10
169.9179201173706
 20
256.9465496593866
 30
0.0
 10
159.0286374299153
 20
257.0279128715851
 30
0.0
 10
148.1414544956476
 20
257.2338179677968
 30
0.0
  0
ARC
  5
322
330
1F
100
AcDbEntity
  8
0
  6
Continuous
 62
     8
370
    18
100
AcDbCircle
 10
180.060935075
 20
258.1225056344
 30
0.0
 40
31.93184940189488
100
AcDbArc
 50
178.0695454948
 51
181.5947910615
  0
ARC
  5
323
330
1F
100
AcDbEntity
  8
0
  6
Continuous
 62
     8
370
    18
100
AcDbCircle
 10
147.163825573
 20
288.7889176587
 30
0.0
 40
29.60707833378698
100
AcDbArc
 50
268.096601839
 51
271.903398161
  0
LWPOLYLINE
  5
324
330
1F
100
AcDbEntity
  8
0
  6
Continuous
 62
     8
370
    18
100
AcDbPolyline
 90
        3
 70
   128
 43
0.0
 10
146.1804426073
 20
259.1981750961
 10
145.993489094
 20
270.0829106371
 10
145.7752394905
 20
282.7909826982
  0
LWPOLYLINE
  5
325
330
1F
100
AcDbEntity
  8
0
  6
Continuous
 62
     8
370
    18
100
AcDbPolyline
 90
        3
 70
   128
 43
0.0
 10
215.8410508244
 20
282.7909826982
 10
215.622801221
 20
270.0829106371
 10
215.4358477077
 20
259.1981750961
  0
ARC
  5
326
330
1F
100
AcDbEntity
  8
0
  6
Continuous
 62
     8
370
    18
100
AcDbCircle
 10
214.4524647419
 20
288.7889176587
 30
0.0
 40
29.60707833371512
100
AcDbArc
 50
268.096601839
 51
271.903398161
  0
ARC
  5
327
330
1F
100
AcDbEntity
  8
0
  6
Continuous
 62
     8
370
    18
100
AcDbCircle
 10
213.4357555062
 20
259.2338464651
 30
0.0
 40
2.000410273100473
100
AcDbArc
 50
271.1194100961
 51
358.9782459891
  0
ARC
  5
328
330
1F
100
AcDbEntity
  8
0
  6
Continuous
 62
     8
370
    18
100
AcDbCircle
 10
148.1805348087
 20
259.2338464651
 30
0.0
 40
2.000410273100503
100
AcDbArc
 50
181.0217540109
 51
268.8805899039
  0
SPLINE
  5
329
330
1F
100
AcDbEntity
  8
0
  6
Continuous
 62
     8
370
    18
100
AcDbSpline
210
0.0
220
0.0
230
1.0
 70
     8
 71
     3
 72
     8
 73
     4
 74
     0
 42
0.00000001
 43
0.00000001
 40
0.0
 40
0.0
 40
0.0
 40
0.0
 40
1.0
 40
1.0
 40
1.0
 40
1.0
 10
148.1414544956476
 20
257.2338179677967
 30
0.0
 10
147.9698757248361
 20
257.0279209116358
 30
0.0
 10
147.8861913465031
 20
256.9465581440468
 30
0.0
 10
147.8861837345156
 20
256.9465503631274
 30
0.0
  0
SPLINE
  5
32A
330
1F
100
AcDbEntity
  8
0
  6
Continuous
 62
     8
370
    18
100
AcDbSpline
210
0.0
220
0.0
230
1.0
 70
     8
 71
     3
 72
     8
 73
     4
 74
     0
 42
0.00000001
 43
0.00000001
 40
0.0
 40
0.0
 40
0.0
 40
0.0
 40
1.0
 40
1.0
 40
1.0
 40
1.0
 10
213.7301065803742
 20
256.9465503631866
 30
0.0
 10
213.730114569125
 20
256.9465421971405
 30
0.0
 10
213.6464287632522
 20
257.0279039036577
 30
0.0
 10
213.474835819295
 20
257.2338179678025
 30
0.0
  0
SPLINE
  5
32B
330
1F
100
AcDbEntity
  8
0
  6
Continuous
 62
     8
370
    18
100
AcDbSpline
210
0.0
220
0.0
230
1.0
 70
     8
 71
     3
 72
     8
 73
     4
 74
     0
 42
0.00000001
 43
0.00000001
 40
0.0
 40
0.0
 40
0.0
 40
0.0
 40
1.0
 40
1.0
 40
1.0
 40
1.0
 10
145.9186916127234
 20
258.911386270282
 30
0.0
 10
145.9186916127211
 20
258.9113862702789
 30
0.0
 10
146.0062094316878
 20
258.9925625162218
 30
0.0
 10
146.1804426072779
 20
259.1981750961392
 30
0.0
  0
SPLINE
  5
32C
330
1F
100
AcDbEntity
  8
0
  6
Continuous
 62
     8
370
    18
100
AcDbSpline
210
0.0
220
0.0
230
1.0
 70
     8
 71
     3
 72
     8
 73
     4
 74
     0
 42
0.00000001
 43
0.00000001
 40
0.0
 40
0.0
 40
0.0
 40
0.0
 40
1.0
 40
1.0
 40
1.0
 40
1.0
 10
215.4358477076643
 20
259.1981750961453
 30
0.0
 10
215.6100790410565
 20
258.9925646902059
 30
0.0
 10
215.6975987022165
 20
258.9113862702893
 30
0.0
 10
215.6975987022188
 20
258.911386270288
 30
0.0
  0
LWPOLYLINE
  5
32D
330
1F
100
AcDbEntity
  8
0
  6
Continuous
 62
     8
370
    18
100
AcDbPolyline
 90
        3
 70
   128
 43
0.0
 10
363.4690817722
 20
259.1981750961
 10
363.6562223299
 20
270.0829106371
 10
363.8746902651
 20
282.7909826982
  0
SPLINE
  5
32E
330
1F
100
AcDbEntity
  8
0
  6
Continuous
 62
     8
370
    18
100
AcDbSpline
210
0.0
220
0.0
230
1.0
 70
     8
 71
     3
 72
    10
 73
     6
 74
     0
 42
0.00000001
 43
0.00000001
 40
0.0
 40
0.0
 40
0.0
 40
0.0
 40
0.5
 40
0.5
 40
1.0
 40
1.0
 40
1.0
 40
1.0
 10
298.1472085346574
 20
259.1981750961445
 30
0.0
 10
309.0324556652719
 20
258.9925638110479
 30
0.0
 10
319.9198139179442
 20
258.9113855391805
 30
0.0
 10
341.6967557304275
 20
258.9113870013926
 30
0.0
 10
352.5838126358675
 20
258.9925633953785
 30
0.0
 10
363.4690817721977
 20
259.1981750961389
 30
0.0
  0
LWPOLYLINE
  5
32F
330
1F
100
AcDbEntity
  8
0
  6
Continuous
 62
     8
370
    18
100
AcDbPolyline
 90
        3
 70
   128
 43
0.0
 10
297.7416000417
 20
282.7909826982
 10
297.960067977
 20
270.0829106371
 10
298.1472085347
 20
259.1981750961
  0
ARC
  5
330
330
1F
100
AcDbEntity
  8
0
  6
Continuous
 62
     8
370
    18
100
AcDbCircle
 10
331.5553552356
 20
258.1225056344
 30
0.0
 40
31.93184940222562
100
AcDbArc
 50
358.4052089385
 51
1.9304545052
  0
SPLINE
  5
331
330
1F
100
AcDbEntity
  8
0
  6
Continuous
 62
     8
370
    18
100
AcDbSpline
210
0.0
220
0.0
230
1.0
 70
     8
 71
     3
 72
    10
 73
     6
 74
     0
 42
0.00000001
 43
0.00000001
 40
0.0
 40
0.0
 40
0.0
 40
0.0
 40
0.5
 40
0.5
 40
1.0
 40
1.0
 40
1.0
 40
1.0
 10
363.4748358152511
 20
257.2338179677965
 30
0.0
 10
352.587628246816
 20
257.0279124056883
 30
0.0
 10
341.6986383716788
 20
256.9465510658148
 30
0.0
 10
319.9179201133267
 20
256.9465496593884
 30
0.0
 10
309.0286374258714
 20
257.0279128715886
 30
0.0
 10
298.1414544916037
 20
257.2338179678021
 30
0.0
  0
ARC
  5
332
330
1F
100
AcDbEntity
  8
0
  6
Continuous
 62
     8
370
    18
100
AcDbCircle
 10
330.0609350711
 20
258.1225056344
 30
0.0
 40
31.93184940207233
100
AcDbArc
 50
178.0695454948
 51
181.5947910615
  0
ARC
  5
333
330
1F
100
AcDbEntity
  8
0
  6
Continuous
 62
     8
370
    18
100
AcDbCircle
 10
297.163825569
 20
288.7889176587
 30
0.0
 40
29.60707833378124
100
AcDbArc
 50
268.096601839
 51
271.903398161
  0
LWPOLYLINE
  5
334
330
1F
100
AcDbEntity
  8
0
  6
Continuous
 62
     8
370
    18
100
AcDbPolyline
 90
        3
 70
   128
 43
0.0
 10
296.1804426032
 20
259.1981750961
 10
295.9934890899
 20
270.0829106371
 10
295.7752394865
 20
282.7909826982
  0
LWPOLYLINE
  5
335
330
1F
100
AcDbEntity
  8
0
  6
Continuous
 62
     8
370
    18
100
AcDbPolyline
 90
        3
 70
   128
 43
0.0
 10
365.8410508204
 20
282.7909826982
 10
365.6228012169
 20
270.0829106371
 10
365.4358477036
 20
259.1981750961
  0
ARC
  5
336
330
1F
100
AcDbEntity
  8
0
  6
Continuous
 62
     8
370
    18
100
AcDbCircle
 10
364.4524647379
 20
288.7889176586
 30
0.0
 40
29.60707833368103
100
AcDbArc
 50
268.096601839
 51
271.903398161
  0
ARC
  5
337
330
1F
100
AcDbEntity
  8
0
  6
Continuous
 62
     8
370
    18
100
AcDbCircle
 10
363.4357555022
 20
259.2338464651
 30
0.0
 40
2.000410273100813
100
AcDbArc
 50
271.1194100961
 51
358.9782459891
  0
ARC
  5
338
330
1F
100
AcDbEntity
  8
0
  6
Continuous
 62
     8
370
    18
100
AcDbCircle
 10
298.1805348047
 20
259.2338464651
 30
0.0
 40
2.000410273100353
100
AcDbArc
 50
181.0217540109
 51
268.8805899039
  0
SPLINE
  5
339
330
1F
100
AcDbEntity
  8
0
  6
Continuous
 62
     8
370
    18
100
AcDbSpline
210
0.0
220
0.0
230
1.0
 70
     8
 71
     3
 72
     8
 73
     4
 74
     0
 42
0.00000001
 43
0.00000001
 40
0.0
 40
0.0
 40
0.0
 40
0.0
 40
1.0
 40
1.0
 40
1.0
 40
1.0
 10
298.1414544916037
 20
257.233817967802
 30
0.0
 10
297.9698757207922
 20
257.0279209116411
 30
0.0
 10
297.8861913424592
 20
256.9465581440522
 30
0.0
 10
297.8861837304717
 20
256.9465503631328
 30
0.0
  0
SPLINE
  5
33A
330
1F
100
AcDbEntity
  8
0
  6
Continuous
 62
     8
370
    18
100
AcDbSpline
210
0.0
220
0.0
230
1.0
 70
     8
 71
     3
 72
     8
 73
     4
 74
     0
 42
0.00000001
 43
0.00000001
 40
0.0
 40
0.0
 40
0.0
 40
0.0
 40
1.0
 40
1.0
 40
1.0
 40
1.0
 10
363.7301065763301
 20
256.9465503631811
 30
0.0
 10
363.7301145650808
 20
256.946542197135
 30
0.0
 10
363.6464287592083
 20
257.0279039036517
 30
0.0
 10
363.4748358152512
 20
257.2338179677965
 30
0.0
  0
SPLINE
  5
33B
330
1F
100
AcDbEntity
  8
0
  6
Continuous
 62
     8
370
    18
100
AcDbSpline
210
0.0
220
0.0
230
1.0
 70
     8
 71
     3
 72
     8
 73
     4
 74
     0
 42
0.00000001
 43
0.00000001
 40
0.0
 40
0.0
 40
0.0
 40
0.0
 40
1.0
 40
1.0
 40
1.0
 40
1.0
 10
295.9186916086798
 20
258.9113862702878
 30
0.0
 10
295.9186916086776
 20
258.9113862702846
 30
0.0
 10
296.0062094276442
 20
258.9925625162275
 30
0.0
 10
296.1804426032344
 20
259.1981750961448
 30
0.0
  0
SPLINE
  5
33C
330
1F
100
AcDbEntity
  8
0
  6
Continuous
 62
     8
370
    18
100
AcDbSpline
210
0.0
220
0.0
230
1.0
 70
     8
 71
     3
 72
     8
 73
     4
 74
     0
 42
0.00000001
 43
0.00000001
 40
0.0
 40
0.0
 40
0.0
 40
0.0
 40
1.0
 40
1.0
 40
1.0
 40
1.0
 10
365.4358477036208
 20
259.198175096139
 30
0.0
 10
365.6100790370129
 20
258.9925646901996
 30
0.0
 10
365.6975986981729
 20
258.911386270283
 30
0.0
 10
365.6975986981752
 20
258.9113862702818
 30
0.0
  0
LINE
  5
33D
330
1F
100
AcDbEntity
  8
0
  6
Continuous
 62
     8
370
    18
100
AcDbLine
 10
86.0949259617
 20
224.8623151192
 30
0.0
 11
84.1158099144
 21
224.8623338246
 31
0.0
  0
SPLINE
  5
33E
330
1F
100
AcDbEntity
  8
0
  6
Continuous
 62
     8
370
    18
100
AcDbSpline
210
0.0
220
0.0
230
1.0
 70
     8
 71
     3
 72
    18
 73
    14
 74
     0
 42
0.00000001
 43
0.00000001
 40
0.0
 40
0.0
 40
0.0
 40
0.0
 40
0.0561125833768401
 40
0.112225166589807
 40
0.1683377496719271
 40
0.2244503326562259
 40
0.2805629155757268
 40
0.4505620993290658
 40
0.6205613336398175
 40
0.6681105747615317
 40
0.8076393213140463
 40
0.92273169317066
 40
1.0
 40
1.0
 40
1.0
 40
1.0
 10
84.28727921440024
 20
225.8909209436998
 30
0.0
 10
84.28224800752601
 20
225.8901535426486
 30
0.0
 10
84.27218559379234
 20
225.8886187405484
 30
0.0
 10
84.25721138705461
 20
225.8762339348586
 30
0.0
 10
84.24247236069563
 20
225.856571486131
 30
0.0
 10
84.22808046015429
 20
225.8290478921435
 30
0.0
 10
84.20473520308569
 20
225.7704737986578
 30
0.0
 10
84.17454125790132
 20
225.6534465249281
 30
0.0
 10
84.15077662526696
 20
225.4959532084476
 30
0.0
 10
84.13391517392724
 20
225.3330832596302
 30
0.0
 10
84.12310431266268
 20
225.1827984728613
 30
0.0
 10
84.11666281668062
 20
225.0073880171398
 30
0.0
 10
84.1160543317625
 20
224.9039002272133
 30
0.0
 10
84.11580991279041
 20
224.8623307840207
 30
0.0
  0
LINE
  5
33F
330
1F
100
AcDbEntity
  8
0
  6
Continuous
 62
     8
370
    18
100
AcDbLine
 10
86.298930976
 20
225.1265950382
 30
0.0
 11
86.2989278892
 21
225.8906638798
 31
0.0
  0
LINE
  5
340
330
1F
100
AcDbEntity
  8
0
  6
Continuous
 62
     8
370
    18
100
AcDbLine
 10
86.2989326472
 20
224.7129264902
 30
0.0
 11
86.298930976
 21
225.1265950382
 31
0.0
  0
LINE
  5
341
330
1F
100
AcDbEntity
  8
0
  6
Continuous
 62
     8
370
    18
100
AcDbLine
 10
86.2989341817
 20
224.3331171083
 30
0.0
 11
86.2989326472
 21
224.7129264902
 31
0.0
  0
LINE
  5
342
330
1F
100
AcDbEntity
  8
0
  6
Continuous
 62
     8
370
    18
100
AcDbLine
 10
86.2990006082
 20
207.8909640576
 30
0.0
 11
86.2989341817
 21
224.3331171083
 31
0.0
  0
LINE
  5
343
330
1F
100
AcDbEntity
  8
0
  6
Continuous
 62
     8
370
    18
100
AcDbLine
 10
86.095000037
 20
207.8909654363
 30
0.0
 11
86.2990006082
 21
207.8909640576
 31
0.0
  0
LINE
  5
344
330
1F
100
AcDbEntity
  8
0
  6
Continuous
 62
     8
370
    18
100
AcDbLine
 10
86.0951349596
 20
201.8910193874
 30
0.0
 11
86.2989328297
 21
201.8910180087
 31
0.0
  0
LINE
  5
345
330
1F
100
AcDbEntity
  8
0
  6
Continuous
 62
     8
370
    18
100
AcDbLine
 10
86.299066951
 20
185.4695311885
 30
0.0
 11
86.299000608
 21
201.8910180087
 31
0.0
  0
LINE
  5
346
330
1F
100
AcDbEntity
  8
0
  6
Continuous
 62
     8
370
    18
100
AcDbLine
 10
86.2990684855
 20
185.0897202242
 30
0.0
 11
86.299066951
 21
185.4695311885
 31
0.0
  0
LINE
  5
347
330
1F
100
AcDbEntity
  8
0
  6
Continuous
 62
     8
370
    18
100
AcDbLine
 10
86.2990701567
 20
184.6760496671
 30
0.0
 11
86.2990684855
 21
185.0897202242
 31
0.0
  0
LINE
  5
348
330
1F
100
AcDbEntity
  8
0
  6
Continuous
 62
     8
370
    18
100
AcDbLine
 10
86.299073329
 20
183.8908374335
 30
0.0
 11
86.2990701567
 21
184.6760496671
 31
0.0
  0
SPLINE
  5
349
330
1F
100
AcDbEntity
  8
0
  6
Continuous
 62
     8
370
    18
100
AcDbSpline
210
0.0
220
0.0
230
1.0
 70
     8
 71
     3
 72
    18
 73
    14
 74
     0
 42
0.00000001
 43
0.00000001
 40
0.0
 40
0.0
 40
0.0
 40
0.0
 40
0.0649748621626597
 40
0.1324190743042032
 40
0.2030639471088765
 40
0.3196409111192745
 40
0.4442330392230255
 40
0.5723719898351324
 40
0.7246898828399806
 40
0.784562388706883
 40
0.8580047632929195
 40
0.9361134807583903
 40
0.9999999999999999
 40
0.9999999999999999
 40
0.9999999999999999
 40
0.9999999999999999
 10
84.28727925401908
 20
183.8909789841093
 30
0.0
 10
84.28144124586734
 20
183.892012478437
 30
0.0
 10
84.26954335783019
 20
183.8941187447316
 30
0.0
 10
84.25149759519823
 20
183.9116471503675
 30
0.0
 10
84.22953129354171
 20
183.9471576348449
 30
0.0
 10
84.20325186004202
 20
184.0145404896569
 30
0.0
 10
84.17637139440151
 20
184.1274033472645
 30
0.0
 10
84.15007766432551
 20
184.2844444108658
 30
0.0
 10
84.13460872071602
 20
184.4420714956186
 30
0.0
 10
84.1246660366623
 20
184.5846267381238
 30
0.0
 10
84.11962065858499
 20
184.6941769742097
 30
0.0
 10
84.11640968938697
 20
184.8088602395109
 30
0.0
 10
84.11599604919759
 20
184.8852773138005
 30
0.0
 10
84.11580994413853
 20
184.9196588958888
 30
0.0
  0
LINE
  5
34A
330
1F
100
AcDbEntity
  8
0
  6
Continuous
 62
     8
370
    18
100
AcDbLine
 10
84.1158099264
 20
184.9196588959
 30
0.0
 11
86.0948433487
 21
184.919681832
 31
0.0
  0
LINE
  5
34B
330
1F
100
AcDbEntity
  8
0
  6
Continuous
 62
     8
370
    18
100
AcDbLine
 10
84.1158099228
 20
207.8909513443
 30
0.0
 11
86.0952694123
 21
207.8909654375
 31
0.0
  0
LINE
  5
34C
330
1F
100
AcDbEntity
  8
0
  6
Continuous
 62
     8
370
    18
100
AcDbLine
 10
84.1158099263
 20
207.8909513443
 30
0.0
 11
84.1158099166
 21
224.8623338246
 31
0.0
  0
LINE
  5
34D
330
1F
100
AcDbEntity
  8
0
  6
Continuous
 62
     8
370
    18
100
AcDbLine
 10
84.1158099439
 20
184.9196588959
 30
0.0
 11
84.1158099342
 21
201.8910052942
 31
0.0
  0
LINE
  5
34E
330
1F
100
AcDbEntity
  8
0
  6
Continuous
 62
     8
370
    18
100
AcDbLine
 10
84.1158099336
 20
201.8910052942
 30
0.0
 11
86.0952705167
 21
201.8910193875
 31
0.0
  0
LINE
  5
34F
330
1F
100
AcDbEntity
  8
0
  6
Continuous
 62
     8
370
    18
100
AcDbLine
 10
84.1158099265
 20
201.8910052942
 30
0.0
 11
84.115809923
 21
207.8909513443
 31
0.0
  0
LINE
  5
350
330
1F
100
AcDbEntity
  8
0
  6
Continuous
 62
     8
370
    18
100
AcDbLine
 10
86.2989328297
 20
201.8910180087
 30
0.0
 11
86.2989328297
 21
207.8909640587
 31
0.0
  0
SPLINE
  5
351
330
1F
100
AcDbEntity
  8
0
  6
Continuous
 62
     8
370
    18
100
AcDbSpline
210
0.0
220
0.0
230
1.0
 70
     8
 71
     3
 72
    11
 73
     7
 74
     0
 42
0.00000001
 43
0.00000001
 40
0.0
 40
0.0
 40
0.0
 40
0.0
 40
0.001967178938304
 40
0.3346447859587968
 40
0.6673223929792832
 40
1.0
 40
1.0
 40
1.0
 40
1.0
 10
83.28448117576804
 20
184.9197755559699
 30
0.0
 10
83.28450329135475
 20
184.9197754798469
 30
0.0
 10
83.28826546349156
 20
184.9197625302438
 30
0.0
 10
83.43930742523723
 20
184.91973667659
 30
0.0
 10
83.72230757248394
 20
184.9196979093594
 30
0.0
 10
83.98464248646762
 20
184.9196719003791
 30
0.0
 10
84.1158099434595
 20
184.9196588958889
 30
0.0
  0
SPLINE
  5
352
330
1F
100
AcDbEntity
  8
0
  6
Continuous
 62
     8
370
    18
100
AcDbSpline
210
0.0
220
0.0
230
1.0
 70
     8
 71
     3
 72
    19
 73
    15
 74
     0
 42
0.00000001
 43
0.00000001
 40
0.0
 40
0.0
 40
0.0
 40
0.0
 40
0.1028740066971444
 40
0.1338451665024883
 40
0.1416277840694586
 40
0.1435931582909109
 40
0.144094358702832
 40
0.1442245871986317
 40
0.1442596085303681
 40
0.1442745679557363
 40
0.3154479634750773
 40
0.5761722564763071
 40
0.7678447624762458
 40
1.0
 40
1.0
 40
1.0
 40
1.0
 10
83.2858622282687
 20
224.8620085722754
 30
0.0
 10
83.2957386122145
 20
224.8618831202512
 30
0.0
 10
83.30858837180011
 20
224.8617198997486
 30
0.0
 10
83.3292260273269
 20
224.8615491336124
 30
0.0
 10
83.33540840776335
 20
224.861500395526
 30
0.0
 10
83.33698900742384
 20
224.8614886669548
 30
0.0
 10
83.33739081167019
 20
224.8614857487163
 30
0.0
 10
83.33749402577972
 20
224.8614851573283
 30
0.0
 10
83.33752194154346
 20
224.8614849916021
 30
0.0
 10
83.36404764621025
 20
224.8615287841806
 30
0.0
 10
83.44724119658318
 20
224.862749701263
 30
0.0
 10
83.6217835061867
 20
224.8621519553248
 30
0.0
 10
83.85764688263336
 20
224.8623289678411
 30
0.0
 10
84.0244448875647
 20
224.8623321057971
 30
0.0
 10
84.1158099080123
 20
224.8623338246391
 30
0.0
  0
LINE
  5
353
330
1F
100
AcDbEntity
  8
0
  6
Continuous
 62
     8
370
    18
100
AcDbLine
 10
91.6601367854
 20
225.5899167587
 30
0.0
 11
86.298930976
 21
225.1265950382
 31
0.0
  0
LINE
  5
354
330
1F
100
AcDbEntity
  8
0
  6
Continuous
 62
     8
370
    18
100
AcDbLine
 10
91.6610432992
 20
184.1919622125
 30
0.0
 11
86.2990701567
 21
184.6760496671
 31
0.0
  0
LINE
  5
355
330
1F
100
AcDbEntity
  8
0
  6
Continuous
 62
     8
370
    18
100
AcDbLine
 10
91.6218024792
 20
184.5409472484
 30
0.0
 11
86.2990684855
 21
185.0897202242
 31
0.0
  0
LINE
  5
356
330
1F
100
AcDbEntity
  8
0
  6
Continuous
 62
     8
370
    18
100
AcDbLine
 10
91.6094119759
 20
184.9195604068
 30
0.0
 11
86.2990669511
 21
185.4695311885
 31
0.0
  0
LINE
  5
357
330
1F
100
AcDbEntity
  8
0
  6
Continuous
 62
     8
370
    18
100
AcDbLine
 10
91.6085387827
 20
224.8623192763
 30
0.0
 11
86.2989341817
 21
224.3331171083
 31
0.0
  0
LINE
  5
358
330
1F
100
AcDbEntity
  8
0
  6
Continuous
 62
     8
370
    18
100
AcDbLine
 10
91.6209062679
 20
225.2409322673
 30
0.0
 11
86.2989326472
 21
224.7129264902
 31
0.0
  0
SPLINE
  5
359
330
1F
100
AcDbEntity
  8
0
  6
Continuous
 62
     8
370
    18
100
AcDbSpline
210
0.0
220
0.0
230
1.0
 70
     8
 71
     3
 72
    10
 73
     6
 74
     0
 42
0.00000001
 43
0.00000001
 40
0.0
 40
0.0
 40
0.0
 40
0.0
 40
0.3993683198037463
 40
0.8320996210881265
 40
1.664209903381074
 40
1.664209903381074
 40
1.664209903381074
 40
1.664209903381074
 10
113.3085246265726
 20
184.9195863034298
 30
0.0
 10
113.308707427674
 20
184.7903018122358
 30
0.0
 10
113.3087117257133
 20
184.5213348485105
 30
0.0
 10
113.3087240913231
 20
184.0604238107685
 30
0.0
 10
113.3087355885192
 20
183.8893714613185
 30
0.0
 10
113.3085605742397
 20
183.8910365455561
 30
0.0
  0
LINE
  5
35A
330
1F
100
AcDbEntity
  8
0
  6
Continuous
 62
     8
370
    18
100
AcDbLine
 10
119.8085605739
 20
184.9195863034
 30
0.0
 11
113.3085246295
 21
184.9195863034
 31
0.0
  0
LINE
  5
35B
330
1F
100
AcDbEntity
  8
0
  6
Continuous
 62
     8
370
    18
100
AcDbLine
 10
113.3085565237
 20
224.8623451849
 30
0.0
 11
119.8081451554
 21
224.8623451849
 31
0.0
  0
SPLINE
  5
35C
330
1F
100
AcDbEntity
  8
0
  6
Continuous
 62
     8
370
    18
100
AcDbSpline
210
0.0
220
0.0
230
1.0
 70
     8
 71
     3
 72
    10
 73
     6
 74
     0
 42
0.00000001
 43
0.00000001
 40
-1.664220564585673
 40
-1.664220564585673
 40
-1.664220564585673
 40
-1.664220564585673
 40
-1.264841583577328
 40
-0.8321102822929477
 40
0.0
 40
0.0
 40
0.0
 40
0.0
 10
113.3085565193292
 20
224.8623417357547
 30
0.0
 10
113.3087659176859
 20
224.9916317517989
 30
0.0
 10
113.3087668598272
 20
225.2606076311847
 30
0.0
 10
113.3087710372165
 20
225.7215329656929
 30
0.0
 10
113.3087761281253
 20
225.8925934167912
 30
0.0
 10
113.3085701303258
 20
225.8909318760954
 30
0.0
  0
LINE
  5
35D
330
1F
100
AcDbEntity
  8
0
  6
Continuous
 62
     8
370
    18
100
AcDbLine
 10
113.3085743505
 20
225.8909131106
 30
0.0
 11
119.8086012598
 21
225.8909131107
 31
0.0
  0
SPLINE
  5
35E
330
1F
100
AcDbEntity
  8
0
  6
Continuous
 62
     8
370
    18
100
AcDbSpline
210
0.0
220
0.0
230
1.0
 70
     8
 71
     3
 72
    27
 73
    23
 74
     0
 42
0.00000001
 43
0.00000001
 40
0.0
 40
0.0
 40
0.0
 40
0.0
 40
0.0623326347783199
 40
0.1248348434029172
 40
0.2500861294499222
 40
0.3204970787013188
 40
0.3752491149712824
 40
0.4377207575018743
 40
0.5001548181785279
 40
0.5626211049248807
 40
0.6251956427551137
 40
0.6877529706573925
 40
0.750222431119889
 40
0.8125182995051619
 40
0.8437941554388515
 40
0.875020157087175
 40
0.9057930893943231
 40
0.9374755727307001
 40
0.9527942074705442
 40
0.9687388011878199
 40
0.9839325423538945
 40
1.0
 40
1.0
 40
1.0
 40
1.0
 10
284.807693549962
 20
163.8909826982064
 30
0.0
 10
284.8081627930554
 20
164.391701415624
 30
0.0
 10
284.8091025558023
 20
165.3945010389681
 30
0.0
 10
284.8094699877303
 20
167.4034451328947
 30
0.0
 10
284.8133921138207
 20
169.4772889678826
 30
0.0
 10
284.8280311212565
 20
171.4888236419421
 30
0.0
 10
284.8479379219826
 20
172.9959799632459
 30
0.0
 10
284.8860567531131
 20
174.4387375314942
 30
0.0
 10
284.9590456319719
 20
175.9423310230394
 30
0.0
 10
285.0796733109278
 20
177.4437109092356
 30
0.0
 10
285.2542955863059
 20
178.9411450149282
 30
0.0
 10
285.5405862071841
 20
180.4231047252267
 30
0.0
 10
286.0096027151125
 20
181.85884940966
 30
0.0
 10
286.6380274505683
 20
182.9599924849635
 30
0.0
 10
287.3153496844969
 20
183.70525573599
 30
0.0
 10
287.9157368213724
 20
184.1606250896008
 30
0.0
 10
288.5868249337392
 20
184.5083851879245
 30
0.0
 10
289.1836644977741
 20
184.7024638174518
 30
0.0
 10
289.6791304412964
 20
184.804945865323
 30
0.0
 10
290.049195303205
 20
184.8551309238438
 30
0.0
 10
290.4274727808129
 20
184.884854822849
 30
0.0
 10
290.6786126204646
 20
184.8889023649548
 30
0.0
 10
290.8076920828709
 20
184.8909826982058
 30
0.0
  0
LINE
  5
35F
330
1F
100
AcDbEntity
  8
0
  6
Continuous
 62
     8
370
    18
100
AcDbLine
 10
290.8076920829
 20
184.8909826982
 30
0.0
 11
290.8076920829
 21
183.8909826982
 31
0.0
  0
LINE
  5
360
330
1F
100
AcDbEntity
  8
0
  6
Continuous
 62
     8
370
    18
100
AcDbLine
 10
285.80769355
 20
163.8909826982
 30
0.0
 11
284.80769355
 21
163.8909826982
 31
0.0
  0
LINE
  5
361
330
1F
100
AcDbEntity
  8
0
  6
Continuous
 62
     8
370
    18
100
AcDbLine
 10
220.8076950168
 20
184.8909826982
 30
0.0
 11
220.8076950168
 21
183.8909826982
 31
0.0
  0
SPLINE
  5
362
330
1F
100
AcDbEntity
  8
0
  6
Continuous
 62
     8
370
    18
100
AcDbSpline
210
0.0
220
0.0
230
1.0
 70
     8
 71
     3
 72
    32
 73
    28
 74
     0
 42
0.00000001
 43
0.00000001
 40
0.0
 40
0.0
 40
0.0
 40
0.0
 40
0.0110988333870432
 40
0.0219053505057177
 40
0.0324341510993226
 40
0.0427010197390059
 40
0.0527229786997077
 40
0.0625183271455943
 40
0.094294729322561
 40
0.1249653084979652
 40
0.1606509142104914
 40
0.1963859537708268
 40
0.2224069374316677
 40
0.2498452752136593
 40
0.3070959923671771
 40
0.3748728232715535
 40
0.4373540921675809
 40
0.4998329897769085
 40
0.5623469761339446
 40
0.6248976669203072
 40
0.6781539483071554
 40
0.749947401587622
 40
0.8130782700271526
 40
0.8749486689261962
 40
0.9374955510561591
 40
0.9687560715874722
 40
0.9999999999999999
 40
0.9999999999999999
 40
0.9999999999999999
 40
0.9999999999999999
 10
220.8076950167709
 20
184.8909826982058
 30
0.0
 10
220.896865215222
 20
184.8900548253288
 30
0.0
 10
221.0728570860449
 20
184.8882235174887
 30
0.0
 10
221.3331153541784
 20
184.8738598308435
 30
0.0
 10
221.5860153957224
 20
184.8509137846099
 30
0.0
 10
221.8315503816934
 20
184.8186069342767
 30
0.0
 10
222.069745857065
 20
184.7771475487673
 30
0.0
 10
222.474630018974
 20
184.6881709479164
 30
0.0
 10
223.0295218929261
 20
184.5089601921244
 30
0.0
 10
223.7325130691815
 20
184.1442310478245
 30
0.0
 10
224.3819625417295
 20
183.6337618366212
 30
0.0
 10
224.8928150152221
 20
183.0347356882633
 30
0.0
 10
225.2779333295014
 20
182.4289889880266
 30
0.0
 10
225.6738136809716
 20
181.6307834516793
 30
0.0
 10
226.0605674076334
 20
180.4630055904346
 30
0.0
 10
226.3547062799502
 20
178.9832016110379
 30
0.0
 10
226.5383613223056
 20
177.4449987684246
 30
0.0
 10
226.6583204935145
 20
175.9433903670233
 30
0.0
 10
226.7291157315356
 20
174.4381567970421
 30
0.0
 10
226.7646864304548
 20
173.00594192917
 30
0.0
 10
226.7844966058081
 20
171.4989181882449
 30
0.0
 10
226.7982860546406
 20
169.9871730830176
 30
0.0
 10
226.8076564147267
 20
168.4061863089053
 30
0.0
 10
226.8094288362456
 20
166.8994570628091
 30
0.0
 10
226.806772603694
 20
165.6487753294271
 30
0.0
 10
226.8056320831039
 20
164.6441366766059
 30
0.0
 10
226.8070065159589
 20
164.141989591854
 30
0.0
 10
226.8076935499614
 20
163.8909826982064
 30
0.0
  0
LINE
  5
363
330
1F
100
AcDbEntity
  8
0
  6
Continuous
 62
     8
370
    18
100
AcDbLine
 10
226.80769355
 20
163.8909826982
 30
0.0
 11
225.80769355
 21
163.8909826982
 31
0.0
  0
LINE
  5
364
330
1F
100
AcDbEntity
  8
0
  6
Continuous
 62
     8
370
    18
100
AcDbLine
 10
113.3085246265
 20
184.9195863034
 30
0.0
 11
113.3085371127
 21
201.8910289627
 31
0.0
  0
LINE
  5
365
330
1F
100
AcDbEntity
  8
0
  6
Continuous
 62
     8
370
    18
100
AcDbLine
 10
113.3085371127
 20
201.8910289627
 30
0.0
 11
113.3085371127
 21
207.8909810896
 31
0.0
  0
LINE
  5
366
330
1F
100
AcDbEntity
  8
0
  6
Continuous
 62
     8
370
    18
100
AcDbLine
 10
113.3085406947
 20
207.8909810896
 30
0.0
 11
113.3085565252
 21
224.8623451736
 31
0.0
  0
LINE
  5
367
330
1F
100
AcDbEntity
  8
0
  6
Continuous
 62
     8
370
    18
100
AcDbLine
 10
119.8077234581
 20
201.8910282794
 30
0.0
 11
119.8077234581
 21
207.8909855801
 31
0.0
  0
LINE
  5
368
330
1F
100
AcDbEntity
  8
0
  6
Continuous
 62
     8
370
    18
100
AcDbLine
 10
284.8076935533
 20
63.6037328983
 30
0.0
 11
284.80769355
 21
64.6037328983
 31
0.0
  0
LINE
  5
369
330
1F
100
AcDbEntity
  8
0
  6
Continuous
 62
     8
370
    18
100
AcDbLine
 10
284.80769355
 20
64.6037328983
 30
0.0
 11
285.80769355
 21
64.6037328983
 31
0.0
  0
LINE
  5
36A
330
1F
100
AcDbEntity
  8
0
  6
Continuous
 62
     8
370
    18
100
AcDbLine
 10
389.8081451554
 20
184.8909826982
 30
0.0
 11
389.8081451554
 21
224.8909826982
 31
0.0
  0
LINE
  5
36B
330
1F
100
AcDbEntity
  8
0
  6
Continuous
 62
     8
370
    18
100
AcDbLine
 10
290.8076920829
 20
184.8909826982
 30
0.0
 11
389.8081451554
 21
184.8909826982
 31
0.0
  0
LINE
  5
36C
330
1F
100
AcDbEntity
  8
0
  6
Continuous
 62
     8
370
    18
100
AcDbLine
 10
284.80769355
 20
64.6037328983
 30
0.0
 11
284.80769355
 21
163.8909826982
 31
0.0
  0
LINE
  5
36D
330
1F
100
AcDbEntity
  8
0
  6
Continuous
 62
     8
370
    18
100
AcDbLine
 10
226.80769355
 20
64.6037328983
 30
0.0
 11
284.80769355
 21
64.6037328983
 31
0.0
  0
LINE
  5
36E
330
1F
100
AcDbEntity
  8
0
  6
Continuous
 62
     8
370
    18
100
AcDbLine
 10
226.80769355
 20
163.8909826982
 30
0.0
 11
226.80769355
 21
64.6037328983
 31
0.0
  0
LINE
  5
36F
330
1F
100
AcDbEntity
  8
0
  6
Continuous
 62
     8
370
    18
100
AcDbLine
 10
121.8081451554
 20
184.8909826982
 30
0.0
 11
220.8076950168
 21
184.8909826982
 31
0.0
  0
LINE
  5
370
330
1F
100
AcDbEntity
  8
0
  6
Continuous
 62
     8
370
    18
100
AcDbLine
 10
121.8081451554
 20
224.8909826982
 30
0.0
 11
121.8081451554
 21
184.8909826982
 31
0.0
  0
LINE
  5
371
330
1F
100
AcDbEntity
  8
0
  6
Continuous
 62
     8
370
    18
100
AcDbLine
 10
389.8081451554
 20
224.8909826982
 30
0.0
 11
121.8081451554
 21
224.8909826982
 31
0.0
  0
LINE
  5
372
330
1F
100
AcDbEntity
  8
0
  6
Continuous
 62
     8
370
    18
100
AcDbLine
 10
121.8081451554
 20
184.8909826982
 30
0.0
 11
121.8081451554
 21
183.8909826982
 31
0.0
  0
SPLINE
  5
373
330
1F
100
AcDbEntity
  8
0
  6
Continuous
 62
     8
370
    18
100
AcDbSpline
210
0.0
220
0.0
230
1.0
 70
     8
 71
     3
 72
    18
 73
    14
 74
     0
 42
0.00000001
 43
0.00000001
 40
0.0
 40
0.0
 40
0.0
 40
0.0
 40
0.0526861538678192
 40
0.1068442195266497
 40
0.1624742253475402
 40
0.2195761899531427
 40
0.2992900219644782
 40
0.4433941507562712
 40
0.5667180596553584
 40
0.7030369359595456
 40
0.8676134508558063
 40
0.9666892148119217
 40
1.0
 40
1.0
 40
1.0
 40
1.0
 10
225.8076935500499
 20
64.60373289829546
 30
0.0
 10
225.8083529168124
 20
64.60374340377231
 30
0.0
 10
225.8096900713009
 20
64.6037647082212
 30
0.0
 10
225.8207100006291
 20
64.60397742165569
 30
0.0
 10
225.8389217533052
 20
64.60418843440274
 30
0.0
 10
225.8687082767701
 20
64.60505898439828
 30
0.0
 10
225.926963493233
 20
64.60328620577724
 30
0.0
 10
226.0277884988688
 20
64.59907818711596
 30
0.0
 10
226.1791028884059
 20
64.59624598623462
 30
0.0
 10
226.3667491543479
 20
64.59800090452997
 30
0.0
 10
226.5664995418294
 20
64.60083938177164
 30
0.0
 10
226.7210570543207
 20
64.60268787673834
 30
0.0
 10
226.7902766753486
 20
64.603522813512
 30
0.0
 10
226.8076935499614
 20
64.60373289829549
 30
0.0
  0
SPLINE
  5
374
330
1F
100
AcDbEntity
  8
0
  6
Continuous
 62
     8
370
    18
100
AcDbSpline
210
0.0
220
0.0
230
1.0
 70
     8
 71
     3
 72
    16
 73
    12
 74
     0
 42
0.00000001
 43
0.00000001
 40
0.0
 40
0.0
 40
0.0
 40
0.0
 40
0.0336922048402893
 40
0.132784127745388
 40
0.2970145078620938
 40
0.4331869649213413
 40
0.5566998125799335
 40
0.6811967360933608
 40
0.7878208101921177
 40
0.8742031520740932
 40
1.0
 40
1.0
 40
1.0
 40
1.0
 10
389.8081451554488
 20
224.8909826982059
 30
0.0
 10
389.8083549272361
 20
224.9085961952743
 30
0.0
 10
389.8091816574525
 20
224.9780126331674
 30
0.0
 10
389.8110396081007
 20
225.1325600870705
 30
0.0
 10
389.8138737175435
 20
225.3320061240061
 30
0.0
 10
389.8156463222068
 20
225.5195050821586
 30
0.0
 10
389.8128898689903
 20
225.6634704822442
 30
0.0
 10
389.8089517195684
 20
225.7687016536437
 30
0.0
 10
389.8068941716374
 20
225.8357801789968
 30
0.0
 10
389.8068977834599
 20
225.8810916805257
 30
0.0
 10
389.807680875598
 20
225.8873011978661
 30
0.0
 10
389.8081451554488
 20
225.8909826979665
 30
0.0
  0
LINE
  5
375
330
1F
100
AcDbEntity
  8
0
  6
Continuous
 62
     8
370
    18
100
AcDbLine
 10
121.8081451554
 20
225.8909826982
 30
0.0
 11
121.8081451554
 21
224.8909826982
 31
0.0
  0
SPLINE
  5
376
330
1F
100
AcDbEntity
  8
0
  6
Continuous
 62
     8
370
    18
100
AcDbSpline
210
0.0
220
0.0
230
1.0
 70
     8
 71
     3
 72
    18
 73
    14
 74
     0
 42
0.00000001
 43
0.00000001
 40
0.0
 40
0.0
 40
0.0
 40
0.0
 40
0.0526865997715745
 40
0.106844814116175
 40
0.1624746714353048
 40
0.2195761903846276
 40
0.2992900465358904
 40
0.443394151677621
 40
0.5667179799618077
 40
0.7030369372175503
 40
0.8676136668479542
 40
0.9666894309634446
 40
1.0
 40
1.0
 40
1.0
 40
1.0
 10
390.808145155449
 20
224.8909826982063
 30
0.0
 10
390.8074857778038
 20
224.8909721928235
 30
0.0
 10
390.8061486051216
 20
224.8909508886269
 30
0.0
 10
390.7951285740626
 20
224.8907381754578
 30
0.0
 10
390.7769168007237
 20
224.8905271627632
 30
0.0
 10
390.7471303326175
 20
224.8896566126622
 30
0.0
 10
390.6888752058725
 20
224.8914293873384
 30
0.0
 10
390.5880502210383
 20
224.8956374096015
 30
0.0
 10
390.4367358513786
 20
224.898469609637
 30
0.0
 10
390.2490894969167
 20
224.896714691187
 30
0.0
 10
390.0493389432071
 20
224.8938762146087
 30
0.0
 10
389.8947814248149
 20
224.8920277246829
 30
0.0
 10
389.8255619169795
 20
224.8911927831631
 30
0.0
 10
389.8081451554488
 20
224.8909826982059
 30
0.0
  0
SPLINE
  5
377
330
1F
100
AcDbEntity
  8
0
  6
Continuous
 62
     8
370
    18
100
AcDbSpline
210
0.0
220
0.0
230
1.0
 70
     8
 71
     3
 72
    16
 73
    12
 74
     0
 42
0.00000001
 43
0.00000001
 40
0.0
 40
0.0
 40
0.0
 40
0.0
 40
0.0369741612159493
 40
0.1360866160532368
 40
0.2971014615892267
 40
0.4332782409923143
 40
0.556751977520334
 40
0.681204558223964
 40
0.7878361816879116
 40
0.8740487697593476
 40
1.0
 40
1.0
 40
1.0
 40
1.0
 10
389.8081451554488
 20
184.8909826982058
 30
0.0
 10
389.8274755368798
 20
184.8907816575474
 30
0.0
 10
389.8986226869283
 20
184.8900417099191
 30
0.0
 10
390.0531144448208
 20
184.8881487286558
 30
0.0
 10
390.2506836899007
 20
184.8853563657653
 30
0.0
 10
390.436745789566
 20
184.8835678476033
 30
0.0
 10
390.5806691540567
 20
184.8862994176424
 30
0.0
 10
390.6858757693113
 20
184.8902123586464
 30
0.0
 10
390.7529110504548
 20
184.8922506010525
 30
0.0
 10
390.7982392459689
 20
184.8922322571758
 30
0.0
 10
390.80445510531
 20
184.8914481713937
 30
0.0
 10
390.8081451554667
 20
184.8909826982058
 30
0.0
  0
SPLINE
  5
378
330
1F
100
AcDbEntity
  8
0
  6
Continuous
 62
     8
370
    18
100
AcDbSpline
210
0.0
220
0.0
230
1.0
 70
     8
 71
     3
 72
    19
 73
    15
 74
     0
 42
0.00000001
 43
0.00000001
 40
0.0
 40
0.0
 40
0.0
 40
0.0
 40
0.0525935426237226
 40
0.1067097876359916
 40
0.1623487544806466
 40
0.2195104526886511
 40
0.2992332221168265
 40
0.4432660754399565
 40
0.5665984622897282
 40
0.7028382722892779
 40
0.7637169906339552
 40
0.8379718018123105
 40
0.9329417519211657
 40
1.0
 40
1.0
 40
1.0
 40
1.0
 10
389.8081451554488
 20
183.8909826982059
 30
0.0
 10
389.8081348463157
 20
183.8916402973919
 30
0.0
 10
389.8081139295767
 20
183.8929745347525
 30
0.0
 10
389.8079045892442
 20
183.903978776425
 30
0.0
 10
389.8076988626956
 20
183.9221898805065
 30
0.0
 10
389.8068370747361
 20
183.9519969407615
 30
0.0
 10
389.8086248074273
 20
184.010279449005
 30
0.0
 10
389.8128718114552
 20
184.111156202432
 30
0.0
 10
389.815684038128
 20
184.262427102177
 30
0.0
 10
389.8145308761722
 20
184.4044472910311
 30
0.0
 10
389.8125747221237
 20
184.5342712693921
 30
0.0
 10
389.8107410569179
 20
184.6490391852261
 30
0.0
 10
389.8087976435535
 20
184.7711133227957
 30
0.0
 10
389.8083361519477
 20
184.8558945013949
 30
0.0
 10
389.8081451554488
 20
184.8909826982058
 30
0.0
  0
LINE
  5
379
330
1F
100
AcDbEntity
  8
0
  6
Continuous
 62
     8
370
    18
100
AcDbLine
 10
226.80769355
 20
64.6037328983
 30
0.0
 11
226.80769355
 21
63.6037328983
 31
0.0
  0
LINE
  5
37A
330
1F
100
AcDbEntity
  8
0
  6
Continuous
 62
     8
370
    18
100
AcDbLine
 10
91.6090577668
 20
201.8910048964
 30
0.0
 11
113.3085371127
 21
201.8910289627
 31
0.0
  0
LINE
  5
37B
330
1F
100
AcDbEntity
  8
0
  6
Continuous
 62
     8
370
    18
100
AcDbLine
 10
113.3085246321
 20
184.9195828588
 30
0.0
 11
91.6094119759
 21
184.9195604059
 31
0.0
  0
LINE
  5
37C
330
1F
100
AcDbEntity
  8
0
  6
Continuous
 62
     8
370
    18
100
AcDbLine
 10
91.6085387823
 20
224.8623192812
 30
0.0
 11
113.3085565252
 21
224.8623417357
 31
0.0
  0
LINE
  5
37D
330
1F
100
AcDbEntity
  8
0
  6
Continuous
 62
     8
370
    18
100
AcDbLine
 10
91.6090577666
 20
207.8909534622
 30
0.0
 11
113.3085406947
 21
207.8909810896
 31
0.0
  0
LINE
  5
37E
330
1F
100
AcDbEntity
  8
0
  6
Continuous
 62
     8
370
    18
100
AcDbLine
 10
120.8081451554
 20
224.8909826982
 30
0.0
 11
121.8081451554
 21
224.8909826982
 31
0.0
  0
LINE
  5
37F
330
1F
100
AcDbEntity
  8
0
  6
Continuous
 62
     8
370
    18
100
AcDbLine
 10
120.8081451554
 20
184.8909826983
 30
0.0
 11
121.8081451554
 21
184.8909826982
 31
0.0
  0
LINE
  5
380
330
1F
100
AcDbEntity
  8
0
  6
Continuous
 62
     8
370
    18
100
AcDbLine
 10
119.8088120328
 20
184.6407577231
 30
0.0
 11
119.8088120329
 21
184.8910649255
 31
0.0
  0
LINE
  5
381
330
1F
100
AcDbEntity
  8
0
  6
Continuous
 62
     8
370
    18
100
AcDbLine
 10
415.8081451554
 20
224.8909826982
 30
0.0
 11
415.8081451554
 21
225.8909826982
 31
0.0
  0
LINE
  5
382
330
1F
100
AcDbEntity
  8
0
  6
Continuous
 62
     8
370
    18
100
AcDbLine
 10
415.8081451554
 20
224.8909826982
 30
0.0
 11
392.3081451554
 21
224.8909826982
 31
0.0
  0
LINE
  5
383
330
1F
100
AcDbEntity
  8
0
  6
Continuous
 62
     8
370
    18
100
AcDbLine
 10
392.3081451554
 20
225.8909826982
 30
0.0
 11
392.3081451554
 21
224.8909826982
 31
0.0
  0
LINE
  5
384
330
1F
100
AcDbEntity
  8
0
  6
Continuous
 62
     8
370
    18
100
AcDbLine
 10
391.8081451554
 20
224.8909826982
 30
0.0
 11
392.3081451554
 21
224.8909826982
 31
0.0
  0
LINE
  5
385
330
1F
100
AcDbEntity
  8
0
  6
Continuous
 62
     8
370
    18
100
AcDbLine
 10
415.8081451554
 20
224.8909826982
 30
0.0
 11
416.8081451554
 21
224.8909826982
 31
0.0
  0
LINE
  5
386
330
1F
100
AcDbEntity
  8
0
  6
Continuous
 62
     8
370
    18
100
AcDbLine
 10
415.8081451554
 20
184.8909826982
 30
0.0
 11
415.8081451554
 21
224.8909826982
 31
0.0
  0
LINE
  5
387
330
1F
100
AcDbEntity
  8
0
  6
Continuous
 62
     8
370
    18
100
AcDbLine
 10
415.8081451554
 20
184.8909826982
 30
0.0
 11
416.8081451554
 21
184.8909826982
 31
0.0
  0
LINE
  5
388
330
1F
100
AcDbEntity
  8
0
  6
Continuous
 62
     8
370
    18
100
AcDbLine
 10
392.3081451554
 20
224.8909826982
 30
0.0
 11
392.3081451554
 21
184.8909826982
 31
0.0
  0
LINE
  5
389
330
1F
100
AcDbEntity
  8
0
  6
Continuous
 62
     8
370
    18
100
AcDbLine
 10
391.8081451554
 20
184.8909826982
 30
0.0
 11
392.3081451554
 21
184.8909826982
 31
0.0
  0
LINE
  5
38A
330
1F
100
AcDbEntity
  8
0
  6
Continuous
 62
     8
370
    18
100
AcDbLine
 10
392.3081451554
 20
184.8909826982
 30
0.0
 11
415.8081451554
 21
184.8909826982
 31
0.0
  0
LINE
  5
38B
330
1F
100
AcDbEntity
  8
0
  6
Continuous
 62
     8
370
    18
100
AcDbLine
 10
415.8081451554
 20
184.8909826982
 30
0.0
 11
415.8081451554
 21
183.8909826982
 31
0.0
  0
LINE
  5
38C
330
1F
100
AcDbEntity
  8
0
  6
Continuous
 62
     8
370
    18
100
AcDbLine
 10
392.3081451554
 20
184.8909826982
 30
0.0
 11
392.3081451554
 21
183.8909826982
 31
0.0
  0
MTEXT
  5
38D
330
1F
100
AcDbEntity
  8
0
  6
Continuous
 62
     7
370
     0
100
AcDbMText
 10
404.3950546451
 20
39.4570997094
 30
0.0
 40
10.0
 41
0.0
 71
     1
 72
     1
  1
54691..75
  7
SLDTEXTSTYLE1
 73
     1
 44
1.0
  0
ENDSEC
  0
SECTION
  2
OBJECTS
  0
DICTIONARY
  5
C
330
0
100
AcDbDictionary
281
     1
  3
ACAD_GROUP
350
D
  3
ACAD_LAYOUT
350
1A
  3
ACAD_MLINESTYLE
350
17
  3
ACAD_PLOTSETTINGS
350
19
  3
ACAD_PLOTSTYLENAME
350
E
  3
ACAD_SCALELIST
350
47
  3
DWGPROPS
350
38E
  0
DICTIONARY
  5
D
102
{ACAD_REACTORS
330
C
102
}
330
C
100
AcDbDictionary
281
     1
  0
DICTIONARY
  5
1A
102
{ACAD_REACTORS
330
C
102
}
330
C
100
AcDbDictionary
281
     1
  3
Layout1
350
1E
  3
Layout2
350
26
  3
Model
350
22
  0
DICTIONARY
  5
17
102
{ACAD_REACTORS
330
C
102
}
330
C
100
AcDbDictionary
281
     1
  3
Standard
350
18
  0
DICTIONARY
  5
19
102
{ACAD_REACTORS
330
C
102
}
330
C
100
AcDbDictionary
281
     1
  0
ACDBDICTIONARYWDFLT
  5
E
102
{ACAD_REACTORS
330
C
102
}
330
C
100
AcDbDictionary
281
     1
  3
Normal
350
F
100
AcDbDictionaryWithDefault
340
F
  0
DICTIONARY
  5
47
102
{ACAD_REACTORS
330
C
102
}
330
C
100
AcDbDictionary
281
     1
  3
A0
350
48
  3
A1
350
49
  3
A2
350
4A
  3
A3
350
4B
  3
A4
350
4C
  3
A5
350
4D
  3
A6
350
4E
  3
A7
350
4F
  3
A8
350
50
  3
A9
350
51
  3
B0
350
52
  3
B1
350
53
  3
B2
350
54
  3
B3
350
55
  3
B4
350
56
  3
B5
350
57
  3
B6
350
58
  0
XRECORD
  5
38E
102
{ACAD_REACTORS
330
C
102
}
330
C
100
AcDbXrecord
280
     1
  1
DWGPROPS COOKIE
  2

  3

  4

  6

  7

  8
slawatsch
  9

300
=
301
=
302
=
303
=
304
=
305
=
306
=
307
=
308
=
309
=
 40
0.0
 41
2460382.35780537
 42
2460382.357806643
  1

 90
        0
  0
LAYOUT
  5
1E
102
{ACAD_REACTORS
330
1A
102
}
330
1A
100
AcDbPlotSettings
  1

  2
none_device
  4

  6

 40
0.0
 41
0.0
 42
0.0
 43
0.0
 44
0.0
 45
0.0
 46
0.0
 47
0.0
 48
0.0
 49
0.0
140
0.0
141
0.0
142
1.0
143
1.0
 70
   688
 72
     1
 73
     0
 74
     5
  7

 75
    16
147
1.0
148
0.0
149
0.0
100
AcDbLayout
  1
Layout1
 70
     1
 71
     1
 10
0.0
 20
0.0
 11
420.0
 21
297.0
 12
0.0
 22
0.0
 32
0.0
 14
1.0000000000E+20
 24
1.0000000000E+20
 34
1.0000000000E+20
 15
-1.0000000000E+20
 25
-1.0000000000E+20
 35
-1.0000000000E+20
146
0.0
 13
0.0
 23
0.0
 33
0.0
 16
1.0
 26
0.0
 36
0.0
 17
0.0
 27
1.0
 37
0.0
 76
     0
330
1B
  0
LAYOUT
  5
26
102
{ACAD_REACTORS
330
1A
102
}
330
1A
100
AcDbPlotSettings
  1

  2
none_device
  4

  6

 40
0.0
 41
0.0
 42
0.0
 43
0.0
 44
0.0
 45
0.0
 46
0.0
 47
0.0
 48
0.0
 49
0.0
140
0.0
141
0.0
142
1.0
143
1.0
 70
   688
 72
     1
 73
     0
 74
     5
  7

 75
    16
147
1.0
148
0.0
149
0.0
100
AcDbLayout
  1
Layout2
 70
     1
 71
     2
 10
0.0
 20
0.0
 11
0.0
 21
0.0
 12
0.0
 22
0.0
 32
0.0
 14
0.0
 24
0.0
 34
0.0
 15
0.0
 25
0.0
 35
0.0
146
0.0
 13
0.0
 23
0.0
 33
0.0
 16
1.0
 26
0.0
 36
0.0
 17
0.0
 27
1.0
 37
0.0
 76
     0
330
23
  0
LAYOUT
  5
22
102
{ACAD_REACTORS
330
1A
102
}
330
1A
100
AcDbPlotSettings
  1

  2
none_device
  4
Letter_(8.50_x_11.00_Inches)
  6

 40
6.35
 41
6.35
 42
6.35000508
 43
6.35000508
 44
215.9
 45
279.4
 46
0.0
 47
0.0
 48
0.0
 49
0.0
140
0.0
141
0.0
142
1.0
143
1.0
 70
  1712
 72
     1
 73
     0
 74
     0
  7

 75
     0
147
1.0
148
0.0
149
0.0
100
AcDbLayout
  1
Model
 70
     1
 71
     0
 10
0.0
 20
0.0
 11
841.0
 21
594.0
 12
0.0
 22
0.0
 32
0.0
 14
0.0
 24
0.0
 34
0.0
 15
841.0
 25
594.0
 35
0.0
146
0.0
 13
0.0
 23
0.0
 33
0.0
 16
1.0
 26
0.0
 36
0.0
 17
0.0
 27
1.0
 37
0.0
 76
     0
330
1F
331
29
  0
MLINESTYLE
  5
18
102
{ACAD_REACTORS
330
17
102
}
330
17
100
AcDbMlineStyle
  2
Standard
 70
     0
  3

 62
   256
 51
90.0
 52
90.0
 71
     2
 49
0.5
 62
   256
  6
BYLAYER
 49
-0.5
 62
   256
  6
BYLAYER
  0
ACDBPLACEHOLDER
  5
F
102
{ACAD_REACTORS
330
E
102
}
330
E
  0
SCALE
  5
48
102
{ACAD_REACTORS
330
47
102
}
330
47
100
AcDbScale
 70
     0
300
1:1
140
1.0
141
1.0
290
     1
  0
SCALE
  5
49
102
{ACAD_REACTORS
330
47
102
}
330
47
100
AcDbScale
 70
     0
300
1:2
140
1.0
141
2.0
290
     0
  0
SCALE
  5
4A
102
{ACAD_REACTORS
330
47
102
}
330
47
100
AcDbScale
 70
     0
300
1:4
140
1.0
141
4.0
290
     0
  0
SCALE
  5
4B
102
{ACAD_REACTORS
330
47
102
}
330
47
100
AcDbScale
 70
     0
300
1:5
140
1.0
141
5.0
290
     0
  0
SCALE
  5
4C
102
{ACAD_REACTORS
330
47
102
}
330
47
100
AcDbScale
 70
     0
300
1:8
140
1.0
141
8.0
290
     0
  0
SCALE
  5
4D
102
{ACAD_REACTORS
330
47
102
}
330
47
100
AcDbScale
 70
     0
300
1:10
140
1.0
141
10.0
290
     0
  0
SCALE
  5
4E
102
{ACAD_REACTORS
330
47
102
}
330
47
100
AcDbScale
 70
     0
300
1:16
140
1.0
141
16.0
290
     0
  0
SCALE
  5
4F
102
{ACAD_REACTORS
330
47
102
}
330
47
100
AcDbScale
 70
     0
300
1:20
140
1.0
141
20.0
290
     0
  0
SCALE
  5
50
102
{ACAD_REACTORS
330
47
102
}
330
47
100
AcDbScale
 70
     0
300
1:30
140
1.0
141
30.0
290
     0
  0
SCALE
  5
51
102
{ACAD_REACTORS
330
47
102
}
330
47
100
AcDbScale
 70
     0
300
1:40
140
1.0
141
40.0
290
     0
  0
SCALE
  5
52
102
{ACAD_REACTORS
330
47
102
}
330
47
100
AcDbScale
 70
     0
300
1:50
140
1.0
141
50.0
290
     0
  0
SCALE
  5
53
102
{ACAD_REACTORS
330
47
102
}
330
47
100
AcDbScale
 70
     0
300
1:100
140
1.0
141
100.0
290
     0
  0
SCALE
  5
54
102
{ACAD_REACTORS
330
47
102
}
330
47
100
AcDbScale
 70
     0
300
2:1
140
2.0
141
1.0
290
     0
  0
SCALE
  5
55
102
{ACAD_REACTORS
330
47
102
}
330
47
100
AcDbScale
 70
     0
300
4:1
140
4.0
141
1.0
290
     0
  0
SCALE
  5
56
102
{ACAD_REACTORS
330
47
102
}
330
47
100
AcDbScale
 70
     0
300
8:1
140
8.0
141
1.0
290
     0
  0
SCALE
  5
57
102
{ACAD_REACTORS
330
47
102
}
330
47
100
AcDbScale
 70
     0
300
10:1
140
10.0
141
1.0
290
     0
  0
SCALE
  5
58
102
{ACAD_REACTORS
330
47
102
}
330
47
100
AcDbScale
 70
     0
300
100:1
140
100.0
141
1.0
290
     0
  0
ENDSEC
  0
EOF
