  0
SECTION
  2
HEADER
  9
$ACADVER
  1
AC1024
  9
$ACADMAINTVER
 70
     6
  9
$DWGCODEPAGE
  3
ANSI_1252
  9
$INSBASE
 10
0.0
 20
0.0
 30
0.0
  9
$EXTMIN
 10
0.0
 20
0.0
 30
0.0
  9
$EXTMAX
 10
594.0
 20
841.0
 30
0.0
  9
$LIMMIN
 10
0.0
 20
0.0
  9
$LIMMAX
 10
594.0
 20
841.0
  9
$ORTHOMODE
 70
     0
  9
$REGENMODE
 70
     1
  9
$FILLMODE
 70
     1
  9
$QTEXTMODE
 70
     0
  9
$MIRRTEXT
 70
     1
  9
$LTSCALE
 40
1.0
  9
$ATTMODE
 70
     1
  9
$TEXTSIZE
 40
10.0
  9
$TRACEWID
 40
1.0
  9
$TEXTSTYLE
  7
Standard
  9
$CLAYER
  8
0
  9
$CELTYPE
  6
ByLayer
  9
$CECOLOR
 62
   256
  9
$CELTSCALE
 40
1.0
  9
$DISPSILH
 70
     0
  9
$DIMSCALE
 40
1.0
  9
$DIMASZ
 40
2.5
  9
$DIMEXO
 40
0.0
  9
$DIMDLI
 40
3.75
  9
$DIMRND
 40
0.0
  9
$DIMDLE
 40
0.0
  9
$DIMEXE
 40
1.0
  9
$DIMTP
 40
0.0
  9
$DIMTM
 40
0.0
  9
$DIMTXT
 40
3.5
  9
$DIMCEN
 40
2.5
  9
$DIMTSZ
 40
0.0
  9
$DIMTOL
 70
     0
  9
$DIMLIM
 70
     0
  9
$DIMTIH
 70
     1
  9
$DIMTOH
 70
     1
  9
$DIMSE1
 70
     0
  9
$DIMSE2
 70
     0
  9
$DIMTAD
 70
     1
  9
$DIMZIN
 70
     0
  9
$DIMBLK
  1

  9
$DIMASO
 70
     1
  9
$DIMSHO
 70
     1
  9
$DIMPOST
  1

  9
$DIMAPOST
  1

  9
$DIMALT
 70
     0
  9
$DIMALTD
 70
     3
  9
$DIMALTF
 40
0.0393700787
  9
$DIMLFAC
 40
1.0
  9
$DIMTOFL
 70
     1
  9
$DIMTVP
 40
0.0
  9
$DIMTIX
 70
     0
  9
$DIMSOXD
 70
     0
  9
$DIMSAH
 70
     0
  9
$DIMBLK1
  1

  9
$DIMBLK2
  1

  9
$DIMSTYLE
  2
ISO-25
  9
$DIMCLRD
 70
     0
  9
$DIMCLRE
 70
     0
  9
$DIMCLRT
 70
     0
  9
$DIMTFAC
 40
1.0
  9
$DIMGAP
 40
1.5
  9
$DIMJUST
 70
     0
  9
$DIMSD1
 70
     0
  9
$DIMSD2
 70
     0
  9
$DIMTOLJ
 70
     0
  9
$DIMTZIN
 70
     0
  9
$DIMALTZ
 70
     0
  9
$DIMALTTZ
 70
     0
  9
$DIMUPT
 70
     0
  9
$DIMDEC
 70
     2
  9
$DIMTDEC
 70
     2
  9
$DIMALTU
 70
     2
  9
$DIMALTTD
 70
     3
  9
$DIMTXSTY
  7
Standard
  9
$DIMAUNIT
 70
     0
  9
$DIMADEC
 70
     2
  9
$DIMALTRND
 40
0.0
  9
$DIMAZIN
 70
     0
  9
$DIMDSEP
 70
    44
  9
$DIMATFIT
 70
     3
  9
$DIMFRAC
 70
     0
  9
$DIMLDRBLK
  1

  9
$DIMLUNIT
 70
     2
  9
$DIMLWD
 70
    -2
  9
$DIMLWE
 70
    -2
  9
$DIMTMOVE
 70
     0
  9
$DIMFXL
 40
1.0
  9
$DIMFXLON
 70
     0
  9
$DIMJOGANG
 40
0.7853981634
  9
$DIMTFILL
 70
     0
  9
$DIMTFILLCLR
 70
     0
  9
$DIMARCSYM
 70
     0
  9
$DIMLTYPE
  6

  9
$DIMLTEX1
  6

  9
$DIMLTEX2
  6

  9
$DIMTXTDIRECTION
 70
     0
  9
$LUNITS
 70
     2
  9
$LUPREC
 70
     2
  9
$SKETCHINC
 40
1.0
  9
$FILLETRAD
 40
10.0
  9
$AUNITS
 70
     0
  9
$AUPREC
 70
     2
  9
$MENU
  1
.
  9
$ELEVATION
 40
0.0
  9
$PELEVATION
 40
0.0
  9
$THICKNESS
 40
0.0
  9
$LIMCHECK
 70
     0
  9
$CHAMFERA
 40
10.0
  9
$CHAMFERB
 40
10.0
  9
$CHAMFERC
 40
20.0
  9
$CHAMFERD
 40
0.0
  9
$SKPOLY
 70
     0
  9
$TDCREATE
 40
2456160.396641158
  9
$TDUCREATE
 40
2456160.313307824
  9
$TDUPDATE
 40
2456160.396641169
  9
$TDUUPDATE
 40
2456160.313307836
  9
$TDINDWG
 40
0.0000000116
  9
$TDUSRTIMER
 40
0.0000000116
  9
$USRTIMER
 70
     1
  9
$ANGBASE
 50
0.0
  9
$ANGDIR
 70
     0
  9
$PDMODE
 70
     0
  9
$PDSIZE
 40
-1.0
  9
$PLINEWID
 40
0.0
  9
$SPLFRAME
 70
     0
  9
$SPLINETYPE
 70
     6
  9
$SPLINESEGS
 70
     8
  9
$HANDSEED
  5
125
  9
$SURFTAB1
 70
     6
  9
$SURFTAB2
 70
     6
  9
$SURFTYPE
 70
     6
  9
$SURFU
 70
     6
  9
$SURFV
 70
     6
  9
$UCSBASE
  2

  9
$UCSNAME
  2

  9
$UCSORG
 10
0.0
 20
0.0
 30
0.0
  9
$UCSXDIR
 10
1.0
 20
0.0
 30
0.0
  9
$UCSYDIR
 10
0.0
 20
1.0
 30
0.0
  9
$UCSORTHOREF
  2

  9
$UCSORTHOVIEW
 70
     0
  9
$UCSORGTOP
 10
0.0
 20
0.0
 30
0.0
  9
$UCSORGBOTTOM
 10
0.0
 20
0.0
 30
0.0
  9
$UCSORGLEFT
 10
0.0
 20
0.0
 30
0.0
  9
$UCSORGRIGHT
 10
0.0
 20
0.0
 30
0.0
  9
$UCSORGFRONT
 10
0.0
 20
0.0
 30
0.0
  9
$UCSORGBACK
 10
0.0
 20
0.0
 30
0.0
  9
$PUCSBASE
  2

  9
$PUCSNAME
  2

  9
$PUCSORG
 10
0.0
 20
0.0
 30
0.0
  9
$PUCSXDIR
 10
1.0
 20
0.0
 30
0.0
  9
$PUCSYDIR
 10
0.0
 20
1.0
 30
0.0
  9
$PUCSORTHOREF
  2

  9
$PUCSORTHOVIEW
 70
     0
  9
$PUCSORGTOP
 10
0.0
 20
0.0
 30
0.0
  9
$PUCSORGBOTTOM
 10
0.0
 20
0.0
 30
0.0
  9
$PUCSORGLEFT
 10
0.0
 20
0.0
 30
0.0
  9
$PUCSORGRIGHT
 10
0.0
 20
0.0
 30
0.0
  9
$PUCSORGFRONT
 10
0.0
 20
0.0
 30
0.0
  9
$PUCSORGBACK
 10
0.0
 20
0.0
 30
0.0
  9
$USERI1
 70
     0
  9
$USERI2
 70
     0
  9
$USERI3
 70
     0
  9
$USERI4
 70
     0
  9
$USERI5
 70
     0
  9
$USERR1
 40
0.0
  9
$USERR2
 40
0.0
  9
$USERR3
 40
0.0
  9
$USERR4
 40
0.0
  9
$USERR5
 40
0.0
  9
$WORLDVIEW
 70
     1
  9
$SHADEDGE
 70
     3
  9
$SHADEDIF
 70
    70
  9
$TILEMODE
 70
     1
  9
$MAXACTVP
 70
    64
  9
$PINSBASE
 10
0.0
 20
0.0
 30
0.0
  9
$PLIMCHECK
 70
     0
  9
$PEXTMIN
 10
1.0000000000E+20
 20
1.0000000000E+20
 30
1.0000000000E+20
  9
$PEXTMAX
 10
-1.0000000000E+20
 20
-1.0000000000E+20
 30
-1.0000000000E+20
  9
$PLIMMIN
 10
0.0
 20
0.0
  9
$PLIMMAX
 10
420.0
 20
297.0
  9
$UNITMODE
 70
     0
  9
$VISRETAIN
 70
     1
  9
$PLINEGEN
 70
     0
  9
$PSLTSCALE
 70
     1
  9
$TREEDEPTH
 70
  3020
  9
$CMLSTYLE
  2
Standard
  9
$CMLJUST
 70
     0
  9
$CMLSCALE
 40
20.0
  9
$PROXYGRAPHICS
 70
     1
  9
$MEASUREMENT
 70
     1
  9
$CELWEIGHT
370
    -1
  9
$ENDCAPS
280
     0
  9
$JOINSTYLE
280
     0
  9
$LWDISPLAY
290
     1
  9
$INSUNITS
 70
     4
  9
$HYPERLINKBASE
  1

  9
$STYLESHEET
  1

  9
$XEDIT
290
     1
  9
$CEPSNTYPE
380
     0
  9
$PSTYLEMODE
290
     1
  9
$FINGERPRINTGUID
  2
{04D296C8-9E76-40EE-98AA-D8D546BC1495}
  9
$VERSIONGUID
  2
{FAEB1C32-E019-11D5-929B-00C0DF256EC4}
  9
$EXTNAMES
290
     1
  9
$PSVPSCALE
 40
0.0
  9
$OLESTARTUP
290
     0
  9
$SORTENTS
280
   127
  9
$INDEXCTL
280
     0
  9
$HIDETEXT
280
     1
  9
$XCLIPFRAME
280
     2
  9
$HALOGAP
280
     0
  9
$OBSCOLOR
 70
   257
  9
$OBSLTYPE
280
     0
  9
$INTERSECTIONDISPLAY
280
     0
  9
$INTERSECTIONCOLOR
 70
   257
  9
$DIMASSOC
280
     2
  9
$PROJECTNAME
  1

  9
$CAMERADISPLAY
290
     0
  9
$LENSLENGTH
 40
50.0
  9
$CAMERAHEIGHT
 40
0.0
  9
$STEPSPERSEC
 40
2.0
  9
$STEPSIZE
 40
6.0
  9
$3DDWFPREC
 40
2.0
  9
$PSOLWIDTH
 40
5.0
  9
$PSOLHEIGHT
 40
80.0
  9
$LOFTANG1
 40
1.5707963268
  9
$LOFTANG2
 40
1.5707963268
  9
$LOFTMAG1
 40
0.0
  9
$LOFTMAG2
 40
0.0
  9
$LOFTPARAM
 70
     7
  9
$LOFTNORMALS
280
     1
  9
$LATITUDE
 40
37.795
  9
$LONGITUDE
 40
-122.394
  9
$NORTHDIRECTION
 40
0.0
  9
$TIMEZONE
 70
 -8000
  9
$LIGHTGLYPHDISPLAY
280
     1
  9
$TILEMODELIGHTSYNCH
280
     1
  9
$SOLIDHIST
280
     1
  9
$SHOWHIST
280
     1
  9
$DWFFRAME
280
     2
  9
$DGNFRAME
280
     2
  9
$REALWORLDSCALE
290
     1
  9
$INTERFERECOLOR
 62
   256
  9
$CSHADOW
280
     0
  9
$SHADOWPLANELOCATION
 40
0.0
  0
ENDSEC
  0
SECTION
  2
CLASSES
  0
CLASS
  1
ACDBDICTIONARYWDFLT
  2
AcDbDictionaryWithDefault
  3
ObjectDBX Classes
 90
        0
 91
        4
280
     0
281
     0
  0
CLASS
  1
VISUALSTYLE
  2
AcDbVisualStyle
  3
ObjectDBX Classes
 90
     4095
 91
        4
280
     0
281
     0
  0
CLASS
  1
MATERIAL
  2
AcDbMaterial
  3
ObjectDBX Classes
 90
     1153
 91
        4
280
     0
281
     0
  0
ENDSEC
  0
SECTION
  2
TABLES
  0
TABLE
  2
VPORT
  5
8
330
0
100
AcDbSymbolTable
 70
     1
  0
VPORT
  5
29
330
8
100
AcDbSymbolTableRecord
100
AcDbViewportTableRecord
  2
*Active
 70
     0
 10
0.0
 20
0.0
 11
1.0
 21
1.0
 12
297.0
 22
420.5
 13
0.0
 23
0.0
 14
10.0
 24
10.0
 15
10.0
 25
10.0
 16
0.0
 26
0.0
 36
1.0
 17
0.0
 27
0.0
 37
0.0
 40
841.0
 41
0.7063020214
 42
50.0
 43
0.0
 44
0.0
 50
0.0
 51
0.0
 71
     0
 72
  2000
 73
     1
 74
     3
 75
     0
 76
     0
 77
     0
 78
     0
281
     0
 65
     1
110
0.0
120
0.0
130
0.0
111
1.0
121
0.0
131
0.0
112
0.0
122
1.0
132
0.0
 79
     0
146
0.0
 60
     3
 61
     5
292
     1
282
     1
141
0.0
142
0.0
 63
   250
  0
ENDTAB
  0
TABLE
  2
LTYPE
  5
5
330
0
100
AcDbSymbolTable
 70
     6
  0
LTYPE
  5
14
330
5
100
AcDbSymbolTableRecord
100
AcDbLinetypeTableRecord
  2
ByBlock
 70
     0
  3

 72
    65
 73
     0
 40
0.0
  0
LTYPE
  5
15
330
5
100
AcDbSymbolTableRecord
100
AcDbLinetypeTableRecord
  2
ByLayer
 70
     0
  3

 72
    65
 73
     0
 40
0.0
  0
LTYPE
  5
16
330
5
100
AcDbSymbolTableRecord
100
AcDbLinetypeTableRecord
  2
Continuous
 70
     0
  3
Solid line
 72
    65
 73
     0
 40
0.0
  0
LTYPE
  5
3F
330
5
100
AcDbSymbolTableRecord
100
AcDbLinetypeTableRecord
  2
HIDDEN
 70
     0
  3
Hidden __ __ __ __ __ __ __ __ __ __ __ __ __ __
 72
    65
 73
     2
 40
1.905
 49
1.27
 74
     0
 49
-0.635
 74
     0
  0
LTYPE
  5
40
330
5
100
AcDbSymbolTableRecord
100
AcDbLinetypeTableRecord
  2
PHANTOM
 70
     0
  3
Phantom ______  __  __  ______  __  __  ______
 72
    65
 73
     6
 40
12.7
 49
6.35
 74
     0
 49
-1.27
 74
     0
 49
1.27
 74
     0
 49
-1.27
 74
     0
 49
1.27
 74
     0
 49
-1.27
 74
     0
  0
LTYPE
  5
41
330
5
100
AcDbSymbolTableRecord
100
AcDbLinetypeTableRecord
  2
CENTER
 70
     0
  3
Center ____ _ ____ _ ____ _ ____ _ ____ _ ____
 72
    65
 73
     4
 40
10.16
 49
6.35
 74
     0
 49
-1.27
 74
     0
 49
1.27
 74
     0
 49
-1.27
 74
     0
  0
LTYPE
  5
42
330
5
100
AcDbSymbolTableRecord
100
AcDbLinetypeTableRecord
  2
CENTERX2
 70
     0
  3
Center (2x) ________  __  ________  __  _____
 72
    65
 73
     4
 40
20.32
 49
12.7
 74
     0
 49
-2.54
 74
     0
 49
2.54
 74
     0
 49
-2.54
 74
     0
  0
LTYPE
  5
43
330
5
100
AcDbSymbolTableRecord
100
AcDbLinetypeTableRecord
  2
DOT2
 70
     0
  3
Dot (.5x) ........................................
 72
    65
 73
     2
 40
0.635
 49
0.0
 74
     0
 49
-0.635
 74
     0
  0
ENDTAB
  0
TABLE
  2
LAYER
  5
2
330
0
100
AcDbSymbolTable
 70
     1
  0
LAYER
  5
10
330
2
100
AcDbSymbolTableRecord
100
AcDbLayerTableRecord
  2
0
 70
     0
 62
     7
  6
Continuous
370
    -3
390
F
347
3E
  0
ENDTAB
  0
TABLE
  2
STYLE
  5
3
330
0
100
AcDbSymbolTable
 70
     3
  0
STYLE
  5
11
330
3
100
AcDbSymbolTableRecord
100
AcDbTextStyleTableRecord
  2
Standard
 70
     0
 40
0.0
 41
1.0
 50
0.0
 71
     0
 42
2.5
  3
txt
  4

  0
STYLE
  5
47
330
3
100
AcDbSymbolTableRecord
100
AcDbTextStyleTableRecord
  2
SLDTEXTSTYLE0
 70
     0
 40
0.0
 41
0.96
 50
0.0
 71
     0
 42
0.2
  3
ISOCP3
  4

  0
STYLE
  5
5E
330
3
100
AcDbSymbolTableRecord
100
AcDbTextStyleTableRecord
  2
SLDTEXTSTYLE1
 70
     0
 40
0.0
 41
0.605
 50
0.0
 71
     0
 42
0.2
  3
TXT
  4

  0
ENDTAB
  0
TABLE
  2
VIEW
  5
6
330
0
100
AcDbSymbolTable
 70
     0
  0
ENDTAB
  0
TABLE
  2
UCS
  5
7
330
0
100
AcDbSymbolTable
 70
     0
  0
ENDTAB
  0
TABLE
  2
APPID
  5
9
330
0
100
AcDbSymbolTable
 70
     1
  0
APPID
  5
12
330
9
100
AcDbSymbolTableRecord
100
AcDbRegAppTableRecord
  2
ACAD
 70
     0
  0
ENDTAB
  0
TABLE
  2
DIMSTYLE
  5
A
330
0
100
AcDbSymbolTable
 70
     2
100
AcDbDimStyleTable
  0
DIMSTYLE
105
27
330
A
100
AcDbSymbolTableRecord
100
AcDbDimStyleTableRecord
  2
ISO-25
 70
     0
 41
2.5
 42
0.625
 43
3.75
 44
1.25
 73
     0
 74
     0
 77
     1
 78
     8
140
2.5
141
2.5
143
0.0393700787
147
0.625
171
     3
172
     1
178
     0
271
     2
272
     2
274
     3
278
    44
283
     0
284
     8
340
11
  0
DIMSTYLE
105
48
102
{ACAD_REACTORS
330
46
330
53
102
}
330
A
100
AcDbSymbolTableRecord
100
AcDbDimStyleTableRecord
  2
SLDDIMSTYLE0
 70
     0
 41
2.5
 44
0.0
 45
0.000000001
 73
     0
 74
     0
 77
     1
 78
    12
 79
     3
140
6.0
147
1.5
173
     1
178
     0
271
     2
272
     2
276
     2
284
    12
340
47
  0
ENDTAB
  0
TABLE
  2
BLOCK_RECORD
  5
1
330
0
100
AcDbSymbolTable
 70
     3
  0
BLOCK_RECORD
  5
1F
330
1
100
AcDbSymbolTableRecord
100
AcDbBlockTableRecord
  2
*Model_Space
340
22
 70
     0
280
     1
281
     0
  0
BLOCK_RECORD
  5
1B
330
1
100
AcDbSymbolTableRecord
100
AcDbBlockTableRecord
  2
*Paper_Space
340
1E
 70
     0
280
     1
281
     0
  0
BLOCK_RECORD
  5
23
330
1
100
AcDbSymbolTableRecord
100
AcDbBlockTableRecord
  2
*Paper_Space0
340
26
 70
     0
280
     1
281
     0
  0
BLOCK_RECORD
  5
49
330
1
100
AcDbSymbolTableRecord
100
AcDbBlockTableRecord
  2
*D1
340
0
 70
     0
280
     1
281
     0
  0
BLOCK_RECORD
  5
54
330
1
100
AcDbSymbolTableRecord
100
AcDbBlockTableRecord
  2
*D2
340
0
 70
     0
280
     1
281
     0
  0
ENDTAB
  0
ENDSEC
  0
SECTION
  2
BLOCKS
  0
BLOCK
  5
20
330
1F
100
AcDbEntity
  8
0
100
AcDbBlockBegin
  2
*Model_Space
 70
     0
 10
0.0
 20
0.0
 30
0.0
  3
*Model_Space
  1

  0
ENDBLK
  5
21
330
1F
100
AcDbEntity
  8
0
100
AcDbBlockEnd
  0
BLOCK
  5
1C
330
1B
100
AcDbEntity
 67
     1
  8
0
100
AcDbBlockBegin
  2
*Paper_Space
 70
     0
 10
0.0
 20
0.0
 30
0.0
  3
*Paper_Space
  1

  0
ENDBLK
  5
1D
330
1B
100
AcDbEntity
 67
     1
  8
0
100
AcDbBlockEnd
  0
BLOCK
  5
24
330
23
100
AcDbEntity
  8
0
100
AcDbBlockBegin
  2
*Paper_Space0
 70
     0
 10
0.0
 20
0.0
 30
0.0
  3
*Paper_Space0
  1

  0
ENDBLK
  5
25
330
23
100
AcDbEntity
  8
0
100
AcDbBlockEnd
  0
BLOCK
  5
4A
330
49
100
AcDbEntity
  8
0
100
AcDbBlockBegin
  2
*D1
 70
     1
 10
0.0
 20
0.0
 30
0.0
  3
*D1
  1

  0
SOLID
  5
4C
330
49
100
AcDbEntity
  8
0
  6
Continuous
 62
     7
370
     0
100
AcDbTrace
 10
42.7614395004
 20
152.0299240879
 30
0.0
 11
42.4614395004
 21
149.5299240879
 31
0.0
 12
43.0614395004
 22
149.5299240879
 32
0.0
 13
43.0614395004
 23
149.5299240879
 33
0.0
  0
SOLID
  5
4D
330
49
100
AcDbEntity
  8
0
  6
Continuous
 62
     7
370
     0
100
AcDbTrace
 10
42.7614395004
 20
52.0299240879
 30
0.0
 11
43.0614395004
 21
54.5299240879
 31
0.0
 12
42.4614395004
 22
54.5299240879
 32
0.0
 13
42.4614395004
 23
54.5299240879
 33
0.0
  0
LINE
  5
4E
330
49
100
AcDbEntity
  8
0
  6
Continuous
 62
     7
370
     0
100
AcDbLine
 10
56.6850079902
 20
152.0299240879
 30
0.0
 11
41.7614395004
 21
152.0299240879
 31
0.0
  0
LINE
  5
4F
330
49
100
AcDbEntity
  8
0
  6
Continuous
 62
     7
370
     0
100
AcDbLine
 10
56.6850079902
 20
52.0299240879
 30
0.0
 11
41.7614395004
 21
52.0299240879
 31
0.0
  0
LINE
  5
50
330
49
100
AcDbEntity
  8
0
  6
Continuous
 62
     7
370
     0
100
AcDbLine
 10
42.7614395004
 20
152.0299240879
 30
0.0
 11
42.7614395004
 21
52.0299240879
 31
0.0
  0
MTEXT
  5
51
330
49
100
AcDbEntity
  8
0
  6
Continuous
 62
     7
370
     0
100
AcDbMText
 10
35.0270329453
 20
91.6722208134
 30
0.1
 40
6.0
 41
0.0
 46
0.0
 71
     1
 72
     1
  1
100
  7
SLDTEXTSTYLE0
 11
-7.044195017643634E-15
 21
1.0
 31
0.0
 73
     1
 44
1.0
  0
MTEXT
  5
52
330
49
100
AcDbEntity
  8
0
  6
Continuous
 62
     7
370
     0
100
AcDbMText
 10
35.0270329453
 20
108.4388881795
 30
0.1
 40
6.0
 41
0.0
 46
0.0
 71
     1
 72
     1
  1
mm
  7
SLDTEXTSTYLE0
 11
-7.044195017643634E-15
 21
1.0
 31
0.0
 73
     1
 44
1.0
  0
ENDBLK
  5
4B
330
49
100
AcDbEntity
  8
0
100
AcDbBlockEnd
  0
BLOCK
  5
55
330
54
100
AcDbEntity
  8
0
100
AcDbBlockBegin
  2
*D2
 70
     1
 10
0.0
 20
0.0
 30
0.0
  3
*D2
  1

  0
SOLID
  5
57
330
54
100
AcDbEntity
  8
0
  6
Continuous
 62
     7
370
     0
100
AcDbTrace
 10
56.6850079902
 20
38.4602342313
 30
0.0
 11
59.1850079902
 21
38.1602342313
 31
0.0
 12
59.1850079902
 22
38.7602342313
 32
0.0
 13
59.1850079902
 23
38.7602342313
 33
0.0
  0
SOLID
  5
58
330
54
100
AcDbEntity
  8
0
  6
Continuous
 62
     7
370
     0
100
AcDbTrace
 10
156.6850079902
 20
38.4602342313
 30
0.0
 11
154.1850079902
 21
38.7602342313
 31
0.0
 12
154.1850079902
 22
38.1602342313
 32
0.0
 13
154.1850079902
 23
38.1602342313
 33
0.0
  0
LINE
  5
59
330
54
100
AcDbEntity
  8
0
  6
Continuous
 62
     7
370
     0
100
AcDbLine
 10
56.6850079902
 20
52.0299240879
 30
0.0
 11
56.6850079902
 21
37.4602342313
 31
0.0
  0
LINE
  5
5A
330
54
100
AcDbEntity
  8
0
  6
Continuous
 62
     7
370
     0
100
AcDbLine
 10
156.6850079902
 20
52.0299240879
 30
0.0
 11
156.6850079902
 21
37.4602342313
 31
0.0
  0
LINE
  5
5B
330
54
100
AcDbEntity
  8
0
  6
Continuous
 62
     7
370
     0
100
AcDbLine
 10
56.6850079902
 20
38.4602342313
 30
0.0
 11
156.6850079902
 21
38.4602342313
 31
0.0
  0
MTEXT
  5
5C
330
54
100
AcDbEntity
  8
0
  6
Continuous
 62
     7
370
     0
100
AcDbMText
 10
91.2668151533
 20
46.1946407863
 30
0.1
 40
6.0
 41
0.0
 46
0.0
 71
     1
 72
     1
  1
100
  7
SLDTEXTSTYLE0
 73
     1
 44
1.0
  0
MTEXT
  5
5D
330
54
100
AcDbEntity
  8
0
  6
Continuous
 62
     7
370
     0
100
AcDbMText
 10
108.0334825193
 20
46.1946407863
 30
0.1
 40
6.0
 41
0.0
 46
0.0
 71
     1
 72
     1
  1
mm
  7
SLDTEXTSTYLE0
 73
     1
 44
1.0
  0
ENDBLK
  5
56
330
54
100
AcDbEntity
  8
0
100
AcDbBlockEnd
  0
ENDSEC
  0
SECTION
  2
ENTITIES
  0
LINE
  5
44
330
1F
100
AcDbEntity
  8
0
  6
Continuous
 62
     7
370
     0
100
AcDbLine
 10
56.6850079902
 20
152.0299240879
 30
0.0
 11
56.6850079902
 21
52.0299240879
 31
0.0
  0
LINE
  5
45
330
1F
100
AcDbEntity
  8
0
  6
Continuous
 62
     7
370
     0
100
AcDbLine
 10
56.6850079902
 20
52.0299240879
 30
0.0
 11
156.6850079902
 21
52.0299240879
 31
0.0
  0
DIMENSION
  5
46
330
1F
100
AcDbEntity
  8
0
  6
Continuous
 62
     7
370
     0
100
AcDbDimension
280
     0
  2
*D1
 10
42.7614395004
 20
52.0299240879
 30
0.0
 11
42.7614395004
 21
105.4472211621
 31
0.0
 70
   160
  1
<>mm
 71
     2
 42
-1.0
 73
     0
 74
     0
 75
     0
  3
SLDDIMSTYLE0
100
AcDbAlignedDimension
 13
56.6850079902
 23
152.0299240879
 33
0.0
 14
56.6850079902
 24
52.0299240879
 34
0.0
 50
90.0
100
AcDbRotatedDimension
  0
DIMENSION
  5
53
330
1F
100
AcDbEntity
  8
0
  6
Continuous
 62
     7
370
     0
100
AcDbDimension
280
     0
  2
*D2
 10
156.6850079902
 20
38.4602342313
 30
0.0
 11
105.0418155019
 21
38.4602342313
 31
0.0
 70
   160
  1
<>mm
 71
     2
 42
-1.0
 73
     0
 74
     0
 75
     0
  3
SLDDIMSTYLE0
100
AcDbAlignedDimension
 13
56.6850079902
 23
52.0299240879
 33
0.0
 14
156.6850079902
 24
52.0299240879
 34
0.0
100
AcDbRotatedDimension
  0
MTEXT
  5
5F
330
1F
100
AcDbEntity
  8
0
  6
Continuous
 62
     7
370
     0
100
AcDbMText
 10
222.8856995391
 20
49.3034557666
 30
0.0
 40
10.0
 41
0.0
 46
0.0
 71
     1
 72
     1
  1
53 981 05
  7
SLDTEXTSTYLE1
 73
     1
 44
1.0
  0
MTEXT
  5
60
330
1F
100
AcDbEntity
  8
0
  6
Continuous
 62
     7
370
     0
100
AcDbMText
 10
412.8252631579
 20
48.4342449499
 30
0.0
 40
10.0
 41
0.0
 46
0.0
 71
     1
 72
     1
  1
KLUDI GmbH & Co KG
  7
SLDTEXTSTYLE1
 73
     1
 44
1.0
  0
LWPOLYLINE
  5
61
330
1F
100
AcDbEntity
  8
0
  6
Continuous
 62
     7
370
    15
100
AcDbPolyline
 90
       12
 70
   128
 43
0.0
 10
87.0898861421
 20
565.3474463856
 10
87.0820704831
 20
565.3384907877
 10
87.3371988518
 20
565.3952278903
 10
87.8663688881
 20
565.5302603504
 10
88.6545285566
 20
565.7327280155
 10
89.5806077851
 20
565.9604540801
 10
91.7748540623
 20
566.4518450162
 10
94.4537661953
 20
566.9772981441
 10
98.2096718607
 20
567.5915230772
 10
101.4656417055
 20
567.990486767
 10
105.3383934295
 20
568.3075434303
 10
105.4214501737
 20
568.3115388042
  0
ARC
  5
62
330
1F
100
AcDbEntity
  8
0
  6
Continuous
 62
     7
370
    15
100
AcDbCircle
 10
336.8794477479
 20
450.4976240001
 30
0.0
 40
118.2091661324618
100
AcDbArc
 50
76.5486643347
 51
85.1046396608
  0
ARC
  5
63
330
1F
100
AcDbEntity
  8
0
  6
Continuous
 62
     7
370
    15
100
AcDbCircle
 10
114.9008406413
 20
706.4476797324
 30
0.0
 40
118.2102848967483
100
AcDbArc
 50
256.5487028264
 51
265.1045934512
  0
LWPOLYLINE
  5
64
330
1F
100
AcDbEntity
  8
0
  6
Continuous
 62
     7
370
    15
100
AcDbPolyline
 90
       12
 70
   128
 43
0.0
 10
364.6902061982
 20
591.5967507994
 10
364.698044209
 20
591.6057063973
 10
364.442906527
 20
591.5489692947
 10
363.9137364907
 20
591.4139368346
 10
363.1255842728
 20
591.2114691696
 10
362.199506907
 20
590.9837431049
 10
360.0052513165
 20
590.4923521689
 10
357.3263354583
 20
589.9668990409
 10
353.5704381747
 20
589.3526741079
 10
350.314459948
 20
588.953710418
 10
346.4417077584
 20
588.6366537547
 10
346.3586486859
 20
588.6326583809
  0
LINE
  5
65
330
1F
100
AcDbEntity
  8
0
  6
Continuous
 62
     7
370
    15
100
AcDbLine
 10
111.3400524582
 20
568.472098816
 30
0.0
 11
340.4400564713
 21
568.472098816
 31
0.0
  0
LINE
  5
66
330
1F
100
AcDbEntity
  8
0
  6
Continuous
 62
     7
370
    15
100
AcDbLine
 10
340.4400564713
 20
588.472098369
 30
0.0
 11
111.3400524582
 21
588.472098369
 31
0.0
  0
ARC
  5
67
330
1F
100
AcDbEntity
  8
0
  6
Continuous
 62
     7
370
    15
100
AcDbCircle
 10
111.3400524659
 20
588.0220985925
 30
0.0
 40
0.4500000000000455
100
AcDbArc
 50
90.0
 51
180.0
  0
ARC
  5
68
330
1F
100
AcDbEntity
  8
0
  6
Continuous
 62
     7
370
    15
100
AcDbCircle
 10
111.3400524659
 20
568.9220985925
 30
0.0
 40
0.4500000000000028
100
AcDbArc
 50
180.0
 51
270.0
  0
ARC
  5
69
330
1F
100
AcDbEntity
  8
0
  6
Continuous
 62
     7
370
    15
100
AcDbCircle
 10
340.4400524659
 20
588.0220985925
 30
0.0
 40
0.4500000000000455
100
AcDbArc
 50
0.0
 51
90.0
  0
ARC
  5
6A
330
1F
100
AcDbEntity
  8
0
  6
Continuous
 62
     7
370
    15
100
AcDbCircle
 10
340.4400524659
 20
568.9220985925
 30
0.0
 40
0.4499999999999886
100
AcDbArc
 50
270.0
 51
0.0
  0
LWPOLYLINE
  5
6B
330
1F
100
AcDbEntity
  8
0
  6
Continuous
 62
     7
370
    15
100
AcDbPolyline
 90
        3
 70
   128
 43
0.0
 10
85.9866507335
 20
592.0324290878
 10
85.2175682766
 20
592.3600180781
 10
75.6725810451
 20
595.5169780886
  0
LWPOLYLINE
  5
6C
330
1F
100
AcDbEntity
  8
0
  6
Continuous
 62
     7
370
    15
100
AcDbPolyline
 90
        3
 70
   128
 43
0.0
 10
376.1075355096
 20
595.5169780886
 10
367.1388842149
 20
592.5743135399
 10
366.0530067963
 20
592.1164939886
  0
LWPOLYLINE
  5
6D
330
1F
100
AcDbEntity
  8
0
  6
Continuous
 62
     7
370
    15
100
AcDbPolyline
 90
        3
 70
   128
 43
0.0
 10
75.6725810451
 20
561.4272190964
 10
84.6412062628
 20
564.3698836452
 10
85.7271078957
 20
564.8277022651
  0
LWPOLYLINE
  5
6E
330
1F
100
AcDbEntity
  8
0
  6
Continuous
 62
     7
370
    15
100
AcDbPolyline
 90
        3
 70
   128
 43
0.0
 10
365.7934583707
 20
564.9117680973
 10
366.5625371022
 20
564.584179107
 10
376.1075355096
 20
561.4272190964
  0
LWPOLYLINE
  5
6F
330
1F
100
AcDbEntity
  8
0
  6
Continuous
 62
     7
370
    15
100
AcDbPolyline
 90
       10
 70
   128
 43
0.0
 10
57.3688365502
 20
557.9465630239
 10
55.5186152441
 20
561.1357225812
 10
53.8315318508
 20
565.7090863919
 10
52.7997419221
 20
570.4839343911
 10
52.2194050236
 20
576.2628037723
 10
52.2960491462
 20
582.0887533723
 10
53.0413158221
 20
587.8468726537
 10
54.0881670995
 20
592.0949226952
 10
55.6868530793
 20
596.1588288432
 10
57.3688328249
 20
598.9976285732
  0
LWPOLYLINE
  5
70
330
1F
100
AcDbEntity
  8
0
  6
Continuous
 62
     7
370
    15
100
AcDbPolyline
 90
       10
 70
   128
 43
0.0
 10
394.4112576527
 20
557.9465630239
 10
396.2615050359
 20
561.1357225812
 10
397.9485847039
 20
565.7090863919
 10
398.9803709073
 20
570.4839343911
 10
399.5607115311
 20
576.2628037723
 10
399.484059958
 20
582.0887533723
 10
398.738793282
 20
587.8468726537
 10
397.6919271035
 20
592.0949226952
 10
396.0932411237
 20
596.1588288432
 10
394.4112576527
 20
598.9976285732
  0
ARC
  5
71
330
1F
100
AcDbEntity
  8
0
  6
Continuous
 62
     7
370
    15
100
AcDbCircle
 10
110.8619732482
 20
680.4011836124
 30
0.0
 40
91.92893714954762
100
AcDbArc
 50
266.2273684255
 51
269.7075308468
  0
ARC
  5
72
330
1F
100
AcDbEntity
  8
0
  6
Continuous
 62
     7
370
    15
100
AcDbCircle
 10
341.0773079608
 20
673.8867626301
 30
0.0
 40
85.41388132875257
100
AcDbArc
 50
270.2079992584
 51
273.5448636559
  0
ARC
  5
73
330
1F
100
AcDbEntity
  8
0
  6
Continuous
 62
     7
370
    15
100
AcDbCircle
 10
110.7027694532
 20
483.0584902036
 30
0.0
 40
85.41282559652517
100
AcDbArc
 50
90.2079851006
 51
93.544884664
  0
ARC
  5
74
330
1F
100
AcDbEntity
  8
0
  6
Continuous
 62
     7
370
    15
100
AcDbCircle
 10
340.9181155664
 20
476.5424116436
 30
0.0
 40
91.92953913983503
100
AcDbArc
 50
86.2273802021
 51
89.7075243246
  0
LINE
  5
75
330
1F
100
AcDbEntity
  8
0
  6
Continuous
 62
     7
370
    15
100
AcDbLine
 10
364.6645165963
 20
565.3646870291
 30
0.0
 11
364.3840469403
 21
565.4655157363
 31
0.0
  0
LINE
  5
76
330
1F
100
AcDbEntity
  8
0
  6
Continuous
 62
     7
370
    15
100
AcDbLine
 10
87.1155869199
 20
591.5795101559
 30
0.0
 11
87.3960621638
 21
591.4786814487
 31
0.0
  0
LINE
  5
77
330
1F
100
AcDbEntity
  8
0
  6
Continuous
 62
     7
370
    15
100
AcDbLine
 10
110.8900524659
 20
568.9220989829
 30
0.0
 11
110.8900524659
 21
588.0220982021
 31
0.0
  0
LINE
  5
78
330
1F
100
AcDbEntity
  8
0
  6
Continuous
 62
     7
370
    15
100
AcDbLine
 10
340.8900566382
 20
588.0220982021
 30
0.0
 11
340.8900566382
 21
568.9220989829
 31
0.0
  0
ARC
  5
79
330
1F
100
AcDbEntity
  8
0
  6
Continuous
 62
     7
370
    15
100
AcDbCircle
 10
58.6954311745
 20
558.7022197625
 30
0.0
 40
1.526829261790721
100
AcDbArc
 50
209.6669802207
 51
291.1687086811
  0
ARC
  5
7A
330
1F
100
AcDbEntity
  8
0
  6
Continuous
 62
     7
370
    15
100
AcDbCircle
 10
393.0846804551
 20
558.7022410052
 30
0.0
 40
1.526847292571188
100
AcDbArc
 50
248.8317515257
 51
330.3324877963
  0
ARC
  5
7B
330
1F
100
AcDbEntity
  8
0
  6
Continuous
 62
     7
370
    15
100
AcDbCircle
 10
58.694723855
 20
598.2439657658
 30
0.0
 40
1.525231135683027
100
AcDbArc
 50
68.7795409042
 51
150.3847701939
  0
ARC
  5
7C
330
1F
100
AcDbEntity
  8
0
  6
Continuous
 62
     7
370
    15
100
AcDbCircle
 10
393.0853893116
 20
598.2439488477
 30
0.0
 40
1.525245680339504
100
AcDbArc
 50
29.615650261
 51
111.220110417
  0
LWPOLYLINE
  5
7D
330
1F
100
AcDbEntity
  8
0
  6
Continuous
 62
     7
370
    15
100
AcDbPolyline
 90
        3
 70
   128
 43
0.0
 10
59.2467926426
 20
599.6657780147
 10
72.7186866088
 20
596.3751080221
 10
75.6569311006
 20
595.4659378862
  0
LWPOLYLINE
  5
7E
330
1F
100
AcDbEntity
  8
0
  6
Continuous
 62
     7
370
    15
100
AcDbPolyline
 90
        3
 70
   128
 43
0.0
 10
392.5333239121
 20
599.6657780147
 10
379.0614224953
 20
596.3751080221
 10
376.1231817288
 20
595.4659434742
  0
LWPOLYLINE
  5
7F
330
1F
100
AcDbEntity
  8
0
  6
Continuous
 62
     7
370
    15
100
AcDbPolyline
 90
        3
 70
   128
 43
0.0
 10
59.2467926426
 20
557.2784191704
 10
72.7186866088
 20
560.5690891629
 10
75.6569161994
 20
561.4782537109
  0
LWPOLYLINE
  5
80
330
1F
100
AcDbEntity
  8
0
  6
Continuous
 62
     7
370
    15
100
AcDbPolyline
 90
        3
 70
   128
 43
0.0
 10
392.5333239121
 20
557.2784191704
 10
379.0614224953
 20
560.5690891629
 10
376.1231817288
 20
561.4782592988
  0
LWPOLYLINE
  5
81
330
1F
100
AcDbEntity
  8
0
  6
Continuous
 62
     7
370
     0
100
AcDbPolyline
 90
        8
 70
   128
 43
0.0
 10
76.6985520704
 20
578.4720973923
 10
76.7123021169
 20
583.1266821137
 10
76.7717540247
 20
585.4400436169
 10
76.8697701378
 20
587.6490504256
 10
76.9268713875
 20
588.5982823333
 10
76.9760563953
 20
589.3533567673
 10
77.0310342295
 20
590.3663740268
 10
76.91753581
 20
591.5285453907
  0
LWPOLYLINE
  5
82
330
1F
100
AcDbEntity
  8
0
  6
Continuous
 62
     7
370
     0
100
AcDbPolyline
 90
        7
 70
   128
 43
0.0
 10
76.91753581
 20
565.4156517944
 10
77.0309075696
 20
566.5820662639
 10
76.9756056351
 20
567.5977946034
 10
76.869375257
 20
569.3022220171
 10
76.7717279477
 20
571.5048711522
 10
76.712201534
 20
573.8226787894
 10
76.6985520704
 20
578.472099745
  0
ARC
  5
83
330
1F
100
AcDbEntity
  8
0
  6
Continuous
 62
     7
370
     0
100
AcDbCircle
 10
73.1916674539
 20
567.1875306118
 30
0.0
 40
4.125681600537892
100
AcDbArc
 50
276.7532271598
 51
334.5667435852
  0
ARC
  5
84
330
1F
100
AcDbEntity
  8
0
  6
Continuous
 62
     7
370
     0
100
AcDbCircle
 10
28.4188602492
 20
678.1502389031
 30
0.0
 40
123.6407383019495
100
AcDbArc
 50
283.5412448715
 51
291.4718492192
  0
ARC
  5
85
330
1F
100
AcDbEntity
  8
0
  6
Continuous
 62
     7
370
     0
100
AcDbCircle
 10
28.4189469163
 20
478.7942330453
 30
0.0
 40
123.6404508838762
100
AcDbArc
 50
68.5281415482
 51
76.4587643611
  0
ARC
  5
86
330
1F
100
AcDbEntity
  8
0
  6
Continuous
 62
     7
370
     0
100
AcDbCircle
 10
73.1916716181
 20
589.7566723769
 30
0.0
 40
4.125675347508388
100
AcDbArc
 50
25.4332084633
 51
83.2468207916
  0
ARC
  5
87
330
1F
100
AcDbEntity
  8
0
  6
Continuous
 62
     7
370
     0
100
AcDbCircle
 10
423.361298966
 20
478.7937102402
 30
0.0
 40
123.6409929263742
100
AcDbArc
 50
103.5412438908
 51
111.4718351808
  0
ARC
  5
88
330
1F
100
AcDbEntity
  8
0
  6
Continuous
 62
     7
370
     0
100
AcDbCircle
 10
423.361298966
 20
678.1504869449
 30
0.0
 40
123.6409929263742
100
AcDbArc
 50
248.5281648192
 51
256.4587561092
  0
ARC
  5
89
330
1F
100
AcDbEntity
  8
0
  6
Continuous
 62
     7
370
     0
100
AcDbCircle
 10
378.5883826201
 20
567.1874340718
 30
0.0
 40
4.12558010315893
100
AcDbArc
 50
205.4324421209
 51
263.2472751632
  0
LWPOLYLINE
  5
8A
330
1F
100
AcDbEntity
  8
0
  6
Continuous
 62
     7
370
     0
100
AcDbPolyline
 90
        7
 70
   128
 43
0.0
 10
374.8625732941
 20
565.4156517944
 10
374.7492052598
 20
566.5820662639
 10
374.8044885678
 20
567.5977946034
 10
374.9107338471
 20
569.3022220171
 10
375.0083662553
 20
571.5048711522
 10
375.0679112954
 20
573.8226787894
 10
375.081560759
 20
578.472099745
  0
LWPOLYLINE
  5
8B
330
1F
100
AcDbEntity
  8
0
  6
Continuous
 62
     7
370
     0
100
AcDbPolyline
 90
        8
 70
   128
 43
0.0
 10
375.081560759
 20
578.4720973923
 10
375.0677920861
 20
583.1266821137
 10
375.0083662553
 20
585.4400436169
 10
374.9103464169
 20
587.6490504256
 10
374.8532451672
 20
588.5982823333
 10
374.804041533
 20
589.3533567673
 10
374.7490860505
 20
590.3663740268
 10
374.8625732941
 20
591.5285453907
  0
ARC
  5
8C
330
1F
100
AcDbEntity
  8
0
  6
Continuous
 62
     7
370
     0
100
AcDbCircle
 10
378.588386327
 20
589.7567579471
 30
0.0
 40
4.125585669347739
100
AcDbArc
 50
96.7527675233
 51
154.5675151927
  0
LWPOLYLINE
  5
8D
330
1F
100
AcDbEntity
  8
0
  6
Continuous
 62
     7
370
     0
100
AcDbPolyline
 90
        7
 70
   128
 43
0.0
 10
78.611686079
 20
578.4720987382
 10
77.9779694958
 20
578.4720988084
 10
77.6636220498
 20
578.4720988881
 10
77.3826122267
 20
578.4720990052
 10
77.1481201036
 20
578.4720991588
 10
76.9601084275
 20
578.4720993416
 10
76.6985520704
 20
578.472099745
  0
LWPOLYLINE
  5
8E
330
1F
100
AcDbEntity
  8
0
  6
Continuous
 62
     7
370
     0
100
AcDbPolyline
 90
        8
 70
   128
 43
0.0
 10
78.611686079
 20
578.4720987382
 10
78.6673307402
 20
573.7138472272
 10
78.774660079
 20
571.2508496603
 10
78.9248004539
 20
568.7422261348
 10
78.987374155
 20
567.593965005
 10
79.016979037
 20
566.6970948464
 10
79.0047600848
 20
565.6108272037
 10
78.7875868363
 20
564.5024359933
  0
ARC
  5
8F
330
1F
100
AcDbEntity
  8
0
  6
Continuous
 62
     7
370
     0
100
AcDbCircle
 10
78.3011716047
 20
565.8777429665
 30
0.0
 40
1.458755811439446
100
AcDbArc
 50
198.4673983961
 51
289.477557977
  0
LWPOLYLINE
  5
90
330
1F
100
AcDbEntity
  8
0
  6
Continuous
 62
     7
370
     0
100
AcDbPolyline
 90
        8
 70
   128
 43
0.0
 10
373.1684304757
 20
578.4720987382
 10
373.1127597375
 20
573.7138472272
 10
373.0054415746
 20
571.2508496603
 10
372.8552974744
 20
568.7422261348
 10
372.7927423997
 20
567.593965005
 10
372.7631188912
 20
566.6970948464
 10
372.7753378434
 20
565.6108272037
 10
372.9925073666
 20
564.5024359933
  0
LWPOLYLINE
  5
91
330
1F
100
AcDbEntity
  8
0
  6
Continuous
 62
     7
370
     0
100
AcDbPolyline
 90
        7
 70
   128
 43
0.0
 10
373.1684304757
 20
578.4720984469
 10
373.8021470589
 20
578.4720983586
 10
374.1164721532
 20
578.4720982703
 10
374.3975080533
 20
578.4720981459
 10
374.6319927258
 20
578.4720979867
 10
374.8199857755
 20
578.4720978
 10
375.081560759
 20
578.4720973923
  0
ARC
  5
92
330
1F
100
AcDbEntity
  8
0
  6
Continuous
 62
     7
370
     0
100
AcDbCircle
 10
373.4788975671
 20
565.8777660011
 30
0.0
 40
1.45880363915856
100
AcDbArc
 50
250.5236836044
 51
341.5319280418
  0
ARC
  5
93
330
1F
100
AcDbEntity
  8
0
  6
Continuous
 62
     7
370
     0
100
AcDbCircle
 10
78.3012210412
 20
591.0664009011
 30
0.0
 40
1.458830755067261
100
AcDbArc
 50
70.5225938727
 51
161.5331507849
  0
LWPOLYLINE
  5
94
330
1F
100
AcDbEntity
  8
0
  6
Continuous
 62
     7
370
     0
100
AcDbPolyline
 90
        8
 70
   128
 43
0.0
 10
78.7875868363
 20
592.4417611918
 10
79.0045253916
 20
591.3376047051
 10
79.0171205981
 20
590.255037207
 10
78.9879180474
 20
589.3623654506
 10
78.9253145439
 20
588.2104265279
 10
78.7747010572
 20
585.6941303013
 10
78.6675132794
 20
583.2357255517
 10
78.611686079
 20
578.4720984469
  0
LWPOLYLINE
  5
95
330
1F
100
AcDbEntity
  8
0
  6
Continuous
 62
     7
370
     0
100
AcDbPolyline
 90
        8
 70
   128
 43
0.0
 10
372.9925073666
 20
592.4417611918
 10
372.775576262
 20
591.3376047051
 10
372.7629996819
 20
590.255037207
 10
372.7921761555
 20
589.3623654506
 10
372.8547908349
 20
588.2104265279
 10
373.0054117722
 20
585.6941303013
 10
373.1125809235
 20
583.2357255517
 10
373.1684304757
 20
578.4720984469
  0
ARC
  5
96
330
1F
100
AcDbEntity
  8
0
  6
Continuous
 62
     7
370
     0
100
AcDbCircle
 10
373.4789103129
 20
591.0663815152
 30
0.0
 40
1.458814604846772
100
AcDbArc
 50
18.4672467449
 51
109.4779366166
  0
LWPOLYLINE
  5
97
330
1F
100
AcDbEntity
  8
0
  6
Continuous
 62
     7
370
     0
100
AcDbPolyline
 90
        3
 70
   128
 43
0.0
 10
78.7876091881
 20
592.4417136943
 10
82.4201229943
 20
591.7587022072
 10
86.9405932708
 20
590.944119986
  0
ARC
  5
98
330
1F
100
AcDbEntity
  8
0
  6
Continuous
 62
     7
370
     0
100
AcDbCircle
 10
117.3877051289
 20
758.9735526582
 30
0.0
 40
170.7656874036617
100
AcDbArc
 50
259.7293846261
 51
265.7771784386
  0
LWPOLYLINE
  5
99
330
1F
100
AcDbEntity
  8
0
  6
Continuous
 62
     7
370
     0
100
AcDbPolyline
 90
        8
 70
   128
 43
0.0
 10
110.3922678839
 20
578.4720989228
 10
110.3922678839
 20
578.4721585812
 10
110.392441692
 20
580.6740822977
 10
110.3930635827
 20
583.7757799549
 10
110.3930463532
 20
586.2834642416
 10
110.392540645
 20
587.9100973493
 10
110.3925169545
 20
588.2998130059
 10
110.3927579924
 20
588.4734441301
  0
LWPOLYLINE
  5
9A
330
1F
100
AcDbEntity
  8
0
  6
Continuous
 62
     7
370
     0
100
AcDbPolyline
 90
        5
 70
   128
 43
0.0
 10
110.3922678839
 20
578.4720982623
 10
101.5952119587
 20
578.472095471
 10
93.2979594899
 20
578.4720964558
 10
85.8866415901
 20
578.4720981514
 10
78.611686079
 20
578.4720987382
  0
LWPOLYLINE
  5
9B
330
1F
100
AcDbEntity
  8
0
  6
Continuous
 62
     7
370
     0
100
AcDbPolyline
 90
        8
 70
   128
 43
0.0
 10
341.3878299279
 20
578.4720989228
 10
341.3878299279
 20
578.4721585812
 10
341.3876660151
 20
580.6740822977
 10
341.3870401664
 20
583.7757799549
 10
341.3870550675
 20
586.2834642416
 10
341.387561707
 20
587.9100973493
 10
341.3875915093
 20
588.2998130059
 10
341.3873530907
 20
588.4734441301
  0
ARC
  5
9C
330
1F
100
AcDbEntity
  8
0
  6
Continuous
 62
     7
370
     0
100
AcDbCircle
 10
334.7821845431
 20
756.4924937862
 30
0.0
 40
168.2548968551953
100
AcDbArc
 50
273.9451799483
 51
280.2906493717
  0
LWPOLYLINE
  5
9D
330
1F
100
AcDbEntity
  8
0
  6
Continuous
 62
     7
370
     0
100
AcDbPolyline
 90
        3
 70
   128
 43
0.0
 10
372.9925073666
 20
592.4417136943
 10
369.3599916978
 20
591.7587022072
 10
364.8395158334
 20
590.944119986
  0
LWPOLYLINE
  5
9E
330
1F
100
AcDbEntity
  8
0
  6
Continuous
 62
     7
370
     0
100
AcDbPolyline
 90
        5
 70
   128
 43
0.0
 10
341.3878299279
 20
578.4720989228
 10
350.1848943515
 20
578.472101714
 10
358.4821440263
 20
578.4721007293
 10
365.8934749646
 20
578.4720990336
 10
373.1684304757
 20
578.4720984469
  0
LWPOLYLINE
  5
9F
330
1F
100
AcDbEntity
  8
0
  6
Continuous
 62
     7
370
     0
100
AcDbPolyline
 90
        3
 70
   128
 43
0.0
 10
78.7876091881
 20
564.5024834907
 10
82.4201229943
 20
565.1854949778
 10
86.9405932708
 20
566.000077199
  0
LWPOLYLINE
  5
A0
330
1F
100
AcDbEntity
  8
0
  6
Continuous
 62
     7
370
     0
100
AcDbPolyline
 90
        8
 70
   128
 43
0.0
 10
110.3927579924
 20
568.4707530549
 10
110.392540645
 20
569.0340998358
 10
110.3930463532
 20
570.6607329434
 10
110.3930635827
 20
573.1684172301
 10
110.392441692
 20
576.2701148874
 10
110.3923229484
 20
577.2580616417
 10
110.3922678839
 20
578.4720386038
 10
110.3922678839
 20
578.4720986038
  0
ARC
  5
A1
330
1F
100
AcDbEntity
  8
0
  6
Continuous
 62
     7
370
     0
100
AcDbCircle
 10
116.9978273509
 20
400.4524701854
 30
0.0
 40
168.2541250372973
100
AcDbArc
 50
93.9451640978
 51
100.2906634471
  0
LWPOLYLINE
  5
A2
330
1F
100
AcDbEntity
  8
0
  6
Continuous
 62
     7
370
     0
100
AcDbPolyline
 90
        8
 70
   128
 43
0.0
 10
341.3873530907
 20
568.4707530549
 10
341.387561707
 20
569.0340998358
 10
341.3870550675
 20
570.6607329434
 10
341.3870401664
 20
573.1684172301
 10
341.3876660151
 20
576.2701148874
 10
341.3877852244
 20
577.2580616417
 10
341.3878299279
 20
578.4720386038
 10
341.3878299279
 20
578.4720986038
  0
LWPOLYLINE
  5
A3
330
1F
100
AcDbEntity
  8
0
  6
Continuous
 62
     7
370
     0
100
AcDbPolyline
 90
        3
 70
   128
 43
0.0
 10
372.9925073666
 20
564.5024834907
 10
369.3599916978
 20
565.1854949778
 10
364.8395158334
 20
566.000077199
  0
ARC
  5
A4
330
1F
100
AcDbEntity
  8
0
  6
Continuous
 62
     7
370
     0
100
AcDbCircle
 10
334.392304949
 20
397.9698683373
 30
0.0
 40
170.7664688120959
100
AcDbArc
 50
79.7293983668
 51
85.7771643244
  0
LWPOLYLINE
  5
A5
330
1F
100
AcDbEntity
  8
0
  6
Continuous
 62
     7
370
     0
100
AcDbPolyline
 90
       10
 70
   128
 43
0.0
 10
83.0256130529
 20
563.9527032858
 10
83.4239676578
 20
564.1351074687
 10
83.8199008239
 20
564.3128382748
 10
84.2028103752
 20
564.4721326193
 10
84.5901828242
 20
564.6144098377
 10
84.9874086661
 20
564.7497636041
 10
85.4780200852
 20
564.9371866843
 10
85.9678734077
 20
565.1847704089
 10
86.4557877166
 20
565.5238938293
 10
86.9405932708
 20
566.000077199
  0
LWPOLYLINE
  5
A6
330
1F
100
AcDbEntity
  8
0
  6
Continuous
 62
     7
370
     0
100
AcDbPolyline
 90
        3
 70
   128
 43
0.0
 10
83.0256130529
 20
563.9527032858
 10
86.4586543275
 20
565.1285250446
 10
87.3797379417
 20
565.4596474728
  0
LWPOLYLINE
  5
A7
330
1F
100
AcDbEntity
  8
0
  6
Continuous
 62
     7
370
     0
100
AcDbPolyline
 90
       10
 70
   128
 43
0.0
 10
368.7544979138
 20
563.9527032858
 10
368.3561302705
 20
564.1351074687
 10
367.9602064175
 20
564.3128382748
 10
367.5773061795
 20
564.4721326193
 10
367.1899355931
 20
564.6144098377
 10
366.792700438
 20
564.7497636041
 10
366.3020946069
 20
564.9371866843
 10
365.8122338338
 20
565.1847704089
 10
365.3243102116
 20
565.5238938293
 10
364.8395158334
 20
566.000077199
  0
LWPOLYLINE
  5
A8
330
1F
100
AcDbEntity
  8
0
  6
Continuous
 62
     7
370
     0
100
AcDbPolyline
 90
        3
 70
   128
 43
0.0
 10
368.7544979138
 20
563.9527032858
 10
365.3214491887
 20
565.1285250446
 10
364.9938918633
 20
565.2462833336
  0
LWPOLYLINE
  5
A9
330
1F
100
AcDbEntity
  8
0
  6
Continuous
 62
     7
370
     0
100
AcDbPolyline
 90
       10
 70
   128
 43
0.0
 10
83.0256130529
 20
592.9914938992
 10
83.4239676578
 20
592.8090897164
 10
83.8199008239
 20
592.6313589102
 10
84.2028103752
 20
592.4720645657
 10
84.5901828242
 20
592.3297873473
 10
84.9874086661
 20
592.1944335809
 10
85.4780200852
 20
592.0070105007
 10
85.9678734077
 20
591.7594267762
 10
86.4557877166
 20
591.4203033558
 10
86.9405932708
 20
590.944119986
  0
LWPOLYLINE
  5
AA
330
1F
100
AcDbEntity
  8
0
  6
Continuous
 62
     7
370
     0
100
AcDbPolyline
 90
        3
 70
   128
 43
0.0
 10
83.0256130529
 20
592.9914938992
 10
86.4586543275
 20
591.8156721404
 10
86.7862228287
 20
591.6979138514
  0
LINE
  5
AB
330
1F
100
AcDbEntity
  8
0
  6
Continuous
 62
     7
370
     0
100
AcDbLine
 10
110.3926810419
 20
588.4734664819
 30
0.0
 11
110.3927536851
 21
588.4703670403
 31
0.0
  0
LINE
  5
AC
330
1F
100
AcDbEntity
  8
0
  6
Continuous
 62
     7
370
     0
100
AcDbLine
 10
341.3874275966
 20
588.4734664819
 30
0.0
 11
341.3873530907
 21
588.4703670403
 31
0.0
  0
LWPOLYLINE
  5
AD
330
1F
100
AcDbEntity
  8
0
  6
Continuous
 62
     7
370
     0
100
AcDbPolyline
 90
        3
 70
   128
 43
0.0
 10
368.7544979138
 20
592.9914938992
 10
365.3214491887
 20
591.8156721404
 10
364.400378613
 20
591.4845497122
  0
LWPOLYLINE
  5
AE
330
1F
100
AcDbEntity
  8
0
  6
Continuous
 62
     7
370
     0
100
AcDbPolyline
 90
       10
 70
   128
 43
0.0
 10
368.7544979138
 20
592.9914938992
 10
368.3561302705
 20
592.8090897164
 10
367.9602064175
 20
592.6313589102
 10
367.5773061795
 20
592.4720645657
 10
367.1899355931
 20
592.3297873473
 10
366.792700438
 20
592.1944335809
 10
366.3020946069
 20
592.0070105007
 10
365.8122338338
 20
591.7594267762
 10
365.3243102116
 20
591.4203033558
 10
364.8395158334
 20
590.944119986
  0
ARC
  5
AF
330
1F
100
AcDbEntity
  8
0
  6
Continuous
 62
     7
370
     0
100
AcDbCircle
 10
110.3900517064
 20
568.9707245486
 30
0.0
 40
0.5000007594492745
100
AcDbArc
 50
270.3013139208
 51
359.9998608839
  0
LINE
  5
B0
330
1F
100
AcDbEntity
  8
0
  6
Continuous
 62
     7
370
     0
100
AcDbLine
 10
110.8900524659
 20
578.4720982795
 30
0.0
 11
110.3922678839
 21
578.4720982623
 31
0.0
  0
ARC
  5
B1
330
1F
100
AcDbEntity
  8
0
  6
Continuous
 62
     7
370
     0
100
AcDbCircle
 10
110.3900528225
 20
587.9734518047
 30
0.0
 40
0.4999996434040325
100
AcDbArc
 50
359.9999649378
 51
89.6900086255
  0
ARC
  5
B2
330
1F
100
AcDbEntity
  8
0
  6
Continuous
 62
     7
370
     0
100
AcDbCircle
 10
341.3900478076
 20
568.9707369628
 30
0.0
 40
0.4999911695795236
100
AcDbArc
 50
180.0014549882
 51
269.6912012412
  0
LINE
  5
B3
330
1F
100
AcDbEntity
  8
0
  6
Continuous
 62
     7
370
     0
100
AcDbLine
 10
340.8900566382
 20
578.4720989055
 30
0.0
 11
341.3878299279
 21
578.4720989228
 31
0.0
  0
ARC
  5
B4
330
1F
100
AcDbEntity
  8
0
  6
Continuous
 62
     7
370
     0
100
AcDbCircle
 10
341.3900534819
 20
587.9734769304
 30
0.0
 40
0.4999968437035759
100
AcDbArc
 50
90.3094454914
 51
180.0004596533
  0
LINE
  5
B5
330
1F
100
AcDbEntity
  8
0
  6
Continuous
 62
     7
370
     0
100
AcDbLine
 10
111.3400524582
 20
588.472098369
 30
0.0
 11
111.3400524582
 21
568.472098816
 31
0.0
  0
LINE
  5
B6
330
1F
100
AcDbEntity
  8
0
  6
Continuous
 62
     7
370
     0
100
AcDbLine
 10
340.4400564713
 20
568.472098816
 30
0.0
 11
340.4400564713
 21
588.472098369
 31
0.0
  0
ARC
  5
B7
330
1F
100
AcDbEntity
  8
0
  6
Continuous
 62
     7
370
     0
100
AcDbCircle
 10
75.0388463133
 20
566.3862261282
 30
0.0
 40
4.195459912438189
100
AcDbArc
 50
275.9770242145
 51
333.3208306347
  0
ARC
  5
B8
330
1F
100
AcDbEntity
  8
0
  6
Continuous
 62
     7
370
     0
100
AcDbCircle
 10
75.0121471371
 20
563.5462082175
 30
0.0
 40
1.410958513373969
100
AcDbArc
 50
198.8443126655
 51
289.1806523112
  0
ARC
  5
B9
330
1F
100
AcDbEntity
  8
0
  6
Continuous
 62
     7
370
     0
100
AcDbCircle
 10
376.7412080984
 20
566.3861387577
 30
0.0
 40
4.195368485670899
100
AcDbArc
 50
206.6784613994
 51
264.0234426075
  0
ARC
  5
BA
330
1F
100
AcDbEntity
  8
0
  6
Continuous
 62
     7
370
     0
100
AcDbCircle
 10
376.767956866
 20
563.5461843144
 30
0.0
 40
1.410940916351452
100
AcDbArc
 50
250.8186777547
 51
341.1565490111
  0
ARC
  5
BB
330
1F
100
AcDbEntity
  8
0
  6
Continuous
 62
     7
370
     0
100
AcDbCircle
 10
75.0121525521
 20
593.397990892
 30
0.0
 40
1.410958588449148
100
AcDbArc
 50
70.8191010628
 51
161.1558908327
  0
ARC
  5
BC
330
1F
100
AcDbEntity
  8
0
  6
Continuous
 62
     7
370
     0
100
AcDbCircle
 10
75.0388439774
 20
590.557967677
 30
0.0
 40
4.195463517150666
100
AcDbArc
 50
26.6791962856
 51
84.0229488653
  0
ARC
  5
BD
330
1F
100
AcDbEntity
  8
0
  6
Continuous
 62
     7
370
     0
100
AcDbCircle
 10
376.7412104342
 20
590.5580550476
 30
0.0
 40
4.195372090244226
100
AcDbArc
 50
95.9765843129
 51
153.3215116801
  0
ARC
  5
BE
330
1F
100
AcDbEntity
  8
0
  6
Continuous
 62
     7
370
     0
100
AcDbCircle
 10
376.7679663758
 20
593.3980267181
 30
0.0
 40
1.410927443782896
100
AcDbArc
 50
18.8430435307
 51
109.181921446
  0
LWPOLYLINE
  5
BF
330
1F
100
AcDbEntity
  8
0
  6
Continuous
 62
     7
370
     0
100
AcDbPolyline
 90
        3
 70
   128
 43
0.0
 10
75.4757180793
 20
594.7306233233
 10
79.0667340143
 20
593.999066647
 10
83.0256130529
 20
592.9914938992
  0
LWPOLYLINE
  5
C0
330
1F
100
AcDbEntity
  8
0
  6
Continuous
 62
     7
370
     0
100
AcDbPolyline
 90
        3
 70
   128
 43
0.0
 10
376.3043798489
 20
594.7306233233
 10
372.7133788152
 20
593.999066647
 10
368.7544979138
 20
592.9914938992
  0
LWPOLYLINE
  5
C1
330
1F
100
AcDbEntity
  8
0
  6
Continuous
 62
     7
370
     0
100
AcDbPolyline
 90
        3
 70
   128
 43
0.0
 10
75.4757255299
 20
562.2135757244
 10
79.0667340143
 20
562.9451305381
 10
83.0256130529
 20
563.9527032858
  0
LWPOLYLINE
  5
C2
330
1F
100
AcDbEntity
  8
0
  6
Continuous
 62
     7
370
     0
100
AcDbPolyline
 90
        3
 70
   128
 43
0.0
 10
376.3043798489
 20
562.2135757244
 10
372.7133788152
 20
562.9451305381
 10
368.7544979138
 20
563.9527032858
  0
LWPOLYLINE
  5
C3
330
1F
100
AcDbEntity
  8
0
  6
Continuous
 62
     7
370
     0
100
AcDbPolyline
 90
        3
 70
   128
 43
0.0
 10
87.2929964198
 20
591.5089904106
 10
86.2605806423
 20
591.94370478
 10
83.0256130529
 20
592.9914938992
  0
LWPOLYLINE
  5
C4
330
1F
100
AcDbEntity
  8
0
  6
Continuous
 62
     7
370
     0
100
AcDbPolyline
 90
        3
 70
   128
 43
0.0
 10
364.1619898362
 20
591.3720934427
 10
365.5195154233
 20
591.94370478
 10
368.7544979138
 20
592.9914938992
  0
LWPOLYLINE
  5
C5
330
1F
100
AcDbEntity
  8
0
  6
Continuous
 62
     7
370
     0
100
AcDbPolyline
 90
        3
 70
   128
 43
0.0
 10
87.6181155426
 20
565.5721037424
 10
86.2605806423
 20
565.000492405
 10
83.0256130529
 20
563.9527032858
  0
LWPOLYLINE
  5
C6
330
1F
100
AcDbEntity
  8
0
  6
Continuous
 62
     7
370
     0
100
AcDbPolyline
 90
        3
 70
   128
 43
0.0
 10
364.4871033711
 20
565.4352067745
 10
365.5195154233
 20
565.000492405
 10
368.7544979138
 20
563.9527032858
  0
ARC
  5
C7
330
1F
100
AcDbEntity
  8
0
  6
Continuous
 62
     7
370
     0
100
AcDbCircle
 10
28.85912476
 20
686.3576491606
 30
0.0
 40
132.607910677352
100
AcDbArc
 50
283.2472847293
 51
290.5813600605
  0
ARC
  5
C8
330
1F
100
AcDbEntity
  8
0
  6
Continuous
 62
     7
370
     0
100
AcDbCircle
 10
422.9205149329
 20
686.356186597
 30
0.0
 40
132.6063777575258
100
AcDbArc
 50
249.418606159
 51
256.7527710169
  0
ARC
  5
C9
330
1F
100
AcDbEntity
  8
0
  6
Continuous
 62
     7
370
     0
100
AcDbCircle
 10
28.8592200908
 20
470.5868615135
 30
0.0
 40
132.6075836847263
100
AcDbArc
 50
69.4186308847
 51
76.7527243255
  0
ARC
  5
CA
330
1F
100
AcDbEntity
  8
0
  6
Continuous
 62
     7
370
     0
100
AcDbCircle
 10
422.9205149329
 20
470.5880105881
 30
0.0
 40
132.6063777575258
100
AcDbArc
 50
103.2472289831
 51
110.581393841
  0
LWPOLYLINE
  5
CB
330
1F
100
AcDbEntity
  8
0
  6
Continuous
 62
     7
370
    15
100
AcDbPolyline
 90
        6
 70
   128
 43
0.0
 10
515.7989581531
 20
594.8044790661
 10
507.251674444
 20
595.8614296055
 10
499.0770277982
 20
596.8205633348
 10
491.2309200918
 20
597.6772553062
 10
480.0605477249
 20
598.8038464224
 10
470.2249915754
 20
599.7600408977
  0
LWPOLYLINE
  5
CC
330
1F
100
AcDbEntity
  8
0
  6
Continuous
 62
     7
370
    15
100
AcDbPolyline
 90
        5
 70
   128
 43
0.0
 10
470.2249356961
 20
557.1842140293
 10
482.2221362447
 20
558.3518075532
 10
494.1131324922
 20
559.5744888073
 10
505.2859616881
 20
560.8464388883
 10
515.7989590844
 20
562.1397181189
  0
ARC
  5
CD
330
1F
100
AcDbEntity
  8
0
  6
Continuous
 62
     7
370
    15
100
AcDbCircle
 10
471.706436717
 20
200.71530231
 30
0.0
 40
396.5481531818097
100
AcDbArc
 50
81.1230490797
 51
83.6159279552
  0
LWPOLYLINE
  5
CE
330
1F
100
AcDbEntity
  8
0
  6
Continuous
 62
     7
370
    15
100
AcDbPolyline
 90
        3
 70
   128
 43
0.0
 10
515.799685516
 20
562.1397888994
 10
525.275639393
 20
563.2764345741
 10
532.8989461014
 20
564.4305863193
  0
LWPOLYLINE
  5
CF
330
1F
100
AcDbEntity
  8
0
  6
Continuous
 62
     7
370
    15
100
AcDbPolyline
 90
       10
 70
   128
 43
0.0
 10
544.0723217508
 20
578.4720983667
 10
543.9489932215
 20
581.9617035108
 10
543.5118592759
 20
584.9537041745
 10
542.6597186779
 20
587.4337817317
 10
541.4209935298
 20
589.2144071645
 10
540.8090345045
 20
589.7757944426
 10
540.1006966313
 20
590.2829834035
 10
538.1921139961
 20
591.2003920189
 10
535.7893017536
 20
591.9078106767
 10
532.8989309674
 20
592.5136388055
  0
LWPOLYLINE
  5
D0
330
1F
100
AcDbEntity
  8
0
  6
Continuous
 62
     7
370
    15
100
AcDbPolyline
 90
        9
 70
   128
 43
0.0
 10
532.8989309674
 20
564.4305583796
 10
536.2455431787
 20
565.1489983088
 10
539.1699989741
 20
566.1522059476
 10
541.4841064667
 20
567.7961895949
 10
542.6985641425
 20
569.5893804318
 10
543.2587816795
 20
571.0351907423
 10
543.7036521217
 20
572.9671062677
 10
543.9841618245
 20
575.4540979637
 10
544.0723217508
 20
578.4720988014
  0
LINE
  5
D1
330
1F
100
AcDbEntity
  8
0
  6
Continuous
 62
     7
370
    15
100
AcDbLine
 10
470.2229389405
 20
557.9465630239
 30
0.0
 11
470.2229389405
 21
598.9976285732
 31
0.0
  0
LINE
  5
D2
330
1F
100
AcDbEntity
  8
0
  6
Continuous
 62
     7
370
    15
100
AcDbLine
 10
470.2229389405
 20
598.9976937658
 30
0.0
 11
470.2229389405
 21
599.7450149393
 31
0.0
  0
LINE
  5
D3
330
1F
100
AcDbEntity
  8
0
  6
Continuous
 62
     7
370
    15
100
AcDbLine
 10
470.2229389405
 20
557.1987612879
 30
0.0
 11
470.2229389405
 21
557.9465034193
 31
0.0
  0
LWPOLYLINE
  5
D4
330
1F
100
AcDbEntity
  8
0
  6
Continuous
 62
     7
370
     0
100
AcDbPolyline
 90
        8
 70
   128
 43
0.0
 10
542.8944305932
 20
578.4720973923
 10
542.6002472123
 20
583.1266821137
 10
542.0926680272
 20
585.4400436169
 10
541.0641349336
 20
587.6490504256
 10
540.2631937941
 20
588.5982823333
 10
539.3024488767
 20
589.3533567673
 10
537.1684223829
 20
590.3663740268
 10
532.789285895
 20
591.5285453907
  0
LWPOLYLINE
  5
D5
330
1F
100
AcDbEntity
  8
0
  6
Continuous
 62
     7
370
     0
100
AcDbPolyline
 90
        7
 70
   128
 43
0.0
 10
532.789285895
 20
565.4156517944
 10
537.1801961629
 20
566.5820662639
 10
539.3131972706
 20
567.5977946034
 10
541.0689349701
 20
569.3022220171
 10
542.092889682
 20
571.5048711522
 10
542.6009922704
 20
573.8226787894
 10
542.8944305932
 20
578.472099745
  0
ARC
  5
D6
330
1F
100
AcDbEntity
  8
0
  6
Continuous
 62
     7
370
     0
100
AcDbCircle
 10
489.2825662396
 20
817.2571837201
 30
0.0
 40
255.5718404342153
100
AcDbArc
 50
276.0108878098
 51
279.8013754956
  0
LWPOLYLINE
  5
D7
330
1F
100
AcDbEntity
  8
0
  6
Continuous
 62
     7
370
     0
100
AcDbPolyline
 90
        4
 70
   128
 43
0.0
 10
470.2229799187
 20
557.9465127325
 10
493.137028203
 20
560.2952672875
 10
504.5820308333
 20
561.6263842917
 10
516.0453842437
 20
563.0904736704
  0
LWPOLYLINE
  5
D8
330
1F
100
AcDbEntity
  8
0
  6
Continuous
 62
     7
370
     0
100
AcDbPolyline
 90
        4
 70
   128
 43
0.0
 10
516.0453833123
 20
593.8537235147
 10
504.5820308333
 20
595.3178128934
 10
493.1370244777
 20
596.6489298976
 10
470.2229799187
 20
598.9976844525
  0
ARC
  5
D9
330
1F
100
AcDbEntity
  8
0
  6
Continuous
 62
     7
370
     0
100
AcDbCircle
 10
489.2823007953
 20
339.6850956503
 30
0.0
 40
255.5737754038342
100
AcDbArc
 50
80.1986391068
 51
83.9890982391
  0
LWPOLYLINE
  5
DA
330
1F
100
AcDbEntity
  8
0
  6
Continuous
 62
     7
370
     0
100
AcDbPolyline
 90
        6
 70
   128
 43
0.0
 10
515.7994470974
 20
594.799556095
 10
515.8619416361
 20
594.7807526922
 10
515.9288329487
 20
594.6961066461
 10
515.9784491589
 20
594.5489893442
 10
516.01211647
 20
594.3485370612
 10
516.0453944882
 20
593.8537225834
  0
LWPOLYLINE
  5
DB
330
1F
100
AcDbEntity
  8
0
  6
Continuous
 62
     7
370
     0
100
AcDbPolyline
 90
        6
 70
   128
 43
0.0
 10
515.7983211284
 20
562.1443020886
 10
515.8619462928
 20
562.1634500808
 10
515.9288310861
 20
562.248090539
 10
515.978443571
 20
562.3952041155
 10
516.0121099507
 20
562.5956582612
 10
516.045385175
 20
563.0904718077
  0
ARC
  5
DC
330
1F
100
AcDbEntity
  8
0
  6
Continuous
 62
     7
370
     0
100
AcDbCircle
 10
529.354267732
 20
592.4083949918
 30
0.0
 40
3.545928937492561
100
AcDbArc
 50
345.632291969
 51
1.6781711862
  0
ARC
  5
DD
330
1F
100
AcDbEntity
  8
0
  6
Continuous
 62
     7
370
     0
100
AcDbCircle
 10
529.35592366
 20
564.5362408181
 30
0.0
 40
3.544238710680796
100
AcDbArc
 50
358.3141603862
 51
14.3666726171
  0
LWPOLYLINE
  5
DE
330
1F
100
AcDbEntity
  8
0
  6
Continuous
 62
     7
370
     0
100
AcDbPolyline
 90
        7
 70
   128
 43
0.0
 10
544.0677275365
 20
578.4720988042
 10
544.0717257043
 20
578.4720988084
 10
544.0311582243
 20
578.4720988881
 10
543.919054926
 20
578.4720990052
 10
543.7331266185
 20
578.4720991588
 10
543.4855242675
 20
578.4720993416
 10
542.8944305932
 20
578.472099745
  0
LWPOLYLINE
  5
DF
330
1F
100
AcDbEntity
  8
0
  6
Continuous
 62
     7
370
    15
100
AcDbPolyline
 90
       18
 70
   128
 43
0.0
 10
374.9739445729
 20
369.1862919913
 10
375.9460665269
 20
373.0910295234
 10
376.3402022404
 20
376.6012047962
 10
376.5857733769
 20
379.6342616514
 10
376.8383778615
 20
382.0896378419
 10
377.1310366673
 20
384.1313957782
 10
377.4610973878
 20
385.9109699805
 10
377.9834426923
 20
388.1774107539
 10
378.5147584958
 20
390.1202898086
 10
379.4166661782
 20
392.9939442859
 10
380.5627740903
 20
396.2462419258
 10
382.115504889
 20
400.3037182228
 10
384.1046906991
 20
405.2284719036
 10
386.5213014169
 20
411.0411373512
 10
389.3616713567
 20
417.8054486946
 10
392.6423408074
 20
425.6130871908
 10
396.343610434
 20
434.4211710231
 10
399.5838679356
 20
442.1323803798
  0
LWPOLYLINE
  5
E0
330
1F
100
AcDbEntity
  8
0
  6
Continuous
 62
     7
370
    15
100
AcDbPolyline
 90
       19
 70
   128
 43
0.0
 10
52.190049736
 20
442.1471101777
 10
55.5726803822
 20
434.09710802
 10
59.3143023534
 20
425.1929638521
 10
62.5418491645
 20
417.5118026869
 10
65.2463987453
 20
411.0707608597
 10
67.456211148
 20
405.7608997063
 10
69.1893912835
 20
401.4999853061
 10
70.4635560496
 20
398.2508001463
 10
71.3253907842
 20
395.9517782168
 10
71.791968493
 20
394.6545492471
 10
72.2071781738
 20
393.4574002014
 10
72.8484943492
 20
391.4976367341
 10
73.6191004498
 20
388.8567258217
 10
74.3383124454
 20
385.8165711244
 10
74.8054899258
 20
383.1162428213
 10
75.1551195962
 20
380.0734375217
 10
75.4341922684
 20
376.6693743491
 10
75.845024733
 20
373.0210788162
 10
76.8061719818
 20
369.1862919913
  0
ARC
  5
E1
330
1F
100
AcDbEntity
  8
0
  6
Continuous
 62
     7
370
    15
100
AcDbCircle
 10
340.4400524659
 20
391.7047781662
 30
0.0
 40
0.4499999999999886
100
AcDbArc
 50
0.0
 51
90.0
  0
ARC
  5
E2
330
1F
100
AcDbEntity
  8
0
  6
Continuous
 62
     7
370
    15
100
AcDbCircle
 10
340.4400524659
 20
372.6047781662
 30
0.0
 40
0.4499999999999886
100
AcDbArc
 50
270.0
 51
0.0
  0
LINE
  5
E3
330
1F
100
AcDbEntity
  8
0
  6
Continuous
 62
     7
370
    15
100
AcDbLine
 10
111.3400524582
 20
372.1547783897
 30
0.0
 11
340.4400564713
 21
372.1547783897
 31
0.0
  0
LINE
  5
E4
330
1F
100
AcDbEntity
  8
0
  6
Continuous
 62
     7
370
    15
100
AcDbLine
 10
340.4400564713
 20
392.1547779427
 30
0.0
 11
111.3400524582
 21
392.1547779427
 31
0.0
  0
ARC
  5
E5
330
1F
100
AcDbEntity
  8
0
  6
Continuous
 62
     7
370
    15
100
AcDbCircle
 10
111.3400524659
 20
391.7047781662
 30
0.0
 40
0.4500000000000028
100
AcDbArc
 50
90.0
 51
180.0
  0
ARC
  5
E6
330
1F
100
AcDbEntity
  8
0
  6
Continuous
 62
     7
370
    15
100
AcDbCircle
 10
111.3400524659
 20
372.6047781662
 30
0.0
 40
0.4500000000000028
100
AcDbArc
 50
180.0
 51
270.0
  0
LINE
  5
E7
330
1F
100
AcDbEntity
  8
0
  6
Continuous
 62
     7
370
    15
100
AcDbLine
 10
394.411376862
 20
442.1543223397
 30
0.0
 11
392.5333239121
 21
442.1543223397
 31
0.0
  0
LINE
  5
E8
330
1F
100
AcDbEntity
  8
0
  6
Continuous
 62
     7
370
    15
100
AcDbLine
 10
57.368743418
 20
442.1543223397
 30
0.0
 11
59.2467926426
 21
442.1543223397
 31
0.0
  0
LWPOLYLINE
  5
E9
330
1F
100
AcDbEntity
  8
0
  6
Continuous
 62
     7
370
    15
100
AcDbPolyline
 90
        3
 70
   128
 43
0.0
 10
353.9054609818
 20
416.141883059
 10
355.5172599835
 20
429.148156716
 10
357.1299083514
 20
442.1543223397
  0
LINE
  5
EA
330
1F
100
AcDbEntity
  8
0
  6
Continuous
 62
     7
370
    15
100
AcDbLine
 10
392.5333239121
 20
442.1543223397
 30
0.0
 11
357.1299083514
 21
442.1543223397
 31
0.0
  0
LWPOLYLINE
  5
EB
330
1F
100
AcDbEntity
  8
0
  6
Continuous
 62
     7
370
    15
100
AcDbPolyline
 90
        3
 70
   128
 43
0.0
 10
97.8746388091
 20
416.141883059
 10
96.2628426013
 20
429.148156716
 10
94.6501914395
 20
442.1543223397
  0
LINE
  5
EC
330
1F
100
AcDbEntity
  8
0
  6
Continuous
 62
     7
370
    15
100
AcDbLine
 10
59.2467926426
 20
442.1543223397
 30
0.0
 11
94.6501914395
 21
442.1543223397
 31
0.0
  0
LINE
  5
ED
330
1F
100
AcDbEntity
  8
0
  6
Continuous
 62
     7
370
    15
100
AcDbLine
 10
399.5316542668
 20
442.1543223397
 30
0.0
 11
394.4112576527
 21
442.1543223397
 31
0.0
  0
LINE
  5
EE
330
1F
100
AcDbEntity
  8
0
  6
Continuous
 62
     7
370
    15
100
AcDbLine
 10
57.3688328249
 20
442.1543223397
 30
0.0
 11
52.1901354177
 21
442.1543223397
 31
0.0
  0
ARC
  5
EF
330
1F
100
AcDbEntity
  8
0
  6
Continuous
 62
     7
370
    15
100
AcDbCircle
 10
336.4960166193
 20
195.5425070945
 30
0.0
 40
176.6789019267337
100
AcDbArc
 50
78.0202878401
 51
88.41341509
  0
ARC
  5
F0
330
1F
100
AcDbEntity
  8
0
  6
Continuous
 62
     7
370
    15
100
AcDbCircle
 10
115.2840879142
 20
195.542632415
 30
0.0
 40
176.6787768403834
100
AcDbArc
 50
91.5865882142
 51
101.979716782
  0
LWPOLYLINE
  5
F1
330
1F
100
AcDbEntity
  8
0
  6
Continuous
 62
     7
370
    15
100
AcDbPolyline
 90
       19
 70
   128
 43
0.0
 10
353.9055205865
 20
416.1418495313
 10
353.553272037
 20
413.3453225331
 10
353.257826714
 20
411.1798168705
 10
353.0260093493
 20
409.6438759551
 10
352.8769381327
 20
408.7334243194
 10
352.5355525298
 20
406.8564014123
 10
352.1451719088
 20
405.0101829306
 10
351.6957826896
 20
403.2062502192
 10
351.1763729138
 20
401.4687059061
 10
349.7727580352
 20
398.0615833388
 10
349.3155457063
 20
397.2369391085
 10
348.8058663888
 20
396.4378913478
 10
348.2379682345
 20
395.6732056649
 10
347.6056225581
 20
394.9525231109
 10
346.5281493945
 20
393.982534817
 10
345.6757731719
 20
393.4020703272
 10
344.5553697629
 20
392.8403459103
 10
342.8809560818
 20
392.3404417546
 10
341.368979959
 20
392.1651230739
  0
LWPOLYLINE
  5
F2
330
1F
100
AcDbEntity
  8
0
  6
Continuous
 62
     7
370
    15
100
AcDbPolyline
 90
       19
 70
   128
 43
0.0
 10
97.8745903803
 20
416.1418495313
 10
98.2268277539
 20
413.3453225331
 10
98.5222749395
 20
411.1798168705
 10
98.7540950982
 20
409.6438759551
 10
98.9031653834
 20
408.7334243194
 10
99.2445491237
 20
406.8564014123
 10
99.6349353326
 20
405.0101829306
 10
100.0843171013
 20
403.2062502192
 10
100.6037259458
 20
401.4687059061
 10
102.0073445497
 20
398.0615833388
 10
102.464552222
 20
397.2369391085
 10
102.9742343334
 20
396.4378913478
 10
103.5421357473
 20
395.6732056649
 10
104.1744776985
 20
394.9525231109
 10
105.251953656
 20
393.982534817
 10
106.1043247564
 20
393.4020703272
 10
107.2247405054
 20
392.8403459103
 10
108.8991504611
 20
392.3404417546
 10
110.4111302511
 20
392.1651230739
  0
ARC
  5
F3
330
1F
100
AcDbEntity
  8
0
  6
Continuous
 62
     7
370
    15
100
AcDbCircle
 10
373.6577401435
 20
369.7340430847
 30
0.0
 40
1.445812164189313
100
AcDbArc
 50
250.2186043859
 51
349.9939739792
  0
ARC
  5
F4
330
1F
100
AcDbEntity
  8
0
  6
Continuous
 62
     7
370
    15
100
AcDbCircle
 10
78.1223666734
 20
369.7340310719
 30
0.0
 40
1.445804155879797
100
AcDbArc
 50
190.0055986051
 51
289.7819198564
  0
ARC
  5
F5
330
1F
100
AcDbEntity
  8
0
  6
Continuous
 62
     7
370
    15
100
AcDbCircle
 10
341.3900495956
 20
372.6536628029
 30
0.0
 40
0.4999929574765395
100
AcDbArc
 50
179.9991525966
 51
269.7456403948
  0
ARC
  5
F6
330
1F
100
AcDbEntity
  8
0
  6
Continuous
 62
     7
370
    15
100
AcDbCircle
 10
110.3900521377
 20
372.6536701912
 30
0.0
 40
0.5000003282304278
100
AcDbArc
 50
270.2539064831
 51
0.0000007638
  0
ARC
  5
F7
330
1F
100
AcDbEntity
  8
0
  6
Continuous
 62
     7
370
    15
100
AcDbCircle
 10
341.3900508902
 20
391.6655730084
 30
0.0
 40
0.4999942520213291
100
AcDbArc
 50
92.4152938942
 51
180.0006618446
  0
ARC
  5
F8
330
1F
100
AcDbEntity
  8
0
  6
Continuous
 62
     7
370
    15
100
AcDbCircle
 10
110.3900510418
 20
391.6655661791
 30
0.0
 40
0.5000014241155116
100
AcDbArc
 50
0.0001207359
 51
87.5837913334
  0
LINE
  5
F9
330
1F
100
AcDbEntity
  8
0
  6
Continuous
 62
     7
370
    15
100
AcDbLine
 10
340.8900566382
 20
391.7047777758
 30
0.0
 11
340.8900566382
 21
372.604779488
 31
0.0
  0
LINE
  5
FA
330
1F
100
AcDbEntity
  8
0
  6
Continuous
 62
     7
370
    15
100
AcDbLine
 10
110.8900524659
 20
391.7047777758
 30
0.0
 11
110.8900524659
 21
372.6047785566
 31
0.0
  0
LWPOLYLINE
  5
FB
330
1F
100
AcDbEntity
  8
0
  6
Continuous
 62
     7
370
     0
100
AcDbPolyline
 90
        4
 70
   128
 43
0.0
 10
392.5333239121
 20
442.1542776362
 10
384.2598713918
 20
419.5132894055
 10
380.148611216
 20
408.1846909211
 10
376.3043798489
 20
396.7705318318
  0
LWPOLYLINE
  5
FC
330
1F
100
AcDbEntity
  8
0
  6
Continuous
 62
     7
370
     0
100
AcDbPolyline
 90
        4
 70
   128
 43
0.0
 10
378.1032778306
 20
396.3318779678
 10
381.9402672334
 20
407.7952304469
 10
386.0772468133
 20
419.2402368025
 10
394.4113470597
 20
442.1542813615
  0
ARC
  5
FD
330
1F
100
AcDbEntity
  8
0
  6
Continuous
 62
     7
370
     0
100
AcDbCircle
 10
378.902262251
 20
403.5163970171
 30
0.0
 40
7.228809727310427
100
AcDbArc
 50
248.9379368834
 51
263.6542583113
  0
LWPOLYLINE
  5
FE
330
1F
100
AcDbEntity
  8
0
  6
Continuous
 62
     7
370
     0
100
AcDbPolyline
 90
        4
 70
   128
 43
0.0
 10
73.6768163724
 20
396.3318779678
 10
69.8398381455
 20
407.7952304469
 10
65.7028473897
 20
419.2402368025
 10
57.3687545938
 20
442.1542813615
  0
LWPOLYLINE
  5
FF
330
1F
100
AcDbEntity
  8
0
  6
Continuous
 62
     7
370
     0
100
AcDbPolyline
 90
        4
 70
   128
 43
0.0
 10
59.2467926426
 20
442.1542776362
 10
67.5202377124
 20
419.5132894055
 10
71.6314829869
 20
408.1846909211
 10
75.4757255299
 20
396.7705318318
  0
ARC
  5
100
330
1F
100
AcDbEntity
  8
0
  6
Continuous
 62
     7
370
     0
100
AcDbCircle
 10
72.8778357045
 20
403.5162866329
 30
0.0
 40
7.228711123836258
100
AcDbArc
 50
276.3458283862
 51
291.0624271462
  0
LWPOLYLINE
  5
101
330
1F
100
AcDbEntity
  8
0
  6
Continuous
 62
     7
370
     0
100
AcDbPolyline
 90
        3
 70
   128
 43
0.0
 10
376.3043798489
 20
396.7705253125
 10
372.7133788152
 20
399.876477717
 10
368.7544979138
 20
403.2999636219
  0
LWPOLYLINE
  5
102
330
1F
100
AcDbEntity
  8
0
  6
Continuous
 62
     7
370
     0
100
AcDbPolyline
 90
        9
 70
   128
 43
0.0
 10
353.9055205865
 20
416.1418495313
 10
353.9057441039
 20
416.1416558162
 10
354.2952008529
 20
415.8049715296
 10
355.4485060258
 20
414.8073462383
 10
357.2065897269
 20
413.2870012508
 10
359.3034662289
 20
411.4735466973
 10
362.3464621587
 20
408.8418898718
 10
365.5195154233
 20
406.0976752625
 10
368.7544979138
 20
403.2999636219
  0
LWPOLYLINE
  5
103
330
1F
100
AcDbEntity
  8
0
  6
Continuous
 62
     7
370
     0
100
AcDbPolyline
 90
        9
 70
   128
 43
0.0
 10
97.8745903803
 20
416.1418495313
 10
97.8743631376
 20
416.1416558162
 10
97.4849035947
 20
415.8049715296
 10
96.3315928338
 20
414.8073462383
 10
94.5735082013
 20
413.2870012508
 10
92.476633562
 20
411.4735466973
 10
89.4336581213
 20
408.8418898718
 10
86.2605806423
 20
406.0976752625
 10
83.0256130529
 20
403.2999636219
  0
LWPOLYLINE
  5
104
330
1F
100
AcDbEntity
  8
0
  6
Continuous
 62
     7
370
     0
100
AcDbPolyline
 90
        3
 70
   128
 43
0.0
 10
75.4757180793
 20
396.7705253125
 10
79.0667340143
 20
399.876477717
 10
83.0256130529
 20
403.2999636219
  0
ARC
  5
105
330
1F
100
AcDbEntity
  8
0
  6
Continuous
 62
     7
370
     0
100
AcDbCircle
 10
436.4322840101
 20
375.8673005508
 30
0.0
 40
61.68202897817023
100
AcDbArc
 50
176.5418054982
 51
185.9411067778
  0
ARC
  5
106
330
1F
100
AcDbEntity
  8
0
  6
Continuous
 62
     7
370
     0
100
AcDbCircle
 10
437.9723557037
 20
376.0590468308
 30
0.0
 40
63.20833520214037
100
AcDbArc
 50
161.2929136994
 51
176.7995795357
  0
ARC
  5
107
330
1F
100
AcDbEntity
  8
0
  6
Continuous
 62
     7
370
     0
100
AcDbCircle
 10
15.352369292
 20
375.8671794586
 30
0.0
 40
61.67750036045086
100
AcDbArc
 50
354.0585685282
 51
3.4585614204
  0
ARC
  5
108
330
1F
100
AcDbEntity
  8
0
  6
Continuous
 62
     7
370
     0
100
AcDbCircle
 10
13.8067433312
 20
376.0587832961
 30
0.0
 40
63.20936584814466
100
AcDbArc
 50
3.200607479
 51
18.7070221581
  0
ARC
  5
109
330
1F
100
AcDbEntity
  8
0
  6
Continuous
 62
     7
370
     0
100
AcDbCircle
 10
12.5738871622
 20
375.7493339972
 30
0.0
 40
66.32142049925031
100
AcDbArc
 50
3.2652894382
 51
18.4791358138
  0
ARC
  5
10A
330
1F
100
AcDbEntity
  8
0
  6
Continuous
 62
     7
370
     0
100
AcDbCircle
 10
77.9985211065
 20
384.0294680592
 30
0.0
 40
4.571158532914578
100
AcDbArc
 50
256.3208131558
 51
279.9408475248
  0
ARC
  5
10B
330
1F
100
AcDbEntity
  8
0
  6
Continuous
 62
     7
370
     0
100
AcDbCircle
 10
439.2050058465
 20
375.7496226403
 30
0.0
 40
66.3201862183809
100
AcDbArc
 50
161.5207707524
 51
176.7348994978
  0
ARC
  5
10C
330
1F
100
AcDbEntity
  8
0
  6
Continuous
 62
     7
370
     0
100
AcDbCircle
 10
373.7817695608
 20
384.030478844
 30
0.0
 40
4.572172134643036
100
AcDbArc
 50
260.0592582932
 51
283.6738017951
  0
LWPOLYLINE
  5
10D
330
1F
100
AcDbEntity
  8
0
  6
Continuous
 62
     7
370
     0
100
AcDbPolyline
 90
        3
 70
   128
 43
0.0
 10
372.9925073666
 20
379.526945584
 10
369.3599916978
 20
380.007584401
 10
364.8395158334
 20
380.5679893666
  0
LWPOLYLINE
  5
10E
330
1F
100
AcDbEntity
  8
0
  6
Continuous
 62
     7
370
     0
100
AcDbPolyline
 90
       10
 70
   128
 43
0.0
 10
368.7544979138
 20
403.2999636219
 10
368.3561302705
 20
400.9868358807
 10
367.9602064175
 20
398.687111734
 10
367.5773061795
 20
396.464655696
 10
367.1899355931
 20
394.2153729112
 10
366.792700438
 20
391.9089758382
 10
366.3020946069
 20
389.0602859282
 10
365.8122338338
 20
386.2160007083
 10
365.3243102116
 20
383.3829626055
 10
364.8395158334
 20
380.5679893666
  0
LWPOLYLINE
  5
10F
330
1F
100
AcDbEntity
  8
0
  6
Continuous
 62
     7
370
     0
100
AcDbPolyline
 90
       10
 70
   128
 43
0.0
 10
83.0256130529
 20
403.2999636219
 10
83.4239676578
 20
400.9868358807
 10
83.8199008239
 20
398.687111734
 10
84.2028103752
 20
396.464655696
 10
84.5901828242
 20
394.2153729112
 10
84.9874086661
 20
391.9089758382
 10
85.4780200852
 20
389.0602859282
 10
85.9678734077
 20
386.2160007083
 10
86.4557877166
 20
383.3829626055
 10
86.9405932708
 20
380.5679893666
  0
LWPOLYLINE
  5
110
330
1F
100
AcDbEntity
  8
0
  6
Continuous
 62
     7
370
     0
100
AcDbPolyline
 90
        3
 70
   128
 43
0.0
 10
78.7876091881
 20
379.526945584
 10
82.4201229943
 20
380.007584401
 10
86.9405932708
 20
380.5679893666
  0
LINE
  5
111
330
1F
100
AcDbEntity
  8
0
  6
Continuous
 62
     7
370
     0
100
AcDbLine
 10
341.3874275966
 20
382.1540011821
 30
0.0
 11
341.3872487826
 21
382.5320665746
 31
0.0
  0
LWPOLYLINE
  5
112
330
1F
100
AcDbEntity
  8
0
  6
Continuous
 62
     7
370
     0
100
AcDbPolyline
 90
        8
 70
   128
 43
0.0
 10
368.7544979138
 20
403.2999636219
 10
365.3214491887
 20
400.694769396
 10
361.9004107995
 20
398.0986909554
 10
358.4739036841
 20
395.4984439151
 10
355.0169832988
 20
392.8751289458
 10
350.4991896434
 20
389.4466632591
 10
346.0110194964
 20
386.0405122941
 10
341.3872934861
 20
382.5321498406
  0
ARC
  5
113
330
1F
100
AcDbEntity
  8
0
  6
Continuous
 62
     7
370
     0
100
AcDbCircle
 10
339.2628657815
 20
176.5556780925
 30
0.0
 40
205.6092975506103
100
AcDbArc
 50
82.8542141378
 51
89.4079643693
  0
LWPOLYLINE
  5
114
330
1F
100
AcDbEntity
  8
0
  6
Continuous
 62
     7
370
     0
100
AcDbPolyline
 90
        8
 70
   128
 43
0.0
 10
83.0256130529
 20
403.2999636219
 10
86.4586543275
 20
400.694769396
 10
89.8796815408
 20
398.0986909554
 10
93.3062016947
 20
395.4984439151
 10
96.7631220801
 20
392.8751289458
 10
101.2809148041
 20
389.4466632591
 10
105.7690788975
 20
386.0405122941
 10
110.3928101465
 20
382.5321498406
  0
LINE
  5
115
330
1F
100
AcDbEntity
  8
0
  6
Continuous
 62
     7
370
     0
100
AcDbLine
 10
110.3926810419
 20
382.1540011821
 30
0.0
 11
110.3928547918
 21
382.5320665746
 31
0.0
  0
ARC
  5
116
330
1F
100
AcDbEntity
  8
0
  6
Continuous
 62
     7
370
     0
100
AcDbCircle
 10
112.5172446068
 20
176.5556681485
 30
0.0
 40
205.6093075771197
100
AcDbArc
 50
90.5920378413
 51
97.1457858726
  0
LWPOLYLINE
  5
117
330
1F
100
AcDbEntity
  8
0
  6
Continuous
 62
     7
370
     0
100
AcDbPolyline
 90
        8
 70
   128
 43
0.0
 10
341.3878299279
 20
372.1536747725
 10
341.3878299279
 20
372.1536747725
 10
341.3876660151
 20
372.3994703577
 10
341.3870401664
 20
373.6756383986
 10
341.3870550675
 20
375.9089112827
 10
341.387561707
 20
378.8454498244
 10
341.3875915093
 20
380.3026475324
 10
341.3873530907
 20
382.1539993789
  0
LWPOLYLINE
  5
118
330
1F
100
AcDbEntity
  8
0
  6
Continuous
 62
     7
370
     0
100
AcDbPolyline
 90
        8
 70
   128
 43
0.0
 10
372.9925073666
 20
379.5269460497
 10
372.775576262
 20
374.8998763585
 10
372.7629996819
 20
372.4641535045
 10
372.7921761555
 20
371.2884863452
 10
372.8547908349
 20
370.3076919154
 10
373.0054117722
 20
369.1579751284
 10
373.1125809235
 20
368.6451581852
 10
373.1684304757
 20
368.3735472695
  0
LWPOLYLINE
  5
119
330
1F
100
AcDbEntity
  8
0
  6
Continuous
 62
     7
370
     0
100
AcDbPolyline
 90
        8
 70
   128
 43
0.0
 10
78.7875868363
 20
379.5269460497
 10
79.0045253916
 20
374.8998763585
 10
79.0171205981
 20
372.4641535045
 10
78.9879180474
 20
371.2884863452
 10
78.9253145439
 20
370.3076919154
 10
78.7747010572
 20
369.1579751284
 10
78.6675132794
 20
368.6451581852
 10
78.611686079
 20
368.3735472695
  0
LWPOLYLINE
  5
11A
330
1F
100
AcDbEntity
  8
0
  6
Continuous
 62
     7
370
     0
100
AcDbPolyline
 90
        8
 70
   128
 43
0.0
 10
110.3922678839
 20
372.1536747725
 10
110.3922678839
 20
372.1536747725
 10
110.392441692
 20
372.3994703577
 10
110.3930635827
 20
373.6756383986
 10
110.3930463532
 20
375.9089112827
 10
110.392540645
 20
378.8454498244
 10
110.3925169545
 20
380.3026475324
 10
110.3927579924
 20
382.1539993789
  0
LWPOLYLINE
  5
11B
330
1F
100
AcDbEntity
  8
0
  6
Continuous
 62
     7
370
     0
100
AcDbPolyline
 90
        7
 70
   128
 43
0.0
 10
341.3873530907
 20
382.5321995791
 10
341.3862802071
 20
384.3690294852
 10
341.3824953122
 20
387.4739604616
 10
341.3767136617
 20
389.9793136479
 10
341.3711555285
 20
391.602812855
 10
341.3694567962
 20
392.0440660403
 10
341.368979959
 20
392.1651230739
  0
LWPOLYLINE
  5
11C
330
1F
100
AcDbEntity
  8
0
  6
Continuous
 62
     7
370
     0
100
AcDbPolyline
 90
        7
 70
   128
 43
0.0
 10
110.3927445465
 20
382.5321995791
 10
110.393830294
 20
384.3690294852
 10
110.397616062
 20
387.4739604616
 10
110.4033908441
 20
389.9793136479
 10
110.408942487
 20
391.602812855
 10
110.4106502998
 20
392.0440660403
 10
110.4111302511
 20
392.1651230739
  0
ARC
  5
11D
330
1F
100
AcDbEntity
  8
0
  6
Continuous
 62
     7
370
     0
100
AcDbCircle
 10
341.1044033493
 20
199.2577108632
 30
0.0
 40
182.8965074141547
100
AcDbArc
 50
89.911360623
 51
90.0671481642
  0
LWPOLYLINE
  5
11E
330
1F
100
AcDbEntity
  8
0
  6
Continuous
 62
     7
370
     0
100
AcDbPolyline
 90
        5
 70
   128
 43
0.0
 10
110.8900524659
 20
382.1540926441
 10
110.8522506501
 20
382.1540570691
 10
110.7445611078
 20
382.1540268733
 10
110.5832672719
 20
382.1540066226
 10
110.3927579924
 20
382.1539993789
  0
ARC
  5
11F
330
1F
100
AcDbEntity
  8
0
  6
Continuous
 62
     7
370
     0
100
AcDbCircle
 10
341.2632156059
 20
379.2483961646
 30
0.0
 40
3.286137545858756
100
AcDbArc
 50
87.8368933398
 51
96.5203150847
  0
ARC
  5
120
330
1F
100
AcDbEntity
  8
0
  6
Continuous
 62
     7
370
     0
100
AcDbCircle
 10
110.5164505644
 20
379.238812159
 30
0.0
 40
3.295709920163672
100
AcDbArc
 50
83.4909546752
 51
92.1511292903
  0
LINE
  5
121
330
1F
100
AcDbEntity
  8
0
  6
Continuous
 62
     7
370
     0
100
AcDbLine
 10
340.4400564713
 20
372.1547783897
 30
0.0
 11
340.4400564713
 21
392.1547779427
 31
0.0
  0
LINE
  5
122
330
1F
100
AcDbEntity
  8
0
  6
Continuous
 62
     7
370
     0
100
AcDbLine
 10
111.3400524582
 20
392.1547779427
 30
0.0
 11
111.3400524582
 21
372.1547783897
 31
0.0
  0
ENDSEC
  0
SECTION
  2
OBJECTS
  0
DICTIONARY
  5
C
330
0
100
AcDbDictionary
281
     1
  3
ACAD_GROUP
350
D
  3
ACAD_LAYOUT
350
1A
  3
ACAD_MATERIAL
350
3B
  3
ACAD_MLEADERSTYLE
350
124
  3
ACAD_MLINESTYLE
350
17
  3
ACAD_PLOTSETTINGS
350
19
  3
ACAD_PLOTSTYLENAME
350
E
  3
ACAD_TABLESTYLE
350
123
  3
ACAD_VISUALSTYLE
350
2A
  0
DICTIONARY
  5
D
102
{ACAD_REACTORS
330
C
102
}
330
C
100
AcDbDictionary
281
     1
  0
DICTIONARY
  5
1A
102
{ACAD_REACTORS
330
C
102
}
330
C
100
AcDbDictionary
281
     1
  3
Layout1
350
1E
  3
Layout2
350
26
  3
Model
350
22
  0
DICTIONARY
  5
3B
102
{ACAD_REACTORS
330
C
102
}
330
C
100
AcDbDictionary
281
     1
  3
ByBlock
350
3D
  3
ByLayer
350
3C
  3
Global
350
3E
  0
DICTIONARY
  5
124
102
{ACAD_REACTORS
330
C
102
}
330
C
100
AcDbDictionary
281
     1
  0
DICTIONARY
  5
17
102
{ACAD_REACTORS
330
C
102
}
330
C
100
AcDbDictionary
281
     1
  3
Standard
350
18
  0
DICTIONARY
  5
19
102
{ACAD_REACTORS
330
C
102
}
330
C
100
AcDbDictionary
281
     1
  0
ACDBDICTIONARYWDFLT
  5
E
102
{ACAD_REACTORS
330
C
102
}
330
C
100
AcDbDictionary
281
     1
  3
Normal
350
F
100
AcDbDictionaryWithDefault
340
F
  0
DICTIONARY
  5
123
102
{ACAD_REACTORS
330
C
102
}
330
C
100
AcDbDictionary
281
     1
  0
DICTIONARY
  5
2A
102
{ACAD_REACTORS
330
C
102
}
330
C
100
AcDbDictionary
281
     1
  3
2dWireframe
350
2F
  3
3D Hidden
350
31
  3
3dWireframe
350
30
  3
Basic
350
32
  3
Brighten
350
36
  3
ColorChange
350
3A
  3
Conceptual
350
34
  3
Dim
350
35
  3
Facepattern
350
39
  3
Flat
350
2B
  3
FlatWithEdges
350
2C
  3
Gouraud
350
2D
  3
GouraudWithEdges
350
2E
  3
Linepattern
350
38
  3
Realistic
350
33
  3
Thicken
350
37
  0
LAYOUT
  5
1E
102
{ACAD_REACTORS
330
1A
102
}
330
1A
100
AcDbPlotSettings
  1

  2
none_device
  4

  6

 40
0.0
 41
0.0
 42
0.0
 43
0.0
 44
0.0
 45
0.0
 46
0.0
 47
0.0
 48
0.0
 49
0.0
140
0.0
141
0.0
142
1.0
143
1.0
 70
   688
 72
     0
 73
     0
 74
     5
  7

 75
    16
 76
     0
 77
     2
 78
   300
147
1.0
148
0.0
149
0.0
100
AcDbLayout
  1
Layout1
 70
     1
 71
     1
 10
0.0
 20
0.0
 11
420.0
 21
297.0
 12
0.0
 22
0.0
 32
0.0
 14
1.0000000000E+20
 24
1.0000000000E+20
 34
1.0000000000E+20
 15
-1.0000000000E+20
 25
-1.0000000000E+20
 35
-1.0000000000E+20
146
0.0
 13
0.0
 23
0.0
 33
0.0
 16
1.0
 26
0.0
 36
0.0
 17
0.0
 27
1.0
 37
0.0
 76
     0
330
1B
  0
LAYOUT
  5
26
102
{ACAD_REACTORS
330
1A
102
}
330
1A
100
AcDbPlotSettings
  1

  2
none_device
  4

  6

 40
0.0
 41
0.0
 42
0.0
 43
0.0
 44
0.0
 45
0.0
 46
0.0
 47
0.0
 48
0.0
 49
0.0
140
0.0
141
0.0
142
1.0
143
1.0
 70
   688
 72
     0
 73
     0
 74
     5
  7

 75
    16
 76
     0
 77
     2
 78
   300
147
1.0
148
0.0
149
0.0
100
AcDbLayout
  1
Layout2
 70
     1
 71
     2
 10
0.0
 20
0.0
 11
0.0
 21
0.0
 12
0.0
 22
0.0
 32
0.0
 14
0.0
 24
0.0
 34
0.0
 15
0.0
 25
0.0
 35
0.0
146
0.0
 13
0.0
 23
0.0
 33
0.0
 16
1.0
 26
0.0
 36
0.0
 17
0.0
 27
1.0
 37
0.0
 76
     0
330
23
  0
LAYOUT
  5
22
102
{ACAD_REACTORS
330
1A
102
}
330
1A
100
AcDbPlotSettings
  1

  2
none_device
  4

  6

 40
0.0
 41
0.0
 42
0.0
 43
0.0
 44
0.0
 45
0.0
 46
0.0
 47
0.0
 48
0.0
 49
0.0
140
0.0
141
0.0
142
1.0
143
1.0
 70
  1712
 72
     0
 73
     0
 74
     0
  7

 75
     0
 76
     0
 77
     2
 78
   300
147
1.0
148
0.0
149
0.0
100
AcDbLayout
  1
Model
 70
     1
 71
     0
 10
0.0
 20
0.0
 11
594.0
 21
841.0
 12
0.0
 22
0.0
 32
0.0
 14
0.0
 24
0.0
 34
0.0
 15
594.0
 25
841.0
 35
0.0
146
0.0
 13
0.0
 23
0.0
 33
0.0
 16
1.0
 26
0.0
 36
0.0
 17
0.0
 27
1.0
 37
0.0
 76
     0
330
1F
331
29
  0
MATERIAL
  5
3D
102
{ACAD_REACTORS
330
3B
102
}
330
3B
100
AcDbMaterial
  1
ByBlock
 72
     1
 94
      127
  0
MATERIAL
  5
3C
102
{ACAD_REACTORS
330
3B
102
}
330
3B
100
AcDbMaterial
  1
ByLayer
 72
     1
 94
      127
  0
MATERIAL
  5
3E
102
{ACAD_REACTORS
330
3B
102
}
330
3B
100
AcDbMaterial
  1
Global
 72
     1
 94
      127
  0
MLINESTYLE
  5
18
102
{ACAD_REACTORS
330
17
102
}
330
17
100
AcDbMlineStyle
  2
Standard
 70
     0
  3

 62
   256
 51
90.0
 52
90.0
 71
     2
 49
0.5
 62
   256
  6
BYLAYER
 49
-0.5
 62
   256
  6
BYLAYER
  0
ACDBPLACEHOLDER
  5
F
102
{ACAD_REACTORS
330
E
102
}
330
E
  0
VISUALSTYLE
  5
2F
102
{ACAD_REACTORS
330
2A
102
}
330
2A
100
AcDbVisualStyle
  2
2dWireframe
 70
     4
177
     2
291
     0
 71
     0
176
     1
 72
     2
176
     1
 73
     0
176
     1
 90
        0
176
     1
 40
-0.6
176
     1
 41
-30.0
176
     1
 62
     5
 63
     7
421
 16777215
176
     1
 74
     1
176
     1
 91
        4
176
     1
 64
     7
176
     1
 65
   257
176
     1
 75
     1
176
     1
175
     1
176
     1
 42
1.0
176
     1
 92
        0
176
     1
 66
   257
176
     1
 43
1.0
176
     1
 76
     1
176
     1
 77
     6
176
     1
 78
     2
176
     1
 67
     7
176
     1
 79
     5
176
     1
170
     0
176
     1
171
     0
176
     1
290
     0
176
     1
 93
        1
176
     1
 44
0.0
176
     1
173
     0
176
     1
  0
VISUALSTYLE
  5
31
102
{ACAD_REACTORS
330
2A
102
}
330
2A
100
AcDbVisualStyle
  2
3D Hidden
 70
     6
177
     2
291
     0
 71
     1
176
     1
 72
     2
176
     1
 73
     2
176
     1
 90
        0
176
     1
 40
-0.6
176
     1
 41
-30.0
176
     1
 62
     5
 63
     7
421
 16777215
176
     1
 74
     2
176
     1
 91
        2
176
     1
 64
     7
176
     1
 65
   257
176
     1
 75
     2
176
     1
175
     1
176
     1
 42
40.0
176
     1
 92
        0
176
     1
 66
   257
176
     1
 43
1.0
176
     1
 76
     1
176
     1
 77
     6
176
     1
 78
     2
176
     1
 67
     7
176
     1
 79
     3
176
     1
170
     0
176
     1
171
     0
176
     1
290
     0
176
     1
 93
        1
176
     1
 44
0.0
176
     1
173
     0
176
     1
  0
VISUALSTYLE
  5
30
102
{ACAD_REACTORS
330
2A
102
}
330
2A
100
AcDbVisualStyle
  2
3dWireframe
 70
     5
177
     2
291
     0
 71
     0
176
     1
 72
     2
176
     1
 73
     0
176
     1
 90
        0
176
     1
 40
-0.6
176
     1
 41
-30.0
176
     1
 62
     5
 63
     7
421
 16777215
176
     1
 74
     1
176
     1
 91
        4
176
     1
 64
     7
176
     1
 65
   257
176
     1
 75
     1
176
     1
175
     1
176
     1
 42
1.0
176
     1
 92
        0
176
     1
 66
   257
176
     1
 43
1.0
176
     1
 76
     1
176
     1
 77
     6
176
     1
 78
     2
176
     1
 67
     7
176
     1
 79
     5
176
     1
170
     0
176
     1
171
     0
176
     1
290
     0
176
     1
 93
        1
176
     1
 44
0.0
176
     1
173
     0
176
     1
  0
VISUALSTYLE
  5
32
102
{ACAD_REACTORS
330
2A
102
}
330
2A
100
AcDbVisualStyle
  2
Basic
 70
     7
177
     2
291
     1
 71
     1
176
     1
 72
     0
176
     1
 73
     1
176
     1
 90
        0
176
     1
 40
-0.6
176
     1
 41
-30.0
176
     1
 62
     5
 63
     7
421
 16777215
176
     1
 74
     0
176
     1
 91
        4
176
     1
 64
     7
176
     1
 65
   257
176
     1
 75
     1
176
     1
175
     1
176
     1
 42
1.0
176
     1
 92
        8
176
     1
 66
     7
176
     1
 43
1.0
176
     1
 76
     1
176
     1
 77
     6
176
     1
 78
     2
176
     1
 67
     7
176
     1
 79
     5
176
     1
170
     0
176
     1
171
     0
176
     1
290
     0
176
     1
 93
        1
176
     1
 44
0.0
176
     1
173
     0
176
     1
  0
VISUALSTYLE
  5
36
102
{ACAD_REACTORS
330
2A
102
}
330
2A
100
AcDbVisualStyle
  2
Brighten
 70
    12
177
     2
291
     1
 71
     2
176
     1
 72
     2
176
     1
 73
     0
176
     1
 90
        0
176
     1
 40
-0.6
176
     1
 41
-30.0
176
     1
 62
     5
 63
     7
421
 16777215
176
     1
 74
     1
176
     1
 91
        4
176
     1
 64
     7
176
     1
 65
   257
176
     1
 75
     1
176
     1
175
     1
176
     1
 42
1.0
176
     1
 92
        8
176
     1
 66
     7
176
     1
 43
1.0
176
     1
 76
     1
176
     1
 77
     6
176
     1
 78
     2
176
     1
 67
     7
176
     1
 79
     5
176
     1
170
     0
176
     1
171
     0
176
     1
290
     0
176
     1
 93
        1
176
     1
 44
50.0
176
     1
173
     0
176
     1
  0
VISUALSTYLE
  5
3A
102
{ACAD_REACTORS
330
2A
102
}
330
2A
100
AcDbVisualStyle
  2
ColorChange
 70
    16
177
     2
291
     1
 71
     2
176
     1
 72
     2
176
     1
 73
     3
176
     1
 90
        0
176
     1
 40
-0.6
176
     1
 41
-30.0
176
     1
 62
     5
 63
     8
421
  8421504
176
     1
 74
     1
176
     1
 91
        4
176
     1
 64
     7
176
     1
 65
   257
176
     1
 75
     1
176
     1
175
     1
176
     1
 42
1.0
176
     1
 92
        8
176
     1
 66
     8
424
  8421504
176
     1
 43
1.0
176
     1
 76
     1
176
     1
 77
     6
176
     1
 78
     2
176
     1
 67
     7
176
     1
 79
     5
176
     1
170
     0
176
     1
171
     0
176
     1
290
     0
176
     1
 93
        1
176
     1
 44
0.0
176
     1
173
     0
176
     1
  0
VISUALSTYLE
  5
34
102
{ACAD_REACTORS
330
2A
102
}
330
2A
100
AcDbVisualStyle
  2
Conceptual
 70
     9
177
     2
291
     0
 71
     3
176
     1
 72
     2
176
     1
 73
     0
176
     1
 90
        0
176
     1
 40
-0.6
176
     1
 41
-30.0
176
     1
 62
     5
 63
     7
421
 16777215
176
     1
 74
     2
176
     1
 91
        2
176
     1
 64
     7
176
     1
 65
   257
176
     1
 75
     1
176
     1
175
     1
176
     1
 42
40.0
176
     1
 92
        8
176
     1
 66
     7
176
     1
 43
1.0
176
     1
 76
     1
176
     1
 77
     6
176
     1
 78
     2
176
     1
 67
     7
176
     1
 79
     3
176
     1
170
     0
176
     1
171
     0
176
     1
290
     0
176
     1
 93
        1
176
     1
 44
0.0
176
     1
173
     0
176
     1
  0
VISUALSTYLE
  5
35
102
{ACAD_REACTORS
330
2A
102
}
330
2A
100
AcDbVisualStyle
  2
Dim
 70
    11
177
     2
291
     1
 71
     2
176
     1
 72
     2
176
     1
 73
     0
176
     1
 90
        0
176
     1
 40
-0.6
176
     1
 41
-30.0
176
     1
 62
     5
 63
     7
421
 16777215
176
     1
 74
     1
176
     1
 91
        4
176
     1
 64
     7
176
     1
 65
   257
176
     1
 75
     1
176
     1
175
     1
176
     1
 42
1.0
176
     1
 92
        8
176
     1
 66
     7
176
     1
 43
1.0
176
     1
 76
     1
176
     1
 77
     6
176
     1
 78
     2
176
     1
 67
     7
176
     1
 79
     5
176
     1
170
     0
176
     1
171
     0
176
     1
290
     0
176
     1
 93
        1
176
     1
 44
-50.0
176
     1
173
     0
176
     1
  0
VISUALSTYLE
  5
39
102
{ACAD_REACTORS
330
2A
102
}
330
2A
100
AcDbVisualStyle
  2
Facepattern
 70
    15
177
     2
291
     1
 71
     2
176
     1
 72
     2
176
     1
 73
     0
176
     1
 90
        0
176
     1
 40
-0.6
176
     1
 41
-30.0
176
     1
 62
     5
 63
     7
421
 16777215
176
     1
 74
     1
176
     1
 91
        4
176
     1
 64
     7
176
     1
 65
   257
176
     1
 75
     1
176
     1
175
     1
176
     1
 42
1.0
176
     1
 92
        8
176
     1
 66
     7
176
     1
 43
1.0
176
     1
 76
     1
176
     1
 77
     6
176
     1
 78
     2
176
     1
 67
     7
176
     1
 79
     5
176
     1
170
     0
176
     1
171
     0
176
     1
290
     0
176
     1
 93
        1
176
     1
 44
0.0
176
     1
173
     0
176
     1
  0
VISUALSTYLE
  5
2B
102
{ACAD_REACTORS
330
2A
102
}
330
2A
100
AcDbVisualStyle
  2
Flat
 70
     0
177
     2
291
     1
 71
     2
176
     1
 72
     1
176
     1
 73
     1
176
     1
 90
        2
176
     1
 40
-0.6
176
     1
 41
30.0
176
     1
 62
     5
 63
     7
421
 16777215
176
     1
 74
     0
176
     1
 91
        4
176
     1
 64
     7
176
     1
 65
   257
176
     1
 75
     1
176
     1
175
     1
176
     1
 42
1.0
176
     1
 92
        8
176
     1
 66
     7
176
     1
 43
1.0
176
     1
 76
     1
176
     1
 77
     6
176
     1
 78
     2
176
     1
 67
     7
176
     1
 79
     5
176
     1
170
     0
176
     1
171
     0
176
     1
290
     0
176
     1
 93
       13
176
     1
 44
0.0
176
     1
173
     0
176
     1
  0
VISUALSTYLE
  5
2C
102
{ACAD_REACTORS
330
2A
102
}
330
2A
100
AcDbVisualStyle
  2
FlatWithEdges
 70
     1
177
     2
291
     1
 71
     2
176
     1
 72
     1
176
     1
 73
     1
176
     1
 90
        2
176
     1
 40
-0.6
176
     1
 41
30.0
176
     1
 62
     5
 63
     7
421
 16777215
176
     1
 74
     1
176
     1
 91
        4
176
     1
 64
     7
176
     1
 65
   257
176
     1
 75
     1
176
     1
175
     1
176
     1
 42
1.0
176
     1
 92
        0
176
     1
 66
   257
176
     1
 43
1.0
176
     1
 76
     1
176
     1
 77
     6
176
     1
 78
     2
176
     1
 67
     7
176
     1
 79
     5
176
     1
170
     0
176
     1
171
     0
176
     1
290
     0
176
     1
 93
       13
176
     1
 44
0.0
176
     1
173
     0
176
     1
  0
VISUALSTYLE
  5
2D
102
{ACAD_REACTORS
330
2A
102
}
330
2A
100
AcDbVisualStyle
  2
Gouraud
 70
     2
177
     2
291
     1
 71
     2
176
     1
 72
     2
176
     1
 73
     1
176
     1
 90
        2
176
     1
 40
-0.6
176
     1
 41
30.0
176
     1
 62
     5
 63
     7
421
 16777215
176
     1
 74
     0
176
     1
 91
        4
176
     1
 64
     7
176
     1
 65
   257
176
     1
 75
     1
176
     1
175
     1
176
     1
 42
1.0
176
     1
 92
        0
176
     1
 66
     7
176
     1
 43
1.0
176
     1
 76
     1
176
     1
 77
     6
176
     1
 78
     2
176
     1
 67
     7
176
     1
 79
     5
176
     1
170
     0
176
     1
171
     0
176
     1
290
     0
176
     1
 93
       13
176
     1
 44
0.0
176
     1
173
     0
176
     1
  0
VISUALSTYLE
  5
2E
102
{ACAD_REACTORS
330
2A
102
}
330
2A
100
AcDbVisualStyle
  2
GouraudWithEdges
 70
     3
177
     2
291
     1
 71
     2
176
     1
 72
     2
176
     1
 73
     1
176
     1
 90
        2
176
     1
 40
-0.6
176
     1
 41
30.0
176
     1
 62
     5
 63
     7
421
 16777215
176
     1
 74
     1
176
     1
 91
        4
176
     1
 64
     7
176
     1
 65
   257
176
     1
 75
     1
176
     1
175
     1
176
     1
 42
1.0
176
     1
 92
        0
176
     1
 66
   257
176
     1
 43
1.0
176
     1
 76
     1
176
     1
 77
     6
176
     1
 78
     2
176
     1
 67
     7
176
     1
 79
     5
176
     1
170
     0
176
     1
171
     0
176
     1
290
     0
176
     1
 93
       13
176
     1
 44
0.0
176
     1
173
     0
176
     1
  0
VISUALSTYLE
  5
38
102
{ACAD_REACTORS
330
2A
102
}
330
2A
100
AcDbVisualStyle
  2
Linepattern
 70
    14
177
     2
291
     1
 71
     2
176
     1
 72
     2
176
     1
 73
     0
176
     1
 90
        0
176
     1
 40
-0.6
176
     1
 41
-30.0
176
     1
 62
     5
 63
     7
421
 16777215
176
     1
 74
     1
176
     1
 91
        4
176
     1
 64
     7
176
     1
 65
   257
176
     1
 75
     7
176
     1
175
     7
176
     1
 42
1.0
176
     1
 92
        8
176
     1
 66
     7
176
     1
 43
1.0
176
     1
 76
     1
176
     1
 77
     6
176
     1
 78
     2
176
     1
 67
     7
176
     1
 79
     5
176
     1
170
     0
176
     1
171
     0
176
     1
290
     0
176
     1
 93
        1
176
     1
 44
0.0
176
     1
173
     0
176
     1
  0
VISUALSTYLE
  5
33
102
{ACAD_REACTORS
330
2A
102
}
330
2A
100
AcDbVisualStyle
  2
Realistic
 70
     8
177
     2
291
     0
 71
     2
176
     1
 72
     2
176
     1
 73
     0
176
     1
 90
        0
176
     1
 40
-0.6
176
     1
 41
-30.0
176
     1
 62
     5
 63
     7
421
 16777215
176
     1
 74
     1
176
     1
 91
        0
176
     1
 64
     7
176
     1
 65
   257
176
     1
 75
     1
176
     1
175
     1
176
     1
 42
1.0
176
     1
 92
        8
176
     1
 66
     8
424
  7895160
176
     1
 43
1.0
176
     1
 76
     1
176
     1
 77
     6
176
     1
 78
     2
176
     1
 67
     7
176
     1
 79
     5
176
     1
170
     0
176
     1
171
     0
176
     1
290
     0
176
     1
 93
       13
176
     1
 44
0.0
176
     1
173
     0
176
     1
  0
VISUALSTYLE
  5
37
102
{ACAD_REACTORS
330
2A
102
}
330
2A
100
AcDbVisualStyle
  2
Thicken
 70
    13
177
     2
291
     1
 71
     2
176
     1
 72
     2
176
     1
 73
     0
176
     1
 90
        0
176
     1
 40
-0.6
176
     1
 41
-30.0
176
     1
 62
     5
 63
     7
421
 16777215
176
     1
 74
     1
176
     1
 91
        4
176
     1
 64
     7
176
     1
 65
   257
176
     1
 75
     1
176
     1
175
     1
176
     1
 42
1.0
176
     1
 92
       12
176
     1
 66
     7
176
     1
 43
1.0
176
     1
 76
     1
176
     1
 77
     6
176
     1
 78
     2
176
     1
 67
     7
176
     1
 79
     5
176
     1
170
     0
176
     1
171
     0
176
     1
290
     0
176
     1
 93
        1
176
     1
 44
0.0
176
     1
173
     0
176
     1
  0
ENDSEC
  0
EOF
