  0
SECTION
  2
HEADER
  9
$ACADVER
  1
AC1024
  9
$ACADMAINTVER
 70
     6
  9
$DWGCODEPAGE
  3
ANSI_1252
  9
$INSBASE
 10
0.0
 20
0.0
 30
0.0
  9
$EXTMIN
 10
0.0
 20
0.0
 30
0.0
  9
$EXTMAX
 10
594.0
 20
841.0
 30
0.0
  9
$LIMMIN
 10
0.0
 20
0.0
  9
$LIMMAX
 10
594.0
 20
841.0
  9
$ORTHOMODE
 70
     0
  9
$REGENMODE
 70
     1
  9
$FILLMODE
 70
     1
  9
$QTEXTMODE
 70
     0
  9
$MIRRTEXT
 70
     1
  9
$LTSCALE
 40
1.0
  9
$ATTMODE
 70
     1
  9
$TEXTSIZE
 40
10.0
  9
$TRACEWID
 40
1.0
  9
$TEXTSTYLE
  7
Standard
  9
$CLAYER
  8
0
  9
$CELTYPE
  6
ByLayer
  9
$CECOLOR
 62
   256
  9
$CELTSCALE
 40
1.0
  9
$DISPSILH
 70
     0
  9
$DIMSCALE
 40
1.0
  9
$DIMASZ
 40
2.5
  9
$DIMEXO
 40
0.0
  9
$DIMDLI
 40
3.75
  9
$DIMRND
 40
0.0
  9
$DIMDLE
 40
0.0
  9
$DIMEXE
 40
1.0
  9
$DIMTP
 40
0.0
  9
$DIMTM
 40
0.0
  9
$DIMTXT
 40
3.5
  9
$DIMCEN
 40
2.5
  9
$DIMTSZ
 40
0.0
  9
$DIMTOL
 70
     0
  9
$DIMLIM
 70
     0
  9
$DIMTIH
 70
     1
  9
$DIMTOH
 70
     1
  9
$DIMSE1
 70
     0
  9
$DIMSE2
 70
     0
  9
$DIMTAD
 70
     1
  9
$DIMZIN
 70
     0
  9
$DIMBLK
  1

  9
$DIMASO
 70
     1
  9
$DIMSHO
 70
     1
  9
$DIMPOST
  1

  9
$DIMAPOST
  1

  9
$DIMALT
 70
     0
  9
$DIMALTD
 70
     3
  9
$DIMALTF
 40
0.0393700787
  9
$DIMLFAC
 40
1.0
  9
$DIMTOFL
 70
     1
  9
$DIMTVP
 40
0.0
  9
$DIMTIX
 70
     0
  9
$DIMSOXD
 70
     0
  9
$DIMSAH
 70
     0
  9
$DIMBLK1
  1

  9
$DIMBLK2
  1

  9
$DIMSTYLE
  2
ISO-25
  9
$DIMCLRD
 70
     0
  9
$DIMCLRE
 70
     0
  9
$DIMCLRT
 70
     0
  9
$DIMTFAC
 40
1.0
  9
$DIMGAP
 40
1.5
  9
$DIMJUST
 70
     0
  9
$DIMSD1
 70
     0
  9
$DIMSD2
 70
     0
  9
$DIMTOLJ
 70
     0
  9
$DIMTZIN
 70
     0
  9
$DIMALTZ
 70
     0
  9
$DIMALTTZ
 70
     0
  9
$DIMUPT
 70
     0
  9
$DIMDEC
 70
     2
  9
$DIMTDEC
 70
     2
  9
$DIMALTU
 70
     2
  9
$DIMALTTD
 70
     3
  9
$DIMTXSTY
  7
Standard
  9
$DIMAUNIT
 70
     0
  9
$DIMADEC
 70
     2
  9
$DIMALTRND
 40
0.0
  9
$DIMAZIN
 70
     0
  9
$DIMDSEP
 70
    44
  9
$DIMATFIT
 70
     3
  9
$DIMFRAC
 70
     0
  9
$DIMLDRBLK
  1

  9
$DIMLUNIT
 70
     2
  9
$DIMLWD
 70
    -2
  9
$DIMLWE
 70
    -2
  9
$DIMTMOVE
 70
     0
  9
$DIMFXL
 40
1.0
  9
$DIMFXLON
 70
     0
  9
$DIMJOGANG
 40
0.7853981634
  9
$DIMTFILL
 70
     0
  9
$DIMTFILLCLR
 70
     0
  9
$DIMARCSYM
 70
     0
  9
$DIMLTYPE
  6

  9
$DIMLTEX1
  6

  9
$DIMLTEX2
  6

  9
$DIMTXTDIRECTION
 70
     0
  9
$LUNITS
 70
     2
  9
$LUPREC
 70
     2
  9
$SKETCHINC
 40
1.0
  9
$FILLETRAD
 40
10.0
  9
$AUNITS
 70
     0
  9
$AUPREC
 70
     2
  9
$MENU
  1
.
  9
$ELEVATION
 40
0.0
  9
$PELEVATION
 40
0.0
  9
$THICKNESS
 40
0.0
  9
$LIMCHECK
 70
     0
  9
$CHAMFERA
 40
10.0
  9
$CHAMFERB
 40
10.0
  9
$CHAMFERC
 40
20.0
  9
$CHAMFERD
 40
0.0
  9
$SKPOLY
 70
     0
  9
$TDCREATE
 40
2456149.569340255
  9
$TDUCREATE
 40
2456149.486006921
  9
$TDUPDATE
 40
2456149.569340266
  9
$TDUUPDATE
 40
2456149.486006933
  9
$TDINDWG
 40
0.0000000116
  9
$TDUSRTIMER
 40
0.0000000116
  9
$USRTIMER
 70
     1
  9
$ANGBASE
 50
0.0
  9
$ANGDIR
 70
     0
  9
$PDMODE
 70
     0
  9
$PDSIZE
 40
-1.0
  9
$PLINEWID
 40
0.0
  9
$SPLFRAME
 70
     0
  9
$SPLINETYPE
 70
     6
  9
$SPLINESEGS
 70
     8
  9
$HANDSEED
  5
17C
  9
$SURFTAB1
 70
     6
  9
$SURFTAB2
 70
     6
  9
$SURFTYPE
 70
     6
  9
$SURFU
 70
     6
  9
$SURFV
 70
     6
  9
$UCSBASE
  2

  9
$UCSNAME
  2

  9
$UCSORG
 10
0.0
 20
0.0
 30
0.0
  9
$UCSXDIR
 10
1.0
 20
0.0
 30
0.0
  9
$UCSYDIR
 10
0.0
 20
1.0
 30
0.0
  9
$UCSORTHOREF
  2

  9
$UCSORTHOVIEW
 70
     0
  9
$UCSORGTOP
 10
0.0
 20
0.0
 30
0.0
  9
$UCSORGBOTTOM
 10
0.0
 20
0.0
 30
0.0
  9
$UCSORGLEFT
 10
0.0
 20
0.0
 30
0.0
  9
$UCSORGRIGHT
 10
0.0
 20
0.0
 30
0.0
  9
$UCSORGFRONT
 10
0.0
 20
0.0
 30
0.0
  9
$UCSORGBACK
 10
0.0
 20
0.0
 30
0.0
  9
$PUCSBASE
  2

  9
$PUCSNAME
  2

  9
$PUCSORG
 10
0.0
 20
0.0
 30
0.0
  9
$PUCSXDIR
 10
1.0
 20
0.0
 30
0.0
  9
$PUCSYDIR
 10
0.0
 20
1.0
 30
0.0
  9
$PUCSORTHOREF
  2

  9
$PUCSORTHOVIEW
 70
     0
  9
$PUCSORGTOP
 10
0.0
 20
0.0
 30
0.0
  9
$PUCSORGBOTTOM
 10
0.0
 20
0.0
 30
0.0
  9
$PUCSORGLEFT
 10
0.0
 20
0.0
 30
0.0
  9
$PUCSORGRIGHT
 10
0.0
 20
0.0
 30
0.0
  9
$PUCSORGFRONT
 10
0.0
 20
0.0
 30
0.0
  9
$PUCSORGBACK
 10
0.0
 20
0.0
 30
0.0
  9
$USERI1
 70
     0
  9
$USERI2
 70
     0
  9
$USERI3
 70
     0
  9
$USERI4
 70
     0
  9
$USERI5
 70
     0
  9
$USERR1
 40
0.0
  9
$USERR2
 40
0.0
  9
$USERR3
 40
0.0
  9
$USERR4
 40
0.0
  9
$USERR5
 40
0.0
  9
$WORLDVIEW
 70
     1
  9
$SHADEDGE
 70
     3
  9
$SHADEDIF
 70
    70
  9
$TILEMODE
 70
     1
  9
$MAXACTVP
 70
    64
  9
$PINSBASE
 10
0.0
 20
0.0
 30
0.0
  9
$PLIMCHECK
 70
     0
  9
$PEXTMIN
 10
1.0000000000E+20
 20
1.0000000000E+20
 30
1.0000000000E+20
  9
$PEXTMAX
 10
-1.0000000000E+20
 20
-1.0000000000E+20
 30
-1.0000000000E+20
  9
$PLIMMIN
 10
0.0
 20
0.0
  9
$PLIMMAX
 10
420.0
 20
297.0
  9
$UNITMODE
 70
     0
  9
$VISRETAIN
 70
     1
  9
$PLINEGEN
 70
     0
  9
$PSLTSCALE
 70
     1
  9
$TREEDEPTH
 70
  3020
  9
$CMLSTYLE
  2
Standard
  9
$CMLJUST
 70
     0
  9
$CMLSCALE
 40
20.0
  9
$PROXYGRAPHICS
 70
     1
  9
$MEASUREMENT
 70
     1
  9
$CELWEIGHT
370
    -1
  9
$ENDCAPS
280
     0
  9
$JOINSTYLE
280
     0
  9
$LWDISPLAY
290
     1
  9
$INSUNITS
 70
     4
  9
$HYPERLINKBASE
  1

  9
$STYLESHEET
  1

  9
$XEDIT
290
     1
  9
$CEPSNTYPE
380
     0
  9
$PSTYLEMODE
290
     1
  9
$FINGERPRINTGUID
  2
{62ABE1C8-F4F9-4AC0-84A5-371039BF0BBA}
  9
$VERSIONGUID
  2
{FAEB1C32-E019-11D5-929B-00C0DF256EC4}
  9
$EXTNAMES
290
     1
  9
$PSVPSCALE
 40
0.0
  9
$OLESTARTUP
290
     0
  9
$SORTENTS
280
   127
  9
$INDEXCTL
280
     0
  9
$HIDETEXT
280
     1
  9
$XCLIPFRAME
280
     2
  9
$HALOGAP
280
     0
  9
$OBSCOLOR
 70
   257
  9
$OBSLTYPE
280
     0
  9
$INTERSECTIONDISPLAY
280
     0
  9
$INTERSECTIONCOLOR
 70
   257
  9
$DIMASSOC
280
     2
  9
$PROJECTNAME
  1

  9
$CAMERADISPLAY
290
     0
  9
$LENSLENGTH
 40
50.0
  9
$CAMERAHEIGHT
 40
0.0
  9
$STEPSPERSEC
 40
2.0
  9
$STEPSIZE
 40
6.0
  9
$3DDWFPREC
 40
2.0
  9
$PSOLWIDTH
 40
5.0
  9
$PSOLHEIGHT
 40
80.0
  9
$LOFTANG1
 40
1.5707963268
  9
$LOFTANG2
 40
1.5707963268
  9
$LOFTMAG1
 40
0.0
  9
$LOFTMAG2
 40
0.0
  9
$LOFTPARAM
 70
     7
  9
$LOFTNORMALS
280
     1
  9
$LATITUDE
 40
37.795
  9
$LONGITUDE
 40
-122.394
  9
$NORTHDIRECTION
 40
0.0
  9
$TIMEZONE
 70
 -8000
  9
$LIGHTGLYPHDISPLAY
280
     1
  9
$TILEMODELIGHTSYNCH
280
     1
  9
$SOLIDHIST
280
     1
  9
$SHOWHIST
280
     1
  9
$DWFFRAME
280
     2
  9
$DGNFRAME
280
     2
  9
$REALWORLDSCALE
290
     1
  9
$INTERFERECOLOR
 62
   256
  9
$CSHADOW
280
     0
  9
$SHADOWPLANELOCATION
 40
0.0
  0
ENDSEC
  0
SECTION
  2
CLASSES
  0
CLASS
  1
ACDBDICTIONARYWDFLT
  2
AcDbDictionaryWithDefault
  3
ObjectDBX Classes
 90
        0
 91
        4
280
     0
281
     0
  0
CLASS
  1
VISUALSTYLE
  2
AcDbVisualStyle
  3
ObjectDBX Classes
 90
     4095
 91
        4
280
     0
281
     0
  0
CLASS
  1
MATERIAL
  2
AcDbMaterial
  3
ObjectDBX Classes
 90
     1153
 91
        4
280
     0
281
     0
  0
ENDSEC
  0
SECTION
  2
TABLES
  0
TABLE
  2
VPORT
  5
8
330
0
100
AcDbSymbolTable
 70
     1
  0
VPORT
  5
29
330
8
100
AcDbSymbolTableRecord
100
AcDbViewportTableRecord
  2
*Active
 70
     0
 10
0.0
 20
0.0
 11
1.0
 21
1.0
 12
297.0
 22
420.5
 13
0.0
 23
0.0
 14
10.0
 24
10.0
 15
10.0
 25
10.0
 16
0.0
 26
0.0
 36
1.0
 17
0.0
 27
0.0
 37
0.0
 40
841.0
 41
0.7063020214
 42
50.0
 43
0.0
 44
0.0
 50
0.0
 51
0.0
 71
     0
 72
  2000
 73
     1
 74
     3
 75
     0
 76
     0
 77
     0
 78
     0
281
     0
 65
     1
110
0.0
120
0.0
130
0.0
111
1.0
121
0.0
131
0.0
112
0.0
122
1.0
132
0.0
 79
     0
146
0.0
 60
     3
 61
     5
292
     1
282
     1
141
0.0
142
0.0
 63
   250
  0
ENDTAB
  0
TABLE
  2
LTYPE
  5
5
330
0
100
AcDbSymbolTable
 70
     6
  0
LTYPE
  5
14
330
5
100
AcDbSymbolTableRecord
100
AcDbLinetypeTableRecord
  2
ByBlock
 70
     0
  3

 72
    65
 73
     0
 40
0.0
  0
LTYPE
  5
15
330
5
100
AcDbSymbolTableRecord
100
AcDbLinetypeTableRecord
  2
ByLayer
 70
     0
  3

 72
    65
 73
     0
 40
0.0
  0
LTYPE
  5
16
330
5
100
AcDbSymbolTableRecord
100
AcDbLinetypeTableRecord
  2
Continuous
 70
     0
  3
Solid line
 72
    65
 73
     0
 40
0.0
  0
LTYPE
  5
3F
330
5
100
AcDbSymbolTableRecord
100
AcDbLinetypeTableRecord
  2
HIDDEN
 70
     0
  3
Hidden __ __ __ __ __ __ __ __ __ __ __ __ __ __
 72
    65
 73
     2
 40
1.905
 49
1.27
 74
     0
 49
-0.635
 74
     0
  0
LTYPE
  5
40
330
5
100
AcDbSymbolTableRecord
100
AcDbLinetypeTableRecord
  2
PHANTOM
 70
     0
  3
Phantom ______  __  __  ______  __  __  ______
 72
    65
 73
     6
 40
12.7
 49
6.35
 74
     0
 49
-1.27
 74
     0
 49
1.27
 74
     0
 49
-1.27
 74
     0
 49
1.27
 74
     0
 49
-1.27
 74
     0
  0
LTYPE
  5
41
330
5
100
AcDbSymbolTableRecord
100
AcDbLinetypeTableRecord
  2
CENTER
 70
     0
  3
Center ____ _ ____ _ ____ _ ____ _ ____ _ ____
 72
    65
 73
     4
 40
10.16
 49
6.35
 74
     0
 49
-1.27
 74
     0
 49
1.27
 74
     0
 49
-1.27
 74
     0
  0
LTYPE
  5
42
330
5
100
AcDbSymbolTableRecord
100
AcDbLinetypeTableRecord
  2
CENTERX2
 70
     0
  3
Center (2x) ________  __  ________  __  _____
 72
    65
 73
     4
 40
20.32
 49
12.7
 74
     0
 49
-2.54
 74
     0
 49
2.54
 74
     0
 49
-2.54
 74
     0
  0
LTYPE
  5
43
330
5
100
AcDbSymbolTableRecord
100
AcDbLinetypeTableRecord
  2
DOT2
 70
     0
  3
Dot (.5x) ........................................
 72
    65
 73
     2
 40
0.635
 49
0.0
 74
     0
 49
-0.635
 74
     0
  0
ENDTAB
  0
TABLE
  2
LAYER
  5
2
330
0
100
AcDbSymbolTable
 70
     1
  0
LAYER
  5
10
330
2
100
AcDbSymbolTableRecord
100
AcDbLayerTableRecord
  2
0
 70
     0
 62
     7
  6
Continuous
370
    -3
390
F
347
3E
  0
ENDTAB
  0
TABLE
  2
STYLE
  5
3
330
0
100
AcDbSymbolTable
 70
     3
  0
STYLE
  5
11
330
3
100
AcDbSymbolTableRecord
100
AcDbTextStyleTableRecord
  2
Standard
 70
     0
 40
0.0
 41
1.0
 50
0.0
 71
     0
 42
2.5
  3
txt
  4

  0
STYLE
  5
47
330
3
100
AcDbSymbolTableRecord
100
AcDbTextStyleTableRecord
  2
SLDTEXTSTYLE0
 70
     0
 40
0.0
 41
0.96
 50
0.0
 71
     0
 42
0.2
  3
ISOCP3
  4

  0
STYLE
  5
5E
330
3
100
AcDbSymbolTableRecord
100
AcDbTextStyleTableRecord
  2
SLDTEXTSTYLE1
 70
     0
 40
0.0
 41
0.605
 50
0.0
 71
     0
 42
0.2
  3
TXT
  4

  0
ENDTAB
  0
TABLE
  2
VIEW
  5
6
330
0
100
AcDbSymbolTable
 70
     0
  0
ENDTAB
  0
TABLE
  2
UCS
  5
7
330
0
100
AcDbSymbolTable
 70
     0
  0
ENDTAB
  0
TABLE
  2
APPID
  5
9
330
0
100
AcDbSymbolTable
 70
     1
  0
APPID
  5
12
330
9
100
AcDbSymbolTableRecord
100
AcDbRegAppTableRecord
  2
ACAD
 70
     0
  0
ENDTAB
  0
TABLE
  2
DIMSTYLE
  5
A
330
0
100
AcDbSymbolTable
 70
     2
100
AcDbDimStyleTable
  0
DIMSTYLE
105
27
330
A
100
AcDbSymbolTableRecord
100
AcDbDimStyleTableRecord
  2
ISO-25
 70
     0
 41
2.5
 42
0.625
 43
3.75
 44
1.25
 73
     0
 74
     0
 77
     1
 78
     8
140
2.5
141
2.5
143
0.0393700787
147
0.625
171
     3
172
     1
178
     0
271
     2
272
     2
274
     3
278
    44
283
     0
284
     8
340
11
  0
DIMSTYLE
105
48
102
{ACAD_REACTORS
330
46
330
53
102
}
330
A
100
AcDbSymbolTableRecord
100
AcDbDimStyleTableRecord
  2
SLDDIMSTYLE0
 70
     0
 41
2.5
 44
0.0
 45
0.000000001
 73
     0
 74
     0
 77
     1
 78
    12
 79
     3
140
6.0
147
1.5
173
     1
178
     0
271
     2
272
     2
276
     2
284
    12
340
47
  0
ENDTAB
  0
TABLE
  2
BLOCK_RECORD
  5
1
330
0
100
AcDbSymbolTable
 70
     3
  0
BLOCK_RECORD
  5
1F
330
1
100
AcDbSymbolTableRecord
100
AcDbBlockTableRecord
  2
*Model_Space
340
22
 70
     0
280
     1
281
     0
  0
BLOCK_RECORD
  5
1B
330
1
100
AcDbSymbolTableRecord
100
AcDbBlockTableRecord
  2
*Paper_Space
340
1E
 70
     0
280
     1
281
     0
  0
BLOCK_RECORD
  5
23
330
1
100
AcDbSymbolTableRecord
100
AcDbBlockTableRecord
  2
*Paper_Space0
340
26
 70
     0
280
     1
281
     0
  0
BLOCK_RECORD
  5
49
330
1
100
AcDbSymbolTableRecord
100
AcDbBlockTableRecord
  2
*D1
340
0
 70
     0
280
     1
281
     0
  0
BLOCK_RECORD
  5
54
330
1
100
AcDbSymbolTableRecord
100
AcDbBlockTableRecord
  2
*D2
340
0
 70
     0
280
     1
281
     0
  0
ENDTAB
  0
ENDSEC
  0
SECTION
  2
BLOCKS
  0
BLOCK
  5
20
330
1F
100
AcDbEntity
  8
0
100
AcDbBlockBegin
  2
*Model_Space
 70
     0
 10
0.0
 20
0.0
 30
0.0
  3
*Model_Space
  1

  0
ENDBLK
  5
21
330
1F
100
AcDbEntity
  8
0
100
AcDbBlockEnd
  0
BLOCK
  5
1C
330
1B
100
AcDbEntity
 67
     1
  8
0
100
AcDbBlockBegin
  2
*Paper_Space
 70
     0
 10
0.0
 20
0.0
 30
0.0
  3
*Paper_Space
  1

  0
ENDBLK
  5
1D
330
1B
100
AcDbEntity
 67
     1
  8
0
100
AcDbBlockEnd
  0
BLOCK
  5
24
330
23
100
AcDbEntity
  8
0
100
AcDbBlockBegin
  2
*Paper_Space0
 70
     0
 10
0.0
 20
0.0
 30
0.0
  3
*Paper_Space0
  1

  0
ENDBLK
  5
25
330
23
100
AcDbEntity
  8
0
100
AcDbBlockEnd
  0
BLOCK
  5
4A
330
49
100
AcDbEntity
  8
0
100
AcDbBlockBegin
  2
*D1
 70
     1
 10
0.0
 20
0.0
 30
0.0
  3
*D1
  1

  0
SOLID
  5
4C
330
49
100
AcDbEntity
  8
0
  6
Continuous
 62
     7
370
     0
100
AcDbTrace
 10
42.7614395004
 20
152.0299240879
 30
0.0
 11
42.4614395004
 21
149.5299240879
 31
0.0
 12
43.0614395004
 22
149.5299240879
 32
0.0
 13
43.0614395004
 23
149.5299240879
 33
0.0
  0
SOLID
  5
4D
330
49
100
AcDbEntity
  8
0
  6
Continuous
 62
     7
370
     0
100
AcDbTrace
 10
42.7614395004
 20
52.0299240879
 30
0.0
 11
43.0614395004
 21
54.5299240879
 31
0.0
 12
42.4614395004
 22
54.5299240879
 32
0.0
 13
42.4614395004
 23
54.5299240879
 33
0.0
  0
LINE
  5
4E
330
49
100
AcDbEntity
  8
0
  6
Continuous
 62
     7
370
     0
100
AcDbLine
 10
56.6850079902
 20
152.0299240879
 30
0.0
 11
41.7614395004
 21
152.0299240879
 31
0.0
  0
LINE
  5
4F
330
49
100
AcDbEntity
  8
0
  6
Continuous
 62
     7
370
     0
100
AcDbLine
 10
56.6850079902
 20
52.0299240879
 30
0.0
 11
41.7614395004
 21
52.0299240879
 31
0.0
  0
LINE
  5
50
330
49
100
AcDbEntity
  8
0
  6
Continuous
 62
     7
370
     0
100
AcDbLine
 10
42.7614395004
 20
152.0299240879
 30
0.0
 11
42.7614395004
 21
52.0299240879
 31
0.0
  0
MTEXT
  5
51
330
49
100
AcDbEntity
  8
0
  6
Continuous
 62
     7
370
     0
100
AcDbMText
 10
35.0270332946
 20
91.6722208134
 30
0.1
 40
6.0
 41
0.0
 46
0.0
 71
     1
 72
     1
  1
100
  7
SLDTEXTSTYLE0
 11
-7.044195017643634E-15
 21
1.0
 31
0.0
 73
     1
 44
1.0
  0
MTEXT
  5
52
330
49
100
AcDbEntity
  8
0
  6
Continuous
 62
     7
370
     0
100
AcDbMText
 10
35.0270332946
 20
108.4388881795
 30
0.1
 40
6.0
 41
0.0
 46
0.0
 71
     1
 72
     1
  1
mm
  7
SLDTEXTSTYLE0
 11
-7.044195017643634E-15
 21
1.0
 31
0.0
 73
     1
 44
1.0
  0
ENDBLK
  5
4B
330
49
100
AcDbEntity
  8
0
100
AcDbBlockEnd
  0
BLOCK
  5
55
330
54
100
AcDbEntity
  8
0
100
AcDbBlockBegin
  2
*D2
 70
     1
 10
0.0
 20
0.0
 30
0.0
  3
*D2
  1

  0
SOLID
  5
57
330
54
100
AcDbEntity
  8
0
  6
Continuous
 62
     7
370
     0
100
AcDbTrace
 10
56.6850079902
 20
38.4602342313
 30
0.0
 11
59.1850079902
 21
38.1602342313
 31
0.0
 12
59.1850079902
 22
38.7602342313
 32
0.0
 13
59.1850079902
 23
38.7602342313
 33
0.0
  0
SOLID
  5
58
330
54
100
AcDbEntity
  8
0
  6
Continuous
 62
     7
370
     0
100
AcDbTrace
 10
156.6850079902
 20
38.4602342313
 30
0.0
 11
154.1850079902
 21
38.7602342313
 31
0.0
 12
154.1850079902
 22
38.1602342313
 32
0.0
 13
154.1850079902
 23
38.1602342313
 33
0.0
  0
LINE
  5
59
330
54
100
AcDbEntity
  8
0
  6
Continuous
 62
     7
370
     0
100
AcDbLine
 10
56.6850079902
 20
52.0299240879
 30
0.0
 11
56.6850079902
 21
37.4602342313
 31
0.0
  0
LINE
  5
5A
330
54
100
AcDbEntity
  8
0
  6
Continuous
 62
     7
370
     0
100
AcDbLine
 10
156.6850079902
 20
52.0299240879
 30
0.0
 11
156.6850079902
 21
37.4602342313
 31
0.0
  0
LINE
  5
5B
330
54
100
AcDbEntity
  8
0
  6
Continuous
 62
     7
370
     0
100
AcDbLine
 10
56.6850079902
 20
38.4602342313
 30
0.0
 11
156.6850079902
 21
38.4602342313
 31
0.0
  0
MTEXT
  5
5C
330
54
100
AcDbEntity
  8
0
  6
Continuous
 62
     7
370
     0
100
AcDbMText
 10
91.2668151533
 20
46.1946404371
 30
0.1
 40
6.0
 41
0.0
 46
0.0
 71
     1
 72
     1
  1
100
  7
SLDTEXTSTYLE0
 73
     1
 44
1.0
  0
MTEXT
  5
5D
330
54
100
AcDbEntity
  8
0
  6
Continuous
 62
     7
370
     0
100
AcDbMText
 10
108.0334825193
 20
46.1946404371
 30
0.1
 40
6.0
 41
0.0
 46
0.0
 71
     1
 72
     1
  1
mm
  7
SLDTEXTSTYLE0
 73
     1
 44
1.0
  0
ENDBLK
  5
56
330
54
100
AcDbEntity
  8
0
100
AcDbBlockEnd
  0
ENDSEC
  0
SECTION
  2
ENTITIES
  0
LINE
  5
44
330
1F
100
AcDbEntity
  8
0
  6
Continuous
 62
     7
370
     0
100
AcDbLine
 10
56.6850079902
 20
152.0299240879
 30
0.0
 11
56.6850079902
 21
52.0299240879
 31
0.0
  0
LINE
  5
45
330
1F
100
AcDbEntity
  8
0
  6
Continuous
 62
     7
370
     0
100
AcDbLine
 10
56.6850079902
 20
52.0299240879
 30
0.0
 11
156.6850079902
 21
52.0299240879
 31
0.0
  0
DIMENSION
  5
46
330
1F
100
AcDbEntity
  8
0
  6
Continuous
 62
     7
370
     0
100
AcDbDimension
280
     0
  2
*D1
 10
42.7614395004
 20
52.0299240879
 30
0.0
 11
42.7614395004
 21
105.4472211621
 31
0.0
 70
   160
  1
<>mm
 71
     2
 42
-1.0
 73
     0
 74
     0
 75
     0
  3
SLDDIMSTYLE0
100
AcDbAlignedDimension
 13
56.6850079902
 23
152.0299240879
 33
0.0
 14
56.6850079902
 24
52.0299240879
 34
0.0
 50
90.0
100
AcDbRotatedDimension
  0
DIMENSION
  5
53
330
1F
100
AcDbEntity
  8
0
  6
Continuous
 62
     7
370
     0
100
AcDbDimension
280
     0
  2
*D2
 10
156.6850079902
 20
38.4602342313
 30
0.0
 11
105.0418155019
 21
38.4602342313
 31
0.0
 70
   160
  1
<>mm
 71
     2
 42
-1.0
 73
     0
 74
     0
 75
     0
  3
SLDDIMSTYLE0
100
AcDbAlignedDimension
 13
56.6850079902
 23
52.0299240879
 33
0.0
 14
156.6850079902
 24
52.0299240879
 34
0.0
100
AcDbRotatedDimension
  0
MTEXT
  5
5F
330
1F
100
AcDbEntity
  8
0
  6
Continuous
 62
     7
370
     0
100
AcDbMText
 10
260.968718407
 20
47.3993048232
 30
0.0
 40
10.0
 41
0.0
 46
0.0
 71
     1
 72
     1
  1
53 298 05 75
  7
SLDTEXTSTYLE1
 73
     1
 44
1.0
  0
MTEXT
  5
60
330
1F
100
AcDbEntity
  8
0
  6
Continuous
 62
     7
370
     0
100
AcDbMText
 10
412.8252631579
 20
48.4342449499
 30
0.0
 40
10.0
 41
0.0
 46
0.0
 71
     1
 72
     1
  1
KLUDI GmbH & Co KG
  7
SLDTEXTSTYLE1
 73
     1
 44
1.0
  0
LINE
  5
61
330
1F
100
AcDbEntity
  8
0
  6
Continuous
 62
     7
370
    15
100
AcDbLine
 10
168.2148963562
 20
702.6452830874
 30
0.0
 11
168.2148963562
 21
702.9579765045
 31
0.0
  0
LINE
  5
62
330
1F
100
AcDbEntity
  8
0
  6
Continuous
 62
     7
370
    15
100
AcDbLine
 10
149.759696459
 20
702.9582596266
 30
0.0
 11
149.759696459
 21
702.6452830874
 31
0.0
  0
SPLINE
  5
63
330
1F
100
AcDbEntity
  8
0
  6
Continuous
 62
     7
370
    15
100
AcDbSpline
210
0.0
220
0.0
230
1.0
 70
     8
 71
     3
 72
     9
 73
     5
 74
     0
 42
0.00000001
 43
0.00000001
 40
0.0
 40
0.0
 40
0.0
 40
0.0
 40
0.2471876754238367
 40
0.9999999999999999
 40
0.9999999999999999
 40
0.9999999999999999
 40
0.9999999999999999
 10
126.0019863373847
 20
720.7632697069138
 30
0.0
 10
126.0155608085196
 20
720.6520052564268
 30
0.0
 10
126.070476455554
 20
720.2018839051251
 30
0.0
 10
126.1340125774074
 20
719.7571259959664
 30
0.0
 10
126.1818433529945
 20
719.4223067604988
 30
0.0
  0
SPLINE
  5
64
330
1F
100
AcDbEntity
  8
0
  6
Continuous
 62
     7
370
    15
100
AcDbSpline
210
0.0
220
0.0
230
1.0
 70
     8
 71
     3
 72
     9
 73
     5
 74
     0
 42
0.00000001
 43
0.00000001
 40
0.0
 40
0.0
 40
0.0
 40
0.0
 40
0.751845205380611
 40
1.0
 40
1.0
 40
1.0
 40
1.0
 10
191.7927475995632
 20
719.4223067604988
 30
0.0
 10
191.8405757487949
 20
719.7571270393681
 30
0.0
 10
191.9041901056991
 20
720.2024584406635
 30
0.0
 10
191.9591757345706
 20
720.6531615537344
 30
0.0
 10
191.9728206820102
 20
720.7650056921929
 30
0.0
  0
SPLINE
  5
65
330
1F
100
AcDbEntity
  8
0
  6
Continuous
 62
     7
370
    15
100
AcDbSpline
210
0.0
220
0.0
230
1.0
 70
     8
 71
     3
 72
    12
 73
     8
 74
     0
 42
0.00000001
 43
0.00000001
 40
0.0
 40
0.0
 40
0.0
 40
0.0
 40
0.2360545458738018
 40
0.4087733668594397
 40
0.5963652626387556
 40
0.8372154193869857
 40
1.0
 40
1.0
 40
1.0
 40
1.0
 10
189.6743426448913
 20
706.9652861797302
 30
0.0
 10
189.8445745801178
 20
707.8516301749992
 30
0.0
 10
190.1393635707385
 20
709.386503472188
 30
0.0
 10
190.5384473061789
 20
711.6202682611843
 30
0.0
 10
190.9711268957881
 20
714.106294076318
 30
0.0
 10
191.4310285640119
 20
716.8297734559391
 30
0.0
 10
191.6891188392419
 20
718.7564531864034
 30
0.0
 10
191.7932058102699
 20
719.5334768735855
 30
0.0
  0
SPLINE
  5
66
330
1F
100
AcDbEntity
  8
0
  6
Continuous
 62
     7
370
    15
100
AcDbSpline
210
0.0
220
0.0
230
1.0
 70
     8
 71
     3
 72
    12
 73
     8
 74
     0
 42
0.00000001
 43
0.00000001
 40
0.0
 40
0.0
 40
0.0
 40
0.0
 40
0.1566801409424243
 40
0.3987671612935536
 40
0.6395126603105024
 40
0.8707673058062194
 40
1.0
 40
1.0
 40
1.0
 40
1.0
 10
126.1950197047801
 20
719.4350621544808
 30
0.0
 10
126.2946846026715
 20
718.6914742538327
 30
0.0
 10
126.5483420743442
 20
716.7989661508265
 30
0.0
 10
127.0457806724068
 20
713.8580235233453
 30
0.0
 10
127.543553495315
 20
711.0029663709746
 30
0.0
 10
127.9520022257567
 20
708.7614159564108
 30
0.0
 10
128.210135867943
 20
707.4188774599572
 30
0.0
 10
128.3026753342958
 20
706.9375849210709
 30
0.0
  0
SPLINE
  5
67
330
1F
100
AcDbEntity
  8
0
  6
Continuous
 62
     7
370
    15
100
AcDbSpline
210
0.0
220
0.0
230
1.0
 70
     8
 71
     3
 72
    27
 73
    23
 74
     0
 42
0.00000001
 43
0.00000001
 40
0.0
 40
0.0
 40
0.0
 40
0.0
 40
0.0398579195234167
 40
0.0756697243405625
 40
0.1069411748338768
 40
0.1342191219661607
 40
0.1732603483915949
 40
0.2020865036977282
 40
0.2310480927804879
 40
0.2655069973379892
 40
0.2977214338869485
 40
0.3348717369656459
 40
0.3779547074563193
 40
0.4282479626020921
 40
0.4873537587221288
 40
0.5360448304879006
 40
0.5910776684509851
 40
0.6534193078909273
 40
0.7241667723089171
 40
0.8045579485039777
 40
0.8959836717470077
 40
1.0
 40
1.0
 40
1.0
 40
1.0
 10
128.1190445996137
 20
707.8986576640099
 30
0.0
 10
128.3017491174232
 20
706.8857494331565
 30
0.0
 10
128.6486111880913
 20
704.9627567750492
 30
0.0
 10
129.1562643482802
 20
702.2002325057392
 30
0.0
 10
129.605694838918
 20
699.7247881296455
 30
0.0
 10
130.0671235410377
 20
697.1209789363653
 30
0.0
 10
130.5063035432343
 20
694.5303256764444
 30
0.0
 10
130.9330241897389
 20
691.8255513856365
 30
0.0
 10
131.3173207655323
 20
689.201412399894
 30
0.0
 10
131.6858963064827
 20
686.4464894516556
 30
0.0
 10
132.0495249072148
 20
683.4251081558025
 30
0.0
 10
132.4022194900384
 20
680.1276303464938
 30
0.0
 10
132.7590416524374
 20
676.2764220812973
 30
0.0
 10
133.1112407943791
 20
671.7566689984881
 30
0.0
 10
133.4087540986521
 20
667.0555034053573
 30
0.0
 10
133.6584770287203
 20
662.2048908114085
 30
0.0
 10
133.8657498514155
 20
657.2524674745832
 30
0.0
 10
134.0496496945791
 20
651.6381735429909
 30
0.0
 10
134.2045279235329
 20
645.264072270766
 30
0.0
 10
134.3231947841449
 20
638.0195194924552
 30
0.0
 10
134.4022496213841
 20
629.7800793416644
 30
0.0
 10
134.411876410203
 20
623.9416101731983
 30
0.0
 10
134.4169998890968
 20
620.8343150907248
 30
0.0
  0
SPLINE
  5
68
330
1F
100
AcDbEntity
  8
0
  6
Continuous
 62
     7
370
    15
100
AcDbSpline
210
0.0
220
0.0
230
1.0
 70
     8
 71
     3
 72
    26
 73
    22
 74
     0
 42
0.00000001
 43
0.00000001
 40
0.0
 40
0.0
 40
0.0
 40
0.0
 40
0.0995137175218822
 40
0.1866687235939601
 40
0.2630296549792617
 40
0.3299797646918842
 40
0.388736172616319
 40
0.4403646153726166
 40
0.5064369832805034
 40
0.561148137117311
 40
0.6065743840453922
 40
0.6443328097986506
 40
0.6759606794492377
 40
0.7123746005223986
 40
0.7576627148089524
 40
0.8110904586576898
 40
0.8454639027319725
 40
0.8831189030842965
 40
0.9247873699727086
 40
0.9715425522214517
 40
1.0
 40
1.0
 40
1.0
 40
1.0
 10
183.5575910634609
 20
620.8343150907248
 30
0.0
 10
183.5623086849579
 20
623.8320214423808
 30
0.0
 10
183.5711580416615
 20
629.4551458950484
 30
0.0
 10
183.6439023532134
 20
637.3780705908945
 30
0.0
 10
183.751962614573
 20
644.3192095701318
 30
0.0
 10
183.8914206220246
 20
650.4035736167951
 30
0.0
 10
184.0550013653665
 20
655.7411447750578
 30
0.0
 10
184.2610900946695
 20
661.0490756185127
 30
0.0
 10
184.5156395974101
 20
666.2301072084535
 30
0.0
 10
184.8265438169504
 20
671.2145568771721
 30
0.0
 10
185.1385144396371
 20
675.3375979867493
 30
0.0
 10
185.4412276750146
 20
678.7558343191627
 30
0.0
 10
185.7565236477122
 20
681.8899082832835
 30
0.0
 10
186.1349139580704
 20
685.2140628885458
 30
0.0
 10
186.644582501001
 20
689.1224918084012
 30
0.0
 10
187.2117976383745
 20
692.889994498674
 30
0.0
 10
187.7865286208921
 20
696.358152879304
 30
0.0
 10
188.3272622247026
 20
699.4400955938115
 30
0.0
 10
188.9345016628854
 20
702.7869178833054
 30
0.0
 10
189.496213179192
 20
705.8382053074899
 30
0.0
 10
189.8367551553476
 20
707.7710678599964
 30
0.0
 10
189.9656026042314
 20
708.5023856603592
 30
0.0
  0
LINE
  5
69
330
1F
100
AcDbEntity
  8
0
  6
Continuous
 62
     7
370
    15
100
AcDbLine
 10
134.4137961394
 20
620.8421307498
 30
0.0
 11
134.4137961394
 21
589.7413155877
 31
0.0
  0
LINE
  5
6A
330
1F
100
AcDbEntity
  8
0
  6
Continuous
 62
     7
370
    15
100
AcDbLine
 10
183.5607966758
 20
589.7413155877
 30
0.0
 11
183.5607966758
 21
620.8421307498
 31
0.0
  0
LINE
  5
6B
330
1F
100
AcDbEntity
  8
0
  6
Continuous
 62
     7
370
    15
100
AcDbLine
 10
134.4137961394
 20
581.7173140937
 30
0.0
 11
134.4137961394
 21
429.261315509
 31
0.0
  0
LINE
  5
6C
330
1F
100
AcDbEntity
  8
0
  6
Continuous
 62
     7
370
    15
100
AcDbLine
 10
183.5607966758
 20
429.261315509
 30
0.0
 11
183.5607966758
 21
581.7173140937
 31
0.0
  0
LINE
  5
6D
330
1F
100
AcDbEntity
  8
0
  6
Continuous
 62
     7
370
    15
100
AcDbLine
 10
134.4137961394
 20
589.7413155877
 30
0.0
 11
134.4137961394
 21
581.7173140937
 31
0.0
  0
LINE
  5
6E
330
1F
100
AcDbEntity
  8
0
  6
Continuous
 62
     7
370
    15
100
AcDbLine
 10
183.5607966758
 20
581.7173140937
 30
0.0
 11
183.5607966758
 21
589.7413155877
 31
0.0
  0
SPLINE
  5
6F
330
1F
100
AcDbEntity
  8
0
  6
Continuous
 62
     7
370
    15
100
AcDbSpline
210
0.0
220
0.0
230
1.0
 70
     8
 71
     3
 72
     9
 73
     5
 74
     0
 42
0.00000001
 43
0.00000001
 40
0.0
 40
0.0
 40
0.0
 40
0.0
 40
0.1930671777908148
 40
1.0
 40
1.0
 40
1.0
 40
1.0
 10
131.3830657280298
 20
730.322364612767
 30
0.0
 10
131.0890390896947
 20
730.274395138883
 30
0.0
 10
129.566115091429
 20
730.025935123914
 30
0.0
 10
128.1807121815661
 20
729.7259178798162
 30
0.0
 10
127.0627851016136
 20
729.4838241183251
 30
0.0
  0
SPLINE
  5
70
330
1F
100
AcDbEntity
  8
0
  6
Continuous
 62
     7
370
    15
100
AcDbSpline
210
0.0
220
0.0
230
1.0
 70
     8
 71
     3
 72
     9
 73
     5
 74
     0
 42
0.00000001
 43
0.00000001
 40
0.0
 40
0.0
 40
0.0
 40
0.0
 40
0.4431856276538304
 40
1.0
 40
1.0
 40
1.0
 40
1.0
 10
186.1202070839019
 20
730.40153448219
 30
0.0
 10
185.4832771227966
 20
730.5112200686663
 30
0.0
 10
184.0461141794108
 20
730.7587136235838
 30
0.0
 10
182.5080823472609
 20
730.960488238817
 30
0.0
 10
181.6516841179939
 20
731.0728392445534
 30
0.0
  0
SPLINE
  5
71
330
1F
100
AcDbEntity
  8
0
  6
Continuous
 62
     7
370
    15
100
AcDbSpline
210
0.0
220
0.0
230
1.0
 70
     8
 71
     3
 72
     9
 73
     5
 74
     0
 42
0.00000001
 43
0.00000001
 40
0.0
 40
0.0
 40
0.0
 40
0.0
 40
0.7490483064765415
 40
1.0
 40
1.0
 40
1.0
 40
1.0
 10
190.9118058509441
 20
729.4838241183251
 30
0.0
 10
189.7628542932119
 20
729.7308030340535
 30
0.0
 10
188.2289725024142
 20
730.0605266494639
 30
0.0
 10
186.5432436054232
 20
730.3331253712943
 30
0.0
 10
186.1202070839019
 20
730.40153448219
 30
0.0
  0
LINE
  5
72
330
1F
100
AcDbEntity
  8
0
  6
Continuous
 62
     7
370
    15
100
AcDbLine
 10
126.066772861
 20
728.6629116976
 30
0.0
 11
126.0420481093
 21
728.3028623902
 31
0.0
  0
LINE
  5
73
330
1F
100
AcDbEntity
  8
0
  6
Continuous
 62
     7
370
    15
100
AcDbLine
 10
191.9576736517
 20
728.2722032511
 30
0.0
 11
191.9341149158
 21
728.6415434324
 31
0.0
  0
SPLINE
  5
74
330
1F
100
AcDbEntity
  8
0
  6
Continuous
 62
     7
370
    15
100
AcDbSpline
210
0.0
220
0.0
230
1.0
 70
     8
 71
     3
 72
    11
 73
     7
 74
     0
 42
0.00000001
 43
0.00000001
 40
0.0
 40
0.0
 40
0.0
 40
0.0
 40
0.2750632492308238
 40
0.5337158545010695
 40
0.771278092298558
 40
0.9999999999999999
 40
0.9999999999999999
 40
0.9999999999999999
 40
0.9999999999999999
 10
127.0627068705173
 20
729.4838017665833
 30
0.0
 10
126.9114398325975
 20
729.4362678380066
 30
0.0
 10
126.6179305519975
 20
729.344035919061
 30
0.0
 10
126.2964625454193
 20
729.1146259911362
 30
0.0
 10
126.0917752252216
 20
728.8766416612351
 30
0.0
 10
126.0557811892174
 20
728.7240613117458
 30
0.0
 10
126.0381253785701
 20
728.6492175304382
 30
0.0
  0
SPLINE
  5
75
330
1F
100
AcDbEntity
  8
0
  6
Continuous
 62
     7
370
    15
100
AcDbSpline
210
0.0
220
0.0
230
1.0
 70
     8
 71
     3
 72
    11
 73
     7
 74
     0
 42
0.00000001
 43
0.00000001
 40
0.0
 40
0.0
 40
0.0
 40
0.0
 40
0.2287222054871622
 40
0.466283833667828
 40
0.724938193354601
 40
1.0
 40
1.0
 40
1.0
 40
1.0
 10
191.9364655739875
 20
728.6492175304382
 30
0.0
 10
191.9188094179021
 20
728.7240611865319
 30
0.0
 10
191.8828147486054
 20
728.8766409800623
 30
0.0
 10
191.6781331819777
 20
729.1146275025351
 30
0.0
 10
191.3566606542412
 20
729.344034346326
 30
0.0
 10
191.0631530827283
 20
729.436267485964
 30
0.0
 10
190.9118878073307
 20
729.4838017665833
 30
0.0
  0
SPLINE
  5
76
330
1F
100
AcDbEntity
  8
0
  6
Continuous
 62
     7
370
    15
100
AcDbSpline
210
0.0
220
0.0
230
1.0
 70
     8
 71
     3
 72
     9
 73
     5
 74
     0
 42
0.00000001
 43
0.00000001
 40
0.0
 40
0.0
 40
0.0
 40
0.0
 40
0.3386074275387704
 40
1.0
 40
1.0
 40
1.0
 40
1.0
 10
126.135567796907
 20
730.7384050332993
 30
0.0
 10
126.1275271805061
 20
730.6890196583656
 30
0.0
 10
126.1037810493025
 20
730.5431711892622
 30
0.0
 10
126.1690662802681
 20
730.4124102826764
 30
0.0
 10
126.2122454471202
 20
730.3259259902924
 30
0.0
  0
SPLINE
  5
77
330
1F
100
AcDbEntity
  8
0
  6
Continuous
 62
     7
370
    15
100
AcDbSpline
210
0.0
220
0.0
230
1.0
 70
     8
 71
     3
 72
     9
 73
     5
 74
     0
 42
0.00000001
 43
0.00000001
 40
0.0
 40
0.0
 40
0.0
 40
0.0
 40
0.3128817564374708
 40
1.0
 40
1.0
 40
1.0
 40
1.0
 10
191.7544180876823
 20
730.3371987187355
 30
0.0
 10
191.7785314330962
 20
730.3719449449256
 30
0.0
 10
191.8555999898842
 20
730.4829972050054
 30
0.0
 10
191.8536065139926
 20
730.6324322980298
 30
0.0
 10
191.8522367603393
 20
730.7351118766754
 30
0.0
  0
SPLINE
  5
78
330
1F
100
AcDbEntity
  8
0
  6
Continuous
 62
     7
370
    15
100
AcDbSpline
210
0.0
220
0.0
230
1.0
 70
     8
 71
     3
 72
    13
 73
     9
 74
     0
 42
0.00000001
 43
0.00000001
 40
0.0
 40
0.0
 40
0.0
 40
0.0
 40
0.1857141420150242
 40
0.3861030999183689
 40
0.5814443857478614
 40
0.7791853555676956
 40
0.9821691518152783
 40
1.0
 40
1.0
 40
1.0
 40
1.0
 10
191.8553995318027
 20
730.737689777562
 30
0.0
 10
191.8080569340781
 20
731.3580044829023
 30
0.0
 10
191.7096308070133
 20
732.6476501073993
 30
0.0
 10
191.5000183322188
 20
734.8917701679434
 30
0.0
 10
191.2313696516929
 20
737.3868935276771
 30
0.0
 10
190.8836853291369
 20
740.1004931490459
 30
0.0
 10
190.6047970275827
 20
742.1017018900988
 30
0.0
 10
190.4148669188749
 20
743.2015411169126
 30
0.0
 10
190.3995300061317
 20
743.2903534614533
 30
0.0
  0
LINE
  5
79
330
1F
100
AcDbEntity
  8
0
  6
Continuous
 62
     7
370
    15
100
AcDbLine
 10
126.2193421251
 20
732.0344931328
 30
0.0
 11
126.1221232242
 21
730.7519948923
 31
0.0
  0
SPLINE
  5
7A
330
1F
100
AcDbEntity
  8
0
  6
Continuous
 62
     7
370
    15
100
AcDbSpline
210
0.0
220
0.0
230
1.0
 70
     8
 71
     3
 72
    13
 73
     9
 74
     0
 42
0.00000001
 43
0.00000001
 40
0.0
 40
0.0
 40
0.0
 40
0.0
 40
0.0795857110533295
 40
0.3036306011204949
 40
0.5409132735369719
 40
0.7697747710050471
 40
0.9939877446461292
 40
1.0
 40
1.0
 40
1.0
 40
1.0
 10
127.5894927210422
 20
743.30217008228
 30
0.0
 10
127.5288895575908
 20
742.9557797870798
 30
0.0
 10
127.2976800263192
 20
741.6342524405006
 30
0.0
 10
126.9997790582467
 20
739.4123394002635
 30
0.0
 10
126.6650840542903
 20
736.7132554396754
 30
0.0
 10
126.414652048428
 20
734.2621756677214
 30
0.0
 10
126.2708168379778
 20
732.7153125918766
 30
0.0
 10
126.2206521590596
 20
732.0518200208012
 30
0.0
 10
126.2193421251388
 20
732.034493132779
 30
0.0
  0
LINE
  5
7B
330
1F
100
AcDbEntity
  8
0
  6
Continuous
 62
     7
370
    15
100
AcDbLine
 10
191.7163009173
 20
730.2401772582
 30
0.0
 11
191.7630495853
 21
730.3213215315
 31
0.0
  0
LINE
  5
7C
330
1F
100
AcDbEntity
  8
0
  6
Continuous
 62
     7
370
    15
100
AcDbLine
 10
126.2123832829
 20
730.3213438832
 30
0.0
 11
126.2573922402
 21
730.2401698076
 31
0.0
  0
SPLINE
  5
7D
330
1F
100
AcDbEntity
  8
0
  6
Continuous
 62
     7
370
    15
100
AcDbSpline
210
0.0
220
0.0
230
1.0
 70
     8
 71
     3
 72
     9
 73
     5
 74
     0
 42
0.00000001
 43
0.00000001
 40
0.0
 40
0.0
 40
0.0
 40
0.0
 40
0.383939317010047
 40
0.9999999999999999
 40
0.9999999999999999
 40
0.9999999999999999
 40
0.9999999999999999
 10
126.5830869204612
 20
729.7963908755272
 30
0.0
 10
126.6177642911321
 20
729.7392772815277
 30
0.0
 10
126.7080842170543
 20
729.5905204559853
 30
0.0
 10
126.8464733098732
 20
729.5037284161034
 30
0.0
 10
126.9317293889137
 20
729.4502592527359
 30
0.0
  0
SPLINE
  5
7E
330
1F
100
AcDbEntity
  8
0
  6
Continuous
 62
     7
370
    15
100
AcDbSpline
210
0.0
220
0.0
230
1.0
 70
     8
 71
     3
 72
     9
 73
     5
 74
     0
 42
0.00000001
 43
0.00000001
 40
0.0
 40
0.0
 40
0.0
 40
0.0
 40
0.9520621169179427
 40
1.0
 40
1.0
 40
1.0
 40
1.0
 10
191.0273196525188
 20
729.4412589513748
 30
0.0
 10
191.1617794161604
 20
729.5282721179783
 30
0.0
 10
191.3030094485839
 20
729.6196665396837
 30
0.0
 10
191.3967731830295
 20
729.7717053510693
 30
0.0
 10
191.4012680179687
 20
729.7789937698334
 30
0.0
  0
SPLINE
  5
7F
330
1F
100
AcDbEntity
  8
0
  6
Continuous
 62
     7
370
    15
100
AcDbSpline
210
0.0
220
0.0
230
1.0
 70
     8
 71
     3
 72
    25
 73
    21
 74
     0
 42
0.00000001
 43
0.00000001
 40
0.0
 40
0.0
 40
0.0
 40
0.0
 40
0.0011584139856109
 40
0.0789806744850412
 40
0.16160715494047
 40
0.2343114777244503
 40
0.2993596676830604
 40
0.3546317795799485
 40
0.4041630568227201
 40
0.4497329047543528
 40
0.4988542569774736
 40
0.5460220854276397
 40
0.5910016539557402
 40
0.6383762117391016
 40
0.6897325379442694
 40
0.7466993953899924
 40
0.8126787998772139
 40
0.8914763865419448
 40
0.9832678773788965
 40
1.0
 40
1.0
 40
1.0
 40
1.0
 10
190.3998727328392
 20
743.287715955922
 30
0.0
 10
190.3975654900542
 20
743.3030051221111
 30
0.0
 10
190.240257659159
 20
744.3454205909643
 30
0.0
 10
189.8134020003902
 20
746.6037022261559
 30
0.0
 10
189.1064079717758
 20
749.881381842106
 30
0.0
 10
188.2423623674
 20
753.0293781882998
 30
0.0
 10
187.2589065435047
 20
755.7524392786108
 30
0.0
 10
186.1772465591806
 20
758.0868614366086
 30
0.0
 10
184.9940055955493
 20
760.0588086129969
 30
0.0
 10
183.6234236985747
 20
761.8157055329458
 30
0.0
 10
182.0355990672783
 20
763.3601941380767
 30
0.0
 10
180.2285383321998
 20
764.6634174569676
 30
0.0
 10
178.2740707887153
 20
765.7041851394672
 30
0.0
 10
176.1417241040419
 20
766.5439484288025
 30
0.0
 10
173.7443329355715
 20
767.2206582053843
 30
0.0
 10
171.0016905109588
 20
767.7507900028394
 30
0.0
 10
167.7908594940811
 20
768.1573763914593
 30
0.0
 10
164.0022094276995
 20
768.3992043003789
 30
0.0
 10
160.9966213056022
 20
768.4889957269847
 30
0.0
 10
159.2553604553822
 20
768.4733060216026
 30
0.0
 10
158.9868936292894
 20
768.4708869897812
 30
0.0
  0
SPLINE
  5
80
330
1F
100
AcDbEntity
  8
0
  6
Continuous
 62
     7
370
    15
100
AcDbSpline
210
0.0
220
0.0
230
1.0
 70
     8
 71
     3
 72
    24
 73
    20
 74
     0
 42
0.00000001
 43
0.00000001
 40
0.0
 40
0.0
 40
0.0
 40
0.0
 40
0.0376212954940786
 40
0.1307440196292452
 40
0.212323392487398
 40
0.2766953840671634
 40
0.3338059896326556
 40
0.3852462987848675
 40
0.4318815718088928
 40
0.4762080523992192
 40
0.5235951189204532
 40
0.5688059373554336
 40
0.6154128692859511
 40
0.6646758883962369
 40
0.7199516273431078
 40
0.7810776084394834
 40
0.8515011476647429
 40
0.9351717650646766
 40
0.9999999999999999
 40
0.9999999999999999
 40
0.9999999999999999
 40
0.9999999999999999
 10
158.9868401251371
 20
768.4595621072739
 30
0.0
 10
158.3831833088014
 20
768.4656659081174
 30
0.0
 10
156.2853151304782
 20
768.4868782413674
 30
0.0
 10
152.8791616202539
 20
768.3512714837627
 30
0.0
 10
149.0559306699026
 20
768.0388224161975
 30
0.0
 10
145.8322571349552
 20
767.5710145652934
 30
0.0
 10
143.1328316700683
 20
766.9485086142784
 30
0.0
 10
140.7805081994179
 20
766.1648906427475
 30
0.0
 10
138.7207747295058
 20
765.2195605254375
 30
0.0
 10
136.8581668347645
 20
764.0699201436356
 30
0.0
 10
135.2026719480214
 20
762.6974639607521
 30
0.0
 10
133.747217046186
 20
761.0970947283125
 30
0.0
 10
132.5045650607283
 20
759.318841086393
 30
0.0
 10
131.397021714601
 20
757.2983861755409
 30
0.0
 10
130.4166492311851
 20
754.9950464049032
 30
0.0
 10
129.5429115521138
 20
752.3432761236947
 30
0.0
 10
128.7317688943267
 20
749.2842287439278
 30
0.0
 10
128.0661841929717
 20
746.1887788255854
 30
0.0
 10
127.7324049959008
 20
744.1777566837261
 30
0.0
 10
127.5866913027377
 20
743.2998305999726
 30
0.0
  0
SPLINE
  5
81
330
1F
100
AcDbEntity
  8
0
  6
Continuous
 62
     7
370
    15
100
AcDbSpline
210
0.0
220
0.0
230
1.0
 70
     8
 71
     3
 72
    18
 73
    14
 74
     0
 42
0.00000001
 43
0.00000001
 40
0.0
 40
0.0
 40
0.0
 40
0.0
 40
0.029521728098349
 40
0.1352737296510931
 40
0.2440863042906352
 40
0.3499435092791456
 40
0.4588795354399312
 40
0.5645963114410214
 40
0.6733772334884002
 40
0.7791478445295885
 40
0.887980503198731
 40
0.9437730306398935
 40
1.0
 40
1.0
 40
1.0
 40
1.0
 10
168.1882726378055
 20
702.9582074725121
 30
0.0
 10
168.1961517274678
 20
702.9884637852572
 30
0.0
 10
168.2322550965297
 20
703.1271035104413
 30
0.0
 10
168.034031009468
 20
703.3694161069724
 30
0.0
 10
167.5941232470914
 20
703.678637883403
 30
0.0
 10
166.8840075047283
 20
703.9769731997013
 30
0.0
 10
165.9626083338566
 20
704.2553600786973
 30
0.0
 10
164.8330991754268
 20
704.5112593966405
 30
0.0
 10
163.5497586973407
 20
704.7295868119882
 30
0.0
 10
162.1248371252874
 20
704.9022928115253
 30
0.0
 10
160.8574249131892
 20
704.9956020069959
 30
0.0
 10
159.7996672908686
 20
705.0371183520376
 30
0.0
 10
159.2588022659342
 20
705.041544756829
 30
0.0
 10
158.9873209430098
 20
705.0437665426224
 30
0.0
  0
SPLINE
  5
82
330
1F
100
AcDbEntity
  8
0
  6
Continuous
 62
     7
370
    15
100
AcDbSpline
210
0.0
220
0.0
230
1.0
 70
     8
 71
     3
 72
    18
 73
    14
 74
     0
 42
0.00000001
 43
0.00000001
 40
0.0
 40
0.0
 40
0.0
 40
0.0
 40
0.0622278859626051
 40
0.1250610074802462
 40
0.2307389661249661
 40
0.3394714880259307
 40
0.445316239582333
 40
0.5542344188182258
 40
0.6599961317597934
 40
0.7688287264237171
 40
0.8745506154346435
 40
0.9833294361435494
 40
1.0
 40
1.0
 40
1.0
 40
1.0
 10
158.9873209429121
 20
705.0437665426224
 30
0.0
 10
158.6868437997688
 20
705.0410744266187
 30
0.0
 10
158.0829670383301
 20
705.0356640107822
 30
0.0
 10
156.9797529968668
 20
704.9875377068412
 30
0.0
 10
155.6872812454256
 20
704.886024433132
 30
0.0
 10
154.2873460571993
 20
704.7092397944757
 30
0.0
 10
153.0075586135758
 20
704.4844887356942
 30
0.0
 10
151.9073641398494
 20
704.2276685205721
 30
0.0
 10
151.0008846520226
 20
703.9446069015477
 30
0.0
 10
150.3218634184184
 20
703.6476795199868
 30
0.0
 10
149.907508071258
 20
703.3344126119177
 30
0.0
 10
149.7307332662324
 20
703.1042930623053
 30
0.0
 10
149.7712198343145
 20
702.975579961931
 30
0.0
 10
149.776599963686
 20
702.9584756934136
 30
0.0
  0
SPLINE
  5
83
330
1F
100
AcDbEntity
  8
0
  6
Continuous
 62
     7
370
    15
100
AcDbSpline
210
0.0
220
0.0
230
1.0
 70
     8
 71
     3
 72
    17
 73
    13
 74
     0
 42
0.00000001
 43
0.00000001
 40
0.0
 40
0.0
 40
0.0
 40
0.0
 40
0.0558258802454991
 40
0.1116491704411259
 40
0.1674793426564781
 40
0.318734769894307
 40
0.4689834835955634
 40
0.6190164280339655
 40
0.7698574065094992
 40
0.9211068021482341
 40
0.9605566164086226
 40
1.0
 40
1.0
 40
1.0
 40
1.0
 10
158.9873492049261
 20
721.8029019816148
 30
0.0
 10
159.1940544759557
 20
721.8031530456718
 30
0.0
 10
159.6074554278938
 20
721.8036551621377
 30
0.0
 10
160.2275625466356
 20
721.8041380575149
 30
0.0
 10
161.2009703580551
 20
721.8075136085448
 30
0.0
 10
162.5238682320704
 20
721.8088007530001
 30
0.0
 10
164.1948307256252
 20
721.8136556578906
 30
0.0
 10
165.8627386424821
 20
721.8155381191324
 30
0.0
 10
167.5315716041489
 20
721.8172339194215
 30
0.0
 10
168.7885541232124
 20
721.8167118845853
 30
0.0
 10
169.6327070800544
 20
721.8161878499018
 30
0.0
 10
169.9214496825795
 20
721.8159847625334
 30
0.0
 10
170.0658092159827
 20
721.8158832271262
 30
0.0
  0
SPLINE
  5
84
330
1F
100
AcDbEntity
  8
0
  6
Continuous
 62
     7
370
    15
100
AcDbSpline
210
0.0
220
0.0
230
1.0
 70
     8
 71
     3
 72
    44
 73
    40
 74
     0
 42
0.00000001
 43
0.00000001
 40
0.0
 40
0.0
 40
0.0
 40
0.0
 40
0.125000000000007
 40
0.125000000000007
 40
0.1875000000000104
 40
0.1875000000000104
 40
0.2500000000000138
 40
0.2500000000000138
 40
0.2812500000000157
 40
0.2812500000000157
 40
0.3125000000000177
 40
0.3125000000000177
 40
0.3750000000000214
 40
0.3750000000000214
 40
0.4062500000000226
 40
0.4062500000000226
 40
0.4375000000000239
 40
0.4375000000000239
 40
0.4687500000000253
 40
0.4687500000000253
 40
0.5000000000000265
 40
0.5000000000000265
 40
0.5625000000000279
 40
0.5625000000000279
 40
0.5937500000000286
 40
0.5937500000000286
 40
0.6250000000000293
 40
0.6250000000000293
 40
0.6562500000000299
 40
0.6562500000000299
 40
0.6718750000000295
 40
0.6718750000000295
 40
0.6875000000000292
 40
0.6875000000000292
 40
0.7500000000000233
 40
0.7500000000000233
 40
0.8750000000000117
 40
0.8750000000000117
 40
1.0
 40
1.0
 40
1.0
 40
1.0
 10
158.9872960418376
 20
721.8024945587505
 30
0.0
 10
156.6517591692063
 20
721.8056305388006
 30
0.0
 10
154.3095526349705
 20
721.813312004653
 30
0.0
 10
150.794057885857
 20
721.8170836989943
 30
0.0
 10
149.62253996628
 20
721.8167748609728
 30
0.0
 10
147.2778058505403
 20
721.815781309541
 30
0.0
 10
146.1000231428892
 20
721.8147551505851
 30
0.0
 10
144.3742021139197
 20
721.8101318347225
 30
0.0
 10
143.804644937959
 20
721.8080601426257
 30
0.0
 10
142.6803236304172
 20
721.8031520152501
 30
0.0
 10
142.12422940998
 20
721.8003196910262
 30
0.0
 10
140.4915572881065
 20
721.7915717563702
 30
0.0
 10
139.4813938729002
 20
721.7855593449581
 30
0.0
 10
138.1152379539712
 20
721.7725252486784
 30
0.0
 10
137.6826372450187
 20
721.768113762657
 30
0.0
 10
136.8889099193697
 20
721.7587674780376
 30
0.0
 10
136.5257889248697
 20
721.7537168197797
 30
0.0
 10
135.8555317411357
 20
721.7431745324016
 30
0.0
 10
135.5484310842448
 20
721.7376985011499
 30
0.0
 10
134.9801938668388
 20
721.7264133539413
 30
0.0
 10
134.7226344451051
 20
721.7206715429417
 30
0.0
 10
134.0125812586739
 20
721.7039735216845
 30
0.0
 10
133.6211151498289
 20
721.6930540374046
 30
0.0
 10
133.1139617187035
 20
721.6753264756023
 30
0.0
 10
132.9579750783936
 20
721.6690894122667
 30
0.0
 10
132.6629112674136
 20
721.6549327781712
 30
0.0
 10
132.5253787120605
 20
721.6480747833955
 30
0.0
 10
132.2932470902374
 20
721.6410457539406
 30
0.0
 10
132.193514320254
 20
721.6346298970656
 30
0.0
 10
132.0727287656696
 20
721.6231048007372
 30
0.0
 10
132.0366963871551
 20
721.619802064985
 30
0.0
 10
131.9670904442668
 20
721.613643720657
 30
0.0
 10
131.9340876487346
 20
721.6108056252543
 30
0.0
 10
131.7764347276092
 20
721.5974719104647
 30
0.0
 10
131.6732657981934
 20
721.5893412606243
 30
0.0
 10
131.3958532590395
 20
721.5681241608922
 30
0.0
 10
131.2484930283413
 20
721.5578127041664
 30
0.0
 10
130.9704258664109
 20
721.5461710515183
 30
0.0
 10
130.8427008340362
 20
721.545524846449
 30
0.0
 10
130.7130916466077
 20
721.5544262069795
 30
0.0
  0
LWPOLYLINE
  5
85
330
1F
100
AcDbEntity
  8
0
  6
Continuous
 62
     7
370
    15
100
AcDbPolyline
 90
       33
 70
   128
 43
0.0
 10
168.2148963562
 20
702.6452830874
 10
168.0375902332
 20
703.0493802273
 10
167.5124863512
 20
703.4379503571
 10
166.6597650736
 20
703.7960625135
 10
165.5121945194
 20
704.1099405729
 10
164.1138760722
 20
704.3675443971
 10
162.5185456476
 20
704.5589572632
 10
160.7875115122
 20
704.6768254482
 10
158.9872960418
 20
704.7166264498
 10
157.1870806045
 20
704.6768254482
 10
155.4560464691
 20
704.5589572632
 10
153.8607162773
 20
704.3675443971
 10
152.4623973645
 20
704.1099405729
 10
151.314827276
 20
703.7960625135
 10
150.4621055327
 20
703.4379503571
 10
149.9370016507
 20
703.0493802273
 10
149.759696459
 20
702.6452830874
 10
149.9370016507
 20
702.2411859476
 10
150.4621055327
 20
701.8526158177
 10
151.314827276
 20
701.4945036613
 10
152.4623973645
 20
701.180625602
 10
153.8607162773
 20
700.9230217778
 10
155.4560464691
 20
700.7316089117
 10
157.1870806045
 20
700.6137407267
 10
158.9872960418
 20
700.5739397251
 10
160.7875115122
 20
700.6137407267
 10
162.5185456476
 20
700.7316089117
 10
164.1138760722
 20
700.9230217778
 10
165.5121945194
 20
701.180625602
 10
166.6597650736
 20
701.4945036613
 10
167.5124863512
 20
701.8526158177
 10
168.0375902332
 20
702.2411859476
 10
168.2148963562
 20
702.6452830874
  0
SPLINE
  5
86
330
1F
100
AcDbEntity
  8
0
  6
Continuous
 62
     7
370
    15
100
AcDbSpline
210
0.0
220
0.0
230
1.0
 70
     8
 71
     3
 72
    11
 73
     7
 74
     0
 42
0.00000001
 43
0.00000001
 40
0.0
 40
0.0
 40
0.0
 40
0.0
 40
0.0000067625276091
 40
0.0000067625276091
 40
0.0000067625276091
 40
0.0004837659026312
 40
0.0004837659026312
 40
0.0004837659026312
 40
0.0004837659026312
 10
126.0014981721062
 20
720.7566124927396
 30
0.0
 10
126.0014595425395
 20
720.7568157951607
 30
0.0
 10
126.0014209157286
 20
720.7570191798003
 30
0.0
 10
126.0013822915715
 20
720.7572226461366
 30
0.0
 10
125.9986578945869
 20
720.7715743657521
 30
0.0
 10
125.9959414896545
 20
720.7863293179785
 30
0.0
 10
125.9932252601656
 20
720.8013093524746
 30
0.0
  0
SPLINE
  5
87
330
1F
100
AcDbEntity
  8
0
  6
Continuous
 62
     7
370
    15
100
AcDbSpline
210
0.0
220
0.0
230
1.0
 70
     8
 71
     3
 72
     9
 73
     5
 74
     0
 42
0.00000001
 43
0.00000001
 40
0.0
 40
0.0
 40
0.0
 40
0.0
 40
0.5004730442235622
 40
1.0
 40
1.0
 40
1.0
 40
1.0
 10
125.9931967519798
 20
720.801522208494
 30
0.0
 10
126.0215164164228
 20
720.5834356223847
 30
0.0
 10
126.078102210143
 20
720.1476747185229
 30
0.0
 10
126.1384914439395
 20
719.7126444325498
 30
0.0
 10
126.1686574940595
 20
719.4953350781271
 30
0.0
  0
LINE
  5
88
330
1F
100
AcDbEntity
  8
0
  6
Continuous
 62
     7
370
    15
100
AcDbLine
 10
191.8059314019
 20
719.4953149998
 30
0.0
 11
191.7913468904
 21
719.4225079262
 31
0.0
  0
SPLINE
  5
89
330
1F
100
AcDbEntity
  8
0
  6
Continuous
 62
     7
370
    15
100
AcDbSpline
210
0.0
220
0.0
230
1.0
 70
     8
 71
     3
 72
    11
 73
     7
 74
     0
 42
0.00000001
 43
0.00000001
 40
0.0
 40
0.0
 40
0.0
 40
0.0
 40
0.0000067625276091
 40
0.0000067625276091
 40
0.0000067625276091
 40
0.0004837659026312
 40
0.0004837659026312
 40
0.0004837659026312
 40
0.0004837659026312
 10
191.9730939115724
 20
720.7566124927396
 30
0.0
 10
191.9731325411392
 20
720.7568157951607
 30
0.0
 10
191.9731711679501
 20
720.7570191798003
 30
0.0
 10
191.9732097921072
 20
720.7572226461366
 30
0.0
 10
191.9759341890918
 20
720.7715743657521
 30
0.0
 10
191.9786505940241
 20
720.7863293179782
 30
0.0
 10
191.981366823513
 20
720.8013093524744
 30
0.0
  0
SPLINE
  5
8A
330
1F
100
AcDbEntity
  8
0
  6
Continuous
 62
     7
370
    15
100
AcDbSpline
210
0.0
220
0.0
230
1.0
 70
     8
 71
     3
 72
     8
 73
     4
 74
     0
 42
0.00000001
 43
0.00000001
 40
0.9621962010148626
 40
0.9621962010148626
 40
0.9621962010148626
 40
0.9621962010148626
 40
0.9829574353982442
 40
0.9829574353982442
 40
0.9829574353982442
 40
0.9829574353982442
 10
191.8060152651375
 20
719.495274180249
 30
0.0
 10
191.8658550341048
 20
719.924393169146
 30
0.0
 10
191.9244185397773
 20
720.3595613148226
 30
0.0
 10
191.9816292008968
 20
720.8013694429566
 30
0.0
  0
SPLINE
  5
8B
330
1F
100
AcDbEntity
  8
0
  6
Continuous
 62
     7
370
    15
100
AcDbSpline
210
0.0
220
0.0
230
1.0
 70
     8
 71
     3
 72
    10
 73
     6
 74
     0
 42
0.00000001
 43
0.00000001
 40
0.0
 40
0.0
 40
0.0
 40
0.0
 40
0.3078067371989953
 40
0.6914085596052728
 40
1.0
 40
1.0
 40
1.0
 40
1.0
 10
143.0944564170452
 20
731.6638192975014
 30
0.0
 10
144.5725900963072
 20
731.7759905482471
 30
0.0
 10
147.8928367139823
 20
732.0279543733831
 30
0.0
 10
152.8519965600715
 20
732.2076705197417
 30
0.0
 10
156.3001028823189
 20
732.2328517482543
 30
0.0
 10
157.8373268828975
 20
732.2440779649704
 30
0.0
  0
LINE
  5
8C
330
1F
100
AcDbEntity
  8
0
  6
Continuous
 62
     7
370
    15
100
AcDbLine
 10
191.9816570706
 20
720.8015805923
 30
0.0
 11
192.0121113188
 21
721.0209405863
 31
0.0
  0
SPLINE
  5
8D
330
1F
100
AcDbEntity
  8
0
  6
Continuous
 62
     7
370
    15
100
AcDbSpline
210
0.0
220
0.0
230
1.0
 70
     8
 71
     3
 72
    16
 73
    12
 74
     0
 42
0.00000001
 43
0.00000001
 40
0.0
 40
0.0
 40
0.0
 40
0.0
 40
0.2500000000000002
 40
0.2500000000000002
 40
0.5000000000000003
 40
0.5000000000000003
 40
0.6250000000000004
 40
0.6250000000000004
 40
0.7500000000000004
 40
0.7500000000000004
 40
1.0
 40
1.0
 40
1.0
 40
1.0
 10
192.0236467760309
 20
721.1040101989607
 30
0.0
 10
192.0523689682201
 20
721.3516604394864
 30
0.0
 10
192.075393783633
 20
721.6517402516986
 30
0.0
 10
192.1064591835852
 20
722.3979443262261
 30
0.0
 10
192.1145819111327
 20
722.8444400907772
 30
0.0
 10
192.1116665965596
 20
723.6494078611768
 30
0.0
 10
192.1082408360562
 20
723.9402648143935
 30
0.0
 10
192.0958620367982
 20
724.5724718634807
 30
0.0
 10
192.0868598777682
 20
724.91393448423
 30
0.0
 10
192.0498769099155
 20
726.0167975814544
 30
0.0
 10
192.0118659361169
 20
726.8563152640005
 30
0.0
 10
191.9553350972281
 20
727.828064451476
 30
0.0
  0
SPLINE
  5
8E
330
1F
100
AcDbEntity
  8
0
  6
Continuous
 62
     7
370
    15
100
AcDbSpline
210
0.0
220
0.0
230
1.0
 70
     8
 71
     3
 72
    10
 73
     6
 74
     0
 42
0.00000001
 43
0.00000001
 40
0.0
 40
0.0
 40
0.0
 40
0.0
 40
0.5
 40
0.5
 40
1.0
 40
1.0
 40
1.0
 40
1.0
 10
191.9555672404857
 20
727.8280755288648
 30
0.0
 10
192.0011074305779
 20
728.1055468004382
 30
0.0
 10
191.9500593163018
 20
728.393431098127
 30
0.0
 10
191.6719718521001
 20
728.8931093987729
 30
0.0
 10
191.4455053555502
 20
729.1038740773884
 30
0.0
 10
191.1697361251632
 20
729.2400872924403
 30
0.0
  0
LINE
  5
8F
330
1F
100
AcDbEntity
  8
0
  6
Continuous
 62
     7
370
    15
100
AcDbLine
 10
125.992933882
 20
720.8015805923
 30
0.0
 11
125.9624796338
 21
721.0209405863
 31
0.0
  0
SPLINE
  5
90
330
1F
100
AcDbEntity
  8
0
  6
Continuous
 62
     7
370
    15
100
AcDbSpline
210
0.0
220
0.0
230
1.0
 70
     8
 71
     3
 72
    16
 73
    12
 74
     0
 42
0.00000001
 43
0.00000001
 40
0.0
 40
0.0
 40
0.0
 40
0.0
 40
0.2500000000000004
 40
0.2500000000000004
 40
0.5000000000000008
 40
0.5000000000000008
 40
0.6250000000000008
 40
0.6250000000000008
 40
0.7500000000000007
 40
0.7500000000000007
 40
1.0
 40
1.0
 40
1.0
 40
1.0
 10
125.9509453076477
 20
721.1040101989607
 30
0.0
 10
125.9222231154585
 20
721.3516604394864
 30
0.0
 10
125.8991983000456
 20
721.6517402516985
 30
0.0
 10
125.8681329000934
 20
722.3979443262261
 30
0.0
 10
125.860010172546
 20
722.8444400907771
 30
0.0
 10
125.862925487119
 20
723.6494078611768
 30
0.0
 10
125.8663512476224
 20
723.9402648143935
 30
0.0
 10
125.8787300468805
 20
724.5724718634808
 30
0.0
 10
125.8877322059105
 20
724.91393448423
 30
0.0
 10
125.9247151737631
 20
726.0167975814544
 30
0.0
 10
125.9627261475617
 20
726.8563152640005
 30
0.0
 10
126.0192569864505
 20
727.8280644514759
 30
0.0
  0
SPLINE
  5
91
330
1F
100
AcDbEntity
  8
0
  6
Continuous
 62
     7
370
    15
100
AcDbSpline
210
0.0
220
0.0
230
1.0
 70
     8
 71
     3
 72
    10
 73
     6
 74
     0
 42
0.00000001
 43
0.00000001
 40
0.0
 40
0.0
 40
0.0
 40
0.0
 40
0.5
 40
0.5
 40
1.0
 40
1.0
 40
1.0
 40
1.0
 10
126.8048548778067
 20
729.2400637475823
 30
0.0
 10
126.5291345889206
 20
729.1038333776992
 30
0.0
 10
126.302721767388
 20
728.8930709820321
 30
0.0
 10
126.0247209325771
 20
728.3934241264869
 30
0.0
 10
125.9737054040278
 20
728.1055685850823
 30
0.0
 10
126.0192606009348
 20
727.828126584011
 30
0.0
  0
LINE
  5
92
330
1F
100
AcDbEntity
  8
0
  6
Continuous
 62
     7
370
    15
100
AcDbLine
 10
158.9872960418
 20
429.261315509
 30
0.0
 11
183.5607966758
 21
429.261315509
 31
0.0
  0
LINE
  5
93
330
1F
100
AcDbEntity
  8
0
  6
Continuous
 62
     7
370
    15
100
AcDbLine
 10
134.4137961394
 20
429.261315509
 30
0.0
 11
158.9872960418
 21
429.261315509
 31
0.0
  0
SPLINE
  5
94
330
1F
100
AcDbEntity
  8
0
  6
Continuous
 62
     7
370
    15
100
AcDbSpline
210
0.0
220
0.0
230
1.0
 70
     8
 71
     3
 72
    13
 73
     9
 74
     0
 42
0.00000001
 43
0.00000001
 40
0.0
 40
0.0
 40
0.0
 40
0.0
 40
0.0141802920431289
 40
0.210531748854555
 40
0.4090729472502179
 40
0.6037405318779037
 40
0.7998190240320459
 40
0.9999999999999999
 40
0.9999999999999999
 40
0.9999999999999999
 40
0.9999999999999999
 10
131.5896870917888
 20
730.3129470788925
 30
0.0
 10
131.698549168296
 20
730.3342759663719
 30
0.0
 10
133.3148010255426
 20
730.6509413755545
 30
0.0
 10
136.842453841856
 20
731.1221772345123
 30
0.0
 10
142.0877619923327
 20
731.6854084652895
 30
0.0
 10
147.6012765448144
 20
732.0503602633551
 30
0.0
 10
153.2424463928266
 20
732.2642746825361
 30
0.0
 10
157.0591744707271
 20
732.2876941970944
 30
0.0
 10
158.9872958485184
 20
732.2995251857727
 30
0.0
  0
SPLINE
  5
95
330
1F
100
AcDbEntity
  8
0
  6
Continuous
 62
     7
370
    15
100
AcDbSpline
210
0.0
220
0.0
230
1.0
 70
     8
 71
     3
 72
    12
 73
     8
 74
     0
 42
0.00000001
 43
0.00000001
 40
0.0
 40
0.0
 40
0.0
 40
0.0
 40
0.0176748498836508
 40
0.264717111066201
 40
0.5069394456148627
 40
0.7509173732181991
 40
1.0
 40
1.0
 40
1.0
 40
1.0
 10
181.4812017954202
 20
731.048095866391
 30
0.0
 10
181.3624939725918
 20
731.0656757464726
 30
0.0
 10
179.584600970561
 20
731.3289704900628
 30
0.0
 10
175.8553095278971
 20
731.671258169403
 30
0.0
 10
170.3817122156546
 20
732.0541299811842
 30
0.0
 10
164.7299886897344
 20
732.2633063278785
 30
0.0
 10
160.9146937477751
 20
732.2873691914951
 30
0.0
 10
158.98729623516
 20
732.2995251857727
 30
0.0
  0
SPLINE
  5
96
330
1F
100
AcDbEntity
  8
0
  6
Continuous
 62
     7
370
    15
100
AcDbSpline
210
0.0
220
0.0
230
1.0
 70
     8
 71
     3
 72
     9
 73
     5
 74
     0
 42
0.00000001
 43
0.00000001
 40
0.0
 40
0.0
 40
0.0
 40
0.0
 40
0.0020776689117098
 40
1.0
 40
1.0
 40
1.0
 40
1.0
 10
126.0415302939029
 20
728.6681941592186
 30
0.0
 10
126.0414793153968
 20
728.668099821822
 30
0.0
 10
126.0169429199041
 20
728.6226944176756
 30
0.0
 10
126.0384175416793
 20
728.5518360895605
 30
0.0
 10
126.0598475463004
 20
728.481124981591
 30
0.0
  0
LINE
  5
97
330
1F
100
AcDbEntity
  8
0
  6
Continuous
 62
     7
370
    15
100
AcDbLine
 10
191.7693378753
 20
730.3316629374
 30
0.0
 11
191.7635636754
 21
730.3210533106
 31
0.0
  0
SPLINE
  5
98
330
1F
100
AcDbEntity
  8
0
  6
Continuous
 62
     8
370
     0
100
AcDbSpline
210
0.0
220
0.0
230
1.0
 70
     8
 71
     3
 72
    48
 73
    44
 74
     0
 42
0.00000001
 43
0.00000001
 40
0.0
 40
0.0
 40
0.0
 40
0.0
 40
0.1250000000000008
 40
0.1250000000000008
 40
0.1875000000000012
 40
0.1875000000000012
 40
0.2500000000000016
 40
0.2500000000000016
 40
0.312500000000002
 40
0.312500000000002
 40
0.3437500000000022
 40
0.3437500000000022
 40
0.3750000000000024
 40
0.3750000000000024
 40
0.3906250000000032
 40
0.3906250000000032
 40
0.4062500000000041
 40
0.4062500000000041
 40
0.4375000000000044
 40
0.4375000000000044
 40
0.5000000000000036
 40
0.5000000000000036
 40
0.5312500000000031
 40
0.5312500000000031
 40
0.5625000000000027
 40
0.5625000000000027
 40
0.5937500000000021
 40
0.5937500000000021
 40
0.6250000000000017
 40
0.6250000000000017
 40
0.687500000000001
 40
0.687500000000001
 40
0.7187500000000008
 40
0.7187500000000008
 40
0.7500000000000004
 40
0.7500000000000004
 40
0.8125000000000002
 40
0.8125000000000002
 40
0.8437500000000002
 40
0.8437500000000002
 40
0.8750000000000002
 40
0.8750000000000002
 40
1.0
 40
1.0
 40
1.0
 40
1.0
 10
188.3726851609686
 20
719.6716113953917
 30
0.0
 10
188.2477454691943
 20
719.6610365723682
 30
0.0
 10
188.1162905409521
 20
719.6635270251176
 30
0.0
 10
187.8917915983876
 20
719.6764201139872
 30
0.0
 10
187.8124181427564
 20
719.6822974834236
 30
0.0
 10
187.6398715254431
 20
719.6949064531165
 30
0.0
 10
187.5473239077686
 20
719.7013474350774
 30
0.0
 10
187.3361815610979
 20
719.7137588732193
 30
0.0
 10
187.2177512382739
 20
719.720839062693
 30
0.0
 10
186.9991133719585
 20
719.7285026574581
 30
0.0
 10
186.9199889006948
 20
719.7319563077162
 30
0.0
 10
186.7345748120056
 20
719.724033039939
 30
0.0
 10
186.6252231213191
 20
719.7081911376923
 30
0.0
 10
186.4246724141589
 20
719.7044192328008
 30
0.0
 10
186.352504337595
 20
719.7054916906889
 30
0.0
 10
186.2015986287606
 20
719.7049357430258
 30
0.0
 10
186.1230587859534
 20
719.7034573585095
 30
0.0
 10
185.8801499680515
 20
719.6969926159743
 30
0.0
 10
185.7082259165265
 20
719.691800427138
 30
0.0
 10
185.1500499180846
 20
719.677175680044
 30
0.0
 10
184.7209631884607
 20
719.6643987462421
 30
0.0
 10
183.9490527878333
 20
719.6377282432702
 30
0.0
 10
183.6695925237127
 20
719.6275020650211
 30
0.0
 10
183.0663678193571
 20
719.6045389215589
 30
0.0
 10
182.7418402354577
 20
719.5918839939006
 30
0.0
 10
182.0382464608125
 20
719.5656189749079
 30
0.0
 10
181.6592114682403
 20
719.5517429775517
 30
0.0
 10
180.8371634432991
 20
719.5257317081362
 30
0.0
 10
180.3925032887277
 20
719.5142634866719
 30
0.0
 10
179.0011519638909
 20
719.4867646225719
 30
0.0
 10
177.9846216943599
 20
719.4748967660009
 30
0.0
 10
176.3457448651241
 20
719.4708007274467
 30
0.0
 10
175.778837712542
 20
719.4711591533794
 30
0.0
 10
174.6372625054228
 20
719.47330334825
 30
0.0
 10
174.0595197053564
 20
719.4751929536889
 30
0.0
 10
172.3092778975861
 20
719.4819795620214
 30
0.0
 10
171.1197805333115
 20
719.4881040239162
 30
0.0
 10
169.3137946058513
 20
719.496205125204
 30
0.0
 10
168.7077542208911
 20
719.4986584122976
 30
0.0
 10
167.4962499488664
 20
719.5027807364371
 30
0.0
 10
166.8899499156689
 20
719.5044342079673
 30
0.0
 10
163.8563617845938
 20
719.511790303535
 30
0.0
 10
161.4228543247617
 20
719.5168673851796
 30
0.0
 10
158.9872960419751
 20
719.5102306070715
 30
0.0
  0
SPLINE
  5
99
330
1F
100
AcDbEntity
  8
0
  6
Continuous
 62
     8
370
     0
100
AcDbSpline
210
0.0
220
0.0
230
1.0
 70
     8
 71
     3
 72
    18
 73
    14
 74
     0
 42
0.00000001
 43
0.00000001
 40
0.0
 40
0.0
 40
0.0
 40
0.0
 40
0.1249999999999997
 40
0.1249999999999997
 40
0.2499999999999993
 40
0.2499999999999993
 40
0.4999999999999998
 40
0.4999999999999998
 40
0.7500000000000002
 40
0.7500000000000002
 40
0.8750000000000001
 40
0.8750000000000001
 40
1.0
 40
1.0
 40
1.0
 40
1.0
 10
188.3727205366342
 20
719.6717722079745
 30
0.0
 10
188.5409153269537
 20
719.6859944454409
 30
0.0
 10
188.6881005891943
 20
719.6911949569028
 30
0.0
 10
188.9589077470543
 20
719.7033629805159
 30
0.0
 10
189.0824573533842
 20
719.7088730522552
 30
0.0
 10
189.4350933916107
 20
719.7287863653162
 30
0.0
 10
189.6449638480414
 20
719.7465600482603
 30
0.0
 10
190.0273217383437
 20
719.7864884567445
 30
0.0
 10
190.199709313824
 20
719.8085925206767
 30
0.0
 10
190.4469877168981
 20
719.8479573788727
 30
0.0
 10
190.52744900878
 20
719.8621579294387
 30
0.0
 10
190.6834712489013
 20
719.8924874711938
 30
0.0
 10
190.7599589877826
 20
719.9078378832135
 30
0.0
 10
190.8313121732116
 20
719.9247576817909
 30
0.0
  0
SPLINE
  5
9A
330
1F
100
AcDbEntity
  8
0
  6
Continuous
 62
     8
370
     0
100
AcDbSpline
210
0.0
220
0.0
230
1.0
 70
     8
 71
     3
 72
    67
 73
    63
 74
     0
 42
0.00000001
 43
0.00000001
 40
0.0
 40
0.0
 40
0.0
 40
0.0
 40
0.0160520875523398
 40
0.0319606947245008
 40
0.0477259891646628
 40
0.063348428013646
 40
0.0788287742399518
 40
0.0941681117695439
 40
0.1093678593914799
 40
0.1244297833429063
 40
0.1393560084103616
 40
0.1541490273293608
 40
0.1688117082221767
 40
0.1833472997848417
 40
0.1977594339194445
 40
0.2120521255072371
 40
0.2262297690316057
 40
0.2402971317879709
 40
0.2542593434589376
 40
0.2681218818872411
 40
0.2818905551167261
 40
0.2955714840025503
 40
0.3091710784772653
 40
0.3226960038598204
 40
0.3361531461833735
 40
0.3495495737655135
 40
0.3628924951099888
 40
0.3761892135114208
 40
0.3894470816322886
 40
0.4026735288261389
 40
0.4158760958514293
 40
0.4290623657699854
 40
0.4422399108251804
 40
0.4554162425267244
 40
0.4685987639808044
 40
0.4817947249417916
 40
0.4950111799921317
 40
0.5082549501797871
 40
0.5215325883608175
 40
0.5348503484118327
 40
0.5482141592242942
 40
0.5616296087967694
 40
0.5751019259424957
 40
0.5886359649404914
 40
0.6022361967955673
 40
0.6159067045261899
 40
0.6296511821871297
 40
0.6434729373201346
 40
0.6573748965080844
 40
0.671359613699548
 40
0.6854292809704654
 40
0.699585741396324
 40
0.7138305037205439
 40
0.7281647598230174
 40
0.7425893999804646
 40
0.7778050863081643
 40
0.8135554397715473
 40
0.8498367201522363
 40
0.8866406265212041
 40
0.9239490914605173
 40
0.9617406078582024
 40
1.0
 40
1.0
 40
1.0
 40
1.0
 10
190.8312161856378
 20
719.9247655554794
 30
0.0
 10
190.7862930092809
 20
719.6965898982113
 30
0.0
 10
190.6968481990082
 20
719.2422781146669
 30
0.0
 10
190.5500432695252
 20
718.5665790566197
 30
0.0
 10
190.394557828589
 20
717.8992328334052
 30
0.0
 10
190.2293644184248
 20
717.2406075719739
 30
0.0
 10
190.0545991069739
 20
716.5908468439565
 30
0.0
 10
189.8700959063845
 20
715.9501510150448
 30
0.0
 10
189.6757746605041
 20
715.3187023771026
 30
0.0
 10
189.4715390261264
 20
714.6966844406041
 30
0.0
 10
189.2573039404503
 20
714.0842763411877
 30
0.0
 10
189.0329888692397
 20
713.4816538222682
 30
0.0
 10
188.7985201028037
 20
712.8889884781164
 30
0.0
 10
188.5538306625402
 20
712.3064474566947
 30
0.0
 10
188.2988608382682
 20
711.7341930437817
 30
0.0
 10
188.0335585546341
 20
711.1723822848512
 30
0.0
 10
187.7578797729447
 20
710.6211666085582
 30
0.0
 10
187.471788873867
 20
710.0806914632478
 30
0.0
 10
187.1752590131423
 20
709.5510959791667
 30
0.0
 10
186.8682725105181
 20
709.0325126157703
 30
0.0
 10
186.5508209789702
 20
708.5250669009384
 30
0.0
 10
186.222906253444
 20
708.0288766471785
 30
0.0
 10
185.8845412476516
 20
707.5440511555395
 30
0.0
 10
185.5357496982506
 20
707.0706912380446
 30
0.0
 10
185.1765667098759
 20
706.6088887932921
 30
0.0
 10
184.8070390817124
 20
706.1587264614398
 30
0.0
 10
184.42722566174
 20
705.7202772632429
 30
0.0
 10
184.0371976413119
 20
705.293604233943
 30
0.0
 10
183.6370380481928
 20
704.8787592626734
 30
0.0
 10
183.2268401617813
 20
704.4757812243699
 30
0.0
 10
182.8067058348975
 20
704.0846946234013
 30
0.0
 10
182.3767444570569
 20
703.7055092631425
 30
0.0
 10
181.9370727889438
 20
703.3382208501355
 30
0.0
 10
181.4878146314367
 20
702.9828114327306
 30
0.0
 10
181.0291004750559
 20
702.6392498328491
 30
0.0
 10
180.561067148961
 20
702.3074920832183
 30
0.0
 10
180.0838574732191
 20
701.9874818653658
 30
0.0
 10
179.5976199124975
 20
701.6791509546888
 30
0.0
 10
179.1025082499134
 20
701.3824196367649
 30
0.0
 10
178.5986812103737
 20
701.0971972117733
 30
0.0
 10
178.0863021880018
 20
700.8233820759228
 30
0.0
 10
177.5655377458739
 20
700.5608641922984
 30
0.0
 10
177.0365579388905
 20
700.309524450802
 30
0.0
 10
176.4995361822435
 20
700.0692347546325
 30
0.0
 10
175.9546487709741
 20
699.8398587726559
 30
0.0
 10
175.4020744651421
 20
699.6212524927212
 30
0.0
 10
174.8419940563697
 20
699.413264817607
 30
0.0
 10
174.2745899451911
 20
699.2157381411304
 30
0.0
 10
173.7000457285682
 20
699.0285089212585
 30
0.0
 10
173.1185457716965
 20
698.8514082399323
 30
0.0
 10
172.5302748704255
 20
698.6842623688827
 30
0.0
 10
171.9354176028205
 20
698.526893269631
 30
0.0
 10
171.3341588653761
 20
698.3791192896313
 30
0.0
 10
170.7266799403408
 20
698.2407550621564
 30
0.0
 10
169.819704042573
 20
698.0498418876788
 30
0.0
 10
168.6023371019021
 20
697.8281150190502
 30
0.0
 10
167.0646282748617
 20
697.6036527956345
 30
0.0
 10
165.4976585735507
 20
697.4262368374282
 30
0.0
 10
163.9036769737974
 20
697.2931647902722
 30
0.0
 10
162.2848995242498
 20
697.2022142187673
 30
0.0
 10
160.6433331142156
 20
697.1474245464644
 30
0.0
 10
159.5415362833108
 20
697.1412099560406
 30
0.0
 10
158.9872486643498
 20
697.1380835443173
 30
0.0
  0
SPLINE
  5
9B
330
1F
100
AcDbEntity
  8
0
  6
Continuous
 62
     8
370
     0
100
AcDbSpline
210
0.0
220
0.0
230
1.0
 70
     8
 71
     3
 72
    57
 73
    53
 74
     0
 42
0.00000001
 43
0.00000001
 40
0.0
 40
0.0
 40
0.0
 40
0.0
 40
0.0134725579423708
 40
0.0268132868801995
 40
0.0399990191376642
 40
0.0530753210866732
 40
0.0660830610075955
 40
0.0929775933788707
 40
0.1177247127646039
 40
0.142519620724823
 40
0.2145340583342376
 40
0.2377526353976986
 40
0.2492431106070511
 40
0.2832734434879329
 40
0.305635595965827
 40
0.3204793280796699
 40
0.3499031000636773
 40
0.3792181589572088
 40
0.3938837816561093
 40
0.4158152828016927
 40
0.4377465628671673
 40
0.4523767959413431
 40
0.4743395322716454
 40
0.4926856287213943
 40
0.5037214748135876
 40
0.5369892773256572
 40
0.5593450251921643
 40
0.5705866186588929
 40
0.5937017839568157
 40
0.6170350854783828
 40
0.6406079937925555
 40
0.658456440686786
 40
0.6707016590962017
 40
0.6769828073058702
 40
0.702298619114753
 40
0.7214926667192544
 40
0.7279309628265439
 40
0.7408681508549562
 40
0.7802217494914108
 40
0.7868709022354206
 40
0.8002317997149377
 40
0.8204298047162748
 40
0.8339996084807919
 40
0.8545098652273609
 40
0.8682862554954379
 40
0.8752050823922765
 40
0.9162793493687238
 40
0.9301235362735565
 40
0.937073527846091
 40
0.9580348255734142
 40
0.9789370788751928
 40
1.0
 40
1.0
 40
1.0
 40
1.0
 10
127.1432818757226
 20
719.9247474657935
 30
0.0
 10
127.1808507867247
 20
719.7332258478568
 30
0.0
 10
127.255620996865
 20
719.3520566513716
 30
0.0
 10
127.3764689472148
 20
718.7853313102228
 30
0.0
 10
127.5030538254937
 20
718.2257554692663
 30
0.0
 10
127.6362365325807
 20
717.6726665694939
 30
0.0
 10
127.8262510748685
 20
716.9290714836826
 30
0.0
 10
128.078113987394
 20
716.0268782431892
 30
0.0
 10
128.4083576953471
 20
714.9697684618237
 30
0.0
 10
128.9856925204666
 20
713.3061144236145
 30
0.0
 10
129.6629189257039
 20
711.7001530075174
 30
0.0
 10
130.3700860792003
 20
710.325008449189
 30
0.0
 10
130.8510273942089
 20
709.4530212520127
 30
0.0
 10
131.3595546326709
 20
708.6105174680595
 30
0.0
 10
131.9376912766935
 20
707.7553714797295
 30
0.0
 10
132.5060742634527
 20
706.9751153256278
 30
0.0
 10
133.1702132411817
 20
706.1405552809115
 30
0.0
 10
133.8802007862334
 20
705.3480433666047
 30
0.0
 10
134.5484213173252
 20
704.6658478508025
 30
0.0
 10
135.1640635881223
 20
704.082435344968
 30
0.0
 10
135.8047786302017
 20
703.5274648200858
 30
0.0
 10
136.4658142589426
 20
702.9964457258176
 30
0.0
 10
137.1044202812915
 20
702.521018912161
 30
0.0
 10
137.7183998137813
 20
702.1008823548242
 30
0.0
 10
138.481711697117
 20
701.6098554690279
 30
0.0
 10
139.3158637003775
 20
701.1218950346706
 30
0.0
 10
140.1757822576267
 20
700.6755320612438
 30
0.0
 10
140.9157718232551
 20
700.3185403264089
 30
0.0
 10
141.6790089073263
 20
699.9775380376026
 30
0.0
 10
142.6202946957814
 20
699.5989192108534
 30
0.0
 10
143.5028530315507
 20
699.2804352122761
 30
0.0
 10
144.2418140744516
 20
699.0386374728666
 30
0.0
 10
144.7459618534627
 20
698.8852480052589
 30
0.0
 10
145.3558320063856
 20
698.707952023338
 30
0.0
 10
146.0666393244179
 20
698.5173012928368
 30
0.0
 10
146.7845323272297
 20
698.3457041408332
 30
0.0
 10
147.3298451379193
 20
698.2239557949621
 30
0.0
 10
148.1622026620848
 20
698.047807970576
 30
0.0
 10
149.0026006611101
 20
697.8951715698659
 30
0.0
 10
149.8519878731146
 20
697.7607253413407
 30
0.0
 10
150.4281678708616
 20
697.6752354005058
 30
0.0
 10
151.1050239859554
 20
697.5855873493431
 30
0.0
 10
151.8859682508606
 20
697.4939010339799
 30
0.0
 10
152.5756336218136
 20
697.4229585121592
 30
0.0
 10
153.1702066973162
 20
697.3699613145262
 30
0.0
 10
154.0620899003331
 20
697.2975508239274
 30
0.0
 10
154.9562713013784
 20
697.241041571707
 30
0.0
 10
155.8516222623726
 20
697.2008131652351
 30
0.0
 10
156.4560682259338
 20
697.1776619680827
 30
0.0
 10
157.1629142342744
 20
697.1569306973813
 30
0.0
 10
158.0743811986525
 20
697.1407634693714
 30
0.0
 10
158.6823102343933
 20
697.1390568634004
 30
0.0
 10
158.9874385104997
 20
697.1382002934599
 30
0.0
  0
SPLINE
  5
9C
330
1F
100
AcDbEntity
  8
0
  6
Continuous
 62
     8
370
     0
100
AcDbSpline
210
0.0
220
0.0
230
1.0
 70
     8
 71
     3
 72
    18
 73
    14
 74
     0
 42
0.00000001
 43
0.00000001
 40
0.0
 40
0.0
 40
0.0
 40
0.0
 40
0.1250000000000005
 40
0.1250000000000005
 40
0.2500000000000009
 40
0.2500000000000009
 40
0.5000000000000008
 40
0.5000000000000008
 40
0.7500000000000007
 40
0.7500000000000007
 40
0.8750000000000004
 40
0.8750000000000004
 40
1.0
 40
1.0
 40
1.0
 40
1.0
 10
129.6018715470445
 20
719.6717722079745
 30
0.0
 10
129.433676756725
 20
719.685994445441
 30
0.0
 10
129.2864914944844
 20
719.6911949569027
 30
0.0
 10
129.0156843366243
 20
719.7033629805159
 30
0.0
 10
128.8921347302944
 20
719.7088730522553
 30
0.0
 10
128.5394986920678
 20
719.7287863653164
 30
0.0
 10
128.3296282356372
 20
719.7465600482604
 30
0.0
 10
127.9472703453349
 20
719.7864884567447
 30
0.0
 10
127.7748827698546
 20
719.8085925206765
 30
0.0
 10
127.5276043667806
 20
719.8479573788727
 30
0.0
 10
127.4471430748987
 20
719.8621579294385
 30
0.0
 10
127.2911208347774
 20
719.8924874711935
 30
0.0
 10
127.2146330958959
 20
719.9078378832137
 30
0.0
 10
127.143279910467
 20
719.9247576817909
 30
0.0
  0
SPLINE
  5
9D
330
1F
100
AcDbEntity
  8
0
  6
Continuous
 62
     8
370
     0
100
AcDbSpline
210
0.0
220
0.0
230
1.0
 70
     8
 71
     3
 72
    50
 73
    46
 74
     0
 42
0.00000001
 43
0.00000001
 40
0.0
 40
0.0
 40
0.0
 40
0.0
 40
0.1249999999999961
 40
0.1249999999999961
 40
0.1874999999999941
 40
0.1874999999999941
 40
0.2187499999999931
 40
0.2187499999999931
 40
0.2499999999999922
 40
0.2499999999999922
 40
0.2812499999999912
 40
0.2812499999999912
 40
0.3124999999999902
 40
0.3124999999999902
 40
0.3749999999999885
 40
0.3749999999999885
 40
0.3906249999999876
 40
0.3906249999999876
 40
0.4062499999999867
 40
0.4062499999999867
 40
0.4374999999999851
 40
0.4374999999999851
 40
0.4687499999999835
 40
0.4687499999999835
 40
0.4999999999999818
 40
0.4999999999999818
 40
0.5624999999999797
 40
0.5624999999999797
 40
0.5937499999999795
 40
0.5937499999999795
 40
0.6093749999999799
 40
0.6093749999999799
 40
0.6249999999999805
 40
0.6249999999999805
 40
0.6562499999999815
 40
0.6562499999999815
 40
0.6874999999999825
 40
0.6874999999999825
 40
0.7499999999999859
 40
0.7499999999999859
 40
0.8124999999999895
 40
0.8124999999999895
 40
0.8749999999999929
 40
0.8749999999999929
 40
1.0
 40
1.0
 40
1.0
 40
1.0
 10
158.9872300843856
 20
719.5102307868017
 30
0.0
 10
156.5541635322115
 20
719.5168607568501
 30
0.0
 10
154.1238551451108
 20
719.5117954226149
 30
0.0
 10
150.4916935606528
 20
719.5030006082218
 30
0.0
 10
149.2831189914672
 20
719.4989857443195
 30
0.0
 10
147.4760401525055
 20
719.4908959964793
 30
0.0
 10
146.873252647807
 20
719.4879927672358
 30
0.0
 10
145.6786348190286
 20
719.4824118783157
 30
0.0
 10
145.0869537166444
 20
719.479738509889
 30
0.0
 10
143.9173018984808
 20
719.475200052674
 30
0.0
 10
143.3393127815075
 20
719.4733099753416
 30
0.0
 10
142.1998883557694
 20
719.4711640316052
 30
0.0
 10
141.6366763597448
 20
719.4707927789647
 30
0.0
 10
139.9894985296049
 20
719.4748748676171
 30
0.0
 10
138.9709200590209
 20
719.4868012999035
 30
0.0
 10
137.8121830198407
 20
719.5097191714966
 30
0.0
 10
137.5861265074257
 20
719.5147773498082
 30
0.0
 10
137.145608009623
 20
719.5260170969038
 30
0.0
 10
136.9313711038912
 20
719.5322508323561
 30
0.0
 10
136.3147794017509
 20
719.5517639147497
 30
0.0
 10
135.9353634404499
 20
719.565654504993
 30
0.0
 10
135.2306752010905
 20
719.5919626542673
 30
0.0
 10
134.9054326770327
 20
719.6046476887955
 30
0.0
 10
134.3006643343899
 20
719.627664566825
 30
0.0
 10
134.0219098246832
 20
719.6378567352889
 30
0.0
 10
133.2535203475088
 20
719.66439627387
 30
0.0
 10
132.8264984215815
 20
719.6771188961656
 30
0.0
 10
132.2709049393604
 20
719.6916842301737
 30
0.0
 10
132.0999801077745
 20
719.6967960407637
 30
0.0
 10
131.8576885645537
 20
719.7033167909112
 30
0.0
 10
131.7792020548748
 20
719.7048545861275
 30
0.0
 10
131.6279694383312
 20
719.7055238287426
 30
0.0
 10
131.5553840826912
 20
719.7044391263653
 30
0.0
 10
131.3536915203133
 20
719.7078779854651
 30
0.0
 10
131.2435633918722
 20
719.7237060797084
 30
0.0
 10
131.0572039168716
 20
719.7320149023234
 30
0.0
 10
130.9778058701989
 20
719.7285630640512
 30
0.0
 10
130.7584308468437
 20
719.7209362328662
 30
0.0
 10
130.6396980673382
 20
719.7138290858105
 30
0.0
 10
130.4280730662085
 20
719.7014001668045
 30
0.0
 10
130.3353575078652
 20
719.6949524365443
 30
0.0
 10
130.1626037758054
 20
719.6823294526043
 30
0.0
 10
130.0831744083299
 20
719.676445123643
 30
0.0
 10
129.8584884962418
 20
719.6635307138449
 30
0.0
 10
129.7269319977207
 20
719.661029332635
 30
0.0
 10
129.6019067505179
 20
719.671611409966
 30
0.0
  0
SPLINE
  5
9E
330
1F
100
AcDbEntity
  8
0
  6
Continuous
 62
     8
370
    15
100
AcDbSpline
210
0.0
220
0.0
230
1.0
 70
     8
 71
     3
 72
    37
 73
    33
 74
     0
 42
0.00000001
 43
0.00000001
 40
0.0
 40
0.0
 40
0.0
 40
0.0
 40
0.0115387475285938
 40
0.0230893013724122
 40
0.034631969825447
 40
0.0697305299371548
 40
0.1047981387281771
 40
0.1254910674345237
 40
0.1461723076492632
 40
0.1858223313269775
 40
0.2254578293392606
 40
0.2390019994131331
 40
0.2812979306853251
 40
0.3296475225012849
 40
0.3467866570527904
 40
0.3917729307670609
 40
0.4368197812127205
 40
0.4637531805502475
 40
0.4906540783164224
 40
0.5178163210262361
 40
0.5294117863751254
 40
0.5562174184630617
 40
0.5716359797510816
 40
0.5866801008102058
 40
0.6019181245830647
 40
0.6844411006231083
 40
0.7677065101166513
 40
0.8565214869058451
 40
0.9453088811168413
 40
0.9726573327852877
 40
0.993164938994087
 40
1.0
 40
1.0
 40
1.0
 40
1.0
 10
170.0657727324089
 20
721.8158832533641
 30
0.0
 10
170.2391497961321
 20
721.8157551257043
 30
0.0
 10
170.5860813210178
 20
721.815498739286
 30
0.0
 10
171.1046518221434
 20
721.8150498938201
 30
0.0
 10
171.9731845653348
 20
721.8141131323086
 30
0.0
 10
173.183186994109
 20
721.8119013567045
 30
0.0
 10
174.5030114853098
 20
721.8068362161675
 30
0.0
 10
175.5866302512712
 20
721.8015225196763
 30
0.0
 10
176.7084960237181
 20
721.7956947140456
 30
0.0
 10
178.032757102221
 20
721.7887194542674
 30
0.0
 10
179.1580954235212
 20
721.7794398160974
 30
0.0
 10
180.2234540300947
 20
721.7688878877796
 30
0.0
 10
181.277802680569
 20
721.7568793236242
 30
0.0
 10
182.1820222146826
 20
721.7423442548849
 30
0.0
 10
182.9903768928391
 20
721.7266402374654
 30
0.0
 10
183.6750286045236
 20
721.7112768995734
 30
0.0
 10
184.2911972964827
 20
721.694516219047
 30
0.0
 10
184.739957998065
 20
721.6797698874487
 30
0.0
 10
185.069529700684
 20
721.6670733625917
 30
0.0
 10
185.3179224030914
 20
721.6539218397197
 30
0.0
 10
185.5388861786922
 20
721.6449475560647
 30
0.0
 10
185.6901371547194
 20
721.6415511601163
 30
0.0
 10
185.8267942224985
 20
721.6305582999477
 30
0.0
 10
185.918630794078
 20
721.6217638134727
 30
0.0
 10
186.1237526237404
 20
721.6026368821493
 30
0.0
 10
186.3768010418591
 20
721.583689553944
 30
0.0
 10
186.6510183697583
 20
721.563051687814
 30
0.0
 10
186.8955511058015
 20
721.5491009730125
 30
0.0
 10
187.0710862624888
 20
721.5465475334852
 30
0.0
 10
187.1864454249787
 20
721.5501017797123
 30
0.0
 10
187.2326126919902
 20
721.5525091754569
 30
0.0
 10
187.255730319169
 20
721.5540965121997
 30
0.0
 10
187.2615092137749
 20
721.5544933112168
 30
0.0
  0
SPLINE
  5
9F
330
1F
100
AcDbEntity
  8
0
  6
Continuous
 62
     8
370
     0
100
AcDbSpline
210
0.0
220
0.0
230
1.0
 70
     8
 71
     3
 72
    35
 73
    31
 74
     0
 42
0.00000001
 43
0.00000001
 40
0.0
 40
0.0
 40
0.0
 40
0.0
 40
0.0370959345253561
 40
0.0741586310101907
 40
0.1111897877839713
 40
0.1481876098993256
 40
0.1844626460979809
 40
0.2224521276181327
 40
0.2479312428611614
 40
0.2988577660189799
 40
0.3967790568745491
 40
0.4457262261682878
 40
0.4946590333537181
 40
0.5191266304766333
 40
0.5435961563454675
 40
0.6049258248102408
 40
0.629690186583143
 40
0.6420768923548686
 40
0.6916557654434485
 40
0.7306085398941847
 40
0.7436029681725523
 40
0.7696056148382078
 40
0.7956313305027839
 40
0.8202892285356402
 40
0.8573176849812428
 40
0.8820288183587432
 40
0.8882092300191275
 40
0.9207623949747831
 40
0.9603616610992655
 40
1.0
 40
1.0
 40
1.0
 40
1.0
 10
158.987364627502
 20
725.5208353382282
 30
0.0
 10
158.6328561992167
 20
725.5201958951245
 30
0.0
 10
157.9241569829929
 20
725.5189175818596
 30
0.0
 10
156.8616250406638
 20
725.5069822269845
 30
0.0
 10
155.8001364521189
 20
725.4880826982024
 30
0.0
 10
154.7463797417817
 20
725.4598547694982
 30
0.0
 10
153.6837395993315
 20
725.4226877397211
 30
0.0
 10
152.7314475929685
 20
725.3807207309454
 30
0.0
 10
151.6397246730252
 20
725.3234327566717
 30
0.0
 10
149.9769660628666
 20
725.2197242559602
 30
0.0
 10
148.0928212316808
 20
725.0645113088734
 30
0.0
 10
146.2318694849979
 20
724.8685756257032
 30
0.0
 10
145.0711878669122
 20
724.7270478285294
 30
0.0
 10
144.1443276924697
 20
724.6016429382609
 30
0.0
 10
143.1013796335541
 20
724.4509825185054
 30
0.0
 10
142.0580867698398
 20
724.2830741681686
 30
0.0
 10
141.1314806216101
 20
724.1183098292488
 30
0.0
 10
140.3164641851181
 20
723.9675855816038
 30
0.0
 10
139.3701052195884
 20
723.781470826166
 30
0.0
 10
138.4211716781859
 20
723.5791343972235
 30
0.0
 10
137.6940909880922
 20
723.4170433551326
 30
0.0
 10
137.0885288614992
 20
723.2776434948831
 30
0.0
 10
136.3758596281325
 20
723.1067956022943
 30
0.0
 10
135.5624089354532
 20
722.9044952456417
 30
0.0
 10
134.7631153275363
 20
722.6974437281399
 30
0.0
 10
134.1361797968423
 20
722.5293387038693
 30
0.0
 10
133.5512271271403
 20
722.3698342919307
 30
0.0
 10
132.8300506703924
 20
722.1690836899791
 30
0.0
 10
131.8030093180909
 20
721.8749145502624
 30
0.0
 10
131.0765172291902
 20
721.6613376204282
 30
0.0
 10
130.7130920648458
 20
721.5544964971577
 30
0.0
  0
SPLINE
  5
A0
330
1F
100
AcDbEntity
  8
0
  6
Continuous
 62
     8
370
     0
100
AcDbSpline
210
0.0
220
0.0
230
1.0
 70
     8
 71
     3
 72
    23
 73
    19
 74
     0
 42
0.00000001
 43
0.00000001
 40
0.0
 40
0.0
 40
0.0
 40
0.0
 40
0.0620247838713951
 40
0.1238466544068485
 40
0.1856183819760982
 40
0.2474885933597743
 40
0.3094463680043013
 40
0.3714636678188191
 40
0.4336581919292085
 40
0.4960929966683272
 40
0.5587740122107383
 40
0.6216640260890874
 40
0.6846979300995175
 40
0.7477993965103038
 40
0.8108989090865832
 40
0.8739528953288518
 40
0.9369636657114907
 40
1.0
 40
1.0
 40
1.0
 40
1.0
 10
187.2615628040522
 20
721.5545709592976
 30
0.0
 10
186.6927950477486
 20
721.7214564708577
 30
0.0
 10
185.5571202520291
 20
722.0546815300299
 30
0.0
 10
183.848390695712
 20
722.5312269778194
 30
0.0
 10
182.1336828405272
 20
722.9800808049304
 30
0.0
 10
180.409121551019
 20
723.3952053619969
 30
0.0
 10
178.673580293395
 20
723.7730092524918
 30
0.0
 10
176.9267129662581
 20
724.1111728778473
 30
0.0
 10
175.1678957472442
 20
724.4090073812557
 30
0.0
 10
173.3963896207427
 20
724.6669803579956
 30
0.0
 10
171.6130013161399
 20
724.886296362398
 30
0.0
 10
169.8197345170833
 20
725.068804873086
 30
0.0
 10
168.0192826108848
 20
725.2168748710836
 30
0.0
 10
166.2145078144505
 20
725.33309049018
 30
0.0
 10
164.407910516177
 20
725.4202276798922
 30
0.0
 10
162.601094044701
 20
725.4799222622732
 30
0.0
 10
160.7942184895646
 20
725.5160787197501
 30
0.0
 10
159.5896303510589
 20
725.5190422337625
 30
0.0
 10
158.9872141291478
 20
725.5205242912873
 30
0.0
  0
SPLINE
  5
A1
330
1F
100
AcDbEntity
  8
0
  6
Continuous
 62
     8
370
    15
100
AcDbSpline
210
0.0
220
0.0
230
1.0
 70
     8
 71
     3
 72
    16
 73
    12
 74
     0
 42
0.00000001
 43
0.00000001
 40
0.0
 40
0.0
 40
0.0
 40
0.0
 40
0.2500000000000003
 40
0.2500000000000003
 40
0.5000000000000006
 40
0.5000000000000006
 40
0.7500000000000009
 40
0.7500000000000009
 40
0.8750000000000004
 40
0.8750000000000004
 40
1.0
 40
1.0
 40
1.0
 40
1.0
 10
128.1677973098914
 20
721.7349694274877
 30
0.0
 10
128.313373006209
 20
721.7117171908561
 30
0.0
 10
128.4746687264739
 20
721.6957730986225
 30
0.0
 10
128.8119418836536
 20
721.6645652501678
 30
0.0
 10
128.9900015109834
 20
721.6500450148654
 30
0.0
 10
129.387048972352
 20
721.6230309819872
 30
0.0
 10
129.6058919001169
 20
721.6103325860034
 30
0.0
 10
129.9715274084477
 20
721.5923035997414
 30
0.0
 10
130.0993464299941
 20
721.5865937201252
 30
0.0
 10
130.3797125742016
 20
721.5734238431361
 30
0.0
 10
130.5323572038104
 20
721.5671607471428
 30
0.0
 10
130.7130112328007
 20
721.5545656307403
 30
0.0
  0
SPLINE
  5
A2
330
1F
100
AcDbEntity
  8
0
  6
Continuous
 62
     8
370
    15
100
AcDbSpline
210
0.0
220
0.0
230
1.0
 70
     8
 71
     3
 72
    12
 73
     8
 74
     0
 42
0.00000001
 43
0.00000001
 40
0.0
 40
0.0
 40
0.0
 40
0.0
 40
0.25
 40
0.25
 40
0.5
 40
0.5
 40
1.0
 40
1.0
 40
1.0
 40
1.0
 10
127.325847851045
 20
721.9832041022887
 30
0.0
 10
127.3912896575527
 20
721.9420363345489
 30
0.0
 10
127.4555764586885
 20
721.9105149049743
 30
0.0
 10
127.5898564142046
 20
721.8594446409329
 30
0.0
 10
127.6584257661293
 20
721.8394208903688
 30
0.0
 10
127.8688409288803
 20
721.7861202763324
 30
0.0
 10
128.014199668678
 20
721.7583023496788
 30
0.0
 10
128.1678912201695
 20
721.7350037880242
 30
0.0
  0
SPLINE
  5
A3
330
1F
100
AcDbEntity
  8
0
  6
Continuous
 62
     8
370
     0
100
AcDbSpline
210
0.0
220
0.0
230
1.0
 70
     8
 71
     3
 72
    33
 73
    29
 74
     0
 42
0.00000001
 43
0.00000001
 40
0.0
 40
0.0
 40
0.0
 40
0.0
 40
0.0274120628372427
 40
0.0547174674447748
 40
0.0819278239240149
 40
0.1090476349682083
 40
0.1360760080810902
 40
0.1630085590848981
 40
0.1898405355829992
 40
0.2165685155303133
 40
0.2431919622414582
 40
0.2697151348310944
 40
0.2961489796469075
 40
0.3222575159139647
 40
0.3475644244321232
 40
0.3728064578188189
 40
0.3987261195054649
 40
0.449699844049979
 40
0.4996197165660897
 40
0.5247377070287349
 40
0.5998815626291931
 40
0.7246041588570908
 40
0.7498278145773681
 40
0.800224351575166
 40
0.8507089137139652
 40
0.9011240252553916
 40
0.9505682894943374
 40
1.0
 40
1.0
 40
1.0
 40
1.0
 10
127.3258505432468
 20
721.9833451360773
 30
0.0
 10
127.6011740285731
 20
722.0908785608588
 30
0.0
 10
128.1507497367046
 20
722.3055270061304
 30
0.0
 10
128.9784282021207
 20
722.6143934493211
 30
0.0
 10
129.8064902925592
 20
722.9130188433118
 30
0.0
 10
130.6352722713167
 20
723.2006731923999
 30
0.0
 10
131.4645102660601
 20
723.4776889999503
 30
0.0
 10
132.2939926667167
 20
723.7439898838624
 30
0.0
 10
133.1234161779795
 20
723.9996835268041
 30
0.0
 10
133.9525173831746
 20
724.2449146990423
 30
0.0
 10
134.7811296862866
 20
724.4798635310979
 30
0.0
 10
135.6092409644411
 20
724.7047564891548
 30
0.0
 10
136.4343893170713
 20
724.9191777300713
 30
0.0
 10
137.2490605083281
 20
725.121577790571
 30
0.0
 10
138.0532796020028
 20
725.3125586818938
 30
0.0
 10
138.8573933739371
 20
725.4949891644189
 30
0.0
 10
139.933801033988
 20
725.727845650855
 30
0.0
 10
141.27452281858
 20
725.9970215587621
 30
0.0
 10
142.6116179883025
 20
726.2390417775632
 30
0.0
 10
144.2089384897185
 20
726.5053847646464
 30
0.0
 10
146.6089887067195
 20
726.8606240462467
 30
0.0
 10
149.0218393344243
 20
727.1312998535617
 30
0.0
 10
151.1740019461633
 20
727.317761995578
 30
0.0
 10
152.5301256650052
 20
727.4179138087302
 30
0.0
 10
154.1589201308982
 20
727.5109892484237
 30
0.0
 10
155.778775356579
 20
727.5761317687792
 30
0.0
 10
157.388129107708
 20
727.6164377878846
 30
0.0
 10
158.4542855217812
 20
727.621385620158
 30
0.0
 10
158.987296046839
 20
727.6238592221953
 30
0.0
  0
SPLINE
  5
A4
330
1F
100
AcDbEntity
  8
0
  6
Continuous
 62
     8
370
    15
100
AcDbSpline
210
0.0
220
0.0
230
1.0
 70
     8
 71
     3
 72
    12
 73
     8
 74
     0
 42
0.00000001
 43
0.00000001
 40
0.0
 40
0.0
 40
0.0
 40
0.0
 40
0.2499999999999998
 40
0.2499999999999998
 40
0.4999999999999996
 40
0.4999999999999996
 40
1.0
 40
1.0
 40
1.0
 40
1.0
 10
190.6487442326337
 20
721.9832041022888
 30
0.0
 10
190.583302426126
 20
721.942036334549
 30
0.0
 10
190.5190156249901
 20
721.9105149049743
 30
0.0
 10
190.384735669474
 20
721.8594446409328
 30
0.0
 10
190.3161663175493
 20
721.8394208903687
 30
0.0
 10
190.1057511547983
 20
721.7861202763321
 30
0.0
 10
189.9603924150006
 20
721.7583023496788
 30
0.0
 10
189.8067008635091
 20
721.7350037880242
 30
0.0
  0
SPLINE
  5
A5
330
1F
100
AcDbEntity
  8
0
  6
Continuous
 62
     8
370
    15
100
AcDbSpline
210
0.0
220
0.0
230
1.0
 70
     8
 71
     3
 72
    16
 73
    12
 74
     0
 42
0.00000001
 43
0.00000001
 40
0.0
 40
0.0
 40
0.0
 40
0.0
 40
0.25
 40
0.25
 40
0.5
 40
0.5
 40
0.75
 40
0.75
 40
0.875
 40
0.875
 40
1.0
 40
1.0
 40
1.0
 40
1.0
 10
189.8067947737872
 20
721.7349694274877
 30
0.0
 10
189.6612190774695
 20
721.711717190856
 30
0.0
 10
189.4999233572047
 20
721.6957730986226
 30
0.0
 10
189.162650200025
 20
721.6645652501678
 30
0.0
 10
188.9845905726952
 20
721.6500450148656
 30
0.0
 10
188.5875431113266
 20
721.6230309819872
 30
0.0
 10
188.3687001835617
 20
721.6103325860034
 30
0.0
 10
188.0030646752309
 20
721.5923035997414
 30
0.0
 10
187.8752456536845
 20
721.586593720125
 30
0.0
 10
187.594879509477
 20
721.5734238431361
 30
0.0
 10
187.4422348798682
 20
721.5671607471428
 30
0.0
 10
187.2615808508779
 20
721.5545656307403
 30
0.0
  0
SPLINE
  5
A6
330
1F
100
AcDbEntity
  8
0
  6
Continuous
 62
     8
370
     0
100
AcDbSpline
210
0.0
220
0.0
230
1.0
 70
     8
 71
     3
 72
    42
 73
    38
 74
     0
 42
0.00000001
 43
0.00000001
 40
0.0
 40
0.0
 40
0.0
 40
0.0
 40
0.0302181464920529
 40
0.0603032252635983
 40
0.0902593157987456
 40
0.1200902256269408
 40
0.1497995312649262
 40
0.1793906158806077
 40
0.2088667039275151
 40
0.2382308929696362
 40
0.2674861828886061
 40
0.296635502638919
 40
0.3256817346922109
 40
0.3546277372889931
 40
0.3834763645955745
 40
0.4122304848454664
 40
0.4408929965283084
 40
0.4694668426753815
 40
0.4979550232790465
 40
0.5263606058739685
 40
0.5546867343007386
 40
0.5829366356673862
 40
0.6111136255212856
 40
0.6392211112429486
 40
0.6672625936741005
 40
0.6952416669951296
 40
0.7231620168713249
 40
0.7510274168931451
 40
0.7788417233428917
 40
0.8066088683284218
 40
0.8343328513337133
 40
0.8620177292459429
 40
0.8896676049290855
 40
0.917286614424548
 40
0.9448789128698947
 40
0.972448659236911
 40
1.0
 40
1.0
 40
1.0
 40
1.0
 10
158.987296608445
 20
727.6231320334714
 30
0.0
 10
159.3131348371663
 20
727.6224291938338
 30
0.0
 10
159.9633764431906
 20
727.6210266095621
 30
0.0
 10
160.9365402192537
 20
727.6064447296518
 30
0.0
 10
161.905340438404
 20
727.5829644646046
 30
0.0
 10
162.8698098450207
 20
727.5498517605621
 30
0.0
 10
163.8299754482314
 20
727.5074868092233
 30
0.0
 10
164.78585993357
 20
727.4559225239572
 30
0.0
 10
165.7374816959991
 20
727.3952705016667
 30
0.0
 10
166.6848552290686
 20
727.3256003288369
 30
0.0
 10
167.6279914083206
 20
727.2469684324823
 30
0.0
 10
168.5668977920047
 20
727.1594123715456
 30
0.0
 10
169.5015789063916
 20
727.0629542792965
 30
0.0
 10
170.4320365244805
 20
726.957601812857
 30
0.0
 10
171.3582699358479
 20
726.8433497124857
 30
0.0
 10
172.2802762083359
 20
726.7201811442394
 30
0.0
 10
173.1980504415037
 20
726.5880690466229
 30
0.0
 10
174.1115860119748
 20
726.4469774228172
 30
0.0
 10
175.0208748107649
 20
726.2968625944599
 30
0.0
 10
175.9259074726938
 20
726.1376744131383
 30
0.0
 10
176.826673597978
 20
725.9693574310347
 30
0.0
 10
177.7231619661216
 20
725.7918520308114
 30
0.0
 10
178.6153607421719
 20
725.605095515067
 30
0.0
 10
179.5032576755818
 20
725.4090231560596
 30
0.0
 10
180.3868402912906
 20
725.2035692048115
 30
0.0
 10
181.2660960749702
 20
724.9886678646474
 30
0.0
 10
182.1410126456896
 20
724.764254212202
 30
0.0
 10
183.0115779415924
 20
724.5302651308502
 30
0.0
 10
183.8777803238312
 20
724.2866400167676
 30
0.0
 10
184.7396089518797
 20
724.0333221519844
 30
0.0
 10
185.597053116191
 20
723.7702574171851
 30
0.0
 10
186.4501054210757
 20
723.4974027343804
 30
0.0
 10
187.2987505970144
 20
723.2146981003568
 30
0.0
 10
188.1430078122995
 20
722.9221740737735
 30
0.0
 10
188.9827736239244
 20
722.6195544147126
 30
0.0
 10
189.8184078501566
 20
722.3077399587962
 30
0.0
 10
190.3719933467996
 20
722.0913718504462
 30
0.0
 10
190.6486936706432
 20
721.9832239202476
 30
0.0
  0
SPLINE
  5
A7
330
1F
100
AcDbEntity
  8
0
  6
Continuous
 62
     8
370
     0
100
AcDbSpline
210
0.0
220
0.0
230
1.0
 70
     8
 71
     3
 72
    24
 73
    20
 74
     0
 42
0.00000001
 43
0.00000001
 40
0.0
 40
0.0
 40
0.0
 40
0.0
 40
0.2499999999999998
 40
0.2499999999999998
 40
0.4999999999999996
 40
0.4999999999999996
 40
0.6249999999999997
 40
0.6249999999999997
 40
0.7499999999999998
 40
0.7499999999999998
 40
0.8749999999999999
 40
0.8749999999999999
 40
0.9374999999999999
 40
0.9374999999999999
 40
0.9687499999999999
 40
0.9687499999999999
 40
0.984375
 40
0.984375
 40
1.0
 40
1.0
 40
1.0
 40
1.0
 10
127.1433778645172
 20
719.9247553345236
 30
0.0
 10
127.0350580334692
 20
719.9492624473656
 30
0.0
 10
126.9311880041267
 20
719.9765457985809
 30
0.0
 10
126.730873298677
 20
720.0393013703704
 30
0.0
 10
126.6342801486273
 20
720.0737315057362
 30
0.0
 10
126.4941403738918
 20
720.1403105655424
 30
0.0
 10
126.4481039050563
 20
720.1651571556554
 30
0.0
 10
126.3591294085303
 20
720.2224606004189
 30
0.0
 10
126.315900396176
 20
720.2546087648925
 30
0.0
 10
126.2271122062794
 20
720.3365684991244
 30
0.0
 10
126.1811893283459
 20
720.3854173193824
 30
0.0
 10
126.1115623707525
 20
720.4786615418972
 30
0.0
 10
126.0883999440988
 20
720.5152902319053
 30
0.0
 10
126.0541357213322
 20
720.5832363691314
 30
0.0
 10
126.0420600883719
 20
720.6091751547322
 30
0.0
 10
126.0251297641805
 20
720.6529616003835
 30
0.0
 10
126.0208956354091
 20
720.670181045268
 30
0.0
 10
126.0112379975991
 20
720.710663181454
 30
0.0
 10
126.0064779805891
 20
720.7310101243065
 30
0.0
 10
126.001419740661
 20
720.7572146942969
 30
0.0
  0
LINE
  5
A8
330
1F
100
AcDbEntity
  8
0
  6
Continuous
 62
     8
370
     0
100
AcDbLine
 10
158.9872486643
 20
697.1380821311
 30
0.0
 11
158.987274277
 21
697.0761976087
 31
0.0
  0
SPLINE
  5
A9
330
1F
100
AcDbEntity
  8
0
  6
Continuous
 62
     8
370
     0
100
AcDbSpline
210
0.0
220
0.0
230
1.0
 70
     8
 71
     3
 72
    36
 73
    32
 74
     0
 42
0.00000001
 43
0.00000001
 40
0.0
 40
0.0
 40
0.0
 40
0.0
 40
0.0165850441650004
 40
0.0311631713122275
 40
0.0457129488647469
 40
0.0622700897600903
 40
0.0933445940215485
 40
0.1243764386833201
 40
0.1876287682757529
 40
0.2483154867589675
 40
0.3123627080124438
 40
0.3721798814375223
 40
0.4370194109572894
 40
0.4968686379507112
 40
0.5628073096012519
 40
0.6228482619895769
 40
0.6856525524605473
 40
0.7170075836656831
 40
0.7486481401027975
 40
0.7787918553601276
 40
0.811191666559842
 40
0.8408158286781978
 40
0.8740732320162928
 40
0.8871226218017899
 40
0.9008820297642137
 40
0.9153809540588284
 40
0.930649852071616
 40
0.9467185197059801
 40
0.9636149329931429
 40
0.9813660612301786
 40
1.0
 40
1.0
 40
1.0
 40
1.0
 10
126.1686603628271
 20
719.4953145510019
 30
0.0
 10
126.179526303904
 20
719.4192735478032
 30
0.0
 10
126.1999433241951
 20
719.2763930835812
 30
0.0
 10
126.2358774652823
 20
719.0594145854703
 30
0.0
 10
126.2825009387795
 20
718.8359579597377
 30
0.0
 10
126.3592465779033
 20
718.5256198258419
 30
0.0
 10
126.4641327105163
 20
718.1145692403632
 30
0.0
 10
126.6551098239268
 20
717.4256620477759
 30
0.0
 10
126.9282581596389
 20
716.5084174779103
 30
0.0
 10
127.3208870124483
 20
715.2796259297122
 30
0.0
 10
127.7951628450519
 20
713.9548750087594
 30
0.0
 10
128.4135986743168
 20
712.4699209518558
 30
0.0
 10
129.1904287985128
 20
710.874629127164
 30
0.0
 10
130.2368565157328
 20
709.0663910333485
 30
0.0
 10
131.5914554123282
 20
707.130374645645
 30
0.0
 10
133.4599240518003
 20
704.9966731948883
 30
0.0
 10
135.5570261896612
 20
703.1537791766983
 30
0.0
 10
137.72816788044
 20
701.6907690917183
 30
0.0
 10
139.5705912716478
 20
700.6688527434405
 30
0.0
 10
141.6489805719946
 20
699.7380241176186
 30
0.0
 10
143.8562100542871
 20
698.9610472771759
 30
0.0
 10
146.2643143772981
 20
698.310121833672
 30
0.0
 10
148.2519345640463
 20
697.9128881570103
 30
0.0
 10
149.8467879204352
 20
697.6634348862815
 30
0.0
 10
150.9511883407843
 20
697.5162865265357
 30
0.0
 10
152.1213135025616
 20
697.3867700537842
 30
0.0
 10
153.3588750123292
 20
697.2770725667663
 30
0.0
 10
154.6653855173295
 20
697.188997992838
 30
0.0
 10
156.0422163258229
 20
697.1247350703744
 30
0.0
 10
157.4906813941525
 20
697.0835500114597
 30
0.0
 10
158.4804342147308
 20
697.0786864267252
 30
0.0
 10
158.9873178066297
 20
697.076195631803
 30
0.0
  0
SPLINE
  5
AA
330
1F
100
AcDbEntity
  8
0
  6
Continuous
 62
     8
370
     0
100
AcDbSpline
210
0.0
220
0.0
230
1.0
 70
     8
 71
     3
 72
    30
 73
    26
 74
     0
 42
0.00000001
 43
0.00000001
 40
0.0
 40
0.0
 40
0.0
 40
0.0
 40
0.0664725551380137
 40
0.1383828161959244
 40
0.2099793506987357
 40
0.2818038967153134
 40
0.3522472735991096
 40
0.4251420132839052
 40
0.4942859296610339
 40
0.5391439632033481
 40
0.5813288119121569
 40
0.6209289445399134
 40
0.65304625586233
 40
0.6841198595628254
 40
0.7156301591757664
 40
0.7474274619675983
 40
0.7674055586246405
 40
0.7883095219474385
 40
0.8103048346131432
 40
0.8247691607081041
 40
0.8400857816220073
 40
0.8563143993804582
 40
0.8735180530756701
 40
0.9303383871233379
 40
1.0
 40
1.0
 40
1.0
 40
1.0
 10
191.7913468904109
 20
719.422507926175
 30
0.0
 10
191.7348750100508
 20
719.1101662583635
 30
0.0
 10
191.6173116363563
 20
718.459932195338
 30
0.0
 10
191.2852746415623
 20
717.3073470723515
 30
0.0
 10
190.8886284964625
 20
715.9952078654798
 30
0.0
 10
190.3986970733284
 20
714.535299684002
 30
0.0
 10
189.7575548072367
 20
712.9050061687494
 30
0.0
 10
188.9147683959401
 20
711.1124871269119
 30
0.0
 10
187.9171720356846
 20
709.3600091207722
 30
0.0
 10
186.8315855142967
 20
707.7662937183527
 30
0.0
 10
185.7493674113929
 20
706.3950067829159
 30
0.0
 10
184.5579869654542
 20
705.1013009615549
 30
0.0
 10
183.2649301637331
 20
703.8987735712443
 30
0.0
 10
181.8674605662832
 20
702.7830275608289
 30
0.0
 10
180.246449844037
 20
701.6907731231101
 30
0.0
 10
178.6067960999451
 20
700.7814201570335
 30
0.0
 10
177.0391398467358
 20
700.0537561860195
 30
0.0
 10
175.6001241030336
 20
699.4788698601413
 30
0.0
 10
174.220806236379
 20
699.0135379123838
 30
0.0
 10
172.935851262219
 20
698.6413565110436
 30
0.0
 10
171.769727308919
 20
698.3455477186965
 30
0.0
 10
170.5122642990614
 20
698.0705496376058
 30
0.0
 10
168.1505888107252
 20
697.6356952485514
 30
0.0
 10
164.2997697018224
 20
697.1717607519242
 30
0.0
 10
160.874040276734
 20
697.1101374570951
 30
0.0
 10
158.9872742770498
 20
697.0761976086586
 30
0.0
  0
SPLINE
  5
AB
330
1F
100
AcDbEntity
  8
0
  6
Continuous
 62
     8
370
     0
100
AcDbSpline
210
0.0
220
0.0
230
1.0
 70
     8
 71
     3
 72
    24
 73
    20
 74
     0
 42
0.00000001
 43
0.00000001
 40
0.0
 40
0.0
 40
0.0
 40
0.0
 40
0.25
 40
0.25
 40
0.5
 40
0.5
 40
0.625
 40
0.625
 40
0.75
 40
0.75
 40
0.875
 40
0.875
 40
0.9375
 40
0.9375
 40
0.96875
 40
0.96875
 40
0.984375
 40
0.984375
 40
1.0
 40
1.0
 40
1.0
 40
1.0
 10
190.8312142191614
 20
719.9247553345236
 30
0.0
 10
190.9395340502094
 20
719.9492624473656
 30
0.0
 10
191.0434040795519
 20
719.9765457985809
 30
0.0
 10
191.2437187850016
 20
720.0393013703704
 30
0.0
 10
191.3403119350513
 20
720.0737315057361
 30
0.0
 10
191.4804517097869
 20
720.1403105655424
 30
0.0
 10
191.5264881786223
 20
720.1651571556554
 30
0.0
 10
191.6154626751484
 20
720.2224606004188
 30
0.0
 10
191.6586916875026
 20
720.2546087648923
 30
0.0
 10
191.7474798773993
 20
720.3365684991245
 30
0.0
 10
191.7934027553327
 20
720.3854173193824
 30
0.0
 10
191.8630297129261
 20
720.4786615418972
 30
0.0
 10
191.8861921395799
 20
720.5152902319054
 30
0.0
 10
191.9204563623465
 20
720.5832363691316
 30
0.0
 10
191.9325319953068
 20
720.6091751547323
 30
0.0
 10
191.9494623194982
 20
720.6529616003836
 30
0.0
 10
191.9536964482696
 20
720.6701810452682
 30
0.0
 10
191.9633540860796
 20
720.7106631814539
 30
0.0
 10
191.9681141030895
 20
720.7310101243066
 30
0.0
 10
191.9731723430176
 20
720.757214694297
 30
0.0
  0
SPLINE
  5
AC
330
1F
100
AcDbEntity
  8
0
  6
Continuous
 62
     8
370
    15
100
AcDbSpline
210
0.0
220
0.0
230
1.0
 70
     8
 71
     3
 72
    25
 73
    21
 74
     0
 42
0.00000001
 43
0.00000001
 40
0.0
 40
0.0
 40
0.0
 40
0.0
 40
0.1651670201741635
 40
0.328650536586094
 40
0.4999946969148101
 40
0.5749828602785237
 40
0.5874790029571456
 40
0.6120683883625059
 40
0.6241635093088026
 40
0.6300536633602568
 40
0.6481829988791559
 40
0.7328013133744364
 40
0.7509345068260308
 40
0.7781052076898471
 40
0.8052700811348188
 40
0.8233761493947293
 40
0.856548484498551
 40
0.8920530515647869
 40
0.9484450233796088
 40
1.0
 40
1.0
 40
1.0
 40
1.0
 10
190.6487449609202
 20
721.9833438264152
 30
0.0
 10
190.6676897171803
 20
721.9955553355464
 30
0.0
 10
190.7053861308095
 20
722.0198538851257
 30
0.0
 10
190.7657204141424
 20
722.0644373022221
 30
0.0
 10
190.8186352432533
 20
722.1042766034973
 30
0.0
 10
190.8538275123859
 20
722.133263599062
 30
0.0
 10
190.8694010384883
 20
722.1466465660699
 30
0.0
 10
190.876305963796
 20
722.152680988002
 30
0.0
 10
190.882335580707
 20
722.1580640223599
 30
0.0
 10
190.8874668573103
 20
722.162702982182
 30
0.0
 10
190.9029752256598
 20
722.1769450826787
 30
0.0
 10
190.9202800421748
 20
722.19454673653
 30
0.0
 10
190.9397727278438
 20
722.2151727974783
 30
0.0
 10
190.9509600699109
 20
722.2270442434447
 30
0.0
 10
190.9626230623823
 20
722.2394226884012
 30
0.0
 10
190.9758026774637
 20
722.2534625471932
 30
0.0
 10
190.9909367628638
 20
722.2700783521219
 30
0.0
 10
191.01475221349
 20
722.2973529547435
 30
0.0
 10
191.0388180030069
 20
722.3387521474282
 30
0.0
 10
191.0538974575173
 20
722.3888274007558
 30
0.0
 10
191.0610993371072
 20
722.4127431163178
 30
0.0
  0
SPLINE
  5
AD
330
1F
100
AcDbEntity
  8
0
  6
Continuous
 62
     8
370
    15
100
AcDbSpline
210
0.0
220
0.0
230
1.0
 70
     8
 71
     3
 72
    18
 73
    14
 74
     0
 42
0.00000001
 43
0.00000001
 40
0.0
 40
0.0
 40
0.0
 40
0.0
 40
0.5000000000000003
 40
0.5000000000000003
 40
0.6250000000000003
 40
0.6250000000000003
 40
0.7500000000000002
 40
0.7500000000000002
 40
0.8750000000000002
 40
0.8750000000000002
 40
0.9375000000000002
 40
0.9375000000000002
 40
1.0
 40
1.0
 40
1.0
 40
1.0
 10
127.3258475945856
 20
721.9832042636208
 30
0.0
 10
127.2685444659813
 20
722.0192522148672
 30
0.0
 10
127.2088453808769
 20
722.0620688954813
 30
0.0
 10
127.1247450257091
 20
722.1300750246245
 30
0.0
 10
127.1074104233413
 20
722.1444019329797
 30
0.0
 10
127.0717438235024
 20
722.1760361686247
 30
0.0
 10
127.0539913421947
 20
722.1943760933782
 30
0.0
 10
127.0158785615483
 20
722.235607385815
 30
0.0
 10
126.9948649610616
 20
722.2572526046338
 30
0.0
 10
126.9603807553946
 20
722.2987924052395
 30
0.0
 10
126.9491080873343
 20
722.3146368971144
 30
0.0
 10
126.9305827855179
 20
722.3562510125829
 30
0.0
 10
126.9214839568392
 20
722.381431191039
 30
0.0
 10
126.9134927326848
 20
722.412334799354
 30
0.0
  0
SPLINE
  5
AE
330
1F
100
AcDbEntity
  8
0
  6
Continuous
 62
     8
370
     0
100
AcDbSpline
210
0.0
220
0.0
230
1.0
 70
     8
 71
     3
 72
     8
 73
     4
 74
     0
 42
0.00000001
 43
0.00000001
 40
0.0
 40
0.0
 40
0.0
 40
0.0
 40
1.0
 40
1.0
 40
1.0
 40
1.0
 10
126.9127814117011
 20
722.4113818259716
 30
0.0
 10
126.9097030750934
 20
722.4259107233905
 30
0.0
 10
126.9066436499601
 20
722.4407253598442
 30
0.0
 10
126.9035722442692
 20
722.4558143266632
 30
0.0
  0
SPLINE
  5
AF
330
1F
100
AcDbEntity
  8
0
  6
Continuous
 62
     8
370
    15
100
AcDbSpline
210
0.0
220
0.0
230
1.0
 70
     8
 71
     3
 72
    16
 73
    12
 74
     0
 42
0.00000001
 43
0.00000001
 40
0.0
 40
0.0
 40
0.0
 40
0.0
 40
0.2500000000000002
 40
0.2500000000000002
 40
0.5000000000000003
 40
0.5000000000000003
 40
0.6250000000000004
 40
0.6250000000000004
 40
0.7500000000000004
 40
0.7500000000000004
 40
1.0
 40
1.0
 40
1.0
 40
1.0
 10
126.9033238219578
 20
722.4556988321135
 30
0.0
 10
126.8624837106164
 20
722.6714288549143
 30
0.0
 10
126.826808170971
 20
722.9447809809398
 30
0.0
 10
126.7675299493142
 20
723.6462284569037
 30
0.0
 10
126.744222609728
 20
724.076871808622
 30
0.0
 10
126.7240233420489
 20
724.8785147112078
 30
0.0
 10
126.7198167169919
 20
725.1716598559265
 30
0.0
 10
126.7169790658104
 20
725.8157316232305
 30
0.0
 10
126.7183743540939
 20
726.1672997835891
 30
0.0
 10
126.7334894280206
 20
727.3141650818698
 30
0.0
 10
126.757640772781
 20
728.200669915106
 30
0.0
 10
126.804855948058
 20
729.2400873084966
 30
0.0
  0
SPLINE
  5
B0
330
1F
100
AcDbEntity
  8
0
  6
Continuous
 62
     8
370
     0
100
AcDbSpline
210
0.0
220
0.0
230
1.0
 70
     8
 71
     3
 72
     8
 73
     4
 74
     0
 42
0.00000001
 43
0.00000001
 40
0.0
 40
0.0
 40
0.0
 40
0.0
 40
1.0
 40
1.0
 40
1.0
 40
1.0
 10
126.8046279345877
 20
729.2399738104508
 30
0.0
 10
126.8052400799106
 20
729.2534870379641
 30
0.0
 10
126.8058573784444
 20
729.2670253581767
 30
0.0
 10
126.8064798140681
 20
729.2805888153173
 30
0.0
  0
SPLINE
  5
B1
330
1F
100
AcDbEntity
  8
0
  6
Continuous
 62
     8
370
     0
100
AcDbSpline
210
0.0
220
0.0
230
1.0
 70
     8
 71
     3
 72
    12
 73
     8
 74
     0
 42
0.00000001
 43
0.00000001
 40
0.0
 40
0.0
 40
0.0
 40
0.0
 40
0.23419910208903
 40
0.468678959110315
 40
0.7029451314118779
 40
0.9373787105925567
 40
1.0
 40
1.0
 40
1.0
 40
1.0
 10
126.8064814037891
 20
729.2805871808022
 30
0.0
 10
127.9449211586414
 20
729.5281990630859
 30
0.0
 10
130.2231654155778
 20
730.0237196616577
 30
0.0
 10
133.9394621105315
 20
730.6552786125769
 30
0.0
 10
137.8619136137099
 20
731.1767338562654
 30
0.0
 10
140.9267488395788
 20
731.5189894450413
 30
0.0
 10
142.7170484611892
 20
731.6386037476126
 30
0.0
 10
143.0944564170452
 20
731.6638192975014
 30
0.0
  0
LINE
  5
B2
330
1F
100
AcDbEntity
  8
0
  6
Continuous
 62
     8
370
     0
100
AcDbLine
 10
157.8373268829
 20
732.244077965
 30
0.0
 11
158.9872961845
 21
732.2573996031
 31
0.0
  0
SPLINE
  5
B3
330
1F
100
AcDbEntity
  8
0
  6
Continuous
 62
     8
370
     0
100
AcDbSpline
210
0.0
220
0.0
230
1.0
 70
     8
 71
     3
 72
    32
 73
    28
 74
     0
 42
0.00000001
 43
0.00000001
 40
0.0
 40
0.0
 40
0.0
 40
0.0
 40
0.0200025316582525
 40
0.0399823872309817
 40
0.0599361383197977
 40
0.0798596586407351
 40
0.0997506272781788
 40
0.1196098262667511
 40
0.1394400515357584
 40
0.1592450725921024
 40
0.1790286380148244
 40
0.198793590556127
 40
0.2185410651229178
 40
0.2382696212256342
 40
0.3039169374152835
 40
0.3693222766116985
 40
0.4025945084941592
 40
0.4358133233299129
 40
0.5692679201646025
 40
0.7021482179744452
 40
0.744767903036593
 40
0.787348616968271
 40
0.8298959199120481
 40
0.872422291529574
 40
0.9149421641385539
 40
0.9574669387326047
 40
1.0
 40
1.0
 40
1.0
 40
1.0
 10
191.1681122674856
 20
729.2806514885813
 30
0.0
 10
190.9899471382929
 20
729.3210194841301
 30
0.0
 10
190.6338188587258
 20
729.4017097116151
 30
0.0
 10
190.0922397136958
 20
729.5205140046614
 30
0.0
 10
189.5457011329448
 20
729.6372374511167
 30
0.0
 10
188.9937788857213
 20
729.7515758495188
 30
0.0
 10
188.436728498469
 20
729.8634674315454
 30
0.0
 10
187.8745735839402
 20
729.9728636967067
 30
0.0
 10
187.3073441660391
 20
730.0797600483429
 30
0.0
 10
186.7350386687228
 20
730.1841577680025
 30
0.0
 10
186.1576637658289
 20
730.2860468157668
 30
0.0
 10
185.5752569981962
 20
730.385399842201
 30
0.0
 10
184.9879071938371
 20
730.4821905551855
 30
0.0
 10
183.9361565902034
 20
730.6494968947926
 30
0.0
 10
182.3983429498887
 20
730.8756475698979
 30
0.0
 10
180.678083477719
 20
731.097782743196
 30
0.0
 10
179.2734864496581
 20
731.2610503192717
 30
0.0
 10
177.1214727072899
 20
731.4931407674866
 30
0.0
 10
173.8155204311564
 20
731.7828491109203
 30
0.0
 10
170.3164341583805
 20
731.9894956539083
 30
0.0
 10
167.8230429811817
 20
732.0961193432188
 30
0.0
 10
166.356664771279
 20
732.1477797250033
 30
0.0
 10
164.8869269134734
 20
732.1890143978942
 30
0.0
 10
163.4145424177959
 20
732.2203384279057
 30
0.0
 10
161.9400823195156
 20
732.242004686909
 30
0.0
 10
160.4640965405209
 20
732.2551970853312
 30
0.0
 10
159.4795948440742
 20
732.2567632374423
 30
0.0
 10
158.9872960388115
 20
732.2575463897883
 30
0.0
  0
LWPOLYLINE
  5
B4
330
1F
100
AcDbEntity
  8
0
  6
Continuous
 62
     8
370
     0
100
AcDbPolyline
 90
        3
 70
   128
 43
0.0
 10
191.1699647433
 20
729.2400560224
 10
191.1690408713
 20
729.2603365027
 10
191.1681132741
 20
729.280654236
  0
SPLINE
  5
B5
330
1F
100
AcDbEntity
  8
0
  6
Continuous
 62
     8
370
    15
100
AcDbSpline
210
0.0
220
0.0
230
1.0
 70
     8
 71
     3
 72
    24
 73
    20
 74
     0
 42
0.00000001
 43
0.00000001
 40
0.0
 40
0.0
 40
0.0
 40
0.0
 40
0.0285263378015445
 40
0.0616644313789641
 40
0.0921595742891436
 40
0.1188803130591274
 40
0.146871960948753
 40
0.1752536755843936
 40
0.2022170399838427
 40
0.3038180053158406
 40
0.4028170103835207
 40
0.5026115801654404
 40
0.7028482029792235
 40
0.8032898523015537
 40
0.9030941632643141
 40
0.9271529150951275
 40
0.9513176097803269
 40
0.9755965827974562
 40
0.9999999999999999
 40
0.9999999999999999
 40
0.9999999999999999
 40
0.9999999999999999
 10
191.0712689578032
 20
722.4549374626401
 30
0.0
 10
191.075861583517
 20
722.4797623227153
 30
0.0
 10
191.0857893090859
 20
722.5334253933569
 30
0.0
 10
191.0999225670202
 20
722.6218326830221
 30
0.0
 10
191.113393403898
 20
722.7125001740158
 30
0.0
 10
191.1256239186291
 20
722.8027136116272
 30
0.0
 10
191.1371840321719
 20
722.8953494614185
 30
0.0
 10
191.1484485133563
 20
722.9934283279797
 30
0.0
 10
191.1688881367425
 20
723.1881830313739
 30
0.0
 10
191.19576857167
 20
723.5055555951276
 30
0.0
 10
191.2245730065819
 20
724.0062541334081
 30
0.0
 10
191.2523961471014
 20
724.7925141041686
 30
0.0
 10
191.2615358866633
 20
725.7846480205106
 30
0.0
 10
191.2456883267368
 20
727.015340448053
 30
0.0
 10
191.2250620141308
 20
727.8013038697244
 30
0.0
 10
191.2057408099219
 20
728.3618369980006
 30
0.0
 10
191.1950660716665
 20
728.6446856081923
 30
0.0
 10
191.1833268510139
 20
728.9365220398012
 30
0.0
 10
191.1742740859189
 20
729.138781413991
 30
0.0
 10
191.1697361328223
 20
729.2401696134858
 30
0.0
  0
LWPOLYLINE
  5
B6
330
1F
100
AcDbEntity
  8
0
  6
Continuous
 62
     8
370
     0
100
AcDbPolyline
 90
        3
 70
   128
 43
0.0
 10
191.0618121154
 20
722.4124110186
 10
191.0664165742
 20
722.4332428419
 10
191.071021033
 20
722.4550506913
  0
LINE
  5
B7
330
1F
100
AcDbEntity
  8
0
  6
Continuous
 62
     8
370
    15
100
AcDbLine
 10
183.5607966758
 20
581.7173140937
 30
0.0
 11
134.4137961394
 21
581.7173140937
 31
0.0
  0
ARC
  5
B8
330
1F
100
AcDbEntity
  8
0
  6
Continuous
 62
     8
370
     0
100
AcDbCircle
 10
190.455459452
 20
731.0587132222
 30
0.0
 40
0.7635512378894538
100
AcDbArc
 50
298.2115947139
 51
26.9222563487
  0
SPLINE
  5
B9
330
1F
100
AcDbEntity
  8
0
  6
Continuous
 62
     8
370
     0
100
AcDbSpline
210
0.0
220
0.0
230
1.0
 70
     8
 71
     3
 72
    18
 73
    14
 74
     0
 42
0.00000001
 43
0.00000001
 40
0.0
 40
0.0
 40
0.0
 40
0.0
 40
0.2500000000000001
 40
0.2500000000000001
 40
0.3750000000000003
 40
0.3750000000000003
 40
0.4375000000000005
 40
0.4375000000000005
 40
0.5000000000000007
 40
0.5000000000000007
 40
0.7500000000000003
 40
0.7500000000000003
 40
1.0
 40
1.0
 40
1.0
 40
1.0
 10
190.8164131600942
 20
730.3858695965819
 30
0.0
 10
188.6356652520292
 20
730.8816257292244
 30
0.0
 10
186.3068242151787
 20
731.3123211930446
 30
0.0
 10
182.5710801590375
 20
731.8518363289425
 30
0.0
 10
181.2857842273736
 20
732.0140807515094
 30
0.0
 10
179.2984273768672
 20
732.2313459281804
 30
0.0
 10
178.6250354710983
 20
732.2995234393597
 30
0.0
 10
177.2633254469169
 20
732.4268986827212
 30
0.0
 10
176.5795340397184
 20
732.4856941203398
 30
0.0
 10
173.1469859995539
 20
732.7570280020777
 30
0.0
 10
170.3577596617132
 20
732.902141853141
 30
0.0
 10
164.7160027297099
 20
733.0869014344978
 30
0.0
 10
161.8637652275079
 20
733.1270354709507
 30
0.0
 10
158.9865752009693
 20
733.1255973287994
 30
0.0
  0
SPLINE
  5
BA
330
1F
100
AcDbEntity
  8
0
  6
Continuous
 62
     8
370
     0
100
AcDbSpline
210
0.0
220
0.0
230
1.0
 70
     8
 71
     3
 72
     8
 73
     4
 74
     0
 42
0.00000001
 43
0.00000001
 40
0.0
 40
0.0
 40
0.0
 40
0.0
 40
0.0002926519410579
 40
0.0002926519410579
 40
0.0002926519410579
 40
0.0002926519410579
 10
126.7364374711725
 20
730.0334709683444
 30
0.0
 10
126.750468070174
 20
730.0083228083165
 30
0.0
 10
126.7646739009095
 20
729.983181238944
 30
0.0
 10
126.7790581698381
 20
729.9580466418979
 30
0.0
  0
SPLINE
  5
BB
330
1F
100
AcDbEntity
  8
0
  6
Continuous
 62
     8
370
     0
100
AcDbSpline
210
0.0
220
0.0
230
1.0
 70
     8
 71
     3
 72
    20
 73
    16
 74
     0
 42
0.00000001
 43
0.00000001
 40
0.0
 40
0.0
 40
0.0
 40
0.0
 40
0.1250000000000003
 40
0.1250000000000003
 40
0.2500000000000006
 40
0.2500000000000006
 40
0.5000000000000013
 40
0.5000000000000013
 40
0.5625000000000012
 40
0.5625000000000012
 40
0.6250000000000011
 40
0.6250000000000011
 40
0.7500000000000008
 40
0.7500000000000008
 40
1.0
 40
1.0
 40
1.0
 40
1.0
 10
158.9865751956878
 20
733.1255980458421
 30
0.0
 10
157.5496382081761
 20
733.1263091641295
 30
0.0
 10
156.1144627465047
 20
733.1164355144231
 30
0.0
 10
153.2480066728211
 20
733.0732845957901
 30
0.0
 10
151.8142974744288
 20
733.0398809430492
 30
0.0
 10
147.5536055447701
 20
732.8995021897425
 30
0.0
 10
144.7591337670776
 20
732.7526385123963
 30
0.0
 10
141.3418663716682
 20
732.4812204056292
 30
0.0
 10
140.6622220854525
 20
732.4225239175053
 30
0.0
 10
139.311076999345
 20
732.2956968901453
 30
0.0
 10
138.6382111557446
 20
732.2273915621498
 30
0.0
 10
136.6543939939347
 20
732.0099120755285
 30
0.0
 10
135.3721924271147
 20
731.8476536996607
 30
0.0
 10
131.6474702458198
 20
731.3086972691483
 30
0.0
 10
129.3282688546513
 20
730.8792028185162
 30
0.0
 10
127.1581789235844
 20
730.3858695965819
 30
0.0
  0
SPLINE
  5
BC
330
1F
100
AcDbEntity
  8
0
  6
Continuous
 62
     8
370
     0
100
AcDbSpline
210
0.0
220
0.0
230
1.0
 70
     8
 71
     3
 72
    12
 73
     8
 74
     0
 42
0.00000001
 43
0.00000001
 40
0.0
 40
0.0
 40
0.0
 40
0.0
 40
0.2499999999999972
 40
0.2499999999999972
 40
0.4999999999999944
 40
0.4999999999999944
 40
1.0
 40
1.0
 40
1.0
 40
1.0
 10
191.2381546125077
 20
730.0334709683473
 30
0.0
 10
191.2559533032612
 20
730.0653729793243
 30
0.0
 10
191.2607965053124
 20
730.0972299237048
 30
0.0
 10
191.245589291131
 20
730.1608572182295
 30
0.0
 10
191.2250488682989
 20
730.1929317267912
 30
0.0
 10
191.1240350587809
 20
730.2848977755676
 30
0.0
 10
191.0039603451795
 20
730.3432339178672
 30
0.0
 10
190.816413160094
 20
730.3858695965819
 30
0.0
  0
SPLINE
  5
BD
330
1F
100
AcDbEntity
  8
0
  6
Continuous
 62
     8
370
     0
100
AcDbSpline
210
0.0
220
0.0
230
1.0
 70
     8
 71
     3
 72
     8
 73
     4
 74
     0
 42
0.00000001
 43
0.00000001
 40
0.0
 40
0.0
 40
0.0
 40
0.0
 40
0.0002926519410686
 40
0.0002926519410686
 40
0.0002926519410686
 40
0.0002926519410686
 10
191.1955339138404
 20
729.9580466418979
 30
0.0
 10
191.2099181827696
 20
729.983181238945
 30
0.0
 10
191.2241240135057
 20
730.0083228083183
 30
0.0
 10
191.2381546125077
 20
730.0334709683473
 30
0.0
  0
LWPOLYLINE
  5
BE
330
1F
100
AcDbEntity
  8
0
  6
Continuous
 62
     8
370
     0
100
AcDbPolyline
 90
        9
 70
   128
 43
0.0
 10
158.9872958491
 20
732.2995251858
 10
158.9872958942
 20
732.3174959862
 10
158.987295939
 20
732.3288655722
 10
158.9872959832
 20
732.3335668885
 10
158.9872960265
 20
732.3315552318
 10
158.9872960686
 20
732.3228529536
 10
158.9872961093
 20
732.3075196588
 10
158.9872961482
 20
732.2856522047
 10
158.9872961851
 20
732.2573996031
  0
ARC
  5
BF
330
1F
100
AcDbEntity
  8
0
  6
Continuous
 62
     8
370
     0
100
AcDbCircle
 10
127.2152585644
 20
729.0283127602
 30
0.0
 40
0.4803552334780432
100
AcDbArc
 50
108.5190397748
 51
148.3194339335
  0
ARC
  5
C0
330
1F
100
AcDbEntity
  8
0
  6
Continuous
 62
     8
370
     0
100
AcDbCircle
 10
190.7593161433
 20
729.0282875815
 30
0.0
 40
0.4803854514137749
100
AcDbArc
 50
31.6818707434
 51
71.4796555483
  0
ARC
  5
C1
330
1F
100
AcDbEntity
  8
0
  6
Continuous
 62
     8
370
     0
100
AcDbCircle
 10
127.5191315005
 20
731.0587132222
 30
0.0
 40
0.7635512378894538
100
AcDbArc
 50
153.0777436513
 51
241.7884052861
  0
SPLINE
  5
C2
330
1F
100
AcDbEntity
  8
0
  6
Continuous
 62
     8
370
     0
100
AcDbSpline
210
0.0
220
0.0
230
1.0
 70
     8
 71
     3
 72
    36
 73
    32
 74
     0
 42
0.00000001
 43
0.00000001
 40
0.0
 40
0.0
 40
0.0
 40
0.0
 40
0.0624999999999999
 40
0.0624999999999999
 40
0.1249999999999998
 40
0.1249999999999998
 40
0.2499999999999996
 40
0.2499999999999996
 40
0.3124999999999995
 40
0.3124999999999995
 40
0.3749999999999994
 40
0.3749999999999994
 40
0.4374999999999994
 40
0.4374999999999994
 40
0.4687499999999998
 40
0.4687499999999998
 40
0.5000000000000001
 40
0.5000000000000001
 40
0.5624999999999999
 40
0.5624999999999999
 40
0.6249999999999997
 40
0.6249999999999997
 40
0.6874999999999994
 40
0.6874999999999994
 40
0.7499999999999992
 40
0.7499999999999992
 40
0.8124999999999991
 40
0.8124999999999991
 40
0.8749999999999989
 40
0.8749999999999989
 40
1.0
 40
1.0
 40
1.0
 40
1.0
 10
158.9872280347097
 20
768.0491301946771
 30
0.0
 10
158.0124075427393
 20
768.0504775896858
 30
0.0
 10
157.0375421758445
 20
768.0384560976537
 30
0.0
 10
155.0907085965856
 20
767.987808124667
 30
0.0
 10
154.1183730380159
 20
767.9494561606328
 30
0.0
 10
151.2054782744509
 20
767.7844859829656
 30
0.0
 10
149.2690065442324
 20
767.6084542003282
 30
0.0
 10
146.3803342337387
 20
767.151131442059
 30
0.0
 10
145.4256040409246
 20
766.9667567217622
 30
0.0
 10
143.5455174267994
 20
766.5119426979552
 30
0.0
 10
142.6191993186948
 20
766.241439881155
 30
0.0
 10
140.8047237520276
 20
765.5809021676102
 30
0.0
 10
139.912723430642
 20
765.1873783178397
 30
0.0
 10
138.6530511261945
 20
764.497873744735
 30
0.0
 10
138.2447957045773
 20
764.2511706878701
 30
0.0
 10
137.4531719541382
 20
763.7217244654739
 30
0.0
 10
137.0686404837524
 20
763.4380171441039
 30
0.0
 10
135.9619937457715
 20
762.5366610186504
 30
0.0
 10
135.2994084140909
 20
761.8794463488979
 30
0.0
 10
134.1042070338917
 20
760.467973316072
 30
0.0
 10
133.5701304351995
 20
759.7121310128083
 30
0.0
 10
132.609183506937
 20
758.1313085503532
 30
0.0
 10
132.1893520770333
 20
757.319943010462
 30
0.0
 10
131.4359059438729
 20
755.6693456281077
 30
0.0
 10
131.1028613234493
 20
754.829954106253
 30
0.0
 10
130.5001891044262
 20
753.1355734058652
 30
0.0
 10
130.2305035356309
 20
752.2807363465889
 30
0.0
 10
129.7354853145781
 20
750.5665832970851
 30
0.0
 10
129.5109631704578
 20
749.7085148734315
 30
0.0
 10
128.8951814392061
 20
747.1557374713964
 30
0.0
 10
128.5591128303251
 20
745.4772728787153
 30
0.0
 10
128.2758270732048
 20
743.8439893123939
 30
0.0
  0
SPLINE
  5
C3
330
1F
100
AcDbEntity
  8
0
  6
Continuous
 62
     8
370
     0
100
AcDbSpline
210
0.0
220
0.0
230
1.0
 70
     8
 71
     3
 72
    14
 73
    10
 74
     0
 42
0.00000001
 43
0.00000001
 40
0.0
 40
0.0
 40
0.0
 40
0.0
 40
0.2499999999999993
 40
0.2499999999999993
 40
0.3749999999999992
 40
0.3749999999999992
 40
0.4999999999999991
 40
0.4999999999999991
 40
1.0
 40
1.0
 40
1.0
 40
1.0
 10
128.2758270732048
 20
743.843989312394
 30
0.0
 10
128.0596834144615
 20
742.5978134037337
 30
0.0
 10
127.8767487459099
 20
741.3883116163337
 30
0.0
 10
127.6385604691839
 20
739.6444523454046
 30
0.0
 10
127.5651717267803
 20
739.0748862325953
 30
0.0
 10
127.4291707394525
 20
737.9608463136241
 30
0.0
 10
127.366678791788
 20
737.4167554525953
 30
0.0
 10
127.0813065779096
 20
734.7897014304567
 30
0.0
 10
126.9353562360995
 20
732.9653714208646
 30
0.0
 10
126.8383338616581
 20
731.4044373446054
 30
0.0
  0
SPLINE
  5
C4
330
1F
100
AcDbEntity
  8
0
  6
Continuous
 62
     8
370
     0
100
AcDbSpline
210
0.0
220
0.0
230
1.0
 70
     8
 71
     3
 72
    44
 73
    40
 74
     0
 42
0.00000001
 43
0.00000001
 40
0.0
 40
0.0
 40
0.0
 40
0.0
 40
0.1250000000000043
 40
0.1250000000000043
 40
0.1875000000000064
 40
0.1875000000000064
 40
0.2500000000000085
 40
0.2500000000000085
 40
0.3125000000000107
 40
0.3125000000000107
 40
0.3437500000000109
 40
0.3437500000000109
 40
0.3750000000000112
 40
0.3750000000000112
 40
0.4375000000000104
 40
0.4375000000000104
 40
0.46875000000001
 40
0.46875000000001
 40
0.5000000000000097
 40
0.5000000000000097
 40
0.5312500000000093
 40
0.5312500000000093
 40
0.5625000000000089
 40
0.5625000000000089
 40
0.6250000000000073
 40
0.6250000000000073
 40
0.6562500000000064
 40
0.6562500000000064
 40
0.6875000000000057
 40
0.6875000000000057
 40
0.7500000000000046
 40
0.7500000000000046
 40
0.8125000000000036
 40
0.8125000000000036
 40
0.8750000000000023
 40
0.8750000000000023
 40
0.9375000000000012
 40
0.9375000000000012
 40
1.0
 40
1.0
 40
1.0
 40
1.0
 10
189.6987655488808
 20
743.8439862082092
 30
0.0
 10
189.4154013000127
 20
745.4777226553695
 30
0.0
 10
189.0802544730492
 20
747.1501250552072
 30
0.0
 10
188.4698856406464
 20
749.6836169338261
 30
0.0
 10
188.2482544967008
 20
750.5322045434459
 30
0.0
 10
187.759283992828
 20
752.2306882075529
 30
0.0
 10
187.4923705808927
 20
753.0806349214981
 30
0.0
 10
186.8935690437815
 20
754.7726961463467
 30
0.0
 10
186.5616454397143
 20
755.6146672919841
 30
0.0
 10
185.9946675886107
 20
756.8631508596455
 30
0.0
 10
185.7937953527716
 20
757.2773855708068
 30
0.0
 10
185.3698557475848
 20
758.0900272901089
 30
0.0
 10
185.1463297411886
 20
758.4895361411561
 30
0.0
 10
184.4359636268903
 20
759.6643303823605
 30
0.0
 10
183.9095032309783
 20
760.4159674539967
 30
0.0
 10
183.0149355445747
 20
761.4808364030887
 30
0.0
 10
182.6992079579788
 20
761.8253341326782
 30
0.0
 10
182.0283714466121
 20
762.490826818095
 30
0.0
 10
181.6746498413064
 20
762.8101881022044
 30
0.0
 10
180.9376319847874
 20
763.4138025258158
 30
0.0
 10
180.5516626750578
 20
763.7001574846666
 30
0.0
 10
179.7575685077579
 20
764.2338424613606
 30
0.0
 10
179.3493843923856
 20
764.4815147723333
 30
0.0
 10
178.0942237711974
 20
765.1717912983778
 30
0.0
 10
177.216628178796
 20
765.5616434488572
 30
0.0
 10
175.8514048700449
 20
766.0619120925392
 30
0.0
 10
175.3877825818496
 20
766.2146381373421
 30
0.0
 10
174.4569183666999
 20
766.4924533443482
 30
0.0
 10
173.988302937211
 20
766.618088671364
 30
0.0
 10
172.5744196139681
 20
766.9615262072368
 30
0.0
 10
171.6211861670961
 20
767.1461860709484
 30
0.0
 10
169.6994261923225
 20
767.4517753836238
 30
0.0
 10
168.7293714784937
 20
767.5726564511765
 30
0.0
 10
166.7865244861088
 20
767.7660063794185
 30
0.0
 10
165.8137287132678
 20
767.8384417298046
 30
0.0
 10
163.8661963009801
 20
767.9490410813971
 30
0.0
 10
162.8914845243391
 20
767.9875589001066
 30
0.0
 10
160.9405748951209
 20
768.0384155796731
 30
0.0
 10
159.9643572952664
 20
768.0504805928628
 30
0.0
 10
158.9873640489689
 20
768.0491301946771
 30
0.0
  0
SPLINE
  5
C5
330
1F
100
AcDbEntity
  8
0
  6
Continuous
 62
     8
370
     0
100
AcDbSpline
210
0.0
220
0.0
230
1.0
 70
     8
 71
     3
 72
    14
 73
    10
 74
     0
 42
0.00000001
 43
0.00000001
 40
0.0
 40
0.0
 40
0.0
 40
0.0
 40
0.25
 40
0.25
 40
0.5
 40
0.5
 40
0.75
 40
0.75
 40
1.0
 40
1.0
 40
1.0
 40
1.0
 10
191.1362582220205
 20
731.4044373446053
 30
0.0
 10
191.0874331983655
 20
732.1899535065826
 30
0.0
 10
191.0254972516398
 20
733.0456935927363
 30
0.0
 10
190.8681956045534
 20
734.9048144713066
 30
0.0
 10
190.7734563591534
 20
735.8967582819653
 30
0.0
 10
190.5453509925358
 20
737.9885431198744
 30
0.0
 10
190.4119513611333
 20
739.0898561920467
 30
0.0
 10
190.0967367189796
 20
741.3951566749049
 30
0.0
 10
189.914718232548
 20
742.5989111093619
 30
0.0
 10
189.6987655488808
 20
743.8439862082092
 30
0.0
  0
SPLINE
  5
C6
330
1F
100
AcDbEntity
  8
0
  6
Continuous
 62
     8
370
     0
100
AcDbSpline
210
0.0
220
0.0
230
1.0
 70
     8
 71
     3
 72
    11
 73
     7
 74
     0
 42
0.00000001
 43
0.00000001
 40
0.0
 40
0.0
 40
0.0
 40
0.0
 40
0.2205528257173512
 40
0.4095370983610461
 40
0.7178257206871885
 40
1.0
 40
1.0
 40
1.0
 40
1.0
 10
126.8064814037891
 20
729.2805871808022
 30
0.0
 10
126.7008549789897
 20
729.2327278494369
 30
0.0
 10
126.5047208356982
 20
729.143859472289
 30
0.0
 10
126.2541181185254
 20
728.9544448986511
 30
0.0
 10
126.0900825742106
 20
728.7907955526559
 30
0.0
 10
126.0572300658172
 20
728.7078383098359
 30
0.0
 10
126.0415302939029
 20
728.6681941592186
 30
0.0
  0
SPLINE
  5
C7
330
1F
100
AcDbEntity
  8
0
  6
Continuous
 62
     8
370
     0
100
AcDbSpline
210
0.0
220
0.0
230
1.0
 70
     8
 71
     3
 72
    12
 73
     8
 74
     0
 42
0.00000001
 43
0.00000001
 40
0.0
 40
0.0
 40
0.0
 40
0.0
 40
0.2114930135313099
 40
0.392715563303251
 40
0.6883425454963982
 40
0.9595245681955741
 40
1.0
 40
1.0
 40
1.0
 40
1.0
 10
191.1681132740589
 20
729.2805871808022
 30
0.0
 10
191.2736121093614
 20
729.2326159890451
 30
0.0
 10
191.4695099966812
 20
729.1435396017041
 30
0.0
 10
191.7219891640257
 20
728.9557879804573
 30
0.0
 10
191.8751146501082
 20
728.7822283237875
 30
0.0
 10
191.9402183229482
 20
728.7198471528923
 30
0.0
 10
191.9317106029924
 20
728.650537352026
 30
0.0
 10
191.9306056923481
 20
728.6415359818428
 30
0.0
  0
ARC
  5
C8
330
1F
100
AcDbEntity
  8
0
  6
Continuous
 62
     8
370
     0
100
AcDbCircle
 10
126.7077295158
 20
730.6047067771
 30
0.0
 40
0.571959391886749
100
AcDbArc
 50
209.410341726
 51
272.8771183658
  0
ARC
  5
C9
330
1F
100
AcDbEntity
  8
0
  6
Continuous
 62
     8
370
     0
100
AcDbCircle
 10
191.266840176
 20
730.6048065944
 30
0.0
 40
0.5720578299931105
100
AcDbArc
 50
267.1258828283
 51
330.2628335109
  0
ARC
  5
CA
330
1F
100
AcDbEntity
  8
0
  6
Continuous
 62
     8
370
     0
100
AcDbCircle
 10
191.2247370017
 20
730.5285722954
 30
0.0
 40
0.5712730193306841
100
AcDbArc
 50
267.0699243505
 51
329.5968770091
  0
ARC
  5
CB
330
1F
100
AcDbEntity
  8
0
  6
Continuous
 62
     8
370
     0
100
AcDbCircle
 10
126.7498581216
 20
730.5285715434
 30
0.0
 40
0.5712722456113778
100
AcDbArc
 50
210.3363912134
 51
272.9300348834
  0
LINE
  5
CC
330
1F
100
AcDbEntity
  8
0
  6
Continuous
 62
     8
370
     0
100
AcDbLine
 10
126.7790595419
 20
729.9580461227
 30
0.0
 11
127.1001125104
 21
729.5093274557
 31
0.0
  0
SPLINE
  5
CD
330
1F
100
AcDbEntity
  8
0
  6
Continuous
 62
     8
370
     0
100
AcDbSpline
210
0.0
220
0.0
230
1.0
 70
     8
 71
     3
 72
     9
 73
     5
 74
     0
 42
0.00000001
 43
0.00000001
 40
0.0
 40
0.0
 40
0.0
 40
0.0
 40
0.3324392040448982
 40
1.0
 40
1.0
 40
1.0
 40
1.0
 10
190.8856505877586
 20
729.5151761614769
 30
0.0
 10
190.9226472195085
 20
729.5566227256325
 30
0.0
 10
191.0339356334492
 20
729.6812968424371
 30
0.0
 10
191.1308433461327
 20
729.8472573765135
 30
0.0
 10
191.1955351359458
 20
729.9580461227387
 30
0.0
  0
SPLINE
  5
CE
330
1F
100
AcDbEntity
  8
0
  6
Continuous
 62
     8
370
     0
100
AcDbSpline
210
0.0
220
0.0
230
1.0
 70
     8
 71
     3
 72
    11
 73
     7
 74
     0
 42
0.00000001
 43
0.00000001
 40
0.0
 40
0.0
 40
0.0
 40
0.0
 40
0.3026349446124886
 40
0.6052610615974716
 40
0.9078930417478095
 40
1.0
 40
1.0
 40
1.0
 40
1.0
 10
158.9872280337935
 20
768.0491245233505
 30
0.0
 10
158.9871619505589
 20
768.1260149754961
 30
0.0
 10
158.9870297860174
 20
768.2797936369523
 30
0.0
 10
158.9869318542703
 20
768.4172942196075
 30
0.0
 10
158.9868922242663
 20
768.4829824388273
 30
0.0
 10
158.9868969578024
 20
768.4726678985803
 30
0.0
 10
158.9868980623087
 20
768.4702611410111
 30
0.0
  0
SPLINE
  5
CF
330
1F
100
AcDbEntity
  8
0
  6
Continuous
 62
     7
370
    15
100
AcDbSpline
210
0.0
220
0.0
230
1.0
 70
     8
 71
     3
 72
    18
 73
    14
 74
     0
 42
0.00000001
 43
0.00000001
 40
0.0
 40
0.0
 40
0.0
 40
0.0
 40
0.0899791636378098
 40
0.1842677804437677
 40
0.2656631050855183
 40
0.3339271568930108
 40
0.3882911532339119
 40
0.4367000440425022
 40
0.5130189953285577
 40
0.6102529202037803
 40
0.7272365834279065
 40
0.861395993232376
 40
1.0
 40
1.0
 40
1.0
 40
1.0
 10
375.045684385109
 20
734.2184371196716
 30
0.0
 10
373.7921358998545
 20
734.8711850797431
 30
0.0
 10
371.2250016021154
 20
736.2079436461568
 30
0.0
 10
367.8127563755247
 20
738.6732896905792
 30
0.0
 10
364.8925174327837
 20
741.186411194282
 30
0.0
 10
362.6214566705229
 20
743.4599180265793
 30
0.0
 10
360.8232438973585
 20
745.4450520700663
 30
0.0
 10
359.0242817140785
 20
747.5653623058118
 30
0.0
 10
356.8788653546999
 20
750.2599469620291
 30
0.0
 10
354.1440666747099
 20
753.8338159506815
 30
0.0
 10
350.8395497486785
 20
758.1045492465475
 30
0.0
 10
346.9623142105571
 20
762.7719509090341
 30
0.0
 10
343.949465171196
 20
765.8001097769401
 30
0.0
 10
342.4184939218641
 20
767.3388606750458
 30
0.0
  0
LINE
  5
D0
330
1F
100
AcDbEntity
  8
0
  6
Continuous
 62
     7
370
    15
100
AcDbLine
 10
450.1998035563
 20
697.0477512919
 30
0.0
 11
450.6507424964
 21
697.0756388151
 31
0.0
  0
LINE
  5
D1
330
1F
100
AcDbEntity
  8
0
  6
Continuous
 62
     7
370
    15
100
AcDbLine
 10
450.1988722337
 20
697.0476991379
 30
0.0
 11
450.6507424964
 21
697.0756388151
 31
0.0
  0
SPLINE
  5
D2
330
1F
100
AcDbEntity
  8
0
  6
Continuous
 62
     7
370
    15
100
AcDbSpline
210
0.0
220
0.0
230
1.0
 70
     8
 71
     3
 72
    15
 73
    11
 74
     0
 42
0.00000001
 43
0.00000001
 40
0.0
 40
0.0
 40
0.0
 40
0.0
 40
0.09980726554049
 40
0.2748401168952646
 40
0.4450625523112614
 40
0.5247421313439965
 40
0.6186650316471349
 40
0.7360697698026454
 40
0.8770792045798061
 40
1.0
 40
1.0
 40
1.0
 40
1.0
 10
419.3654528213621
 20
694.0616256439179
 30
0.0
 10
420.3772544171662
 20
694.2482865595153
 30
0.0
 10
423.1634610861868
 20
694.7622963120599
 30
0.0
 10
427.6418098759484
 20
695.3108962570175
 30
0.0
 10
432.0546717998654
 20
695.769211199095
 30
0.0
 10
435.6267937468003
 20
696.0700454462915
 30
0.0
 10
438.6419134875935
 20
696.2991806770813
 30
0.0
 10
442.2834290213605
 20
696.5505104202421
 30
0.0
 10
446.2175006665523
 20
696.8032677941449
 30
0.0
 10
448.9338029241221
 20
696.9700317847928
 30
0.0
 10
450.1988722337366
 20
697.0476991378754
 30
0.0
  0
LINE
  5
D3
330
1F
100
AcDbEntity
  8
0
  6
Continuous
 62
     7
370
    15
100
AcDbLine
 10
450.6198225869
 20
697.0812416517
 30
0.0
 11
451.6673071636
 21
697.1404737675
 31
0.0
  0
SPLINE
  5
D4
330
1F
100
AcDbEntity
  8
0
  6
Continuous
 62
     7
370
    15
100
AcDbSpline
210
0.0
220
0.0
230
1.0
 70
     8
 71
     3
 72
    13
 73
     9
 74
     0
 42
0.00000001
 43
0.00000001
 40
0.0
 40
0.0
 40
0.0
 40
0.0
 40
0.1187292594723189
 40
0.2429802344984875
 40
0.3667244035600974
 40
0.4913631522503672
 40
0.743997412596387
 40
0.9999999999999999
 40
0.9999999999999999
 40
0.9999999999999999
 40
0.9999999999999999
 10
339.7632448328615
 20
767.4527651512116
 30
0.0
 10
339.1469606167398
 20
766.1995188128845
 30
0.0
 10
337.885730790019
 20
763.6347416844458
 30
0.0
 10
336.8055350321469
 20
759.3350025558772
 30
0.0
 10
336.0832232790361
 20
754.9241074440462
 30
0.0
 10
335.5451926777124
 20
748.9469494300421
 30
0.0
 10
335.358594470277
 20
741.405818438619
 30
0.0
 10
335.4757726760965
 20
735.3853994316264
 30
0.0
 10
335.5347497714639
 20
732.3552555286377
 30
0.0
  0
SPLINE
  5
D5
330
1F
100
AcDbEntity
  8
0
  6
Continuous
 62
     7
370
    15
100
AcDbSpline
210
0.0
220
0.0
230
1.0
 70
     8
 71
     3
 72
    10
 73
     6
 74
     0
 42
0.00000001
 43
0.00000001
 40
0.0
 40
0.0
 40
0.0
 40
0.0
 40
0.2114151070406171
 40
0.9243337372112395
 40
1.0
 40
1.0
 40
1.0
 40
1.0
 10
335.794368977654
 20
720.7243627750366
 30
0.0
 10
335.795760525356
 20
719.6678503529488
 30
0.0
 10
335.8018445488958
 20
715.0486436690527
 30
0.0
 10
336.3621429832237
 20
710.0852188331082
 30
0.0
 10
336.6412233953411
 20
706.1602000709142
 30
0.0
 10
336.6680017067075
 20
705.7835868441551
 30
0.0
  0
SPLINE
  5
D6
330
1F
100
AcDbEntity
  8
0
  6
Continuous
 62
     7
370
    15
100
AcDbSpline
210
0.0
220
0.0
230
1.0
 70
     8
 71
     3
 72
    14
 73
    10
 74
     0
 42
0.00000001
 43
0.00000001
 40
0.0
 40
0.0
 40
0.0
 40
0.0
 40
0.0828240705950691
 40
0.2366603536499116
 40
0.4148691650551589
 40
0.6035343193978376
 40
0.7896432952614652
 40
0.9376134861650743
 40
1.0
 40
1.0
 40
1.0
 40
1.0
 10
342.1433775080324
 20
768.040392442891
 30
0.0
 10
342.0853541726063
 20
768.0954498919313
 30
0.0
 10
341.9195590965708
 20
768.2527702852336
 30
0.0
 10
341.5218294920839
 20
768.4365202656362
 30
0.0
 10
340.9864430981328
 20
768.5122027571675
 30
0.0
 10
340.4159766096008
 20
768.3861412427958
 30
0.0
 10
339.9630775371976
 20
768.0827087414126
 30
0.0
 10
339.6938856868064
 20
767.7639605546458
 30
0.0
 10
339.6157911423878
 20
767.5655852035645
 30
0.0
 10
339.5926302624822
 20
767.5067520582169
 30
0.0
  0
ARC
  5
D7
330
1F
100
AcDbEntity
  8
0
  6
Continuous
 62
     7
370
    15
100
AcDbCircle
 10
375.0048415276
 20
733.7066459225
 30
0.0
 40
0.6018042957919888
100
AcDbArc
 50
285.2203888427
 51
64.2165946256
  0
SPLINE
  5
D8
330
1F
100
AcDbEntity
  8
0
  6
Continuous
 62
     7
370
    15
100
AcDbSpline
210
0.0
220
0.0
230
1.0
 70
     8
 71
     3
 72
     9
 73
     5
 74
     0
 42
0.00000001
 43
0.00000001
 40
0.0
 40
0.0
 40
0.0
 40
0.0
 40
0.4165793916279626
 40
0.9999999999999999
 40
0.9999999999999999
 40
0.9999999999999999
 40
0.9999999999999999
 10
377.7668813569427
 20
732.2645596110314
 30
0.0
 10
377.7370009338368
 20
732.2795619856697
 30
0.0
 10
377.6652728942209
 20
732.3155752281391
 30
0.0
 10
377.5725213700089
 20
732.3256673057181
 30
0.0
 10
377.5184082193256
 20
732.3315552317589
 30
0.0
  0
LINE
  5
D9
330
1F
100
AcDbEntity
  8
0
  6
Continuous
 62
     7
370
    15
100
AcDbLine
 10
377.8042106284
 20
732.2483545982
 30
0.0
 11
377.7668813569
 21
732.264559611
 31
0.0
  0
SPLINE
  5
DA
330
1F
100
AcDbEntity
  8
0
  6
Continuous
 62
     7
370
    15
100
AcDbSpline
210
0.0
220
0.0
230
1.0
 70
     8
 71
     3
 72
    13
 73
     9
 74
     0
 42
0.00000001
 43
0.00000001
 40
0.0
 40
0.0
 40
0.0
 40
0.0
 40
0.0171481331697343
 40
0.2500954488825768
 40
0.4313187858150749
 40
0.6221256717649237
 40
0.8289169581009999
 40
1.0
 40
1.0
 40
1.0
 40
1.0
 10
552.0772768510461
 20
704.9636280977219
 30
0.0
 10
552.2008096187012
 20
705.0055295267919
 30
0.0
 10
554.002462467592
 20
705.6166372554513
 30
0.0
 10
556.9432785592722
 20
707.1550283328363
 30
0.0
 10
560.8278141064862
 20
709.6563608924615
 30
0.0
 10
564.1439087895009
 20
712.5901146951543
 30
0.0
 10
566.9916234679741
 20
715.8963763164257
 30
0.0
 10
568.3566019858276
 20
718.4075206214975
 30
0.0
 10
568.9745975984216
 20
719.5444441282242
 30
0.0
  0
SPLINE
  5
DB
330
1F
100
AcDbEntity
  8
0
  6
Continuous
 62
     7
370
    15
100
AcDbSpline
210
0.0
220
0.0
230
1.0
 70
     8
 71
     3
 72
    20
 73
    16
 74
     0
 42
0.00000001
 43
0.00000001
 40
0.0
 40
0.0
 40
0.0
 40
0.0
 40
0.0276890291567832
 40
0.0896087512539073
 40
0.1491116574366855
 40
0.2358091046679399
 40
0.3233491067797953
 40
0.4135958847578848
 40
0.5066673400152931
 40
0.6026433120773094
 40
0.7011281143991093
 40
0.7997212521467728
 40
0.8973377752191534
 40
0.993393638399983
 40
1.0
 40
1.0
 40
1.0
 40
1.0
 10
451.6672326577783
 20
697.15047989721
 30
0.0
 10
452.370390847224
 20
697.1967041649857
 30
0.0
 10
454.6459898555319
 20
697.3462976696751
 30
0.0
 10
458.6539318514313
 20
697.6105026102432
 30
0.0
 10
464.3715607762857
 20
697.958295431325
 30
0.0
 10
470.9642089664521
 20
698.2755095957048
 30
0.0
 10
478.373387922527
 20
698.5643997230273
 30
0.0
 10
485.9776446487155
 20
698.8532158915185
 30
0.0
 10
493.8179973226943
 20
699.1002039446372
 30
0.0
 10
501.8945481336294
 20
699.2837022368057
 30
0.0
 10
510.125566929437
 20
699.455035787208
 30
0.0
 10
518.4054117657668
 20
699.6845333339747
 30
0.0
 10
526.5989202573172
 20
700.1566544528544
 30
0.0
 10
532.22899887238
 20
700.526180587844
 30
0.0
 10
535.0723689028993
 20
700.9879303414041
 30
0.0
 10
535.2553410781503
 20
701.0176441513985
 30
0.0
  0
ARC
  5
DC
330
1F
100
AcDbEntity
  8
0
  6
Continuous
 62
     7
370
    15
100
AcDbCircle
 10
335.9771698132
 20
732.7030255833
 30
0.0
 40
0.6017945277677696
100
AcDbArc
 50
181.6224487418
 51
259.0948772467
  0
SPLINE
  5
DD
330
1F
100
AcDbEntity
  8
0
  6
Continuous
 62
     7
370
    15
100
AcDbSpline
210
0.0
220
0.0
230
1.0
 70
     8
 71
     3
 72
    13
 73
     9
 74
     0
 42
0.00000001
 43
0.00000001
 40
0.0
 40
0.0
 40
0.0
 40
0.0
 40
0.2008293642881757
 40
0.3602642582559644
 40
0.5218418521095772
 40
0.6853817536568858
 40
0.847829706411191
 40
1.0
 40
1.0
 40
1.0
 40
1.0
 10
568.0146796954751
 20
721.7968664013832
 30
0.0
 10
566.5344767418677
 20
722.2064847329542
 30
0.0
 10
563.8791667425568
 20
722.9412918410411
 30
0.0
 10
559.9330211779189
 20
723.5647654875698
 30
0.0
 10
556.467778831079
 20
723.9873623805548
 30
0.0
 10
553.027913080104
 20
724.3093684089077
 30
0.0
 10
549.5062495752315
 20
724.5885951884616
 30
0.0
 10
547.1040292600971
 20
724.7224068897249
 30
0.0
 10
545.942155863154
 20
724.7871271216362
 30
0.0
  0
LINE
  5
DE
330
1F
100
AcDbEntity
  8
0
  6
Continuous
 62
     7
370
    15
100
AcDbLine
 10
338.9859481109
 20
620.8421307498
 30
0.0
 11
338.9859481109
 21
589.7413155877
 31
0.0
  0
LINE
  5
DF
330
1F
100
AcDbEntity
  8
0
  6
Continuous
 62
     7
370
    15
100
AcDbLine
 10
388.1329486472
 20
589.7413155877
 30
0.0
 11
388.1329486472
 21
620.8421307498
 31
0.0
  0
LINE
  5
E0
330
1F
100
AcDbEntity
  8
0
  6
Continuous
 62
     7
370
    15
100
AcDbLine
 10
338.9859481109
 20
581.7173140937
 30
0.0
 11
338.9859481109
 21
429.261315509
 31
0.0
  0
LINE
  5
E1
330
1F
100
AcDbEntity
  8
0
  6
Continuous
 62
     7
370
    15
100
AcDbLine
 10
388.1329486472
 20
429.261315509
 30
0.0
 11
388.1329486472
 21
581.7173140937
 31
0.0
  0
LINE
  5
E2
330
1F
100
AcDbEntity
  8
0
  6
Continuous
 62
     7
370
    15
100
AcDbLine
 10
338.9859481109
 20
589.7413155877
 30
0.0
 11
338.9859481109
 21
581.7173140937
 31
0.0
  0
LINE
  5
E3
330
1F
100
AcDbEntity
  8
0
  6
Continuous
 62
     7
370
    15
100
AcDbLine
 10
388.1329486472
 20
581.7173140937
 30
0.0
 11
388.1329486472
 21
589.7413155877
 31
0.0
  0
ARC
  5
E4
330
1F
100
AcDbEntity
  8
0
  6
Continuous
 62
     7
370
    15
100
AcDbCircle
 10
369.2770552301
 20
720.4311606559
 30
0.0
 40
30.09000000000004
100
AcDbArc
 50
159.2373283855
 51
173.5400612127
  0
LINE
  5
E5
330
1F
100
AcDbEntity
  8
0
  6
Continuous
 62
     7
370
    15
100
AcDbLine
 10
370.7592675788
 20
730.5755353415
 30
0.0
 11
370.4188659182
 21
731.845933839
 31
0.0
  0
LINE
  5
E6
330
1F
100
AcDbEntity
  8
0
  6
Continuous
 62
     7
370
    15
100
AcDbLine
 10
339.3920084787
 20
723.6303201758
 30
0.0
 11
339.7569118394
 21
722.2684807026
 31
0.0
  0
ARC
  5
E7
330
1F
100
AcDbEntity
  8
0
  6
Continuous
 62
     7
370
    15
100
AcDbCircle
 10
339.8764195849
 20
723.7601178355
 30
0.0
 40
0.5015000000000435
100
AcDbArc
 50
173.5400612127
 51
195.0
  0
LINE
  5
E8
330
1F
100
AcDbEntity
  8
0
  6
Continuous
 62
     7
370
    15
100
AcDbLine
 10
552.4937345041
 20
704.7166264498
 30
0.0
 11
552.4183793319
 21
705.0437665426
 31
0.0
  0
LINE
  5
E9
330
1F
100
AcDbEntity
  8
0
  6
Continuous
 62
     7
370
    15
100
AcDbLine
 10
534.4599319948
 20
700.7891348445
 30
0.0
 11
534.5095081581
 21
700.5739397251
 31
0.0
  0
LINE
  5
EA
330
1F
100
AcDbEntity
  8
0
  6
Continuous
 62
     7
370
    15
100
AcDbLine
 10
335.2439722372
 20
739.879462763
 30
0.0
 11
335.0214867247
 21
739.8600018465
 31
0.0
  0
ARC
  5
EB
330
1F
100
AcDbEntity
  8
0
  6
Continuous
 62
     7
370
    15
100
AcDbCircle
 10
335.038969798
 20
739.6601584475
 30
0.0
 40
0.2006000000000723
100
AcDbArc
 50
95.0
 51
183.6794392695
  0
ARC
  5
EC
330
1F
100
AcDbEntity
  8
0
  6
Continuous
 62
     7
370
    15
100
AcDbCircle
 10
335.4410889639
 20
735.0639153495
 30
0.0
 40
0.2005999999999664
100
AcDbArc
 50
186.3205607305
 51
232.6224866936
  0
ARC
  5
ED
330
1F
100
AcDbEntity
  8
0
  6
Continuous
 62
     7
370
    15
100
AcDbCircle
 10
434.9320360655
 20
746.0839573275
 30
0.0
 40
100.3
100
AcDbArc
 50
183.6794392694
 51
186.3205607306
  0
LINE
  5
EE
330
1F
100
AcDbEntity
  8
0
  6
Continuous
 62
     7
370
    15
100
AcDbLine
 10
375.1791143883
 20
733.1306300008
 30
0.0
 11
375.1633154321
 21
733.1260851466
 31
0.0
  0
SPLINE
  5
EF
330
1F
100
AcDbEntity
  8
0
  6
Continuous
 62
     7
370
    15
100
AcDbSpline
210
0.0
220
0.0
230
1.0
 70
     8
 71
     3
 72
    24
 73
    20
 74
     0
 42
0.00000001
 43
0.00000001
 40
0.0
 40
0.0
 40
0.0
 40
0.0
 40
0.0399800431375894
 40
0.080031182376735
 40
0.120114989434101
 40
0.160232533291339
 40
0.2003974307096882
 40
0.2406172150123247
 40
0.2808836273522613
 40
0.3211681176950331
 40
0.3614273786918724
 40
0.4016297267388373
 40
0.4417453990303202
 40
0.5373727963250119
 40
0.6323690919799135
 40
0.7257332531492904
 40
0.8178985506320474
 40
0.9091426570771031
 40
0.9999999999999999
 40
0.9999999999999999
 40
0.9999999999999999
 40
0.9999999999999999
 10
359.0660855100213
 20
747.8966324607234
 30
0.0
 10
358.8496761175699
 20
748.1732995450687
 30
0.0
 10
358.416472494059
 20
748.7271257080042
 30
0.0
 10
357.7736643316993
 20
749.564053383247
 30
0.0
 10
357.1331230009244
 20
750.4042247087287
 30
0.0
 10
356.4951598428697
 20
751.2476117327233
 30
0.0
 10
355.8589528282469
 20
752.0938171739691
 30
0.0
 10
355.2237065416101
 20
752.94237780692
 30
0.0
 10
354.5884899757899
 20
753.7922721740109
 30
0.0
 10
353.9526920838624
 20
754.6421653556077
 30
0.0
 10
353.3157607213419
 20
755.4905061362267
 30
0.0
 10
352.6767235306967
 20
756.3354086862115
 30
0.0
 10
351.7375058759112
 20
757.5631489046126
 30
0.0
 10
350.4853690687137
 20
759.1576437531911
 30
0.0
 10
348.89283866979
 20
761.0787166866262
 30
0.0
 10
347.2660629163105
 20
762.9306824077839
 30
0.0
 10
345.6022050711303
 20
764.704510132406
 30
0.0
 10
343.897397858146
 20
766.4080824220707
 30
0.0
 10
342.7306848318294
 20
767.5028893432094
 30
0.0
 10
342.1485673039758
 20
768.0491301788178
 30
0.0
  0
SPLINE
  5
F0
330
1F
100
AcDbEntity
  8
0
  6
Continuous
 62
     7
370
    15
100
AcDbSpline
210
0.0
220
0.0
230
1.0
 70
     8
 71
     3
 72
    26
 73
    22
 74
     0
 42
0.00000001
 43
0.00000001
 40
0.0
 40
0.0
 40
0.0
 40
0.0
 40
0.0290992113130852
 40
0.0582053890888987
 40
0.087315505790377
 40
0.1164335036086713
 40
0.1455660287882992
 40
0.174721522966314
 40
0.2039093112354713
 40
0.2331386825134513
 40
0.262417957675811
 40
0.2917535409101377
 40
0.3211489499182604
 40
0.4036112448880976
 40
0.4866517083534351
 40
0.5423876683592103
 40
0.65534964334854
 40
0.7694085474945438
 40
0.8456003211867034
 40
0.9224788471925288
 40
0.9999999999999999
 40
0.9999999999999999
 40
0.9999999999999999
 40
0.9999999999999999
 10
375.2687722188325
 20
734.2474114575947
 30
0.0
 10
375.0828217737789
 20
734.3391659047928
 30
0.0
 10
374.7108763664225
 20
734.5226967655558
 30
0.0
 10
374.1581261584013
 20
734.8083933355176
 30
0.0
 10
373.6092771797429
 20
735.101764128882
 30
0.0
 10
373.0648004954185
 20
735.4035746605756
 30
0.0
 10
372.5246360056088
 20
735.7136820780785
 30
0.0
 10
371.988814112836
 20
736.0322105086374
 30
0.0
 10
371.4573167444104
 20
736.3592222553734
 30
0.0
 10
370.9301353362514
 20
736.6947934923494
 30
0.0
 10
370.407276035044
 20
737.0389782091777
 30
0.0
 10
369.8887741706778
 20
737.3918046807821
 30
0.0
 10
369.0657279991943
 20
737.9705004386825
 30
0.0
 10
367.9529789795898
 20
738.802238698095
 30
0.0
 10
366.7306898577094
 20
739.7986208589227
 30
0.0
 10
365.3794080515362
 20
740.9786211304707
 30
0.0
 10
363.9151294396786
 20
742.3640565388139
 30
0.0
 10
362.4205793422929
 20
743.9254612711205
 30
0.0
 10
361.1549096139415
 20
745.3474386278593
 30
0.0
 10
360.0945658729485
 20
746.6029820389173
 30
0.0
 10
359.4098622078289
 20
747.4642208310714
 30
0.0
 10
359.0660854729319
 20
747.8966325078536
 30
0.0
  0
SPLINE
  5
F1
330
1F
100
AcDbEntity
  8
0
  6
Continuous
 62
     7
370
    15
100
AcDbSpline
210
0.0
220
0.0
230
1.0
 70
     8
 71
     3
 72
    34
 73
    30
 74
     0
 42
0.00000001
 43
0.00000001
 40
0.0
 40
0.0
 40
0.0
 40
0.0
 40
0.0438552173785177
 40
0.0876050271680885
 40
0.1311541214785419
 40
0.1743860720226718
 40
0.2171624942791592
 40
0.2592748282738754
 40
0.3004308980622866
 40
0.3335166300973792
 40
0.3656672502973586
 40
0.3968526538181513
 40
0.4272155164477318
 40
0.4571228574630514
 40
0.4871061337752871
 40
0.5082493536957776
 40
0.5297244699169616
 40
0.5515773420583968
 40
0.5738170087810854
 40
0.6187655246992796
 40
0.6650094509088136
 40
0.712206849631375
 40
0.7600678909725682
 40
0.8084507965442482
 40
0.8572281073022534
 40
0.9062820439415364
 40
0.9374641276721875
 40
0.9687012017313316
 40
1.0
 40
1.0
 40
1.0
 40
1.0
 10
450.6559565290908
 20
697.0763337292723
 30
0.0
 10
448.8955622381794
 20
696.96709760513
 30
0.0
 10
445.3790048272161
 20
696.7488879097904
 30
0.0
 10
440.1161481614687
 20
696.3937142744848
 30
0.0
 10
434.8816473384022
 20
695.9928079707918
 30
0.0
 10
429.6924444401124
 20
695.5183474698707
 30
0.0
 10
424.5725161260108
 20
694.9313328570859
 30
0.0
 10
419.5578511815977
 20
694.179849045296
 30
0.0
 10
414.9684821660493
 20
693.2492256512459
 30
0.0
 10
410.8402148361661
 20
692.1099332226296
 30
0.0
 10
407.1967045031096
 20
690.7646591359911
 30
0.0
 10
403.8185973143279
 20
689.0728380023899
 30
0.0
 10
400.7756865578994
 20
686.9822603924172
 30
0.0
 10
398.1303246354521
 20
684.4741706454062
 30
0.0
 10
396.1421127939672
 20
681.8751508485145
 30
0.0
 10
394.6613731155933
 20
679.3540718469808
 30
0.0
 10
393.5499114416232
 20
677.0081009883826
 30
0.0
 10
392.6040191603257
 20
674.5443080217567
 30
0.0
 10
391.5363521901745
 20
671.1240517461256
 30
0.0
 10
390.524935685258
 20
666.6686712787216
 30
0.0
 10
389.6820651615885
 20
661.1643309947519
 30
0.0
 10
389.0978448530457
 20
655.5098585765907
 30
0.0
 10
388.7013586331219
 20
649.7538134385452
 30
0.0
 10
388.43985767536
 20
643.9267870016482
 30
0.0
 10
388.2765844381055
 20
638.0483954902228
 30
0.0
 10
388.1932002575835
 20
632.8602855672442
 30
0.0
 10
388.1547616419383
 20
628.3771910736257
 30
0.0
 10
388.1348487366012
 20
624.6080619355234
 30
0.0
 10
388.133669208542
 20
622.0929776258948
 30
0.0
 10
388.133078862403
 20
620.8341942507609
 30
0.0
  0
LINE
  5
F2
330
1F
100
AcDbEntity
  8
0
  6
Continuous
 62
     7
370
    15
100
AcDbLine
 10
450.6172074331
 20
697.1168703281
 30
0.0
 11
450.6561069144
 21
697.0761976087
 31
0.0
  0
SPLINE
  5
F3
330
1F
100
AcDbEntity
  8
0
  6
Continuous
 62
     7
370
    15
100
AcDbSpline
210
0.0
220
0.0
230
1.0
 70
     8
 71
     3
 72
    14
 73
    10
 74
     0
 42
0.00000001
 43
0.00000001
 40
0.0
 40
0.0
 40
0.0
 40
0.0
 40
0.5000000000000001
 40
0.5000000000000001
 40
0.6250000000000001
 40
0.6250000000000001
 40
0.7500000000000002
 40
0.7500000000000002
 40
1.0
 40
1.0
 40
1.0
 40
1.0
 10
363.4220561532335
 20
729.9580466418979
 30
0.0
 10
361.1175489364069
 20
729.3362428734822
 30
0.0
 10
358.7989637406634
 20
728.9972513876836
 30
0.0
 10
355.9050669798351
 20
728.8996640312815
 30
0.0
 10
355.3265229780815
 20
728.8966013088453
 30
0.0
 10
354.1706053193276
 20
728.9232195528909
 30
0.0
 10
353.5921310080243
 20
728.9530657178378
 30
0.0
 10
351.8783645877285
 20
729.0897389427117
 30
0.0
 10
350.7592618965366
 20
729.2435917120563
 30
0.0
 10
349.6681192326644
 20
729.4537126700251
 30
0.0
  0
LINE
  5
F4
330
1F
100
AcDbEntity
  8
0
  6
Continuous
 62
     7
370
    15
100
AcDbLine
 10
451.6654147161
 20
697.1380821311
 30
0.0
 11
450.6561069144
 21
697.0761976087
 31
0.0
  0
SPLINE
  5
F5
330
1F
100
AcDbEntity
  8
0
  6
Continuous
 62
     7
370
    15
100
AcDbSpline
210
0.0
220
0.0
230
1.0
 70
     8
 71
     3
 72
     9
 73
     5
 74
     0
 42
0.00000001
 43
0.00000001
 40
0.0
 40
0.0
 40
0.0
 40
0.0
 40
0.4999626796489439
 40
1.0
 40
1.0
 40
1.0
 40
1.0
 10
335.3193632647937
 20
734.9044687494691
 30
0.0
 10
335.3280917375772
 20
734.5348041984774
 30
0.0
 10
335.3455499862399
 20
733.7954199083321
 30
0.0
 10
335.3656242343862
 20
733.0561020168593
 30
0.0
 10
335.3756621076375
 20
732.6864154795196
 30
0.0
  0
SPLINE
  5
F6
330
1F
100
AcDbEntity
  8
0
  6
Continuous
 62
     7
370
    15
100
AcDbSpline
210
0.0
220
0.0
230
1.0
 70
     8
 71
     3
 72
    18
 73
    14
 74
     0
 42
0.00000001
 43
0.00000001
 40
0.0
 40
0.0
 40
0.0
 40
0.0
 40
0.2500000000000054
 40
0.2500000000000054
 40
0.5000000000000108
 40
0.5000000000000108
 40
0.6250000000000134
 40
0.6250000000000134
 40
0.7500000000000162
 40
0.7500000000000162
 40
0.8750000000000081
 40
0.8750000000000081
 40
1.0
 40
1.0
 40
1.0
 40
1.0
 10
335.3193631451047
 20
734.9044688536145
 30
0.0
 10
335.3189222610813
 20
734.9048054364691
 30
0.0
 10
335.3188102024469
 20
734.9410909545593
 30
0.0
 10
335.318957151395
 20
735.0886516192461
 30
0.0
 10
335.3192050477476
 20
735.1967534458784
 30
0.0
 10
335.3192362442836
 20
735.4107640589081
 30
0.0
 10
335.3191846818785
 20
735.4912926887189
 30
0.0
 10
335.3188439929539
 20
735.6646328288435
 30
0.0
 10
335.3185558021382
 20
735.7580507888794
 30
0.0
 10
335.3176299409461
 20
735.9585609449144
 30
0.0
 10
335.3169844151335
 20
736.066556342305
 30
0.0
 10
335.3152683675908
 20
736.291129321539
 30
0.0
 10
335.3141996748384
 20
736.4079186786189
 30
0.0
 10
335.3128843401173
 20
736.529300904861
 30
0.0
  0
SPLINE
  5
F7
330
1F
100
AcDbEntity
  8
0
  6
Continuous
 62
     7
370
    15
100
AcDbSpline
210
0.0
220
0.0
230
1.0
 70
     8
 71
     3
 72
    22
 73
    18
 74
     0
 42
0.00000001
 43
0.00000001
 40
0.0
 40
0.0
 40
0.0
 40
0.0
 40
0.125
 40
0.125
 40
0.25
 40
0.25
 40
0.375
 40
0.375
 40
0.5
 40
0.5
 40
0.625
 40
0.625
 40
0.75
 40
0.75
 40
0.875
 40
0.875
 40
1.0
 40
1.0
 40
1.0
 40
1.0
 10
335.2439706377534
 20
739.8794599563968
 30
0.0
 10
335.2434747866246
 20
739.8794158545212
 30
0.0
 10
335.2437288397416
 20
739.85501501256
 30
0.0
 10
335.2456774155261
 20
739.7606104365582
 30
0.0
 10
335.2473972998455
 20
739.6893748820039
 30
0.0
 10
335.2520821486876
 20
739.5051903876124
 30
0.0
 10
335.2550174936691
 20
739.3932916352169
 30
0.0
 10
335.261900748033
 20
739.1293404632496
 30
0.0
 10
335.2657770138675
 20
738.9799613858941
 30
0.0
 10
335.2739189032226
 20
738.6548981518933
 30
0.0
 10
335.2782647264652
 20
738.4757824286512
 30
0.0
 10
335.2867020675254
 20
738.1054025278004
 30
0.0
 10
335.2908454413072
 20
737.9120906021808
 30
0.0
 10
335.2986112318191
 20
737.5135303784391
 30
0.0
 10
335.3021088168546
 20
737.3146772589284
 30
0.0
 10
335.3082194334937
 20
736.9177997192783
 30
0.0
 10
335.3108237501747
 20
736.7194570610084
 30
0.0
 10
335.3128843401174
 20
736.5293009048623
 30
0.0
  0
SPLINE
  5
F8
330
1F
100
AcDbEntity
  8
0
  6
Continuous
 62
     7
370
    15
100
AcDbSpline
210
0.0
220
0.0
230
1.0
 70
     8
 71
     3
 72
    75
 73
    71
 74
     0
 42
0.00000001
 43
0.00000001
 40
0.0
 40
0.0
 40
0.0
 40
0.0
 40
0.0149060607076261
 40
0.0297563205642613
 40
0.0445562571361527
 40
0.0593108343226772
 40
0.074024912820435
 40
0.088703015790448
 40
0.1033493703207244
 40
0.1179679396835244
 40
0.1325624453528029
 40
0.1471363808569965
 40
0.1616930188891541
 40
0.1762354125185313
 40
0.19076639086182
 40
0.2052885412700731
 40
0.2198041946584108
 40
0.2343154219425749
 40
0.2488240101438877
 40
0.2633314354465189
 40
0.2778388348417205
 40
0.2923469762655599
 40
0.30685622717432
 40
0.3213665215322412
 40
0.3358773289246412
 40
0.3503878799114212
 40
0.3648975977337228
 40
0.3794060209255842
 40
0.3939127861550717
 40
0.4084176271167457
 40
0.4229203724795644
 40
0.4374209429038337
 40
0.4519193471508346
 40
0.4664156773171756
 40
0.4809101032322794
 40
0.4954028664955591
 40
0.5098942832614896
 40
0.5243847423918635
 40
0.5388746935109666
 40
0.553364640677536
 40
0.5678551360742015
 40
0.5823467734356662
 40
0.5968401812308483
 40
0.6113360156106148
 40
0.625834953132789
 40
0.6403376832759209
 40
0.6548449007529673
 40
0.6693572976353211
 40
0.6838755552969012
 40
0.6984003361871504
 40
0.7129322754406421
 40
0.7274719723297667
 40
0.7420199815655488
 40
0.7565768044503537
 40
0.7711428798849459
 40
0.7857185752302187
 40
0.8003041748136341
 40
0.8148998631481065
 40
0.8295057258881396
 40
0.8441217440334229
 40
0.8587477840424461
 40
0.873383587828006
 40
0.8880287626572425
 40
0.9026827709756892
 40
0.9173449201727386
 40
0.9320143523033869
 40
0.9466900337785428
 40
0.9613707450334522
 40
0.9806827093777395
 40
1.0
 40
1.0
 40
1.0
 40
1.0
 10
339.655934718215
 20
767.6593622147932
 30
0.0
 10
339.587618700712
 20
767.5358256940582
 30
0.0
 10
339.4512424067759
 20
767.2892151116595
 30
0.0
 10
339.2566523647023
 20
766.9147592666923
 30
0.0
 10
339.0694430377955
 20
766.5381881307618
 30
0.0
 10
338.8900027873318
 20
766.1592722685805
 30
0.0
 10
338.7177994750522
 20
765.7782847569085
 30
0.0
 10
338.5525686494145
 20
765.3953386220184
 30
0.0
 10
338.3939964947126
 20
765.0105678369639
 30
0.0
 10
338.2418031947423
 20
764.6240817993875
 30
0.0
 10
338.0957194155965
 20
764.2359794979654
 30
0.0
 10
337.9554914966035
 20
763.846347707495
 30
0.0
 10
337.8208789370389
 20
763.4552634740089
 30
0.0
 10
337.6916541273666
 20
763.0627953951714
 30
0.0
 10
337.5676005142997
 20
762.6690056082118
 30
0.0
 10
337.4485146371323
 20
762.2739505048995
 30
0.0
 10
337.3342082405995
 20
761.8776815378886
 30
0.0
 10
337.2245008930761
 20
761.480248715089
 30
0.0
 10
337.1192213409873
 20
761.0817013597484
 30
0.0
 10
337.0182071703641
 20
760.682089614612
 30
0.0
 10
336.9213048151813
 20
760.2814658383605
 30
0.0
 10
336.8283693588049
 20
759.8798860575378
 30
0.0
 10
336.7392642865323
 20
759.477411423882
 30
0.0
 10
336.6538611494676
 20
759.0741096542012
 30
0.0
 10
336.5720386746252
 20
758.6700540546699
 30
0.0
 10
336.4936811073072
 20
758.2653181653357
 30
0.0
 10
336.4186769242892
 20
757.8599707421592
 30
0.0
 10
336.3469181499522
 20
757.4540729329852
 30
0.0
 10
336.2783004054285
 20
757.0476794602158
 30
0.0
 10
336.2127227469616
 20
756.6408390905734
 30
0.0
 10
336.1500874276368
 20
756.2335949560206
 30
0.0
 10
336.0902996098326
 20
755.8259848838355
 30
0.0
 10
336.033267066681
 20
755.4180417308767
 30
0.0
 10
335.9788997540673
 20
755.0097937358357
 30
0.0
 10
335.9271097166351
 20
754.6012648296391
 30
0.0
 10
335.8778096056095
 20
754.1924750189808
 30
0.0
 10
335.830917163379
 20
753.7834400003038
 30
0.0
 10
335.7863559912626
 20
753.3741713805183
 30
0.0
 10
335.7440514086274
 20
752.9646774818469
 30
0.0
 10
335.7039313797202
 20
752.5549635655404
 30
0.0
 10
335.6659262329643
 20
752.1450321443706
 30
0.0
 10
335.6299686900175
 20
751.7348832552608
 30
0.0
 10
335.5959938029096
 20
751.3245147436925
 30
0.0
 10
335.5639389077248
 20
750.9139225465902
 30
0.0
 10
335.5337435664933
 20
750.5031009770925
 30
0.0
 10
335.5053495056116
 20
750.0920430101563
 30
0.0
 10
335.4787005491611
 20
749.6807405691609
 30
0.0
 10
335.4537425480456
 20
749.2691848133703
 30
0.0
 10
335.4304233050618
 20
748.8573664262237
 30
0.0
 10
335.4086924960778
 20
748.4452759044198
 30
0.0
 10
335.3885015873929
 20
748.0329038477976
 30
0.0
 10
335.3698037489123
 20
747.6202412500356
 30
0.0
 10
335.3525537637876
 20
747.2072797902234
 30
0.0
 10
335.3367079306823
 20
746.7940121253973
 30
0.0
 10
335.32222397101
 20
746.3804321840797
 30
0.0
 10
335.309060893361
 20
745.9665354821256
 30
0.0
 10
335.2971789931348
 20
745.5523195087486
 30
0.0
 10
335.2865371063114
 20
745.137784080591
 30
0.0
 10
335.2770958091181
 20
744.7229314659609
 30
0.0
 10
335.2688173703714
 20
744.3077665608844
 30
0.0
 10
335.2616654997081
 20
743.8922971658935
 30
0.0
 10
335.2556051724245
 20
743.4765342991012
 30
0.0
 10
335.2506023841336
 20
743.0604925079376
 30
0.0
 10
335.2466241426026
 20
742.6441901812046
 30
0.0
 10
335.2436376178778
 20
742.2276498538987
 30
0.0
 10
335.2416124662255
 20
741.8108985325223
 30
0.0
 10
335.2405113369957
 20
741.3939679369606
 30
0.0
 10
335.2403049171257
 20
740.9330705375676
 30
0.0
 10
335.2412025484404
 20
740.4282164188209
 30
0.0
 10
335.2430478415934
 20
740.062395588358
 30
0.0
 10
335.2439706153862
 20
739.8794599530771
 30
0.0
  0
LINE
  5
F9
330
1F
100
AcDbEntity
  8
0
  6
Continuous
 62
     7
370
    15
100
AcDbLine
 10
335.7132545067
 20
720.7112423026
 30
0.0
 11
335.810004021
 21
719.1240525686
 31
0.0
  0
SPLINE
  5
FA
330
1F
100
AcDbEntity
  8
0
  6
Continuous
 62
     7
370
    15
100
AcDbSpline
210
0.0
220
0.0
230
1.0
 70
     8
 71
     3
 72
    13
 73
     9
 74
     0
 42
0.00000001
 43
0.00000001
 40
0.0
 40
0.0
 40
0.0
 40
0.0
 40
0.0173307612623695
 40
0.1564746351329428
 40
0.2954100045669907
 40
0.4348071712996722
 40
0.7169223143126295
 40
1.0
 40
1.0
 40
1.0
 40
1.0
 10
336.3699449552179
 20
709.9379262768715
 30
0.0
 10
336.4007219733188
 20
709.4237315165378
 30
0.0
 10
336.6785991308726
 20
704.7812096854178
 30
0.0
 10
337.4635324707181
 20
696.033927010676
 30
0.0
 10
338.0241040196672
 20
683.635940399039
 30
0.0
 10
338.5860146059983
 20
666.987862249626
 30
0.0
 10
338.9257599607032
 20
646.046714957364
 30
0.0
 10
338.965683916298
 20
629.2479101863926
 30
0.0
 10
338.9856798900247
 20
620.8342033320158
 30
0.0
  0
SPLINE
  5
FB
330
1F
100
AcDbEntity
  8
0
  6
Continuous
 62
     7
370
    15
100
AcDbSpline
210
0.0
220
0.0
230
1.0
 70
    24
 71
     3
 72
    39
 73
    35
 74
     0
 42
0.00000001
 43
0.00000001
 40
0.0
 40
0.0
 40
0.0
 40
0.0
 40
0.0154240169493082
 40
0.0306623437048966
 40
0.0457177539210061
 40
0.0605931235718203
 40
0.0752914343158894
 40
0.0898157768558422
 40
0.1041693542745301
 40
0.1183554853263145
 40
0.1323776076596282
 40
0.1462392809442711
 40
0.1599441898742019
 40
0.1734961470137825
 40
0.1868990954526948
 40
0.200157111232103
 40
0.2132744055020986
 40
0.2262553263682064
 40
0.2391043603827304
 40
0.251826133635245
 40
0.3155012597427959
 40
0.3766625424502009
 40
0.4389244106095168
 40
0.5004946531394722
 40
0.5619612111582373
 40
0.6248316764091286
 40
0.6855571945342174
 40
0.7495770943959739
 40
0.8098466077311078
 40
0.8742714598857059
 40
0.9036003615695538
 40
0.9343210252966017
 40
0.9664495479292201
 40
0.9999999999999999
 40
0.9999999999999999
 40
0.9999999999999999
 40
0.9999999999999999
 10
336.1591796428497
 20
721.3044687361289
 30
0.0
 10
336.16023699231
 20
721.304752052063
 30
0.0
 10
336.1623389617696
 20
721.3053152730822
 30
0.0
 10
336.1777678272858
 20
721.3094494251374
 30
0.0
 10
336.2022184354975
 20
721.3160009458621
 30
0.0
 10
336.2365421624869
 20
721.3251979607902
 30
0.0
 10
336.2805151897478
 20
721.3369804979335
 30
0.0
 10
336.3341966470923
 20
721.3513644010774
 30
0.0
 10
336.3975712198989
 20
721.3683455666817
 30
0.0
 10
336.4706432042691
 20
721.3879251458831
 30
0.0
 10
336.5534117527851
 20
721.4101029116166
 30
0.0
 10
336.6458773886583
 20
721.4348790040764
 30
0.0
 10
336.7480402970814
 20
721.4622534728848
 30
0.0
 10
336.8599007506547
 20
721.4922263910848
 30
0.0
 10
336.9814590844443
 20
721.524797848457
 30
0.0
 10
337.1127153787237
 20
721.5599678665105
 30
0.0
 10
337.2536707259806
 20
721.5977367379769
 30
0.0
 10
337.4043225426524
 20
721.6381037705925
 30
0.0
 10
337.5646817954677
 20
721.6810719028831
 30
0.0
 10
337.9622259976171
 20
721.7875935508048
 30
0.0
 10
338.7006754815978
 20
721.9854604936885
 30
0.0
 10
340.0124895912799
 20
722.3369600249976
 30
0.0
 10
341.6261390238826
 20
722.7693360873305
 30
0.0
 10
343.5532389924055
 20
723.2857009676302
 30
0.0
 10
345.7653791328624
 20
723.8784421318101
 30
0.0
 10
348.199544151609
 20
724.5306746828273
 30
0.0
 10
350.8458706906412
 20
725.2397557418701
 30
0.0
 10
353.5819166965713
 20
725.9728770596134
 30
0.0
 10
356.4590225128801
 20
726.7437952396323
 30
0.0
 10
358.8539348472607
 20
727.3855100655728
 30
0.0
 10
360.8068801126453
 20
727.9088001722948
 30
0.0
 10
362.2599289188487
 20
728.2981434264801
 30
0.0
 10
363.7848575996191
 20
728.7067468350076
 30
0.0
 10
364.8275362512598
 20
728.9861317376799
 30
0.0
 10
365.3601624118397
 20
729.1288484872749
 30
0.0
  0
SPLINE
  5
FC
330
1F
100
AcDbEntity
  8
0
  6
Continuous
 62
     7
370
    15
100
AcDbSpline
210
0.0
220
0.0
230
1.0
 70
     8
 71
     3
 72
    10
 73
     6
 74
     0
 42
0.00000001
 43
0.00000001
 40
0.0
 40
0.0
 40
0.0
 40
0.0
 40
0.5
 40
0.5
 40
1.0
 40
1.0
 40
1.0
 40
1.0
 10
335.7132555025203
 20
720.7112395686834
 30
0.0
 10
335.7108024693408
 20
720.8349049791262
 30
0.0
 10
335.7507211734059
 20
720.9741353706279
 30
0.0
 10
335.9170539552065
 20
721.1954139024085
 30
0.0
 10
336.0397046631859
 20
721.2724555118123
 30
0.0
 10
336.1591797586734
 20
721.3044687671638
 30
0.0
  0
SPLINE
  5
FD
330
1F
100
AcDbEntity
  8
0
  6
Continuous
 62
     7
370
    15
100
AcDbSpline
210
0.0
220
0.0
230
1.0
 70
    24
 71
     3
 72
    19
 73
    15
 74
     0
 42
0.00000001
 43
0.00000001
 40
0.0
 40
0.0
 40
0.0
 40
0.0
 40
0.0549819833977549
 40
0.1121763993645241
 40
0.1721890187555122
 40
0.2355448259361299
 40
0.3026904339072
 40
0.3740012857115422
 40
0.4497909489201132
 40
0.5303206891558769
 40
0.6484976486675929
 40
0.7723580029002408
 40
0.8980406151916224
 40
1.0
 40
1.0
 40
1.0
 40
1.0
 10
365.3602281843271
 20
729.1288661109598
 30
0.0
 10
365.3876415430224
 20
729.136211498284
 30
0.0
 10
365.4435713528055
 20
729.1511978456482
 30
0.0
 10
365.5298596325194
 20
729.174318720514
 30
0.0
 10
365.6194297999918
 20
729.1983189745541
 30
0.0
 10
365.712402338404
 20
729.2232308911399
 30
0.0
 10
365.8087537840966
 20
729.2490481832028
 30
0.0
 10
365.9085051830456
 20
729.2757764899951
 30
0.0
 10
366.011675523747
 20
729.3034208994688
 30
0.0
 10
366.1326478373304
 20
729.3358353332001
 30
0.0
 10
366.270309740668
 20
729.3727217290278
 30
0.0
 10
366.4207306386331
 20
729.4130268871623
 30
0.0
 10
366.5602939261441
 20
729.450422757344
 30
0.0
 10
366.6387807762434
 20
729.4714532454445
 30
0.0
 10
366.6739345310586
 20
729.4808726656582
 30
0.0
  0
SPLINE
  5
FE
330
1F
100
AcDbEntity
  8
0
  6
Continuous
 62
     7
370
    15
100
AcDbSpline
210
0.0
220
0.0
230
1.0
 70
    24
 71
     3
 72
    14
 73
    10
 74
     0
 42
0.00000001
 43
0.00000001
 40
0.0
 40
0.0
 40
0.0
 40
0.0
 40
0.25
 40
0.25
 40
0.5
 40
0.5
 40
0.75
 40
0.75
 40
1.0
 40
1.0
 40
1.0
 40
1.0
 10
365.0076385132528
 20
730.3858695965819
 30
0.0
 10
364.9285789406443
 20
730.364537686741
 30
0.0
 10
364.8352594694996
 20
730.3393581609834
 30
0.0
 10
364.6283382136656
 20
730.2835265212717
 30
0.0
 10
364.5194675624807
 20
730.2541509651084
 30
0.0
 10
364.2933758361109
 20
730.1931467354675
 30
0.0
 10
364.1746927202245
 20
730.1611235731331
 30
0.0
 10
363.9381160454281
 20
730.0972902872862
 30
0.0
 10
363.8198447850468
 20
730.0653782520956
 30
0.0
 10
363.7015911342829
 20
730.0334709683444
 30
0.0
  0
SPLINE
  5
FF
330
1F
100
AcDbEntity
  8
0
  6
Continuous
 62
     7
370
    15
100
AcDbSpline
210
0.0
220
0.0
230
1.0
 70
    24
 71
     3
 72
     8
 73
     4
 74
     0
 42
0.00000001
 43
0.00000001
 40
0.0
 40
0.0
 40
0.0
 40
0.0
 40
0.0002926519410579
 40
0.0002926519410579
 40
0.0002926519410579
 40
0.0002926519410579
 10
363.7015911342829
 20
730.0334709683444
 30
0.0
 10
363.6083879096995
 20
730.0083228083165
 30
0.0
 10
363.5152091111715
 20
729.983181238944
 30
0.0
 10
363.4220561532335
 20
729.9580466418979
 30
0.0
  0
SPLINE
  5
100
330
1F
100
AcDbEntity
  8
0
  6
Continuous
 62
     7
370
    15
100
AcDbSpline
210
0.0
220
0.0
230
1.0
 70
     8
 71
     3
 72
    22
 73
    18
 74
     0
 42
0.00000001
 43
0.00000001
 40
0.0
 40
0.0
 40
0.0
 40
0.0
 40
0.0625000000000001
 40
0.0625000000000001
 40
0.1250000000000002
 40
0.1250000000000002
 40
0.2499999999999999
 40
0.2499999999999999
 40
0.4999999999999999
 40
0.4999999999999999
 40
0.6249999999999999
 40
0.6249999999999999
 40
0.75
 40
0.75
 40
0.875
 40
0.875
 40
1.0
 40
1.0
 40
1.0
 40
1.0
 10
377.8366263303438
 20
732.2575429528779
 30
0.0
 10
378.4882830369411
 20
731.9883659414286
 30
0.0
 10
379.1477913200176
 20
731.7318719860384
 30
0.0
 10
380.4753552202741
 20
731.248026881591
 30
0.0
 10
381.1420407724553
 20
731.0211239532712
 30
0.0
 10
383.1506615863139
 20
730.3847154613883
 30
0.0
 10
384.5012571310103
 20
730.0200074256803
 30
0.0
 10
388.5835091279513
 20
729.0834731961577
 30
0.0
 10
391.3456220085661
 20
728.6691906640547
 30
0.0
 10
395.5262692658786
 20
728.2416310728446
 30
0.0
 10
396.9267598103095
 20
728.1313236136198
 30
0.0
 10
399.7330793787253
 20
727.9547261916007
 30
0.0
 10
401.136963849728
 20
727.8884491450995
 30
0.0
 10
403.9455977225539
 20
727.7821784292493
 30
0.0
 10
405.3503433696621
 20
727.7420706622346
 30
0.0
 10
408.1602586633652
 20
727.674739555673
 30
0.0
 10
409.5654243280185
 20
727.6473952135357
 30
0.0
 10
410.9707153246815
 20
727.6238594401333
 30
0.0
  0
SPLINE
  5
101
330
1F
100
AcDbEntity
  8
0
  6
Continuous
 62
     7
370
    15
100
AcDbSpline
210
0.0
220
0.0
230
1.0
 70
     8
 71
     3
 72
    12
 73
     8
 74
     0
 42
0.00000001
 43
0.00000001
 40
0.0
 40
0.0
 40
0.0
 40
0.0
 40
0.1850260944414404
 40
0.3864306703441114
 40
0.5915384050916128
 40
0.7926050302429061
 40
1.0
 40
1.0
 40
1.0
 40
1.0
 10
375.1525010308206
 20
733.1231645190209
 30
0.0
 10
375.1057676407605
 20
733.1105530074793
 30
0.0
 10
375.00816402813
 20
733.0842136153316
 30
0.0
 10
374.0351291634619
 20
732.8216712971135
 30
0.0
 10
372.1493586004582
 20
732.3128479048385
 30
0.0
 10
369.2163730077951
 20
731.5214784404858
 30
0.0
 10
366.4249656849069
 20
730.768293151044
 30
0.0
 10
365.0076382188082
 20
730.3858659111946
 30
0.0
  0
ARC
  5
102
330
1F
100
AcDbEntity
  8
0
  6
Continuous
 62
     7
370
    15
100
AcDbCircle
 10
377.4528781028
 20
731.330699882
 30
0.0
 40
1.002999999999948
100
AcDbArc
 50
83.2928787976
 51
105.0
  0
LWPOLYLINE
  5
103
330
1F
100
AcDbEntity
  8
0
  6
Continuous
 62
     7
370
    15
100
AcDbPolyline
 90
        3
 70
   128
 43
0.0
 10
377.6959928079
 20
732.3037869179
 10
377.7595960861
 20
732.2856522047
 10
377.8365959739
 20
732.2573996031
  0
SPLINE
  5
104
330
1F
100
AcDbEntity
  8
0
  6
Continuous
 62
     7
370
    15
100
AcDbSpline
210
0.0
220
0.0
230
1.0
 70
    24
 71
     3
 72
    29
 73
    25
 74
     0
 42
0.00000001
 43
0.00000001
 40
0.0
 40
0.0
 40
0.0
 40
0.0
 40
0.0213876242609751
 40
0.0426687861088131
 40
0.0638483618247745
 40
0.0849312981779256
 40
0.1059226102589487
 40
0.126827379101089
 40
0.147650749088984
 40
0.1683979251573276
 40
0.1890741697829332
 40
0.2096847997750924
 40
0.2302351828707473
 40
0.2507307341424641
 40
0.3757578855305284
 40
0.5015379882357871
 40
0.624098527262659
 40
0.750416358186804
 40
0.7904877326696291
 40
0.8311378138704969
 40
0.8723911294748508
 40
0.9142711473006379
 40
0.9568002977253109
 40
1.0
 40
1.0
 40
1.0
 40
1.0
 10
366.6739345310558
 20
729.4808726656574
 30
0.0
 10
366.8259800378298
 20
729.5216131364105
 30
0.0
 10
367.1293142056732
 20
729.6028912817208
 30
0.0
 10
367.5728977069406
 20
729.7217491226611
 30
0.0
 10
368.0066099351102
 20
729.8379619639467
 30
0.0
 10
368.4297283583974
 20
729.9513362037692
 30
0.0
 10
368.8424450467046
 20
730.0619233071039
 30
0.0
 10
369.2447087063478
 20
730.1697095298496
 30
0.0
 10
369.6365328407841
 20
730.2746984902469
 30
0.0
 10
370.0179136124448
 20
730.3768891600222
 30
0.0
 10
370.3888521308593
 20
730.4762818364729
 30
0.0
 10
370.749346971442
 20
730.5728761378826
 30
0.0
 10
371.0994019106748
 20
730.6666730761566
 30
0.0
 10
372.0165686963097
 20
730.9124271756922
 30
0.0
 10
373.3642325770007
 20
731.273532624192
 30
0.0
 10
374.840815131773
 20
731.6691817273011
 30
0.0
 10
375.945682297429
 20
731.9652299920823
 30
0.0
 10
376.5222095068705
 20
732.1197099922666
 30
0.0
 10
376.8139630728802
 20
732.1978851246678
 30
0.0
 10
376.9525266047636
 20
732.2350131111364
 30
0.0
 10
377.0603801532087
 20
732.2639123823432
 30
0.0
 10
377.136830570294
 20
732.284397209862
 30
0.0
 10
377.1845557531606
 20
732.2971851340699
 30
0.0
 10
377.1903585221092
 20
732.2987399813235
 30
0.0
 10
377.1932826005619
 20
732.2995234857835
 30
0.0
  0
SPLINE
  5
105
330
1F
100
AcDbEntity
  8
0
  6
Continuous
 62
     7
370
    15
100
AcDbSpline
210
0.0
220
0.0
230
1.0
 70
     8
 71
     3
 72
    44
 73
    40
 74
     0
 42
0.00000001
 43
0.00000001
 40
0.0
 40
0.0
 40
0.0
 40
0.0
 40
0.0156531139221871
 40
0.0313363483338532
 40
0.0470484770845697
 40
0.0627882462685677
 40
0.0785543848617056
 40
0.0943456132622158
 40
0.1101606500142166
 40
0.1259982150106564
 40
0.1418570320383477
 40
0.1577358302063081
 40
0.1736333442157296
 40
0.1895483138593922
 40
0.2054795003334892
 40
0.2214256983933193
 40
0.2373857140499157
 40
0.2533583655184841
 40
0.2693424862010758
 40
0.2853369271268651
 40
0.3013405590248372
 40
0.3173522747094232
 40
0.3333709908226379
 40
0.3493956491279074
 40
0.3654252175665924
 40
0.3814586910823803
 40
0.3974950916096569
 40
0.4135334676001077
 40
0.4295728935948137
 40
0.4456124693588912
 40
0.4616513189192024
 40
0.4776885898186377
 40
0.4937234655691185
 40
0.5893161863187311
 40
0.6843721005964734
 40
0.7834188426468521
 40
0.8823764184871893
 40
0.9411882056722628
 40
0.9999999999999999
 40
0.9999999999999999
 40
0.9999999999999999
 40
0.9999999999999999
 10
534.4599380553794
 20
700.7891366395827
 30
0.0
 10
534.0892644234688
 20
700.744416182108
 30
0.0
 10
533.347203891266
 20
700.6548892138612
 30
0.0
 10
532.23165807028
 20
700.532644237046
 30
0.0
 10
531.1132057345258
 20
700.4183359347222
 30
0.0
 10
529.9919439746078
 20
700.3123588561369
 30
0.0
 10
528.8681006119186
 20
700.2139605309317
 30
0.0
 10
527.7418526693987
 20
700.1227228609135
 30
0.0
 10
526.6133763521927
 20
700.038163116875
 30
0.0
 10
525.4828348764894
 20
699.9598396090632
 30
0.0
 10
524.3503829619284
 20
699.8873220967511
 30
0.0
 10
523.2161667941742
 20
699.8201986451031
 30
0.0
 10
522.080325158979
 20
699.7580727513532
 30
0.0
 10
520.9429898051807
 20
699.7005631130596
 30
0.0
 10
519.8042855275557
 20
699.6473027194645
 30
0.0
 10
518.6643306709619
 20
699.5979381969123
 30
0.0
 10
517.5232379404915
 20
699.5521291419271
 30
0.0
 10
516.3811153694277
 20
699.5095474902
 30
0.0
 10
515.2380666446076
 20
699.4698768761094
 30
0.0
 10
514.0941913569693
 20
699.4328120132295
 30
0.0
 10
512.9495852241877
 20
699.398058065031
 30
0.0
 10
511.80434028552
 20
699.3653302380158
 30
0.0
 10
510.6585450856508
 20
699.3343532727367
 30
0.0
 10
509.5122848595273
 20
699.3048609494994
 30
0.0
 10
508.3656417116144
 20
699.2765956122244
 30
0.0
 10
507.2186948009278
 20
699.2493077353362
 30
0.0
 10
506.0715205437656
 20
699.2227553988893
 30
0.0
 10
504.9241928282935
 20
699.1967036018281
 30
0.0
 10
503.7767832272743
 20
699.1709241438323
 30
0.0
 10
502.6293612207924
 20
699.145193655061
 30
0.0
 10
501.4819943716022
 20
699.1192982546386
 30
0.0
 10
500.3347483267826
 20
699.0930136130737
 30
0.0
 10
497.2905108348634
 20
699.0217909259721
 30
0.0
 10
492.3623221763096
 20
698.8927595420104
 30
0.0
 10
485.4565237050058
 20
698.6548449549106
 30
0.0
 10
478.4719439466148
 20
698.3768121505343
 30
0.0
 10
472.3520348754967
 20
698.1127946656469
 30
0.0
 10
467.1911096867601
 20
697.8859344819007
 30
0.0
 10
464.3882303972696
 20
697.7631767270723
 30
0.0
 10
462.9867906674222
 20
697.7017978459309
 30
0.0
  0
SPLINE
  5
106
330
1F
100
AcDbEntity
  8
0
  6
Continuous
 62
     7
370
    15
100
AcDbSpline
210
0.0
220
0.0
230
1.0
 70
     8
 71
     3
 72
    11
 73
     7
 74
     0
 42
0.00000001
 43
0.00000001
 40
0.0
 40
0.0
 40
0.0
 40
0.0
 40
0.2503947917317408
 40
0.5005995103363384
 40
0.750504685278572
 40
1.0
 40
1.0
 40
1.0
 40
1.0
 10
462.9867906674902
 20
697.7017978459339
 30
0.0
 10
462.0415985554375
 20
697.6598713133577
 30
0.0
 10
460.1519318207785
 20
697.5760500743751
 30
0.0
 10
457.319254055477
 20
697.4431088310431
 30
0.0
 10
454.4903961742015
 20
697.3011745526811
 30
0.0
 10
452.6065288177755
 20
697.1924956123556
 30
0.0
 10
451.6653681887551
 20
697.1382007388397
 30
0.0
  0
LINE
  5
107
330
1F
100
AcDbEntity
  8
0
  6
Continuous
 62
     7
370
    15
100
AcDbLine
 10
569.0585656417
 20
719.5102310621
 30
0.0
 11
568.0965019716
 21
718.0468252742
 31
0.0
  0
SPLINE
  5
108
330
1F
100
AcDbEntity
  8
0
  6
Continuous
 62
     7
370
    15
100
AcDbSpline
210
0.0
220
0.0
230
1.0
 70
     8
 71
     3
 72
     9
 73
     5
 74
     0
 42
0.00000001
 43
0.00000001
 40
0.0
 40
0.0
 40
0.0
 40
0.0
 40
0.0834790524850677
 40
1.0
 40
1.0
 40
1.0
 40
1.0
 10
557.1790321124673
 20
707.3824963414162
 30
0.0
 10
557.0559346354966
 20
707.3007736052205
 30
0.0
 10
555.5813434260095
 20
706.3218126112596
 30
0.0
 10
553.9309758168392
 20
705.6549552673341
 30
0.0
 10
552.4183793319345
 20
705.0437665426224
 30
0.0
  0
SPLINE
  5
109
330
1F
100
AcDbEntity
  8
0
  6
Continuous
 62
     7
370
    15
100
AcDbSpline
210
0.0
220
0.0
230
1.0
 70
     8
 71
     3
 72
    49
 73
    45
 74
     0
 42
0.00000001
 43
0.00000001
 40
0.0
 40
0.0
 40
0.0
 40
0.0
 40
0.0624999999999981
 40
0.0624999999999981
 40
0.1249999999999962
 40
0.1249999999999962
 40
0.1562499999999958
 40
0.1562499999999958
 40
0.1874999999999954
 40
0.1874999999999954
 40
0.2499999999999963
 40
0.2499999999999963
 40
0.3124999999999972
 40
0.3124999999999972
 40
0.3749999999999982
 40
0.3749999999999982
 40
0.4062499999999986
 40
0.4062499999999986
 40
0.4374999999999991
 40
0.4687499999999996
 40
0.4687499999999996
 40
0.5000000000000001
 40
0.5000000000000001
 40
0.5625000000000008
 40
0.5625000000000008
 40
0.5937500000000011
 40
0.5937500000000011
 40
0.6250000000000016
 40
0.6250000000000016
 40
0.6874999999999993
 40
0.6874999999999993
 40
0.7187499999999993
 40
0.7187499999999993
 40
0.7499999999999994
 40
0.7499999999999994
 40
0.8124999999999997
 40
0.8124999999999997
 40
0.8749999999999998
 40
0.8749999999999998
 40
0.9062499999999998
 40
0.9062499999999998
 40
0.9374999999999999
 40
0.9374999999999999
 40
1.0
 40
1.0
 40
1.0
 40
1.0
 10
552.4183831845392
 20
705.0437637303886
 30
0.0
 10
552.4185177171025
 20
705.0431869275465
 30
0.0
 10
552.3627079421132
 20
705.0261076620708
 30
0.0
 10
552.1339943830566
 20
704.959523024685
 30
0.0
 10
551.9648984376344
 20
704.9111757716034
 30
0.0
 10
551.6319226266061
 20
704.8195482345639
 30
0.0
 10
551.507608480419
 20
704.7858012922308
 30
0.0
 10
551.2316107022193
 20
704.7122349426851
 30
0.0
 10
551.0793262036123
 20
704.6722692979636
 30
0.0
 10
550.5907638120831
 20
704.5464574283358
 30
0.0
 10
550.2205258172683
 20
704.4541164024918
 30
0.0
 10
549.3911555203443
 20
704.2550862372818
 30
0.0
 10
548.9282985632782
 20
704.1476410889995
 30
0.0
 10
547.9511795550062
 20
703.9276774494356
 30
0.0
 10
547.4330288736943
 20
703.8141635000836
 30
0.0
 10
546.6106756556762
 20
703.6369697331921
 30
0.0
 10
546.3292264090055
 20
703.5767831164821
 30
0.0
 10
545.763649714061
 20
703.4563000678417
 30
0.0
 10
545.1923541587738
 20
703.3350488345164
 30
0.0
 10
544.6099781371406
 20
703.2114048253683
 30
0.0
 10
544.0220792140695
 20
703.0861020659434
 30
0.0
 10
543.7237544228152
 20
703.0222721444743
 30
0.0
 10
542.8332024962443
 20
702.8303517575897
 30
0.0
 10
542.2482238440427
 20
702.7024066442806
 30
0.0
 10
541.3838452738722
 20
702.5089572341229
 30
0.0
 10
541.0979128651281
 20
702.4442326877564
 30
0.0
 10
540.5305889901852
 20
702.3142088041354
 30
0.0
 10
540.2512072997467
 20
702.2493627059183
 30
0.0
 10
539.437225028568
 20
702.0580865234771
 30
0.0
 10
538.9217376692167
 20
701.9337396048961
 30
0.0
 10
538.18922961746
 20
701.7532336545877
 30
0.0
 10
537.950701127817
 20
701.6937817683372
 30
0.0
 10
537.496338008028
 20
701.5794690351373
 30
0.0
 10
537.279900944282
 20
701.524468013182
 30
0.0
 10
536.6619512284052
 20
701.366259131984
 30
0.0
 10
536.2914904093019
 20
701.2697856689668
 30
0.0
 10
535.6363463865449
 20
701.0980185314532
 30
0.0
 10
535.3619744548444
 20
701.0254571739442
 30
0.0
 10
535.0281604411742
 20
700.9372997076823
 30
0.0
 10
534.9298536623893
 20
700.9113523950446
 30
0.0
 10
534.759719553265
 20
700.8665654542647
 30
0.0
 10
534.6878097517658
 20
700.8477053936346
 30
0.0
 10
534.5168147778132
 20
700.803105678064
 30
0.0
 10
534.4600299344864
 20
700.7887354145495
 30
0.0
 10
534.4599380521904
 20
700.7891366558307
 30
0.0
  0
SPLINE
  5
10A
330
1F
100
AcDbEntity
  8
0
  6
Continuous
 62
     7
370
    15
100
AcDbSpline
210
0.0
220
0.0
230
1.0
 70
     8
 71
     3
 72
    22
 73
    18
 74
     0
 42
0.00000001
 43
0.00000001
 40
0.0
 40
0.0
 40
0.0
 40
0.0
 40
0.0284209175121064
 40
0.0569777806846947
 40
0.0855462395575458
 40
0.1140918829654369
 40
0.1426416809548284
 40
0.1712165743434557
 40
0.3521646571671214
 40
0.533563598616517
 40
0.7151103522385296
 40
0.7626957446521461
 40
0.8101668935263711
 40
0.8575435559356547
 40
0.9049224976598447
 40
0.9524009679461405
 40
1.0
 40
1.0
 40
1.0
 40
1.0
 10
410.9706172014623
 20
727.62313375993
 30
0.0
 10
412.0973687570934
 20
727.6042355332104
 30
0.0
 10
414.3562614545421
 20
727.5663486839592
 30
0.0
 10
417.7478995428934
 20
727.5187290267493
 30
0.0
 10
421.1445368519396
 20
727.4753119234731
 30
0.0
 10
424.5409410798857
 20
727.4357088853127
 30
0.0
 10
427.9376296589344
 20
727.3987407244086
 30
0.0
 10
437.3768835019814
 20
727.3014819320134
 30
0.0
 10
452.8765798941956
 20
727.1606834229495
 30
0.0
 10
474.4410209100055
 20
726.91890716873
 30
0.0
 10
490.7169009258683
 20
726.656086773439
 30
0.0
 10
501.6818677188
 20
726.4190863991487
 30
0.0
 10
507.3277890749718
 20
726.2820233463787
 30
0.0
 10
512.9650828549413
 20
726.1277650013246
 30
0.0
 10
518.6020638652985
 20
725.9529946512877
 30
0.0
 10
524.2471664691873
 20
725.7560899103842
 30
0.0
 10
528.0137968340434
 20
725.5991125153547
 30
0.0
 10
529.8995001293446
 20
725.5205242912865
 30
0.0
  0
SPLINE
  5
10B
330
1F
100
AcDbEntity
  8
0
  6
Continuous
 62
     7
370
     0
100
AcDbSpline
210
0.0
220
0.0
230
1.0
 70
     8
 71
     3
 72
    19
 73
    15
 74
     0
 42
0.00000001
 43
0.00000001
 40
0.0
 40
0.0
 40
0.0
 40
0.0
 40
0.0040335630068446
 40
0.0940594002821339
 40
0.1843567196832895
 40
0.2518329464266297
 40
0.3191605923865387
 40
0.3865059255385863
 40
0.4541462788753123
 40
0.5623574356219763
 40
0.671675649806336
 40
0.7815636140162026
 40
0.8908239587032593
 40
0.9999999999999999
 40
0.9999999999999999
 40
0.9999999999999999
 40
0.9999999999999999
 10
568.0184943927408
 20
721.811879321286
 30
0.0
 10
568.0172296133444
 20
721.8120196010213
 30
0.0
 10
567.9877359891473
 20
721.8152908100657
 30
0.0
 10
567.7335279412969
 20
721.8178583079696
 30
0.0
 10
567.045853298176
 20
721.8155182657944
 30
0.0
 10
565.7303743859441
 20
721.7980915176872
 30
0.0
 10
563.8156915592087
 20
721.7795481066231
 30
0.0
 10
561.1397713201417
 20
721.7515944713722
 30
0.0
 10
557.3922713612411
 20
721.7118885409344
 30
0.0
 10
552.6475610062253
 20
721.6627571220099
 30
0.0
 10
547.0010526889236
 20
721.5995603254743
 30
0.0
 10
541.2969694984795
 20
721.5666059638025
 30
0.0
 10
535.5934557944836
 20
721.5437205617328
 30
0.0
 10
531.7970108767948
 20
721.5509021537891
 30
0.0
 10
529.899521018374
 20
721.5544915639847
 30
0.0
  0
SPLINE
  5
10C
330
1F
100
AcDbEntity
  8
0
  6
Continuous
 62
     7
370
    15
100
AcDbSpline
210
0.0
220
0.0
230
1.0
 70
     8
 71
     3
 72
    23
 73
    19
 74
     0
 42
0.00000001
 43
0.00000001
 40
0.0
 40
0.0
 40
0.0
 40
0.0
 40
0.0461255538491942
 40
0.0944352803735542
 40
0.1449290182532734
 40
0.1976065948148131
 40
0.2524678264727005
 40
0.309512519087869
 40
0.3687404682577124
 40
0.4301514595559586
 40
0.4937452687301507
 40
0.559521661868669
 40
0.6274803955422186
 40
0.6976212169261204
 40
0.7699438639083566
 40
0.8444480651864267
 40
0.9211335403571485
 40
1.0
 40
1.0
 40
1.0
 40
1.0
 10
569.0585600322521
 20
719.5102306070706
 30
0.0
 10
569.0781861510176
 20
719.5492238806161
 30
0.0
 10
569.1183677396076
 20
719.6290568671637
 30
0.0
 10
569.1668725720821
 20
719.7575421924219
 30
0.0
 10
569.2064447405784
 20
719.8954123191668
 30
0.0
 10
569.2342292869142
 20
720.0425258580589
 30
0.0
 10
569.2485498136922
 20
720.1977841521214
 30
0.0
 10
569.2473960468711
 20
720.3599316263919
 30
0.0
 10
569.2289233318405
 20
720.5272923523231
 30
0.0
 10
569.191389697343
 20
720.6978185541016
 30
0.0
 10
569.1332650296144
 20
720.8690632382901
 30
0.0
 10
569.0533003269805
 20
721.0381840941733
 30
0.0
 10
568.9506230741664
 20
721.2019770819063
 30
0.0
 10
568.824807380693
 20
721.3568437563524
 30
0.0
 10
568.6760471239633
 20
721.4991132480799
 30
0.0
 10
568.5049325361003
 20
721.6240759384248
 30
0.0
 10
568.3137559531831
 20
721.7301542412928
 30
0.0
 10
568.1744171751582
 20
721.7781567727138
 30
0.0
 10
568.1037709557655
 20
721.8024945587505
 30
0.0
  0
SPLINE
  5
10D
330
1F
100
AcDbEntity
  8
0
  6
Continuous
 62
     7
370
    15
100
AcDbSpline
210
0.0
220
0.0
230
1.0
 70
    24
 71
     3
 72
    30
 73
    26
 74
     0
 42
0.00000001
 43
0.00000001
 40
0.0
 40
0.0
 40
0.0
 40
0.0
 40
0.1250000000000001
 40
0.1250000000000001
 40
0.1875000000000001
 40
0.1875000000000001
 40
0.25
 40
0.25
 40
0.3124999999999999
 40
0.3124999999999999
 40
0.3437499999999997
 40
0.3437499999999997
 40
0.3749999999999994
 40
0.3749999999999994
 40
0.4999999999999993
 40
0.4999999999999993
 40
0.5624999999999993
 40
0.5624999999999993
 40
0.6249999999999993
 40
0.6249999999999993
 40
0.7499999999999996
 40
0.7499999999999996
 40
0.8749999999999999
 40
0.8749999999999999
 40
1.0
 40
1.0
 40
1.0
 40
1.0
 10
349.6681192326644
 20
729.4537126700251
 30
0.0
 10
348.376615258349
 20
729.7024171348845
 30
0.0
 10
347.1372585518179
 20
729.9410796187773
 30
0.0
 10
345.3798332306494
 20
730.2795063930838
 30
0.0
 10
344.8142520947851
 20
730.3884201529538
 30
0.0
 10
343.7411544197881
 20
730.5950661937788
 30
0.0
 10
343.2313044985105
 20
730.6932478133106
 30
0.0
 10
342.2661097411759
 20
730.8791150273354
 30
0.0
 10
341.8107665543551
 20
730.9668003042358
 30
0.0
 10
341.1688835966935
 20
731.0904074790199
 30
0.0
 10
340.9617717096684
 20
731.1302909420623
 30
0.0
 10
340.561212245928
 20
731.2074265367295
 30
0.0
 10
340.3673413497584
 20
731.2447601868325
 30
0.0
 10
339.442529955848
 20
731.4228507908047
 30
0.0
 10
338.8365508831956
 20
731.5395439671148
 30
0.0
 10
338.08135382539
 20
731.6849719982013
 30
0.0
 10
337.8553542959222
 20
731.7284926478875
 30
0.0
 10
337.4481426282977
 20
731.8069092551107
 30
0.0
 10
337.2673750313062
 20
731.841719607512
 30
0.0
 10
336.787980205534
 20
731.9340365000428
 30
0.0
 10
336.5485992038257
 20
731.9801340151196
 30
0.0
 10
336.1838109914329
 20
732.0503811525302
 30
0.0
 10
336.0587841697604
 20
732.0744575234863
 30
0.0
 10
335.8975898842128
 20
732.105498650206
 30
0.0
 10
335.8616757000331
 20
732.1124146319875
 30
0.0
 10
335.8634349381294
 20
732.1120758561278
 30
0.0
  0
SPLINE
  5
10E
330
1F
100
AcDbEntity
  8
0
  6
Continuous
 62
     7
370
    15
100
AcDbSpline
210
0.0
220
0.0
230
1.0
 70
     8
 71
     3
 72
     9
 73
     5
 74
     0
 42
0.00000001
 43
0.00000001
 40
0.0
 40
0.0
 40
0.0
 40
0.0
 40
0.5190766341005777
 40
1.0
 40
1.0
 40
1.0
 40
1.0
 10
529.8995359195352
 20
725.5208379470795
 30
0.0
 10
533.1084166649243
 20
725.4023291623045
 30
0.0
 10
539.2903184007813
 20
725.1740222476992
 30
0.0
 10
545.4658588070366
 20
724.8127626582512
 30
0.0
 10
548.4358204854608
 20
724.6390244805306
 30
0.0
  0
SPLINE
  5
10F
330
1F
100
AcDbEntity
  8
0
  6
Continuous
 62
     7
370
    15
100
AcDbSpline
210
0.0
220
0.0
230
1.0
 70
     8
 71
     3
 72
     9
 73
     5
 74
     0
 42
0.00000001
 43
0.00000001
 40
0.0
 40
0.0
 40
0.0
 40
0.0
 40
0.3730117738160499
 40
1.0
 40
1.0
 40
1.0
 40
1.0
 10
560.6861843122125
 20
723.417203768441
 30
0.0
 10
561.6238219953729
 20
723.291576760604
 30
0.0
 10
564.1375165996152
 20
722.9547857618865
 30
0.0
 10
566.575344163116
 20
722.2468046461651
 30
0.0
 10
568.1038333428979
 20
721.8029088222473
 30
0.0
  0
LINE
  5
110
330
1F
100
AcDbEntity
  8
0
  6
Continuous
 62
     7
370
    15
100
AcDbLine
 10
338.9859481109
 20
429.261315509
 30
0.0
 11
388.1329486472
 21
429.261315509
 31
0.0
  0
LWPOLYLINE
  5
111
330
1F
100
AcDbEntity
  8
0
  6
Continuous
 62
     7
370
    15
100
AcDbPolyline
 90
       18
 70
   128
 43
0.0
 10
552.4937345041
 20
704.7166264498
 10
552.32095554
 20
704.6768254482
 10
551.8092496647
 20
704.5589572632
 10
550.9783013118
 20
704.3675443971
 10
549.8600138677
 20
704.1099405729
 10
548.4973771824
 20
703.7960625135
 10
546.9427539362
 20
703.4379503571
 10
545.2558977855
 20
703.0493802273
 10
543.5016287817
 20
702.6452830874
 10
541.7473448766
 20
702.2411859476
 10
540.060488726
 20
701.8526158177
 10
538.5058654798
 20
701.4945036613
 10
537.1432436956
 20
701.180625602
 10
536.0249562515
 20
700.9230217778
 10
535.1939929975
 20
700.7316089117
 10
534.6822871221
 20
700.6137407267
 10
534.5095081581
 20
700.5739397251
 10
534.5095081581
 20
700.5739397251
  0
LINE
  5
112
330
1F
100
AcDbEntity
  8
0
  6
Continuous
 62
     7
370
    15
100
AcDbLine
 10
335.7654011203
 20
720.7240945541
 30
0.0
 11
335.7132545067
 21
720.7112423026
 31
0.0
  0
SPLINE
  5
113
330
1F
100
AcDbEntity
  8
0
  6
Continuous
 62
     8
370
     0
100
AcDbSpline
210
0.0
220
0.0
230
1.0
 70
     8
 71
     3
 72
    36
 73
    32
 74
     0
 42
0.00000001
 43
0.00000001
 40
0.0
 40
0.0
 40
0.0
 40
0.0
 40
0.0624999999999999
 40
0.0624999999999999
 40
0.1249999999999998
 40
0.1249999999999998
 40
0.2499999999999996
 40
0.2499999999999996
 40
0.3124999999999995
 40
0.3124999999999995
 40
0.3749999999999994
 40
0.3749999999999994
 40
0.4374999999999994
 40
0.4374999999999994
 40
0.4687499999999998
 40
0.4687499999999998
 40
0.5000000000000001
 40
0.5000000000000001
 40
0.5624999999999999
 40
0.5624999999999999
 40
0.6249999999999997
 40
0.6249999999999997
 40
0.6874999999999994
 40
0.6874999999999994
 40
0.7499999999999992
 40
0.7499999999999992
 40
0.8124999999999991
 40
0.8124999999999991
 40
0.8749999999999989
 40
0.8749999999999989
 40
1.0
 40
1.0
 40
1.0
 40
1.0
 10
342.1485672869277
 20
768.0491301946771
 30
0.0
 10
342.1485865770686
 20
768.0504775896858
 30
0.0
 10
342.1543738392709
 20
768.0384560976537
 30
0.0
 10
342.1764374328939
 20
767.987808124667
 30
0.0
 10
342.1923987460215
 20
767.9494561606328
 30
0.0
 10
342.2580903865727
 20
767.7844859829656
 30
0.0
 10
342.3260420000676
 20
767.6084542003282
 30
0.0
 10
342.5009176584206
 20
767.151131442059
 30
0.0
 10
342.5714737461539
 20
766.9667567217622
 30
0.0
 10
342.7460174316477
 20
766.5119426979552
 30
0.0
 10
342.8497672537152
 20
766.241439881155
 30
0.0
 10
343.1038327305132
 20
765.5809021676102
 30
0.0
 10
343.2556971088906
 20
765.1873783178397
 30
0.0
 10
343.5240250928716
 20
764.497873744735
 30
0.0
 10
343.6203427555737
 20
764.2511706878701
 30
0.0
 10
343.8277847040663
 20
763.7217244654739
 30
0.0
 10
343.9392866735296
 20
763.4380171441039
 30
0.0
 10
344.2946736977516
 20
762.5366610186504
 30
0.0
 10
344.5552647480309
 20
761.8794463488979
 30
0.0
 10
345.1181283789715
 20
760.467973316072
 30
0.0
 10
345.4208884926898
 20
759.7121310128083
 30
0.0
 10
346.0560477100947
 20
758.1313085503532
 30
0.0
 10
346.3827687439521
 20
757.319943010462
 30
0.0
 10
347.0537969968273
 20
755.6693456281077
 30
0.0
 10
347.3982790949781
 20
754.829954106253
 30
0.0
 10
348.111859447416
 20
753.1355734058652
 30
0.0
 10
348.481263865629
 20
752.2807363465889
 30
0.0
 10
349.2526178173181
 20
750.5665832970851
 30
0.0
 10
349.6542046221641
 20
749.7085148734315
 30
0.0
 10
350.9133567891083
 20
747.1557374713964
 30
0.0
 10
351.8277772119973
 20
745.4772728787153
 30
0.0
 10
352.8492203269238
 20
743.8439893123939
 30
0.0
  0
SPLINE
  5
114
330
1F
100
AcDbEntity
  8
0
  6
Continuous
 62
     8
370
     0
100
AcDbSpline
210
0.0
220
0.0
230
1.0
 70
     8
 71
     3
 72
    14
 73
    10
 74
     0
 42
0.00000001
 43
0.00000001
 40
0.0
 40
0.0
 40
0.0
 40
0.0
 40
0.2499999999999993
 40
0.2499999999999993
 40
0.3749999999999992
 40
0.3749999999999992
 40
0.4999999999999991
 40
0.4999999999999991
 40
1.0
 40
1.0
 40
1.0
 40
1.0
 10
352.8492203269238
 20
743.843989312394
 30
0.0
 10
353.628569258203
 20
742.5978134037337
 30
0.0
 10
354.4632708663659
 20
741.3883116163337
 30
0.0
 10
355.8162769425044
 20
739.6444523454046
 30
0.0
 10
356.2840832221856
 20
739.0748862325953
 30
0.0
 10
357.2552716633372
 20
737.9608463136241
 30
0.0
 10
357.7584029917
 20
737.4167554525953
 30
0.0
 10
360.33607546198
 20
734.7897014304567
 30
0.0
 10
362.6199261205455
 20
732.9653714208646
 30
0.0
 10
365.1124306499261
 20
731.4044373446054
 30
0.0
  0
SPLINE
  5
115
330
1F
100
AcDbEntity
  8
0
  6
Continuous
 62
     8
370
     0
100
AcDbSpline
210
0.0
220
0.0
230
1.0
 70
     8
 71
     3
 72
    16
 73
    12
 74
     0
 42
0.00000001
 43
0.00000001
 40
0.0
 40
0.0
 40
0.0
 40
0.0
 40
0.2500000000000002
 40
0.2500000000000002
 40
0.5000000000000003
 40
0.5000000000000003
 40
0.6250000000000004
 40
0.6250000000000004
 40
0.7500000000000004
 40
0.7500000000000004
 40
1.0
 40
1.0
 40
1.0
 40
1.0
 10
392.8062714174927
 20
722.4556988321135
 30
0.0
 10
390.5925098416137
 20
722.6714288549143
 30
0.0
 10
388.3834529758014
 20
722.9447809809398
 30
0.0
 10
384.0081708968033
 20
723.6462284569037
 30
0.0
 10
381.8352863243526
 20
724.076871808622
 30
0.0
 10
378.6282387745442
 20
724.8785147112078
 30
0.0
 10
377.5675195227525
 20
725.1716598559265
 30
0.0
 10
375.4645415997441
 20
725.8157316232305
 30
0.0
 10
374.42083798427
 20
726.1672997835891
 30
0.0
 10
371.3356549108507
 20
727.3141650818698
 30
0.0
 10
369.3379312171973
 20
728.200669915106
 30
0.0
 10
367.4131991010141
 20
729.2400873084966
 30
0.0
  0
SPLINE
  5
116
330
1F
100
AcDbEntity
  8
0
  6
Continuous
 62
     8
370
     0
100
AcDbSpline
210
0.0
220
0.0
230
1.0
 70
     8
 71
     3
 72
    16
 73
    12
 74
     0
 42
0.00000001
 43
0.00000001
 40
0.0
 40
0.0
 40
0.0
 40
0.0
 40
0.2500000000000002
 40
0.2500000000000002
 40
0.5000000000000004
 40
0.5000000000000004
 40
0.6250000000000003
 40
0.6250000000000003
 40
0.7500000000000002
 40
0.7500000000000002
 40
1.0
 40
1.0
 40
1.0
 40
1.0
 10
392.6593932383287
 20
720.8015833083947
 30
0.0
 10
390.4063825182901
 20
721.0259550248202
 30
0.0
 10
388.1591237843766
 20
721.3089606549999
 30
0.0
 10
383.6927918318883
 20
722.0347839354201
 30
0.0
 10
381.469369973087
 20
722.4802990973521
 30
0.0
 10
378.1797921866056
 20
723.309416005864
 30
0.0
 10
377.090591816672
 20
723.6124459180637
 30
0.0
 10
374.9286654838314
 20
724.2784565165831
 30
0.0
 10
373.8544860058923
 20
724.6421344843005
 30
0.0
 10
370.6759422850965
 20
725.8294225485438
 30
0.0
 10
368.6122234655601
 20
726.7472113723823
 30
0.0
 10
366.6199820217504
 20
727.8280644514759
 30
0.0
  0
SPLINE
  5
117
330
1F
100
AcDbEntity
  8
0
  6
Continuous
 62
     8
370
     0
100
AcDbSpline
210
0.0
220
0.0
230
1.0
 70
     8
 71
     3
 72
    14
 73
    10
 74
     0
 42
0.00000001
 43
0.00000001
 40
0.0
 40
0.0
 40
0.0
 40
0.0
 40
0.5000000000000017
 40
0.5000000000000017
 40
0.6250000000000004
 40
0.6250000000000004
 40
0.7499999999999991
 40
0.7499999999999991
 40
1.0
 40
1.0
 40
1.0
 40
1.0
 10
363.472848094515
 20
730.5498425054082
 30
0.0
 10
361.0319404203276
 20
732.1468133154837
 30
0.0
 10
358.7871463823436
 20
733.9931845666432
 30
0.0
 10
356.2341816954513
 20
736.6196632593642
 30
0.0
 10
355.7351759642066
 20
737.1619044845834
 30
0.0
 10
354.770673898244
 20
738.2678741569914
 30
0.0
 10
354.3043777276751
 20
738.8324237439068
 30
0.0
 10
352.9504499926389
 20
740.5583035674128
 30
0.0
 10
352.1077313069131
 20
741.7518486178958
 30
0.0
 10
351.3135571167564
 20
742.9786300793896
 30
0.0
  0
SPLINE
  5
118
330
1F
100
AcDbEntity
  8
0
  6
Continuous
 62
     8
370
     0
100
AcDbSpline
210
0.0
220
0.0
230
1.0
 70
     8
 71
     3
 72
    18
 73
    14
 74
     0
 42
0.00000001
 43
0.00000001
 40
0.0
 40
0.0
 40
0.0
 40
0.0
 40
0.5000000000000003
 40
0.5000000000000003
 40
0.6250000000000003
 40
0.6250000000000003
 40
0.7500000000000002
 40
0.7500000000000002
 40
0.8750000000000002
 40
0.8750000000000002
 40
0.9375000000000002
 40
0.9375000000000002
 40
1.0
 40
1.0
 40
1.0
 40
1.0
 10
410.9706172015572
 20
721.9832042636208
 30
0.0
 10
408.002298142426
 20
722.0192522148672
 30
0.0
 10
405.0341838838117
 20
722.0620688954813
 30
0.0
 10
401.328028238594
 20
722.1300750246245
 30
0.0
 10
400.5862683601204
 20
722.1444019329797
 30
0.0
 10
399.107172479043
 20
722.1760361686247
 30
0.0
 10
398.3690162278233
 20
722.1943760933782
 30
0.0
 10
396.892768172404
 20
722.235607385815
 30
0.0
 10
396.1545409820217
 20
722.2572526046338
 30
0.0
 10
395.0607143123601
 20
722.2987924052395
 30
0.0
 10
394.6988527557993
 20
722.3146368971144
 30
0.0
 10
393.9833308989736
 20
722.3562510125829
 30
0.0
 10
393.6284534107521
 20
722.381431191039
 30
0.0
 10
393.2739598087246
 20
722.412334799354
 30
0.0
  0
SPLINE
  5
119
330
1F
100
AcDbEntity
  8
0
  6
Continuous
 62
     8
370
     0
100
AcDbSpline
210
0.0
220
0.0
230
1.0
 70
     8
 71
     3
 72
    12
 73
     8
 74
     0
 42
0.00000001
 43
0.00000001
 40
0.0
 40
0.0
 40
0.0
 40
0.0
 40
0.25
 40
0.25
 40
0.5
 40
0.5
 40
1.0
 40
1.0
 40
1.0
 40
1.0
 10
410.9706304862339
 20
721.9832041022887
 30
0.0
 10
414.3605358410495
 20
721.9420363345489
 30
0.0
 10
417.7505429954475
 20
721.9105149049743
 30
0.0
 10
424.5305352894603
 20
721.8594446409329
 30
0.0
 10
427.9205461847866
 20
721.8394208903688
 30
0.0
 10
438.0905356653462
 20
721.7861202763324
 30
0.0
 10
444.8704852805906
 20
721.7583023496788
 30
0.0
 10
451.6502981930623
 20
721.7350037880242
 30
0.0
  0
SPLINE
  5
11A
330
1F
100
AcDbEntity
  8
0
  6
Continuous
 62
     8
370
     0
100
AcDbSpline
210
0.0
220
0.0
230
1.0
 70
     8
 71
     3
 72
    24
 73
    20
 74
     0
 42
0.00000001
 43
0.00000001
 40
0.0
 40
0.0
 40
0.0
 40
0.0
 40
0.2499999999999998
 40
0.2499999999999998
 40
0.4999999999999996
 40
0.4999999999999996
 40
0.6249999999999997
 40
0.6249999999999997
 40
0.7499999999999998
 40
0.7499999999999998
 40
0.8749999999999999
 40
0.8749999999999999
 40
0.9374999999999999
 40
0.9374999999999999
 40
0.9687499999999999
 40
0.9687499999999999
 40
0.984375
 40
0.984375
 40
1.0
 40
1.0
 40
1.0
 40
1.0
 10
451.665458972887
 20
719.9247553345236
 30
0.0
 10
446.7878626440606
 20
719.9492624473656
 30
0.0
 10
441.9102070592903
 20
719.9765457985809
 30
0.0
 10
432.1548333562308
 20
720.0393013703704
 30
0.0
 10
427.2771075110838
 20
720.0737315057362
 30
0.0
 10
419.9605778352762
 20
720.1403105655424
 30
0.0
 10
417.5217484030567
 20
720.1651571556554
 30
0.0
 10
412.6441063021916
 20
720.2224606004189
 30
0.0
 10
410.2052962089557
 20
720.2546087648925
 30
0.0
 10
405.3279024423903
 20
720.3365684991244
 30
0.0
 10
402.8893160915662
 20
720.3854173193824
 30
0.0
 10
399.2316553068101
 20
720.4786615418972
 30
0.0
 10
398.012681170143
 20
720.5152902319053
 30
0.0
 10
396.1848080928474
 20
720.5832363691314
 30
0.0
 10
395.5756788757923
 20
720.6091751547322
 30
0.0
 10
394.6621858433793
 20
720.6529616003835
 30
0.0
 10
394.3577821256874
 20
720.670181045268
 30
0.0
 10
393.7492716788486
 20
720.710663181454
 30
0.0
 10
393.4450200297212
 20
720.7310101243065
 30
0.0
 10
393.1410407179872
 20
720.7572146942969
 30
0.0
  0
SPLINE
  5
11B
330
1F
100
AcDbEntity
  8
0
  6
Continuous
 62
     8
370
     0
100
AcDbSpline
210
0.0
220
0.0
230
1.0
 70
     8
 71
     3
 72
    11
 73
     7
 74
     0
 42
0.00000001
 43
0.00000001
 40
0.0
 40
0.0
 40
0.0
 40
0.0
 40
0.0000067625276091
 40
0.0000067625276091
 40
0.0000067625276091
 40
0.0004837659026312
 40
0.0004837659026312
 40
0.0004837659026312
 40
0.0004837659026312
 10
393.1409861631662
 20
720.7566124927396
 30
0.0
 10
393.1387415062362
 20
720.7568157951607
 30
0.0
 10
393.1364968567039
 20
720.7570191798003
 30
0.0
 10
393.1342522145329
 20
720.7572226461366
 30
0.0
 10
392.9759239345035
 20
720.7715743657521
 30
0.0
 10
392.8176319403123
 20
720.7863293179785
 30
0.0
 10
392.6593617311264
 20
720.8013093524746
 30
0.0
  0
SPLINE
  5
11C
330
1F
100
AcDbEntity
  8
0
  6
Continuous
 62
     8
370
     0
100
AcDbSpline
210
0.0
220
0.0
230
1.0
 70
     8
 71
     3
 72
    40
 73
    36
 74
     0
 42
0.00000001
 43
0.00000001
 40
0.0
 40
0.0
 40
0.0
 40
0.0
 40
0.1250000000000001
 40
0.1250000000000001
 40
0.1875
 40
0.1875
 40
0.25
 40
0.25
 40
0.3124999999999999
 40
0.3124999999999999
 40
0.3749999999999999
 40
0.3749999999999999
 40
0.4062499999999992
 40
0.4062499999999992
 40
0.4374999999999984
 40
0.4374999999999984
 40
0.4999999999999982
 40
0.4999999999999982
 40
0.5312499999999984
 40
0.5312499999999984
 40
0.5624999999999988
 40
0.5624999999999988
 40
0.5937499999999991
 40
0.5937499999999991
 40
0.6249999999999994
 40
0.6249999999999994
 40
0.6874999999999996
 40
0.6874999999999996
 40
0.7499999999999994
 40
0.7499999999999994
 40
0.8749999999999997
 40
0.8749999999999997
 40
0.9374999999999999
 40
0.9374999999999999
 40
1.0
 40
1.0
 40
1.0
 40
1.0
 10
351.3135571167564
 20
742.9786300793895
 30
0.0
 10
350.2370325499784
 20
744.6415654879366
 30
0.0
 10
349.2608699943447
 20
746.3504595448517
 30
0.0
 10
347.9022495597881
 20
748.9495114297484
 30
0.0
 10
347.4662656054469
 20
749.8229105508043
 30
0.0
 10
346.6226271487879
 20
751.5676700585365
 30
0.0
 10
346.2154016774234
 20
752.4375437816952
 30
0.0
 10
345.4245911219833
 20
754.1613814694956
 30
0.0
 10
345.0404324663857
 20
755.0149090912242
 30
0.0
 10
344.2870268231088
 20
756.6911622439407
 30
0.0
 10
343.9175544569667
 20
757.513981241841
 30
0.0
 10
343.3765260301847
 20
758.7152306755179
 30
0.0
 10
343.1993284843634
 20
759.1083026068787
 30
0.0
 10
342.8565295436158
 20
759.869655647756
 30
0.0
 10
342.6904020978881
 20
760.2391455194434
 30
0.0
 10
342.2104974358041
 20
761.3112537784959
 30
0.0
 10
341.9154500240961
 20
761.9773157484918
 30
0.0
 10
341.516924573436
 20
762.8937364026358
 30
0.0
 10
341.3918668359285
 20
763.1845325667117
 30
0.0
 10
341.1613971728883
 20
763.7273348113383
 30
0.0
 10
341.055297263382
 20
763.9809090605822
 30
0.0
 10
340.8599518483353
 20
764.4545040312282
 30
0.0
 10
340.7706973329375
 20
764.6745187697026
 30
0.0
 10
340.607262440633
 20
765.0833758833521
 30
0.0
 10
340.5332404466076
 20
765.2718168172984
 30
0.0
 10
340.3332963057898
 20
765.7885019234427
 30
0.0
 10
340.2280931524153
 20
766.0717951823648
 30
0.0
 10
340.054811936897
 20
766.5476936886012
 30
0.0
 10
339.9868063981465
 20
766.7402808684818
 30
0.0
 10
339.8202476358088
 20
767.2172410543811
 30
0.0
 10
339.7603448649232
 20
767.3990014503131
 30
0.0
 10
339.7022842358498
 20
767.5675445155563
 30
0.0
 10
339.6880963315705
 20
767.606123716613
 30
0.0
 10
339.6662956031113
 20
767.6542477931896
 30
0.0
 10
339.6582104877186
 20
767.6623434666524
 30
0.0
 10
339.655934736312
 20
767.659362247049
 30
0.0
  0
SPLINE
  5
11D
330
1F
100
AcDbEntity
  8
0
  6
Continuous
 62
     8
370
     0
100
AcDbSpline
210
0.0
220
0.0
230
1.0
 70
     8
 71
     3
 72
     9
 73
     5
 74
     0
 42
0.00000001
 43
0.00000001
 40
0.0
 40
0.0
 40
0.0
 40
0.0
 40
0.5013630675613839
 40
1.0
 40
1.0
 40
1.0
 40
1.0
 10
366.6200327601811
 20
727.8281518150146
 30
0.0
 10
366.4238985674334
 20
727.9349388237162
 30
0.0
 10
366.0326966512217
 20
728.1479321924159
 30
0.0
 10
365.6466931929594
 20
728.3700779334954
 30
0.0
 10
365.4542176126208
 20
728.4808480043816
 30
0.0
  0
SPLINE
  5
11E
330
1F
100
AcDbEntity
  8
0
  6
Continuous
 62
     8
370
     0
100
AcDbSpline
210
0.0
220
0.0
230
1.0
 70
     8
 71
     3
 72
     8
 73
     4
 74
     0
 42
0.00000001
 43
0.00000001
 40
0.0
 40
0.0
 40
0.0
 40
0.0
 40
1.0
 40
1.0
 40
1.0
 40
1.0
 10
367.4131322150626
 20
729.2399738104508
 30
0.0
 10
367.3881070325824
 20
729.2534870379641
 30
0.0
 10
367.3630975784699
 20
729.2670253581767
 30
0.0
 10
367.338103879424
 20
729.2805888153173
 30
0.0
  0
SPLINE
  5
11F
330
1F
100
AcDbEntity
  8
0
  6
Continuous
 62
     8
370
     0
100
AcDbSpline
210
0.0
220
0.0
230
1.0
 70
     8
 71
     3
 72
     8
 73
     4
 74
     0
 42
0.00000001
 43
0.00000001
 40
0.0
 40
0.0
 40
0.0
 40
0.0
 40
1.0
 40
1.0
 40
1.0
 40
1.0
 10
393.273885063029
 20
722.4113818259716
 30
0.0
 10
393.117943413315
 20
722.4259107233905
 30
0.0
 10
392.9620776923026
 20
722.4407253598442
 30
0.0
 10
392.8062857701933
 20
722.4558143266632
 30
0.0
  0
SPLINE
  5
120
330
1F
100
AcDbEntity
  8
0
  6
Continuous
 62
     8
370
     0
100
AcDbSpline
210
0.0
220
0.0
230
1.0
 70
     8
 71
     3
 72
    14
 73
    10
 74
     0
 42
0.00000001
 43
0.00000001
 40
0.0
 40
0.0
 40
0.0
 40
0.0
 40
0.25
 40
0.25
 40
0.5
 40
0.5
 40
0.75
 40
0.75
 40
1.0
 40
1.0
 40
1.0
 40
1.0
 10
365.4540887616929
 20
728.4809228380991
 30
0.0
 10
365.434340094266
 20
728.5517021525776
 30
0.0
 10
365.4142968865115
 20
728.6302103558972
 30
0.0
 10
365.3794119474438
 20
728.7859648415467
 30
0.0
 10
365.3647553428955
 20
728.8626765874453
 30
0.0
 10
365.3460326574927
 20
728.9913611450098
 30
0.0
 10
365.3420449904456
 20
729.0427950037468
 30
0.0
 10
365.3444683640217
 20
729.1101549967773
 30
0.0
 10
365.3507368703998
 20
729.1263229210579
 30
0.0
 10
365.3598330408908
 20
729.1287602325953
 30
0.0
  0
ARC
  5
121
330
1F
100
AcDbEntity
  8
0
  6
Continuous
 62
     8
370
     0
100
AcDbCircle
 10
366.8263482014
 20
728.7849239909
 30
0.0
 40
0.7124436259457196
100
AcDbArc
 50
44.0848335934
 51
102.3528133762
  0
ARC
  5
122
330
1F
100
AcDbEntity
  8
0
  6
Continuous
 62
     8
370
     0
100
AcDbCircle
 10
364.4830966973
 20
730.6885094247
 30
0.0
 40
1.019720159181419
100
AcDbArc
 50
187.8154135989
 51
219.9690242074
  0
LWPOLYLINE
  5
123
330
1F
100
AcDbEntity
  8
0
  6
Continuous
 62
     8
370
     0
100
AcDbPolyline
 90
        9
 70
   128
 43
0.0
 10
365.0076382188
 20
730.3858659112
 10
365.1206365181
 20
730.439785763
 10
365.2133561997
 20
730.5333278024
 10
365.2788272453
 20
730.6594512307
 10
365.312129478
 20
730.8086938107
 10
365.3107595025
 20
730.9698275172
 10
365.274818833
 20
731.1307377064
 10
365.2070101676
 20
731.2793320858
 10
365.1124306349
 20
731.4044347846
  0
SPLINE
  5
124
330
1F
100
AcDbEntity
  8
0
  6
Continuous
 62
     8
370
     0
100
AcDbSpline
210
0.0
220
0.0
230
1.0
 70
     8
 71
     3
 72
    18
 73
    14
 74
     0
 42
0.00000001
 43
0.00000001
 40
0.0
 40
0.0
 40
0.0
 40
0.0
 40
0.1250000000000005
 40
0.1250000000000005
 40
0.2500000000000009
 40
0.2500000000000009
 40
0.5000000000000008
 40
0.5000000000000008
 40
0.7500000000000007
 40
0.7500000000000007
 40
0.8750000000000004
 40
0.8750000000000004
 40
1.0
 40
1.0
 40
1.0
 40
1.0
 10
529.9476468059063
 20
719.6717722079745
 30
0.0
 10
526.6884715630146
 20
719.685994445441
 30
0.0
 10
523.4283120471935
 20
719.6911949569027
 30
0.0
 10
516.9069253177181
 20
719.7033629805159
 30
0.0
 10
513.6457790017596
 20
719.7088730522553
 30
0.0
 10
503.861809718886
 20
719.7287863653164
 30
0.0
 10
497.3383220135432
 20
719.7465600482604
 30
0.0
 10
484.2900936734436
 20
719.7864884567447
 30
0.0
 10
477.7654265351849
 20
719.8085925206765
 30
0.0
 10
467.978202703317
 20
719.8479573788727
 30
0.0
 10
464.7157457723698
 20
719.8621579294385
 30
0.0
 10
458.1907204644399
 20
719.8924874711935
 30
0.0
 10
454.92817335577
 20
719.9078378832137
 30
0.0
 10
451.6655146599969
 20
719.9247576817909
 30
0.0
  0
SPLINE
  5
125
330
1F
100
AcDbEntity
  8
0
  6
Continuous
 62
     8
370
     0
100
AcDbSpline
210
0.0
220
0.0
230
1.0
 70
     8
 71
     3
 72
    50
 73
    46
 74
     0
 42
0.00000001
 43
0.00000001
 40
0.0
 40
0.0
 40
0.0
 40
0.0
 40
0.1249999999999961
 40
0.1249999999999961
 40
0.1874999999999941
 40
0.1874999999999941
 40
0.2187499999999931
 40
0.2187499999999931
 40
0.2499999999999922
 40
0.2499999999999922
 40
0.2812499999999912
 40
0.2812499999999912
 40
0.3124999999999902
 40
0.3124999999999902
 40
0.3749999999999885
 40
0.3749999999999885
 40
0.3906249999999876
 40
0.3906249999999876
 40
0.4062499999999867
 40
0.4062499999999867
 40
0.4374999999999851
 40
0.4374999999999851
 40
0.4687499999999835
 40
0.4687499999999835
 40
0.4999999999999818
 40
0.4999999999999818
 40
0.5624999999999797
 40
0.5624999999999797
 40
0.5937499999999795
 40
0.5937499999999795
 40
0.6093749999999799
 40
0.6093749999999799
 40
0.6249999999999805
 40
0.6249999999999805
 40
0.6562499999999815
 40
0.6562499999999815
 40
0.6874999999999825
 40
0.6874999999999825
 40
0.7499999999999859
 40
0.7499999999999859
 40
0.8124999999999895
 40
0.8124999999999895
 40
0.8749999999999929
 40
0.8749999999999929
 40
1.0
 40
1.0
 40
1.0
 40
1.0
 10
569.0585598993758
 20
719.5102307868017
 30
0.0
 10
569.0536579245295
 20
719.5168607568501
 30
0.0
 10
569.0080619092712
 20
719.5117954226149
 30
0.0
 10
568.7419182448014
 20
719.5030006082218
 30
0.0
 10
568.6213234072518
 20
719.4989857443195
 30
0.0
 10
568.3544956652668
 20
719.4908959964793
 30
0.0
 10
568.250579045015
 20
719.4879927672358
 30
0.0
 10
568.0061096224621
 20
719.4824118783157
 30
0.0
 10
567.8656732012975
 20
719.479738509889
 30
0.0
 10
567.5404527353263
 20
719.475200052674
 30
0.0
 10
567.3557284352279
 20
719.4733099753416
 30
0.0
 10
566.9327287040902
 20
719.4711640316052
 30
0.0
 10
566.6935532973827
 20
719.4707927789647
 30
0.0
 10
565.8825749032376
 20
719.4748748676171
 30
0.0
 10
565.2285862064961
 20
719.4868012999035
 30
0.0
 10
564.2478713654931
 20
719.5097191714966
 30
0.0
 10
564.0436160108367
 20
719.5147773498082
 30
0.0
 10
563.6185802026106
 20
719.5260170969038
 30
0.0
 10
563.3979059985536
 20
719.5322508323561
 30
0.0
 10
562.7209154397316
 20
719.5517639147497
 30
0.0
 10
562.246578711018
 20
719.565654504993
 30
0.0
 10
561.2584595234039
 20
719.5919626542673
 30
0.0
 10
560.744662318139
 20
719.6046476887955
 30
0.0
 10
559.683732891336
 20
719.627664566825
 30
0.0
 10
559.1376810777687
 20
719.6378567352889
 30
0.0
 10
557.4826726922776
 20
719.66439627387
 30
0.0
 10
556.3482763897423
 20
719.6771188961656
 30
0.0
 10
554.6157378674067
 20
719.6916842301737
 30
0.0
 10
554.0330360582145
 20
719.6967960407637
 30
0.0
 10
553.1538439546812
 20
719.7033167909112
 30
0.0
 10
552.859944802151
 20
719.7048545861275
 30
0.0
 10
552.270032908234
 20
719.7055238287426
 30
0.0
 10
551.9738463615712
 20
719.7044391263653
 30
0.0
 10
551.0839458561195
 20
719.7078779854651
 30
0.0
 10
550.487483687981
 20
719.7237060797084
 30
0.0
 10
549.2901325688601
 20
719.7320149023234
 30
0.0
 10
548.6896560991701
 20
719.7285630640512
 30
0.0
 10
546.8857600308695
 20
719.7209362328662
 30
0.0
 10
545.6795593456468
 20
719.7138290858105
 30
0.0
 10
543.2637721214749
 20
719.7014001668045
 30
0.0
 10
542.0541195367522
 20
719.6949524365443
 30
0.0
 10
539.6345252165307
 20
719.6823294526043
 30
0.0
 10
538.4242747204867
 20
719.676445123643
 30
0.0
 10
534.7926214492228
 20
719.6635307138449
 30
0.0
 10
532.3702656130409
 20
719.661029332635
 30
0.0
 10
529.9476442874937
 20
719.671611409966
 30
0.0
  0
SPLINE
  5
126
330
1F
100
AcDbEntity
  8
0
  6
Continuous
 62
     8
370
     0
100
AcDbSpline
210
0.0
220
0.0
230
1.0
 70
     8
 71
     3
 72
    16
 73
    12
 74
     0
 42
0.00000001
 43
0.00000001
 40
0.0
 40
0.0
 40
0.0
 40
0.0
 40
0.2500000000000003
 40
0.2500000000000003
 40
0.5000000000000006
 40
0.5000000000000006
 40
0.7500000000000009
 40
0.7500000000000009
 40
0.8750000000000004
 40
0.8750000000000004
 40
1.0
 40
1.0
 40
1.0
 40
1.0
 10
451.6503002038356
 20
721.7349694274877
 30
0.0
 10
458.1731042663304
 20
721.7117171908561
 30
0.0
 10
464.6955652866881
 20
721.6957730986225
 30
0.0
 10
477.7400941039991
 20
721.6645652501678
 30
0.0
 10
484.2621503022568
 20
721.6500450148654
 30
0.0
 10
497.3049621153215
 20
721.6230309819872
 30
0.0
 10
503.8256563403662
 20
721.6103325860034
 30
0.0
 10
513.605387842762
 20
721.5923035997414
 30
0.0
 10
516.8651169739302
 20
721.5865937201252
 30
0.0
 10
523.3835884999379
 20
721.5734238431361
 30
0.0
 10
526.6422305073344
 20
721.5671607471428
 30
0.0
 10
529.8995108957574
 20
721.5545656307403
 30
0.0
  0
LINE
  5
127
330
1F
100
AcDbEntity
  8
0
  6
Continuous
 62
     8
370
    15
100
AcDbLine
 10
388.1329486472
 20
581.7173140937
 30
0.0
 11
338.9859481109
 21
581.7173140937
 31
0.0
  0
LINE
  5
128
330
1F
100
AcDbEntity
  8
0
  6
Continuous
 62
     8
370
     0
100
AcDbLine
 10
451.6654296173
 20
697.1895879948
 30
0.0
 11
451.6654147161
 21
697.1380821311
 31
0.0
  0
LWPOLYLINE
  5
129
330
1F
100
AcDbEntity
  8
0
  6
Continuous
 62
     8
370
     0
100
AcDbPolyline
 90
       14
 70
   128
 43
0.0
 10
359.2303024931
 20
729.1359192574
 10
356.9850141508
 20
728.5342997753
 10
354.6925375564
 20
727.9200292074
 10
352.4034379376
 20
727.3066676104
 10
350.1682116045
 20
726.7077377879
 10
348.0361609114
 20
726.1364570701
 10
346.0543157859
 20
725.6054243886
 10
344.2663925094
 20
725.1263520562
 10
342.7118288679
 20
724.7098124468
 10
341.4249142958
 20
724.3649846756
 10
340.4340392305
 20
724.0994757854
 10
339.7610543622
 20
723.9191493833
 10
339.4208124233
 20
723.8279840791
 10
339.3781019701
 20
723.8165399873
  0
LWPOLYLINE
  5
12A
330
1F
100
AcDbEntity
  8
0
  6
Continuous
 62
     8
370
     0
100
AcDbPolyline
 90
       14
 70
   128
 43
0.0
 10
360.8692085696
 20
729.3851188266
 10
358.6455362244
 20
728.7892884457
 10
356.3361598505
 20
728.1704953753
 10
353.9938239707
 20
727.5428659164
 10
351.6720312042
 20
726.9207424366
 10
349.4238091959
 20
726.318333193
 10
347.3005110724
 20
725.7493994081
 10
345.3506326629
 20
725.2269274437
 10
343.6187079502
 20
724.7628605806
 10
342.1442976547
 20
724.3677935445
 10
340.9610746754
 20
724.0507489883
 10
340.0960697187
 20
723.8189763271
 10
339.5690342737
 20
723.6777505719
 10
339.3920084787
 20
723.6303201758
  0
LINE
  5
12B
330
1F
100
AcDbEntity
  8
0
  6
Continuous
 62
     8
370
     0
100
AcDbLine
 10
375.2687722305
 20
734.2474124276
 30
0.0
 11
375.2653733687
 21
734.2464587533
 31
0.0
  0
LINE
  5
12C
330
1F
100
AcDbEntity
  8
0
  6
Continuous
 62
     8
370
     0
100
AcDbLine
 10
339.6559341205
 20
767.65935485
 30
0.0
 11
339.6577297104
 21
767.6573729956
 31
0.0
  0
LWPOLYLINE
  5
12D
330
1F
100
AcDbEntity
  8
0
  6
Continuous
 62
     8
370
     0
100
AcDbPolyline
 90
        9
 70
   128
 43
0.0
 10
335.2417072607
 20
735.0418305838
 10
335.2263739658
 20
735.2171129429
 10
335.1827023877
 20
735.7162869417
 10
335.1173421694
 20
736.463341757
 10
335.0402472867
 20
737.3445517265
 10
334.9631486786
 20
738.2257765972
 10
334.8977884604
 20
738.9728314125
 10
334.8541168822
 20
739.4720054113
 10
334.8387835873
 20
739.6472877705
  0
SPLINE
  5
12E
330
1F
100
AcDbEntity
  8
0
  6
Continuous
 62
     8
370
     0
100
AcDbSpline
210
0.0
220
0.0
230
1.0
 70
     8
 71
     3
 72
    12
 73
     8
 74
     0
 42
0.00000001
 43
0.00000001
 40
0.0
 40
0.0
 40
0.0
 40
0.0
 40
0.2499999999999998
 40
0.2499999999999998
 40
0.4999999999999996
 40
0.4999999999999996
 40
1.0
 40
1.0
 40
1.0
 40
1.0
 10
410.9706304862339
 20
721.9832041022888
 30
0.0
 10
414.3605358410496
 20
721.942036334549
 30
0.0
 10
417.7505429954475
 20
721.9105149049743
 30
0.0
 10
424.5305352894603
 20
721.8594446409328
 30
0.0
 10
427.9205461847866
 20
721.8394208903687
 30
0.0
 10
438.0905356653462
 20
721.7861202763321
 30
0.0
 10
444.8704852805906
 20
721.7583023496788
 30
0.0
 10
451.6502981930623
 20
721.7350037880242
 30
0.0
  0
SPLINE
  5
12F
330
1F
100
AcDbEntity
  8
0
  6
Continuous
 62
     7
370
    15
100
AcDbSpline
210
0.0
220
0.0
230
1.0
 70
     8
 71
     3
 72
     9
 73
     5
 74
     0
 42
0.00000001
 43
0.00000001
 40
0.0
 40
0.0
 40
0.0
 40
0.0
 40
0.0422350241524061
 40
1.0
 40
1.0
 40
1.0
 40
1.0
 10
190.3679060167881
 20
346.6259349147612
 30
0.0
 10
190.3607384920429
 20
346.6584068478526
 30
0.0
 10
190.1910327824094
 20
347.4272458326321
 30
0.0
 10
189.9483442679454
 20
348.0888358470613
 30
0.0
 10
189.7159057087513
 20
348.722483591252
 30
0.0
  0
SPLINE
  5
130
330
1F
100
AcDbEntity
  8
0
  6
Continuous
 62
     7
370
    15
100
AcDbSpline
210
0.0
220
0.0
230
1.0
 70
     8
 71
     3
 72
     9
 73
     5
 74
     0
 42
0.00000001
 43
0.00000001
 40
0.0
 40
0.0
 40
0.0
 40
0.0
 40
0.5463524637107773
 40
1.0
 40
1.0
 40
1.0
 40
1.0
 10
128.3920767135234
 20
349.0051493058735
 30
0.0
 10
128.2255483526988
 20
348.5985887721708
 30
0.0
 10
127.9207481149665
 20
347.8544527780883
 30
0.0
 10
127.7164848142616
 20
346.9906684387943
 30
0.0
 10
127.6238212711425
 20
346.5988148013884
 30
0.0
  0
SPLINE
  5
131
330
1F
100
AcDbEntity
  8
0
  6
Continuous
 62
     7
370
    15
100
AcDbSpline
210
0.0
220
0.0
230
1.0
 70
     8
 71
     3
 72
    21
 73
    17
 74
     0
 42
0.00000001
 43
0.00000001
 40
0.0
 40
0.0
 40
0.0
 40
0.0
 40
0.1243047937701099
 40
0.2676776543328594
 40
0.3863467930133295
 40
0.4818004895416493
 40
0.5562703463938992
 40
0.6121045596753002
 40
0.6572342242396653
 40
0.6970239457120299
 40
0.7321058935675935
 40
0.7722441891408036
 40
0.8308030061343171
 40
0.9099890701695995
 40
0.9761419771226627
 40
1.0
 40
1.0
 40
1.0
 40
1.0
 10
158.9872861414908
 20
362.6184199015433
 30
0.0
 10
157.516368378543
 20
362.6167041383761
 30
0.0
 10
154.3488974825247
 20
362.6130094179549
 30
0.0
 10
149.7835311666315
 20
362.3367979668979
 30
0.0
 10
145.5806019933081
 20
361.8413288872704
 30
0.0
 10
142.2326847574874
 20
361.1595819691984
 30
0.0
 10
139.6756097204094
 20
360.3807188526005
 30
0.0
 10
137.7656494632172
 20
359.5938273232814
 30
0.0
 10
136.293396019493
 20
358.8316556047654
 30
0.0
 10
135.0880041928229
 20
358.0749921726919
 30
0.0
 10
133.9933443430903
 20
357.2602359607335
 30
0.0
 10
132.8203857453867
 20
356.2261065506593
 30
0.0
 10
131.4356197930472
 20
354.717535699072
 30
0.0
 10
130.1345091216305
 20
352.7977285442619
 30
0.0
 10
129.2202746792694
 20
351.1151731313606
 30
0.0
 10
128.854474418723
 20
350.171939089185
 30
0.0
 10
128.7575165159317
 20
349.9219283471638
 30
0.0
  0
SPLINE
  5
132
330
1F
100
AcDbEntity
  8
0
  6
Continuous
 62
     7
370
    15
100
AcDbSpline
210
0.0
220
0.0
230
1.0
 70
     8
 71
     3
 72
    20
 73
    16
 74
     0
 42
0.00000001
 43
0.00000001
 40
0.0
 40
0.0
 40
0.0
 40
0.0
 40
0.0586829526507883
 40
0.1311546832015044
 40
0.1862363752998844
 40
0.2288053163179485
 40
0.267244294649584
 40
0.3024990787325634
 40
0.3386588204197811
 40
0.3924491012732275
 40
0.4675162225811128
 40
0.5670045765539441
 40
0.6946249453450939
 40
0.8529306056814296
 40
1.0
 40
1.0
 40
1.0
 40
1.0
 10
189.7216556943269
 20
348.5954847196871
 30
0.0
 10
189.4914702716673
 20
349.2401265586769
 30
0.0
 10
188.9770125829723
 20
350.6808822185745
 30
0.0
 10
187.9486745989392
 20
352.614693650846
 30
0.0
 10
186.8340944796405
 20
354.2879717983523
 30
0.0
 10
185.7941186246445
 20
355.5450855817893
 30
0.0
 10
184.7989001482197
 20
356.5509434725831
 30
0.0
 10
183.7699183248274
 20
357.4283183806832
 30
0.0
 10
182.5158703541241
 20
358.3327978601997
 30
0.0
 10
180.7544432366771
 20
359.3587933801553
 30
0.0
 10
178.1575223504263
 20
360.4657417871757
 30
0.0
 10
174.5603558362473
 20
361.4622630853198
 30
0.0
 10
169.8650076217721
 20
362.1851135259675
 30
0.0
 10
164.5490536993267
 20
362.5832683072063
 30
0.0
 10
160.7952045113847
 20
362.6010824217068
 30
0.0
 10
158.9873413018053
 20
362.6096617440516
 30
0.0
  0
LINE
  5
133
330
1F
100
AcDbEntity
  8
0
  6
Continuous
 62
     7
370
    15
100
AcDbLine
 10
156.4797960571
 20
362.7751018862
 30
0.0
 11
156.4797960571
 21
362.7141263346
 31
0.0
  0
LINE
  5
134
330
1F
100
AcDbEntity
  8
0
  6
Continuous
 62
     7
370
    15
100
AcDbLine
 10
161.4947960596
 20
362.7140704552
 30
0.0
 11
161.4947960596
 21
362.7751018862
 31
0.0
  0
SPLINE
  5
135
330
1F
100
AcDbEntity
  8
0
  6
Continuous
 62
     7
370
    15
100
AcDbSpline
210
0.0
220
0.0
230
1.0
 70
     8
 71
     3
 72
    15
 73
    11
 74
     0
 42
0.00000001
 43
0.00000001
 40
0.0
 40
0.0
 40
0.0
 40
0.0
 40
0.0251884002051855
 40
0.0627710877240005
 40
0.1041126900509728
 40
0.1741761152104151
 40
0.3795147508677847
 40
0.603121660539423
 40
0.8382548556223396
 40
1.0
 40
1.0
 40
1.0
 40
1.0
 10
161.4877904183479
 20
362.7869110564524
 30
0.0
 10
161.4868790356685
 20
362.8100736193192
 30
0.0
 10
161.4846078123413
 20
362.8677961921612
 30
0.0
 10
161.4307309843222
 20
362.9356399814685
 30
0.0
 10
161.3640134214095
 20
362.9858156745793
 30
0.0
 10
161.2396000261233
 20
363.0360712751803
 30
0.0
 10
160.9834196741425
 20
363.0857362083591
 30
0.0
 10
160.4086714596808
 20
363.1398452990309
 30
0.0
 10
159.7083938366411
 20
363.1725253823645
 30
0.0
 10
159.2154244725017
 20
363.1734105385309
 30
0.0
 10
159.0145180660577
 20
363.1737712780768
 30
0.0
  0
SPLINE
  5
136
330
1F
100
AcDbEntity
  8
0
  6
Continuous
 62
     7
370
    15
100
AcDbSpline
210
0.0
220
0.0
230
1.0
 70
     8
 71
     3
 72
    17
 73
    13
 74
     0
 42
0.00000001
 43
0.00000001
 40
0.0
 40
0.0
 40
0.0
 40
0.0
 40
0.0280743573291605
 40
0.1536058334897518
 40
0.2709567094295462
 40
0.3821275043101768
 40
0.4863924528467123
 40
0.5980094684354058
 40
0.7044499942991995
 40
0.8056515568061673
 40
0.9073745924945736
 40
1.0
 40
1.0
 40
1.0
 40
1.0
 10
158.9880642603837
 20
322.431817395688
 30
0.0
 10
159.312890373464
 20
322.4229806718912
 30
0.0
 10
161.0901415943539
 20
322.3746314858984
 30
0.0
 10
164.2265744613665
 20
322.5406152217947
 30
0.0
 10
168.3052613265822
 20
322.932325596556
 30
0.0
 10
172.1023391126154
 20
323.5788760470555
 30
0.0
 10
175.7772154032093
 20
324.4686312700692
 30
0.0
 10
179.3117107230161
 20
325.6362912595425
 30
0.0
 10
182.6939036974237
 20
327.0877063290363
 30
0.0
 10
185.8164974249235
 20
328.7881977584946
 30
0.0
 10
188.6576954120133
 20
330.6406381288005
 30
0.0
 10
190.3746936655264
 20
332.0468204045892
 30
0.0
 10
191.1930056638332
 20
332.7169992039734
 30
0.0
  0
SPLINE
  5
137
330
1F
100
AcDbEntity
  8
0
  6
Continuous
 62
     7
370
    15
100
AcDbSpline
210
0.0
220
0.0
230
1.0
 70
     8
 71
     3
 72
    17
 73
    13
 74
     0
 42
0.00000001
 43
0.00000001
 40
0.0
 40
0.0
 40
0.0
 40
0.0
 40
0.0491784232322943
 40
0.1547604505054359
 40
0.2581421104292089
 40
0.360498989409657
 40
0.4624084221126069
 40
0.5669331788283246
 40
0.6747450095680738
 40
0.7896706848733858
 40
0.9112427941856382
 40
1.0
 40
1.0
 40
1.0
 40
1.0
 10
126.7939159996124
 20
332.7299566949541
 30
0.0
 10
127.2181572847646
 20
332.3630150411461
 30
0.0
 10
128.5532096938879
 20
331.2082798560774
 30
0.0
 10
130.987086108172
 20
329.5213259328091
 30
0.0
 10
134.0637489415048
 20
327.7035598860736
 30
0.0
 10
137.2709708942188
 20
326.1961522948803
 30
0.0
 10
140.6112052375629
 20
324.9572820578287
 30
0.0
 10
144.1059967811157
 20
323.9706892847032
 30
0.0
 10
147.8159917051025
 20
323.2157444754711
 30
0.0
 10
151.7673625027093
 20
322.6998039681798
 30
0.0
 10
155.5254567389998
 20
322.4265946913555
 30
0.0
 10
157.960337923219
 20
322.4325374493266
 30
0.0
 10
158.9878373484473
 20
322.4350452433163
 30
0.0
  0
SPLINE
  5
138
330
1F
100
AcDbEntity
  8
0
  6
Continuous
 62
     7
370
    15
100
AcDbSpline
210
0.0
220
0.0
230
1.0
 70
     8
 71
     3
 72
    12
 73
     8
 74
     0
 42
0.00000001
 43
0.00000001
 40
0.0
 40
0.0
 40
0.0
 40
0.0
 40
0.0422487102324052
 40
0.2845314555258506
 40
0.5706441974805124
 40
0.9188947177550757
 40
1.0
 40
1.0
 40
1.0
 40
1.0
 10
191.1981242127033
 20
332.7114168564612
 30
0.0
 10
191.2229824128005
 20
332.7285744444538
 30
0.0
 10
191.3903943838761
 20
332.8441252732958
 30
0.0
 10
191.6256859796638
 20
333.1929933440513
 30
0.0
 10
191.8395933698972
 20
333.7678519649363
 30
0.0
 10
191.9079455716128
 20
334.292114054409
 30
0.0
 10
191.8142627086396
 20
334.580802375976
 30
0.0
 10
191.7965660221191
 20
334.6353355805213
 30
0.0
  0
SPLINE
  5
139
330
1F
100
AcDbEntity
  8
0
  6
Continuous
 62
     7
370
    15
100
AcDbSpline
210
0.0
220
0.0
230
1.0
 70
     8
 71
     3
 72
    11
 73
     7
 74
     0
 42
0.00000001
 43
0.00000001
 40
0.0
 40
0.0
 40
0.0
 40
0.0
 40
0.0175522816585356
 40
0.4854172268139509
 40
0.8420118818869443
 40
1.0
 40
1.0
 40
1.0
 40
1.0
 10
126.1218997068019
 20
334.3306412930423
 30
0.0
 10
126.1203553798927
 20
334.3202364393553
 30
0.0
 10
126.0776462381327
 20
334.0324849481019
 30
0.0
 10
126.1995543991785
 20
333.52393160978
 30
0.0
 10
126.460843419452
 20
332.9739980033326
 30
0.0
 10
126.7097767078188
 20
332.7809663676965
 30
0.0
 10
126.7862046486946
 20
332.7217014516527
 30
0.0
  0
LINE
  5
13A
330
1F
100
AcDbEntity
  8
0
  6
Continuous
 62
     7
370
    15
100
AcDbLine
 10
126.097186131
 20
332.6243754486
 30
0.0
 11
126.0361435241
 21
332.2035014639
 31
0.0
  0
LINE
  5
13B
330
1F
100
AcDbEntity
  8
0
  6
Continuous
 62
     7
370
    15
100
AcDbLine
 10
191.9384474284
 20
332.2035014639
 30
0.0
 11
191.8774048216
 21
332.6243754486
 31
0.0
  0
SPLINE
  5
13C
330
1F
100
AcDbEntity
  8
0
  6
Continuous
 62
     7
370
    15
100
AcDbSpline
210
0.0
220
0.0
230
1.0
 70
     8
 71
     3
 72
    24
 73
    20
 74
     0
 42
0.00000001
 43
0.00000001
 40
0.0
 40
0.0
 40
0.0
 40
0.0
 40
0.0155463118748863
 40
0.1186626369969837
 40
0.1925278338795436
 40
0.2563360539420657
 40
0.3217366076366945
 40
0.3774859205315874
 40
0.4271888739726838
 40
0.4725150573296744
 40
0.5210834059186882
 40
0.5677004905068921
 40
0.611610172863068
 40
0.6575446452162514
 40
0.707570467561571
 40
0.7631250812615398
 40
0.826981658130048
 40
0.9056081192477593
 40
1.0
 40
1.0
 40
1.0
 40
1.0
 10
130.2809497691007
 20
156.2147844592863
 30
0.0
 10
130.2973521132551
 20
155.9736221211806
 30
0.0
 10
130.4225487146071
 20
154.1328666278982
 30
0.0
 10
130.6982491252249
 20
151.1524623025358
 30
0.0
 10
131.1572545262989
 20
147.4331768091131
 30
0.0
 10
131.8769536181327
 20
144.3538413654657
 30
0.0
 10
132.7471386425951
 20
141.6106116307414
 30
0.0
 10
133.7436273800276
 20
139.1444176206294
 30
0.0
 10
134.8472918136743
 20
137.0703668899641
 30
0.0
 10
136.1301926806753
 20
135.2358812874048
 30
0.0
 10
137.6296981933498
 20
133.635049332833
 30
0.0
 10
139.342866915068
 20
132.3000302753123
 30
0.0
 10
141.2028330191031
 20
131.2654877720374
 30
0.0
 10
143.2228564764948
 20
130.447499033669
 30
0.0
 10
145.4941307001763
 20
129.8068705584037
 30
0.0
 10
148.0882493827521
 20
129.3303781641904
 30
0.0
 10
151.1514379904838
 20
129.0004565925104
 30
0.0
 10
154.8301269654361
 20
128.7907583706586
 30
0.0
 10
157.5205761121131
 20
128.7760287959253
 30
0.0
 10
158.9883774577877
 20
128.7679929296309
 30
0.0
  0
SPLINE
  5
13D
330
1F
100
AcDbEntity
  8
0
  6
Continuous
 62
     7
370
    15
100
AcDbSpline
210
0.0
220
0.0
230
1.0
 70
     8
 71
     3
 72
     9
 73
     5
 74
     0
 42
0.00000001
 43
0.00000001
 40
0.0
 40
0.0
 40
0.0
 40
0.0
 40
0.4843217378386724
 40
1.0
 40
1.0
 40
1.0
 40
1.0
 10
129.5729918754907
 20
168.0642325441176
 30
0.0
 10
129.6594517845226
 20
166.1495945014878
 30
0.0
 10
129.8379692911242
 20
162.1963586810722
 30
0.0
 10
130.1302347996001
 20
158.2498916958848
 30
0.0
 10
130.2809497691007
 20
156.2147844592864
 30
0.0
  0
SPLINE
  5
13E
330
1F
100
AcDbEntity
  8
0
  6
Continuous
 62
     7
370
    15
100
AcDbSpline
210
0.0
220
0.0
230
1.0
 70
     8
 71
     3
 72
     9
 73
     5
 74
     0
 42
0.00000001
 43
0.00000001
 40
0.0
 40
0.0
 40
0.0
 40
0.0
 40
0.1208525227522061
 40
1.0
 40
1.0
 40
1.0
 40
1.0
 10
187.8243094659658
 20
158.1129837791258
 30
0.0
 10
187.8540908428778
 20
158.5134304577873
 30
0.0
 10
188.100518275535
 20
161.8269457203738
 30
0.0
 10
188.2624858290798
 20
165.1460059735988
 30
0.0
 10
188.4048791951747
 20
168.0639494220549
 30
0.0
  0
SPLINE
  5
13F
330
1F
100
AcDbEntity
  8
0
  6
Continuous
 62
     7
370
    15
100
AcDbSpline
210
0.0
220
0.0
230
1.0
 70
     8
 71
     3
 72
    24
 73
    20
 74
     0
 42
0.00000001
 43
0.00000001
 40
0.0
 40
0.0
 40
0.0
 40
0.0
 40
0.0890087779972366
 40
0.1695333793927933
 40
0.2355601954406579
 40
0.2903443308845311
 40
0.3391758552997551
 40
0.3837636590228768
 40
0.4259751966919512
 40
0.4665028523327451
 40
0.509269102051288
 40
0.5518020857630223
 40
0.5979051701690399
 40
0.6486209402928449
 40
0.7061693359430716
 40
0.773793448061712
 40
0.8424272195128967
 40
0.9194567042278573
 40
1.0
 40
1.0
 40
1.0
 40
1.0
 10
158.988432440153
 20
128.7779022018248
 30
0.0
 10
160.4288902433027
 20
128.7811622362283
 30
0.0
 10
163.1725036793649
 20
128.7873715636879
 30
0.0
 10
166.9803001189521
 20
129.0029089047032
 30
0.0
 10
170.2191047427872
 20
129.3756897206725
 30
0.0
 10
172.9161993562083
 20
129.906054121959
 30
0.0
 10
175.2146012364533
 20
130.6070468339562
 30
0.0
 10
177.2294518539599
 20
131.4912691886339
 30
0.0
 10
178.9964526408207
 20
132.5629416694637
 30
0.0
 10
180.5756464560381
 20
133.8509074016678
 30
0.0
 10
181.9470707843042
 20
135.3659096887032
 30
0.0
 10
183.154062872448
 20
137.1225382005978
 30
0.0
 10
184.2117119747834
 20
139.1186987397508
 30
0.0
 10
185.1635758326532
 20
141.4315959547768
 30
0.0
 10
186.023388816854
 20
144.1472771012209
 30
0.0
 10
186.7453809560307
 20
147.2030960520222
 30
0.0
 10
187.2313079854837
 20
150.6231391222744
 30
0.0
 10
187.5544831493474
 20
154.2694626804269
 30
0.0
 10
187.7330401104148
 20
156.8129041645015
 30
0.0
 10
187.8243094659658
 20
158.1129837791258
 30
0.0
  0
SPLINE
  5
140
330
1F
100
AcDbEntity
  8
0
  6
Continuous
 62
     7
370
    15
100
AcDbSpline
210
0.0
220
0.0
230
1.0
 70
     8
 71
     3
 72
     9
 73
     5
 74
     0
 42
0.00000001
 43
0.00000001
 40
0.0
 40
0.0
 40
0.0
 40
0.0
 40
0.8420702988875972
 40
1.0
 40
1.0
 40
1.0
 40
1.0
 10
125.980696303329
 20
305.3341466943556
 30
0.0
 10
125.9826710115611
 20
305.2000369792462
 30
0.0
 10
125.985016074954
 20
305.0407750799884
 30
0.0
 10
125.9877906521631
 20
304.8803779008559
 30
0.0
 10
125.9882288403125
 20
304.8550464222962
 30
0.0
  0
LINE
  5
141
330
1F
100
AcDbEntity
  8
0
  6
Continuous
 62
     7
370
    15
100
AcDbLine
 10
191.9867458171
 20
304.8525225381
 30
0.0
 11
191.9945763774
 21
305.3323734562
 31
0.0
  0
SPLINE
  5
142
330
1F
100
AcDbEntity
  8
0
  6
Continuous
 62
     7
370
    15
100
AcDbSpline
210
0.0
220
0.0
230
1.0
 70
     8
 71
     3
 72
    27
 73
    23
 74
     0
 42
0.00000001
 43
0.00000001
 40
0.0
 40
0.0
 40
0.0
 40
0.0
 40
0.05097108252786
 40
0.1019706614485254
 40
0.1530847594272956
 40
0.2042600966894396
 40
0.2823257067209531
 40
0.3597606136180589
 40
0.3903306623126394
 40
0.4500622864865633
 40
0.4793158541039409
 40
0.5029817533360635
 40
0.5267702751429221
 40
0.5875026514532361
 40
0.6482532953711119
 40
0.678596381378374
 40
0.758877312011384
 40
0.7992435795492113
 40
0.8606260119737311
 40
0.9221740005969757
 40
0.9635555159302458
 40
0.9999999999999999
 40
0.9999999999999999
 40
0.9999999999999999
 40
0.9999999999999999
 10
158.987524531141
 20
358.359198645764
 30
0.0
 10
159.7983458100564
 20
358.3551029630549
 30
0.0
 10
161.4204416735758
 20
358.3469093078642
 30
0.0
 10
163.8545085072507
 20
358.3159024871117
 30
0.0
 10
166.2889754515325
 20
358.2696315425379
 30
0.0
 10
169.1455534338602
 20
358.1822048028
 30
0.0
 10
172.3974819878783
 20
358.0173271908237
 30
0.0
 10
175.2672218579793
 20
357.7570623286672
 30
0.0
 10
177.7551925214685
 20
357.409339336881
 30
0.0
 10
179.4521259762529
 20
357.0809013227917
 30
0.0
 10
180.9259572114684
 20
356.683458148225
 30
0.0
 10
181.8709611860434
 20
356.3771310869143
 30
0.0
 10
183.1217541392311
 20
355.9023003902209
 30
0.0
 10
184.5916800984711
 20
355.1674526483733
 30
0.0
 10
185.8110166521665
 20
354.306119199054
 30
0.0
 10
186.9679283424237
 20
353.2940748331057
 30
0.0
 10
187.7805455666903
 20
352.3667086872206
 30
0.0
 10
188.5724418250875
 20
351.1890809371304
 30
0.0
 10
189.1744214822491
 20
350.0795637594484
 30
0.0
 10
189.6774206651754
 20
348.8756776171658
 30
0.0
 10
190.0499126311623
 20
347.7871627040288
 30
0.0
 10
190.2296378746483
 20
347.1326516963072
 30
0.0
 10
190.3137999004932
 20
346.8261562297875
 30
0.0
  0
SPLINE
  5
143
330
1F
100
AcDbEntity
  8
0
  6
Continuous
 62
     7
370
    15
100
AcDbSpline
210
0.0
220
0.0
230
1.0
 70
     8
 71
     3
 72
    10
 73
     6
 74
     0
 42
0.00000001
 43
0.00000001
 40
0.0
 40
0.0
 40
0.0
 40
0.0
 40
0.4567291425825171
 40
0.9141843556446
 40
1.0
 40
1.0
 40
1.0
 40
1.0
 10
127.6253486401649
 20
346.7015750716263
 30
0.0
 10
127.7274913382516
 20
347.0693651384406
 30
0.0
 10
127.9319391124974
 20
347.8055299545105
 30
0.0
 10
128.1815585908221
 20
348.562071936135
 30
0.0
 10
128.3420459161355
 20
348.9448653836538
 30
0.0
 10
128.3673966652961
 20
349.0053318450982
 30
0.0
  0
SPLINE
  5
144
330
1F
100
AcDbEntity
  8
0
  6
Continuous
 62
     7
370
    15
100
AcDbSpline
210
0.0
220
0.0
230
1.0
 70
     8
 71
     3
 72
    14
 73
    10
 74
     0
 42
0.00000001
 43
0.00000001
 40
0.0
 40
0.0
 40
0.0
 40
0.0
 40
0.5000000000000017
 40
0.5000000000000017
 40
0.6250000000000004
 40
0.6250000000000004
 40
0.7499999999999991
 40
0.7499999999999991
 40
1.0
 40
1.0
 40
1.0
 40
1.0
 10
126.1424646222889
 20
334.542284671773
 30
0.0
 10
126.2644089445333
 20
336.9831923459603
 30
0.0
 10
126.4293139342857
 20
339.2279863839445
 30
0.0
 10
126.726750864666
 20
341.7809510708367
 30
0.0
 10
126.7910812863726
 20
342.2799568020814
 30
0.0
 10
126.929060660012
 20
343.2444588680439
 30
0.0
 10
127.0027605264978
 20
343.7107550386129
 30
0.0
 10
127.2396497242503
 20
345.0646827736491
 30
0.0
 10
127.4184848340594
 20
345.9074014593748
 30
0.0
 10
127.6253473291003
 20
346.7015756495315
 30
0.0
  0
SPLINE
  5
145
330
1F
100
AcDbEntity
  8
0
  6
Continuous
 62
     7
370
    15
100
AcDbSpline
210
0.0
220
0.0
230
1.0
 70
     8
 71
     3
 72
     9
 73
     5
 74
     0
 42
0.00000001
 43
0.00000001
 40
0.0
 40
0.0
 40
0.0
 40
0.0
 40
0.6644105001633631
 40
1.0
 40
1.0
 40
1.0
 40
1.0
 10
158.9872646211204
 20
362.6394715170199
 30
0.0
 10
158.3909583823144
 20
362.6381522620376
 30
0.0
 10
157.4934616710802
 20
362.6361666597903
 30
0.0
 10
156.5967064798408
 20
362.6020406037885
 30
0.0
 10
156.2957648537369
 20
362.5905882577235
 30
0.0
  0
SPLINE
  5
146
330
1F
100
AcDbEntity
  8
0
  6
Continuous
 62
     7
370
    15
100
AcDbSpline
210
0.0
220
0.0
230
1.0
 70
     8
 71
     3
 72
    18
 73
    14
 74
     0
 42
0.00000001
 43
0.00000001
 40
0.0
 40
0.0
 40
0.0
 40
0.0
 40
0.2500000000000054
 40
0.2500000000000054
 40
0.5000000000000108
 40
0.5000000000000108
 40
0.6250000000000134
 40
0.6250000000000134
 40
0.7500000000000162
 40
0.7500000000000162
 40
0.8750000000000081
 40
0.8750000000000081
 40
1.0
 40
1.0
 40
1.0
 40
1.0
 10
158.9872960426175
 20
362.6957696211833
 30
0.0
 10
158.731598762561
 20
362.6962105052067
 30
0.0
 10
158.4805908838571
 20
362.6963225638411
 30
0.0
 10
157.9883574775022
 20
362.696175614893
 30
0.0
 10
157.7586351743784
 20
362.6959277185404
 30
0.0
 10
157.4414453667072
 20
362.6958965220044
 30
0.0
 10
157.3401463839549
 20
362.6959480844094
 30
0.0
 10
157.1542928933135
 20
362.6962887733341
 30
0.0
 10
157.0687037575907
 20
362.6965769641498
 30
0.0
 10
156.9123951716456
 20
362.697502825342
 30
0.0
 10
156.8412599649834
 20
362.6981483511544
 30
0.0
 10
156.7182683264631
 20
362.6998643986972
 30
0.0
 10
156.6660290580639
 20
362.7009330914496
 30
0.0
 10
156.6232319204898
 20
362.7022484261706
 30
0.0
  0
SPLINE
  5
147
330
1F
100
AcDbEntity
  8
0
  6
Continuous
 62
     7
370
    15
100
AcDbSpline
210
0.0
220
0.0
230
1.0
 70
     8
 71
     3
 72
    17
 73
    13
 74
     0
 42
0.00000001
 43
0.00000001
 40
0.0
 40
0.0
 40
0.0
 40
0.0
 40
0.0460617974295703
 40
0.1516313782059307
 40
0.2602613724706248
 40
0.3658671087061132
 40
0.474531008941889
 40
0.5802557896982593
 40
0.6890370277898226
 40
0.794929810136637
 40
0.9038849783430506
 40
1.0
 40
1.0
 40
1.0
 40
1.0
 10
158.9872870297012
 20
362.7711605290705
 30
0.0
 10
158.926812049687
 20
362.7712703673238
 30
0.0
 10
158.7277337444917
 20
362.7716319451749
 30
0.0
 10
158.388488051088
 20
362.7707660286677
 30
0.0
 10
157.9886259122312
 20
362.7676450032715
 30
0.0
 10
157.6134713923516
 20
362.7624762302037
 30
0.0
 10
157.2803202091199
 20
362.7556828142215
 30
0.0
 10
156.9927618624687
 20
362.7475436262039
 30
0.0
 10
156.7634206378401
 20
362.7387172169812
 30
0.0
 10
156.596945350858
 20
362.7296332995662
 30
0.0
 10
156.4962434128063
 20
362.7211558673599
 30
0.0
 10
156.487053661706
 20
362.7163569353667
 30
0.0
 10
156.4827464870425
 20
362.7141077081496
 30
0.0
  0
SPLINE
  5
148
330
1F
100
AcDbEntity
  8
0
  6
Continuous
 62
     7
370
    15
100
AcDbSpline
210
0.0
220
0.0
230
1.0
 70
     8
 71
     3
 72
    10
 73
     6
 74
     0
 42
0.00000001
 43
0.00000001
 40
0.0
 40
0.0
 40
0.0
 40
0.0
 40
0.0592364152842383
 40
0.5294819926107146
 40
0.9999999999999999
 40
0.9999999999999999
 40
0.9999999999999999
 40
0.9999999999999999
 10
162.6980566769155
 20
362.5503066937262
 30
0.0
 10
162.6249198225108
 20
362.5551215927511
 30
0.0
 10
161.9711893896747
 20
362.5981593477822
 30
0.0
 10
160.733514386535
 20
362.6269008214941
 30
0.0
 10
159.5695021303171
 20
362.6352804763067
 30
0.0
 10
158.9873274625573
 20
362.6394715170199
 30
0.0
  0
SPLINE
  5
149
330
1F
100
AcDbEntity
  8
0
  6
Continuous
 62
     7
370
    15
100
AcDbSpline
210
0.0
220
0.0
230
1.0
 70
     8
 71
     3
 72
    16
 73
    12
 74
     0
 42
0.00000001
 43
0.00000001
 40
0.0
 40
0.0
 40
0.0
 40
0.0
 40
0.2500000000000014
 40
0.2500000000000014
 40
0.5000000000000028
 40
0.5000000000000028
 40
0.7500000000000008
 40
0.7500000000000008
 40
0.8750000000000004
 40
0.8750000000000004
 40
1.0
 40
1.0
 40
1.0
 40
1.0
 10
190.3492452937441
 20
346.7015735795977
 30
0.0
 10
190.5559509913587
 20
345.9080010846489
 30
0.0
 10
190.7340264555183
 20
345.0684291908472
 30
0.0
 10
191.0477987632024
 20
343.278038407261
 30
0.0
 10
191.1835050269192
 20
342.3268535014142
 30
0.0
 10
191.4206220032569
 20
340.3039709723912
 30
0.0
 10
191.5219338660316
 20
339.2325008376071
 30
0.0
 10
191.653536345598
 20
337.5290560535238
 30
0.0
 10
191.6938707361369
 20
336.9465716418048
 30
0.0
 10
191.7677407969699
 20
335.7613879679855
 30
0.0
 10
191.8013965050635
 20
335.1574131644429
 30
0.0
 10
191.8321274613897
 20
334.5422846717731
 30
0.0
  0
LINE
  5
14A
330
1F
100
AcDbEntity
  8
0
  6
Continuous
 62
     7
370
    15
100
AcDbLine
 10
161.4572674851
 20
362.7072867016
 30
0.0
 11
161.4785966347
 21
362.7110976736
 31
0.0
  0
SPLINE
  5
14B
330
1F
100
AcDbEntity
  8
0
  6
Continuous
 62
     7
370
    15
100
AcDbSpline
210
0.0
220
0.0
230
1.0
 70
     8
 71
     3
 72
    17
 73
    13
 74
     0
 42
0.00000001
 43
0.00000001
 40
0.0
 40
0.0
 40
0.0
 40
0.0
 40
0.1051503061073078
 40
0.2144830615654727
 40
0.3206463086570683
 40
0.4298976754376994
 40
0.5358756873502575
 40
0.644937414190048
 40
0.7507305571169337
 40
0.8596018182543553
 40
0.9293716459621801
 40
1.0
 40
1.0
 40
1.0
 40
1.0
 10
161.4944398287
 20
362.7140704552466
 30
0.0
 10
161.4879955583845
 20
362.7165597415213
 30
0.0
 10
161.4748506910227
 20
362.7216373277031
 30
0.0
 10
161.3659359101778
 20
362.7304183239766
 30
0.0
 10
161.1927556964554
 20
362.7395374167976
 30
0.0
 10
160.9572111647037
 20
362.7483573218668
 30
0.0
 10
160.6635515905405
 20
362.7564088337424
 30
0.0
 10
160.3251893454203
 20
362.7630799580224
 30
0.0
 10
159.9456823936845
 20
362.768065639133
 30
0.0
 10
159.5878201127971
 20
362.770647679982
 30
0.0
 10
159.2644889388354
 20
362.7715723245641
 30
0.0
 10
159.0800635828354
 20
362.7712983526755
 30
0.0
 10
158.9872870299259
 20
362.7711605290705
 30
0.0
  0
SPLINE
  5
14C
330
1F
100
AcDbEntity
  8
0
  6
Continuous
 62
     7
370
    15
100
AcDbSpline
210
0.0
220
0.0
230
1.0
 70
     8
 71
     3
 72
    16
 73
    12
 74
     0
 42
0.00000001
 43
0.00000001
 40
0.0
 40
0.0
 40
0.0
 40
0.0
 40
0.2499999999999991
 40
0.2499999999999991
 40
0.4999999999999981
 40
0.4999999999999981
 40
0.7499999999999971
 40
0.7499999999999971
 40
0.8749999999999986
 40
0.8749999999999986
 40
1.0
 40
1.0
 40
1.0
 40
1.0
 10
161.3513601631892
 20
362.7022484261706
 30
0.0
 10
161.2658932990671
 20
362.6996216726012
 30
0.0
 10
161.1406377074664
 20
362.6979708344692
 30
0.0
 10
160.8292526224187
 20
362.6961196666408
 30
0.0
 10
160.6388903175527
 20
362.6958870966674
 30
0.0
 10
160.2185188564234
 20
362.6959264976626
 30
0.0
 10
159.98369638049
 20
362.6961761986335
 30
0.0
 10
159.6189163970074
 20
362.6962853590648
 30
0.0
 10
159.4951222060224
 20
362.6962807821633
 30
0.0
 10
159.2431816479609
 20
362.6961335831261
 30
0.0
 10
159.11441120771
 20
362.6959887985089
 30
0.0
 10
158.9872960419206
 20
362.6957696211848
 30
0.0
  0
LINE
  5
14D
330
1F
100
AcDbEntity
  8
0
  6
Continuous
 62
     7
370
    15
100
AcDbLine
 10
126.048820687
 20
332.2637617598
 30
0.0
 11
126.0598475463
 21
332.5605658824
 31
0.0
  0
LINE
  5
14E
330
1F
100
AcDbEntity
  8
0
  6
Continuous
 62
     7
370
    15
100
AcDbLine
 10
191.9257702655
 20
332.2637617598
 30
0.0
 11
191.9147434063
 21
332.5605658824
 31
0.0
  0
LINE
  5
14F
330
1F
100
AcDbEntity
  8
0
  6
Continuous
 62
     7
370
    15
100
AcDbLine
 10
191.9152090675
 20
332.5610436509
 30
0.0
 11
191.7389357812
 21
333.5635285835
 31
0.0
  0
LINE
  5
150
330
1F
100
AcDbEntity
  8
0
  6
Continuous
 62
     7
370
    15
100
AcDbLine
 10
191.9554422028
 20
331.395099965
 30
0.0
 11
191.9328706688
 21
332.0610542792
 31
0.0
  0
SPLINE
  5
151
330
1F
100
AcDbEntity
  8
0
  6
Continuous
 62
     7
370
    15
100
AcDbSpline
210
0.0
220
0.0
230
1.0
 70
     8
 71
     3
 72
     9
 73
     5
 74
     0
 42
0.00000001
 43
0.00000001
 40
0.0
 40
0.0
 40
0.0
 40
0.0
 40
0.2408075237256836
 40
1.0
 40
1.0
 40
1.0
 40
1.0
 10
191.9240342802616
 20
332.3217570791775
 30
0.0
 10
191.9233869462494
 20
332.3411073461312
 30
0.0
 10
191.9206987660708
 20
332.4214630869082
 30
0.0
 10
191.9175803050098
 20
332.5007335723018
 30
0.0
 10
191.9152127928348
 20
332.5609151284033
 30
0.0
  0
LINE
  5
152
330
1F
100
AcDbEntity
  8
0
  6
Continuous
 62
     7
370
    15
100
AcDbLine
 10
126.059381885
 20
332.5610436509
 30
0.0
 11
126.2342097587
 21
333.5552947606
 31
0.0
  0
SPLINE
  5
153
330
1F
100
AcDbEntity
  8
0
  6
Continuous
 62
     7
370
    15
100
AcDbSpline
210
0.0
220
0.0
230
1.0
 70
     8
 71
     3
 72
     9
 73
     5
 74
     0
 42
0.00000001
 43
0.00000001
 40
0.0
 40
0.0
 40
0.0
 40
0.0
 40
0.5013630675613839
 40
1.0
 40
1.0
 40
1.0
 40
1.0
 10
126.0191494156839
 20
331.3951000061069
 30
0.0
 10
126.0253344057247
 20
331.5912341988546
 30
0.0
 10
126.0376707552506
 20
331.9824361150662
 30
0.0
 10
126.0521550549748
 20
332.3684395733285
 30
0.0
 10
126.0593774617578
 20
332.5609151536672
 30
0.0
  0
SPLINE
  5
154
330
1F
100
AcDbEntity
  8
0
  6
Continuous
 62
     7
370
    15
100
AcDbSpline
210
0.0
220
0.0
230
1.0
 70
     8
 71
     3
 72
    16
 73
    12
 74
     0
 42
0.00000001
 43
0.00000001
 40
0.0
 40
0.0
 40
0.0
 40
0.0
 40
0.2500000000000002
 40
0.2500000000000002
 40
0.5000000000000004
 40
0.5000000000000004
 40
0.6250000000000003
 40
0.6250000000000003
 40
0.7500000000000002
 40
0.7500000000000002
 40
1.0
 40
1.0
 40
1.0
 40
1.0
 10
125.9929344531739
 20
305.3557395279593
 30
0.0
 10
125.9556967602416
 20
307.6087502479979
 30
0.0
 10
125.9245120990459
 20
309.8560089819114
 30
0.0
 10
125.8791761851963
 20
314.3223409343997
 30
0.0
 10
125.8648277924597
 20
316.545762793201
 30
0.0
 10
125.8607784710329
 20
319.8353405796824
 30
0.0
 10
125.8623809871461
 20
320.924540949616
 30
0.0
 10
125.8720662907652
 20
323.0864672824566
 30
0.0
 10
125.8801772913728
 20
324.1606467603957
 30
0.0
 10
125.916406532896
 20
327.3391904811915
 30
0.0
 10
125.956379103902
 20
329.4029093007279
 30
0.0
 10
126.0192569864505
 20
331.3951507445376
 30
0.0
  0
SPLINE
  5
155
330
1F
100
AcDbEntity
  8
0
  6
Continuous
 62
     7
370
    15
100
AcDbSpline
210
0.0
220
0.0
230
1.0
 70
     8
 71
     3
 72
    16
 73
    12
 74
     0
 42
0.00000001
 43
0.00000001
 40
0.0
 40
0.0
 40
0.0
 40
0.0
 40
0.2500000000000003
 40
0.2500000000000003
 40
0.5000000000000007
 40
0.5000000000000007
 40
0.6250000000000004
 40
0.6250000000000004
 40
0.7500000000000003
 40
0.7500000000000003
 40
1.0
 40
1.0
 40
1.0
 40
1.0
 10
191.9816576305048
 20
305.3557395279593
 30
0.0
 10
192.0188953234371
 20
307.6087502479979
 30
0.0
 10
192.0500799846328
 20
309.8560089819114
 30
0.0
 10
192.0954158984824
 20
314.3223409343997
 30
0.0
 10
192.1097642912189
 20
316.545762793201
 30
0.0
 10
192.1138136126458
 20
319.8353405796825
 30
0.0
 10
192.1122110965325
 20
320.9245409496161
 30
0.0
 10
192.1025257929134
 20
323.0864672824567
 30
0.0
 10
192.0944147923058
 20
324.1606467603958
 30
0.0
 10
192.0581855507826
 20
327.3391904811915
 30
0.0
 10
192.0182129797767
 20
329.4029093007279
 30
0.0
 10
191.9553350972281
 20
331.3951507445377
 30
0.0
  0
SPLINE
  5
156
330
1F
100
AcDbEntity
  8
0
  6
Continuous
 62
     7
370
    15
100
AcDbSpline
210
0.0
220
0.0
230
1.0
 70
     8
 71
     3
 72
    44
 73
    40
 74
     0
 42
0.00000001
 43
0.00000001
 40
0.0
 40
0.0
 40
0.0
 40
0.0
 40
0.125000000000007
 40
0.125000000000007
 40
0.1875000000000104
 40
0.1875000000000104
 40
0.2500000000000138
 40
0.2500000000000138
 40
0.2812500000000157
 40
0.2812500000000157
 40
0.3125000000000177
 40
0.3125000000000177
 40
0.3750000000000214
 40
0.3750000000000214
 40
0.4062500000000226
 40
0.4062500000000226
 40
0.4375000000000239
 40
0.4375000000000239
 40
0.4687500000000253
 40
0.4687500000000253
 40
0.5000000000000265
 40
0.5000000000000265
 40
0.5625000000000279
 40
0.5625000000000279
 40
0.5937500000000286
 40
0.5937500000000286
 40
0.6250000000000293
 40
0.6250000000000293
 40
0.6562500000000299
 40
0.6562500000000299
 40
0.6718750000000295
 40
0.6718750000000295
 40
0.6875000000000292
 40
0.6875000000000292
 40
0.7500000000000233
 40
0.7500000000000233
 40
0.8750000000000117
 40
0.8750000000000117
 40
1.0
 40
1.0
 40
1.0
 40
1.0
 10
158.9872960418376
 20
129.9113618105224
 30
0.0
 10
156.6517591692063
 20
129.920281054075
 30
0.0
 10
154.3095526349705
 20
129.9604425028625
 30
0.0
 10
150.794057885857
 20
130.2090469655527
 30
0.0
 10
149.62253996628
 20
130.3216986788549
 30
0.0
 10
147.2778058505403
 20
130.6542076498662
 30
0.0
 10
146.1000231428892
 20
130.8771342535873
 30
0.0
 10
144.3742021139197
 20
131.3443956875927
 30
0.0
 10
143.804644937959
 20
131.522379884854
 30
0.0
 10
142.6803236304172
 20
131.9332925193708
 30
0.0
 10
142.12422940998
 20
132.166742159558
 30
0.0
 10
140.4915572881065
 20
132.9690622534606
 30
0.0
 10
139.4813938729002
 20
133.6274412634041
 30
0.0
 10
138.1152379539712
 20
134.8254559322095
 30
0.0
 10
137.6826372450187
 20
135.2630040335049
 30
0.0
 10
136.8889099193697
 20
136.1817273320083
 30
0.0
 10
136.5257889248697
 20
136.663674111357
 30
0.0
 10
135.8555317411357
 20
137.663726001035
 30
0.0
 10
135.5484310842448
 20
138.1819231719796
 30
0.0
 10
134.9801938668388
 20
139.2472715530518
 30
0.0
 10
134.7226344451051
 20
139.787503247982
 30
0.0
 10
134.0125812586739
 20
141.4252775036297
 30
0.0
 10
133.6211151498289
 20
142.5416938121164
 30
0.0
 10
133.1139617187035
 20
144.2371524982719
 30
0.0
 10
132.9579750783936
 20
144.8057028195682
 30
0.0
 10
132.6629112674136
 20
145.9464186023892
 30
0.0
 10
132.5253787120605
 20
146.5158618753923
 30
0.0
 10
132.2932470902374
 20
147.685877445083
 30
0.0
 10
132.193514320254
 20
148.2878082479725
 30
0.0
 10
132.0727287656696
 20
149.1673656849729
 30
0.0
 10
132.0366963871551
 20
149.4579253850488
 30
0.0
 10
131.9670904442668
 20
150.0408277603678
 30
0.0
 10
131.9340876487346
 20
150.332349999453
 30
0.0
 10
131.7764347276092
 20
151.7901786187326
 30
0.0
 10
131.6732657981934
 20
152.9570783081718
 30
0.0
 10
131.3958532590395
 20
156.4569464064986
 30
0.0
 10
131.2484930283413
 20
158.789741486973
 30
0.0
 10
130.9704258664109
 20
163.4542898886415
 30
0.0
 10
130.8427008340362
 20
165.785879053411
 30
0.0
 10
130.7130916466077
 20
168.1156232867319
 30
0.0
  0
SPLINE
  5
157
330
1F
100
AcDbEntity
  8
0
  6
Continuous
 62
     7
370
    15
100
AcDbSpline
210
0.0
220
0.0
230
1.0
 70
     8
 71
     3
 72
    17
 73
    13
 74
     0
 42
0.00000001
 43
0.00000001
 40
0.0
 40
0.0
 40
0.0
 40
0.0
 40
0.0558258802454991
 40
0.1116491704411259
 40
0.1674793426564781
 40
0.318734769894307
 40
0.4689834835955634
 40
0.6190164280339655
 40
0.7698574065094992
 40
0.9211068021482341
 40
0.9605566164086226
 40
1.0
 40
1.0
 40
1.0
 40
1.0
 10
158.9873492049261
 20
129.9112951256907
 30
0.0
 10
159.1940544759557
 20
129.9122673295463
 30
0.0
 10
159.6074554278938
 20
129.9142116921518
 30
0.0
 10
160.2275625466356
 20
129.9196378265814
 30
0.0
 10
161.2009703580551
 20
129.9308884956299
 30
0.0
 10
162.5238682320704
 20
129.9567948255248
 30
0.0
 10
164.1948307256252
 20
130.0156571989111
 30
0.0
 10
165.8627386424821
 20
130.1091299425412
 30
0.0
 10
167.5315716041489
 20
130.2440840024256
 30
0.0
 10
168.7885541232124
 20
130.3857084988658
 30
0.0
 10
169.6327070800544
 20
130.5023750259023
 30
0.0
 10
169.9214496825795
 20
130.5466878189538
 30
0.0
 10
170.0658092159827
 20
130.568842409488
 30
0.0
  0
SPLINE
  5
158
330
1F
100
AcDbEntity
  8
0
  6
Continuous
 62
     7
370
    15
100
AcDbSpline
210
0.0
220
0.0
230
1.0
 70
     8
 71
     3
 72
    24
 73
    20
 74
     0
 42
0.00000001
 43
0.00000001
 40
0.0
 40
0.0
 40
0.0
 40
0.0
 40
0.2499999999999998
 40
0.2499999999999998
 40
0.4999999999999996
 40
0.4999999999999996
 40
0.6249999999999997
 40
0.6249999999999997
 40
0.7499999999999998
 40
0.7499999999999998
 40
0.8749999999999999
 40
0.8749999999999999
 40
0.9374999999999999
 40
0.9374999999999999
 40
0.9687499999999999
 40
0.9687499999999999
 40
0.984375
 40
0.984375
 40
1.0
 40
1.0
 40
1.0
 40
1.0
 10
127.1433778645172
 20
246.3496737934009
 30
0.0
 10
127.0350580334692
 20
251.2272701222274
 30
0.0
 10
126.9311880041267
 20
256.1049257069977
 30
0.0
 10
126.730873298677
 20
265.8602994100572
 30
0.0
 10
126.6342801486273
 20
270.7380252552042
 30
0.0
 10
126.4941403738918
 20
278.0545549310118
 30
0.0
 10
126.4481039050563
 20
280.4933843632314
 30
0.0
 10
126.3591294085303
 20
285.3710264640964
 30
0.0
 10
126.315900396176
 20
287.8098365573323
 30
0.0
 10
126.2271122062794
 20
292.6872303238977
 30
0.0
 10
126.1811893283459
 20
295.1258166747218
 30
0.0
 10
126.1115623707525
 20
298.7834774594779
 30
0.0
 10
126.0883999440988
 20
300.002451596145
 30
0.0
 10
126.0541357213322
 20
301.8303246734405
 30
0.0
 10
126.0420600883719
 20
302.4394538904957
 30
0.0
 10
126.0251297641805
 20
303.3529469229086
 30
0.0
 10
126.0208956354091
 20
303.6573506406005
 30
0.0
 10
126.0112379975991
 20
304.2658610874393
 30
0.0
 10
126.0064779805891
 20
304.5701127365668
 30
0.0
 10
126.001419740661
 20
304.8740920483008
 30
0.0
  0
SPLINE
  5
159
330
1F
100
AcDbEntity
  8
0
  6
Continuous
 62
     7
370
    15
100
AcDbSpline
210
0.0
220
0.0
230
1.0
 70
     8
 71
     3
 72
    24
 73
    20
 74
     0
 42
0.00000001
 43
0.00000001
 40
0.0
 40
0.0
 40
0.0
 40
0.0
 40
0.25
 40
0.25
 40
0.5
 40
0.5
 40
0.625
 40
0.625
 40
0.75
 40
0.75
 40
0.875
 40
0.875
 40
0.9375
 40
0.9375
 40
0.96875
 40
0.96875
 40
0.984375
 40
0.984375
 40
1.0
 40
1.0
 40
1.0
 40
1.0
 10
190.8312142191614
 20
246.3496737934009
 30
0.0
 10
190.9395340502094
 20
251.2272701222275
 30
0.0
 10
191.0434040795519
 20
256.1049257069977
 30
0.0
 10
191.2437187850016
 20
265.8602994100572
 30
0.0
 10
191.3403119350513
 20
270.7380252552042
 30
0.0
 10
191.4804517097869
 20
278.0545549310117
 30
0.0
 10
191.5264881786223
 20
280.4933843632314
 30
0.0
 10
191.6154626751484
 20
285.3710264640964
 30
0.0
 10
191.6586916875026
 20
287.8098365573323
 30
0.0
 10
191.7474798773993
 20
292.6872303238977
 30
0.0
 10
191.7934027553327
 20
295.1258166747218
 30
0.0
 10
191.8630297129261
 20
298.7834774594779
 30
0.0
 10
191.8861921395799
 20
300.002451596145
 30
0.0
 10
191.9204563623465
 20
301.8303246734405
 30
0.0
 10
191.9325319953068
 20
302.4394538904957
 30
0.0
 10
191.9494623194982
 20
303.3529469229086
 30
0.0
 10
191.9536964482696
 20
303.6573506406005
 30
0.0
 10
191.9633540860796
 20
304.2658610874392
 30
0.0
 10
191.9681141030895
 20
304.5701127365667
 30
0.0
 10
191.9731723430176
 20
304.8740920483007
 30
0.0
  0
SPLINE
  5
15A
330
1F
100
AcDbEntity
  8
0
  6
Continuous
 62
     7
370
    15
100
AcDbSpline
210
0.0
220
0.0
230
1.0
 70
     8
 71
     3
 72
    18
 73
    14
 74
     0
 42
0.00000001
 43
0.00000001
 40
0.0
 40
0.0
 40
0.0
 40
0.0
 40
0.1250000000000005
 40
0.1250000000000005
 40
0.2500000000000009
 40
0.2500000000000009
 40
0.5000000000000008
 40
0.5000000000000008
 40
0.7500000000000007
 40
0.7500000000000007
 40
0.8750000000000004
 40
0.8750000000000004
 40
1.0
 40
1.0
 40
1.0
 40
1.0
 10
129.6018715470445
 20
168.0674859603816
 30
0.0
 10
129.433676756725
 20
171.3266612032734
 30
0.0
 10
129.2864914944844
 20
174.5868207190945
 30
0.0
 10
129.0156843366243
 20
181.1082074485699
 30
0.0
 10
128.8921347302944
 20
184.3693537645284
 30
0.0
 10
128.5394986920678
 20
194.1533230474019
 30
0.0
 10
128.3296282356372
 20
200.6768107527447
 30
0.0
 10
127.9472703453349
 20
213.7250390928444
 30
0.0
 10
127.7748827698546
 20
220.249706231103
 30
0.0
 10
127.5276043667806
 20
230.036930062971
 30
0.0
 10
127.4471430748987
 20
233.2993869939183
 30
0.0
 10
127.2911208347774
 20
239.8244123018482
 30
0.0
 10
127.2146330958959
 20
243.086959410518
 30
0.0
 10
127.143279910467
 20
246.349618106291
 30
0.0
  0
SPLINE
  5
15B
330
1F
100
AcDbEntity
  8
0
  6
Continuous
 62
     7
370
    15
100
AcDbSpline
210
0.0
220
0.0
230
1.0
 70
     8
 71
     3
 72
    18
 73
    14
 74
     0
 42
0.00000001
 43
0.00000001
 40
0.0
 40
0.0
 40
0.0
 40
0.0
 40
0.1249999999999997
 40
0.1249999999999997
 40
0.2499999999999993
 40
0.2499999999999993
 40
0.4999999999999998
 40
0.4999999999999998
 40
0.7500000000000002
 40
0.7500000000000002
 40
0.8750000000000001
 40
0.8750000000000001
 40
1.0
 40
1.0
 40
1.0
 40
1.0
 10
188.3727205366342
 20
168.0674859603816
 30
0.0
 10
188.5409153269537
 20
171.3266612032735
 30
0.0
 10
188.6881005891943
 20
174.5868207190945
 30
0.0
 10
188.9589077470543
 20
181.1082074485699
 30
0.0
 10
189.0824573533842
 20
184.3693537645285
 30
0.0
 10
189.4350933916107
 20
194.1533230474021
 30
0.0
 10
189.6449638480414
 20
200.6768107527448
 30
0.0
 10
190.0273217383437
 20
213.7250390928444
 30
0.0
 10
190.199709313824
 20
220.2497062311029
 30
0.0
 10
190.4469877168981
 20
230.0369300629708
 30
0.0
 10
190.52744900878
 20
233.2993869939182
 30
0.0
 10
190.6834712489013
 20
239.8244123018481
 30
0.0
 10
190.7599589877826
 20
243.086959410518
 30
0.0
 10
190.8313121732116
 20
246.349618106291
 30
0.0
  0
SPLINE
  5
15C
330
1F
100
AcDbEntity
  8
0
  6
Continuous
 62
     8
370
     0
100
AcDbSpline
210
0.0
220
0.0
230
1.0
 70
     8
 71
     3
 72
    44
 73
    40
 74
     0
 42
0.00000001
 43
0.00000001
 40
0.0
 40
0.0
 40
0.0
 40
0.0
 40
0.1250000000000043
 40
0.1250000000000043
 40
0.1875000000000064
 40
0.1875000000000064
 40
0.2500000000000085
 40
0.2500000000000085
 40
0.3125000000000107
 40
0.3125000000000107
 40
0.3437500000000109
 40
0.3437500000000109
 40
0.3750000000000112
 40
0.3750000000000112
 40
0.4375000000000104
 40
0.4375000000000104
 40
0.46875000000001
 40
0.46875000000001
 40
0.5000000000000097
 40
0.5000000000000097
 40
0.5312500000000093
 40
0.5312500000000093
 40
0.5625000000000089
 40
0.5625000000000089
 40
0.6250000000000073
 40
0.6250000000000073
 40
0.6562500000000064
 40
0.6562500000000064
 40
0.6875000000000057
 40
0.6875000000000057
 40
0.7500000000000046
 40
0.7500000000000046
 40
0.8125000000000036
 40
0.8125000000000036
 40
0.8750000000000023
 40
0.8750000000000023
 40
0.9375000000000012
 40
0.9375000000000012
 40
1.0
 40
1.0
 40
1.0
 40
1.0
 10
189.6987655488808
 20
345.1659104980305
 30
0.0
 10
189.4154013000127
 20
346.187637011751
 30
0.0
 10
189.0802544730492
 20
347.098385423434
 30
0.0
 10
188.4698856406464
 20
348.348953333879
 30
0.0
 10
188.2482544967008
 20
348.7465313952535
 30
0.0
 10
187.759283992828
 20
349.5118362137935
 30
0.0
 10
187.4923705808927
 20
349.8797107252326
 30
0.0
 10
186.8935690437815
 20
350.5931380258036
 30
0.0
 10
186.5616454397143
 20
350.9389672489885
 30
0.0
 10
185.9946675886107
 20
351.4467253672158
 30
0.0
 10
185.7937953527716
 20
351.6143098991331
 30
0.0
 10
185.3698557475848
 20
351.9422224517563
 30
0.0
 10
185.1463297411886
 20
352.1029986714821
 30
0.0
 10
184.4359636268903
 20
352.5750732201531
 30
0.0
 10
183.9095032309783
 20
352.8762008473861
 30
0.0
 10
183.0149355445747
 20
353.3009405693571
 30
0.0
 10
182.6992079579788
 20
353.4379943469382
 30
0.0
 10
182.0283714466121
 20
353.701985250433
 30
0.0
 10
181.6746498413064
 20
353.8282842659889
 30
0.0
 10
180.9376319847874
 20
354.0663181843645
 30
0.0
 10
180.5516626750578
 20
354.1788805339969
 30
0.0
 10
179.7575685077579
 20
354.3880168118669
 30
0.0
 10
179.3493843923856
 20
354.4847265264841
 30
0.0
 10
178.0942237711974
 20
354.7533980545759
 30
0.0
 10
177.216628178796
 20
354.9038767281415
 30
0.0
 10
175.8514048700449
 20
355.0963202831579
 30
0.0
 10
175.3877825818496
 20
355.1549549641954
 30
0.0
 10
174.4569183666999
 20
355.2616045449232
 30
0.0
 10
173.988302937211
 20
355.3098496040005
 30
0.0
 10
172.5744196139681
 20
355.4416542011153
 30
0.0
 10
171.6211861670961
 20
355.5123240132834
 30
0.0
 10
169.6994261923225
 20
355.6291783839612
 30
0.0
 10
168.7293714784937
 20
355.6754287051578
 30
0.0
 10
166.7865244861088
 20
355.75015185632
 30
0.0
 10
165.8137287132678
 20
355.7785327907796
 30
0.0
 10
163.8661963009801
 20
355.8225637365063
 30
0.0
 10
162.8914845243391
 20
355.8385893687999
 30
0.0
 10
160.9405748951209
 20
355.8607386869176
 30
0.0
 10
159.9643572952664
 20
355.866546146224
 30
0.0
 10
158.9873640489689
 20
355.8665654793602
 30
0.0
  0
SPLINE
  5
15D
330
1F
100
AcDbEntity
  8
0
  6
Continuous
 62
     8
370
     0
100
AcDbSpline
210
0.0
220
0.0
230
1.0
 70
     8
 71
     3
 72
    36
 73
    32
 74
     0
 42
0.00000001
 43
0.00000001
 40
0.0
 40
0.0
 40
0.0
 40
0.0
 40
0.0624999999999999
 40
0.0624999999999999
 40
0.1249999999999998
 40
0.1249999999999998
 40
0.2499999999999996
 40
0.2499999999999996
 40
0.3124999999999995
 40
0.3124999999999995
 40
0.3749999999999994
 40
0.3749999999999994
 40
0.4374999999999994
 40
0.4374999999999994
 40
0.4687499999999998
 40
0.4687499999999998
 40
0.5000000000000001
 40
0.5000000000000001
 40
0.5624999999999999
 40
0.5624999999999999
 40
0.6249999999999997
 40
0.6249999999999997
 40
0.6874999999999994
 40
0.6874999999999994
 40
0.7499999999999992
 40
0.7499999999999992
 40
0.8124999999999991
 40
0.8124999999999991
 40
0.8749999999999989
 40
0.8749999999999989
 40
1.0
 40
1.0
 40
1.0
 40
1.0
 10
158.9872280347097
 20
355.8665654793603
 30
0.0
 10
158.0124075427393
 20
355.8665461892194
 30
0.0
 10
157.0375421758445
 20
355.8607589270171
 30
0.0
 10
155.0907085965856
 20
355.8386953333941
 30
0.0
 10
154.1183730380159
 20
355.8227340202664
 30
0.0
 10
151.2054782744509
 20
355.7570423797152
 30
0.0
 10
149.2690065442324
 20
355.6890907662204
 30
0.0
 10
146.3803342337387
 20
355.5142151078674
 30
0.0
 10
145.4256040409246
 20
355.4436590201341
 30
0.0
 10
143.5455174267994
 20
355.2691153346402
 30
0.0
 10
142.6191993186948
 20
355.1653655125727
 30
0.0
 10
140.8047237520276
 20
354.9113000357747
 30
0.0
 10
139.912723430642
 20
354.7594356573974
 30
0.0
 10
138.6530511261945
 20
354.4911076734164
 30
0.0
 10
138.2447957045773
 20
354.3947900107143
 30
0.0
 10
137.4531719541382
 20
354.1873480622217
 30
0.0
 10
137.0686404837524
 20
354.0758460927584
 30
0.0
 10
135.9619937457715
 20
353.7204590685363
 30
0.0
 10
135.2994084140909
 20
353.459868018257
 30
0.0
 10
134.1042070338917
 20
352.8970043873165
 30
0.0
 10
133.5701304351995
 20
352.5942442735981
 30
0.0
 10
132.609183506937
 20
351.9590850561933
 30
0.0
 10
132.1893520770333
 20
351.6323640223359
 30
0.0
 10
131.4359059438729
 20
350.9613357694607
 30
0.0
 10
131.1028613234493
 20
350.6168536713099
 30
0.0
 10
130.5001891044262
 20
349.903273318872
 30
0.0
 10
130.2305035356309
 20
349.5338689006589
 30
0.0
 10
129.7354853145781
 20
348.7625149489699
 30
0.0
 10
129.5109631704578
 20
348.3609281441239
 30
0.0
 10
128.8951814392061
 20
347.1017759771797
 30
0.0
 10
128.5591128303251
 20
346.1873555542907
 30
0.0
 10
128.2758270732048
 20
345.1659124393642
 30
0.0
  0
SPLINE
  5
15E
330
1F
100
AcDbEntity
  8
0
  6
Continuous
 62
     8
370
     0
100
AcDbSpline
210
0.0
220
0.0
230
1.0
 70
     8
 71
     3
 72
    25
 73
    21
 74
     0
 42
0.00000001
 43
0.00000001
 40
0.0
 40
0.0
 40
0.0
 40
0.0
 40
0.0394650135145674
 40
0.0880603624624311
 40
0.1370950497189604
 40
0.1828211838339015
 40
0.2712734710237805
 40
0.3141344840827803
 40
0.3489889845577577
 40
0.4193680233182308
 40
0.4550721479310704
 40
0.5072312642608214
 40
0.5599154610138954
 40
0.6006618557521745
 40
0.6828561329998479
 40
0.7242147384901809
 40
0.8099782962894839
 40
0.8615628037383495
 40
0.9307464680645378
 40
1.0
 40
1.0
 40
1.0
 40
1.0
 10
128.3673966652961
 20
349.0053318450982
 30
0.0
 10
128.4740561700235
 20
349.2723858486112
 30
0.0
 10
128.7120511384756
 20
349.8682775068701
 30
0.0
 10
129.1480142560025
 20
350.7316211076341
 30
0.0
 10
129.6647493283473
 20
351.5990001531656
 30
0.0
 10
130.4297811575801
 20
352.6598905430776
 30
0.0
 10
131.3521339428233
 20
353.638350866588
 30
0.0
 10
132.4561746740154
 20
354.5156122560782
 30
0.0
 10
133.5845264309733
 20
355.2642066013845
 30
0.0
 10
134.8693672444158
 20
355.9174218447558
 30
0.0
 10
136.5489728715631
 20
356.5415684735331
 30
0.0
 10
138.2011024812532
 20
357.0086464019576
 30
0.0
 10
140.0643730866791
 20
357.3809006636313
 30
0.0
 10
142.4205859468593
 20
357.7257891329166
 30
0.0
 10
144.7186977709906
 20
357.9420984261444
 30
0.0
 10
147.6916046297489
 20
358.1310536036689
 30
0.0
 10
150.2595679947071
 20
358.2326386913348
 30
0.0
 10
153.2379547448615
 20
358.302138065554
 30
0.0
 10
155.9838762165073
 20
358.3425265059115
 30
0.0
 10
157.985667013849
 20
358.3536393962986
 30
0.0
 10
158.9870675525438
 20
358.359198645764
 30
0.0
  0
SPLINE
  5
15F
330
1F
100
AcDbEntity
  8
0
  6
Continuous
 62
     8
370
     0
100
AcDbSpline
210
0.0
220
0.0
230
1.0
 70
     8
 71
     3
 72
    14
 73
    10
 74
     0
 42
0.00000001
 43
0.00000001
 40
0.0
 40
0.0
 40
0.0
 40
0.0
 40
0.2499999999999993
 40
0.2499999999999993
 40
0.3749999999999992
 40
0.3749999999999992
 40
0.4999999999999991
 40
0.4999999999999991
 40
1.0
 40
1.0
 40
1.0
 40
1.0
 10
128.2758270732048
 20
345.1659124393642
 30
0.0
 10
128.0596834144615
 20
344.3865635080849
 30
0.0
 10
127.8767487459099
 20
343.5518618999221
 30
0.0
 10
127.6385604691839
 20
342.1988558237835
 30
0.0
 10
127.5651717267803
 20
341.7310495441024
 30
0.0
 10
127.4291707394525
 20
340.7598611029509
 30
0.0
 10
127.366678791788
 20
340.256729774588
 30
0.0
 10
127.0813065779096
 20
337.6790573043079
 30
0.0
 10
126.9353562360995
 20
335.3952066457424
 30
0.0
 10
126.8383338616581
 20
332.9027021163619
 30
0.0
  0
SPLINE
  5
160
330
1F
100
AcDbEntity
  8
0
  6
Continuous
 62
     8
370
     0
100
AcDbSpline
210
0.0
220
0.0
230
1.0
 70
     8
 71
     3
 72
    14
 73
    10
 74
     0
 42
0.00000001
 43
0.00000001
 40
0.0
 40
0.0
 40
0.0
 40
0.0
 40
0.25
 40
0.25
 40
0.5
 40
0.5
 40
0.75
 40
0.75
 40
1.0
 40
1.0
 40
1.0
 40
1.0
 10
191.1362582220205
 20
332.9027021163619
 30
0.0
 10
191.0874331983655
 20
334.1570168381739
 30
0.0
 10
191.0254972516398
 20
335.3640754469377
 30
0.0
 10
190.8681956045534
 20
337.6785757509164
 30
0.0
 10
190.7734563591534
 20
338.7691547543813
 30
0.0
 10
190.5453509925358
 20
340.8137252477904
 30
0.0
 10
190.4119513611333
 20
341.7695385113252
 30
0.0
 10
190.0967367189796
 20
343.5561818889758
 30
0.0
 10
189.914718232548
 20
344.3872498748457
 30
0.0
 10
189.6987655488808
 20
345.1659104980305
 30
0.0
  0
LWPOLYLINE
  5
161
330
1F
100
AcDbEntity
  8
0
  6
Continuous
 62
     8
370
     0
100
AcDbPolyline
 90
       11
 70
   128
 43
0.0
 10
161.4947960596
 20
362.7751018862
 10
161.4925571601
 20
362.7843368809
 10
161.272350594
 20
362.8650937239
 10
160.7225069427
 20
362.9328679303
 10
159.9223456113
 20
362.9778843383
 10
158.9872960418
 20
362.9936460416
 10
158.0522464472
 20
362.9778843383
 10
157.2520850576
 20
362.9328679303
 10
156.7022415228
 20
362.8650937239
 10
156.4820349566
 20
362.7843368809
 10
156.4797960571
 20
362.7751018862
  0
LWPOLYLINE
  5
162
330
1F
100
AcDbEntity
  8
0
  6
Continuous
 62
     8
370
     0
100
AcDbPolyline
 90
        5
 70
   128
 43
0.0
 10
191.1362583167
 20
332.9027021314
 10
191.1875034101
 20
332.8081225986
 10
191.2108535297
 20
332.7403139333
 10
191.2045540638
 20
332.7043732638
 10
191.2033656962
 20
332.7034000317
  0
SPLINE
  5
163
330
1F
100
AcDbEntity
  8
0
  6
Continuous
 62
     8
370
     0
100
AcDbSpline
210
0.0
220
0.0
230
1.0
 70
     8
 71
     3
 72
    18
 73
    14
 74
     0
 42
0.00000001
 43
0.00000001
 40
0.0
 40
0.0
 40
0.0
 40
0.0
 40
0.5000000000000003
 40
0.5000000000000003
 40
0.6250000000000003
 40
0.6250000000000003
 40
0.7500000000000002
 40
0.7500000000000002
 40
0.8750000000000002
 40
0.8750000000000002
 40
0.9375000000000002
 40
0.9375000000000002
 40
1.0
 40
1.0
 40
1.0
 40
1.0
 10
127.3258475945856
 20
287.0445155647309
 30
0.0
 10
127.2685444659813
 20
290.012834623862
 30
0.0
 10
127.2088453808769
 20
292.9809488824763
 30
0.0
 10
127.1247450257091
 20
296.6871045276939
 30
0.0
 10
127.1074104233413
 20
297.4288644061677
 30
0.0
 10
127.0717438235024
 20
298.9079602872449
 30
0.0
 10
127.0539913421947
 20
299.6461165384648
 30
0.0
 10
127.0158785615483
 20
301.122364593884
 30
0.0
 10
126.9948649610616
 20
301.8605917842663
 30
0.0
 10
126.9603807553946
 20
302.9544184539278
 30
0.0
 10
126.9491080873343
 20
303.3162800104886
 30
0.0
 10
126.9305827855179
 20
304.0318018673143
 30
0.0
 10
126.9214839568392
 20
304.386679355536
 30
0.0
 10
126.9134927326848
 20
304.7411729575634
 30
0.0
  0
SPLINE
  5
164
330
1F
100
AcDbEntity
  8
0
  6
Continuous
 62
     8
370
     0
100
AcDbSpline
210
0.0
220
0.0
230
1.0
 70
     8
 71
     3
 72
     8
 73
     4
 74
     0
 42
0.00000001
 43
0.00000001
 40
0.0
 40
0.0
 40
0.0
 40
0.0
 40
1.0
 40
1.0
 40
1.0
 40
1.0
 10
126.9127814117011
 20
304.7412477032589
 30
0.0
 10
126.9097030750934
 20
304.8971893529729
 30
0.0
 10
126.9066436499601
 20
305.0530550739853
 30
0.0
 10
126.9035722442692
 20
305.2088469960946
 30
0.0
  0
SPLINE
  5
165
330
1F
100
AcDbEntity
  8
0
  6
Continuous
 62
     8
370
     0
100
AcDbSpline
210
0.0
220
0.0
230
1.0
 70
     8
 71
     3
 72
    16
 73
    12
 74
     0
 42
0.00000001
 43
0.00000001
 40
0.0
 40
0.0
 40
0.0
 40
0.0
 40
0.2500000000000002
 40
0.2500000000000002
 40
0.5000000000000003
 40
0.5000000000000003
 40
0.6250000000000004
 40
0.6250000000000004
 40
0.7500000000000004
 40
0.7500000000000004
 40
1.0
 40
1.0
 40
1.0
 40
1.0
 10
126.9033238219578
 20
305.2088613487953
 30
0.0
 10
126.8624837106164
 20
307.4226229246743
 30
0.0
 10
126.826808170971
 20
309.6316797904865
 30
0.0
 10
126.7675299493142
 20
314.0069618694847
 30
0.0
 10
126.744222609728
 20
316.1798464419354
 30
0.0
 10
126.7240233420489
 20
319.3868939917438
 30
0.0
 10
126.7198167169919
 20
320.4476132435356
 30
0.0
 10
126.7169790658104
 20
322.5505911665438
 30
0.0
 10
126.7183743540939
 20
323.594294782018
 30
0.0
 10
126.7334894280206
 20
326.6794778554373
 30
0.0
 10
126.757640772781
 20
328.6772015490906
 30
0.0
 10
126.804855948058
 20
330.6019336652739
 30
0.0
  0
SPLINE
  5
166
330
1F
100
AcDbEntity
  8
0
  6
Continuous
 62
     8
370
     0
100
AcDbSpline
210
0.0
220
0.0
230
1.0
 70
     8
 71
     3
 72
     8
 73
     4
 74
     0
 42
0.00000001
 43
0.00000001
 40
0.0
 40
0.0
 40
0.0
 40
0.0
 40
1.0
 40
1.0
 40
1.0
 40
1.0
 10
126.8046279345877
 20
330.6020005512253
 30
0.0
 10
126.8052400799106
 20
330.6270257337056
 30
0.0
 10
126.8058573784444
 20
330.6520351878182
 30
0.0
 10
126.8064798140681
 20
330.677028886864
 30
0.0
  0
SPLINE
  5
167
330
1F
100
AcDbEntity
  8
0
  6
Continuous
 62
     8
370
     0
100
AcDbSpline
210
0.0
220
0.0
230
1.0
 70
     8
 71
     3
 72
    20
 73
    16
 74
     0
 42
0.00000001
 43
0.00000001
 40
0.0
 40
0.0
 40
0.0
 40
0.0
 40
0.1250000000000002
 40
0.1250000000000002
 40
0.2500000000000006
 40
0.2500000000000006
 40
0.3750000000000008
 40
0.3750000000000008
 40
0.4375000000000008
 40
0.4375000000000008
 40
0.5000000000000008
 40
0.5000000000000008
 40
0.7500000000000004
 40
0.7500000000000004
 40
1.0
 40
1.0
 40
1.0
 40
1.0
 10
126.8064798140616
 20
330.6770288868693
 30
0.0
 10
127.9234538870795
 20
329.7779683529108
 30
0.0
 10
129.0776331243138
 20
328.9286761069773
 30
0.0
 10
131.4656208760402
 20
327.3375976145153
 30
0.0
 10
132.7016743646278
 20
326.5946296157612
 30
0.0
 10
135.247870639056
 20
325.2283379488507
 30
0.0
 10
136.5508706035689
 20
324.6085715023899
 30
0.0
 10
138.5494350940717
 20
323.7732024510848
 30
0.0
 10
139.2229624068927
 20
323.5104459657462
 30
0.0
 10
140.5845142825969
 20
323.0160359788973
 30
0.0
 10
141.274025730896
 20
322.783956275997
 30
0.0
 10
144.732121530817
 20
321.707896162413
 30
0.0
 10
147.5393102240616
 20
321.1122609019061
 30
0.0
 10
153.2181856937345
 20
320.3475705944649
 30
0.0
 10
156.0899779890953
 20
320.1785352606645
 30
0.0
 10
158.987296184474
 20
320.1785370101778
 30
0.0
  0
SPLINE
  5
168
330
1F
100
AcDbEntity
  8
0
  6
Continuous
 62
     8
370
     0
100
AcDbSpline
210
0.0
220
0.0
230
1.0
 70
     8
 71
     3
 72
    32
 73
    28
 74
     0
 42
0.00000001
 43
0.00000001
 40
0.0
 40
0.0
 40
0.0
 40
0.0
 40
0.0200025316582525
 40
0.0399823872309817
 40
0.0599361383197977
 40
0.0798596586407351
 40
0.0997506272781788
 40
0.1196098262667511
 40
0.1394400515357584
 40
0.1592450725921024
 40
0.1790286380148244
 40
0.198793590556127
 40
0.2185410651229178
 40
0.2382696212256342
 40
0.3039169374152835
 40
0.3693222766116985
 40
0.4025945084941592
 40
0.4358133233299129
 40
0.5692679201646025
 40
0.7021482179744452
 40
0.744767903036593
 40
0.787348616968271
 40
0.8298959199120481
 40
0.872422291529574
 40
0.9149421641385539
 40
0.9574669387326047
 40
1.0
 40
1.0
 40
1.0
 40
1.0
 10
191.1681122674856
 20
330.6770194755341
 30
0.0
 10
190.9899471382929
 20
330.5347930853676
 30
0.0
 10
190.6338188587258
 20
330.250501541514
 30
0.0
 10
190.0922397136958
 20
329.8335264152404
 30
0.0
 10
189.5457011329448
 20
329.4240483272033
 30
0.0
 10
188.9937788857213
 20
329.0229304330273
 30
0.0
 10
188.436728498469
 20
328.6301882627508
 30
0.0
 10
187.8745735839402
 20
328.2460048580833
 30
0.0
 10
187.3073441660391
 20
327.8704577484979
 30
0.0
 10
186.7350386687228
 20
327.5036133814079
 30
0.0
 10
186.1576637658289
 20
327.1455264775825
 30
0.0
 10
185.5752569981962
 20
326.7962629659352
 30
0.0
 10
184.9879071938371
 20
326.4559141801847
 30
0.0
 10
183.9361565902034
 20
325.867424655709
 30
0.0
 10
182.3983429498887
 20
325.072034436052
 30
0.0
 10
180.678083477719
 20
324.2896722990294
 30
0.0
 10
179.2734864496581
 20
323.7139332590642
 30
0.0
 10
177.1214727072899
 20
322.8945966486017
 30
0.0
 10
173.8155204311564
 20
321.8681555409676
 30
0.0
 10
170.3164341583805
 20
321.1336066617946
 30
0.0
 10
167.8230429811817
 20
320.7544826993442
 30
0.0
 10
166.356664771279
 20
320.5704596916922
 30
0.0
 10
164.8869269134734
 20
320.423357246559
 30
0.0
 10
163.4145424177959
 20
320.3114960051813
 30
0.0
 10
161.9400823195156
 20
320.2340943824984
 30
0.0
 10
160.4640965405209
 20
320.1869641785499
 30
0.0
 10
159.4795948440742
 20
320.1813314133963
 30
0.0
 10
158.9872960388115
 20
320.1785147564362
 30
0.0
  0
LWPOLYLINE
  5
169
330
1F
100
AcDbEntity
  8
0
  6
Continuous
 62
     8
370
     0
100
AcDbPolyline
 90
        3
 70
   128
 43
0.0
 10
191.1699647433
 20
330.6019884544
 10
191.1690408713
 20
330.6395156319
 10
191.1681132741
 20
330.6770195263
  0
SPLINE
  5
16A
330
1F
100
AcDbEntity
  8
0
  6
Continuous
 62
     8
370
     0
100
AcDbSpline
210
0.0
220
0.0
230
1.0
 70
     8
 71
     3
 72
    24
 73
    20
 74
     0
 42
0.00000001
 43
0.00000001
 40
0.0
 40
0.0
 40
0.0
 40
0.0
 40
0.0285263378015445
 40
0.0616644313789641
 40
0.0921595742891436
 40
0.1188803130591274
 40
0.146871960948753
 40
0.1752536755843936
 40
0.2022170399838427
 40
0.3038180053158406
 40
0.4028170103835207
 40
0.5026115801654404
 40
0.7028482029792235
 40
0.8032898523015537
 40
0.9030941632643141
 40
0.9271529150951275
 40
0.9513176097803269
 40
0.9755965827974562
 40
0.9999999999999999
 40
0.9999999999999999
 40
0.9999999999999999
 40
0.9999999999999999
 10
191.0712689578032
 20
305.2089756527075
 30
0.0
 10
191.075861583517
 20
305.459286590058
 30
0.0
 10
191.0857893090859
 20
306.0003753806005
 30
0.0
 10
191.0999225670202
 20
306.8082153676456
 30
0.0
 10
191.113393403898
 20
307.5997780484137
 30
0.0
 10
191.1256239186291
 20
308.3457108842072
 30
0.0
 10
191.1371840321719
 20
309.072569257383
 30
0.0
 10
191.1484485133563
 20
309.800879940607
 30
0.0
 10
191.1688881367425
 20
311.1711011941666
 30
0.0
 10
191.19576857167
 20
313.1529102227618
 30
0.0
 10
191.2245730065819
 20
315.7547977363058
 30
0.0
 10
191.2523961471014
 20
319.185325106975
 30
0.0
 10
191.2615358866633
 20
322.5806022648754
 30
0.0
 10
191.2456883267368
 20
325.8924518885763
 30
0.0
 10
191.2250620141308
 20
327.7089842485624
 30
0.0
 10
191.2057408099219
 20
328.8878782162574
 30
0.0
 10
191.1950660716665
 20
329.4612516025711
 30
0.0
 10
191.1833268510139
 20
330.0335151360288
 30
0.0
 10
191.1742740859189
 20
330.412129971697
 30
0.0
 10
191.1697361328223
 20
330.601921305939
 30
0.0
  0
LWPOLYLINE
  5
16B
330
1F
100
AcDbEntity
  8
0
  6
Continuous
 62
     8
370
     0
100
AcDbPolyline
 90
        3
 70
   128
 43
0.0
 10
191.0618121154
 20
304.7410935174
 10
191.0664165742
 20
304.9751199792
 10
191.071021033
 20
305.2089620392
  0
SPLINE
  5
16C
330
1F
100
AcDbEntity
  8
0
  6
Continuous
 62
     8
370
     0
100
AcDbSpline
210
0.0
220
0.0
230
1.0
 70
     8
 71
     3
 72
    25
 73
    21
 74
     0
 42
0.00000001
 43
0.00000001
 40
0.0
 40
0.0
 40
0.0
 40
0.0
 40
0.1651670201741635
 40
0.328650536586094
 40
0.4999946969148101
 40
0.5749828602785237
 40
0.5874790029571456
 40
0.6120683883625059
 40
0.6241635093088026
 40
0.6300536633602568
 40
0.6481829988791559
 40
0.7328013133744364
 40
0.7509345068260308
 40
0.7781052076898471
 40
0.8052700811348188
 40
0.8233761493947293
 40
0.856548484498551
 40
0.8920530515647869
 40
0.9484450233796088
 40
1.0
 40
1.0
 40
1.0
 40
1.0
 10
190.6487449609202
 20
287.0444943786018
 30
0.0
 10
190.6676897171803
 20
288.0192006583142
 30
0.0
 10
190.7053861308095
 20
289.9586782943671
 30
0.0
 10
190.7657204141424
 20
292.9091522880808
 30
0.0
 10
190.8186352432533
 20
295.3273554960683
 30
0.0
 10
190.8538275123859
 20
296.8545180095896
 30
0.0
 10
190.8694010384883
 20
297.5157604236618
 30
0.0
 10
190.876305963796
 20
297.8059246481042
 30
0.0
 10
190.882335580707
 20
298.0571091175448
 30
0.0
 10
190.8874668573103
 20
298.270178236198
 30
0.0
 10
190.9029752256598
 20
298.911111866473
 30
0.0
 10
190.9202800421748
 20
299.6242364197042
 30
0.0
 10
190.9397727278438
 20
300.3906305512422
 30
0.0
 10
190.9509600699109
 20
300.8180963181609
 30
0.0
 10
190.9626230623823
 20
301.2453750417144
 30
0.0
 10
190.9758026774637
 20
301.7080179486241
 30
0.0
 10
190.9909367628638
 20
302.2198006970075
 30
0.0
 10
191.01475221349
 20
302.9571751854849
 30
0.0
 10
191.0388180030069
 20
303.8027184602316
 30
0.0
 10
191.0538974575173
 20
304.437799701011
 30
0.0
 10
191.0610993371072
 20
304.741111642618
 30
0.0
  0
LWPOLYLINE
  5
16D
330
1F
100
AcDbEntity
  8
0
  6
Continuous
 62
     8
370
     0
100
AcDbPolyline
 90
        5
 70
   128
 43
0.0
 10
126.7712625093
 20
332.7033758174
 10
126.7700368888
 20
332.7043732638
 10
126.7637374229
 20
332.7403139333
 10
126.7870875425
 20
332.8081225986
 10
126.8383326358
 20
332.9027021314
  0
SPLINE
  5
16E
330
1F
100
AcDbEntity
  8
0
  6
Continuous
 62
     8
370
     0
100
AcDbSpline
210
0.0
220
0.0
230
1.0
 70
     8
 71
     3
 72
    29
 73
    25
 74
     0
 42
0.00000001
 43
0.00000001
 40
0.0
 40
0.0
 40
0.0
 40
0.0
 40
0.0213876242609751
 40
0.0426687861088131
 40
0.0638483618247745
 40
0.0849312981779256
 40
0.1059226102589487
 40
0.126827379101089
 40
0.147650749088984
 40
0.1683979251573276
 40
0.1890741697829332
 40
0.2096847997750924
 40
0.2302351828707473
 40
0.2507307341424641
 40
0.3757578855305284
 40
0.5015379882357871
 40
0.624098527262659
 40
0.750416358186804
 40
0.7904877326696291
 40
0.8311378138704969
 40
0.8723911294748508
 40
0.9142711473006379
 40
0.9568002977253109
 40
1.0
 40
1.0
 40
1.0
 40
1.0
 10
127.3081526660622
 20
331.3411982352322
 30
0.0
 10
127.4948077938088
 20
331.1891527284582
 30
0.0
 10
127.8671889252872
 20
330.8858185606148
 30
0.0
 10
128.4332809714706
 20
330.4422350593475
 30
0.0
 10
129.0030654303227
 20
330.0085228311777
 30
0.0
 10
129.577178604451
 20
329.5854044078906
 30
0.0
 10
130.1554511930454
 20
329.1726877195834
 30
0.0
 10
130.7379282168669
 20
328.7704240599402
 30
0.0
 10
131.3245977164702
 20
328.3785999255039
 30
0.0
 10
131.9154626100919
 20
327.9972191538431
 30
0.0
 10
132.5105228868627
 20
327.6262806354287
 30
0.0
 10
133.1097754217854
 20
327.265785794846
 30
0.0
 10
133.7132323306879
 20
326.9157308556132
 30
0.0
 10
135.3542333281853
 20
325.9985640699783
 30
0.0
 10
138.1260649733107
 20
324.6509001892872
 30
0.0
 10
142.1122203841915
 20
323.1743176345149
 30
0.0
 10
146.2396153051546
 20
322.069450468859
 30
0.0
 10
149.488389498641
 20
321.4929232594174
 30
0.0
 10
151.8327120600831
 20
321.2011696934078
 30
0.0
 10
153.2179357051864
 20
321.0626061615244
 30
0.0
 10
154.6267773505813
 20
320.9547526130793
 30
0.0
 10
156.0592700705436
 20
320.878302195994
 30
0.0
 10
157.5154058472437
 20
320.8305770131274
 30
0.0
 10
158.4941141026363
 20
320.8247742441787
 30
0.0
 10
158.9872958485184
 20
320.8218501657261
 30
0.0
  0
LINE
  5
16F
330
1F
100
AcDbEntity
  8
0
  6
Continuous
 62
     8
370
     0
100
AcDbLine
 10
158.9872958491
 20
320.8218501891
 30
0.0
 11
158.9872961851
 21
320.1785367924
 31
0.0
  0
SPLINE
  5
170
330
1F
100
AcDbEntity
  8
0
  6
Continuous
 62
     8
370
     0
100
AcDbSpline
210
0.0
220
0.0
230
1.0
 70
     8
 71
     3
 72
    20
 73
    16
 74
     0
 42
0.00000001
 43
0.00000001
 40
0.0
 40
0.0
 40
0.0
 40
0.0
 40
0.2499999999999998
 40
0.2499999999999998
 40
0.4999999999999996
 40
0.4999999999999996
 40
0.5624999999999997
 40
0.5624999999999997
 40
0.6249999999999997
 40
0.6249999999999997
 40
0.7499999999999998
 40
0.7499999999999998
 40
0.875
 40
0.875
 40
1.0
 40
1.0
 40
1.0
 40
1.0
 10
158.98729623516
 20
320.8218501657261
 30
0.0
 10
161.8595317927068
 20
320.8218486329035
 30
0.0
 10
164.7027738035449
 20
320.9922342072404
 30
0.0
 10
170.3149420646187
 20
321.761852236794
 30
0.0
 10
173.083892507573
 20
322.3610991927237
 30
0.0
 10
176.486934598287
 20
323.4417975500707
 30
0.0
 10
177.1650693041903
 20
323.6748061878622
 30
0.0
 10
178.5033764743677
 20
324.1710050307006
 30
0.0
 10
179.165012641563
 20
324.434624837465
 30
0.0
 10
181.1271916690155
 20
325.2723818482453
 30
0.0
 10
182.404971947929
 20
325.8934725990107
 30
0.0
 10
184.8996031908696
 20
327.2614483428068
 30
0.0
 10
186.1094607681617
 20
328.0047651734397
 30
0.0
 10
188.4456673828907
 20
329.5952926082107
 30
0.0
 10
189.5742260942087
 20
330.4436868929566
 30
0.0
 10
190.6664394176162
 20
331.3411982352322
 30
0.0
  0
SPLINE
  5
171
330
1F
100
AcDbEntity
  8
0
  6
Continuous
 62
     8
370
     0
100
AcDbSpline
210
0.0
220
0.0
230
1.0
 70
     8
 71
     3
 72
    19
 73
    15
 74
     0
 42
0.00000001
 43
0.00000001
 40
0.0
 40
0.0
 40
0.0
 40
0.0
 40
0.0549819833977549
 40
0.1121763993645241
 40
0.1721890187555122
 40
0.2355448259361299
 40
0.3026904339072
 40
0.3740012857115422
 40
0.4497909489201132
 40
0.5303206891558769
 40
0.6484976486675929
 40
0.7723580029002408
 40
0.8980406151916224
 40
1.0
 40
1.0
 40
1.0
 40
1.0
 10
126.6548064781622
 20
332.6549045819609
 30
0.0
 10
126.6521733312517
 20
332.6274912232656
 30
0.0
 10
126.6468010816316
 20
332.5715614134825
 30
0.0
 10
126.6509488956148
 20
332.4852731337687
 30
0.0
 10
126.6636755626983
 20
332.3957029662961
 30
0.0
 10
126.685937999785
 20
332.302730427884
 30
0.0
 10
126.717427161625
 20
332.2063789821913
 30
0.0
 10
126.7582132461323
 20
332.1066275832424
 30
0.0
 10
126.8082554357425
 20
332.0034572425409
 30
0.0
 10
126.8756128244043
 20
331.8824849289576
 30
0.0
 10
126.9630559846451
 20
331.74482302562
 30
0.0
 10
127.0725778856087
 20
331.5944021276549
 30
0.0
 10
127.184192750573
 20
331.4548388401439
 30
0.0
 10
127.2698067202709
 20
331.3763519900446
 30
0.0
 10
127.3081526660657
 20
331.3411982352294
 30
0.0
  0
SPLINE
  5
172
330
1F
100
AcDbEntity
  8
0
  6
Continuous
 62
     8
370
     0
100
AcDbSpline
210
0.0
220
0.0
230
1.0
 70
     8
 71
     3
 72
    14
 73
    10
 74
     0
 42
0.00000001
 43
0.00000001
 40
0.0
 40
0.0
 40
0.0
 40
0.0
 40
0.25
 40
0.25
 40
0.5
 40
0.5
 40
0.75
 40
0.75
 40
1.0
 40
1.0
 40
1.0
 40
1.0
 10
190.6664394176127
 20
331.3411982352294
 30
0.0
 10
190.7540636224514
 20
331.4132023065322
 30
0.0
 10
190.829641849815
 20
331.5024647409151
 30
0.0
 10
190.9730502832813
 20
331.6893077693381
 30
0.0
 10
191.0424442115172
 20
331.7892201341633
 30
0.0
 10
191.1723129664867
 20
332.0098421407201
 30
0.0
 10
191.2316574732599
 20
332.1271826038639
 30
0.0
 10
191.3144465428355
 20
332.3805312756203
 30
0.0
 10
191.3380651496819
 20
332.5176272472836
 30
0.0
 10
191.3197856055162
 20
332.6549045819609
 30
0.0
  0
SPLINE
  5
173
330
1F
100
AcDbEntity
  8
0
  6
Continuous
 62
     8
370
     0
100
AcDbSpline
210
0.0
220
0.0
230
1.0
 70
     8
 71
     3
 72
    12
 73
     8
 74
     0
 42
0.00000001
 43
0.00000001
 40
0.0
 40
0.0
 40
0.0
 40
0.0
 40
0.1967335894637462
 40
0.3653079624669591
 40
0.6403020690434124
 40
0.8925573182041028
 40
1.0
 40
1.0
 40
1.0
 40
1.0
 10
126.8064814037891
 20
330.6770288395518
 30
0.0
 10
126.7009542705328
 20
330.7389448020469
 30
0.0
 10
126.5050044983566
 20
330.8539144631246
 30
0.0
 10
126.2529247429206
 20
331.1497301757161
 30
0.0
 10
126.0974482775188
 20
331.559493862352
 30
0.0
 10
126.0314711325799
 20
331.9752360872006
 30
0.0
 10
126.0448302768369
 20
332.1974006445795
 30
0.0
 10
126.048820687017
 20
332.2637617598111
 30
0.0
  0
SPLINE
  5
174
330
1F
100
AcDbEntity
  8
0
  6
Continuous
 62
     8
370
     0
100
AcDbSpline
210
0.0
220
0.0
230
1.0
 70
     8
 71
     3
 72
    12
 73
     8
 74
     0
 42
0.00000001
 43
0.00000001
 40
0.0
 40
0.0
 40
0.0
 40
0.0
 40
0.1967324345432654
 40
0.3653070499193615
 40
0.6403015518768759
 40
0.8925571637251503
 40
1.0
 40
1.0
 40
1.0
 40
1.0
 10
191.1681132740589
 20
330.6770288395518
 30
0.0
 10
191.2736389692008
 20
330.7389449953166
 30
0.0
 10
191.4695867318182
 20
330.8539154030039
 30
0.0
 10
191.7216663346753
 20
331.1497300562207
 30
0.0
 10
191.8771426376823
 20
331.5594938980526
 30
0.0
 10
191.9431198232874
 20
331.9752360840376
 30
0.0
 10
191.929760676482
 20
332.1974006438519
 30
0.0
 10
191.9257702655406
 20
332.2637617598111
 30
0.0
  0
SPLINE
  5
175
330
1F
100
AcDbEntity
  8
0
  6
Continuous
 62
     8
370
     0
100
AcDbSpline
210
0.0
220
0.0
230
1.0
 70
     8
 71
     3
 72
    16
 73
    12
 74
     0
 42
0.00000001
 43
0.00000001
 40
0.0
 40
0.0
 40
0.0
 40
0.0
 40
0.2500000000000003
 40
0.2500000000000003
 40
0.5000000000000006
 40
0.5000000000000006
 40
0.7500000000000009
 40
0.7500000000000009
 40
0.8750000000000004
 40
0.8750000000000004
 40
1.0
 40
1.0
 40
1.0
 40
1.0
 10
128.1677973098914
 20
246.3648325624524
 30
0.0
 10
128.313373006209
 20
239.8420284999576
 30
0.0
 10
128.4746687264739
 20
233.3195674795999
 30
0.0
 10
128.8119418836536
 20
220.2750386622889
 30
0.0
 10
128.9900015109834
 20
213.7529824640311
 30
0.0
 10
129.387048972352
 20
200.7101706509664
 30
0.0
 10
129.6058919001169
 20
194.1894764259218
 30
0.0
 10
129.9715274084477
 20
184.4097449235259
 30
0.0
 10
130.0993464299941
 20
181.1500157923577
 30
0.0
 10
130.3797125742016
 20
174.63154426635
 30
0.0
 10
130.5323572038104
 20
171.3729022589536
 30
0.0
 10
130.7130112328007
 20
168.1156218705305
 30
0.0
  0
SPLINE
  5
176
330
1F
100
AcDbEntity
  8
0
  6
Continuous
 62
     8
370
     0
100
AcDbSpline
210
0.0
220
0.0
230
1.0
 70
     8
 71
     3
 72
    12
 73
     8
 74
     0
 42
0.00000001
 43
0.00000001
 40
0.0
 40
0.0
 40
0.0
 40
0.0
 40
0.25
 40
0.25
 40
0.5
 40
0.5
 40
1.0
 40
1.0
 40
1.0
 40
1.0
 10
127.325847851045
 20
287.0445022800542
 30
0.0
 10
127.3912896575527
 20
283.6545969252384
 30
0.0
 10
127.4555764586885
 20
280.2645897708406
 30
0.0
 10
127.5898564142046
 20
273.4845974768277
 30
0.0
 10
127.6584257661293
 20
270.0945865815013
 30
0.0
 10
127.8688409288803
 20
259.9245971009418
 30
0.0
 10
128.014199668678
 20
253.1446474856973
 30
0.0
 10
128.1678912201695
 20
246.3648345732256
 30
0.0
  0
SPLINE
  5
177
330
1F
100
AcDbEntity
  8
0
  6
Continuous
 62
     8
370
     0
100
AcDbSpline
210
0.0
220
0.0
230
1.0
 70
     8
 71
     3
 72
    12
 73
     8
 74
     0
 42
0.00000001
 43
0.00000001
 40
0.0
 40
0.0
 40
0.0
 40
0.0
 40
0.2499999999999998
 40
0.2499999999999998
 40
0.4999999999999996
 40
0.4999999999999996
 40
1.0
 40
1.0
 40
1.0
 40
1.0
 10
190.6487442326337
 20
287.0445022800541
 30
0.0
 10
190.583302426126
 20
283.6545969252384
 30
0.0
 10
190.5190156249901
 20
280.2645897708406
 30
0.0
 10
190.384735669474
 20
273.4845974768277
 30
0.0
 10
190.3161663175493
 20
270.0945865815013
 30
0.0
 10
190.1057511547983
 20
259.9245971009418
 30
0.0
 10
189.9603924150006
 20
253.1446474856973
 30
0.0
 10
189.8067008635091
 20
246.3648345732256
 30
0.0
  0
SPLINE
  5
178
330
1F
100
AcDbEntity
  8
0
  6
Continuous
 62
     8
370
     0
100
AcDbSpline
210
0.0
220
0.0
230
1.0
 70
     8
 71
     3
 72
    16
 73
    12
 74
     0
 42
0.00000001
 43
0.00000001
 40
0.0
 40
0.0
 40
0.0
 40
0.0
 40
0.25
 40
0.25
 40
0.5
 40
0.5
 40
0.75
 40
0.75
 40
0.875
 40
0.875
 40
1.0
 40
1.0
 40
1.0
 40
1.0
 10
189.8067947737872
 20
246.3648325624524
 30
0.0
 10
189.6612190774695
 20
239.8420284999576
 30
0.0
 10
189.4999233572047
 20
233.3195674795999
 30
0.0
 10
189.162650200025
 20
220.2750386622889
 30
0.0
 10
188.9845905726952
 20
213.7529824640311
 30
0.0
 10
188.5875431113266
 20
200.7101706509664
 30
0.0
 10
188.3687001835617
 20
194.1894764259219
 30
0.0
 10
188.0030646752309
 20
184.4097449235259
 30
0.0
 10
187.8752456536845
 20
181.1500157923578
 30
0.0
 10
187.594879509477
 20
174.63154426635
 30
0.0
 10
187.4422348798682
 20
171.3729022589535
 30
0.0
 10
187.2615808508779
 20
168.1156218705305
 30
0.0
  0
SPLINE
  5
179
330
1F
100
AcDbEntity
  8
0
  6
Continuous
 62
     8
370
     0
100
AcDbSpline
210
0.0
220
0.0
230
1.0
 70
     8
 71
     3
 72
    37
 73
    33
 74
     0
 42
0.00000001
 43
0.00000001
 40
0.0
 40
0.0
 40
0.0
 40
0.0
 40
0.0115387475285938
 40
0.0230893013724122
 40
0.034631969825447
 40
0.0697305299371548
 40
0.1047981387281771
 40
0.1254910674345237
 40
0.1461723076492632
 40
0.1858223313269775
 40
0.2254578293392606
 40
0.2390019994131331
 40
0.2812979306853251
 40
0.3296475225012849
 40
0.3467866570527904
 40
0.3917729307670609
 40
0.4368197812127205
 40
0.4637531805502475
 40
0.4906540783164224
 40
0.5178163210262361
 40
0.5294117863751254
 40
0.5562174184630617
 40
0.5716359797510816
 40
0.5866801008102058
 40
0.6019181245830647
 40
0.6844411006231083
 40
0.7677065101166513
 40
0.8565214869058451
 40
0.9453088811168413
 40
0.9726573327852877
 40
0.993164938994087
 40
1.0
 40
1.0
 40
1.0
 40
1.0
 10
170.0657727324089
 20
130.5688366743856
 30
0.0
 10
170.2391497961321
 20
130.5968651519738
 30
0.0
 10
170.5860813210178
 20
130.6529507855696
 30
0.0
 10
171.1046518221434
 20
130.7476920817888
 30
0.0
 10
171.9731845653348
 20
130.9213246370389
 30
0.0
 10
173.183186994109
 20
131.2124635084021
 30
0.0
 10
174.5030114853098
 20
131.6303081172693
 30
0.0
 10
175.5866302512712
 20
132.0553522436489
 30
0.0
 10
176.7084960237181
 20
132.5687943590652
 30
0.0
 10
178.032757102221
 20
133.326563437289
 30
0.0
 10
179.1580954235212
 20
134.1891999414311
 30
0.0
 10
180.2234540300947
 20
135.177859521976
 30
0.0
 10
181.277802680569
 20
136.3703895602686
 30
0.0
 10
182.1820222146826
 20
137.7455777646811
 30
0.0
 10
182.9903768928391
 20
139.2200781759237
 30
0.0
 10
183.6750286045236
 20
140.7034357440517
 30
0.0
 10
184.2911972964827
 20
142.3750618389914
 30
0.0
 10
184.739957998065
 20
143.811833639687
 30
0.0
 10
185.069529700684
 20
144.9998135316768
 30
0.0
 10
185.3179224030914
 20
145.9678648450935
 30
0.0
 10
185.5388861786922
 20
146.9410272509722
 30
0.0
 10
185.6901371547194
 20
147.7464259469473
 30
0.0
 10
185.8267942224985
 20
148.6072787252113
 30
0.0
 10
185.918630794078
 20
149.2967712662652
 30
0.0
 10
186.1237526237404
 20
151.0013278301362
 30
0.0
 10
186.3768010418591
 20
153.7455984723042
 30
0.0
 10
186.6510183697583
 20
157.6109942676869
 30
0.0
 10
186.8955511058015
 20
161.5740138207062
 30
0.0
 10
187.0710862624888
 20
164.6885143172819
 30
0.0
 10
187.1864454249787
 20
166.7650819584477
 30
0.0
 10
187.2326126919902
 20
167.5962196846791
 30
0.0
 10
187.255730319169
 20
168.0117411780037
 30
0.0
 10
187.2615092137749
 20
168.1156123451375
 30
0.0
  0
ENDSEC
  0
SECTION
  2
OBJECTS
  0
DICTIONARY
  5
C
330
0
100
AcDbDictionary
281
     1
  3
ACAD_GROUP
350
D
  3
ACAD_LAYOUT
350
1A
  3
ACAD_MATERIAL
350
3B
  3
ACAD_MLEADERSTYLE
350
17B
  3
ACAD_MLINESTYLE
350
17
  3
ACAD_PLOTSETTINGS
350
19
  3
ACAD_PLOTSTYLENAME
350
E
  3
ACAD_TABLESTYLE
350
17A
  3
ACAD_VISUALSTYLE
350
2A
  0
DICTIONARY
  5
D
102
{ACAD_REACTORS
330
C
102
}
330
C
100
AcDbDictionary
281
     1
  0
DICTIONARY
  5
1A
102
{ACAD_REACTORS
330
C
102
}
330
C
100
AcDbDictionary
281
     1
  3
Layout1
350
1E
  3
Layout2
350
26
  3
Model
350
22
  0
DICTIONARY
  5
3B
102
{ACAD_REACTORS
330
C
102
}
330
C
100
AcDbDictionary
281
     1
  3
ByBlock
350
3D
  3
ByLayer
350
3C
  3
Global
350
3E
  0
DICTIONARY
  5
17B
102
{ACAD_REACTORS
330
C
102
}
330
C
100
AcDbDictionary
281
     1
  0
DICTIONARY
  5
17
102
{ACAD_REACTORS
330
C
102
}
330
C
100
AcDbDictionary
281
     1
  3
Standard
350
18
  0
DICTIONARY
  5
19
102
{ACAD_REACTORS
330
C
102
}
330
C
100
AcDbDictionary
281
     1
  0
ACDBDICTIONARYWDFLT
  5
E
102
{ACAD_REACTORS
330
C
102
}
330
C
100
AcDbDictionary
281
     1
  3
Normal
350
F
100
AcDbDictionaryWithDefault
340
F
  0
DICTIONARY
  5
17A
102
{ACAD_REACTORS
330
C
102
}
330
C
100
AcDbDictionary
281
     1
  0
DICTIONARY
  5
2A
102
{ACAD_REACTORS
330
C
102
}
330
C
100
AcDbDictionary
281
     1
  3
2dWireframe
350
2F
  3
3D Hidden
350
31
  3
3dWireframe
350
30
  3
Basic
350
32
  3
Brighten
350
36
  3
ColorChange
350
3A
  3
Conceptual
350
34
  3
Dim
350
35
  3
Facepattern
350
39
  3
Flat
350
2B
  3
FlatWithEdges
350
2C
  3
Gouraud
350
2D
  3
GouraudWithEdges
350
2E
  3
Linepattern
350
38
  3
Realistic
350
33
  3
Thicken
350
37
  0
LAYOUT
  5
1E
102
{ACAD_REACTORS
330
1A
102
}
330
1A
100
AcDbPlotSettings
  1

  2
none_device
  4

  6

 40
0.0
 41
0.0
 42
0.0
 43
0.0
 44
0.0
 45
0.0
 46
0.0
 47
0.0
 48
0.0
 49
0.0
140
0.0
141
0.0
142
1.0
143
1.0
 70
   688
 72
     0
 73
     0
 74
     5
  7

 75
    16
 76
     0
 77
     2
 78
   300
147
1.0
148
0.0
149
0.0
100
AcDbLayout
  1
Layout1
 70
     1
 71
     1
 10
0.0
 20
0.0
 11
420.0
 21
297.0
 12
0.0
 22
0.0
 32
0.0
 14
1.0000000000E+20
 24
1.0000000000E+20
 34
1.0000000000E+20
 15
-1.0000000000E+20
 25
-1.0000000000E+20
 35
-1.0000000000E+20
146
0.0
 13
0.0
 23
0.0
 33
0.0
 16
1.0
 26
0.0
 36
0.0
 17
0.0
 27
1.0
 37
0.0
 76
     0
330
1B
  0
LAYOUT
  5
26
102
{ACAD_REACTORS
330
1A
102
}
330
1A
100
AcDbPlotSettings
  1

  2
none_device
  4

  6

 40
0.0
 41
0.0
 42
0.0
 43
0.0
 44
0.0
 45
0.0
 46
0.0
 47
0.0
 48
0.0
 49
0.0
140
0.0
141
0.0
142
1.0
143
1.0
 70
   688
 72
     0
 73
     0
 74
     5
  7

 75
    16
 76
     0
 77
     2
 78
   300
147
1.0
148
0.0
149
0.0
100
AcDbLayout
  1
Layout2
 70
     1
 71
     2
 10
0.0
 20
0.0
 11
0.0
 21
0.0
 12
0.0
 22
0.0
 32
0.0
 14
0.0
 24
0.0
 34
0.0
 15
0.0
 25
0.0
 35
0.0
146
0.0
 13
0.0
 23
0.0
 33
0.0
 16
1.0
 26
0.0
 36
0.0
 17
0.0
 27
1.0
 37
0.0
 76
     0
330
23
  0
LAYOUT
  5
22
102
{ACAD_REACTORS
330
1A
102
}
330
1A
100
AcDbPlotSettings
  1

  2
none_device
  4

  6

 40
0.0
 41
0.0
 42
0.0
 43
0.0
 44
0.0
 45
0.0
 46
0.0
 47
0.0
 48
0.0
 49
0.0
140
0.0
141
0.0
142
1.0
143
1.0
 70
  1712
 72
     0
 73
     0
 74
     0
  7

 75
     0
 76
     0
 77
     2
 78
   300
147
1.0
148
0.0
149
0.0
100
AcDbLayout
  1
Model
 70
     1
 71
     0
 10
0.0
 20
0.0
 11
594.0
 21
841.0
 12
0.0
 22
0.0
 32
0.0
 14
0.0
 24
0.0
 34
0.0
 15
594.0
 25
841.0
 35
0.0
146
0.0
 13
0.0
 23
0.0
 33
0.0
 16
1.0
 26
0.0
 36
0.0
 17
0.0
 27
1.0
 37
0.0
 76
     0
330
1F
331
29
  0
MATERIAL
  5
3D
102
{ACAD_REACTORS
330
3B
102
}
330
3B
100
AcDbMaterial
  1
ByBlock
 72
     1
 94
      127
  0
MATERIAL
  5
3C
102
{ACAD_REACTORS
330
3B
102
}
330
3B
100
AcDbMaterial
  1
ByLayer
 72
     1
 94
      127
  0
MATERIAL
  5
3E
102
{ACAD_REACTORS
330
3B
102
}
330
3B
100
AcDbMaterial
  1
Global
 72
     1
 94
      127
  0
MLINESTYLE
  5
18
102
{ACAD_REACTORS
330
17
102
}
330
17
100
AcDbMlineStyle
  2
Standard
 70
     0
  3

 62
   256
 51
90.0
 52
90.0
 71
     2
 49
0.5
 62
   256
  6
BYLAYER
 49
-0.5
 62
   256
  6
BYLAYER
  0
ACDBPLACEHOLDER
  5
F
102
{ACAD_REACTORS
330
E
102
}
330
E
  0
VISUALSTYLE
  5
2F
102
{ACAD_REACTORS
330
2A
102
}
330
2A
100
AcDbVisualStyle
  2
2dWireframe
 70
     4
177
     2
291
     0
 71
     0
176
     1
 72
     2
176
     1
 73
     0
176
     1
 90
        0
176
     1
 40
-0.6
176
     1
 41
-30.0
176
     1
 62
     5
 63
     7
421
 16777215
176
     1
 74
     1
176
     1
 91
        4
176
     1
 64
     7
176
     1
 65
   257
176
     1
 75
     1
176
     1
175
     1
176
     1
 42
1.0
176
     1
 92
        0
176
     1
 66
   257
176
     1
 43
1.0
176
     1
 76
     1
176
     1
 77
     6
176
     1
 78
     2
176
     1
 67
     7
176
     1
 79
     5
176
     1
170
     0
176
     1
171
     0
176
     1
290
     0
176
     1
 93
        1
176
     1
 44
0.0
176
     1
173
     0
176
     1
  0
VISUALSTYLE
  5
31
102
{ACAD_REACTORS
330
2A
102
}
330
2A
100
AcDbVisualStyle
  2
3D Hidden
 70
     6
177
     2
291
     0
 71
     1
176
     1
 72
     2
176
     1
 73
     2
176
     1
 90
        0
176
     1
 40
-0.6
176
     1
 41
-30.0
176
     1
 62
     5
 63
     7
421
 16777215
176
     1
 74
     2
176
     1
 91
        2
176
     1
 64
     7
176
     1
 65
   257
176
     1
 75
     2
176
     1
175
     1
176
     1
 42
40.0
176
     1
 92
        0
176
     1
 66
   257
176
     1
 43
1.0
176
     1
 76
     1
176
     1
 77
     6
176
     1
 78
     2
176
     1
 67
     7
176
     1
 79
     3
176
     1
170
     0
176
     1
171
     0
176
     1
290
     0
176
     1
 93
        1
176
     1
 44
0.0
176
     1
173
     0
176
     1
  0
VISUALSTYLE
  5
30
102
{ACAD_REACTORS
330
2A
102
}
330
2A
100
AcDbVisualStyle
  2
3dWireframe
 70
     5
177
     2
291
     0
 71
     0
176
     1
 72
     2
176
     1
 73
     0
176
     1
 90
        0
176
     1
 40
-0.6
176
     1
 41
-30.0
176
     1
 62
     5
 63
     7
421
 16777215
176
     1
 74
     1
176
     1
 91
        4
176
     1
 64
     7
176
     1
 65
   257
176
     1
 75
     1
176
     1
175
     1
176
     1
 42
1.0
176
     1
 92
        0
176
     1
 66
   257
176
     1
 43
1.0
176
     1
 76
     1
176
     1
 77
     6
176
     1
 78
     2
176
     1
 67
     7
176
     1
 79
     5
176
     1
170
     0
176
     1
171
     0
176
     1
290
     0
176
     1
 93
        1
176
     1
 44
0.0
176
     1
173
     0
176
     1
  0
VISUALSTYLE
  5
32
102
{ACAD_REACTORS
330
2A
102
}
330
2A
100
AcDbVisualStyle
  2
Basic
 70
     7
177
     2
291
     1
 71
     1
176
     1
 72
     0
176
     1
 73
     1
176
     1
 90
        0
176
     1
 40
-0.6
176
     1
 41
-30.0
176
     1
 62
     5
 63
     7
421
 16777215
176
     1
 74
     0
176
     1
 91
        4
176
     1
 64
     7
176
     1
 65
   257
176
     1
 75
     1
176
     1
175
     1
176
     1
 42
1.0
176
     1
 92
        8
176
     1
 66
     7
176
     1
 43
1.0
176
     1
 76
     1
176
     1
 77
     6
176
     1
 78
     2
176
     1
 67
     7
176
     1
 79
     5
176
     1
170
     0
176
     1
171
     0
176
     1
290
     0
176
     1
 93
        1
176
     1
 44
0.0
176
     1
173
     0
176
     1
  0
VISUALSTYLE
  5
36
102
{ACAD_REACTORS
330
2A
102
}
330
2A
100
AcDbVisualStyle
  2
Brighten
 70
    12
177
     2
291
     1
 71
     2
176
     1
 72
     2
176
     1
 73
     0
176
     1
 90
        0
176
     1
 40
-0.6
176
     1
 41
-30.0
176
     1
 62
     5
 63
     7
421
 16777215
176
     1
 74
     1
176
     1
 91
        4
176
     1
 64
     7
176
     1
 65
   257
176
     1
 75
     1
176
     1
175
     1
176
     1
 42
1.0
176
     1
 92
        8
176
     1
 66
     7
176
     1
 43
1.0
176
     1
 76
     1
176
     1
 77
     6
176
     1
 78
     2
176
     1
 67
     7
176
     1
 79
     5
176
     1
170
     0
176
     1
171
     0
176
     1
290
     0
176
     1
 93
        1
176
     1
 44
50.0
176
     1
173
     0
176
     1
  0
VISUALSTYLE
  5
3A
102
{ACAD_REACTORS
330
2A
102
}
330
2A
100
AcDbVisualStyle
  2
ColorChange
 70
    16
177
     2
291
     1
 71
     2
176
     1
 72
     2
176
     1
 73
     3
176
     1
 90
        0
176
     1
 40
-0.6
176
     1
 41
-30.0
176
     1
 62
     5
 63
     8
421
  8421504
176
     1
 74
     1
176
     1
 91
        4
176
     1
 64
     7
176
     1
 65
   257
176
     1
 75
     1
176
     1
175
     1
176
     1
 42
1.0
176
     1
 92
        8
176
     1
 66
     8
424
  8421504
176
     1
 43
1.0
176
     1
 76
     1
176
     1
 77
     6
176
     1
 78
     2
176
     1
 67
     7
176
     1
 79
     5
176
     1
170
     0
176
     1
171
     0
176
     1
290
     0
176
     1
 93
        1
176
     1
 44
0.0
176
     1
173
     0
176
     1
  0
VISUALSTYLE
  5
34
102
{ACAD_REACTORS
330
2A
102
}
330
2A
100
AcDbVisualStyle
  2
Conceptual
 70
     9
177
     2
291
     0
 71
     3
176
     1
 72
     2
176
     1
 73
     0
176
     1
 90
        0
176
     1
 40
-0.6
176
     1
 41
-30.0
176
     1
 62
     5
 63
     7
421
 16777215
176
     1
 74
     2
176
     1
 91
        2
176
     1
 64
     7
176
     1
 65
   257
176
     1
 75
     1
176
     1
175
     1
176
     1
 42
40.0
176
     1
 92
        8
176
     1
 66
     7
176
     1
 43
1.0
176
     1
 76
     1
176
     1
 77
     6
176
     1
 78
     2
176
     1
 67
     7
176
     1
 79
     3
176
     1
170
     0
176
     1
171
     0
176
     1
290
     0
176
     1
 93
        1
176
     1
 44
0.0
176
     1
173
     0
176
     1
  0
VISUALSTYLE
  5
35
102
{ACAD_REACTORS
330
2A
102
}
330
2A
100
AcDbVisualStyle
  2
Dim
 70
    11
177
     2
291
     1
 71
     2
176
     1
 72
     2
176
     1
 73
     0
176
     1
 90
        0
176
     1
 40
-0.6
176
     1
 41
-30.0
176
     1
 62
     5
 63
     7
421
 16777215
176
     1
 74
     1
176
     1
 91
        4
176
     1
 64
     7
176
     1
 65
   257
176
     1
 75
     1
176
     1
175
     1
176
     1
 42
1.0
176
     1
 92
        8
176
     1
 66
     7
176
     1
 43
1.0
176
     1
 76
     1
176
     1
 77
     6
176
     1
 78
     2
176
     1
 67
     7
176
     1
 79
     5
176
     1
170
     0
176
     1
171
     0
176
     1
290
     0
176
     1
 93
        1
176
     1
 44
-50.0
176
     1
173
     0
176
     1
  0
VISUALSTYLE
  5
39
102
{ACAD_REACTORS
330
2A
102
}
330
2A
100
AcDbVisualStyle
  2
Facepattern
 70
    15
177
     2
291
     1
 71
     2
176
     1
 72
     2
176
     1
 73
     0
176
     1
 90
        0
176
     1
 40
-0.6
176
     1
 41
-30.0
176
     1
 62
     5
 63
     7
421
 16777215
176
     1
 74
     1
176
     1
 91
        4
176
     1
 64
     7
176
     1
 65
   257
176
     1
 75
     1
176
     1
175
     1
176
     1
 42
1.0
176
     1
 92
        8
176
     1
 66
     7
176
     1
 43
1.0
176
     1
 76
     1
176
     1
 77
     6
176
     1
 78
     2
176
     1
 67
     7
176
     1
 79
     5
176
     1
170
     0
176
     1
171
     0
176
     1
290
     0
176
     1
 93
        1
176
     1
 44
0.0
176
     1
173
     0
176
     1
  0
VISUALSTYLE
  5
2B
102
{ACAD_REACTORS
330
2A
102
}
330
2A
100
AcDbVisualStyle
  2
Flat
 70
     0
177
     2
291
     1
 71
     2
176
     1
 72
     1
176
     1
 73
     1
176
     1
 90
        2
176
     1
 40
-0.6
176
     1
 41
30.0
176
     1
 62
     5
 63
     7
421
 16777215
176
     1
 74
     0
176
     1
 91
        4
176
     1
 64
     7
176
     1
 65
   257
176
     1
 75
     1
176
     1
175
     1
176
     1
 42
1.0
176
     1
 92
        8
176
     1
 66
     7
176
     1
 43
1.0
176
     1
 76
     1
176
     1
 77
     6
176
     1
 78
     2
176
     1
 67
     7
176
     1
 79
     5
176
     1
170
     0
176
     1
171
     0
176
     1
290
     0
176
     1
 93
       13
176
     1
 44
0.0
176
     1
173
     0
176
     1
  0
VISUALSTYLE
  5
2C
102
{ACAD_REACTORS
330
2A
102
}
330
2A
100
AcDbVisualStyle
  2
FlatWithEdges
 70
     1
177
     2
291
     1
 71
     2
176
     1
 72
     1
176
     1
 73
     1
176
     1
 90
        2
176
     1
 40
-0.6
176
     1
 41
30.0
176
     1
 62
     5
 63
     7
421
 16777215
176
     1
 74
     1
176
     1
 91
        4
176
     1
 64
     7
176
     1
 65
   257
176
     1
 75
     1
176
     1
175
     1
176
     1
 42
1.0
176
     1
 92
        0
176
     1
 66
   257
176
     1
 43
1.0
176
     1
 76
     1
176
     1
 77
     6
176
     1
 78
     2
176
     1
 67
     7
176
     1
 79
     5
176
     1
170
     0
176
     1
171
     0
176
     1
290
     0
176
     1
 93
       13
176
     1
 44
0.0
176
     1
173
     0
176
     1
  0
VISUALSTYLE
  5
2D
102
{ACAD_REACTORS
330
2A
102
}
330
2A
100
AcDbVisualStyle
  2
Gouraud
 70
     2
177
     2
291
     1
 71
     2
176
     1
 72
     2
176
     1
 73
     1
176
     1
 90
        2
176
     1
 40
-0.6
176
     1
 41
30.0
176
     1
 62
     5
 63
     7
421
 16777215
176
     1
 74
     0
176
     1
 91
        4
176
     1
 64
     7
176
     1
 65
   257
176
     1
 75
     1
176
     1
175
     1
176
     1
 42
1.0
176
     1
 92
        0
176
     1
 66
     7
176
     1
 43
1.0
176
     1
 76
     1
176
     1
 77
     6
176
     1
 78
     2
176
     1
 67
     7
176
     1
 79
     5
176
     1
170
     0
176
     1
171
     0
176
     1
290
     0
176
     1
 93
       13
176
     1
 44
0.0
176
     1
173
     0
176
     1
  0
VISUALSTYLE
  5
2E
102
{ACAD_REACTORS
330
2A
102
}
330
2A
100
AcDbVisualStyle
  2
GouraudWithEdges
 70
     3
177
     2
291
     1
 71
     2
176
     1
 72
     2
176
     1
 73
     1
176
     1
 90
        2
176
     1
 40
-0.6
176
     1
 41
30.0
176
     1
 62
     5
 63
     7
421
 16777215
176
     1
 74
     1
176
     1
 91
        4
176
     1
 64
     7
176
     1
 65
   257
176
     1
 75
     1
176
     1
175
     1
176
     1
 42
1.0
176
     1
 92
        0
176
     1
 66
   257
176
     1
 43
1.0
176
     1
 76
     1
176
     1
 77
     6
176
     1
 78
     2
176
     1
 67
     7
176
     1
 79
     5
176
     1
170
     0
176
     1
171
     0
176
     1
290
     0
176
     1
 93
       13
176
     1
 44
0.0
176
     1
173
     0
176
     1
  0
VISUALSTYLE
  5
38
102
{ACAD_REACTORS
330
2A
102
}
330
2A
100
AcDbVisualStyle
  2
Linepattern
 70
    14
177
     2
291
     1
 71
     2
176
     1
 72
     2
176
     1
 73
     0
176
     1
 90
        0
176
     1
 40
-0.6
176
     1
 41
-30.0
176
     1
 62
     5
 63
     7
421
 16777215
176
     1
 74
     1
176
     1
 91
        4
176
     1
 64
     7
176
     1
 65
   257
176
     1
 75
     7
176
     1
175
     7
176
     1
 42
1.0
176
     1
 92
        8
176
     1
 66
     7
176
     1
 43
1.0
176
     1
 76
     1
176
     1
 77
     6
176
     1
 78
     2
176
     1
 67
     7
176
     1
 79
     5
176
     1
170
     0
176
     1
171
     0
176
     1
290
     0
176
     1
 93
        1
176
     1
 44
0.0
176
     1
173
     0
176
     1
  0
VISUALSTYLE
  5
33
102
{ACAD_REACTORS
330
2A
102
}
330
2A
100
AcDbVisualStyle
  2
Realistic
 70
     8
177
     2
291
     0
 71
     2
176
     1
 72
     2
176
     1
 73
     0
176
     1
 90
        0
176
     1
 40
-0.6
176
     1
 41
-30.0
176
     1
 62
     5
 63
     7
421
 16777215
176
     1
 74
     1
176
     1
 91
        0
176
     1
 64
     7
176
     1
 65
   257
176
     1
 75
     1
176
     1
175
     1
176
     1
 42
1.0
176
     1
 92
        8
176
     1
 66
     8
424
  7895160
176
     1
 43
1.0
176
     1
 76
     1
176
     1
 77
     6
176
     1
 78
     2
176
     1
 67
     7
176
     1
 79
     5
176
     1
170
     0
176
     1
171
     0
176
     1
290
     0
176
     1
 93
       13
176
     1
 44
0.0
176
     1
173
     0
176
     1
  0
VISUALSTYLE
  5
37
102
{ACAD_REACTORS
330
2A
102
}
330
2A
100
AcDbVisualStyle
  2
Thicken
 70
    13
177
     2
291
     1
 71
     2
176
     1
 72
     2
176
     1
 73
     0
176
     1
 90
        0
176
     1
 40
-0.6
176
     1
 41
-30.0
176
     1
 62
     5
 63
     7
421
 16777215
176
     1
 74
     1
176
     1
 91
        4
176
     1
 64
     7
176
     1
 65
   257
176
     1
 75
     1
176
     1
175
     1
176
     1
 42
1.0
176
     1
 92
       12
176
     1
 66
     7
176
     1
 43
1.0
176
     1
 76
     1
176
     1
 77
     6
176
     1
 78
     2
176
     1
 67
     7
176
     1
 79
     5
176
     1
170
     0
176
     1
171
     0
176
     1
290
     0
176
     1
 93
        1
176
     1
 44
0.0
176
     1
173
     0
176
     1
  0
ENDSEC
  0
EOF
