  0
SECTION
  2
HEADER
  9
$ACADVER
  1
AC1015
  9
$ACADMAINTVER
 70
     6
  9
$DWGCODEPAGE
  3
ANSI_1252
  9
$INSBASE
 10
0.0
 20
0.0
 30
0.0
  9
$EXTMIN
 10
0.0
 20
0.0
 30
0.0
  9
$EXTMAX
 10
594.0
 20
841.0
 30
0.0
  9
$LIMMIN
 10
0.0
 20
0.0
  9
$LIMMAX
 10
594.0
 20
841.0
  9
$ORTHOMODE
 70
     0
  9
$REGENMODE
 70
     1
  9
$FILLMODE
 70
     1
  9
$QTEXTMODE
 70
     0
  9
$MIRRTEXT
 70
     1
  9
$LTSCALE
 40
1.0
  9
$ATTMODE
 70
     1
  9
$TEXTSIZE
 40
10.0
  9
$TRACEWID
 40
1.0
  9
$TEXTSTYLE
  7
Standard
  9
$CLAYER
  8
0
  9
$CELTYPE
  6
ByLayer
  9
$CECOLOR
 62
   256
  9
$CELTSCALE
 40
1.0
  9
$DISPSILH
 70
     0
  9
$DIMSCALE
 40
1.0
  9
$DIMASZ
 40
2.5
  9
$DIMEXO
 40
0.0
  9
$DIMDLI
 40
3.75
  9
$DIMRND
 40
0.0
  9
$DIMDLE
 40
0.0
  9
$DIMEXE
 40
1.0
  9
$DIMTP
 40
0.0
  9
$DIMTM
 40
0.0
  9
$DIMTXT
 40
3.5
  9
$DIMCEN
 40
2.5
  9
$DIMTSZ
 40
0.0
  9
$DIMTOL
 70
     0
  9
$DIMLIM
 70
     0
  9
$DIMTIH
 70
     1
  9
$DIMTOH
 70
     1
  9
$DIMSE1
 70
     0
  9
$DIMSE2
 70
     0
  9
$DIMTAD
 70
     1
  9
$DIMZIN
 70
     0
  9
$DIMBLK
  1

  9
$DIMASO
 70
     1
  9
$DIMSHO
 70
     1
  9
$DIMPOST
  1

  9
$DIMAPOST
  1

  9
$DIMALT
 70
     0
  9
$DIMALTD
 70
     3
  9
$DIMALTF
 40
0.0393700787
  9
$DIMLFAC
 40
1.0
  9
$DIMTOFL
 70
     1
  9
$DIMTVP
 40
0.0
  9
$DIMTIX
 70
     0
  9
$DIMSOXD
 70
     0
  9
$DIMSAH
 70
     0
  9
$DIMBLK1
  1

  9
$DIMBLK2
  1

  9
$DIMSTYLE
  2
ISO-25
  9
$DIMCLRD
 70
     0
  9
$DIMCLRE
 70
     0
  9
$DIMCLRT
 70
     0
  9
$DIMTFAC
 40
1.0
  9
$DIMGAP
 40
1.5
  9
$DIMJUST
 70
     0
  9
$DIMSD1
 70
     0
  9
$DIMSD2
 70
     0
  9
$DIMTOLJ
 70
     0
  9
$DIMTZIN
 70
     0
  9
$DIMALTZ
 70
     0
  9
$DIMALTTZ
 70
     0
  9
$DIMUPT
 70
     0
  9
$DIMDEC
 70
     2
  9
$DIMTDEC
 70
     2
  9
$DIMALTU
 70
     2
  9
$DIMALTTD
 70
     3
  9
$DIMTXSTY
  7
Standard
  9
$DIMAUNIT
 70
     0
  9
$DIMADEC
 70
     2
  9
$DIMALTRND
 40
0.0
  9
$DIMAZIN
 70
     0
  9
$DIMDSEP
 70
    44
  9
$DIMATFIT
 70
     3
  9
$DIMFRAC
 70
     0
  9
$DIMLDRBLK
  1

  9
$DIMLUNIT
 70
     2
  9
$DIMLWD
 70
    -2
  9
$DIMLWE
 70
    -2
  9
$DIMTMOVE
 70
     0
  9
$LUNITS
 70
     2
  9
$LUPREC
 70
     2
  9
$SKETCHINC
 40
1.0
  9
$FILLETRAD
 40
0.0
  9
$AUNITS
 70
     0
  9
$AUPREC
 70
     2
  9
$MENU
  1
.
  9
$ELEVATION
 40
0.0
  9
$PELEVATION
 40
0.0
  9
$THICKNESS
 40
0.0
  9
$LIMCHECK
 70
     0
  9
$CHAMFERA
 40
0.0
  9
$CHAMFERB
 40
0.0
  9
$CHAMFERC
 40
0.0
  9
$CHAMFERD
 40
0.0
  9
$SKPOLY
 70
     0
  9
$TDCREATE
 40
2460334.566059572
  9
$TDUCREATE
 40
2460334.524392905
  9
$TDUPDATE
 40
2460334.566061192
  9
$TDUUPDATE
 40
2460334.524394526
  9
$TDINDWG
 40
0.0000000116
  9
$TDUSRTIMER
 40
0.0000000116
  9
$USRTIMER
 70
     1
  9
$ANGBASE
 50
0.0
  9
$ANGDIR
 70
     0
  9
$PDMODE
 70
     0
  9
$PDSIZE
 40
-1.0
  9
$PLINEWID
 40
0.0
  9
$SPLFRAME
 70
     0
  9
$SPLINETYPE
 70
     6
  9
$SPLINESEGS
 70
     8
  9
$HANDSEED
  5
23D
  9
$SURFTAB1
 70
     6
  9
$SURFTAB2
 70
     6
  9
$SURFTYPE
 70
     6
  9
$SURFU
 70
     6
  9
$SURFV
 70
     6
  9
$UCSBASE
  2

  9
$UCSNAME
  2

  9
$UCSORG
 10
0.0
 20
0.0
 30
0.0
  9
$UCSXDIR
 10
1.0
 20
0.0
 30
0.0
  9
$UCSYDIR
 10
0.0
 20
1.0
 30
0.0
  9
$UCSORTHOREF
  2

  9
$UCSORTHOVIEW
 70
     0
  9
$UCSORGTOP
 10
0.0
 20
0.0
 30
0.0
  9
$UCSORGBOTTOM
 10
0.0
 20
0.0
 30
0.0
  9
$UCSORGLEFT
 10
0.0
 20
0.0
 30
0.0
  9
$UCSORGRIGHT
 10
0.0
 20
0.0
 30
0.0
  9
$UCSORGFRONT
 10
0.0
 20
0.0
 30
0.0
  9
$UCSORGBACK
 10
0.0
 20
0.0
 30
0.0
  9
$PUCSBASE
  2

  9
$PUCSNAME
  2

  9
$PUCSORG
 10
0.0
 20
0.0
 30
0.0
  9
$PUCSXDIR
 10
1.0
 20
0.0
 30
0.0
  9
$PUCSYDIR
 10
0.0
 20
1.0
 30
0.0
  9
$PUCSORTHOREF
  2

  9
$PUCSORTHOVIEW
 70
     0
  9
$PUCSORGTOP
 10
0.0
 20
0.0
 30
0.0
  9
$PUCSORGBOTTOM
 10
0.0
 20
0.0
 30
0.0
  9
$PUCSORGLEFT
 10
0.0
 20
0.0
 30
0.0
  9
$PUCSORGRIGHT
 10
0.0
 20
0.0
 30
0.0
  9
$PUCSORGFRONT
 10
0.0
 20
0.0
 30
0.0
  9
$PUCSORGBACK
 10
0.0
 20
0.0
 30
0.0
  9
$USERI1
 70
     0
  9
$USERI2
 70
     0
  9
$USERI3
 70
     0
  9
$USERI4
 70
     0
  9
$USERI5
 70
     0
  9
$USERR1
 40
0.0
  9
$USERR2
 40
0.0
  9
$USERR3
 40
0.0
  9
$USERR4
 40
0.0
  9
$USERR5
 40
0.0
  9
$WORLDVIEW
 70
     1
  9
$SHADEDGE
 70
     3
  9
$SHADEDIF
 70
    70
  9
$TILEMODE
 70
     1
  9
$MAXACTVP
 70
    64
  9
$PINSBASE
 10
0.0
 20
0.0
 30
0.0
  9
$PLIMCHECK
 70
     0
  9
$PEXTMIN
 10
1.0000000000E+20
 20
1.0000000000E+20
 30
1.0000000000E+20
  9
$PEXTMAX
 10
-1.0000000000E+20
 20
-1.0000000000E+20
 30
-1.0000000000E+20
  9
$PLIMMIN
 10
0.0
 20
0.0
  9
$PLIMMAX
 10
420.0
 20
297.0
  9
$UNITMODE
 70
     0
  9
$VISRETAIN
 70
     1
  9
$PLINEGEN
 70
     0
  9
$PSLTSCALE
 70
     1
  9
$TREEDEPTH
 70
  3020
  9
$CMLSTYLE
  2
Standard
  9
$CMLJUST
 70
     0
  9
$CMLSCALE
 40
20.0
  9
$PROXYGRAPHICS
 70
     1
  9
$MEASUREMENT
 70
     1
  9
$CELWEIGHT
370
    -1
  9
$ENDCAPS
280
     0
  9
$JOINSTYLE
280
     0
  9
$LWDISPLAY
290
     1
  9
$INSUNITS
 70
     4
  9
$HYPERLINKBASE
  1

  9
$STYLESHEET
  1

  9
$XEDIT
290
     1
  9
$CEPSNTYPE
380
     0
  9
$PSTYLEMODE
290
     1
  9
$FINGERPRINTGUID
  2
{69bbb9da-1801-4ea5-90bc-03096d64e584}
  9
$VERSIONGUID
  2
{FAEB1C32-E019-11D5-929B-00C0DF256EC4}
  9
$EXTNAMES
290
     1
  9
$PSVPSCALE
 40
0.0
  9
$OLESTARTUP
290
     0
  0
ENDSEC
  0
SECTION
  2
CLASSES
  0
CLASS
  1
ACDBDICTIONARYWDFLT
  2
AcDbDictionaryWithDefault
  3
ObjectDBX Classes
 90
        0
280
     0
281
     0
  0
CLASS
  1
VISUALSTYLE
  2
AcDbVisualStyle
  3
ObjectDBX Classes
 90
     4095
280
     0
281
     0
  0
CLASS
  1
MATERIAL
  2
AcDbMaterial
  3
ObjectDBX Classes
 90
     1153
280
     0
281
     0
  0
CLASS
  1
SCALE
  2
AcDbScale
  3
ObjectDBX Classes
 90
     1153
280
     0
281
     0
  0
CLASS
  1
TABLESTYLE
  2
AcDbTableStyle
  3
ObjectDBX Classes
 90
     4095
280
     0
281
     0
  0
CLASS
  1
MLEADERSTYLE
  2
AcDbMLeaderStyle
  3
ACDB_MLEADERSTYLE_CLASS
 90
     4095
280
     0
281
     0
  0
CLASS
  1
SUN
  2
AcDbSun
  3
SCENEOE
 90
     1153
280
     0
281
     0
  0
CLASS
  1
ACDBPLACEHOLDER
  2
AcDbPlaceHolder
  3
ObjectDBX Classes
 90
        0
280
     0
281
     0
  0
CLASS
  1
LAYOUT
  2
AcDbLayout
  3
ObjectDBX Classes
 90
        0
280
     0
281
     0
  0
ENDSEC
  0
SECTION
  2
TABLES
  0
TABLE
  2
VPORT
  5
8
330
0
100
AcDbSymbolTable
 70
     1
  0
VPORT
  5
29
330
8
100
AcDbSymbolTableRecord
100
AcDbViewportTableRecord
  2
*Active
 70
     0
 10
0.0
 20
0.0
 11
1.0
 21
1.0
 12
297.0
 22
420.5
 13
0.0
 23
0.0
 14
10.0
 24
10.0
 15
10.0
 25
10.0
 16
0.0
 26
0.0
 36
1.0
 17
0.0
 27
0.0
 37
0.0
 40
841.0
 41
0.7063020214
 42
50.0
 43
0.0
 44
0.0
 50
0.0
 51
0.0
 71
     0
 72
  2000
 73
     1
 74
     3
 75
     0
 76
     0
 77
     0
 78
     0
281
     0
 65
     1
110
0.0
120
0.0
130
0.0
111
1.0
121
0.0
131
0.0
112
0.0
122
1.0
132
0.0
 79
     0
146
0.0
  0
ENDTAB
  0
TABLE
  2
LTYPE
  5
5
330
0
100
AcDbSymbolTable
 70
     6
  0
LTYPE
  5
14
330
5
100
AcDbSymbolTableRecord
100
AcDbLinetypeTableRecord
  2
ByBlock
 70
     0
  3

 72
    65
 73
     0
 40
0.0
  0
LTYPE
  5
15
330
5
100
AcDbSymbolTableRecord
100
AcDbLinetypeTableRecord
  2
ByLayer
 70
     0
  3

 72
    65
 73
     0
 40
0.0
  0
LTYPE
  5
16
330
5
100
AcDbSymbolTableRecord
100
AcDbLinetypeTableRecord
  2
Continuous
 70
     0
  3
Solid line
 72
    65
 73
     0
 40
0.0
  0
LTYPE
  5
5E
330
5
100
AcDbSymbolTableRecord
100
AcDbLinetypeTableRecord
  2
HIDDEN
 70
     0
  3
Hidden __ __ __ __ __ __ __ __ __ __ __ __ __ __
 72
    65
 73
     2
 40
1.905
 49
1.27
 74
     0
 49
-0.635
 74
     0
  0
LTYPE
  5
5F
330
5
100
AcDbSymbolTableRecord
100
AcDbLinetypeTableRecord
  2
PHANTOM
 70
     0
  3
Phantom ______  __  __  ______  __  __  ______
 72
    65
 73
     6
 40
12.7
 49
6.35
 74
     0
 49
-1.27
 74
     0
 49
1.27
 74
     0
 49
-1.27
 74
     0
 49
1.27
 74
     0
 49
-1.27
 74
     0
  0
LTYPE
  5
60
330
5
100
AcDbSymbolTableRecord
100
AcDbLinetypeTableRecord
  2
CENTER
 70
     0
  3
Center ____ _ ____ _ ____ _ ____ _ ____ _ ____
 72
    65
 73
     4
 40
10.16
 49
6.35
 74
     0
 49
-1.27
 74
     0
 49
1.27
 74
     0
 49
-1.27
 74
     0
  0
LTYPE
  5
61
330
5
100
AcDbSymbolTableRecord
100
AcDbLinetypeTableRecord
  2
CENTERX2
 70
     0
  3
Center (2x) ________  __  ________  __  _____
 72
    65
 73
     4
 40
20.32
 49
12.7
 74
     0
 49
-2.54
 74
     0
 49
2.54
 74
     0
 49
-2.54
 74
     0
  0
LTYPE
  5
62
330
5
100
AcDbSymbolTableRecord
100
AcDbLinetypeTableRecord
  2
DOT2
 70
     0
  3
Dot (.5x) ........................................
 72
    65
 73
     2
 40
0.635
 49
0.0
 74
     0
 49
-0.635
 74
     0
  0
ENDTAB
  0
TABLE
  2
LAYER
  5
2
330
0
100
AcDbSymbolTable
 70
     1
  0
LAYER
  5
10
330
2
100
AcDbSymbolTableRecord
100
AcDbLayerTableRecord
  2
0
 70
     0
 62
     7
  6
Continuous
370
    -3
390
F
  0
ENDTAB
  0
TABLE
  2
STYLE
  5
3
330
0
100
AcDbSymbolTable
 70
     3
  0
STYLE
  5
11
330
3
100
AcDbSymbolTableRecord
100
AcDbTextStyleTableRecord
  2
Standard
 70
     0
 40
0.0
 41
1.0
 50
0.0
 71
     0
 42
10.0
  3
txt
  4

  0
STYLE
  5
66
330
3
100
AcDbSymbolTableRecord
100
AcDbTextStyleTableRecord
  2
SLDTEXTSTYLE0
 70
     0
 40
0.0
 41
0.96
 50
0.0
 71
     0
 42
10.0
  3
ISOCP3
  4

  0
STYLE
  5
7D
330
3
100
AcDbSymbolTableRecord
100
AcDbTextStyleTableRecord
  2
SLDTEXTSTYLE1
 70
     0
 40
0.0
 41
0.605
 50
0.0
 71
     0
 42
10.0
  3
TXT
  4

  0
ENDTAB
  0
TABLE
  2
VIEW
  5
6
330
0
100
AcDbSymbolTable
 70
     0
  0
ENDTAB
  0
TABLE
  2
UCS
  5
7
330
0
100
AcDbSymbolTable
 70
     0
  0
ENDTAB
  0
TABLE
  2
APPID
  5
9
330
0
100
AcDbSymbolTable
 70
     1
  0
APPID
  5
12
330
9
100
AcDbSymbolTableRecord
100
AcDbRegAppTableRecord
  2
ACAD
 70
     0
  0
ENDTAB
  0
TABLE
  2
DIMSTYLE
  5
A
330
0
100
AcDbSymbolTable
 70
     2
100
AcDbDimStyleTable
  0
DIMSTYLE
105
27
330
A
100
AcDbSymbolTableRecord
100
AcDbDimStyleTableRecord
  2
ISO-25
 70
     0
 41
2.5
 42
0.625
 43
3.75
 44
1.25
 73
     0
 74
     0
 77
     1
 78
     8
140
2.5
141
2.5
143
0.0393700787
147
0.625
171
     3
172
     1
178
     0
271
     2
272
     2
274
     3
278
    44
283
     0
284
     8
340
11
  0
DIMSTYLE
105
67
102
{ACAD_REACTORS
330
65
330
72
102
}
330
A
100
AcDbSymbolTableRecord
100
AcDbDimStyleTableRecord
  2
SLDDIMSTYLE0
 70
     0
 41
2.5
 44
0.0
 45
0.000000001
 73
     0
 74
     0
 77
     1
 78
    12
 79
     3
140
6.0
147
1.5
173
     1
178
     0
271
     2
272
     2
276
     2
284
    12
340
66
  0
ENDTAB
  0
TABLE
  2
BLOCK_RECORD
  5
1
330
0
100
AcDbSymbolTable
 70
     3
  0
BLOCK_RECORD
  5
1F
330
1
100
AcDbSymbolTableRecord
100
AcDbBlockTableRecord
  2
*Model_Space
340
22
  0
BLOCK_RECORD
  5
1B
330
1
100
AcDbSymbolTableRecord
100
AcDbBlockTableRecord
  2
*Paper_Space
340
1E
  0
BLOCK_RECORD
  5
23
330
1
100
AcDbSymbolTableRecord
100
AcDbBlockTableRecord
  2
*Paper_Space0
340
26
  0
BLOCK_RECORD
  5
68
330
1
100
AcDbSymbolTableRecord
100
AcDbBlockTableRecord
  2
_D
340
0
  0
BLOCK_RECORD
  5
73
330
1
100
AcDbSymbolTableRecord
100
AcDbBlockTableRecord
  2
_D_1
340
0
  0
ENDTAB
  0
ENDSEC
  0
SECTION
  2
BLOCKS
  0
BLOCK
  5
20
330
1F
100
AcDbEntity
  8
0
100
AcDbBlockBegin
  2
*Model_Space
 70
     0
 10
0.0
 20
0.0
 30
0.0
  3
*Model_Space
  1

  0
ENDBLK
  5
21
330
1F
100
AcDbEntity
  8
0
100
AcDbBlockEnd
  0
BLOCK
  5
1C
330
1B
100
AcDbEntity
 67
     1
  8
0
100
AcDbBlockBegin
  2
*Paper_Space
 70
     0
 10
0.0
 20
0.0
 30
0.0
  3
*Paper_Space
  1

  0
ENDBLK
  5
1D
330
1B
100
AcDbEntity
 67
     1
  8
0
100
AcDbBlockEnd
  0
BLOCK
  5
24
330
23
100
AcDbEntity
  8
0
100
AcDbBlockBegin
  2
*Paper_Space0
 70
     0
 10
0.0
 20
0.0
 30
0.0
  3
*Paper_Space0
  1

  0
ENDBLK
  5
25
330
23
100
AcDbEntity
  8
0
100
AcDbBlockEnd
  0
BLOCK
  5
69
330
68
100
AcDbEntity
  8
0
100
AcDbBlockBegin
  2
_D
 70
     0
 10
0.0
 20
0.0
 30
0.0
  3
_D
  1

  0
SOLID
  5
6B
330
68
100
AcDbEntity
  8
0
  6
Continuous
 62
     7
370
    18
100
AcDbTrace
 10
42.7614395004
 20
152.0299240879
 30
0.0
 11
42.4614395004
 21
149.5299240879
 31
0.0
 12
43.0614395004
 22
149.5299240879
 32
0.0
 13
43.0614395004
 23
149.5299240879
 33
0.0
  0
SOLID
  5
6C
330
68
100
AcDbEntity
  8
0
  6
Continuous
 62
     7
370
    18
100
AcDbTrace
 10
42.7614395004
 20
52.0299240879
 30
0.0
 11
43.0614395004
 21
54.5299240879
 31
0.0
 12
42.4614395004
 22
54.5299240879
 32
0.0
 13
42.4614395004
 23
54.5299240879
 33
0.0
  0
LINE
  5
6D
330
68
100
AcDbEntity
  8
0
  6
Continuous
 62
     7
370
     0
100
AcDbLine
 10
56.6850079902
 20
152.0299240879
 30
0.0
 11
41.7614395004
 21
152.0299240879
 31
0.0
  0
LINE
  5
6E
330
68
100
AcDbEntity
  8
0
  6
Continuous
 62
     7
370
     0
100
AcDbLine
 10
56.6850079902
 20
52.0299240879
 30
0.0
 11
41.7614395004
 21
52.0299240879
 31
0.0
  0
LINE
  5
6F
330
68
100
AcDbEntity
  8
0
  6
Continuous
 62
     7
370
     0
100
AcDbLine
 10
42.7614395004
 20
152.0299240879
 30
0.0
 11
42.7614395004
 21
52.0299240879
 31
0.0
  0
MTEXT
  5
70
330
68
100
AcDbEntity
  8
0
  6
Continuous
 62
     7
370
    18
100
AcDbMText
 10
35.0270332946
 20
94.3680541463
 30
0.0
 40
6.0
 41
0.0
 71
     1
 72
     1
  1
100
  7
SLDTEXTSTYLE0
 11
-7.044195017643634E-15
 21
1.0
 31
0.0
 73
     1
 44
1.0
  0
MTEXT
  5
71
330
68
100
AcDbEntity
  8
0
  6
Continuous
 62
     7
370
    18
100
AcDbMText
 10
35.0270332946
 20
105.7430548466
 30
0.0
 40
6.0
 41
0.0
 71
     1
 72
     1
  1
mm
  7
SLDTEXTSTYLE0
 11
-7.044195017643634E-15
 21
1.0
 31
0.0
 73
     1
 44
1.0
  0
ENDBLK
  5
6A
330
68
100
AcDbEntity
  8
0
100
AcDbBlockEnd
  0
BLOCK
  5
74
330
73
100
AcDbEntity
  8
0
100
AcDbBlockBegin
  2
_D_1
 70
     0
 10
0.0
 20
0.0
 30
0.0
  3
_D_1
  1

  0
SOLID
  5
76
330
73
100
AcDbEntity
  8
0
  6
Continuous
 62
     7
370
    18
100
AcDbTrace
 10
56.6850079902
 20
38.4602342313
 30
0.0
 11
59.1850079902
 21
38.1602342313
 31
0.0
 12
59.1850079902
 22
38.7602342313
 32
0.0
 13
59.1850079902
 23
38.7602342313
 33
0.0
  0
SOLID
  5
77
330
73
100
AcDbEntity
  8
0
  6
Continuous
 62
     7
370
    18
100
AcDbTrace
 10
156.6850079902
 20
38.4602342313
 30
0.0
 11
154.1850079902
 21
38.7602342313
 31
0.0
 12
154.1850079902
 22
38.1602342313
 32
0.0
 13
154.1850079902
 23
38.1602342313
 33
0.0
  0
LINE
  5
78
330
73
100
AcDbEntity
  8
0
  6
Continuous
 62
     7
370
     0
100
AcDbLine
 10
56.6850079902
 20
52.0299240879
 30
0.0
 11
56.6850079902
 21
37.4602342313
 31
0.0
  0
LINE
  5
79
330
73
100
AcDbEntity
  8
0
  6
Continuous
 62
     7
370
     0
100
AcDbLine
 10
156.6850079902
 20
52.0299240879
 30
0.0
 11
156.6850079902
 21
37.4602342313
 31
0.0
  0
LINE
  5
7A
330
73
100
AcDbEntity
  8
0
  6
Continuous
 62
     7
370
     0
100
AcDbLine
 10
56.6850079902
 20
38.4602342313
 30
0.0
 11
156.6850079902
 21
38.4602342313
 31
0.0
  0
MTEXT
  5
7B
330
73
100
AcDbEntity
  8
0
  6
Continuous
 62
     7
370
    18
100
AcDbMText
 10
93.9626484861
 20
46.1946404371
 30
0.0
 40
6.0
 41
0.0
 71
     1
 72
     1
  1
100
  7
SLDTEXTSTYLE0
 73
     1
 44
1.0
  0
MTEXT
  5
7C
330
73
100
AcDbEntity
  8
0
  6
Continuous
 62
     7
370
    18
100
AcDbMText
 10
105.3376491864
 20
46.1946404371
 30
0.0
 40
6.0
 41
0.0
 71
     1
 72
     1
  1
mm
  7
SLDTEXTSTYLE0
 73
     1
 44
1.0
  0
ENDBLK
  5
75
330
73
100
AcDbEntity
  8
0
100
AcDbBlockEnd
  0
ENDSEC
  0
SECTION
  2
ENTITIES
  0
LINE
  5
63
330
1F
100
AcDbEntity
  8
0
  6
Continuous
 62
     7
370
    18
100
AcDbLine
 10
56.6850079902
 20
152.0299240879
 30
0.0
 11
56.6850079902
 21
52.0299240879
 31
0.0
  0
LINE
  5
64
330
1F
100
AcDbEntity
  8
0
  6
Continuous
 62
     7
370
    18
100
AcDbLine
 10
56.6850079902
 20
52.0299240879
 30
0.0
 11
156.6850079902
 21
52.0299240879
 31
0.0
  0
DIMENSION
  5
65
330
1F
100
AcDbEntity
  8
0
  6
Continuous
 62
     7
370
    18
100
AcDbDimension
  2
_D
 10
42.7614395004
 20
52.0299240879
 30
0.0
 11
42.7614395004
 21
105.4472211621
 31
0.0
 70
   160
  1
<>mm
 71
     2
 42
-1.0
  3
SLDDIMSTYLE0
100
AcDbAlignedDimension
 13
56.6850079902
 23
152.0299240879
 33
0.0
 14
56.6850079902
 24
52.0299240879
 34
0.0
 50
90.0
100
AcDbRotatedDimension
  0
DIMENSION
  5
72
330
1F
100
AcDbEntity
  8
0
  6
Continuous
 62
     7
370
    18
100
AcDbDimension
  2
_D_1
 10
156.6850079902
 20
38.4602342313
 30
0.0
 11
105.0418155019
 21
38.4602342313
 31
0.0
 70
   160
  1
<>mm
 71
     2
 42
-1.0
  3
SLDDIMSTYLE0
100
AcDbAlignedDimension
 13
56.6850079902
 23
52.0299240879
 33
0.0
 14
156.6850079902
 24
52.0299240879
 34
0.0
100
AcDbRotatedDimension
  0
MTEXT
  5
7E
330
1F
100
AcDbEntity
  8
0
  6
Continuous
 62
     7
370
     0
100
AcDbMText
 10
412.8252631579
 20
48.4342449499
 30
0.0
 40
10.0
 41
0.0
 71
     1
 72
     1
  1
KLUDI GmbH & Co KG
  7
SLDTEXTSTYLE1
 73
     1
 44
1.0
  0
MTEXT
  5
7F
330
1F
100
AcDbEntity
  8
0
  6
Continuous
 62
     7
370
     0
100
AcDbMText
 10
210.0873490389
 20
48.4342449499
 30
0.0
 40
10.0
 41
0.0
 71
     1
 72
     1
  1
42 027 .. 75
  7
SLDTEXTSTYLE1
 73
     1
 44
1.0
  0
LINE
  5
80
330
1F
100
AcDbEntity
  8
0
  6
Continuous
 62
     7
370
    25
100
AcDbLine
 10
162.6697068166
 20
590.2947300641
 30
0.0
 11
162.6697068166
 21
628.6419853677
 31
0.0
  0
LINE
  5
81
330
1F
100
AcDbEntity
  8
0
  6
Continuous
 62
     7
370
    25
100
AcDbLine
 10
140.6697068166
 20
628.6419853677
 30
0.0
 11
140.6697068166
 21
590.2947300641
 31
0.0
  0
ARC
  5
82
330
1F
100
AcDbEntity
  8
0
  6
Continuous
 62
     7
370
    25
100
AcDbCircle
 10
151.6697068166
 20
688.831180133
 30
0.0
 40
11.00000000000003
100
AcDbArc
 50
0.0
 51
180.0
  0
LINE
  5
83
330
1F
100
AcDbEntity
  8
0
  6
Continuous
 62
     7
370
    25
100
AcDbLine
 10
162.6697068166
 20
628.6419853677
 30
0.0
 11
162.6697068166
 21
688.831180133
 31
0.0
  0
LINE
  5
84
330
1F
100
AcDbEntity
  8
0
  6
Continuous
 62
     7
370
    25
100
AcDbLine
 10
140.6697068166
 20
688.831180133
 30
0.0
 11
140.6697068166
 21
628.6419853677
 31
0.0
  0
SPLINE
  5
85
330
1F
100
AcDbEntity
  8
0
  6
Continuous
 62
     7
370
    25
100
AcDbSpline
210
0.0
220
0.0
230
1.0
 70
     8
 71
     3
 72
    17
 73
    13
 74
     0
 42
0.00000001
 43
0.00000001
 40
0.0
 40
0.0
 40
0.0
 40
0.0
 40
0.2032118078561199
 40
0.3639000142541594
 40
0.4809871171780855
 40
0.5810873477883215
 40
0.6777963380782338
 40
0.7248275753874607
 40
0.748857240041723
 40
0.7752621649510709
 40
0.9214938921456928
 40
1.0
 40
1.0
 40
1.0
 40
1.0
 10
169.7049888170888
 20
471.2269751112136
 30
0.0
 10
169.7508939723349
 20
472.4130395151973
 30
0.0
 10
169.8330982833176
 20
474.5369754127689
 30
0.0
 10
170.8287285511659
 20
477.1449877787533
 30
0.0
 10
172.2896440749698
 20
478.8538111615193
 30
0.0
 10
173.8540181481784
 20
479.8532153229366
 30
0.0
 10
175.1389814684067
 20
480.3514352378307
 30
0.0
 10
175.979194013148
 20
480.6029962004056
 30
0.0
 10
176.5165343608855
 20
480.7325515697643
 30
0.0
 10
177.6585278117005
 20
480.9450844303659
 30
0.0
 10
179.1133817804157
 20
481.0374898319708
 30
0.0
 10
180.2617805994527
 20
481.000436645435
 30
0.0
 10
180.6629427870632
 20
480.9874931129947
 30
0.0
  0
SPLINE
  5
86
330
1F
100
AcDbEntity
  8
0
  6
Continuous
 62
     7
370
    25
100
AcDbSpline
210
0.0
220
0.0
230
1.0
 70
     8
 71
     3
 72
    19
 73
    15
 74
     0
 42
0.00000001
 43
0.00000001
 40
0.0
 40
0.0
 40
0.0
 40
0.0
 40
0.0804939636286928
 40
0.1615655885361232
 40
0.2244524191978328
 40
0.2506568877063667
 40
0.3343242449072383
 40
0.420195785157147
 40
0.5212729938241175
 40
0.6394608477731758
 40
0.7142400970297095
 40
0.8027112727957716
 40
0.9080262866068242
 40
1.0
 40
1.0
 40
1.0
 40
1.0
 10
180.6618989335656
 20
516.9963960988433
 30
0.0
 10
180.2494136237576
 20
516.9928006232025
 30
0.0
 10
179.4214828220261
 20
516.9855838691532
 30
0.0
 10
178.1965430081297
 20
517.0357951284612
 30
0.0
 10
177.2211294467704
 20
517.1425622328895
 30
0.0
 10
176.2235011226724
 20
517.3287600674222
 30
0.0
 10
175.2555131167779
 20
517.6136382646574
 30
0.0
 10
173.8513766289272
 20
518.1646992784401
 30
0.0
 10
172.3365957589739
 20
519.1167499193718
 30
0.0
 10
171.1905178357375
 20
520.4263606719563
 30
0.0
 10
170.4645838785329
 20
521.8499840637313
 30
0.0
 10
170.0038938617903
 20
523.3084961621503
 30
0.0
 10
169.7286693608168
 20
524.9240805509808
 30
0.0
 10
169.7028322925402
 20
526.0620751056783
 30
0.0
 10
169.6907873513707
 20
526.5925949508817
 30
0.0
  0
SPLINE
  5
87
330
1F
100
AcDbEntity
  8
0
  6
Continuous
 62
     7
370
    25
100
AcDbSpline
210
0.0
220
0.0
230
1.0
 70
     8
 71
     3
 72
     9
 73
     5
 74
     0
 42
0.00000001
 43
0.00000001
 40
0.0
 40
0.0
 40
0.0
 40
0.0
 40
0.4991175039710833
 40
1.0
 40
1.0
 40
1.0
 40
1.0
 10
185.1749795305677
 20
481.012577588866
 30
0.0
 10
185.2376466376842
 20
481.0153930998142
 30
0.0
 10
185.3632024569411
 20
481.0210340779922
 30
0.0
 10
185.4735263987581
 20
481.1080614354329
 30
0.0
 10
185.5287857301072
 20
481.1516519154507
 30
0.0
  0
SPLINE
  5
88
330
1F
100
AcDbEntity
  8
0
  6
Continuous
 62
     7
370
    25
100
AcDbSpline
210
0.0
220
0.0
230
1.0
 70
     8
 71
     3
 72
     9
 73
     5
 74
     0
 42
0.00000001
 43
0.00000001
 40
0.0
 40
0.0
 40
0.0
 40
0.0
 40
0.5008834698545137
 40
0.9999999999999999
 40
0.9999999999999999
 40
0.9999999999999999
 40
0.9999999999999999
 10
185.5286287033844
 20
516.8584098986184
 30
0.0
 10
185.473385308588
 20
516.901955544892
 30
0.0
 10
185.3630933981514
 20
516.9888932238018
 30
0.0
 10
185.2376102460408
 20
516.9945200575172
 30
0.0
 10
185.1749795305677
 20
516.997328503237
 30
0.0
  0
SPLINE
  5
89
330
1F
100
AcDbEntity
  8
0
  6
Continuous
 62
     7
370
    25
100
AcDbSpline
210
0.0
220
0.0
230
1.0
 70
     8
 71
     3
 72
     9
 73
     5
 74
     0
 42
0.00000001
 43
0.00000001
 40
0.0
 40
0.0
 40
0.0
 40
0.0
 40
0.4967293662180696
 40
1.0
 40
1.0
 40
1.0
 40
1.0
 10
219.8101921898291
 20
570.935680106704
 30
0.0
 10
219.7420376719351
 20
570.9573258613499
 30
0.0
 10
219.6048311314543
 20
571.0009024165488
 30
0.0
 10
219.4720071595129
 20
570.9696358265355
 30
0.0
 10
219.4051607549725
 20
570.9539002699632
 30
0.0
  0
LINE
  5
8A
330
1F
100
AcDbEntity
  8
0
  6
Continuous
 62
     7
370
    25
100
AcDbLine
 10
220.4749795306
 20
481.7007268903
 30
0.0
 11
220.4749795306
 21
570.0049523162
 31
0.0
  0
LINE
  5
8B
330
1F
100
AcDbEntity
  8
0
  6
Continuous
 62
     7
370
    25
100
AcDbLine
 10
185.6749795306
 20
482.5549523162
 30
0.0
 11
186.0378011673
 21
482.5739669925
 31
0.0
  0
LINE
  5
8C
330
1F
100
AcDbEntity
  8
0
  6
Continuous
 62
     7
370
    25
100
AcDbLine
 10
186.0378011673
 20
515.5359376399
 30
0.0
 11
185.6749795306
 21
515.5549523162
 31
0.0
  0
ARC
  5
8D
330
1F
100
AcDbEntity
  8
0
  6
Continuous
 62
     7
370
    25
100
AcDbCircle
 10
185.9959324023
 20
514.7370340121
 30
0.0
 40
0.8000000000030107
100
AcDbArc
 50
83.471941701
 51
87.0
  0
ARC
  5
8E
330
1F
100
AcDbEntity
  8
0
  6
Continuous
 62
     7
370
    25
100
AcDbCircle
 10
185.9959324023
 20
483.3728706203
 30
0.0
 40
0.8000000000029737
100
AcDbArc
 50
273.0
 51
276.5280582991
  0
ARC
  5
8F
330
1F
100
AcDbEntity
  8
0
  6
Continuous
 62
     7
370
    25
100
AcDbCircle
 10
183.8130889728
 20
502.4483835769
 30
0.0
 40
19.99999999995549
100
AcDbArc
 50
276.5280582991
 51
296.7123529294
  0
ARC
  5
90
330
1F
100
AcDbEntity
  8
0
  6
Continuous
 62
     7
370
    25
100
AcDbCircle
 10
183.8130889728
 20
495.6615210555
 30
0.0
 40
19.99999999995547
100
AcDbArc
 50
77.2981731196
 51
83.4719417009
  0
SPLINE
  5
91
330
1F
100
AcDbEntity
  8
0
  6
Continuous
 62
     7
370
    25
100
AcDbSpline
210
0.0
220
0.0
230
1.0
 70
     8
 71
     3
 72
     9
 73
     5
 74
     0
 42
0.00000001
 43
0.00000001
 40
0.0
 40
0.0
 40
0.0
 40
0.0
 40
0.4297077239287093
 40
1.0
 40
1.0
 40
1.0
 40
1.0
 10
215.5323899151546
 20
569.1443234646763
 30
0.0
 10
215.5116224729445
 20
569.0426757929655
 30
0.0
 10
215.463293245766
 20
568.80612507244
 30
0.0
 10
215.4301043895839
 20
568.5335133963604
 30
0.0
 10
215.4111770412517
 20
568.3780450631252
 30
0.0
  0
LINE
  5
92
330
1F
100
AcDbEntity
  8
0
  6
Continuous
 62
     7
370
    25
100
AcDbLine
 10
215.555804459
 20
569.2669317224
 30
0.0
 11
215.5323899152
 21
569.1443234647
 31
0.0
  0
SPLINE
  5
93
330
1F
100
AcDbEntity
  8
0
  6
Continuous
 62
     7
370
    25
100
AcDbSpline
210
0.0
220
0.0
230
1.0
 70
     8
 71
     3
 72
     9
 73
     5
 74
     0
 42
0.00000001
 43
0.00000001
 40
0.0
 40
0.0
 40
0.0
 40
0.0
 40
0.4785033025814702
 40
1.0
 40
1.0
 40
1.0
 40
1.0
 10
208.6316974319597
 20
517.4759102163769
 30
0.0
 10
208.2288506929988
 20
517.4242806418016
 30
0.0
 10
207.3869615424172
 20
517.3163825890675
 30
0.0
 10
206.5543295689662
 20
517.3049416449966
 30
0.0
 10
206.1201147446464
 20
517.2989752304484
 30
0.0
  0
LINE
  5
94
330
1F
100
AcDbEntity
  8
0
  6
Continuous
 62
     7
370
    25
100
AcDbLine
 10
162.6697068166
 20
535.4049523162
 30
0.0
 11
162.6697068166
 21
590.2947300641
 31
0.0
  0
LINE
  5
95
330
1F
100
AcDbEntity
  8
0
  6
Continuous
 62
     7
370
    25
100
AcDbLine
 10
140.6697068166
 20
590.2947300641
 30
0.0
 11
140.6697068166
 21
535.4049523162
 31
0.0
  0
LINE
  5
96
330
1F
100
AcDbEntity
  8
0
  6
Continuous
 62
     7
370
    25
100
AcDbLine
 10
140.8697068167
 20
535.4049523162
 30
0.0
 11
140.8697068167
 21
535.0049523162
 31
0.0
  0
LINE
  5
97
330
1F
100
AcDbEntity
  8
0
  6
Continuous
 62
     7
370
    25
100
AcDbLine
 10
162.4697068166
 20
535.0049523162
 30
0.0
 11
162.4697068166
 21
535.4049523162
 31
0.0
  0
SPLINE
  5
98
330
1F
100
AcDbEntity
  8
0
  6
Continuous
 62
     7
370
    25
100
AcDbSpline
210
0.0
220
0.0
230
1.0
 70
     8
 71
     3
 72
    13
 73
     9
 74
     0
 42
0.00000001
 43
0.00000001
 40
0.0
 40
0.0
 40
0.0
 40
0.0
 40
0.2390104726245102
 40
0.3678594012634028
 40
0.4995403665237609
 40
0.6312886430047222
 40
0.7603311480574376
 40
1.0
 40
1.0
 40
1.0
 40
1.0
 10
219.4665132277405
 20
480.704988822304
 30
0.0
 10
219.5928621286695
 20
480.7173748808366
 30
0.0
 10
219.7873248672084
 20
480.7364381797199
 30
0.0
 10
220.0220187166516
 20
480.8601582504696
 30
0.0
 10
220.1838532471965
 20
480.9890528105005
 30
0.0
 10
220.3144041319879
 20
481.149685131814
 30
0.0
 10
220.440632417174
 20
481.383608847434
 30
0.0
 10
220.4614484573625
 20
481.578360794546
 30
0.0
 10
220.4749792487507
 20
481.7049529775433
 30
0.0
  0
LINE
  5
99
330
1F
100
AcDbEntity
  8
0
  6
Continuous
 62
     7
370
    25
100
AcDbLine
 10
207.5474975403
 20
480.7049523162
 30
0.0
 11
219.4760494879
 21
480.7049523162
 31
0.0
  0
LINE
  5
9A
330
1F
100
AcDbEntity
  8
0
  6
Continuous
 62
     7
370
    25
100
AcDbLine
 10
195.7445644308
 20
480.7049523162
 30
0.0
 11
199.8246070189
 21
480.7049523162
 31
0.0
  0
LINE
  5
9B
330
1F
100
AcDbEntity
  8
0
  6
Continuous
 62
     7
370
    25
100
AcDbLine
 10
206.2251767437
 20
517.3049523162
 30
0.0
 11
188.6749795306
 21
517.3049523162
 31
0.0
  0
SPLINE
  5
9C
330
1F
100
AcDbEntity
  8
0
  6
Continuous
 62
     7
370
    25
100
AcDbSpline
210
0.0
220
0.0
230
1.0
 70
     8
 71
     3
 72
    20
 73
    16
 74
     0
 42
0.00000001
 43
0.00000001
 40
0.0
 40
0.0
 40
0.0
 40
0.0
 40
0.5271654476910715
 40
0.8489230633857103
 40
0.9071603590136255
 40
0.9137401567792471
 40
0.9161412988377798
 40
0.9180930216728856
 40
0.9197712925381848
 40
0.9214023173504668
 40
0.9231964848487831
 40
0.9252888718807513
 40
0.9373500398586531
 40
0.9549953716608214
 40
0.9999999999999999
 40
0.9999999999999999
 40
0.9999999999999999
 40
0.9999999999999999
 10
195.2853230031995
 20
481.4062346638133
 30
0.0
 10
195.3321755316286
 20
481.2857652054161
 30
0.0
 10
195.4076246949523
 20
481.0917667138326
 30
0.0
 10
195.4473501868092
 20
481.0279475971294
 30
0.0
 10
195.4755405332633
 20
480.9388505853113
 30
0.0
 10
195.5360318653516
 20
480.8694377453885
 30
0.0
 10
195.5524824872259
 20
480.8526777771928
 30
0.0
 10
195.5644940006552
 20
480.8411863365644
 30
0.0
 10
195.5777603468592
 20
480.8293153632106
 30
0.0
 10
195.5918339659762
 20
480.8175849473755
 30
0.0
 10
195.606122157449
 20
480.8064964894142
 30
0.0
 10
195.6426428657617
 20
480.7801735081428
 30
0.0
 10
195.6941547380928
 20
480.751817446265
 30
0.0
 10
195.7925243187198
 20
480.7122912260618
 30
0.0
 10
195.858959797053
 20
480.7080208107677
 30
0.0
 10
195.9066837541662
 20
480.7049531559322
 30
0.0
  0
ARC
  5
9D
330
1F
100
AcDbEntity
  8
0
  6
Continuous
 62
     7
370
    25
100
AcDbCircle
 10
188.6749795306
 20
516.8049523162
 30
0.0
 40
0.5
100
AcDbArc
 50
90.0
 51
180.0
  0
LINE
  5
9E
330
1F
100
AcDbEntity
  8
0
  6
Continuous
 62
     7
370
    25
100
AcDbLine
 10
180.6643853246
 20
517.0049523162
 30
0.0
 11
176.9832427461
 21
517.320063265
 31
0.0
  0
LINE
  5
9F
330
1F
100
AcDbEntity
  8
0
  6
Continuous
 62
     7
370
    25
100
AcDbLine
 10
169.8849146176
 20
524.2271438528
 30
0.0
 11
169.6706384961
 21
527.1371863699
 31
0.0
  0
LINE
  5
A0
330
1F
100
AcDbEntity
  8
0
  6
Continuous
 62
     7
370
    25
100
AcDbLine
 10
169.6697068166
 20
415.3049523162
 30
0.0
 11
169.6697068166
 21
471.0049734474
 31
0.0
  0
LINE
  5
A1
330
1F
100
AcDbEntity
  8
0
  6
Continuous
 62
     7
370
    25
100
AcDbLine
 10
169.6697068166
 20
527.002105492
 30
0.0
 11
169.6697068166
 21
534.5049523162
 31
0.0
  0
ARC
  5
A2
330
1F
100
AcDbEntity
  8
0
  6
Continuous
 62
     7
370
    25
100
AcDbCircle
 10
133.9697068166
 20
415.3049523162
 30
0.0
 40
0.3000000000000114
100
AcDbArc
 50
180.0
 51
270.0
  0
ARC
  5
A3
330
1F
100
AcDbEntity
  8
0
  6
Continuous
 62
     7
370
    25
100
AcDbCircle
 10
169.3697068166
 20
415.3049523162
 30
0.0
 40
0.3000000000000114
100
AcDbArc
 50
270.0
 51
0.0
  0
ARC
  5
A4
330
1F
100
AcDbEntity
  8
0
  6
Continuous
 62
     7
370
    25
100
AcDbCircle
 10
134.1697068166
 20
534.5049523162
 30
0.0
 40
0.5000000000001137
100
AcDbArc
 50
90.0
 51
180.0
  0
LINE
  5
A5
330
1F
100
AcDbEntity
  8
0
  6
Continuous
 62
     7
370
    25
100
AcDbLine
 10
133.6697068166
 20
534.5049523162
 30
0.0
 11
133.6697068166
 21
415.3049523162
 31
0.0
  0
ARC
  5
A6
330
1F
100
AcDbEntity
  8
0
  6
Continuous
 62
     7
370
    25
100
AcDbCircle
 10
169.1697068166
 20
534.5049523162
 30
0.0
 40
0.5000000000001421
100
AcDbArc
 50
0.0
 51
90.0
  0
ARC
  5
A7
330
1F
100
AcDbEntity
  8
0
  6
Continuous
 62
     7
370
    25
100
AcDbCircle
 10
219.4749795306
 20
570.0049523162
 30
0.0
 40
1.0
100
AcDbArc
 50
0.0
 51
90.0
  0
ARC
  5
A8
330
1F
100
AcDbEntity
  8
0
  6
Continuous
 62
     7
370
    25
100
AcDbCircle
 10
199.9749795306
 20
480.7951904118
 30
0.0
 40
0.1999999999999993
100
AcDbArc
 50
211.3074253866
 51
267.20581768
  0
ARC
  5
A9
330
1F
100
AcDbEntity
  8
0
  6
Continuous
 62
     7
370
    25
100
AcDbCircle
 10
207.3749795306
 20
480.7951904118
 30
0.0
 40
0.2000000000000182
100
AcDbArc
 50
272.79418232
 51
327.3917047727
  0
ARC
  5
AA
330
1F
100
AcDbEntity
  8
0
  6
Continuous
 62
     7
370
    25
100
AcDbCircle
 10
203.6749795306
 20
556.6049523162
 30
0.0
 40
76.10000000000998
100
AcDbArc
 50
267.2058176799
 51
272.7941823201
  0
LWPOLYLINE
  5
AB
330
1F
100
AcDbEntity
  8
0
  6
Continuous
 62
     7
370
    25
100
AcDbPolyline
 90
       12
 70
   128
 43
0.0
 10
151.6697068166
 20
593.1417395603
 10
153.6338326594
 20
593.0959869464
 10
155.5348298815
 20
592.9601996315
 10
157.3115988681
 20
592.7387419315
 10
158.907032802
 20
592.4387316791
 10
160.2698531238
 20
592.0698114508
 10
161.3562576671
 20
591.6438386461
 10
162.1313284959
 20
591.1745043816
 10
162.5701541961
 20
590.6768934466
 10
162.6586305486
 20
590.1669994661
 10
162.3939138506
 20
589.6612108521
 10
162.2889380901
 20
589.552143666
  0
LWPOLYLINE
  5
AC
330
1F
100
AcDbEntity
  8
0
  6
Continuous
 62
     7
370
    25
100
AcDbPolyline
 90
       11
 70
   128
 43
0.0
 10
140.9107628416
 20
589.7019765561
 10
140.6807830847
 20
590.1669994661
 10
140.7692594372
 20
590.6768934466
 10
141.2080851374
 20
591.1745043816
 10
141.9831559662
 20
591.6438386461
 10
143.0695605095
 20
592.0698114508
 10
144.4323808313
 20
592.4387316791
 10
146.0278147652
 20
592.7387419315
 10
147.8045837518
 20
592.9601996315
 10
149.7055809739
 20
593.0959869464
 10
151.6697068166
 20
593.1417395603
  0
SPLINE
  5
AD
330
1F
100
AcDbEntity
  8
0
  6
Continuous
 62
     7
370
    25
100
AcDbSpline
210
0.0
220
0.0
230
1.0
 70
     8
 71
     3
 72
    15
 73
    11
 74
     0
 42
0.00000001
 43
0.00000001
 40
0.0
 40
0.0
 40
0.0
 40
0.0
 40
0.1270988810035975
 40
0.2618109353941527
 40
0.4021235013555272
 40
0.5454137012814796
 40
0.6887039012074346
 40
0.8290164671688114
 40
0.9637285215593623
 40
1.0
 40
1.0
 40
1.0
 40
1.0
 10
151.6697068166475
 20
587.2355885335801
 30
0.0
 10
151.0170893835183
 20
587.2445728544519
 30
0.0
 10
149.6727629876214
 20
587.263079653511
 30
0.0
 10
147.6786672337633
 20
587.417160779884
 30
0.0
 10
145.7605749740137
 20
587.6726377459008
 30
0.0
 10
144.0511825582693
 20
588.0329012038661
 30
0.0
 10
142.6544991545834
 20
588.4754817021901
 30
0.0
 10
141.6851309097743
 20
588.9725001279173
 30
0.0
 10
141.1760557031295
 20
589.3702387446589
 30
0.0
 10
141.111133453847
 20
589.5967820437127
 30
0.0
 10
141.0973612155141
 20
589.6448396563462
 30
0.0
  0
SPLINE
  5
AE
330
1F
100
AcDbEntity
  8
0
  6
Continuous
 62
     7
370
    25
100
AcDbSpline
210
0.0
220
0.0
230
1.0
 70
     8
 71
     3
 72
    15
 73
    11
 74
     0
 42
0.00000001
 43
0.00000001
 40
0.0
 40
0.0
 40
0.0
 40
0.0
 40
0.0687829904545648
 40
0.198950515471172
 40
0.3345296180433153
 40
0.4729859036955331
 40
0.6114421893477519
 40
0.7470212919198964
 40
0.8771888169365019
 40
1.0
 40
1.0
 40
1.0
 40
1.0
 10
141.0482924470928
 20
590.226642133835
 30
0.0
 10
141.0715384932556
 20
590.3210997163654
 30
0.0
 10
141.1387762338105
 20
590.5943123901736
 30
0.0
 10
141.6782040676835
 20
591.0376651977376
 30
0.0
 10
142.6564317357876
 20
591.5343501970721
 30
0.0
 10
144.05065972685
 20
591.9770231054035
 30
0.0
 10
145.7607119891501
 20
592.337261729895
 30
0.0
 10
147.6786325634358
 20
592.5927451573332
 30
0.0
 10
149.6727709474085
 20
592.746824679312
 30
0.0
 10
151.0170919848414
 20
592.765331680038
 30
0.0
 10
151.6697068166478
 20
592.7743160988113
 30
0.0
  0
SPLINE
  5
AF
330
1F
100
AcDbEntity
  8
0
  6
Continuous
 62
     7
370
    25
100
AcDbSpline
210
0.0
220
0.0
230
1.0
 70
     8
 71
     3
 72
    15
 73
    11
 74
     0
 42
0.00000001
 43
0.00000001
 40
0.0
 40
0.0
 40
0.0
 40
0.0
 40
0.1216570639756969
 40
0.2506013386214004
 40
0.3849063354787205
 40
0.5220614770648134
 40
0.6592166186509052
 40
0.7935216155082259
 40
0.9224658901539298
 40
1.0
 40
1.0
 40
1.0
 40
1.0
 10
151.6697068166478
 20
592.7743160988113
 30
0.0
 10
152.3223210821783
 20
592.765331658726
 30
0.0
 10
153.66664095314
 20
592.7468246140996
 30
0.0
 10
155.6607886171605
 20
592.5927454413775
 30
0.0
 10
157.5786718176478
 20
592.337260607368
 30
0.0
 10
159.288867720368
 20
591.9770273888163
 30
0.0
 10
160.682561198523
 20
591.5343343639707
 30
0.0
 10
161.6627174533168
 20
591.0377219474314
 30
0.0
 10
162.2114560257788
 20
590.5815711486428
 30
0.0
 10
162.2794046301743
 20
590.2952368253851
 30
0.0
 10
162.3049198170063
 20
590.187716239505
 30
0.0
  0
SPLINE
  5
B0
330
1F
100
AcDbEntity
  8
0
  6
Continuous
 62
     7
370
    25
100
AcDbSpline
210
0.0
220
0.0
230
1.0
 70
     8
 71
     3
 72
    15
 73
    11
 74
     0
 42
0.00000001
 43
0.00000001
 40
0.0
 40
0.0
 40
0.0
 40
0.0
 40
0.0382190711479842
 40
0.1726588868231183
 40
0.3126878960316271
 40
0.4556885217235893
 40
0.5986891474155438
 40
0.7387181566240567
 40
0.8731579722991919
 40
1.0
 40
1.0
 40
1.0
 40
1.0
 10
162.2448984569231
 20
589.6528683238619
 30
0.0
 10
162.230500358836
 20
589.6021223393212
 30
0.0
 10
162.1654553560815
 20
589.3728717338417
 30
0.0
 10
161.6547695611375
 20
588.9724818056739
 30
0.0
 10
160.6847786515607
 20
588.4754868140755
 30
0.0
 10
159.2882678210638
 20
588.0328998209205
 30
0.0
 10
157.5788290294788
 20
587.6726381083206
 30
0.0
 10
155.6607488362583
 20
587.4171606881771
 30
0.0
 10
153.6666500862378
 20
587.2630796745655
 30
0.0
 10
152.3223240669486
 20
587.2445728613327
 30
0.0
 10
151.6697068166475
 20
587.2355885335801
 30
0.0
  0
LINE
  5
B1
330
1F
100
AcDbEntity
  8
0
  6
Continuous
 62
     7
370
    25
100
AcDbLine
 10
175.6697068166
 20
410.2049523162
 30
0.0
 11
175.6697068166
 21
414.0049523162
 31
0.0
  0
LINE
  5
B2
330
1F
100
AcDbEntity
  8
0
  6
Continuous
 62
     7
370
    25
100
AcDbLine
 10
144.6697068166
 20
410.0049523162
 30
0.0
 11
158.6697068166
 21
410.0049523162
 31
0.0
  0
LINE
  5
B3
330
1F
100
AcDbEntity
  8
0
  6
Continuous
 62
     7
370
    25
100
AcDbLine
 10
127.6697068166
 20
414.0049523162
 30
0.0
 11
127.6697068166
 21
410.2049523162
 31
0.0
  0
LINE
  5
B4
330
1F
100
AcDbEntity
  8
0
  6
Continuous
 62
     7
370
    25
100
AcDbLine
 10
158.6697068166
 20
415.0049523162
 30
0.0
 11
144.6697068166
 21
415.0049523162
 31
0.0
  0
SPLINE
  5
B5
330
1F
100
AcDbEntity
  8
0
  6
Continuous
 62
     7
370
    25
100
AcDbSpline
210
0.0
220
0.0
230
1.0
 70
     8
 71
     3
 72
     9
 73
     5
 74
     0
 42
0.00000001
 43
0.00000001
 40
-0.000000000000071
 40
-0.000000000000071
 40
-0.000000000000071
 40
-0.000000000000071
 40
0.500031442366
 40
1.000020961460492
 40
1.000020961460492
 40
1.000020961460492
 40
1.000020961460492
 10
175.6697068166464
 20
410.2049523161957
 30
0.0
 10
175.6697068166473
 20
410.1578088997018
 30
0.0
 10
175.6289745547825
 20
410.0456733743103
 30
0.0
 10
175.5168401121406
 20
410.0049515388271
 30
0.0
 10
175.4697008879308
 20
410.0049523163615
 30
0.0
  0
SPLINE
  5
B6
330
1F
100
AcDbEntity
  8
0
  6
Continuous
 62
     7
370
    25
100
AcDbSpline
210
0.0
220
0.0
230
1.0
 70
    24
 71
     3
 72
    21
 73
    17
 74
     0
 42
0.00000001
 43
0.00000001
 40
0.0
 40
0.0
 40
0.0
 40
0.0
 40
0.0646956823029263
 40
0.1293880259105002
 40
0.1964759860027252
 40
0.2585559068254085
 40
0.3235464358902707
 40
0.3897981532484354
 40
0.5163933008059608
 40
0.6450989432788931
 40
0.7074774598214614
 40
0.7741743200774464
 40
0.8363244202458625
 40
0.9032852937224688
 40
0.967729768929335
 40
0.9999999999999999
 40
0.9999999999999999
 40
0.9999999999999999
 40
0.9999999999999999
 10
158.6697068166476
 20
410.0049523161957
 30
0.0
 10
159.254027575471
 20
410.0049523161957
 30
0.0
 10
160.4226389385706
 20
410.0049523161957
 30
0.0
 10
162.1967614298259
 20
410.0049523161957
 30
0.0
 10
163.9412725625479
 20
410.0049523161957
 30
0.0
 10
165.6707489724079
 20
410.0049523161957
 30
0.0
 10
167.3587381670287
 20
410.0049523161957
 30
0.0
 10
169.5212873135268
 20
410.0049523161957
 30
0.0
 10
171.9667559534701
 20
410.0049523161957
 30
0.0
 10
173.612577039892
 20
410.0049523161957
 30
0.0
 10
174.4843861928377
 20
410.0049523161957
 30
0.0
 10
174.940739639146
 20
410.0049523161957
 30
0.0
 10
175.2431418229696
 20
410.0049523161957
 30
0.0
 10
175.4074282400673
 20
410.0049523161957
 30
0.0
 10
175.4606878817105
 20
410.0049523161957
 30
0.0
 10
175.463164555021
 20
410.0049523161957
 30
0.0
 10
175.4639909321367
 20
410.0049523161957
 30
0.0
  0
SPLINE
  5
B7
330
1F
100
AcDbEntity
  8
0
  6
Continuous
 62
     7
370
    25
100
AcDbSpline
210
0.0
220
0.0
230
1.0
 70
     8
 71
     3
 72
    10
 73
     6
 74
     0
 42
0.00000001
 43
0.00000001
 40
0.0
 40
0.0
 40
0.0
 40
0.0
 40
0.5
 40
0.5
 40
1.0
 40
1.0
 40
1.0
 40
1.0
 10
127.6697068166477
 20
410.2049523161957
 30
0.0
 10
127.6697068166477
 20
410.1525914505158
 30
0.0
 10
127.691262284585
 20
410.1005530382687
 30
0.0
 10
127.7653128285049
 20
410.0265046894409
 30
0.0
 10
127.8173518797109
 20
410.004950764119
 30
0.0
 10
127.8697127453677
 20
410.0049523162835
 30
0.0
  0
SPLINE
  5
B8
330
1F
100
AcDbEntity
  8
0
  6
Continuous
 62
     7
370
    25
100
AcDbSpline
210
0.0
220
0.0
230
1.0
 70
    24
 71
     3
 72
    21
 73
    17
 74
     0
 42
0.00000001
 43
0.00000001
 40
0.0
 40
0.0
 40
0.0
 40
0.0
 40
0.032263255559237
 40
0.0966938004933127
 40
0.1636599795561995
 40
0.2257768775833182
 40
0.2924792163703027
 40
0.3548243750167454
 40
0.4208632114195663
 40
0.4839520060498881
 40
0.6105346159178602
 40
0.7414999909835363
 40
0.8035862763394087
 40
0.8706399402237276
 40
0.9353183010294187
 40
1.0
 40
1.0
 40
1.0
 40
1.0
 10
127.8754227011587
 20
410.0049523161957
 30
0.0
 10
127.8762487897505
 20
410.0049523161957
 30
0.0
 10
127.8787245983475
 20
410.0049523161957
 30
0.0
 10
127.9320023732534
 20
410.0049523161957
 30
0.0
 10
128.0962544187408
 20
410.0049523161957
 30
0.0
 10
128.3988721560785
 20
410.0049523161957
 30
0.0
 10
128.8546155124302
 20
410.0049523161957
 30
0.0
 10
129.5166724783354
 20
410.0049523161957
 30
0.0
 10
130.3878894168663
 20
410.0049523161957
 30
0.0
 10
131.8715369356243
 20
410.0049523161957
 30
0.0
 10
134.3088275293965
 20
410.0049523161957
 30
0.0
 10
137.0820722460282
 20
410.0049523161957
 30
0.0
 10
139.3980881648345
 20
410.0049523161957
 30
0.0
 10
141.1428920520734
 20
410.0049523161957
 30
0.0
 10
142.9167596616034
 20
410.0049523161957
 30
0.0
 10
144.085381046122
 20
410.0049523161957
 30
0.0
 10
144.6697068166477
 20
410.0049523161957
 30
0.0
  0
SPLINE
  5
B9
330
1F
100
AcDbEntity
  8
0
  6
Continuous
 62
     7
370
    25
100
AcDbSpline
210
0.0
220
0.0
230
1.0
 70
    24
 71
     3
 72
    21
 73
    17
 74
     0
 42
0.00000001
 43
0.00000001
 40
-0.0000000000000027
 40
-0.0000000000000027
 40
-0.0000000000000027
 40
-0.0000000000000027
 40
0.0033291836465486
 40
0.0066583672930986
 40
0.0083229591163786
 40
0.0091552550280186
 40
0.0099875509396586
 40
0.0116521427629286
 40
0.0124844386745686
 40
0.0133167345862086
 40
0.0149813264094786
 40
0.0166459182327556
 40
0.0183105100560316
 40
0.0199751018793066
 40
0.0233042855258576
 40
0.0266334691724114
 40
0.0266334691724114
 40
0.0266334691724114
 40
0.0266334691724114
 10
158.6697068166452
 20
415.0049523161919
 30
0.0
 10
159.7865062193318
 20
415.004952316192
 30
0.0
 10
162.0185026330291
 20
415.0049523161919
 30
0.0
 10
164.8019303598685
 20
415.0049523161919
 30
0.0
 10
166.6774243786449
 20
415.0049523161919
 30
0.0
 10
167.7252632101065
 20
415.0049523161919
 30
0.0
 10
168.7587016105259
 20
415.0049523161919
 30
0.0
 10
169.7276363827966
 20
415.0049523161919
 30
0.0
 10
170.6193706244837
 20
415.0049523161919
 30
0.0
 10
171.4542695562964
 20
415.0049523161919
 30
0.0
 10
172.3340927384219
 20
415.0049523161919
 30
0.0
 10
173.1678742274628
 20
415.0049523161919
 30
0.0
 10
173.7718927966602
 20
415.0049523161919
 30
0.0
 10
174.341314683994
 20
415.0049523161919
 30
0.0
 10
174.6625188617805
 20
415.0049523161919
 30
0.0
 10
174.6697068212968
 20
415.004952316192
 30
0.0
 10
174.6697068166477
 20
415.0049523161919
 30
0.0
  0
SPLINE
  5
BA
330
1F
100
AcDbEntity
  8
0
  6
Continuous
 62
     7
370
    25
100
AcDbSpline
210
0.0
220
0.0
230
1.0
 70
     8
 71
     3
 72
    11
 73
     7
 74
     0
 42
0.00000001
 43
0.00000001
 40
-0.0000000000061942
 40
-0.0000000000061942
 40
-0.0000000000061942
 40
-0.0000000000061942
 40
0.2499909503169
 40
0.4999939668779
 40
0.749996983439
 40
0.9999999999999742
 40
0.9999999999999742
 40
0.9999999999999742
 40
0.9999999999999742
 10
174.6697068166477
 20
415.0049523161919
 30
0.0
 10
174.7875537596792
 20
415.0049522656837
 30
0.0
 10
175.0421457341502
 20
414.962241164
 30
0.0
 10
175.3979267067846
 20
414.7331869936804
 30
0.0
 10
175.6269923400044
 20
414.3774041697005
 30
0.0
 10
175.6697068166475
 20
414.1228048684142
 30
0.0
 10
175.6697068166461
 20
414.0049523161957
 30
0.0
  0
SPLINE
  5
BB
330
1F
100
AcDbEntity
  8
0
  6
Continuous
 62
     7
370
    25
100
AcDbSpline
210
0.0
220
0.0
230
1.0
 70
     8
 71
     3
 72
    10
 73
     6
 74
     0
 42
0.00000001
 43
0.00000001
 40
0.0
 40
0.0
 40
0.0
 40
0.0
 40
0.5
 40
0.5
 40
1.0
 40
1.0
 40
1.0
 40
1.0
 10
128.6697068166476
 20
415.0049523161957
 30
0.0
 10
128.4079074288485
 20
415.0049523161957
 30
0.0
 10
128.1477201578844
 20
414.8971792198055
 30
0.0
 10
127.7774799130378
 20
414.526938974959
 30
0.0
 10
127.6697068166477
 20
414.2667517039948
 30
0.0
 10
127.6697068166477
 20
414.0049523161957
 30
0.0
  0
SPLINE
  5
BC
330
1F
100
AcDbEntity
  8
0
  6
Continuous
 62
     7
370
    25
100
AcDbSpline
210
0.0
220
0.0
230
1.0
 70
    24
 71
     3
 72
    21
 73
    17
 74
     0
 42
0.00000001
 43
0.00000001
 40
-0.0000000000000028
 40
-0.0000000000000028
 40
-0.0000000000000028
 40
-0.0000000000000028
 40
0.003329183646551
 40
0.006658367293102
 40
0.008322959116377
 40
0.009987550939653
 40
0.01165214276293
 40
0.0133167345862
 40
0.01414903049784
 40
0.01498132640948
 40
0.01664591823275
 40
0.01747821414439
 40
0.01831051005603
 40
0.01997510187931
 40
0.02330428552586
 40
0.0266334691724112
 40
0.0266334691724112
 40
0.0266334691724112
 40
0.0266334691724112
 10
128.6697068166482
 20
415.0049523161936
 30
0.0
 10
128.669706812
 20
415.0049523161937
 30
0.0
 10
128.6768947715142
 20
415.0049523161936
 30
0.0
 10
128.9980989493064
 20
415.0049523161942
 30
0.0
 10
129.5675208366339
 20
415.0049523161942
 30
0.0
 10
130.1715394058316
 20
415.0049523161942
 30
0.0
 10
131.0053208948742
 20
415.0049523161942
 30
0.0
 10
131.8851440769992
 20
415.0049523161942
 30
0.0
 10
132.7200430088091
 20
415.0049523161942
 30
0.0
 10
133.6117772505007
 20
415.0049523161942
 30
0.0
 10
134.5807120227737
 20
415.0049523161942
 30
0.0
 10
135.6141504231878
 20
415.0049523161942
 30
0.0
 10
136.6619892546549
 20
415.0049523161942
 30
0.0
 10
138.5374832734259
 20
415.0049523161942
 30
0.0
 10
141.3209110002623
 20
415.0049523161936
 30
0.0
 10
143.5529074139634
 20
415.0049523161937
 30
0.0
 10
144.6697068166501
 20
415.0049523161936
 30
0.0
  0
LINE
  5
BD
330
1F
100
AcDbEntity
  8
0
  6
Continuous
 62
     7
370
    25
100
AcDbLine
 10
180.6644563732
 20
481.0310290386
 30
0.0
 11
180.6644106352
 21
481.0049523162
 31
0.0
  0
LINE
  5
BE
330
1F
100
AcDbEntity
  8
0
  6
Continuous
 62
     7
370
    25
100
AcDbLine
 10
180.6644101352
 20
481.0049523162
 30
0.0
 11
180.4103653411
 21
480.9924980425
 31
0.0
  0
SPLINE
  5
BF
330
1F
100
AcDbEntity
  8
0
  6
Continuous
 62
     7
370
    25
100
AcDbSpline
210
0.0
220
0.0
230
1.0
 70
     8
 71
     3
 72
    11
 73
     7
 74
     0
 42
0.00000001
 43
0.00000001
 40
0.0
 40
0.0
 40
0.0
 40
0.0
 40
0.3021189996856684
 40
0.5649259499833633
 40
0.7958236579838375
 40
1.0
 40
1.0
 40
1.0
 40
1.0
 10
180.664385306525
 20
517.0049523162552
 30
0.0
 10
179.7822049824988
 20
517.0244932679836
 30
0.0
 10
178.1326345876358
 20
517.061032481771
 30
0.0
 10
175.8426126558974
 20
517.461169742971
 30
0.0
 10
173.8875113496773
 20
518.1149123760563
 30
0.0
 10
172.8617938324571
 20
518.8728953388562
 30
0.0
 10
172.3804338189148
 20
519.2286099319217
 30
0.0
  0
LINE
  5
C0
330
1F
100
AcDbEntity
  8
0
  6
Continuous
 62
     7
370
    25
100
AcDbLine
 10
169.8120738979
 20
524.7129872585
 30
0.0
 11
169.6909939573
 21
526.5926082479
 31
0.0
  0
SPLINE
  5
C1
330
1F
100
AcDbEntity
  8
0
  6
Continuous
 62
     7
370
    25
100
AcDbSpline
210
0.0
220
0.0
230
1.0
 70
     8
 71
     3
 72
     9
 73
     5
 74
     0
 42
0.00000001
 43
0.00000001
 40
0.0
 40
0.0
 40
0.0
 40
0.0
 40
0.4299859159703751
 40
1.0
 40
1.0
 40
1.0
 40
1.0
 10
180.6618157931221
 20
516.9888661606443
 30
0.0
 10
180.6608772122723
 20
516.9941782740289
 30
0.0
 10
180.6586943946151
 20
517.0065324307283
 30
0.0
 10
180.6623191467307
 20
517.0055259973595
 30
0.0
 10
180.6643853064876
 20
517.0049523161647
 30
0.0
  0
LINE
  5
C2
330
1F
100
AcDbEntity
  8
0
  6
Continuous
 62
     7
370
    25
100
AcDbLine
 10
157.6644525079
 20
535.0049523162
 30
0.0
 11
145.6749611254
 21
535.0049523162
 31
0.0
  0
SPLINE
  5
C3
330
1F
100
AcDbEntity
  8
0
  6
Continuous
 62
     7
370
    25
100
AcDbSpline
210
0.0
220
0.0
230
1.0
 70
     8
 71
     3
 72
    10
 73
     6
 74
     0
 42
0.00000001
 43
0.00000001
 40
0.0
 40
0.0
 40
0.0
 40
0.0
 40
0.5
 40
0.5
 40
1.0
 40
1.0
 40
1.0
 40
1.0
 10
188.1839987125561
 20
505.0137435368877
 30
0.0
 10
188.231421904513
 20
502.9252298469548
 30
0.0
 10
188.4663463872725
 20
500.84086721759
 30
0.0
 10
189.3036581092991
 20
496.7474794647053
 30
0.0
 10
189.9060564777749
 20
494.7383532060741
 30
0.0
 10
190.6825476778173
 20
492.7989636816135
 30
0.0
  0
SPLINE
  5
C4
330
1F
100
AcDbEntity
  8
0
  6
Continuous
 62
     7
370
    25
100
AcDbSpline
210
0.0
220
0.0
230
1.0
 70
    24
 71
     3
 72
     9
 73
     5
 74
     0
 42
0.00000001
 43
0.00000001
 40
0.0
 40
0.0
 40
0.0
 40
0.0
 40
0.4999999999986053
 40
1.0
 40
1.0
 40
1.0
 40
1.0
 10
185.6749795305677
 20
505.0250938176601
 30
0.0
 10
185.6749795305677
 20
503.0183799838401
 30
0.0
 10
185.6749795305677
 20
499.0049523161889
 30
0.0
 10
185.6749795305677
 20
494.9915246485376
 30
0.0
 10
185.6749795305677
 20
492.9848108147063
 30
0.0
  0
SPLINE
  5
C5
330
1F
100
AcDbEntity
  8
0
  6
Continuous
 62
     7
370
    25
100
AcDbSpline
210
0.0
220
0.0
230
1.0
 70
    24
 71
     3
 72
    22
 73
    18
 74
     0
 42
0.00000001
 43
0.00000001
 40
0.0
 40
0.0
 40
0.0
 40
0.0
 40
0.125
 40
0.125
 40
0.25
 40
0.25
 40
0.375
 40
0.375
 40
0.5
 40
0.5
 40
0.625
 40
0.625
 40
0.75
 40
0.75
 40
0.875
 40
0.875
 40
1.0
 40
1.0
 40
1.0
 40
1.0
 10
169.1644348696077
 20
535.0049523162036
 30
0.0
 10
169.1630202517993
 20
535.0049523162037
 30
0.0
 10
169.1586470251312
 20
535.0049523162037
 30
0.0
 10
169.0553133401625
 20
535.0049523162036
 30
0.0
 10
168.9567403861584
 20
535.0049523162036
 30
0.0
 10
168.612484231477
 20
535.0049523162036
 30
0.0
 10
168.3663809319528
 20
535.0049523162036
 30
0.0
 10
167.6740505302105
 20
535.0049523162036
 30
0.0
 10
167.2228587321135
 20
535.0049523162036
 30
0.0
 10
166.1058192096705
 20
535.0049523162036
 30
0.0
 10
165.4421442940428
 20
535.0049523162036
 30
0.0
 10
164.0115005043932
 20
535.0049523162036
 30
0.0
 10
163.246394722429
 20
535.0049523162036
 30
0.0
 10
161.6842866135288
 20
535.0049523162036
 30
0.0
 10
160.8858316394243
 20
535.0049523162036
 30
0.0
 10
159.2815610740862
 20
535.0049523162036
 30
0.0
 10
158.4743522343256
 20
535.0049523162036
 30
0.0
 10
157.6644525078877
 20
535.0049523162036
 30
0.0
  0
SPLINE
  5
C6
330
1F
100
AcDbEntity
  8
0
  6
Continuous
 62
     7
370
    25
100
AcDbSpline
210
0.0
220
0.0
230
1.0
 70
    24
 71
     3
 72
    22
 73
    18
 74
     0
 42
0.00000001
 43
0.00000001
 40
0.0
 40
0.0
 40
0.0
 40
0.0
 40
0.1250000000000001
 40
0.1250000000000001
 40
0.2500000000000002
 40
0.2500000000000002
 40
0.3750000000000003
 40
0.3750000000000003
 40
0.5000000000000004
 40
0.5000000000000004
 40
0.6250000000000003
 40
0.6250000000000003
 40
0.7500000000000002
 40
0.7500000000000002
 40
0.8750000000000001
 40
0.8750000000000001
 40
1.0
 40
1.0
 40
1.0
 40
1.0
 10
145.6749611254077
 20
535.0049523162037
 30
0.0
 10
144.8650597642629
 20
535.0049523162037
 30
0.0
 10
144.0578893510544
 20
535.0049523162037
 30
0.0
 10
142.4535898756913
 20
535.0049523162036
 30
0.0
 10
141.655143400451
 20
535.0049523162036
 30
0.0
 10
140.09309023479
 20
535.0049523162036
 30
0.0
 10
139.3279048036813
 20
535.0049523162036
 30
0.0
 10
137.8973429605365
 20
535.0049523162037
 30
0.0
 10
137.2337481076667
 20
535.0049523162035
 30
0.0
 10
136.1165198759463
 20
535.0049523162038
 30
0.0
 10
135.6653398441912
 20
535.0049523162037
 30
0.0
 10
134.973062838616
 20
535.0049523162037
 30
0.0
 10
134.7269128105931
 20
535.0049523162037
 30
0.0
 10
134.3826823903129
 20
535.0049523162037
 30
0.0
 10
134.2842068078382
 20
535.0049523162037
 30
0.0
 10
134.180738565662
 20
535.0049523162037
 30
0.0
 10
134.1763861308457
 20
535.0049523162036
 30
0.0
 10
134.1749787636911
 20
535.0049523162037
 30
0.0
  0
LINE
  5
C7
330
1F
100
AcDbEntity
  8
0
  6
Continuous
 62
     7
370
    25
100
AcDbLine
 10
185.1749795306
 20
481.0331973508
 30
0.0
 11
185.1749795306
 21
481.0049523162
 31
0.0
  0
LINE
  5
C8
330
1F
100
AcDbEntity
  8
0
  6
Continuous
 62
     7
370
    25
100
AcDbLine
 10
185.1749795306
 20
481.0049523162
 30
0.0
 11
180.6644106352
 21
481.0049523162
 31
0.0
  0
LINE
  5
C9
330
1F
100
AcDbEntity
  8
0
  6
Continuous
 62
     7
370
    25
100
AcDbLine
 10
180.6643853065
 20
517.0049523162
 30
0.0
 11
185.1749795306
 21
517.0049523162
 31
0.0
  0
SPLINE
  5
CA
330
1F
100
AcDbEntity
  8
0
  6
Continuous
 62
     7
370
    25
100
AcDbSpline
210
0.0
220
0.0
230
1.0
 70
    24
 71
     3
 72
    22
 73
    18
 74
     0
 42
0.00000001
 43
0.00000001
 40
0.0
 40
0.0
 40
0.0
 40
0.0
 40
0.125
 40
0.125
 40
0.25
 40
0.25
 40
0.375
 40
0.375
 40
0.5
 40
0.5
 40
0.625
 40
0.625
 40
0.75
 40
0.75
 40
0.875
 40
0.875
 40
1.0
 40
1.0
 40
1.0
 40
1.0
 10
190.7235446207251
 20
492.6970323664741
 30
0.0
 10
190.9913674637531
 20
492.0341475686544
 30
0.0
 10
191.2585260969545
 20
491.3729067478382
 30
0.0
 10
191.7907263137154
 20
490.0556649879478
 30
0.0
 10
192.0559117281851
 20
489.3993080548756
 30
0.0
 10
192.5808192103794
 20
488.1001164464378
 30
0.0
 10
192.8404815198669
 20
487.4574296778959
 30
0.0
 10
193.3451915920983
 20
486.2082284133258
 30
0.0
 10
193.5903520798272
 20
485.6014349131751
 30
0.0
 10
194.0461552117092
 20
484.4732825737061
 30
0.0
 10
194.2562383587002
 20
483.9533085384683
 30
0.0
 10
194.6150410029888
 20
483.0652408306171
 30
0.0
 10
194.7640721190819
 20
482.6963758744253
 30
0.0
 10
195.0005055322281
 20
482.1111826418395
 30
0.0
 10
195.0891549280246
 20
481.8917676877348
 30
0.0
 10
195.2190616396116
 20
481.5702372937213
 30
0.0
 10
195.2603490965519
 20
481.46804725184
 30
0.0
 10
195.2853230032008
 20
481.4062346638076
 30
0.0
  0
SPLINE
  5
CB
330
1F
100
AcDbEntity
  8
0
  6
Continuous
 62
     7
370
    25
100
AcDbSpline
210
0.0
220
0.0
230
1.0
 70
     8
 71
     3
 72
    30
 73
    26
 74
     0
 42
0.00000001
 43
0.00000001
 40
0.0
 40
0.0
 40
0.0
 40
0.0
 40
0.0162791397193577
 40
0.0364320772065181
 40
0.0603723069964959
 40
0.0977108266040691
 40
0.1212480003811758
 40
0.1825965712182868
 40
0.2444304117742923
 40
0.2756448257894835
 40
0.306656400734142
 40
0.3372677005983177
 40
0.3692770466348938
 40
0.4321734745431346
 40
0.4952276556031831
 40
0.558420549671564
 40
0.5900945588950888
 40
0.6217992796113565
 40
0.6851195949372524
 40
0.7484022236127537
 40
0.8114187003938922
 40
0.8745832874050227
 40
0.9373825864590467
 40
0.9623958530170829
 40
1.0
 40
1.0
 40
1.0
 40
1.0
 10
215.3136014089888
 20
524.3808667710184
 30
0.0
 10
215.3129451522367
 20
524.293539948023
 30
0.0
 10
215.3114764753242
 20
524.0981059378471
 30
0.0
 10
215.3065230644323
 20
523.7744790951594
 30
0.0
 10
215.2965703177118
 20
523.3384369275863
 30
0.0
 10
215.2800725016355
 20
522.8846952640502
 30
0.0
 10
215.2454268789259
 20
522.2311385913392
 30
0.0
 10
215.1866790998224
 20
521.445992141786
 30
0.0
 10
215.0881584053124
 20
520.6232372256659
 30
0.0
 10
214.9789929944958
 20
519.9668344304508
 30
0.0
 10
214.8810105339227
 20
519.4786431328885
 30
0.0
 10
214.7624055989674
 20
518.9904586724351
 30
0.0
 10
214.5701959582709
 20
518.3449851923868
 30
0.0
 10
214.2582522375922
 20
517.5538480108678
 30
0.0
 10
213.7268603936589
 20
516.6843361798684
 30
0.0
 10
213.1336763907296
 20
516.077839306569
 30
0.0
 10
212.5843435679068
 20
515.6951448438075
 30
0.0
 10
211.9966142097258
 20
515.377786647775
 30
0.0
 10
211.2091494503553
 20
515.0978693225073
 30
0.0
 10
210.2281441217251
 20
514.9005549002994
 30
0.0
 10
209.2276235240879
 20
514.7913622929011
 30
0.0
 10
208.2186283106117
 20
514.7380367895065
 30
0.0
 10
207.4089085175919
 20
514.7209266640472
 30
0.0
 10
206.7361770194348
 20
514.7163263747547
 30
0.0
 10
206.4002754403264
 20
514.7158991191449
 30
0.0
 10
206.1985537204676
 20
514.7156425358426
 30
0.0
  0
SPLINE
  5
CC
330
1F
100
AcDbEntity
  8
0
  6
Continuous
 62
     7
370
    25
100
AcDbSpline
210
0.0
220
0.0
230
1.0
 70
     8
 71
     3
 72
     8
 73
     4
 74
     0
 42
0.00000001
 43
0.00000001
 40
0.0
 40
0.0
 40
0.0
 40
0.0
 40
1.0
 40
1.0
 40
1.0
 40
1.0
 10
188.183998712554
 20
505.0137435368877
 30
0.0
 10
188.1779861828166
 20
505.2785379018622
 30
0.0
 10
188.1749795305677
 20
505.5434005183541
 30
0.0
 10
188.1749795305677
 20
505.8082631360187
 30
0.0
  0
SPLINE
  5
CD
330
1F
100
AcDbEntity
  8
0
  6
Continuous
 62
     7
370
    25
100
AcDbSpline
210
0.0
220
0.0
230
1.0
 70
     8
 71
     3
 72
     8
 73
     4
 74
     0
 42
0.00000001
 43
0.00000001
 40
0.0
 40
0.0
 40
0.0
 40
0.0
 40
1.0
 40
1.0
 40
1.0
 40
1.0
 10
190.7235446207301
 20
492.6970323664618
 30
0.0
 10
190.7098256562888
 20
492.7309879949929
 30
0.0
 10
190.6961599862084
 20
492.7649651558434
 30
0.0
 10
190.6825476778174
 20
492.7989636816136
 30
0.0
  0
SPLINE
  5
CE
330
1F
100
AcDbEntity
  8
0
  6
Continuous
 62
     7
370
    25
100
AcDbSpline
210
0.0
220
0.0
230
1.0
 70
    24
 71
     3
 72
    23
 73
    19
 74
     0
 42
0.00000001
 43
0.00000001
 40
0.0
 40
0.0
 40
0.0
 40
0.0
 40
0.0316563847980355
 40
0.0632516977733221
 40
0.1262542586108654
 40
0.2516075155039945
 40
0.3140590737519389
 40
0.3762921798994774
 40
0.4395228372987755
 40
0.4999987518604763
 40
0.5617443782221574
 40
0.6237069291508442
 40
0.6859404132762527
 40
0.7483915091666236
 40
0.8737437490275372
 40
0.9367469108259812
 40
0.968342515550948
 40
1.0
 40
1.0
 40
1.0
 40
1.0
 10
185.6749795305677
 20
492.984810814704
 30
0.0
 10
185.6749795305677
 20
492.7825452871043
 30
0.0
 10
185.6749795305677
 20
492.3784044446385
 30
0.0
 10
185.6749795305677
 20
491.5717017578507
 30
0.0
 10
185.6749795305677
 20
490.167342811241
 30
0.0
 10
185.6749795305677
 20
488.5691334958531
 30
0.0
 10
185.6749795305677
 20
487.0245466781192
 30
0.0
 10
185.6749795305677
 20
485.9062697262299
 30
0.0
 10
185.6749795305677
 20
484.8731896546631
 30
0.0
 10
185.6749795305677
 20
483.957773576285
 30
0.0
 10
185.6749795305677
 20
483.2040218116614
 30
0.0
 10
185.6749795305677
 20
482.6101871854588
 30
0.0
 10
185.6749795305677
 20
482.1691051670425
 30
0.0
 10
185.6749795305677
 20
481.7528079972167
 30
0.0
 10
185.6749795305677
 20
481.5592894010471
 30
0.0
 10
185.6749795305677
 20
481.5127793694999
 30
0.0
 10
185.6749795305677
 20
481.5052207003429
 30
0.0
 10
185.6749795305677
 20
481.505041835909
 30
0.0
 10
185.6749795305677
 20
481.5049523162016
 30
0.0
  0
ARC
  5
CF
330
1F
100
AcDbEntity
  8
0
  6
Continuous
 62
     7
370
    25
100
AcDbCircle
 10
185.1749795306
 20
481.5049523162
 30
0.0
 40
0.5000000000065086
100
AcDbArc
 50
315.0509410238
 51
0.0
  0
ARC
  5
D0
330
1F
100
AcDbEntity
  8
0
  6
Continuous
 62
     7
370
    25
100
AcDbCircle
 10
185.1749795306
 20
516.5049523162
 30
0.0
 40
0.5000000000163709
100
AcDbArc
 50
0.0
 51
90.0000000027
  0
SPLINE
  5
D1
330
1F
100
AcDbEntity
  8
0
  6
Continuous
 62
     7
370
    25
100
AcDbSpline
210
0.0
220
0.0
230
1.0
 70
    24
 71
     3
 72
    24
 73
    20
 74
     0
 42
0.00000001
 43
0.00000001
 40
0.0
 40
0.0
 40
0.0
 40
0.0
 40
0.0316546203574007
 40
0.0632475702350407
 40
0.1262439699068742
 40
0.2515843698284059
 40
0.3140304280741966
 40
0.3762584822280831
 40
0.4382147443668716
 40
0.4999532810281114
 40
0.5616929929743587
 40
0.6236496252219798
 40
0.6858772727784083
 40
0.7483229003888758
 40
0.798420211884793
 40
0.873755644153737
 40
0.9367538753531901
 40
0.9683463062511048
 40
1.0
 40
1.0
 40
1.0
 40
1.0
 10
185.6749795305677
 20
516.5049523161838
 30
0.0
 10
185.6749795305677
 20
516.5048648614071
 30
0.0
 10
185.6749795305677
 20
516.5046901222357
 30
0.0
 10
185.6749795305677
 20
516.497110864429
 30
0.0
 10
185.6749795305676
 20
516.4507033184715
 30
0.0
 10
185.6749795305677
 20
516.2570636598826
 30
0.0
 10
185.6749795305677
 20
515.8408173165047
 30
0.0
 10
185.6749795305677
 20
515.3997180734109
 30
0.0
 10
185.6749795305677
 20
514.8058951814396
 30
0.0
 10
185.6749795305677
 20
514.0470445725198
 30
0.0
 10
185.6749795305677
 20
513.1297282118041
 30
0.0
 10
185.6749795305677
 20
512.0961741577112
 30
0.0
 10
185.6749795305677
 20
510.9853961840112
 30
0.0
 10
185.6749795305677
 20
509.9056016960354
 30
0.0
 10
185.6749795305677
 20
508.7232900463695
 30
0.0
 10
185.6749795305677
 20
507.5236374078824
 30
0.0
 10
185.6749795305677
 20
506.4381682459623
 30
0.0
 10
185.6749795305677
 20
505.6315081314568
 30
0.0
 10
185.6749795305677
 20
505.2273624130946
 30
0.0
 10
185.6749795305677
 20
505.0250938176606
 30
0.0
  0
SPLINE
  5
D2
330
1F
100
AcDbEntity
  8
0
  6
Continuous
 62
     7
370
    25
100
AcDbSpline
210
0.0
220
0.0
230
1.0
 70
    24
 71
     3
 72
    22
 73
    18
 74
     0
 42
0.00000001
 43
0.00000001
 40
0.0
 40
0.0
 40
0.0
 40
0.0
 40
0.1250000000000001
 40
0.1250000000000001
 40
0.2500000000000002
 40
0.2500000000000002
 40
0.3750000000000003
 40
0.3750000000000003
 40
0.5000000000000004
 40
0.5000000000000004
 40
0.6250000000000003
 40
0.6250000000000003
 40
0.7500000000000002
 40
0.7500000000000002
 40
0.8750000000000001
 40
0.8750000000000001
 40
1.0
 40
1.0
 40
1.0
 40
1.0
 10
188.1749795305677
 20
516.4163666718761
 30
0.0
 10
188.1749795305677
 20
516.3596433260858
 30
0.0
 10
188.1749795305677
 20
516.2689499149438
 30
0.0
 10
188.1749795305677
 20
515.9902651628591
 30
0.0
 10
188.1749795305676
 20
515.8020318418991
 30
0.0
 10
188.1749795305677
 20
515.3012911086735
 30
0.0
 10
188.1749795305677
 20
514.9864867937238
 30
0.0
 10
188.1749795305677
 20
514.2117228528557
 30
0.0
 10
188.1749795305677
 20
513.7502106542318
 30
0.0
 10
188.1749795305677
 20
512.7139746607642
 30
0.0
 10
188.1749795305677
 20
512.1429764606298
 30
0.0
 10
188.1749795305677
 20
510.9476326368156
 30
0.0
 10
188.1749795305677
 20
510.3242102194479
 30
0.0
 10
188.1749795305677
 20
509.0562304612949
 30
0.0
 10
188.1749795305677
 20
508.4112402073977
 30
0.0
 10
188.1749795305677
 20
507.1145780106493
 30
0.0
 10
188.1749795305677
 20
506.4624096033645
 30
0.0
 10
188.1749795305677
 20
505.8082631360184
 30
0.0
  0
SPLINE
  5
D3
330
1F
100
AcDbEntity
  8
0
  6
Continuous
 62
     7
370
    25
100
AcDbSpline
210
0.0
220
0.0
230
1.0
 70
     8
 71
     3
 72
    13
 73
     9
 74
     0
 42
0.00000001
 43
0.00000001
 40
0.0
 40
0.0
 40
0.0
 40
0.0
 40
0.2800968726326825
 40
0.4201108601863258
 40
0.5596661183595593
 40
0.6992124292158007
 40
0.8392043290488668
 40
1.0
 40
1.0
 40
1.0
 40
1.0
 10
215.4952545974309
 20
559.0737374289058
 30
0.0
 10
215.5027770184913
 20
560.5104011361504
 30
0.0
 10
215.5140597249088
 20
562.6652200035518
 30
0.0
 10
215.5285137784726
 20
565.4257155762147
 30
0.0
 10
215.5381683794155
 20
567.269591287787
 30
0.0
 10
215.5442759559296
 20
568.436041301559
 30
0.0
 10
215.5477477204912
 20
569.0990928543471
 30
0.0
 10
215.5478936969822
 20
569.1269719344494
 30
0.0
 10
215.5479717334109
 20
569.1418755934634
 30
0.0
  0
SPLINE
  5
D4
330
1F
100
AcDbEntity
  8
0
  6
Continuous
 62
     7
370
    25
100
AcDbSpline
210
0.0
220
0.0
230
1.0
 70
     8
 71
     3
 72
    16
 73
    12
 74
     0
 42
0.00000001
 43
0.00000001
 40
0.0
 40
0.0
 40
0.0
 40
0.0
 40
0.2500000000000091
 40
0.2500000000000091
 40
0.3750000000000041
 40
0.3750000000000041
 40
0.4999999999999992
 40
0.4999999999999992
 40
0.7499999999999996
 40
0.7499999999999996
 40
1.0
 40
1.0
 40
1.0
 40
1.0
 10
215.5486217502483
 20
569.2651633486945
 30
0.0
 10
215.6191896863418
 20
569.5736628430428
 30
0.0
 10
215.7371253551552
 20
569.865963695214
 30
0.0
 10
215.99553530361
 20
570.2346773894934
 30
0.0
 10
216.0955533003444
 20
570.3456566158318
 30
0.0
 10
216.3230251121155
 20
570.5382595213745
 30
0.0
 10
216.4497939455302
 20
570.6205717781789
 30
0.0
 10
216.857848188869
 20
570.8282013964762
 30
0.0
 10
217.1661984794521
 20
570.9124657928659
 30
0.0
 10
217.7997464874436
 20
570.9990373501698
 30
0.0
 10
218.126355372373
 20
571.0049523161917
 30
0.0
 10
218.4420584702777
 20
571.0049523161997
 30
0.0
  0
LINE
  5
D5
330
1F
100
AcDbEntity
  8
0
  6
Continuous
 62
     7
370
    25
100
AcDbLine
 10
218.4420584703
 20
571.0049523162
 30
0.0
 11
219.444500163
 21
571.0049523162
 31
0.0
  0
LINE
  5
D6
330
1F
100
AcDbEntity
  8
0
  6
Continuous
 62
     7
370
    25
100
AcDbLine
 10
192.8044595587
 20
484.5832415523
 30
0.0
 11
193.7558325071
 21
485.1918564831
 31
0.0
  0
LWPOLYLINE
  5
D7
330
1F
100
AcDbEntity
  8
0
  6
Continuous
 62
     7
370
    25
100
AcDbPolyline
 90
       12
 70
   128
 43
0.0
 10
214.9635508504
 20
524.3809527946
 10
214.974582501
 20
526.4733617485
 10
214.9823952882
 20
527.9704787497
 10
214.9845799582
 20
528.3883024688
 10
214.9852378205
 20
528.5139848124
 10
215.0079754291
 20
532.8565113943
 10
215.0080830759
 20
532.8770702203
 10
215.0089097746
 20
533.0349566089
 10
215.0111893413
 20
533.4703178039
 10
215.0198075419
 20
535.1162578109
 10
215.053531608
 20
541.5570209935
 10
215.1452503143
 20
559.0738432342
  0
SPLINE
  5
D8
330
1F
100
AcDbEntity
  8
0
  6
Continuous
 62
     7
370
    25
100
AcDbSpline
210
0.0
220
0.0
230
1.0
 70
     8
 71
     3
 72
    14
 73
    10
 74
     0
 42
0.00000001
 43
0.00000001
 40
0.0
 40
0.0
 40
0.0
 40
0.0
 40
0.25
 40
0.25
 40
0.5
 40
0.5
 40
0.75
 40
0.75
 40
1.0
 40
1.0
 40
1.0
 40
1.0
 10
206.2219804795576
 20
517.3049523161966
 30
0.0
 10
207.6403976703589
 20
517.304952316184
 30
0.0
 10
208.8839384632707
 20
517.4588940992437
 30
0.0
 10
211.0303241557417
 20
518.055088593759
 30
0.0
 10
211.934028877106
 20
518.4970439343499
 30
0.0
 10
213.4047511342886
 20
519.6667925231468
 30
0.0
 10
213.9720454670875
 20
520.3948123167205
 30
0.0
 10
214.7485529119232
 20
522.1539755668648
 30
0.0
 10
214.9573394346151
 20
523.185836548494
 30
0.0
 10
214.9635971037156
 20
524.3809525466957
 30
0.0
  0
LINE
  5
D9
330
1F
100
AcDbEntity
  8
0
  6
Continuous
 62
     7
370
    25
100
AcDbLine
 10
140.6697068166
 20
535.4049523162
 30
0.0
 11
162.6697068166
 21
535.4049523162
 31
0.0
  0
SPLINE
  5
DA
330
1F
100
AcDbEntity
  8
0
  6
Continuous
 62
     7
370
    25
100
AcDbSpline
210
0.0
220
0.0
230
1.0
 70
     8
 71
     3
 72
    18
 73
    14
 74
     0
 42
0.00000001
 43
0.00000001
 40
0.0
 40
0.0
 40
0.0
 40
0.0
 40
0.016381650511509
 40
0.1251990334589348
 40
0.2337869148644691
 40
0.3410351635451457
 40
0.4475842205600239
 40
0.5544184678648223
 40
0.6615706734323825
 40
0.768417603775023
 40
0.8749596753661735
 40
0.9821539749302372
 40
1.0
 40
1.0
 40
1.0
 40
1.0
 10
199.8246070189288
 20
480.70601844592
 30
0.0
 10
199.8155870872321
 20
480.7056765948141
 30
0.0
 10
199.7466510096676
 20
480.7030639503787
 30
0.0
 10
200.0441896822038
 20
480.7146423830502
 30
0.0
 10
200.7221591708358
 20
480.7375744762378
 30
0.0
 10
201.7747605146644
 20
480.7637712892458
 30
0.0
 10
203.0250661986306
 20
480.7799474448371
 30
0.0
 10
204.3508174122607
 20
480.779806745343
 30
0.0
 10
205.6007574259792
 20
480.7632463633808
 30
0.0
 10
206.6345043857118
 20
480.7373714543315
 30
0.0
 10
207.3241938674913
 20
480.7139316006262
 30
0.0
 10
207.554593679709
 20
480.7049045442332
 30
0.0
 10
207.5483838242992
 20
480.7051478486912
 30
0.0
 10
207.5474975403292
 20
480.7051825736287
 30
0.0
  0
SPLINE
  5
DB
330
1F
100
AcDbEntity
  8
0
  6
Continuous
 62
     7
370
    25
100
AcDbSpline
210
0.0
220
0.0
230
1.0
 70
    24
 71
     3
 72
     8
 73
     4
 74
     0
 42
0.00000001
 43
0.00000001
 40
0.0
 40
0.0
 40
0.0
 40
0.0
 40
1.0
 40
1.0
 40
1.0
 40
1.0
 10
188.1749795305677
 20
516.8049523161933
 30
0.0
 10
188.1749795305677
 20
516.8049513670327
 30
0.0
 10
188.1749795305677
 20
516.675617960282
 30
0.0
 10
188.1749795305677
 20
516.4163666718756
 30
0.0
  0
LINE
  5
DC
330
1F
100
AcDbEntity
  8
0
  6
Continuous
 62
     7
370
    25
100
AcDbLine
 10
180.6643853065
 20
517.0049523163
 30
0.0
 11
180.6643853246
 21
517.0049523162
 31
0.0
  0
SPLINE
  5
DD
330
1F
100
AcDbEntity
  8
0
  6
Continuous
 62
     7
370
    25
100
AcDbSpline
210
0.0
220
0.0
230
1.0
 70
     8
 71
     3
 72
     8
 73
     4
 74
     0
 42
0.00000001
 43
0.00000001
 40
0.0
 40
0.0
 40
0.0
 40
0.0
 40
1.0
 40
1.0
 40
1.0
 40
1.0
 10
215.5486175970737
 20
569.2652334349809
 30
0.0
 10
215.2021562727743
 20
567.7651822767205
 30
0.0
 10
215.1725182969608
 20
564.2815967090716
 30
0.0
 10
215.14525031432
 20
559.0738432341951
 30
0.0
  0
SPLINE
  5
DE
330
1F
100
AcDbEntity
  8
0
  6
Continuous
 62
     8
370
    18
100
AcDbSpline
210
0.0
220
0.0
230
1.0
 70
     8
 71
     3
 72
     9
 73
     5
 74
     0
 42
0.00000001
 43
0.00000001
 40
0.0
 40
0.0
 40
0.0
 40
0.0
 40
0.6189603409802164
 40
1.0
 40
1.0
 40
1.0
 40
1.0
 10
141.0973612155141
 20
589.6448396563462
 30
0.0
 10
141.0284720791419
 20
589.7648772096294
 30
0.0
 10
140.917173936416
 20
589.9588113687921
 30
0.0
 10
141.0121158230015
 20
590.1527455279552
 30
0.0
 10
141.0482924470928
 20
590.226642133835
 30
0.0
  0
SPLINE
  5
DF
330
1F
100
AcDbEntity
  8
0
  6
Continuous
 62
     8
370
    18
100
AcDbSpline
210
0.0
220
0.0
230
1.0
 70
     8
 71
     3
 72
     9
 73
     5
 74
     0
 42
0.00000001
 43
0.00000001
 40
0.0
 40
0.0
 40
0.0
 40
0.0
 40
0.3417119483200374
 40
0.9999999999999999
 40
0.9999999999999999
 40
0.9999999999999999
 40
0.9999999999999999
 10
162.3049198170063
 20
590.187716239505
 30
0.0
 10
162.3338949808445
 20
590.1267949317352
 30
0.0
 10
162.4186891005136
 20
589.9485122931874
 30
0.0
 10
162.3138878608168
 20
589.7702296546398
 30
0.0
 10
162.2448984569231
 20
589.6528683238619
 30
0.0
  0
LWPOLYLINE
  5
E0
330
1F
100
AcDbEntity
  8
0
  6
Continuous
 62
     8
370
    18
100
AcDbPolyline
 90
       34
 70
   128
 43
0.0
 10
161.9197068166
 20
590.0049523162
 10
161.7344759636
 20
589.5028885961
 10
161.1854781301
 20
589.018970767
 10
160.2925555282
 20
588.57068888
 10
159.0879807072
 20
588.1742450105
 10
157.6152901398
 20
587.8439676729
 10
155.9277106999
 20
587.5917939507
 10
154.0862359056
 20
587.4268380593
 10
152.1574214538
 20
587.3550619343
 10
150.2109797243
 20
587.379059752
 10
148.3172601926
 20
587.4979641686
 10
146.5447068166
 20
587.7074776688
 10
144.9573842937
 20
588.0000278887
 10
143.6126625955
 20
588.3650413012
 10
142.5591434679
 20
588.7893253705
 10
141.8349038371
 20
589.257545365
 10
141.4661196103
 20
589.752778594
 10
141.4661196103
 20
590.2571260384
 10
141.8349038371
 20
590.7523592674
 10
142.5591434679
 20
591.2205792618
 10
143.6126625955
 20
591.6448633312
 10
144.9573842937
 20
592.0098767437
 10
146.5447068166
 20
592.3024269636
 10
148.3172601926
 20
592.5119404638
 10
150.2109797243
 20
592.6308448804
 10
152.1574214538
 20
592.6548426981
 10
154.0862359056
 20
592.5830665731
 10
155.9277106999
 20
592.4181106816
 10
157.6152901398
 20
592.1659369595
 10
159.0879807072
 20
591.8356596219
 10
160.2925555282
 20
591.4392157524
 10
161.1854781301
 20
590.9909338654
 10
161.7344759636
 20
590.5070160363
 10
161.9197068166
 20
590.0049523162
  0
LINE
  5
E1
330
1F
100
AcDbEntity
  8
0
  6
Continuous
 62
     8
370
    18
100
AcDbLine
 10
144.6697068166
 20
414.0049523162
 30
0.0
 11
158.6697068166
 21
414.0049523162
 31
0.0
  0
LINE
  5
E2
330
1F
100
AcDbEntity
  8
0
  6
Continuous
 62
     8
370
    18
100
AcDbLine
 10
158.6697068166
 20
410.2049523162
 30
0.0
 11
144.6697068166
 21
410.2049523162
 31
0.0
  0
SPLINE
  5
E3
330
1F
100
AcDbEntity
  8
0
  6
Continuous
 62
     8
370
    18
100
AcDbSpline
210
0.0
220
0.0
230
1.0
 70
    24
 71
     3
 72
    15
 73
    11
 74
     0
 42
0.00000001
 43
0.00000001
 40
0.0
 40
0.0
 40
0.0
 40
0.0
 40
0.125
 40
0.25
 40
0.375
 40
0.5
 40
0.625
 40
0.75
 40
0.875
 40
1.0
 40
1.0
 40
1.0
 40
1.0
 10
175.6697068166474
 20
410.2049523161957
 30
0.0
 10
175.6697068166437
 20
410.2049523161957
 30
0.0
 10
175.6624757015076
 20
410.2049523161957
 30
0.0
 10
175.1888162878577
 20
410.2049523161957
 30
0.0
 10
174.0194208184276
 20
410.2049523161957
 30
0.0
 10
172.070503497698
 20
410.2049523161957
 30
0.0
 10
169.3104748514379
 20
410.2049523161957
 30
0.0
 10
165.9111880821686
 20
410.2049523161957
 30
0.0
 10
162.2582382106084
 20
410.2049523161957
 30
0.0
 10
159.8611096816801
 20
410.2049523161957
 30
0.0
 10
158.6697068166476
 20
410.2049523161957
 30
0.0
  0
SPLINE
  5
E4
330
1F
100
AcDbEntity
  8
0
  6
Continuous
 62
     8
370
    18
100
AcDbSpline
210
0.0
220
0.0
230
1.0
 70
    24
 71
     3
 72
    21
 73
    17
 74
     0
 42
0.00000001
 43
0.00000001
 40
-0.0000000000000001
 40
-0.0000000000000001
 40
-0.0000000000000001
 40
-0.0000000000000001
 40
0.003329183646551
 40
0.006658367293102
 40
0.008322959116377
 40
0.009987550939653
 40
0.01165214276293
 40
0.0133167345862
 40
0.01414903049784
 40
0.01498132640948
 40
0.01664591823275
 40
0.01747821414439
 40
0.01831051005603
 40
0.01997510187931
 40
0.02330428552586
 40
0.026633469172409
 40
0.026633469172409
 40
0.026633469172409
 40
0.026633469172409
 10
175.6697068166461
 20
414.0049523161958
 30
0.0
 10
175.6697068166462
 20
414.0049523161916
 30
0.0
 10
175.6632801980921
 20
414.0049523161979
 30
0.0
 10
175.3301723338133
 20
414.0049523161956
 30
0.0
 10
174.7262842179648
 20
414.0049523161956
 30
0.0
 10
174.0769753329986
 20
414.0049523161956
 30
0.0
 10
173.1653991695599
 20
414.0049523161956
 30
0.0
 10
172.1870797753498
 20
414.0049523161956
 30
0.0
 10
171.2575489385528
 20
414.0049523161956
 30
0.0
 10
170.2696438253545
 20
414.0049523161956
 30
0.0
 10
169.2082187743823
 20
414.0049523161956
 30
0.0
 10
168.0909685560724
 20
414.0049523161956
 30
0.0
 10
166.9667784680515
 20
414.0049523161956
 30
0.0
 10
164.9751026054001
 20
414.0049523161956
 30
0.0
 10
162.0656136780951
 20
414.004952316196
 30
0.0
 10
159.7865711536727
 20
414.0049523161961
 30
0.0
 10
158.6697068166476
 20
414.0049523161957
 30
0.0
  0
SPLINE
  5
E5
330
1F
100
AcDbEntity
  8
0
  6
Continuous
 62
     8
370
    18
100
AcDbSpline
210
0.0
220
0.0
230
1.0
 70
    24
 71
     3
 72
     9
 73
     5
 74
     0
 42
0.00000001
 43
0.00000001
 40
-0.0000083847452513
 40
-0.0000083847452513
 40
-0.0000083847452513
 40
-0.0000083847452513
 40
0.5000230576096903
 40
0.9999999999889418
 40
0.9999999999889418
 40
0.9999999999889418
 40
0.9999999999889418
 10
144.6697068166479
 20
410.2049523161926
 30
0.0
 10
144.6697068166478
 20
410.1578088996994
 30
0.0
 10
144.6697068166474
 20
410.0456747845769
 30
0.0
 10
144.6697068166476
 20
410.0049525631109
 30
0.0
 10
144.6697068166477
 20
410.0049523163415
 30
0.0
  0
SPLINE
  5
E6
330
1F
100
AcDbEntity
  8
0
  6
Continuous
 62
     8
370
    18
100
AcDbSpline
210
0.0
220
0.0
230
1.0
 70
    24
 71
     3
 72
    10
 73
     6
 74
     0
 42
0.00000001
 43
0.00000001
 40
0.0
 40
0.0
 40
0.0
 40
0.0
 40
0.5
 40
0.5
 40
1.0
 40
1.0
 40
1.0
 40
1.0
 10
158.6697068166476
 20
410.2049523161957
 30
0.0
 10
158.6697068166476
 20
410.1525924386358
 30
0.0
 10
158.6697068166476
 20
410.100554984443
 30
0.0
 10
158.6697068166476
 20
410.0265069354737
 30
0.0
 10
158.6697068166476
 20
410.0049523161957
 30
0.0
 10
158.6697068166476
 20
410.0049523161957
 30
0.0
  0
SPLINE
  5
E7
330
1F
100
AcDbEntity
  8
0
  6
Continuous
 62
     8
370
    18
100
AcDbSpline
210
0.0
220
0.0
230
1.0
 70
    24
 71
     3
 72
    21
 73
    17
 74
     0
 42
0.00000001
 43
0.00000001
 40
0.0
 40
0.0
 40
0.0
 40
0.0
 40
0.0033291836465484
 40
0.0066583672930984
 40
0.0083229591163784
 40
0.0091552550280184
 40
0.0099875509396584
 40
0.0116521427629284
 40
0.0124844386745684
 40
0.0133167345862084
 40
0.0149813264094784
 40
0.0166459182327554
 40
0.0183105100560314
 40
0.0199751018793064
 40
0.0233042855258574
 40
0.0266334691724083
 40
0.0266334691724083
 40
0.0266334691724083
 40
0.0266334691724083
 10
144.6697068166477
 20
414.0049523161951
 30
0.0
 10
143.5528424796224
 20
414.0049523161955
 30
0.0
 10
141.2737999551991
 20
414.0049523161954
 30
0.0
 10
138.3643110279002
 20
414.0049523161956
 30
0.0
 10
136.3726351652432
 20
414.0049523161956
 30
0.0
 10
135.2484450772228
 20
414.0049523161956
 30
0.0
 10
134.1311948589121
 20
414.0049523161956
 30
0.0
 10
133.0697698079434
 20
414.0049523161956
 30
0.0
 10
132.0818646947401
 20
414.0049523161956
 30
0.0
 10
131.1523338579435
 20
414.0049523161956
 30
0.0
 10
130.1740144637348
 20
414.0049523161956
 30
0.0
 10
129.2624383003
 20
414.0049523161956
 30
0.0
 10
128.6131294153338
 20
414.0049523161956
 30
0.0
 10
128.0092412994822
 20
414.004952316195
 30
0.0
 10
127.6761334352004
 20
414.0049523161979
 30
0.0
 10
127.6697068166452
 20
414.0049523161911
 30
0.0
 10
127.6697068166492
 20
414.0049523161957
 30
0.0
  0
SPLINE
  5
E8
330
1F
100
AcDbEntity
  8
0
  6
Continuous
 62
     8
370
    18
100
AcDbSpline
210
0.0
220
0.0
230
1.0
 70
    24
 71
     3
 72
    24
 73
    20
 74
     0
 42
0.00000001
 43
0.00000001
 40
-0.0000000000000003
 40
-0.0000000000000003
 40
-0.0000000000000003
 40
-0.0000000000000003
 40
0.003489801568054
 40
0.005234702352082
 40
0.006979603136109
 40
0.008724503920136
 40
0.01046940470416
 40
0.01134185509618
 40
0.01221430548819
 40
0.01395920627222
 40
0.01483165666423
 40
0.01570410705624
 40
0.01744900784027
 40
0.01832145823229
 40
0.0191939086243
 40
0.02093880940833
 40
0.02268371019235
 40
0.02442861097638
 40
0.0279184125444307
 40
0.0279184125444307
 40
0.0279184125444307
 40
0.0279184125444307
 10
127.6697068166473
 20
410.2049523161957
 30
0.0
 10
127.6697068166471
 20
410.2049523161957
 30
0.0
 10
127.6762408794432
 20
410.2049523161957
 30
0.0
 10
127.8939890961434
 20
410.2049523161957
 30
0.0
 10
128.1940942273003
 20
410.2049523161957
 30
0.0
 10
128.6592496419849
 20
410.2049523161957
 30
0.0
 10
129.208595142103
 20
410.2049523161957
 30
0.0
 10
129.7703920200114
 20
410.2049523161957
 30
0.0
 10
130.4090054355994
 20
410.2049523161957
 30
0.0
 10
131.1654412497199
 20
410.2049523161957
 30
0.0
 10
132.0563372710124
 20
410.2049523161957
 30
0.0
 10
133.004148022532
 20
410.2049523161957
 30
0.0
 10
134.0304240757687
 20
410.2049523161957
 30
0.0
 10
135.1246327695482
 20
410.2049523161957
 30
0.0
 10
136.2338353554341
 20
410.2049523161957
 30
0.0
 10
137.6501472695321
 20
410.2049523161957
 30
0.0
 10
139.3883735644615
 20
410.2049523161957
 30
0.0
 10
141.7412853603346
 20
410.2049523161957
 30
0.0
 10
143.5004139924009
 20
410.2049523161957
 30
0.0
 10
144.6697068166477
 20
410.2049523161957
 30
0.0
  0
SPLINE
  5
E9
330
1F
100
AcDbEntity
  8
0
  6
Continuous
 62
     8
370
    18
100
AcDbSpline
210
0.0
220
0.0
230
1.0
 70
     8
 71
     3
 72
    12
 73
     8
 74
     0
 42
0.00000001
 43
0.00000001
 40
0.0
 40
0.0
 40
0.0
 40
0.0
 40
0.1627183815157418
 40
0.3250401914689465
 40
0.4870141436189327
 40
0.7363867093867104
 40
1.0
 40
1.0
 40
1.0
 40
1.0
 10
180.6650131557577
 20
490.7713853907121
 30
0.0
 10
180.6644452924119
 20
490.8912912852982
 30
0.0
 10
180.6633109496972
 20
491.1308108440071
 30
0.0
 10
180.6616717287558
 20
491.4899512219988
 30
0.0
 10
180.6593390222157
 20
491.9130866765036
 30
0.0
 10
180.6587182947877
 20
492.4110474543518
 30
0.0
 10
180.6624680508199
 20
492.7894980984611
 30
0.0
 10
180.6643949763177
 20
492.9839764030525
 30
0.0
  0
SPLINE
  5
EA
330
1F
100
AcDbEntity
  8
0
  6
Continuous
 62
     8
370
    18
100
AcDbSpline
210
0.0
220
0.0
230
1.0
 70
     8
 71
     3
 72
    15
 73
    11
 74
     0
 42
0.00000001
 43
0.00000001
 40
0.0
 40
0.0
 40
0.0
 40
0.0
 40
0.1398929953438798
 40
0.2776626202357105
 40
0.409238315198399
 40
0.5370680961119361
 40
0.6685792311006366
 40
0.806331688521617
 40
0.9462252260783036
 40
1.0
 40
1.0
 40
1.0
 40
1.0
 10
180.6650131557577
 20
490.7713853907121
 30
0.0
 10
180.6649880639378
 20
490.010751075012
 30
0.0
 10
180.6649382611551
 20
488.5010277567049
 30
0.0
 10
180.6648642654641
 20
486.3373447377501
 30
0.0
 10
180.6647882525064
 20
484.4014542798437
 30
0.0
 10
180.6647104349722
 20
482.8681421948972
 30
0.0
 10
180.6646343982211
 20
481.8376036818966
 30
0.0
 10
180.6645603483941
 20
481.2532010456055
 30
0.0
 10
180.6645011162092
 20
481.0431116642162
 30
0.0
 10
180.6644660968064
 20
481.0336548563783
 30
0.0
 10
180.6644563731689
 20
481.031029038558
 30
0.0
  0
SPLINE
  5
EB
330
1F
100
AcDbEntity
  8
0
  6
Continuous
 62
     8
370
    18
100
AcDbSpline
210
0.0
220
0.0
230
1.0
 70
     8
 71
     3
 72
    22
 73
    18
 74
     0
 42
0.00000001
 43
0.00000001
 40
0.0
 40
0.0
 40
0.0
 40
0.0
 40
0.1083148016483998
 40
0.1929435131600971
 40
0.2523900539113587
 40
0.2860759332648471
 40
0.4080363875398156
 40
0.5187609260479114
 40
0.5961007054419657
 40
0.6732362212387458
 40
0.7494319254601223
 40
0.7785793920632943
 40
0.8128568050263938
 40
0.8522144594336704
 40
0.8966008162133592
 40
0.9458838050721364
 40
1.0
 40
1.0
 40
1.0
 40
1.0
 10
219.2071363912075
 20
492.9839350992341
 30
0.0
 10
219.2070712254819
 20
492.3695933724092
 30
0.0
 10
219.2069551443568
 20
491.2752530860351
 30
0.0
 10
219.2097530844459
 20
489.8458840594061
 30
0.0
 10
219.2139779885668
 20
488.8464026945459
 30
0.0
 10
219.2208933889152
 20
487.6486679564374
 30
0.0
 10
219.2328671037956
 20
486.1923185370123
 30
0.0
 10
219.2547724810767
 20
484.6321099108033
 30
0.0
 10
219.278695689751
 20
483.4887211065227
 30
0.0
 10
219.3026110933463
 20
482.6778940874634
 30
0.0
 10
219.3216736427697
 20
482.185013839332
 30
0.0
 10
219.3362352177216
 20
481.8797230363241
 30
0.0
 10
219.3472688083695
 20
481.684153204463
 30
0.0
 10
219.3598136248283
 20
481.4957681986034
 30
0.0
 10
219.3735690194403
 20
481.327356124665
 30
0.0
 10
219.3881996429562
 20
481.1858142566414
 30
0.0
 10
219.3975149703274
 20
481.1264921817587
 30
0.0
 10
219.4023903479984
 20
481.0954446932747
 30
0.0
  0
SPLINE
  5
EC
330
1F
100
AcDbEntity
  8
0
  6
Continuous
 62
     8
370
    18
100
AcDbSpline
210
0.0
220
0.0
230
1.0
 70
     8
 71
     3
 72
    21
 73
    17
 74
     0
 42
0.00000001
 43
0.00000001
 40
0.0
 40
0.0
 40
0.0
 40
0.0
 40
0.0895210500698287
 40
0.1689475425650952
 40
0.2995596433048037
 40
0.3773810583869868
 40
0.527650983459135
 40
0.5823408351259075
 40
0.6366606482019519
 40
0.6905477200814316
 40
0.7468856369934683
 40
0.8031010229140161
 40
0.8625588121425615
 40
0.9060868591667084
 40
0.951862329791036
 40
1.0
 40
1.0
 40
1.0
 40
1.0
 10
220.206567756725
 20
492.9856865341457
 30
0.0
 10
220.2066072377161
 20
492.5218634419733
 30
0.0
 10
220.2066817477492
 20
491.6465187990502
 30
0.0
 10
220.2088146951845
 20
490.0960402999469
 30
0.0
 10
220.2149217449716
 20
488.6112093502393
 30
0.0
 10
220.2296774563168
 20
486.8156316332341
 30
0.0
 10
220.2487767120752
 20
485.4665226804182
 30
0.0
 10
220.2728118993745
 20
484.4297701131203
 30
0.0
 10
220.2896563814217
 20
483.8615739840143
 30
0.0
 10
220.3077333788267
 20
483.3801129959156
 30
0.0
 10
220.3263408535721
 20
482.9841873425992
 30
0.0
 10
220.3452629286738
 20
482.6620693281859
 30
0.0
 10
220.3620667230225
 20
482.4354696243524
 30
0.0
 10
220.3769174311734
 20
482.276531083987
 30
0.0
 10
220.3899467004102
 20
482.1645451645614
 30
0.0
 10
220.3980844779998
 20
482.1163400415863
 30
0.0
 10
220.4022557116564
 20
482.0916312277657
 30
0.0
  0
ARC
  5
ED
330
1F
100
AcDbEntity
  8
0
  6
Continuous
 62
     8
370
    18
100
AcDbCircle
 10
219.4025541586
 20
482.0951524342
 30
0.0
 40
0.9997077543060122
100
AcDbArc
 50
269.9906115983
 51
359.79819034
  0
SPLINE
  5
EE
330
1F
100
AcDbEntity
  8
0
  6
Continuous
 62
     8
370
    18
100
AcDbSpline
210
0.0
220
0.0
230
1.0
 70
     8
 71
     3
 72
    11
 73
     7
 74
     0
 42
0.00000001
 43
0.00000001
 40
0.0
 40
0.0
 40
0.0
 40
0.0
 40
0.2593328631702563
 40
0.5129613742000511
 40
0.7601295295174753
 40
1.0
 40
1.0
 40
1.0
 40
1.0
 10
180.6643940135943
 20
505.0259414016056
 30
0.0
 10
180.662236607414
 20
505.2172135240546
 30
0.0
 10
180.6579692499127
 20
505.5955504983128
 30
0.0
 10
180.6577817327114
 20
506.1561885542364
 30
0.0
 10
180.6602058300896
 20
506.7023886807416
 30
0.0
 10
180.6622841708681
 20
507.0612305681048
 30
0.0
 10
180.6633077705458
 20
507.237963105918
 30
0.0
  0
LINE
  5
EF
330
1F
100
AcDbEntity
  8
0
  6
Continuous
 62
     8
370
    18
100
AcDbLine
 10
169.6909939573
 20
526.5926082479
 30
0.0
 11
169.6644341347
 21
527.0049176677
 31
0.0
  0
SPLINE
  5
F0
330
1F
100
AcDbEntity
  8
0
  6
Continuous
 62
     8
370
    18
100
AcDbSpline
210
0.0
220
0.0
230
1.0
 70
     8
 71
     3
 72
    25
 73
    21
 74
     0
 42
0.00000001
 43
0.00000001
 40
0.0
 40
0.0
 40
0.0
 40
0.0
 40
0.0741228420912956
 40
0.1570728219637665
 40
0.2297117402041868
 40
0.2936950755869118
 40
0.3761772064700486
 40
0.4241370406042965
 40
0.4944761223013331
 40
0.5486087769503707
 40
0.5927109453049166
 40
0.6317081919951728
 40
0.6733071242785033
 40
0.7079145805268743
 40
0.7588506111824544
 40
0.7944483832211767
 40
0.8712663628726857
 40
0.9307002211324819
 40
0.9732296478323214
 40
1.0
 40
1.0
 40
1.0
 40
1.0
 10
180.6633074800677
 20
507.2379848928749
 30
0.0
 10
180.6640910973601
 20
507.639873994032
 30
0.0
 10
180.6657516513269
 20
508.4915123480698
 30
0.0
 10
180.6643993486801
 20
509.7262046902387
 30
0.0
 10
180.6629138265006
 20
510.8842787540344
 30
0.0
 10
180.6636631571359
 20
512.0048993118328
 30
0.0
 10
180.6652906275195
 20
512.9491861294002
 30
0.0
 10
180.6655049043431
 20
513.8443241899429
 30
0.0
 10
180.6642184027571
 20
514.536683450468
 30
0.0
 10
180.6653788140796
 20
515.1123238416906
 30
0.0
 10
180.6666324556496
 20
515.5157864820812
 30
0.0
 10
180.6647727638355
 20
515.8329524240108
 30
0.0
 10
180.6617051496575
 20
516.0837256119688
 30
0.0
 10
180.6614747673597
 20
516.3201316637314
 30
0.0
 10
180.6635873612293
 20
516.5053193653505
 30
0.0
 10
180.6650327191149
 20
516.7049343117027
 30
0.0
 10
180.6650176898268
 20
516.8526724701353
 30
0.0
 10
180.6654876775982
 20
516.9411640364432
 30
0.0
 10
180.6632462614346
 20
516.9802029892988
 30
0.0
 10
180.6622143992245
 20
516.9864521309629
 30
0.0
 10
180.6618157931221
 20
516.9888661606443
 30
0.0
  0
SPLINE
  5
F1
330
1F
100
AcDbEntity
  8
0
  6
Continuous
 62
     8
370
    18
100
AcDbSpline
210
0.0
220
0.0
230
1.0
 70
     8
 71
     3
 72
     8
 73
     4
 74
     0
 42
0.00000001
 43
0.00000001
 40
0.0
 40
0.0
 40
0.0
 40
0.0
 40
1.0
 40
1.0
 40
1.0
 40
1.0
 10
219.2083825226484
 20
517.0049535318957
 30
0.0
 10
219.2070357452833
 20
508.9980302455196
 30
0.0
 10
219.2066181892658
 20
500.9909561676641
 30
0.0
 10
219.2071363912082
 20
492.9839350992341
 30
0.0
  0
SPLINE
  5
F2
330
1F
100
AcDbEntity
  8
0
  6
Continuous
 62
     8
370
    18
100
AcDbSpline
210
0.0
220
0.0
230
1.0
 70
     8
 71
     3
 72
    11
 73
     7
 74
     0
 42
0.00000001
 43
0.00000001
 40
0.0
 40
0.0
 40
0.0
 40
0.0
 40
0.2500006216508557
 40
0.5000003178873786
 40
0.7499998551798467
 40
1.0
 40
1.0
 40
1.0
 40
1.0
 10
220.2078880558124
 20
516.9997177983857
 30
0.0
 10
220.2075891166631
 20
514.9985586419441
 30
0.0
 10
220.206991239471
 20
510.996247736648
 30
0.0
 10
220.2065186735846
 20
504.9927351429976
 30
0.0
 10
220.2063301707505
 20
498.9892106308081
 30
0.0
 10
220.2064885613361
 20
494.9868628540589
 30
0.0
 10
220.206567756725
 20
492.9856865341457
 30
0.0
  0
SPLINE
  5
F3
330
1F
100
AcDbEntity
  8
0
  6
Continuous
 62
     8
370
    18
100
AcDbSpline
210
0.0
220
0.0
230
1.0
 70
    24
 71
     3
 72
    22
 73
    18
 74
     0
 42
0.00000001
 43
0.00000001
 40
0.0
 40
0.0
 40
0.0
 40
0.0
 40
0.1249999999999998
 40
0.1249999999999998
 40
0.2499999999999998
 40
0.2499999999999998
 40
0.3749999999999999
 40
0.3749999999999999
 40
0.4999999999999999
 40
0.4999999999999999
 40
0.6249999999999999
 40
0.6249999999999999
 40
0.75
 40
0.75
 40
0.875
 40
0.875
 40
1.0
 40
1.0
 40
1.0
 40
1.0
 10
157.6644525078887
 20
534.5049523161956
 30
0.0
 10
158.4753183787593
 20
534.5049523161956
 30
0.0
 10
159.2933219021866
 20
534.5049523161956
 30
0.0
 10
160.9366195980782
 20
534.5049523161956
 30
0.0
 10
161.75993853036
 20
534.5049523161956
 30
0.0
 10
163.3844165746684
 20
534.5049523161956
 30
0.0
 10
164.185672543823
 20
534.5049523161956
 30
0.0
 10
165.7023661110119
 20
534.5049523161956
 30
0.0
 10
166.4151901963314
 20
534.5049523161956
 30
0.0
 10
167.6199062517601
 20
534.5049523161956
 30
0.0
 10
168.1031668341361
 20
534.5049523161956
 30
0.0
 10
168.8372664229739
 20
534.5049523161956
 30
0.0
 10
169.0938632528794
 20
534.5049523161956
 30
0.0
 10
169.4519087516152
 20
534.5049523161956
 30
0.0
 10
169.5530257672085
 20
534.5049523161956
 30
0.0
 10
169.6588533783739
 20
534.5049523161956
 30
0.0
 10
169.6630185058748
 20
534.5049523161955
 30
0.0
 10
169.6644341027268
 20
534.5049523161956
 30
0.0
  0
LINE
  5
F4
330
1F
100
AcDbEntity
  8
0
  6
Continuous
 62
     8
370
    18
100
AcDbLine
 10
169.6644341027
 20
534.5049523162
 30
0.0
 11
169.6644341346
 21
527.0049181677
 31
0.0
  0
LINE
  5
F5
330
1F
100
AcDbEntity
  8
0
  6
Continuous
 62
     8
370
    18
100
AcDbLine
 10
157.6644525079
 20
415.3049523162
 30
0.0
 11
145.6749611254
 21
415.3049523162
 31
0.0
  0
LINE
  5
F6
330
1F
100
AcDbEntity
  8
0
  6
Continuous
 62
     8
370
    18
100
AcDbLine
 10
145.6749611254
 20
534.5049523162
 30
0.0
 11
157.6644525079
 21
534.5049523162
 31
0.0
  0
SPLINE
  5
F7
330
1F
100
AcDbEntity
  8
0
  6
Continuous
 62
     8
370
    18
100
AcDbSpline
210
0.0
220
0.0
230
1.0
 70
    24
 71
     3
 72
     8
 73
     4
 74
     0
 42
0.00000001
 43
0.00000001
 40
0.0
 40
0.0
 40
0.0
 40
0.0
 40
1.0
 40
1.0
 40
1.0
 40
1.0
 10
180.6643939995477
 20
505.0259413574023
 30
0.0
 10
180.6643939995477
 20
501.011957143591
 30
0.0
 10
180.6643939995477
 20
496.9979606168868
 30
0.0
 10
180.6643939995477
 20
492.9839764030487
 30
0.0
  0
LINE
  5
F8
330
1F
100
AcDbEntity
  8
0
  6
Continuous
 62
     8
370
    18
100
AcDbLine
 10
169.6644341027
 20
471.0049734474
 30
0.0
 11
169.6644341027
 21
415.3049523162
 31
0.0
  0
SPLINE
  5
F9
330
1F
100
AcDbEntity
  8
0
  6
Continuous
 62
     8
370
    18
100
AcDbSpline
210
0.0
220
0.0
230
1.0
 70
    24
 71
     3
 72
    22
 73
    18
 74
     0
 42
0.00000001
 43
0.00000001
 40
0.0
 40
0.0
 40
0.0
 40
0.0
 40
0.1249999999999999
 40
0.1249999999999999
 40
0.2499999999999999
 40
0.2499999999999999
 40
0.3749999999999999
 40
0.3749999999999999
 40
0.4999999999999999
 40
0.4999999999999999
 40
0.6249999999999999
 40
0.6249999999999999
 40
0.7499999999999999
 40
0.7499999999999999
 40
0.8749999999999999
 40
0.8749999999999999
 40
1.0
 40
1.0
 40
1.0
 40
1.0
 10
169.6644341027291
 20
415.3049523161957
 30
0.0
 10
169.6630061313754
 20
415.3049523161957
 30
0.0
 10
169.6586171818997
 20
415.3049523161957
 30
0.0
 10
169.5509637137724
 20
415.3049523161956
 30
0.0
 10
169.448377065507
 20
415.3049523161957
 30
0.0
 10
169.0872863778235
 20
415.3049523161957
 30
0.0
 10
168.8290411502117
 20
415.3049523161957
 30
0.0
 10
168.0953037345619
 20
415.3049523161957
 30
0.0
 10
167.6145443603781
 20
415.3049523161957
 30
0.0
 10
166.4205980263357
 20
415.3049523161957
 30
0.0
 10
165.7146530424066
 20
415.3049523161957
 30
0.0
 10
164.2065750347547
 20
415.3049523161957
 30
0.0
 10
163.407170447118
 20
415.3049523161957
 30
0.0
 10
161.7828828011079
 20
415.3049523161957
 30
0.0
 10
160.957631535743
 20
415.3049523161957
 30
0.0
 10
159.3074733732892
 20
415.3049523161957
 30
0.0
 10
158.4836502570339
 20
415.3049523161957
 30
0.0
 10
157.6644525078896
 20
415.3049523161957
 30
0.0
  0
SPLINE
  5
FA
330
1F
100
AcDbEntity
  8
0
  6
Continuous
 62
     8
370
    18
100
AcDbSpline
210
0.0
220
0.0
230
1.0
 70
     8
 71
     3
 72
    23
 73
    19
 74
     0
 42
0.00000001
 43
0.00000001
 40
0.0
 40
0.0
 40
0.0
 40
0.0
 40
0.049502319258607
 40
0.0989366535401627
 40
0.1483184107649757
 40
0.1976630481063615
 40
0.246986057635781
 40
0.2963029518067347
 40
0.3456292488420735
 40
0.3949804580950993
 40
0.4443720654504891
 40
0.4938195188386862
 40
0.5433382139237406
 40
0.6347525485826879
 40
0.7260279481323506
 40
0.8172623245026445
 40
0.9085537216182394
 40
1.0
 40
1.0
 40
1.0
 40
1.0
 10
188.6838698671047
 20
505.025969533996
 30
0.0
 10
188.6895315367162
 20
504.8221440226237
 30
0.0
 10
188.7008471003748
 20
504.4147729276264
 30
0.0
 10
188.7314503956516
 20
503.8045715912112
 30
0.0
 10
188.7720227269315
 20
503.1956261837891
 30
0.0
 10
188.8235395980714
 20
502.5879590074238
 30
0.0
 10
188.8857400012913
 20
501.9815643496588
 30
0.0
 10
188.9586938201739
 20
501.3764439894606
 30
0.0
 10
189.0423822241221
 20
500.7725977177302
 30
0.0
 10
189.1368105512496
 20
500.1700257846884
 30
0.0
 10
189.2419760654289
 20
499.5687285762211
 30
0.0
 10
189.3578840926667
 20
498.9687054535748
 30
0.0
 10
189.5201507134793
 20
498.2014683491415
 30
0.0
 10
189.7415213752236
 20
497.2707929453629
 30
0.0
 10
190.0382802202438
 20
496.1820076793782
 30
0.0
 10
190.3710811155356
 20
495.1042826695543
 30
0.0
 10
190.7368271849756
 20
494.0363886836945
 30
0.0
 10
191.0100153976044
 20
493.3349511310111
 30
0.0
 10
191.1467252757107
 20
492.9839350992293
 30
0.0
  0
LINE
  5
FB
330
1F
100
AcDbEntity
  8
0
  6
Continuous
 62
     8
370
    18
100
AcDbLine
 10
185.1749795306
 20
492.9839350973
 30
0.0
 11
185.1749795306
 21
505.0259695351
 31
0.0
  0
ARC
  5
FC
330
1F
100
AcDbEntity
  8
0
  6
Continuous
 62
     8
370
    18
100
AcDbCircle
 10
169.3644343328
 20
415.3049520861
 30
0.0
 40
0.2999997699357977
100
AcDbArc
 50
270.0000439392
 51
0.0000439391
  0
LINE
  5
FD
330
1F
100
AcDbEntity
  8
0
  6
Continuous
 62
     8
370
    18
100
AcDbLine
 10
157.6644525079
 20
415.0049523162
 30
0.0
 11
157.6644525079
 21
415.3049523162
 31
0.0
  0
SPLINE
  5
FE
330
1F
100
AcDbEntity
  8
0
  6
Continuous
 62
     8
370
    18
100
AcDbSpline
210
0.0
220
0.0
230
1.0
 70
    24
 71
     3
 72
    15
 73
    11
 74
     0
 42
0.00000001
 43
0.00000001
 40
0.0
 40
0.0
 40
0.0
 40
0.0
 40
0.125
 40
0.2499999999999999
 40
0.3749999999999998
 40
0.4999999999999998
 40
0.6249999999999999
 40
0.7499999999999999
 40
0.875
 40
1.0
 40
1.0
 40
1.0
 40
1.0
 10
133.6749795305683
 20
415.3049523161957
 30
0.0
 10
133.6764526087167
 20
415.3049523161957
 30
0.0
 10
133.6850628067578
 20
415.3049523161957
 30
0.0
 10
134.0235969147382
 20
415.3049523161957
 30
0.0
 10
134.8510709525086
 20
415.3049523161957
 30
0.0
 10
136.2266476703388
 20
415.3049523161957
 30
0.0
 10
138.1732900480583
 20
415.3049523161957
 30
0.0
 10
140.5702435561272
 20
415.3049523161957
 30
0.0
 10
143.1455693986521
 20
415.3049523161957
 30
0.0
 10
144.8352040836909
 20
415.3049523161957
 30
0.0
 10
145.6749611254067
 20
415.3049523161957
 30
0.0
  0
LINE
  5
FF
330
1F
100
AcDbEntity
  8
0
  6
Continuous
 62
     8
370
    18
100
AcDbLine
 10
145.6749611254
 20
415.3049523162
 30
0.0
 11
145.6749611254
 21
415.0049523162
 31
0.0
  0
ARC
  5
100
330
1F
100
AcDbEntity
  8
0
  6
Continuous
 62
     8
370
    18
100
AcDbCircle
 10
133.9749793005
 20
415.3049520861
 30
0.0
 40
0.2999997699358262
100
AcDbArc
 50
179.9999560609
 51
269.9999560609
  0
SPLINE
  5
101
330
1F
100
AcDbEntity
  8
0
  6
Continuous
 62
     8
370
    18
100
AcDbSpline
210
0.0
220
0.0
230
1.0
 70
     8
 71
     3
 72
     8
 73
     4
 74
     0
 42
0.00000001
 43
0.00000001
 40
0.0
 40
0.0
 40
0.0
 40
0.0
 40
1.0
 40
1.0
 40
1.0
 40
1.0
 10
188.6838698671041
 20
505.0259695340205
 30
0.0
 10
188.6779357776217
 20
505.2876575772709
 30
0.0
 10
188.6749795307329
 20
505.5500774360091
 30
0.0
 10
188.6749795305676
 20
505.8131351672191
 30
0.0
  0
SPLINE
  5
102
330
1F
100
AcDbEntity
  8
0
  6
Continuous
 62
     8
370
    18
100
AcDbSpline
210
0.0
220
0.0
230
1.0
 70
    24
 71
     3
 72
    24
 73
    20
 74
     0
 42
0.00000001
 43
0.00000001
 40
0.0
 40
0.0
 40
0.0
 40
0.0
 40
0.1249999999999995
 40
0.1249999999999995
 40
0.2499999999999989
 40
0.2499999999999989
 40
0.3749999999999984
 40
0.3749999999999984
 40
0.4999999999999979
 40
0.4999999999999979
 40
0.5624999999999986
 40
0.5624999999999986
 40
0.6249999999999989
 40
0.6249999999999989
 40
0.7499999999999992
 40
0.7499999999999992
 40
0.8749999999999997
 40
0.8749999999999997
 40
1.0
 40
1.0
 40
1.0
 40
1.0
 10
188.6749795305677
 20
505.8131351671688
 30
0.0
 10
188.6749795305677
 20
506.4731187438815
 30
0.0
 10
188.6749795305677
 20
507.1378554502199
 30
0.0
 10
188.6749795305677
 20
508.4685365409847
 30
0.0
 10
188.6749795305677
 20
509.1338923569644
 30
0.0
 10
188.6749795305677
 20
510.451216552075
 30
0.0
 10
188.6749795305677
 20
511.1027599005058
 30
0.0
 10
188.6749795305677
 20
512.3622710877598
 30
0.0
 10
188.6749795305677
 20
512.9707128037785
 30
0.0
 10
188.6749795305677
 20
513.8039028419838
 30
0.0
 10
188.6749795305676
 20
514.068318053337
 30
0.0
 10
188.6749795305677
 20
514.5613539872119
 30
0.0
 10
188.6749795305677
 20
514.7893177967527
 30
0.0
 10
188.6749795305676
 20
515.4130337084143
 30
0.0
 10
188.6749795305677
 20
515.748087566983
 30
0.0
 10
188.6749795305677
 20
516.2765953817878
 30
0.0
 10
188.6749795305677
 20
516.4729482679721
 30
0.0
 10
188.6749795305677
 20
516.7628337436013
 30
0.0
 10
188.6749795305677
 20
516.856192037927
 30
0.0
 10
188.6749795305677
 20
516.9144599391196
 30
0.0
  0
LINE
  5
103
330
1F
100
AcDbEntity
  8
0
  6
Continuous
 62
     8
370
    18
100
AcDbLine
 10
157.6644525079
 20
534.5049523162
 30
0.0
 11
157.6644525079
 21
535.0049523162
 31
0.0
  0
LINE
  5
104
330
1F
100
AcDbEntity
  8
0
  6
Continuous
 62
     8
370
    18
100
AcDbLine
 10
145.6749611254
 20
535.0049523162
 30
0.0
 11
145.6749611254
 21
534.5049523162
 31
0.0
  0
SPLINE
  5
105
330
1F
100
AcDbEntity
  8
0
  6
Continuous
 62
     8
370
    18
100
AcDbSpline
210
0.0
220
0.0
230
1.0
 70
    24
 71
     3
 72
    15
 73
    11
 74
     0
 42
0.00000001
 43
0.00000001
 40
0.0
 40
0.0
 40
0.0
 40
0.0
 40
0.125
 40
0.2500000000000001
 40
0.3750000000000001
 40
0.5000000000000002
 40
0.6250000000000002
 40
0.75
 40
0.875
 40
1.0
 40
1.0
 40
1.0
 40
1.0
 10
145.6749611254067
 20
534.5049523161957
 30
0.0
 10
144.8352040836909
 20
534.5049523161957
 30
0.0
 10
143.1455693986521
 20
534.5049523161956
 30
0.0
 10
140.5702435561272
 20
534.5049523161956
 30
0.0
 10
138.1732900480583
 20
534.5049523161957
 30
0.0
 10
136.2266476703388
 20
534.5049523161956
 30
0.0
 10
134.8510709525086
 20
534.5049523161956
 30
0.0
 10
134.0235969147382
 20
534.5049523161956
 30
0.0
 10
133.6850628067578
 20
534.5049523161956
 30
0.0
 10
133.6764526087167
 20
534.5049523161956
 30
0.0
 10
133.6749795305683
 20
534.5049523161956
 30
0.0
  0
LINE
  5
106
330
1F
100
AcDbEntity
  8
0
  6
Continuous
 62
     8
370
    18
100
AcDbLine
 10
133.6749795306
 20
534.5049523162
 30
0.0
 11
133.6749795306
 21
415.3049523162
 31
0.0
  0
ARC
  5
107
330
1F
100
AcDbEntity
  8
0
  6
Continuous
 62
     8
370
    18
100
AcDbCircle
 10
162.4804609023
 20
564.2457563798
 30
0.0
 40
76.81146975122451
100
AcDbArc
 50
291.5405634011
 51
291.9132854502
  0
ARC
  5
108
330
1F
100
AcDbEntity
  8
0
  6
Continuous
 62
     8
370
    18
100
AcDbCircle
 10
190.1795533684
 20
433.6486143889
 30
0.0
 40
71.39302414558571
100
AcDbArc
 50
91.2004341194
 51
91.6017216621
  0
ARC
  5
109
330
1F
100
AcDbEntity
  8
0
  6
Continuous
 62
     8
370
    18
100
AcDbCircle
 10
185.2999791471
 20
433.6552611136
 30
0.0
 40
71.37081788439504
100
AcDbArc
 50
89.6989520537
 51
90.1003484946
  0
ARC
  5
10A
330
1F
100
AcDbEntity
  8
0
  6
Continuous
 62
     8
370
    18
100
AcDbCircle
 10
185.2999791473
 20
564.3546436378
 30
0.0
 40
71.37081800344342
100
AcDbArc
 50
269.8996515054
 51
270.3010479456
  0
ARC
  5
10B
330
1F
100
AcDbEntity
  8
0
  6
Continuous
 62
     8
370
    18
100
AcDbCircle
 10
169.1644344862
 20
534.5049526996
 30
0.0
 40
0.4999996165597387
100
AcDbArc
 50
359.9999560609
 51
89.999956061
  0
ARC
  5
10C
330
1F
100
AcDbEntity
  8
0
  6
Continuous
 62
     8
370
    18
100
AcDbCircle
 10
134.1749791472
 20
534.5049526997
 30
0.0
 40
0.4999996165633199
100
AcDbArc
 50
90.0000439436
 51
180.0000439438
  0
SPLINE
  5
10D
330
1F
100
AcDbEntity
  8
0
  6
Continuous
 62
     8
370
    18
100
AcDbSpline
210
0.0
220
0.0
230
1.0
 70
    24
 71
     3
 72
    15
 73
    11
 74
     0
 42
0.00000001
 43
0.00000001
 40
0.0
 40
0.0
 40
0.0
 40
0.0
 40
0.1356406997909642
 40
0.2725955211352727
 40
0.4057772336067043
 40
0.5321998236083612
 40
0.6586661965143243
 40
0.7919320903075799
 40
0.9289004071943084
 40
1.0
 40
1.0
 40
1.0
 40
1.0
 10
185.1749795305677
 20
492.9839350972756
 30
0.0
 10
185.1749795305677
 20
492.1370393274472
 30
0.0
 10
185.1749795305677
 20
490.4350428464543
 30
0.0
 10
185.1749795305677
 20
487.9137384852085
 30
0.0
 10
185.1749795305677
 20
485.5475947812641
 30
0.0
 10
185.1749795305677
 20
483.5352418729576
 30
0.0
 10
185.1749795305676
 20
482.1331494998453
 30
0.0
 10
185.1749795305676
 20
481.3444071509614
 30
0.0
 10
185.1749795305677
 20
481.0481021076003
 30
0.0
 10
185.1749795305677
 20
481.0369933590678
 30
0.0
 10
185.1749795305677
 20
481.0331973508395
 30
0.0
  0
SPLINE
  5
10E
330
1F
100
AcDbEntity
  8
0
  6
Continuous
 62
     8
370
    18
100
AcDbSpline
210
0.0
220
0.0
230
1.0
 70
    24
 71
     3
 72
    22
 73
    18
 74
     0
 42
0.00000001
 43
0.00000001
 40
0.0
 40
0.0
 40
0.0
 40
0.0
 40
0.1250000000000002
 40
0.1250000000000002
 40
0.2500000000000003
 40
0.2500000000000003
 40
0.3750000000000003
 40
0.3750000000000003
 40
0.5000000000000003
 40
0.5000000000000003
 40
0.6250000000000003
 40
0.6250000000000003
 40
0.7500000000000002
 40
0.7500000000000002
 40
0.8750000000000001
 40
0.8750000000000001
 40
1.0
 40
1.0
 40
1.0
 40
1.0
 10
185.1749795305677
 20
517.0049523162093
 30
0.0
 10
185.1749795305677
 20
517.0049570598522
 30
0.0
 10
185.1749795305677
 20
517.0024510963784
 30
0.0
 10
185.1749795305677
 20
516.899654281626
 30
0.0
 10
185.1749795305677
 20
516.7999392781994
 30
0.0
 10
185.1749795305677
 20
516.4445903956592
 30
0.0
 10
185.1749795305677
 20
516.1893096776774
 30
0.0
 10
185.1749795305677
 20
515.4577926708041
 30
0.0
 10
185.1749795305677
 20
514.9757968232473
 30
0.0
 10
185.1749795305677
 20
513.773228620574
 30
0.0
 10
185.1749795305677
 20
513.0612164524358
 30
0.0
 10
185.1749795305676
 20
511.5457767480727
 30
0.0
 10
185.1749795305677
 20
510.7449124758776
 30
0.0
 10
185.1749795305677
 20
509.1210541387097
 30
0.0
 10
185.1749795305677
 20
508.2979356237622
 30
0.0
 10
185.1749795305677
 20
506.6548912664981
 30
0.0
 10
185.1749795305677
 20
505.8369028657029
 30
0.0
 10
185.1749795305677
 20
505.0259695351257
 30
0.0
  0
LINE
  5
10F
330
1F
100
AcDbEntity
  8
0
  6
Continuous
 62
     8
370
    18
100
AcDbLine
 10
219.402390348
 20
481.0954446933
 30
0.0
 11
195.7489149305
 21
481.0954446933
 31
0.0
  0
SPLINE
  5
110
330
1F
100
AcDbEntity
  8
0
  6
Continuous
 62
     8
370
    18
100
AcDbSpline
210
0.0
220
0.0
230
1.0
 70
     8
 71
     3
 72
    27
 73
    23
 74
     0
 42
0.00000001
 43
0.00000001
 40
0.0
 40
0.0
 40
0.0
 40
0.0
 40
0.0248482959882176
 40
0.0489038522722288
 40
0.0721644223945563
 40
0.094629552593572
 40
0.1162988598138884
 40
0.1371637489185052
 40
0.1572175835487337
 40
0.1764580422728253
 40
0.1948848980548613
 40
0.2124972616444114
 40
0.2292949980251835
 40
0.2452758790751029
 40
0.3047906666219171
 40
0.363047988913352
 40
0.4060606002785145
 40
0.4808888920307424
 40
0.6273057307867618
 40
0.7624084341297238
 40
0.8866523303322602
 40
1.0
 40
1.0
 40
1.0
 40
1.0
 10
195.7489149304847
 20
481.0954446932694
 30
0.0
 10
195.7435324937326
 20
481.1091471886118
 30
0.0
 10
195.7329393370867
 20
481.1361150260965
 30
0.0
 10
195.7122681448134
 20
481.1889623883019
 30
0.0
 10
195.688505016697
 20
481.249857889518
 30
0.0
 10
195.6614335738579
 20
481.3193752273667
 30
0.0
 10
195.6313177603031
 20
481.3968510572465
 30
0.0
 10
195.598383668697
 20
481.4817293804057
 30
0.0
 10
195.562923651811
 20
481.5732867299636
 30
0.0
 10
195.5252894579518
 20
481.6706531750739
 30
0.0
 10
195.4858569581601
 20
481.7728983201093
 30
0.0
 10
195.4449761043917
 20
481.8791575040592
 30
0.0
 10
195.4030032860267
 20
481.9885462959588
 30
0.0
 10
195.3208607702549
 20
482.2032871658503
 30
0.0
 10
195.1833993125441
 20
482.5651714209541
 30
0.0
 10
194.9817466808078
 20
483.0992343318426
 30
0.0
 10
194.7294598840502
 20
483.7743565973651
 30
0.0
 10
194.2938356161785
 20
484.9336290220214
 30
0.0
 10
193.6011582223733
 20
486.7501865797774
 30
0.0
 10
192.7543724802316
 20
488.9330512511587
 30
0.0
 10
191.9546272698962
 20
490.9689077739499
 30
0.0
 10
191.4350235780359
 20
492.264967174919
 30
0.0
 10
191.1871365480087
 20
492.8832774769397
 30
0.0
  0
SPLINE
  5
111
330
1F
100
AcDbEntity
  8
0
  6
Continuous
 62
     8
370
    18
100
AcDbSpline
210
0.0
220
0.0
230
1.0
 70
     8
 71
     3
 72
     8
 73
     4
 74
     0
 42
0.00000001
 43
0.00000001
 40
0.0
 40
0.0
 40
0.0
 40
0.0
 40
1.0
 40
1.0
 40
1.0
 40
1.0
 10
191.18713901355
 20
492.8832784730661
 30
0.0
 10
191.1736178895326
 20
492.9168213920441
 30
0.0
 10
191.1601474319359
 20
492.9503739984005
 30
0.0
 10
191.1467277443622
 20
492.9839360876238
 30
0.0
  0
ARC
  5
112
330
1F
100
AcDbEntity
  8
0
  6
Continuous
 62
     8
370
    18
100
AcDbCircle
 10
195.7466748395
 20
481.5932582232
 30
0.0
 40
0.497818569964173
100
AcDbArc
 50
202.0667299006
 51
270.2578212259
  0
ARC
  5
113
330
1F
100
AcDbEntity
  8
0
  6
Continuous
 62
     8
370
    18
100
AcDbCircle
 10
167.2332173222
 20
551.8380684315
 30
0.0
 40
63.63534885138823
100
AcDbArc
 50
291.6625640507
 51
292.1123998589
  0
ARC
  5
114
330
1F
100
AcDbEntity
  8
0
  6
Continuous
 62
     8
370
    18
100
AcDbCircle
 10
188.5499913989
 20
492.9811559397
 30
0.0
 40
12.83258792790063
100
AcDbArc
 50
89.4419359755
 51
91.6746159781
  0
ARC
  5
115
330
1F
100
AcDbEntity
  8
0
  6
Continuous
 62
     8
370
    18
100
AcDbCircle
 10
188.674027982
 20
516.4154114807
 30
0.0
 40
0.4990493655683951
100
AcDbArc
 50
89.8907527921
 51
179.8903345867
  0
LINE
  5
116
330
1F
100
AcDbEntity
  8
0
  6
Continuous
 62
     8
370
    18
100
AcDbLine
 10
219.2152661537
 20
559.0677838839
 30
0.0
 11
219.2083825323
 21
517.0049535319
 31
0.0
  0
LINE
  5
117
330
1F
100
AcDbEntity
  8
0
  6
Continuous
 62
     8
370
    18
100
AcDbLine
 10
220.2147844448
 20
559.0625479201
 30
0.0
 11
220.2078880558
 21
516.9997177984
 31
0.0
  0
LINE
  5
118
330
1F
100
AcDbEntity
  8
0
  6
Continuous
 62
     8
370
    18
100
AcDbLine
 10
215.3135704313
 20
524.3808669693
 30
0.0
 11
215.4952545707
 21
559.0737369284
 31
0.0
  0
SPLINE
  5
119
330
1F
100
AcDbEntity
  8
0
  6
Continuous
 62
     8
370
    18
100
AcDbSpline
210
0.0
220
0.0
230
1.0
 70
     8
 71
     3
 72
    18
 73
    14
 74
     0
 42
0.00000001
 43
0.00000001
 40
0.0
 40
0.0
 40
0.0
 40
0.0
 40
0.0953462832747189
 40
0.1923056274848698
 40
0.2903755187997893
 40
0.3898050562835159
 40
0.4908606725071011
 40
0.5662046170321089
 40
0.6401646849438676
 40
0.7125072606292364
 40
0.7867249734551192
 40
0.8830678495532666
 40
0.9999999999999999
 40
0.9999999999999999
 40
0.9999999999999999
 40
0.9999999999999999
 10
219.4445001629885
 20
571.00495231619
 30
0.0
 10
219.4372884745411
 20
571.0042343147566
 30
0.0
 10
219.4227430908674
 20
571.0027861647977
 30
0.0
 10
219.3939692062164
 20
570.8534466899795
 30
0.0
 10
219.3602414994302
 20
570.4629659744024
 30
0.0
 10
219.3224373194634
 20
569.7422299716471
 30
0.0
 10
219.288604185529
 20
568.6824032763191
 30
0.0
 10
219.2631592935104
 20
567.4063053684056
 30
0.0
 10
219.2450539414749
 20
566.1132073353674
 30
0.0
 10
219.231789737793
 20
564.7336487683707
 30
0.0
 10
219.2215972965374
 20
563.1588826723291
 30
0.0
 10
219.2156481246029
 20
561.2586177879293
 30
0.0
 10
219.2154014163112
 20
559.843596578236
 30
0.0
 10
219.2152661537277
 20
559.0677838839056
 30
0.0
  0
ARC
  5
11A
330
1F
100
AcDbEntity
  8
0
  6
Continuous
 62
     8
370
    18
100
AcDbCircle
 10
219.4444718961
 20
570.0049805815
 30
0.0
 40
0.999971735072816
100
AcDbArc
 50
359.9983804707
 51
89.9983803784
  0
SPLINE
  5
11B
330
1F
100
AcDbEntity
  8
0
  6
Continuous
 62
     8
370
    18
100
AcDbSpline
210
0.0
220
0.0
230
1.0
 70
     8
 71
     3
 72
    22
 73
    18
 74
     0
 42
0.00000001
 43
0.00000001
 40
0.0
 40
0.0
 40
0.0
 40
0.0
 40
0.0842110018159275
 40
0.1577361572816496
 40
0.2196940591046113
 40
0.2770695498397079
 40
0.3545565768245706
 40
0.4255122872467441
 40
0.4920120428390343
 40
0.5579787915892063
 40
0.6277718386510737
 40
0.7036078005758999
 40
0.7637904631937917
 40
0.8289387074412086
 40
0.9080095220343503
 40
0.9472696842694154
 40
1.0
 40
1.0
 40
1.0
 40
1.0
 10
220.4444436307326
 20
570.0049523161956
 30
0.0
 10
220.4385430384505
 20
570.0045193730757
 30
0.0
 10
220.4274906019255
 20
570.003708424594
 30
0.0
 10
220.407473598755
 20
569.9356986556982
 30
0.0
 10
220.3875335280182
 20
569.7926249564453
 30
0.0
 10
220.36501770763
 20
569.5533235758913
 30
0.0
 10
220.339378055553
 20
569.1695060180854
 30
0.0
 10
220.3114417793319
 20
568.5763017928849
 30
0.0
 10
220.2858508319824
 20
567.817125413703
 30
0.0
 10
220.2636411338435
 20
566.8720785671231
 30
0.0
 10
220.2451985960331
 20
565.7405134287693
 30
0.0
 10
220.2322439789218
 20
564.5538247694456
 30
0.0
 10
220.2235956449392
 20
563.3547756548573
 30
0.0
 10
220.2180192789147
 20
562.115842552624
 30
0.0
 10
220.2157275483931
 20
560.9945277602653
 30
0.0
 10
220.2149838313148
 20
559.9480783602686
 30
0.0
 10
220.2148570930509
 20
559.3851988571449
 30
0.0
 10
220.2147844447853
 20
559.0625479200658
 30
0.0
  0
SPLINE
  5
11C
330
1F
100
AcDbEntity
  8
0
  6
Continuous
 62
     8
370
    18
100
AcDbSpline
210
0.0
220
0.0
230
1.0
 70
     8
 71
     3
 72
    16
 73
    12
 74
     0
 42
0.00000001
 43
0.00000001
 40
0.0
 40
0.0
 40
0.0
 40
0.0
 40
0.1113478780684735
 40
0.2226122728255003
 40
0.3338035685405342
 40
0.4449321699751037
 40
0.5560084995086788
 40
0.6670429942404698
 40
0.7780461030703825
 40
0.8890282837631298
 40
1.0
 40
1.0
 40
1.0
 40
1.0
 10
220.4022557116564
 20
482.0916312277657
 30
0.0
 10
220.4074690381136
 20
482.0638604844939
 30
0.0
 10
220.417891782325
 20
482.0083398191249
 30
0.0
 10
220.4312596242212
 20
481.9371318384696
 30
0.0
 10
220.4429592514652
 20
481.8748105446323
 30
0.0
 10
220.4528296197903
 20
481.8222336739697
 30
0.0
 10
220.460910871415
 20
481.7791871960716
 30
0.0
 10
220.4672031284719
 20
481.7456703250999
 30
0.0
 10
220.4716656445346
 20
481.721899988885
 30
0.0
 10
220.4744610976585
 20
481.7070095788463
 30
0.0
 10
220.4748067250297
 20
481.7051685477883
 30
0.0
 10
220.4749795305677
 20
481.7042480756589
 30
0.0
  0
LINE
  5
11D
330
1F
100
AcDbEntity
  8
0
  6
Continuous
 62
     8
370
    18
100
AcDbLine
 10
220.4749795306
 20
570.0049523162
 30
0.0
 11
220.4444436307
 21
570.0049523162
 31
0.0
  0
LINE
  5
11E
330
1F
100
AcDbEntity
  8
0
  6
Continuous
 62
     8
370
    18
100
AcDbLine
 10
186.0378011673
 20
515.5359376399
 30
0.0
 11
186.0378011673
 21
482.5746835454
 31
0.0
  0
LINE
  5
11F
330
1F
100
AcDbEntity
  8
0
  6
Continuous
 62
     8
370
    18
100
AcDbLine
 10
186.0868842118
 20
482.6105709684
 30
0.0
 11
186.0868842118
 21
482.5780575804
 31
0.0
  0
LINE
  5
120
330
1F
100
AcDbEntity
  8
0
  6
Continuous
 62
     8
370
    18
100
AcDbLine
 10
186.0868842118
 20
515.531847052
 30
0.0
 11
186.0868842118
 21
482.6105709684
 31
0.0
  0
SPLINE
  5
121
330
1F
100
AcDbEntity
  8
0
  6
Continuous
 62
     8
370
    18
100
AcDbSpline
210
0.0
220
0.0
230
1.0
 70
    24
 71
     3
 72
    11
 73
     7
 74
     0
 42
0.00000001
 43
0.00000001
 40
0.0
 40
0.0
 40
0.0
 40
0.0
 40
0.3038190881590544
 40
0.6076381763188126
 40
0.9114572644792742
 40
1.0
 40
1.0
 40
1.0
 40
1.0
 10
192.804369145327
 20
484.5834211964216
 30
0.0
 10
192.8043691453048
 20
484.6355728144888
 30
0.0
 10
192.8043691452604
 20
484.7398760506235
 30
0.0
 10
192.8043691451939
 20
485.6260003730339
 30
0.0
 10
192.8043691451431
 20
486.5732233647791
 30
0.0
 10
192.8043691451145
 20
487.3675568556294
 30
0.0
 10
192.804369145108
 20
487.5468109419106
 30
0.0
  0
SPLINE
  5
122
330
1F
100
AcDbEntity
  8
0
  6
Continuous
 62
     8
370
    18
100
AcDbSpline
210
0.0
220
0.0
230
1.0
 70
     8
 71
     3
 72
    16
 73
    12
 74
     0
 42
0.00000001
 43
0.00000001
 40
0.0
 40
0.0
 40
0.0
 40
0.0
 40
0.1250000000000003
 40
0.1250000000000003
 40
0.2500000000000006
 40
0.2500000000000006
 40
0.5000000000000004
 40
0.5000000000000004
 40
0.7500000000000002
 40
0.7500000000000002
 40
1.0
 40
1.0
 40
1.0
 40
1.0
 10
215.0672723892758
 20
524.3808960398256
 30
0.0
 10
215.0760315918928
 20
524.3808943445539
 30
0.0
 10
215.0857718433508
 20
524.3808926883793
 30
0.0
 10
215.1064423140301
 20
524.3808894634406
 30
0.0
 10
215.1173282671907
 20
524.3808878945739
 30
0.0
 10
215.1504390072903
 20
524.3808833336104
 30
0.0
 10
215.1729950266414
 20
524.3808804854722
 30
0.0
 10
215.2160635885928
 20
524.3808753578779
 30
0.0
 10
215.236672694368
 20
524.3808730704822
 30
0.0
 10
215.2763111988979
 20
524.3808692276464
 30
0.0
 10
215.2954854232237
 20
524.3808677011563
 30
0.0
 10
215.3136014126558
 20
524.3808667710692
 30
0.0
  0
SPLINE
  5
123
330
1F
100
AcDbEntity
  8
0
  6
Continuous
 62
     8
370
    18
100
AcDbSpline
210
0.0
220
0.0
230
1.0
 70
     8
 71
     3
 72
    28
 73
    24
 74
     0
 42
0.00000001
 43
0.00000001
 40
0.0
 40
0.0
 40
0.0
 40
0.0
 40
0.125000000000001
 40
0.125000000000001
 40
0.250000000000002
 40
0.250000000000002
 40
0.375000000000003
 40
0.375000000000003
 40
0.500000000000004
 40
0.500000000000004
 40
0.625000000000005
 40
0.625000000000005
 40
0.6875000000000041
 40
0.6875000000000041
 40
0.7500000000000033
 40
0.7500000000000033
 40
0.8125000000000024
 40
0.8125000000000024
 40
0.8750000000000017
 40
0.8750000000000017
 40
0.9375000000000008
 40
0.9375000000000008
 40
1.0
 40
1.0
 40
1.0
 40
1.0
 10
215.2366004663695
 20
556.4102334396057
 30
0.0
 10
215.2307608096598
 20
555.0588307000476
 30
0.0
 10
215.2223854979034
 20
553.7047235828642
 30
0.0
 10
215.2025811765352
 20
551.0020212401754
 30
0.0
 10
215.1912237777841
 20
549.6538402184807
 30
0.0
 10
215.1677212494833
 20
546.96919578497
 30
0.0
 10
215.1555317777687
 20
545.6323381634884
 30
0.0
 10
215.1320846630027
 20
542.9690122416348
 30
0.0
 10
215.1207808200322
 20
541.6421178157123
 30
0.0
 10
215.1019726105943
 20
539.0043068483708
 30
0.0
 10
215.0948157981766
 20
537.6944040010543
 30
0.0
 10
215.0878298410026
 20
535.7491517557688
 30
0.0
 10
215.0860400494273
 20
535.1040051555402
 30
0.0
 10
215.0829457463429
 20
533.8169795011846
 30
0.0
 10
215.0816201721688
 20
533.1752321974845
 30
0.0
 10
215.0790697363587
 20
531.8840537944163
 30
0.0
 10
215.0778738011975
 20
531.2338509135046
 30
0.0
 10
215.0755461587258
 20
529.9125409557256
 30
0.0
 10
215.0743478398927
 20
529.241647688187
 30
0.0
 10
215.0721712052339
 20
527.8808561342985
 30
0.0
 10
215.0714878129256
 20
527.1912670241929
 30
0.0
 10
215.070138015749
 20
525.7970424021389
 30
0.0
 10
215.0682022423451
 20
525.0922383943125
 30
0.0
 10
215.0672723892772
 20
524.3808960398264
 30
0.0
  0
SPLINE
  5
124
330
1F
100
AcDbEntity
  8
0
  6
Continuous
 62
     8
370
    18
100
AcDbSpline
210
0.0
220
0.0
230
1.0
 70
     8
 71
     3
 72
    22
 73
    18
 74
     0
 42
0.00000001
 43
0.00000001
 40
0.0
 40
0.0
 40
0.0
 40
0.0
 40
0.0267338500613196
 40
0.0625018443125112
 40
0.1250051284215916
 40
0.1895754327884367
 40
0.2500116422046931
 40
0.3757381670820608
 40
0.4999756804567959
 40
0.6292881251942196
 40
0.7499824006675486
 40
0.8064224366173366
 40
0.8578720321589929
 40
0.9035668227195528
 40
0.9428776457357632
 40
0.9752119278795135
 40
1.0
 40
1.0
 40
1.0
 40
1.0
 10
215.2366004663675
 20
556.4102334396056
 30
0.0
 10
215.2376642883808
 20
556.4414844835035
 30
0.0
 10
215.2401514287551
 20
556.5145472064496
 30
0.0
 10
215.2452441058895
 20
556.6638279866627
 30
0.0
 10
215.2520488420102
 20
556.8597315582105
 30
0.0
 10
215.2603582128793
 20
557.0749243882673
 30
0.0
 10
215.2722642375228
 20
557.3436273862552
 30
0.0
 10
215.2887002957868
 20
557.6414073146201
 30
0.0
 10
215.3120111796536
 20
557.9643544593292
 30
0.0
 10
215.3391282331443
 20
558.249014728982
 30
0.0
 10
215.3660375319764
 20
558.467353028466
 30
0.0
 10
215.3903371885774
 20
558.6278376222757
 30
0.0
 10
215.4092066394275
 20
558.7358923121484
 30
0.0
 10
215.4287755174581
 20
558.8335523281082
 30
0.0
 10
215.4494836736608
 20
558.9214614978436
 30
0.0
 10
215.4695335733772
 20
558.996922012405
 30
0.0
 10
215.4874707778932
 20
559.05049122936
 30
0.0
 10
215.4952545733077
 20
559.073737428338
 30
0.0
  0
SPLINE
  5
125
330
1F
100
AcDbEntity
  8
0
  6
Continuous
 62
     8
370
    18
100
AcDbSpline
210
0.0
220
0.0
230
1.0
 70
     8
 71
     3
 72
    18
 73
    14
 74
     0
 42
0.00000001
 43
0.00000001
 40
0.0
 40
0.0
 40
0.0
 40
0.0
 40
0.2499999999999998
 40
0.2499999999999998
 40
0.4999999999999997
 40
0.4999999999999997
 40
0.7499999999999996
 40
0.7499999999999996
 40
0.8749999999999996
 40
0.8749999999999996
 40
0.9374999999999998
 40
0.9374999999999998
 40
1.0
 40
1.0
 40
1.0
 40
1.0
 10
215.1436852583081
 20
558.4806650873722
 30
0.0
 10
215.1504801286048
 20
559.7357007168217
 30
0.0
 10
215.157718563133
 20
560.9164148136732
 30
0.0
 10
215.180253785618
 20
563.0836474420122
 30
0.0
 10
215.1953600663243
 20
564.0749183004981
 30
0.0
 10
215.2440399083892
 20
565.8725799515026
 30
0.0
 10
215.2753428618649
 20
566.678993598148
 30
0.0
 10
215.3496658537674
 20
567.7509314176082
 30
0.0
 10
215.3769297236393
 20
568.0852796649003
 30
0.0
 10
215.4315436536775
 20
568.5523339815716
 30
0.0
 10
215.4513012441132
 20
568.7023138436916
 30
0.0
 10
215.4937856577026
 20
568.991317295437
 30
0.0
 10
215.5219319716766
 20
569.1295046881198
 30
0.0
 10
215.5486172801304
 20
569.2651646061151
 30
0.0
  0
SPLINE
  5
126
330
1F
100
AcDbEntity
  8
0
  6
Continuous
 62
     8
370
    18
100
AcDbSpline
210
0.0
220
0.0
230
1.0
 70
     8
 71
     3
 72
    18
 73
    14
 74
     0
 42
0.00000001
 43
0.00000001
 40
0.0
 40
0.0
 40
0.0
 40
0.0
 40
0.0251946355267449
 40
0.0563460566902558
 40
0.094094453505068
 40
0.1475719739844616
 40
0.1955687201062609
 40
0.4459640144982315
 40
0.5997697505103834
 40
0.7351323683585836
 40
0.8284006297982907
 40
0.916327441472955
 40
1.0
 40
1.0
 40
1.0
 40
1.0
 10
215.1436852580601
 20
558.4806651744756
 30
0.0
 10
215.1437748566301
 20
558.46258641865
 30
0.0
 10
215.1439752376239
 20
558.422154533872
 30
0.0
 10
215.1444890399298
 20
558.3604057950193
 30
0.0
 10
215.1453627559092
 20
558.2848091667363
 30
0.0
 10
215.1466817036308
 20
558.2041768160557
 30
0.0
 10
215.1509056732763
 20
558.0088428448981
 30
0.0
 10
215.1597409894941
 20
557.7732720240091
 30
0.0
 10
215.1763955952388
 20
557.4466787635512
 30
0.0
 10
215.1915607420501
 20
557.177414359451
 30
0.0
 10
215.206537377868
 20
556.9175236437458
 30
0.0
 10
215.2206749972443
 20
556.6754843902319
 30
0.0
 10
215.2313804456877
 20
556.4971769033901
 30
0.0
 10
215.2366004663695
 20
556.4102334396057
 30
0.0
  0
SPLINE
  5
127
330
1F
100
AcDbEntity
  8
0
  6
Continuous
 62
     8
370
    18
100
AcDbSpline
210
0.0
220
0.0
230
1.0
 70
     8
 71
     3
 72
    20
 73
    16
 74
     0
 42
0.00000001
 43
0.00000001
 40
0.0
 40
0.0
 40
0.0
 40
0.0
 40
0.125
 40
0.125
 40
0.2500000000000001
 40
0.2500000000000001
 40
0.5000000000000001
 40
0.5000000000000001
 40
0.6250000000000001
 40
0.6250000000000001
 40
0.75
 40
0.75
 40
0.875
 40
0.875
 40
1.0
 40
1.0
 40
1.0
 40
1.0
 10
214.9635971037156
 20
524.3809525466957
 30
0.0
 10
214.963597103695
 20
524.3809483128092
 30
0.0
 10
214.9635511114184
 20
524.3809445334026
 30
0.0
 10
214.9638081509432
 20
524.3809376492412
 30
0.0
 10
214.9641164985574
 20
524.380934544665
 30
0.0
 10
214.9664778883626
 20
524.3809259682387
 30
0.0
 10
214.9701144531876
 20
524.3809212141587
 30
0.0
 10
214.9814575871738
 20
524.3809148223766
 30
0.0
 10
214.9861825559652
 20
524.3809128201564
 30
0.0
 10
214.9974415589089
 20
524.3809090093904
 30
0.0
 10
215.0039604975285
 20
524.3809072010234
 30
0.0
 10
215.0186415442567
 20
524.3809037446724
 30
0.0
 10
215.0267667739748
 20
524.3809020968649
 30
0.0
 10
215.045042931108
 20
524.3808989524094
 30
0.0
 10
215.0552787272914
 20
524.3808974559415
 30
0.0
 10
215.0672723892774
 20
524.3808960398259
 30
0.0
  0
SPLINE
  5
128
330
1F
100
AcDbEntity
  8
0
  6
Continuous
 62
     8
370
    18
100
AcDbSpline
210
0.0
220
0.0
230
1.0
 70
     8
 71
     3
 72
    19
 73
    15
 74
     0
 42
0.00000001
 43
0.00000001
 40
0.0
 40
0.0
 40
0.0
 40
0.0
 40
0.0344874059831192
 40
0.0741121323002331
 40
0.1201686610851283
 40
0.1738750488088152
 40
0.2363691417162537
 40
0.3087141739372216
 40
0.3919036815775349
 40
0.4868618611792276
 40
0.5944384287379523
 40
0.7153980396358466
 40
0.8504045120074574
 40
1.0
 40
1.0
 40
1.0
 40
1.0
 10
215.1452503143202
 20
559.0738432341955
 30
0.0
 10
215.145170704182
 20
559.058698464523
 30
0.0
 10
215.1449996250034
 20
559.0261529267642
 30
0.0
 10
215.144760547283
 20
558.9808395324028
 30
0.0
 10
215.1445195612573
 20
558.934346686019
 30
0.0
 10
215.1442841462062
 20
558.8872191887566
 30
0.0
 10
215.1440594317267
 20
558.8392040211401
 30
0.0
 10
215.1438533709997
 20
558.7903367799754
 30
0.0
 10
215.1436752233615
 20
558.7405743411382
 30
0.0
 10
215.1435363908842
 20
558.689916466066
 30
0.0
 10
215.1434498560161
 20
558.638340485284
 30
0.0
 10
215.1434328459972
 20
558.5859101632776
 30
0.0
 10
215.1434961550111
 20
558.5323367819552
 30
0.0
 10
215.1436201057591
 20
558.4984677648996
 30
0.0
 10
215.1436852580601
 20
558.4806651744756
 30
0.0
  0
SPLINE
  5
129
330
1F
100
AcDbEntity
  8
0
  6
Continuous
 62
     8
370
    18
100
AcDbSpline
210
0.0
220
0.0
230
1.0
 70
     8
 71
     3
 72
    16
 73
    12
 74
     0
 42
0.00000001
 43
0.00000001
 40
0.0
 40
0.0
 40
0.0
 40
0.0
 40
0.1111092395444869
 40
0.2222213496516025
 40
0.3333346203982717
 40
0.4444473558512814
 40
0.5555586529722712
 40
0.6666690127626972
 40
0.7777790817445058
 40
0.888889415335999
 40
1.0
 40
1.0
 40
1.0
 40
1.0
 10
219.4023903479986
 20
481.09544469327
 30
0.0
 10
219.4075830682801
 20
481.0674657215793
 30
0.0
 10
219.4179686429999
 20
481.0115070553474
 30
0.0
 10
219.4312983150413
 20
480.9397578000131
 30
0.0
 10
219.4429755025223
 20
480.8769410857798
 30
0.0
 10
219.4528346143763
 20
480.8239358644146
 30
0.0
 10
219.4609111993737
 20
480.7805318875054
 30
0.0
 10
219.467203251581
 20
480.7467319629529
 30
0.0
 10
219.4716676340506
 20
480.7227578646367
 30
0.0
 10
219.4744645671767
 20
480.7077392023533
 30
0.0
 10
219.4748105148996
 20
480.7058817248355
 30
0.0
 10
219.4749834889564
 20
480.7049529850274
 30
0.0
  0
SPLINE
  5
12A
330
1F
100
AcDbEntity
  8
0
  6
Continuous
 62
     8
370
    18
100
AcDbSpline
210
0.0
220
0.0
230
1.0
 70
    24
 71
     3
 72
     9
 73
     5
 74
     0
 42
0.00000001
 43
0.00000001
 40
0.0
 40
0.0
 40
0.0
 40
0.0
 40
0.9998420623992261
 40
1.0
 40
1.0
 40
1.0
 40
1.0
 10
195.7489149304847
 20
481.0954446932713
 30
0.0
 10
195.8535057172263
 20
480.8351369558749
 30
0.0
 10
195.9581130253952
 20
480.5747880996049
 30
0.0
 10
195.9057969527895
 20
480.7049934350902
 30
0.0
 10
195.9057886901145
 20
480.7050139994085
 30
0.0
  0
LINE
  5
12B
330
1F
100
AcDbEntity
  8
0
  6
Continuous
 62
     8
370
    18
100
AcDbLine
 10
188.6749795306
 20
517.3049523162
 30
0.0
 11
188.6749795306
 21
516.9144599391
 31
0.0
  0
SPLINE
  5
12C
330
1F
100
AcDbEntity
  8
0
  6
Continuous
 62
     8
370
    18
100
AcDbSpline
210
0.0
220
0.0
230
1.0
 70
     8
 71
     3
 72
     8
 73
     4
 74
     0
 42
0.00000001
 43
0.00000001
 40
0.0
 40
0.0
 40
0.0
 40
0.0
 40
1.0
 40
1.0
 40
1.0
 40
1.0
 10
169.6644341027324
 20
527.0049315318957
 30
0.0
 10
169.67221028349
 20
527.0049269147561
 30
0.0
 10
169.6722102941077
 20
527.0049222960467
 30
0.0
 10
169.6644341346581
 20
527.004917667724
 30
0.0
  0
SPLINE
  5
12D
330
1F
100
AcDbEntity
  8
0
  6
Continuous
 62
     8
370
    18
100
AcDbSpline
210
0.0
220
0.0
230
1.0
 70
    27
 71
     3
 72
     8
 73
     4
 74
     0
 42
0.00000001
 43
0.00000001
 40
0.0
 40
0.0
 40
0.0
 40
0.0
 40
1.0
 40
1.0
 40
1.0
 40
1.0
 10
169.6644341027273
 20
471.0049734474356
 30
0.0
 10
169.671464386157
 20
471.0049734474356
 30
0.0
 10
169.671464386157
 20
471.0049734474356
 30
0.0
 10
169.6644341027273
 20
471.0049734474356
 30
0.0
  0
LINE
  5
12E
330
1F
100
AcDbEntity
  8
0
  6
Continuous
 62
     8
370
    18
100
AcDbLine
 10
169.6697068166
 20
415.3049523162
 30
0.0
 11
169.6644341027
 21
415.3049523162
 31
0.0
  0
LINE
  5
12F
330
1F
100
AcDbEntity
  8
0
  6
Continuous
 62
     8
370
    18
100
AcDbLine
 10
169.6644341027
 20
534.5049523162
 30
0.0
 11
169.6697068166
 21
534.5049523162
 31
0.0
  0
LINE
  5
130
330
1F
100
AcDbEntity
  8
0
  6
Continuous
 62
     8
370
    18
100
AcDbLine
 10
133.6697068166
 20
415.3049523162
 30
0.0
 11
133.6749795306
 21
415.3049523162
 31
0.0
  0
LINE
  5
131
330
1F
100
AcDbEntity
  8
0
  6
Continuous
 62
     8
370
    18
100
AcDbLine
 10
133.6749795306
 20
534.5049523162
 30
0.0
 11
133.6697068166
 21
534.5049523162
 31
0.0
  0
LINE
  5
132
330
1F
100
AcDbEntity
  8
0
  6
Continuous
 62
     8
370
    18
100
AcDbLine
 10
199.9652298599
 20
480.5954281934
 30
0.0
 11
207.3847292012
 21
480.5954281934
 31
0.0
  0
LINE
  5
133
330
1F
100
AcDbEntity
  8
0
  6
Continuous
 62
     7
370
    25
100
AcDbLine
 10
162.6697068166
 20
111.6633217279
 30
0.0
 11
162.6697068166
 21
271.3105599239
 31
0.0
  0
LINE
  5
134
330
1F
100
AcDbEntity
  8
0
  6
Continuous
 62
     7
370
    25
100
AcDbLine
 10
140.6697068166
 20
271.3105599239
 30
0.0
 11
140.6697068166
 21
111.6633217279
 31
0.0
  0
LINE
  5
135
330
1F
100
AcDbEntity
  8
0
  6
Continuous
 62
     7
370
    25
100
AcDbLine
 10
162.6697068166
 20
101.3882056373
 30
0.0
 11
162.6697068166
 21
111.6633217279
 31
0.0
  0
LINE
  5
136
330
1F
100
AcDbEntity
  8
0
  6
Continuous
 62
     7
370
    25
100
AcDbLine
 10
140.6697068166
 20
111.6633217279
 30
0.0
 11
140.6697068166
 21
101.3882056373
 31
0.0
  0
SPLINE
  5
137
330
1F
100
AcDbEntity
  8
0
  6
Continuous
 62
     7
370
    25
100
AcDbSpline
210
0.0
220
0.0
230
1.0
 70
     8
 71
     3
 72
    10
 73
     6
 74
     0
 42
0.00000001
 43
0.00000001
 40
0.0
 40
0.0
 40
0.0
 40
0.0
 40
0.0763359283539892
 40
0.3813872294157643
 40
1.0
 40
1.0
 40
1.0
 40
1.0
 10
220.2357119269232
 20
287.2791130877894
 30
0.0
 10
220.2332249457223
 20
287.3545612040181
 30
0.0
 10
220.2207995663463
 20
287.7315127736603
 30
0.0
 10
220.1906389793373
 20
288.2132684539031
 30
0.0
 10
220.1556604735995
 20
288.3503528420719
 30
0.0
 10
220.1322340450855
 20
288.4421634426703
 30
0.0
  0
LINE
  5
138
330
1F
100
AcDbEntity
  8
0
  6
Continuous
 62
     7
370
    25
100
AcDbLine
 10
220.2573828153
 20
286.6410004374
 30
0.0
 11
220.247591398
 21
286.9293147485
 31
0.0
  0
SPLINE
  5
139
330
1F
100
AcDbEntity
  8
0
  6
Continuous
 62
     7
370
    25
100
AcDbSpline
210
0.0
220
0.0
230
1.0
 70
     8
 71
     3
 72
     9
 73
     5
 74
     0
 42
0.00000001
 43
0.00000001
 40
0.0
 40
0.0
 40
0.0
 40
0.0
 40
0.502489314948606
 40
1.0
 40
1.0
 40
1.0
 40
1.0
 10
220.1322338157456
 20
254.1789558780063
 30
0.0
 10
220.1553855979965
 20
254.2422869150933
 30
0.0
 10
220.201459776217
 20
254.3683215096666
 30
0.0
 10
220.2118527369945
 20
254.535810449999
 30
0.0
 10
220.2170233460306
 20
254.6191379874423
 30
0.0
  0
SPLINE
  5
13A
330
1F
100
AcDbEntity
  8
0
  6
Continuous
 62
     7
370
    25
100
AcDbSpline
210
0.0
220
0.0
230
1.0
 70
     8
 71
     3
 72
     9
 73
     5
 74
     0
 42
0.00000001
 43
0.00000001
 40
0.0
 40
0.0
 40
0.0
 40
0.0
 40
0.5139884040215927
 40
1.0
 40
1.0
 40
1.0
 40
1.0
 10
215.0755267625684
 20
283.571236037979
 30
0.0
 10
215.0664039625662
 20
283.101278339131
 30
0.0
 10
215.0486549240064
 20
282.1869431222839
 30
0.0
 10
215.0320840183504
 20
281.257177196727
 30
0.0
 10
215.0240303660457
 20
280.8053001753607
 30
0.0
  0
SPLINE
  5
13B
330
1F
100
AcDbEntity
  8
0
  6
Continuous
 62
     7
370
    25
100
AcDbSpline
210
0.0
220
0.0
230
1.0
 70
     8
 71
     3
 72
     9
 73
     5
 74
     0
 42
0.00000001
 43
0.00000001
 40
0.0
 40
0.0
 40
0.0
 40
0.0
 40
0.4860121163759563
 40
0.9999999999999999
 40
0.9999999999999999
 40
0.9999999999999999
 40
0.9999999999999999
 10
215.0240303151333
 20
261.8158224889173
 30
0.0
 10
215.0320839841162
 20
261.3639445248896
 30
0.0
 10
215.0486549063454
 20
260.4341776552953
 30
0.0
 10
215.0664039626712
 20
259.519841510034
 30
0.0
 10
215.0755267625684
 20
259.0498838098101
 30
0.0
  0
SPLINE
  5
13C
330
1F
100
AcDbEntity
  8
0
  6
Continuous
 62
     7
370
    25
100
AcDbSpline
210
0.0
220
0.0
230
1.0
 70
     8
 71
     3
 72
     9
 73
     5
 74
     0
 42
0.00000001
 43
0.00000001
 40
0.0
 40
0.0
 40
0.0
 40
0.0
 40
0.5193111199143929
 40
1.0
 40
1.0
 40
1.0
 40
1.0
 10
215.0778672847788
 20
258.8967370958475
 30
0.0
 10
215.0969957250989
 20
258.2546458354621
 30
0.0
 10
215.133829984152
 20
257.018216966981
 30
0.0
 10
215.1799351618837
 20
256.4571194912263
 30
0.0
 10
215.2020974081337
 20
256.1874061739869
 30
0.0
  0
SPLINE
  5
13D
330
1F
100
AcDbEntity
  8
0
  6
Continuous
 62
     7
370
    25
100
AcDbSpline
210
0.0
220
0.0
230
1.0
 70
     8
 71
     3
 72
     9
 73
     5
 74
     0
 42
0.00000001
 43
0.00000001
 40
0.0
 40
0.0
 40
0.0
 40
0.0
 40
0.480686726089518
 40
1.0
 40
1.0
 40
1.0
 40
1.0
 10
215.2021007067716
 20
286.4337623612093
 30
0.0
 10
215.1799381286593
 20
286.1640489517582
 30
0.0
 10
215.1338320539346
 20
285.6029487698469
 30
0.0
 10
215.0969964810052
 20
284.3664912302552
 30
0.0
 10
215.0778672790308
 20
283.7243824173186
 30
0.0
  0
LWPOLYLINE
  5
13E
330
1F
100
AcDbEntity
  8
0
  6
Continuous
 62
     7
370
    25
100
AcDbPolyline
 90
        3
 70
   128
 43
0.0
 10
220.1361361449
 20
288.4330723593
 10
220.1330011264
 20
288.5328018902
 10
220.1291829337
 20
288.6534791804
  0
LWPOLYLINE
  5
13F
330
1F
100
AcDbEntity
  8
0
  6
Continuous
 62
     7
370
    25
100
AcDbPolyline
 90
        3
 70
   128
 43
0.0
 10
220.129316289
 20
253.9679559349
 10
220.1324508843
 20
254.0669614254
 10
220.1362695776
 20
254.1883628017
  0
SPLINE
  5
140
330
1F
100
AcDbEntity
  8
0
  6
Continuous
 62
     7
370
    25
100
AcDbSpline
210
0.0
220
0.0
230
1.0
 70
     8
 71
     3
 72
     9
 73
     5
 74
     0
 42
0.00000001
 43
0.00000001
 40
0.0
 40
0.0
 40
0.0
 40
0.0
 40
0.4443832430344542
 40
1.0
 40
1.0
 40
1.0
 40
1.0
 10
162.5061888981629
 20
289.3101587598266
 30
0.0
 10
161.7882145778665
 20
289.3105243899385
 30
0.0
 10
160.1725498750444
 20
289.3113471709894
 30
0.0
 10
158.560243589367
 20
289.3112559100084
 30
0.0
 10
157.6644191996838
 20
289.311205203878
 30
0.0
  0
SPLINE
  5
141
330
1F
100
AcDbEntity
  8
0
  6
Continuous
 62
     7
370
    25
100
AcDbSpline
210
0.0
220
0.0
230
1.0
 70
     8
 71
     3
 72
     9
 73
     5
 74
     0
 42
0.00000001
 43
0.00000001
 40
0.0
 40
0.0
 40
0.0
 40
0.0
 40
0.9166010884596647
 40
1.0
 40
1.0
 40
1.0
 40
1.0
 10
162.6697068166477
 20
253.3120635528501
 30
0.0
 10
163.5259574178623
 20
253.3124888187325
 30
0.0
 10
164.4601158123865
 20
253.3129527783413
 30
0.0
 10
165.376435084247
 20
253.3125311388584
 30
0.0
 10
165.4528551141436
 20
253.3124959745845
 30
0.0
  0
ARC
  5
142
330
1F
100
AcDbEntity
  8
0
  6
Continuous
 62
     7
370
    25
100
AcDbCircle
 10
155.3697068166
 20
289.5203218283
 30
0.0
 40
0.2000000000000574
100
AcDbArc
 50
0.0
 51
87.20581768
  0
ARC
  5
143
330
1F
100
AcDbEntity
  8
0
  6
Continuous
 62
     7
370
    25
100
AcDbCircle
 10
147.9697068166
 20
289.5203218283
 30
0.0
 40
0.200000000000056
100
AcDbArc
 50
92.79418232
 51
180.0
  0
LINE
  5
144
330
1F
100
AcDbEntity
  8
0
  6
Continuous
 62
     7
370
    25
100
AcDbLine
 10
155.5697068166
 20
289.3105599239
 30
0.0
 11
155.5697068166
 21
289.5203218283
 31
0.0
  0
LINE
  5
145
330
1F
100
AcDbEntity
  8
0
  6
Continuous
 62
     7
370
    25
100
AcDbLine
 10
147.7697068166
 20
289.5203218283
 30
0.0
 11
147.7697068166
 21
289.3105599239
 31
0.0
  0
ARC
  5
146
330
1F
100
AcDbEntity
  8
0
  6
Continuous
 62
     7
370
    25
100
AcDbCircle
 10
151.6697068166
 20
213.7105599239
 30
0.0
 40
76.10000000001
100
AcDbArc
 50
87.2058176799
 51
92.7941823201
  0
LINE
  5
147
330
1F
100
AcDbEntity
  8
0
  6
Continuous
 62
     7
370
    25
100
AcDbLine
 10
219.211170672
 20
289.3105599239
 30
0.0
 11
189.379942715
 21
289.3105599239
 31
0.0
  0
LINE
  5
148
330
1F
100
AcDbEntity
  8
0
  6
Continuous
 62
     7
370
    25
100
AcDbLine
 10
189.3781619707
 20
253.3105599239
 30
0.0
 11
219.2118770796
 21
253.3105599239
 31
0.0
  0
SPLINE
  5
149
330
1F
100
AcDbEntity
  8
0
  6
Continuous
 62
     7
370
    25
100
AcDbSpline
210
0.0
220
0.0
230
1.0
 70
     8
 71
     3
 72
    12
 73
     8
 74
     0
 42
0.00000001
 43
0.00000001
 40
0.0
 40
0.0
 40
0.0
 40
0.0
 40
0.1696366693066895
 40
0.3426692969197704
 40
0.5156043501758788
 40
0.6849599238847182
 40
0.9999999999999999
 40
0.9999999999999999
 40
0.9999999999999999
 40
0.9999999999999999
 10
220.1262887832775
 20
288.7039062552339
 30
0.0
 10
220.0966328950566
 20
288.7634483864887
 30
0.0
 10
220.0367274370697
 20
288.8837246235639
 30
0.0
 10
219.9030760631194
 20
289.0375760595003
 30
0.0
 10
219.7436538131199
 20
289.1617614399086
 30
0.0
 10
219.5121066506744
 20
289.2806153903322
 30
0.0
 10
219.3213127581666
 20
289.2987310855883
 30
0.0
 10
219.1972246858649
 20
289.310513127839
 30
0.0
  0
SPLINE
  5
14A
330
1F
100
AcDbEntity
  8
0
  6
Continuous
 62
     7
370
    25
100
AcDbSpline
210
0.0
220
0.0
230
1.0
 70
     8
 71
     3
 72
    13
 73
     9
 74
     0
 42
0.00000001
 43
0.00000001
 40
0.0
 40
0.0
 40
0.0
 40
0.0
 40
0.2903053741615387
 40
0.4463317245513837
 40
0.6056387157829551
 40
0.7650237858794342
 40
0.9212750844213068
 40
1.0
 40
1.0
 40
1.0
 40
1.0
 10
219.1984739878631
 20
253.3105954144237
 30
0.0
 10
219.322543716571
 20
253.3224972852812
 30
0.0
 10
219.5132954590723
 20
253.3407958874361
 30
0.0
 10
219.7440930111456
 20
253.4599539133285
 30
0.0
 10
219.904831553672
 20
253.5836382282933
 30
0.0
 10
220.032440585065
 20
253.7394067739261
 30
0.0
 10
220.1249675941533
 20
253.8835287600031
 30
0.0
 10
220.1422624182385
 20
253.9822359818881
 30
0.0
 10
220.1480567645775
 20
254.0153062130133
 30
0.0
  0
ARC
  5
14B
330
1F
100
AcDbEntity
  8
0
  6
Continuous
 62
     7
370
    25
100
AcDbCircle
 10
183.8130889728
 20
274.7039911846
 30
0.0
 40
19.99999999995544
100
AcDbArc
 50
276.5280582991
 51
282.6601057258
  0
ARC
  5
14C
330
1F
100
AcDbEntity
  8
0
  6
Continuous
 62
     7
370
    25
100
AcDbCircle
 10
183.8130889728
 20
267.9171286631
 30
0.0
 40
19.99999999995548
100
AcDbArc
 50
77.2911410299
 51
83.4719417009
  0
LINE
  5
14D
330
1F
100
AcDbEntity
  8
0
  6
Continuous
 62
     7
370
    25
100
AcDbLine
 10
185.6749795306
 20
254.8105599239
 30
0.0
 11
186.0378011673
 21
254.8295746002
 31
0.0
  0
LINE
  5
14E
330
1F
100
AcDbEntity
  8
0
  6
Continuous
 62
     7
370
    25
100
AcDbLine
 10
186.0378011673
 20
287.7915452476
 30
0.0
 11
185.6749795306
 21
287.8105599239
 31
0.0
  0
ARC
  5
14F
330
1F
100
AcDbEntity
  8
0
  6
Continuous
 62
     7
370
    25
100
AcDbCircle
 10
185.9959324023
 20
286.9926416198
 30
0.0
 40
0.8000000000004855
100
AcDbArc
 50
83.4719417009
 51
87.0
  0
ARC
  5
150
330
1F
100
AcDbEntity
  8
0
  6
Continuous
 62
     7
370
    25
100
AcDbCircle
 10
185.9959324023
 20
255.628478228
 30
0.0
 40
0.8000000000054392
100
AcDbArc
 50
273.0
 51
276.528058299
  0
LINE
  5
151
330
1F
100
AcDbEntity
  8
0
  6
Continuous
 62
     7
370
    25
100
AcDbLine
 10
163.4144303955
 20
253.3119132892
 30
0.0
 11
169.1301128885
 21
253.3102811498
 31
0.0
  0
LINE
  5
152
330
1F
100
AcDbEntity
  8
0
  6
Continuous
 62
     7
370
    25
100
AcDbLine
 10
163.4144304527
 20
253.3118780803
 30
0.0
 11
167.247616991
 21
253.3108187051
 31
0.0
  0
LINE
  5
153
330
1F
100
AcDbEntity
  8
0
  6
Continuous
 62
     7
370
    25
100
AcDbLine
 10
169.1644085271
 20
253.3102802702
 30
0.0
 11
180.8023948176
 21
253.3099971934
 31
0.0
  0
LINE
  5
154
330
1F
100
AcDbEntity
  8
0
  6
Continuous
 62
     7
370
    25
100
AcDbLine
 10
180.6643939995
 20
253.3105599239
 30
0.0
 11
185.1749795306
 21
253.3105599239
 31
0.0
  0
LINE
  5
155
330
1F
100
AcDbEntity
  8
0
  6
Continuous
 62
     7
370
    25
100
AcDbLine
 10
180.8024001488
 20
289.3111226545
 30
0.0
 11
169.1644097153
 21
289.3108395776
 31
0.0
  0
LINE
  5
156
330
1F
100
AcDbEntity
  8
0
  6
Continuous
 62
     7
370
    25
100
AcDbLine
 10
169.1987173465
 20
289.3108403661
 30
0.0
 11
163.4144310448
 21
289.3092417696
 31
0.0
  0
LINE
  5
157
330
1F
100
AcDbEntity
  8
0
  6
Continuous
 62
     7
370
    25
100
AcDbLine
 10
185.1749795306
 20
289.3105599239
 30
0.0
 11
180.6644002584
 21
289.3105599239
 31
0.0
  0
ARC
  5
158
330
1F
100
AcDbEntity
  8
0
  6
Continuous
 62
     7
370
    25
100
AcDbCircle
 10
185.1749795306
 20
253.8105599239
 30
0.0
 40
0.5
100
AcDbArc
 50
270.0000000011
 51
360.0
  0
ARC
  5
159
330
1F
100
AcDbEntity
  8
0
  6
Continuous
 62
     7
370
    25
100
AcDbCircle
 10
185.1749795306
 20
288.8105599239
 30
0.0
 40
0.5
100
AcDbArc
 50
0.0
 51
90.0000000011
  0
SPLINE
  5
15A
330
1F
100
AcDbEntity
  8
0
  6
Continuous
 62
     7
370
    25
100
AcDbSpline
210
0.0
220
0.0
230
1.0
 70
     8
 71
     3
 72
     9
 73
     5
 74
     0
 42
0.00000001
 43
0.00000001
 40
0.0
 40
0.0
 40
0.0
 40
0.0
 40
0.4244612518149647
 40
1.0
 40
1.0
 40
1.0
 40
1.0
 10
162.4273911210173
 20
289.3102714196622
 30
0.0
 10
161.7528310605719
 20
289.3106192980879
 30
0.0
 10
160.1636163617953
 20
289.3114388744903
 30
0.0
 10
158.5773757061264
 20
289.311459130625
 30
0.0
 10
157.6644327448425
 20
289.3114707888154
 30
0.0
  0
ARC
  5
15B
330
1F
100
AcDbEntity
  8
0
  6
Continuous
 62
     7
370
    25
100
AcDbCircle
 10
151.6697068166
 20
271.3105599239
 30
0.0
 40
11.0
100
AcDbArc
 50
90.0
 51
180.0
  0
ARC
  5
15C
330
1F
100
AcDbEntity
  8
0
  6
Continuous
 62
     7
370
    25
100
AcDbCircle
 10
151.6697068166
 20
271.3105599239
 30
0.0
 40
11.00000000000003
100
AcDbArc
 50
0.0
 51
90.0
  0
ARC
  5
15D
330
1F
100
AcDbEntity
  8
0
  6
Continuous
 62
     7
370
    25
100
AcDbCircle
 10
151.867155968
 20
101.5652181817
 30
0.0
 40
10.80400103098704
100
AcDbArc
 50
268.9528293402
 51
359.061225051
  0
ARC
  5
15E
330
1F
100
AcDbEntity
  8
0
  6
Continuous
 62
     7
370
    25
100
AcDbCircle
 10
151.487822268
 20
101.5813318441
 30
0.0
 40
10.81983916929912
100
AcDbArc
 50
181.0227420239
 51
270.9632035849
  0
SPLINE
  5
15F
330
1F
100
AcDbEntity
  8
0
  6
Continuous
 62
     7
370
    25
100
AcDbSpline
210
0.0
220
0.0
230
1.0
 70
     8
 71
     3
 72
    21
 73
    17
 74
     0
 42
0.00000001
 43
0.00000001
 40
0.0
 40
0.0
 40
0.0
 40
0.0
 40
0.0379325822848522
 40
0.0821462375124982
 40
0.1233755776817133
 40
0.1586378557736929
 40
0.2435265170784904
 40
0.2940767680839615
 40
0.3665173279046601
 40
0.4370384404077432
 40
0.5043650361638812
 40
0.5402715150378945
 40
0.6124027325724766
 40
0.7151482885213708
 40
0.8455318048111755
 40
1.0
 40
1.0
 40
1.0
 40
1.0
 10
215.4952086520303
 20
287.290195480959
 30
0.0
 10
215.4962050408306
 20
287.2884266120879
 30
0.0
 10
215.4983628056364
 20
287.2845959758997
 30
0.0
 10
215.5026493830343
 20
287.2753949465454
 30
0.0
 10
215.5068771923972
 20
287.250055227421
 30
0.0
 10
215.5116654708479
 20
287.1844537457694
 30
0.0
 10
215.5162557464396
 20
287.0545028098571
 30
0.0
 10
215.5220755655971
 20
286.7885078735852
 30
0.0
 10
215.5275911723166
 20
286.4312838698765
 30
0.0
 10
215.533168356662
 20
285.8678111969291
 30
0.0
 10
215.537366240598
 20
285.231288462052
 30
0.0
 10
215.5407729102868
 20
284.4684845167791
 30
0.0
 10
215.5439854783633
 20
283.426004466235
 30
0.0
 10
215.5469298571676
 20
281.7620544941049
 30
0.0
 10
215.5485752423638
 20
279.5573990837156
 30
0.0
 10
215.5485806504217
 20
277.9273131828942
 30
0.0
 10
215.5485835830808
 20
277.0433570156816
 30
0.0
  0
SPLINE
  5
160
330
1F
100
AcDbEntity
  8
0
  6
Continuous
 62
     7
370
    25
100
AcDbSpline
210
0.0
220
0.0
230
1.0
 70
     8
 71
     3
 72
    22
 73
    18
 74
     0
 42
0.00000001
 43
0.00000001
 40
0.0
 40
0.0
 40
0.0
 40
0.0
 40
0.0842621721557377
 40
0.157772630410019
 40
0.2196670150734696
 40
0.2769991197859124
 40
0.3543224217888064
 40
0.4251699069442556
 40
0.4916285602776788
 40
0.5575670895181112
 40
0.6273930392097644
 40
0.7033077582513785
 40
0.7633985017153919
 40
0.8284366484197248
 40
0.9073750651069746
 40
0.9468984815541888
 40
1.0
 40
1.0
 40
1.0
 40
1.0
 10
220.2147844447852
 20
288.0742423859345
 30
0.0
 10
220.214881950855
 20
288.07110379636
 30
0.0
 10
220.2150645213812
 20
288.0652270960533
 30
0.0
 10
220.2174095333907
 20
287.9896049162763
 30
0.0
 10
220.2220345371012
 20
287.8394253731715
 30
0.0
 10
220.2295502460671
 20
287.5926303057446
 30
0.0
 10
220.2412823223816
 20
287.2007404684475
 30
0.0
 10
220.2587102529441
 20
286.5991365496078
 30
0.0
 10
220.2799586346063
 20
285.8323052945384
 30
0.0
 10
220.304818618915
 20
284.880795428609
 30
0.0
 10
220.3323230945776
 20
283.7440522076401
 30
0.0
 10
220.3583911205107
 20
282.5544497879159
 30
0.0
 10
220.3819806839369
 20
281.3545778745872
 30
0.0
 10
220.403732530178
 20
280.1168573211864
 30
0.0
 10
220.420663138591
 20
278.9951858776345
 30
0.0
 10
220.4345056371827
 20
277.9456423746468
 30
0.0
 10
220.440822307797
 20
277.3789013907101
 30
0.0
 10
220.4444436307326
 20
277.0539909673207
 30
0.0
  0
SPLINE
  5
161
330
1F
100
AcDbEntity
  8
0
  6
Continuous
 62
     7
370
    25
100
AcDbSpline
210
0.0
220
0.0
230
1.0
 70
     8
 71
     3
 72
    26
 73
    22
 74
     0
 42
0.00000001
 43
0.00000001
 40
0.0
 40
0.0
 40
0.0
 40
0.0
 40
0.1249999999999972
 40
0.1249999999999972
 40
0.2499999999999944
 40
0.2499999999999944
 40
0.3749999999999917
 40
0.3749999999999917
 40
0.4374999999999925
 40
0.4374999999999925
 40
0.4999999999999933
 40
0.4999999999999933
 40
0.5624999999999941
 40
0.5624999999999941
 40
0.624999999999995
 40
0.624999999999995
 40
0.7499999999999967
 40
0.7499999999999967
 40
0.8749999999999983
 40
0.8749999999999983
 40
1.0
 40
1.0
 40
1.0
 40
1.0
 10
215.4952545974309
 20
255.330934563018
 30
0.0
 10
215.4989997718794
 20
255.3346463045296
 30
0.0
 10
215.5027490062126
 20
255.3401822444764
 30
0.0
 10
215.5102304363253
 20
255.4247494153535
 30
0.0
 10
215.5139620173332
 20
255.5026598475558
 30
0.0
 10
215.5212968977034
 20
255.7838514790822
 30
0.0
 10
215.5249124827897
 20
255.9869957453518
 30
0.0
 10
215.5300386789039
 20
256.4329020390198
 30
0.0
 10
215.5316935046487
 20
256.6052445324961
 30
0.0
 10
215.5348058058314
 20
257.0038560074494
 30
0.0
 10
215.5362610765487
 20
257.2303814659961
 30
0.0
 10
215.5388950911967
 20
257.736220155492
 30
0.0
 10
215.5400733492543
 20
258.0154435574199
 30
0.0
 10
215.5421430421654
 20
258.6121052769523
 30
0.0
 10
215.5430357097898
 20
258.9291075004803
 30
0.0
 10
215.5453390792539
 20
259.9103759184259
 30
0.0
 10
215.5463803652168
 20
260.6015959781228
 30
0.0
 10
215.5478228559566
 20
262.0043021487308
 30
0.0
 10
215.5482182879471
 20
262.7180209780715
 30
0.0
 10
215.5486076802686
 20
264.1470436438352
 30
0.0
 10
215.5486172564965
 20
264.8624928878357
 30
0.0
 10
215.5486172801297
 20
265.5777628321176
 30
0.0
  0
SPLINE
  5
162
330
1F
100
AcDbEntity
  8
0
  6
Continuous
 62
     7
370
    25
100
AcDbSpline
210
0.0
220
0.0
230
1.0
 70
     8
 71
     3
 72
    18
 73
    14
 74
     0
 42
0.00000001
 43
0.00000001
 40
0.0
 40
0.0
 40
0.0
 40
0.0
 40
0.0951133524589167
 40
0.1781574188588628
 40
0.2481366807916869
 40
0.3129402712384448
 40
0.4411674060007214
 40
0.555345080614578
 40
0.6683325635652232
 40
0.7939465512387911
 40
0.8619207431858693
 40
0.935503384213329
 40
1.0
 40
1.0
 40
1.0
 40
1.0
 10
220.4444436307326
 20
265.5671288804688
 30
0.0
 10
220.4385429292163
 20
265.0518402376366
 30
0.0
 10
220.4274902880841
 20
264.0866498390128
 30
0.0
 10
220.4074746013077
 20
262.74335811958
 30
0.0
 10
220.3875305054347
 20
261.5708809865591
 30
0.0
 10
220.360909261263
 20
260.1738693578755
 30
0.0
 10
220.3261595619825
 20
258.5897295559656
 30
0.0
 10
220.2851940663568
 20
256.9716144958306
 30
0.0
 10
220.2522805646311
 20
255.7917707271775
 30
0.0
 10
220.2337399061413
 20
255.167252835844
 30
0.0
 10
220.223640823297
 20
254.8340675521569
 30
0.0
 10
220.2184420357611
 20
254.6649676101563
 30
0.0
 10
220.2171471296988
 20
254.6231721835959
 30
0.0
 10
220.2165422810002
 20
254.6036496019229
 30
0.0
  0
SPLINE
  5
163
330
1F
100
AcDbEntity
  8
0
  6
Continuous
 62
     7
370
    25
100
AcDbSpline
210
0.0
220
0.0
230
1.0
 70
     8
 71
     3
 72
    10
 73
     6
 74
     0
 42
0.00000001
 43
0.00000001
 40
0.0
 40
0.0
 40
0.0
 40
0.0
 40
0.2682609335333586
 40
0.601582913610364
 40
1.0
 40
1.0
 40
1.0
 40
1.0
 10
220.2156605311279
 20
254.5751164355571
 30
0.0
 10
220.2155129831483
 20
254.5703579426555
 30
0.0
 10
220.2151821025304
 20
254.5596868844943
 30
0.0
 10
220.2149230022624
 20
254.5513404819718
 30
0.0
 10
220.2148332908374
 20
254.5484508227281
 30
0.0
 10
220.2147844447853
 20
254.546877461855
 30
0.0
  0
LINE
  5
164
330
1F
100
AcDbEntity
  8
0
  6
Continuous
 62
     7
370
    25
100
AcDbLine
 10
215.5486217502
 20
265.5777628321
 30
0.0
 11
215.5486367761
 21
271.3105599239
 31
0.0
  0
LINE
  5
165
330
1F
100
AcDbEntity
  8
0
  6
Continuous
 62
     7
370
    25
100
AcDbLine
 10
215.5486367761
 20
271.3105599239
 30
0.0
 11
215.5486217502
 21
277.0433570157
 31
0.0
  0
ARC
  5
166
330
1F
100
AcDbEntity
  8
0
  6
Continuous
 62
     7
370
    25
100
AcDbCircle
 10
-319.6750204695
 20
271.3105599239
 30
0.0
 40
540.1500000001
100
AcDbArc
 50
359.3907607887
 51
0.6092392113
  0
SPLINE
  5
167
330
1F
100
AcDbEntity
  8
0
  6
Continuous
 62
     7
370
    25
100
AcDbSpline
210
0.0
220
0.0
230
1.0
 70
     8
 71
     3
 72
    10
 73
     6
 74
     0
 42
0.00000001
 43
0.00000001
 40
0.0
 40
0.0
 40
0.0
 40
0.0
 40
0.5480832343511005
 40
0.7926729106082429
 40
1.0
 40
1.0
 40
1.0
 40
1.0
 10
215.1438815424126
 20
271.7005387150313
 30
0.0
 10
215.1440355181546
 20
271.6194879587803
 30
0.0
 10
215.1442582076878
 20
271.50226718858
 30
0.0
 10
215.1447857087523
 20
271.3723224780746
 30
0.0
 10
215.1451041994654
 20
271.3299837690976
 30
0.0
 10
215.14525031432
 20
271.3105599238942
 30
0.0
  0
SPLINE
  5
168
330
1F
100
AcDbEntity
  8
0
  6
Continuous
 62
     7
370
    25
100
AcDbSpline
210
0.0
220
0.0
230
1.0
 70
     8
 71
     3
 72
     9
 73
     5
 74
     0
 42
0.00000001
 43
0.00000001
 40
0.0
 40
0.0
 40
0.0
 40
0.0
 40
0.7913745955474554
 40
1.0
 40
1.0
 40
1.0
 40
1.0
 10
215.1439001628458
 20
270.9203548689448
 30
0.0
 10
215.1441213292987
 20
271.0422958535814
 30
0.0
 10
215.1444008005556
 20
271.1963834188415
 30
0.0
 10
215.1451036765346
 20
271.2908514853187
 30
0.0
 10
215.14525031432
 20
271.3105599238954
 30
0.0
  0
LINE
  5
169
330
1F
100
AcDbEntity
  8
0
  6
Continuous
 62
     7
370
    25
100
AcDbLine
 10
215.0755492627
 20
283.5727599047
 30
0.0
 11
215.0777430566
 21
283.6450466145
 31
0.0
  0
LWPOLYLINE
  5
16A
330
1F
100
AcDbEntity
  8
0
  6
Continuous
 62
     7
370
    25
100
AcDbPolyline
 90
       11
 70
   128
 43
0.0
 10
214.9635508504
 20
271.3105598673
 10
214.974582501
 20
271.3105598339
 10
214.9823952882
 20
271.3102507744
 10
214.9845799582
 20
271.3103897392
 10
214.9852378205
 20
271.3105099709
 10
215.0079754291
 20
271.3105599239
 10
215.0080830759
 20
271.3105599239
 10
215.0089097746
 20
271.3105599239
 10
215.0111893413
 20
271.3105599239
 10
215.0198075419
 20
271.3105599239
 10
215.0402008817
 20
271.3105599239
  0
LWPOLYLINE
  5
16B
330
1F
100
AcDbEntity
  8
0
  6
Continuous
 62
     7
370
    25
100
AcDbPolyline
 90
       17
 70
   128
 43
0.0
 10
215.0497930961
 20
281.653068098
 10
214.9749401214
 20
275.8551336756
 10
214.9641892173
 20
272.4280598431
 10
214.9635937968
 20
271.5047725384
 10
214.96359704
 20
271.3136214034
 10
214.9635508504
 20
271.3105598673
 10
214.9635954145
 20
271.2952107998
 10
214.9635926512
 20
271.2904259213
 10
214.9635906792
 20
271.2891377263
 10
214.9635895337
 20
271.2887695047
 10
214.9635882776
 20
271.2885851143
 10
214.9635869078
 20
271.2885844833
 10
214.9635861794
 20
271.2886530536
 10
214.9635854213
 20
271.2887675342
 10
214.9635820863
 20
271.2896843427
 10
214.9635738909
 20
271.2937180943
 10
214.9635508504
 20
271.3105598673
  0
LINE
  5
16C
330
1F
100
AcDbEntity
  8
0
  6
Continuous
 62
     7
370
    25
100
AcDbLine
 10
215.0490879867
 20
260.9680482039
 30
0.0
 11
215.0376989669
 21
261.8160060743
 31
0.0
  0
LINE
  5
16D
330
1F
100
AcDbEntity
  8
0
  6
Continuous
 62
     7
370
    25
100
AcDbLine
 10
215.0755492627
 20
259.0483599431
 30
0.0
 11
215.0777430506
 21
258.9760734311
 31
0.0
  0
LINE
  5
16E
330
1F
100
AcDbEntity
  8
0
  6
Continuous
 62
     7
370
    25
100
AcDbLine
 10
215.2037930991
 20
256.1875438228
 30
0.0
 11
215.2359605918
 21
255.7912733222
 31
0.0
  0
LINE
  5
16F
330
1F
100
AcDbEntity
  8
0
  6
Continuous
 62
     7
370
    25
100
AcDbLine
 10
215.2359715633
 20
286.829980129
 30
0.0
 11
215.2037970203
 21
286.4336246614
 31
0.0
  0
LINE
  5
170
330
1F
100
AcDbEntity
  8
0
  6
Continuous
 62
     7
370
    25
100
AcDbLine
 10
220.2078880556
 20
288.2948933692
 30
0.0
 11
220.2147844448
 21
288.0742423859
 31
0.0
  0
LINE
  5
171
330
1F
100
AcDbEntity
  8
0
  6
Continuous
 62
     7
370
    25
100
AcDbLine
 10
220.2147844448
 20
254.5468774619
 30
0.0
 11
220.2078880558
 21
254.3262264862
 31
0.0
  0
LINE
  5
172
330
1F
100
AcDbEntity
  8
0
  6
Continuous
 62
     7
370
    25
100
AcDbLine
 10
162.506188671
 20
289.3094499797
 30
0.0
 11
180.6643992856
 21
289.3052872993
 31
0.0
  0
SPLINE
  5
173
330
1F
100
AcDbEntity
  8
0
  6
Continuous
 62
     7
370
    25
100
AcDbSpline
210
0.0
220
0.0
230
1.0
 70
     8
 71
     3
 72
    16
 73
    12
 74
     0
 42
0.00000001
 43
0.00000001
 40
0.0
 40
0.0
 40
0.0
 40
0.0
 40
0.1249999999999993
 40
0.1249999999999993
 40
0.2499999999999985
 40
0.2499999999999985
 40
0.499999999999999
 40
0.499999999999999
 40
0.7499999999999994
 40
0.7499999999999994
 40
1.0
 40
1.0
 40
1.0
 40
1.0
 10
157.6649382333723
 20
289.3111028409874
 30
0.0
 10
157.6654608803699
 20
289.3116238484566
 30
0.0
 10
157.6645458750171
 20
289.3107062613674
 30
0.0
 10
157.6642246297534
 20
289.3103808414426
 30
0.0
 10
157.6643314762021
 20
289.3104857758561
 30
0.0
 10
157.6642135092287
 20
289.3103617853895
 30
0.0
 10
157.6638581901922
 20
289.3100022693614
 30
0.0
 10
157.6646581417124
 20
289.310794816909
 30
0.0
 10
157.6652535677265
 20
289.3113866690329
 30
0.0
 10
157.6641819207043
 20
289.3103063914277
 30
0.0
 10
157.6654334591221
 20
289.3115547859582
 30
0.0
 10
157.6649210905389
 20
289.3110381174582
 30
0.0
  0
SPLINE
  5
174
330
1F
100
AcDbEntity
  8
0
  6
Continuous
 62
     7
370
    25
100
AcDbSpline
210
0.0
220
0.0
230
1.0
 70
     8
 71
     3
 72
    12
 73
     8
 74
     0
 42
0.00000001
 43
0.00000001
 40
0.0
 40
0.0
 40
0.0
 40
0.0
 40
0.276507520124195
 40
0.4502019130166809
 40
0.5659045108491282
 40
0.8594519106631162
 40
1.0
 40
1.0
 40
1.0
 40
1.0
 10
164.7693007296234
 20
253.3116260725168
 30
0.0
 10
166.2343385245547
 20
253.3116249321011
 30
0.0
 10
168.6196726291158
 20
253.3116230753077
 30
0.0
 10
171.618040002142
 20
253.3145920188568
 30
0.0
 10
174.7066920510465
 20
253.3151474372499
 30
0.0
 10
177.6197228848985
 20
253.3150590892088
 30
0.0
 10
179.9197190083963
 20
253.3156961437779
 30
0.0
 10
180.6643940135943
 20
253.3159024043928
 30
0.0
  0
LINE
  5
175
330
1F
100
AcDbEntity
  8
0
  6
Continuous
 62
     7
370
    25
100
AcDbLine
 10
157.6644525079
 20
289.3105599239
 30
0.0
 11
145.6749611254
 21
289.3105599239
 31
0.0
  0
SPLINE
  5
176
330
1F
100
AcDbEntity
  8
0
  6
Continuous
 62
     7
370
    25
100
AcDbSpline
210
0.0
220
0.0
230
1.0
 70
     8
 71
     3
 72
    22
 73
    18
 74
     0
 42
0.00000001
 43
0.00000001
 40
0.0
 40
0.0
 40
0.0
 40
0.0
 40
0.125
 40
0.125
 40
0.25
 40
0.25
 40
0.375
 40
0.375
 40
0.5
 40
0.5
 40
0.625
 40
0.625
 40
0.75
 40
0.75
 40
0.875
 40
0.875
 40
1.0
 40
1.0
 40
1.0
 40
1.0
 10
169.6644341027261
 20
277.3315771428218
 30
0.0
 10
169.6630259753683
 20
278.1425108673839
 30
0.0
 10
169.6588901549934
 20
278.9604986276944
 30
0.0
 10
169.552908983653
 20
280.6035437620966
 30
0.0
 10
169.4518749208702
 20
281.4266643915885
 30
0.0
 10
169.0939062238023
 20
283.0505282798611
 30
0.0
 10
168.8371687940246
 20
283.851383591318
 30
0.0
 10
168.1032407488578
 20
285.366841103425
 30
0.0
 10
167.6200174227198
 20
286.0788463672127
 30
0.0
 10
166.4150599676925
 20
287.2814034696733
 30
0.0
 10
165.7023719801693
 20
287.7633982768982
 30
0.0
 10
164.1855527977386
 20
288.4949182273855
 30
0.0
 10
163.3844428546427
 20
288.7501958340315
 30
0.0
 10
161.7598159248153
 20
289.1055484101861
 30
0.0
 10
160.9365510264224
 20
289.2052613378386
 30
0.0
 10
159.2934088147015
 20
289.3080578306485
 30
0.0
 10
158.4753103975524
 20
289.3105648078755
 30
0.0
 10
157.6644525078877
 20
289.310559923893
 30
0.0
  0
ARC
  5
177
330
1F
100
AcDbEntity
  8
0
  6
Continuous
 62
     7
370
    25
100
AcDbCircle
 10
-3268.0927719824
 20
271.3105599239
 30
0.0
 40
3437.762478799
100
AcDbArc
 50
359.8996501202
 51
0.1003498798
  0
SPLINE
  5
178
330
1F
100
AcDbEntity
  8
0
  6
Continuous
 62
     7
370
    25
100
AcDbSpline
210
0.0
220
0.0
230
1.0
 70
     8
 71
     3
 72
    14
 73
    10
 74
     0
 42
0.00000001
 43
0.00000001
 40
0.0
 40
0.0
 40
0.0
 40
0.0
 40
0.0047282008010661
 40
0.1722119882505735
 40
0.3311503821366538
 40
0.4900337512415841
 40
0.6574117426301499
 40
0.8295316416928813
 40
1.0
 40
1.0
 40
1.0
 40
1.0
 10
162.6697068166477
 20
253.7210780774552
 30
0.0
 10
162.6929610287613
 20
253.7243312745586
 30
0.0
 10
163.5399331164089
 20
253.8428202230843
 30
0.0
 10
165.0969188381541
 20
254.469766147334
 30
0.0
 10
167.1187790283614
 20
255.8327431416805
 30
0.0
 10
168.5210856067753
 20
257.8555010150476
 30
0.0
 10
169.32031013527
 20
260.2186996906441
 30
0.0
 10
169.6537374926758
 20
262.7408121043241
 30
0.0
 10
169.6608800435842
 20
264.4427006450822
 30
0.0
 10
169.6644341027246
 20
265.2895427049709
 30
0.0
  0
SPLINE
  5
179
330
1F
100
AcDbEntity
  8
0
  6
Continuous
 62
     7
370
    25
100
AcDbSpline
210
0.0
220
0.0
230
1.0
 70
     8
 71
     3
 72
    15
 73
    11
 74
     0
 42
0.00000001
 43
0.00000001
 40
0.0
 40
0.0
 40
0.0
 40
0.0
 40
0.1249999999999999
 40
0.25
 40
0.375
 40
0.5
 40
0.625
 40
0.75
 40
0.8750000000000001
 40
1.0
 40
1.0
 40
1.0
 40
1.0
 10
133.6749795305638
 20
277.3315771428215
 30
0.0
 10
133.6764526087105
 20
278.17264515879
 30
0.0
 10
133.6850628067578
 20
279.8640678025482
 30
0.0
 10
134.0235969147376
 20
282.4381715106855
 30
0.0
 10
134.8510709525075
 20
284.8317230860155
 30
0.0
 10
136.2266476703374
 20
286.7751984519555
 30
0.0
 10
138.1732900480572
 20
288.1480323957656
 30
0.0
 10
140.5702435561271
 20
288.9718127880157
 30
0.0
 10
143.1455693986527
 20
289.3054708042358
 30
0.0
 10
144.8352040836913
 20
289.3105599238982
 30
0.0
 10
145.6749611254067
 20
289.3105599238975
 30
0.0
  0
ARC
  5
17A
330
1F
100
AcDbEntity
  8
0
  6
Continuous
 62
     7
370
    25
100
AcDbCircle
 10
3571.4321856156
 20
271.3105599239
 30
0.0
 40
3437.762478799
100
AcDbArc
 50
179.8996501202
 51
180.1003498798
  0
SPLINE
  5
17B
330
1F
100
AcDbEntity
  8
0
  6
Continuous
 62
     7
370
    25
100
AcDbSpline
210
0.0
220
0.0
230
1.0
 70
     8
 71
     3
 72
    14
 73
    10
 74
     0
 42
0.00000001
 43
0.00000001
 40
0.0
 40
0.0
 40
0.0
 40
0.0
 40
0.0047282008010441
 40
0.1722119882505109
 40
0.3311503821365607
 40
0.4900337512414793
 40
0.657411742630043
 40
0.8295316416927947
 40
1.0
 40
1.0
 40
1.0
 40
1.0
 10
140.6697068166477
 20
253.7210780774552
 30
0.0
 10
140.6464526045341
 20
253.7243312745585
 30
0.0
 10
139.7994805168869
 20
253.8428202230843
 30
0.0
 10
138.2424947951424
 20
254.4697661473334
 30
0.0
 10
136.2206346049354
 20
255.8327431416792
 30
0.0
 10
134.8183280265213
 20
257.8555010150454
 30
0.0
 10
134.0191034980257
 20
260.2186996906414
 30
0.0
 10
133.6856761406204
 20
262.7408121043215
 30
0.0
 10
133.6785335897097
 20
264.4427006450799
 30
0.0
 10
133.6749795305683
 20
265.2895427049688
 30
0.0
  0
SPLINE
  5
17C
330
1F
100
AcDbEntity
  8
0
  6
Continuous
 62
     7
370
    25
100
AcDbSpline
210
0.0
220
0.0
230
1.0
 70
     8
 71
     3
 72
    30
 73
    26
 74
     0
 42
0.00000001
 43
0.00000001
 40
0.0
 40
0.0
 40
0.0
 40
0.0
 40
0.0625000000000011
 40
0.0625000000000011
 40
0.1250000000000021
 40
0.1250000000000021
 40
0.1875000000000032
 40
0.1875000000000032
 40
0.2500000000000042
 40
0.2500000000000042
 40
0.3750000000000033
 40
0.3750000000000033
 40
0.4375000000000025
 40
0.4375000000000025
 40
0.5000000000000022
 40
0.5000000000000022
 40
0.5625000000000019
 40
0.5625000000000019
 40
0.6250000000000017
 40
0.6250000000000017
 40
0.7500000000000011
 40
0.7500000000000011
 40
0.8750000000000006
 40
0.8750000000000006
 40
1.0
 40
1.0
 40
1.0
 40
1.0
 10
215.3136018127428
 20
287.4716923131398
 30
0.0
 10
215.3119144272413
 20
287.4733607052859
 30
0.0
 10
215.306826297724
 20
287.4571245958711
 30
0.0
 10
215.2881777102447
 20
287.4160422448651
 30
0.0
 10
215.2745574965531
 20
287.3930132934312
 30
0.0
 10
215.2361954724956
 20
287.3615562820027
 30
0.0
 10
215.2114814186794
 20
287.3528535951691
 30
0.0
 10
215.1473751737446
 20
287.3496296194085
 30
0.0
 10
215.1079958767437
 20
287.3547307495792
 30
0.0
 10
214.9600570522873
 20
287.3767993309858
 30
0.0
 10
214.8235353463605
 20
287.3992948334389
 30
0.0
 10
214.5075379628549
 20
287.3971090917986
 30
0.0
 10
214.3830411061461
 20
287.3904658844058
 30
0.0
 10
214.0817988277808
 20
287.35848124912
 30
0.0
 10
213.9046515479417
 20
287.3330047397825
 30
0.0
 10
213.4903826614323
 20
287.2600771817714
 30
0.0
 10
213.2531216605066
 20
287.212533139624
 30
0.0
 10
212.7281158358679
 20
287.0998148419054
 30
0.0
 10
212.4408888628797
 20
287.0348220989917
 30
0.0
 10
211.5374019546983
 20
286.8317645305072
 30
0.0
 10
210.8846918454069
 20
286.6877391645155
 30
0.0
 10
209.5620654360731
 20
286.4583936807178
 30
0.0
 10
208.8890837670253
 20
286.3746634060261
 30
0.0
 10
207.5427496531227
 20
286.2914553447575
 30
0.0
 10
206.868945905123
 20
286.2913346172343
 30
0.0
 10
206.1985535389511
 20
286.2913532772743
 30
0.0
  0
SPLINE
  5
17D
330
1F
100
AcDbEntity
  8
0
  6
Continuous
 62
     7
370
    25
100
AcDbSpline
210
0.0
220
0.0
230
1.0
 70
     8
 71
     3
 72
    30
 73
    26
 74
     0
 42
0.00000001
 43
0.00000001
 40
0.0
 40
0.0
 40
0.0
 40
0.0
 40
0.0162791397193577
 40
0.0364320772065181
 40
0.0603723069964959
 40
0.0977108266040691
 40
0.1212480003811758
 40
0.1825965712182868
 40
0.2444304117742923
 40
0.2756448257894835
 40
0.306656400734142
 40
0.3372677005983177
 40
0.3692770466348938
 40
0.4321734745431346
 40
0.4952276556031831
 40
0.558420549671564
 40
0.5900945588950888
 40
0.6217992796113565
 40
0.6851195949372524
 40
0.7484022236127537
 40
0.8114187003938922
 40
0.8745832874050227
 40
0.9373825864590467
 40
0.9623958530170829
 40
1.0
 40
1.0
 40
1.0
 40
1.0
 10
215.3136014089888
 20
255.1494278273266
 30
0.0
 10
215.3129451522367
 20
255.1499772434422
 30
0.0
 10
215.3114764753242
 20
255.151206815194
 30
0.0
 10
215.3065230644323
 20
255.1638060029049
 30
0.0
 10
215.2965703177118
 20
255.1880372110655
 30
0.0
 10
215.2800725016355
 20
255.2177684604227
 30
0.0
 10
215.2454268789259
 20
255.2573282356139
 30
0.0
 10
215.1866790998224
 20
255.2766879464603
 30
0.0
 10
215.0881584053124
 20
255.2632245457604
 30
0.0
 10
214.9789929944958
 20
255.2478172539477
 30
0.0
 10
214.8810105339227
 20
255.2344563870176
 30
0.0
 10
214.7624055989674
 20
255.2242232859614
 30
0.0
 10
214.5701959582709
 20
255.2210291379002
 30
0.0
 10
214.2582522375922
 20
255.2371403045246
 30
0.0
 10
213.7268603936589
 20
255.3135065094559
 30
0.0
 10
213.1336763907296
 20
255.4327443151663
 30
0.0
 10
212.5843435679068
 20
255.5539865738629
 30
0.0
 10
211.9966142097258
 20
255.6863886047874
 30
0.0
 10
211.2091494503553
 20
255.8616564517955
 30
0.0
 10
210.2281441217251
 20
256.0549574214583
 30
0.0
 10
209.2276235240879
 20
256.2052255508475
 30
0.0
 10
208.2186283106117
 20
256.2980089516563
 30
0.0
 10
207.4089085175919
 20
256.3241513354806
 30
0.0
 10
206.7361770194348
 20
256.3290173822854
 30
0.0
 10
206.4002754403264
 20
256.3294865323661
 30
0.0
 10
206.1985537204676
 20
256.3297682748973
 30
0.0
  0
SPLINE
  5
17E
330
1F
100
AcDbEntity
  8
0
  6
Continuous
 62
     7
370
    25
100
AcDbSpline
210
0.0
220
0.0
230
1.0
 70
    24
 71
     3
 72
     8
 73
     4
 74
     0
 42
0.00000001
 43
0.00000001
 40
0.0
 40
0.0
 40
0.0
 40
0.0
 40
0.9999999999999999
 40
0.9999999999999999
 40
0.9999999999999999
 40
0.9999999999999999
 10
188.1749795305677
 20
280.2010848077856
 30
0.0
 10
188.1749795305677
 20
274.2851562385258
 30
0.0
 10
188.1749795305677
 20
268.3359636092636
 30
0.0
 10
188.1749795305677
 20
262.4200350400038
 30
0.0
  0
SPLINE
  5
17F
330
1F
100
AcDbEntity
  8
0
  6
Continuous
 62
     7
370
    25
100
AcDbSpline
210
0.0
220
0.0
230
1.0
 70
     8
 71
     3
 72
    10
 73
     6
 74
     0
 42
0.00000001
 43
0.00000001
 40
0.0
 40
0.0
 40
0.0
 40
0.0
 40
0.1094277913245008
 40
0.5546489206774843
 40
0.9999999999999999
 40
0.9999999999999999
 40
0.9999999999999999
 40
0.9999999999999999
 10
189.3799427149663
 20
289.3103025436963
 30
0.0
 10
189.3278886158223
 20
289.3103843542938
 30
0.0
 10
189.0640456783232
 20
289.3107990218941
 30
0.0
 10
188.8186489191243
 20
289.3092816351094
 30
0.0
 10
188.7288005879224
 20
289.3066188145381
 30
0.0
 10
188.6838698671047
 20
289.3052872099765
 30
0.0
  0
SPLINE
  5
180
330
1F
100
AcDbEntity
  8
0
  6
Continuous
 62
     7
370
    25
100
AcDbSpline
210
0.0
220
0.0
230
1.0
 70
     8
 71
     3
 72
     9
 73
     5
 74
     0
 42
0.00000001
 43
0.00000001
 40
0.0
 40
0.0
 40
0.0
 40
0.0
 40
0.552964432861315
 40
1.0
 40
1.0
 40
1.0
 40
1.0
 10
188.6838698671047
 20
253.3158326378128
 30
0.0
 10
188.733548955577
 20
253.3141221075278
 30
0.0
 10
188.823390336903
 20
253.3110287254161
 30
0.0
 10
189.2067752698067
 20
253.3108752271645
 30
0.0
 10
189.3781619707197
 20
253.3108066079865
 30
0.0
  0
LINE
  5
181
330
1F
100
AcDbEntity
  8
0
  6
Continuous
 62
     7
370
    25
100
AcDbLine
 10
185.6749795306
 20
277.3053056151
 30
0.0
 11
185.6749795306
 21
265.3158142327
 31
0.0
  0
ARC
  5
182
330
1F
100
AcDbEntity
  8
0
  6
Continuous
 62
     7
370
    25
100
AcDbCircle
 10
219.2070655252
 20
288.3052880349
 30
0.0
 40
0.9999991751066841
100
AcDbArc
 50
1.8063809098
 51
90.0000485672
  0
LINE
  5
183
330
1F
100
AcDbEntity
  8
0
  6
Continuous
 62
     7
370
    25
100
AcDbLine
 10
220.206897859
 20
288.3263300286
 30
0.0
 11
220.2078880556
 21
288.2948933692
 31
0.0
  0
LINE
  5
184
330
1F
100
AcDbEntity
  8
0
  6
Continuous
 62
     7
370
    25
100
AcDbLine
 10
220.2078880558
 20
254.3262264862
 30
0.0
 11
220.206897831
 21
254.2947889306
 31
0.0
  0
SPLINE
  5
185
330
1F
100
AcDbEntity
  8
0
  6
Continuous
 62
     7
370
    25
100
AcDbSpline
210
0.0
220
0.0
230
1.0
 70
    24
 71
     3
 72
    24
 73
    20
 74
     0
 42
0.00000001
 43
0.00000001
 40
0.0
 40
0.0
 40
0.0
 40
0.0
 40
0.0316546203574007
 40
0.0632475702350407
 40
0.1262439699068742
 40
0.2515843698284059
 40
0.3140304280741966
 40
0.3762584822280831
 40
0.4382147443668716
 40
0.4999532810281114
 40
0.5616929929743587
 40
0.6236496252219798
 40
0.6858772727784083
 40
0.7483229003888758
 40
0.798420211884793
 40
0.873755644153737
 40
0.9367538753531901
 40
0.9683463062511048
 40
1.0
 40
1.0
 40
1.0
 40
1.0
 10
185.6749795305677
 20
265.3158142326546
 30
0.0
 10
185.6749795305677
 20
265.1135417718035
 30
0.0
 10
185.6749795305677
 20
264.7093909233696
 30
0.0
 10
185.6749795305677
 20
263.9026673586594
 30
0.0
 10
185.6749795305676
 20
262.4982302711366
 30
0.0
 10
185.6749795305677
 20
260.8996742681564
 30
0.0
 10
185.6749795305677
 20
259.3544386373071
 30
0.0
 10
185.6749795305677
 20
258.2428965483999
 30
0.0
 10
185.6749795305677
 20
257.2083309698405
 30
0.0
 10
185.6749795305677
 20
256.2896479773089
 30
0.0
 10
185.6749795305677
 20
255.5291466047755
 30
0.0
 10
185.6749795305677
 20
254.9335083040884
 30
0.0
 10
185.6749795305677
 20
254.4906293032539
 30
0.0
 10
185.6749795305677
 20
254.1976208826402
 30
0.0
 10
185.6749795305677
 20
253.9842059897532
 30
0.0
 10
185.6749795305677
 20
253.8642039705727
 30
0.0
 10
185.6749795305677
 20
253.8263064593693
 30
0.0
 10
185.6749795305677
 20
253.8171868479043
 30
0.0
 10
185.6749795305677
 20
253.8162838214951
 30
0.0
 10
185.6749795305677
 20
253.8158318709359
 30
0.0
  0
SPLINE
  5
186
330
1F
100
AcDbEntity
  8
0
  6
Continuous
 62
     7
370
    25
100
AcDbSpline
210
0.0
220
0.0
230
1.0
 70
    24
 71
     3
 72
    24
 73
    20
 74
     0
 42
0.00000001
 43
0.00000001
 40
0.0
 40
0.0
 40
0.0
 40
0.0
 40
0.0316535988476854
 40
0.0632461292046402
 40
0.1262431471170469
 40
0.2515853251913786
 40
0.3140314143117437
 40
0.3762590060618006
 40
0.4382147478844142
 40
0.4999527709811265
 40
0.5616930170544917
 40
0.6236501955930353
 40
0.6858781889170122
 40
0.7483238019957886
 40
0.7984206079826008
 40
0.8737548473926995
 40
0.9367524760748254
 40
0.9683453037358536
 40
1.0
 40
1.0
 40
1.0
 40
1.0
 10
185.6749795305677
 20
288.8052879768766
 30
0.0
 10
185.6749795305677
 20
288.8048373548335
 30
0.0
 10
185.6749795305677
 20
288.803936980121
 30
0.0
 10
185.6749795305677
 20
288.7948108147735
 30
0.0
 10
185.6749795305677
 20
288.7457119317088
 30
0.0
 10
185.6749795305677
 20
288.5493395954686
 30
0.0
 10
185.6749795305677
 20
288.1305622504037
 30
0.0
 10
185.6749795305677
 20
287.6875946954752
 30
0.0
 10
185.6749795305677
 20
287.0920070299294
 30
0.0
 10
185.6749795305677
 20
286.3315145728963
 30
0.0
 10
185.6749795305677
 20
285.41283556197
 30
0.0
 10
185.6749795305677
 20
284.3782604049542
 30
0.0
 10
185.6749795305677
 20
283.2667350096677
 30
0.0
 10
185.6749795305677
 20
282.1864634202133
 30
0.0
 10
185.6749795305677
 20
281.0038035181434
 30
0.0
 10
185.6749795305677
 20
279.8039504066154
 30
0.0
 10
185.6749795305677
 20
278.7184178164289
 30
0.0
 10
185.6749795305677
 20
277.9117368104032
 30
0.0
 10
185.6749795305677
 20
277.5075811283199
 30
0.0
 10
185.6749795305677
 20
277.3053056151329
 30
0.0
  0
ARC
  5
187
330
1F
100
AcDbEntity
  8
0
  6
Continuous
 62
     7
370
    25
100
AcDbCircle
 10
188.6749676622
 20
253.8195744416
 30
0.0
 40
0.4999881317985768
100
AcDbArc
 50
180.0013601088
 51
270.0013600439
  0
SPLINE
  5
188
330
1F
100
AcDbEntity
  8
0
  6
Continuous
 62
     7
370
    25
100
AcDbSpline
210
0.0
220
0.0
230
1.0
 70
    24
 71
     3
 72
    22
 73
    18
 74
     0
 42
0.00000001
 43
0.00000001
 40
0.0
 40
0.0
 40
0.0
 40
0.0
 40
0.1250000000000001
 40
0.1250000000000001
 40
0.2500000000000002
 40
0.2500000000000002
 40
0.3750000000000003
 40
0.3750000000000003
 40
0.5000000000000004
 40
0.5000000000000004
 40
0.6250000000000003
 40
0.6250000000000003
 40
0.7500000000000002
 40
0.7500000000000002
 40
0.8750000000000001
 40
0.8750000000000001
 40
1.0
 40
1.0
 40
1.0
 40
1.0
 10
188.1749795305677
 20
262.420035040008
 30
0.0
 10
188.1749795305677
 20
261.7723300036511
 30
0.0
 10
188.1749795305677
 20
261.1281173948936
 30
0.0
 10
188.1749795305677
 20
259.8635834641929
 30
0.0
 10
188.1749795305676
 20
259.2425097710347
 30
0.0
 10
188.1749795305677
 20
258.0554515642835
 30
0.0
 10
188.1749795305677
 20
257.4903431598042
 30
0.0
 10
188.1749795305677
 20
256.4705608633726
 30
0.0
 10
188.1749795305677
 20
256.0199619143749
 30
0.0
 10
188.1749795305677
 20
255.2663406915342
 30
0.0
 10
188.1749795305677
 20
254.9622129920406
 30
0.0
 10
188.1749795305677
 20
254.479578717176
 30
0.0
 10
188.1749795305677
 20
254.2991630770792
 30
0.0
 10
188.1749795305677
 20
254.0341203691985
 30
0.0
 10
188.1749795305677
 20
253.9487188712787
 30
0.0
 10
188.1749795305677
 20
253.8440601325238
 30
0.0
 10
188.1749795305677
 20
253.825954001117
 30
0.0
 10
188.1749795305677
 20
253.8195625726968
 30
0.0
  0
SPLINE
  5
189
330
1F
100
AcDbEntity
  8
0
  6
Continuous
 62
     7
370
    25
100
AcDbSpline
210
0.0
220
0.0
230
1.0
 70
    24
 71
     3
 72
    22
 73
    18
 74
     0
 42
0.00000001
 43
0.00000001
 40
0.0
 40
0.0
 40
0.0
 40
0.0
 40
0.125
 40
0.125
 40
0.25
 40
0.25
 40
0.375
 40
0.375
 40
0.5
 40
0.5
 40
0.625
 40
0.625
 40
0.75
 40
0.75
 40
0.875
 40
0.875
 40
1.0
 40
1.0
 40
1.0
 40
1.0
 10
188.1749795305677
 20
288.8015572750879
 30
0.0
 10
188.1749795305677
 20
288.7951606557421
 30
0.0
 10
188.1749795305677
 20
288.7769919998959
 30
0.0
 10
188.1749795305677
 20
288.6724339589803
 30
0.0
 10
188.1749795305677
 20
288.5870083758437
 30
0.0
 10
188.1749795305677
 20
288.3219007910031
 30
0.0
 10
188.1749795305677
 20
288.1415153835164
 30
0.0
 10
188.1749795305677
 20
287.6588814709634
 30
0.0
 10
188.1749795305677
 20
287.3547323219441
 30
0.0
 10
188.1749795305677
 20
286.6011693394965
 30
0.0
 10
188.1749795305677
 20
286.1505749769342
 30
0.0
 10
188.1749795305677
 20
285.1307381066968
 30
0.0
 10
188.1749795305677
 20
284.5656715687281
 30
0.0
 10
188.1749795305677
 20
283.3785629233882
 30
0.0
 10
188.1749795305677
 20
282.7574880768964
 30
0.0
 10
188.1749795305677
 20
281.4929709316225
 30
0.0
 10
188.1749795305677
 20
280.848790729015
 30
0.0
 10
188.1749795305677
 20
280.2010848077784
 30
0.0
  0
ARC
  5
18A
330
1F
100
AcDbEntity
  8
0
  6
Continuous
 62
     7
370
    25
100
AcDbCircle
 10
188.6749676622
 20
288.8015454062
 30
0.0
 40
0.499988131798321
100
AcDbArc
 50
89.9986399561
 51
179.9986398911
  0
ARC
  5
18B
330
1F
100
AcDbEntity
  8
0
  6
Continuous
 62
     7
370
    25
100
AcDbCircle
 10
188.6838516627
 20
253.8155865111
 30
0.0
 40
0.4997538736643301
100
AcDbArc
 50
246.3180559804
 51
270.0020870937
  0
ARC
  5
18C
330
1F
100
AcDbEntity
  8
0
  6
Continuous
 62
     7
370
    25
100
AcDbCircle
 10
188.6838516632
 20
288.8055333338
 30
0.0
 40
0.4997538764872537
100
AcDbArc
 50
89.9979129557
 51
113.6851471899
  0
LINE
  5
18D
330
1F
100
AcDbEntity
  8
0
  6
Continuous
 62
     7
370
    25
100
AcDbLine
 10
157.6644342475
 20
289.3105599239
 30
0.0
 11
157.6644191685
 21
289.3105599239
 31
0.0
  0
LINE
  5
18E
330
1F
100
AcDbEntity
  8
0
  6
Continuous
 62
     7
370
    25
100
AcDbLine
 10
158.6697068166
 20
295.3105599239
 30
0.0
 11
144.6697068166
 21
295.3105599239
 31
0.0
  0
LINE
  5
18F
330
1F
100
AcDbEntity
  8
0
  6
Continuous
 62
     7
370
    25
100
AcDbLine
 10
127.6697068166
 20
278.3105599239
 30
0.0
 11
127.6697068166
 21
264.3105599239
 31
0.0
  0
SPLINE
  5
190
330
1F
100
AcDbEntity
  8
0
  6
Continuous
 62
     7
370
    25
100
AcDbSpline
210
0.0
220
0.0
230
1.0
 70
     8
 71
     3
 72
    12
 73
     8
 74
     0
 42
0.00000001
 43
0.00000001
 40
0.0
 40
0.0
 40
0.0
 40
0.0
 40
0.1646248438412449
 40
0.3631278929967092
 40
0.5722862301007061
 40
0.7872764462501483
 40
1.0
 40
1.0
 40
1.0
 40
1.0
 10
173.5559832808172
 20
289.3109463961481
 30
0.0
 10
173.0612681399856
 20
290.1063783607535
 30
0.0
 10
171.9700302530905
 20
291.8609345175871
 30
0.0
 10
169.2034170766069
 20
293.697727121101
 30
0.0
 10
165.8648114936102
 20
294.8382805823339
 30
0.0
 10
162.2821846611636
 20
295.3016733404635
 30
0.0
 10
159.8696042875656
 20
295.3076082133413
 30
0.0
 10
158.6697068166476
 20
295.3105599238974
 30
0.0
  0
SPLINE
  5
191
330
1F
100
AcDbEntity
  8
0
  6
Continuous
 62
     7
370
    25
100
AcDbSpline
210
0.0
220
0.0
230
1.0
 70
     8
 71
     3
 72
    11
 73
     7
 74
     0
 42
0.00000001
 43
0.00000001
 40
0.0
 40
0.0
 40
0.0
 40
0.0
 40
0.250228811195076
 40
0.5242540922709749
 40
0.7843195268713806
 40
1.0
 40
1.0
 40
1.0
 40
1.0
 10
162.6697068166477
 20
247.4521249054614
 30
0.0
 10
163.7442741113616
 20
247.5643130816266
 30
0.0
 10
165.9955988048843
 20
247.7993583994623
 30
0.0
 10
169.2028580320929
 20
248.930604612024
 30
0.0
 10
171.9701400551773
 20
250.7587688417606
 30
0.0
 10
173.0613023911548
 20
252.5142996339185
 30
0.0
 10
173.5559832808069
 20
253.3101734516291
 30
0.0
  0
SPLINE
  5
192
330
1F
100
AcDbEntity
  8
0
  6
Continuous
 62
     7
370
    25
100
AcDbSpline
210
0.0
220
0.0
230
1.0
 70
     8
 71
     3
 72
    14
 73
    10
 74
     0
 42
0.00000001
 43
0.00000001
 40
0.0
 40
0.0
 40
0.0
 40
0.0
 40
0.1483395283835557
 40
0.2982596792484018
 40
0.4441130581365073
 40
0.5825361343561047
 40
0.720959210575714
 40
0.866812589463805
 40
1.0
 40
1.0
 40
1.0
 40
1.0
 10
127.6697068166479
 20
264.3105599238958
 30
0.0
 10
127.6724370655714
 20
263.1103038914133
 30
0.0
 10
127.6779266554136
 20
260.6970025740561
 30
0.0
 10
128.14465577327
 20
257.1197775367285
 30
0.0
 10
129.2730428635387
 20
253.7614737650932
 30
0.0
 10
131.2615449831814
 20
250.900662151499
 30
0.0
 10
134.1206530400131
 20
248.9210584728617
 30
0.0
 10
137.3474685531769
 20
247.8015516917666
 30
0.0
 10
139.5963200091988
 20
247.565021715637
 30
0.0
 10
140.6697068166477
 20
247.4521249054614
 30
0.0
  0
SPLINE
  5
193
330
1F
100
AcDbEntity
  8
0
  6
Continuous
 62
     7
370
    25
100
AcDbSpline
210
0.0
220
0.0
230
1.0
 70
     8
 71
     3
 72
    21
 73
    17
 74
     0
 42
0.00000001
 43
0.00000001
 40
0.0
 40
0.0
 40
0.0
 40
0.0
 40
0.0033291836465485
 40
0.0066583672930985
 40
0.0083229591163785
 40
0.0091552550280185
 40
0.0099875509396585
 40
0.0116521427629285
 40
0.0124844386745685
 40
0.0133167345862085
 40
0.0149813264094785
 40
0.0166459182327555
 40
0.0183105100560315
 40
0.0199751018793065
 40
0.0233042855258575
 40
0.0266334691724085
 40
0.0266334691724085
 40
0.0266334691724085
 40
0.0266334691724085
 10
127.6697068166474
 20
278.3105599238958
 30
0.0
 10
127.6697068166464
 20
279.4274242609195
 30
0.0
 10
127.6749424741611
 20
281.7064667853443
 30
0.0
 10
128.0165282781623
 20
284.6159557126433
 30
0.0
 10
128.5397863529483
 20
286.6076315753003
 30
0.0
 10
128.9410059882592
 20
287.7318216633207
 30
0.0
 10
129.4233854947814
 20
288.8490718816314
 30
0.0
 10
130.0246051842774
 20
289.9104969326001
 30
0.0
 10
130.7675428891001
 20
290.8984020458034
 30
0.0
 10
131.6140919117618
 20
291.8279328826
 30
0.0
 10
132.8040864296886
 20
292.8062522768087
 30
0.0
 10
134.4195336672733
 20
293.7178284402435
 30
0.0
 10
136.0914766772489
 20
294.3671373252097
 30
0.0
 10
138.3985505550338
 20
294.9710254410613
 30
0.0
 10
141.2839924200032
 20
295.3041333053374
 30
0.0
 10
143.5561130193119
 20
295.3105599238979
 30
0.0
 10
144.6697068166477
 20
295.3105599238942
 30
0.0
  0
SPLINE
  5
194
330
1F
100
AcDbEntity
  8
0
  6
Continuous
 62
     8
370
    18
100
AcDbSpline
210
0.0
220
0.0
230
1.0
 70
     8
 71
     3
 72
    14
 73
    10
 74
     0
 42
0.00000001
 43
0.00000001
 40
0.0
 40
0.0
 40
0.0
 40
0.0
 40
0.25
 40
0.25
 40
0.5
 40
0.5
 40
0.75
 40
0.75
 40
1.0
 40
1.0
 40
1.0
 40
1.0
 10
218.3951808910776
 20
289.0431934426743
 30
0.0
 10
218.0778436005601
 20
289.0431847653368
 30
0.0
 10
217.7551452168804
 20
289.040133529516
 30
0.0
 10
217.1135551302077
 20
288.9498699562236
 30
0.0
 10
216.7984205930783
 20
288.8635424516881
 30
0.0
 10
216.2536995068101
 20
288.5840648884864
 30
0.0
 10
216.0260267577118
 20
288.3904165339879
 30
0.0
 10
215.6832271620655
 20
287.900502915401
 30
0.0
 10
215.5658465133149
 20
287.6040918128409
 30
0.0
 10
215.4952086520303
 20
287.290195480959
 30
0.0
  0
SPLINE
  5
195
330
1F
100
AcDbEntity
  8
0
  6
Continuous
 62
     8
370
    18
100
AcDbSpline
210
0.0
220
0.0
230
1.0
 70
     8
 71
     3
 72
    20
 73
    16
 74
     0
 42
0.00000001
 43
0.00000001
 40
0.0
 40
0.0
 40
0.0
 40
0.0
 40
0.1019326658551726
 40
0.1966234312472538
 40
0.2831560230299964
 40
0.3612718187491742
 40
0.4308642438632749
 40
0.4913466865473413
 40
0.5643320561110557
 40
0.625419288290168
 40
0.6747956304094611
 40
0.7128575237565635
 40
0.8029968290106836
 40
0.8989822583941874
 40
1.0
 40
1.0
 40
1.0
 40
1.0
 10
219.2152661537277
 20
289.0431934426686
 30
0.0
 10
219.2153480472889
 20
289.038771262079
 30
0.0
 10
219.2155060162076
 20
289.0302410788074
 30
0.0
 10
219.2200055223854
 20
288.8628698544146
 30
0.0
 10
219.2297481950053
 20
288.5118138026156
 30
0.0
 10
219.2440175338629
 20
287.9856302661914
 30
0.0
 10
219.2615061399136
 20
287.314755910784
 30
0.0
 10
219.2818265580435
 20
286.4690284469613
 30
0.0
 10
219.3042078059632
 20
285.4748080323506
 30
0.0
 10
219.3268910222493
 20
284.4161861611856
 30
0.0
 10
219.3450990013074
 20
283.5057774725198
 30
0.0
 10
219.3665601286196
 20
282.384229301406
 30
0.0
 10
219.3926050250942
 20
280.9222982091812
 30
0.0
 10
219.4217241912347
 20
279.0209347512379
 30
0.0
 10
219.4367799758063
 20
277.7136811770401
 30
0.0
 10
219.4445001629885
 20
277.0433579375286
 30
0.0
  0
ARC
  5
196
330
1F
100
AcDbEntity
  8
0
  6
Continuous
 62
     8
370
    18
100
AcDbCircle
 10
219.2152737184
 20
288.0432008068
 30
0.0
 40
0.9999926358647915
100
AcDbArc
 50
1.7788503292
 51
90.0004334271
  0
SPLINE
  5
197
330
1F
100
AcDbEntity
  8
0
  6
Continuous
 62
     8
370
    18
100
AcDbSpline
210
0.0
220
0.0
230
1.0
 70
     8
 71
     3
 72
    16
 73
    12
 74
     0
 42
0.00000001
 43
0.00000001
 40
0.0
 40
0.0
 40
0.0
 40
0.0
 40
0.2500000000000006
 40
0.2500000000000006
 40
0.3749999999999975
 40
0.3749999999999975
 40
0.4999999999999944
 40
0.4999999999999944
 40
0.7499999999999972
 40
0.7499999999999972
 40
1.0
 40
1.0
 40
1.0
 40
1.0
 10
215.4952545733078
 20
255.3309346737208
 30
0.0
 10
215.5644088169957
 20
255.0205282846912
 30
0.0
 10
215.6813571984962
 20
254.726230100179
 30
0.0
 10
215.9391623048855
 20
254.3547907643576
 30
0.0
 10
216.0391200901713
 20
254.2429432676005
 30
0.0
 10
216.2668211539551
 20
254.0487945788706
 30
0.0
 10
216.393872470447
 20
253.9658014248919
 30
0.0
 10
216.8031606414906
 20
253.7564100231599
 30
0.0
 10
217.1128504575077
 20
253.6713548306884
 30
0.0
 10
217.7494721578344
 20
253.583940470601
 30
0.0
 10
218.0778194401425
 20
253.577935094276
 30
0.0
 10
218.3951800032476
 20
253.5779264051324
 30
0.0
  0
SPLINE
  5
198
330
1F
100
AcDbEntity
  8
0
  6
Continuous
 62
     8
370
    18
100
AcDbSpline
210
0.0
220
0.0
230
1.0
 70
     8
 71
     3
 72
    18
 73
    14
 74
     0
 42
0.00000001
 43
0.00000001
 40
0.0
 40
0.0
 40
0.0
 40
0.0
 40
0.0953462832747189
 40
0.1923056274848698
 40
0.2903755187997893
 40
0.3898050562835159
 40
0.4908606725071011
 40
0.5662046170321089
 40
0.6401646849438676
 40
0.7125072606292364
 40
0.7867249734551192
 40
0.8830678495532666
 40
0.9999999999999999
 40
0.9999999999999999
 40
0.9999999999999999
 40
0.9999999999999999
 10
219.4445001629885
 20
265.5777619102597
 30
0.0
 10
219.4372884745411
 20
264.945346413641
 30
0.0
 10
219.4227430908674
 20
263.6698162646786
 30
0.0
 10
219.3939692062164
 20
261.746700128983
 30
0.0
 10
219.3602414994302
 20
259.8266888077789
 30
0.0
 10
219.3224373194634
 20
257.9690996035463
 30
0.0
 10
219.288604185529
 20
256.4483531304272
 30
0.0
 10
219.2631592935104
 20
255.3663950431952
 30
0.0
 10
219.2450539414749
 20
254.6512014846518
 30
0.0
 10
219.231789737793
 20
254.1518619564306
 30
0.0
 10
219.2215972965374
 20
253.7968405131041
 30
0.0
 10
219.2156481246029
 20
253.5933580638552
 30
0.0
 10
219.2154014163112
 20
253.583391026023
 30
0.0
 10
219.2152661537277
 20
253.577926405124
 30
0.0
  0
ARC
  5
199
330
1F
100
AcDbEntity
  8
0
  6
Continuous
 62
     8
370
    18
100
AcDbCircle
 10
219.2152718996
 20
254.5779236054
 30
0.0
 40
0.9999972003262998
100
AcDbArc
 50
269.9996707858
 51
336.5118379115
  0
LINE
  5
19A
330
1F
100
AcDbEntity
  8
0
  6
Continuous
 62
     8
370
    18
100
AcDbLine
 10
219.2152661537
 20
289.0431934427
 30
0.0
 11
218.3951808911
 21
289.0431934427
 31
0.0
  0
SPLINE
  5
19B
330
1F
100
AcDbEntity
  8
0
  6
Continuous
 62
     8
370
    18
100
AcDbSpline
210
0.0
220
0.0
230
1.0
 70
     8
 71
     3
 72
     8
 73
     4
 74
     0
 42
0.00000001
 43
0.00000001
 40
0.0
 40
0.0
 40
0.0
 40
0.0
 40
1.0
 40
1.0
 40
1.0
 40
1.0
 10
219.4445001629879
 20
277.0433579375263
 30
0.0
 10
219.4857092567865
 20
273.168003033765
 30
0.0
 10
219.4857092567865
 20
269.453116814021
 30
0.0
 10
219.4445001629879
 20
265.5777619102597
 30
0.0
  0
LINE
  5
19C
330
1F
100
AcDbEntity
  8
0
  6
Continuous
 62
     8
370
    18
100
AcDbLine
 10
219.2152661537
 20
253.5779264051
 30
0.0
 11
218.3951800032
 21
253.5779264051
 31
0.0
  0
SPLINE
  5
19D
330
1F
100
AcDbEntity
  8
0
  6
Continuous
 62
     8
370
    18
100
AcDbSpline
210
0.0
220
0.0
230
1.0
 70
     8
 71
     3
 72
    20
 73
    16
 74
     0
 42
0.00000001
 43
0.00000001
 40
0.0
 40
0.0
 40
0.0
 40
0.0
 40
0.1250000000000004
 40
0.1250000000000004
 40
0.2500000000000009
 40
0.2500000000000009
 40
0.5000000000000004
 40
0.5000000000000004
 40
0.6250000000000002
 40
0.6250000000000002
 40
0.75
 40
0.75
 40
0.875
 40
0.875
 40
1.0
 40
1.0
 40
1.0
 40
1.0
 10
215.2366004663648
 20
282.2871783088647
 30
0.0
 10
215.2288772843434
 20
281.9110286283027
 30
0.0
 10
215.2213917755133
 20
281.5153240894682
 30
0.0
 10
215.2070181403529
 20
280.684179672298
 30
0.0
 10
215.2001558547811
 20
280.2482706120989
 30
0.0
 10
215.1812190791334
 20
278.8936852562297
 30
0.0
 10
215.1708510437233
 20
277.9245183371063
 30
0.0
 10
215.159652567088
 20
276.56981263543
 30
0.0
 10
215.1566373650387
 20
276.13599653199
 30
0.0
 10
215.1517982513997
 20
275.3262850794254
 30
0.0
 10
215.1499647486913
 20
274.9506156461585
 30
0.0
 10
215.1471036008292
 20
274.2535935166608
 30
0.0
 10
215.1460688461872
 20
273.9317529795848
 30
0.0
 10
215.1445049866534
 20
273.3139762109449
 30
0.0
 10
215.1439776560818
 20
273.0165417250166
 30
0.0
 10
215.1436852580734
 20
272.7195771056984
 30
0.0
  0
SPLINE
  5
19E
330
1F
100
AcDbEntity
  8
0
  6
Continuous
 62
     8
370
    18
100
AcDbSpline
210
0.0
220
0.0
230
1.0
 70
     8
 71
     3
 72
    22
 73
    18
 74
     0
 42
0.00000001
 43
0.00000001
 40
0.0
 40
0.0
 40
0.0
 40
0.0
 40
0.0312499999999982
 40
0.0312499999999982
 40
0.0624999999999963
 40
0.0624999999999963
 40
0.1250000000000002
 40
0.1250000000000002
 40
0.2500000000000032
 40
0.2500000000000032
 40
0.5000000000000048
 40
0.5000000000000048
 40
0.7500000000000063
 40
0.7500000000000063
 40
0.8750000000000031
 40
0.8750000000000031
 40
1.0
 40
1.0
 40
1.0
 40
1.0
 10
215.4952545727809
 20
287.2901851741268
 30
0.0
 10
215.4840888281389
 20
287.2409633827633
 30
0.0
 10
215.4757272656547
 20
287.1883200564417
 30
0.0
 10
215.4607559604473
 20
287.0821014743257
 30
0.0
 10
215.4542395528755
 20
287.0283464817592
 30
0.0
 10
215.4362251817789
 20
286.8663097909661
 30
0.0
 10
215.4263917479963
 20
286.7568724023025
 30
0.0
 10
215.3998429752774
 20
286.4271692201513
 30
0.0
 10
215.3858225552588
 20
286.2063191213674
 30
0.0
 10
215.347952563964
 20
285.545384822576
 30
0.0
 10
215.329114870024
 20
285.1045294789733
 30
0.0
 10
215.2956218616094
 20
284.2440439310169
 30
0.0
 10
215.2816330750282
 20
283.8230255861065
 30
0.0
 10
215.2630900926344
 20
283.2237419059472
 30
0.0
 10
215.2573742102757
 20
283.0307589696758
 30
0.0
 10
215.24670594319
 20
282.6579152862942
 30
0.0
 10
215.2416170046016
 20
282.4757079751449
 30
0.0
 10
215.2366004663648
 20
282.2871783088647
 30
0.0
  0
SPLINE
  5
19F
330
1F
100
AcDbEntity
  8
0
  6
Continuous
 62
     8
370
    18
100
AcDbSpline
210
0.0
220
0.0
230
1.0
 70
     8
 71
     3
 72
     9
 73
     5
 74
     0
 42
0.00000001
 43
0.00000001
 40
0.0
 40
0.0
 40
0.0
 40
0.0
 40
0.9572272276100865
 40
1.0
 40
1.0
 40
1.0
 40
1.0
 10
215.1436852580741
 20
272.719577105696
 30
0.0
 10
215.1433968292334
 20
272.3812452964758
 30
0.0
 10
215.1430955122291
 20
272.0277954577525
 30
0.0
 10
215.1438493007862
 20
271.7139622321581
 30
0.0
 10
215.1438815424126
 20
271.7005387150313
 30
0.0
  0
SPLINE
  5
1A0
330
1F
100
AcDbEntity
  8
0
  6
Continuous
 62
     8
370
    18
100
AcDbSpline
210
0.0
220
0.0
230
1.0
 70
    24
 71
     3
 72
     8
 73
     4
 74
     0
 42
0.00000001
 43
0.00000001
 40
0.0
 40
0.0
 40
0.0
 40
0.0
 40
1.0
 40
1.0
 40
1.0
 40
1.0
 10
215.5486175970737
 20
271.3105599238952
 30
0.0
 10
215.2021562727743
 20
271.3105599238949
 30
0.0
 10
215.1725182969608
 20
271.3105599238949
 30
0.0
 10
215.14525031432
 20
271.3105599238947
 30
0.0
  0
SPLINE
  5
1A1
330
1F
100
AcDbEntity
  8
0
  6
Continuous
 62
     8
370
    18
100
AcDbSpline
210
0.0
220
0.0
230
1.0
 70
     8
 71
     3
 72
    22
 73
    18
 74
     0
 42
0.00000001
 43
0.00000001
 40
0.0
 40
0.0
 40
0.0
 40
0.0
 40
0.0267338500613196
 40
0.0625018443125112
 40
0.1250051284215916
 40
0.1895754327884367
 40
0.2500116422046931
 40
0.3757381670820608
 40
0.4999756804567959
 40
0.6292881251942196
 40
0.7499824006675486
 40
0.8064224366173366
 40
0.8578720321589929
 40
0.9035668227195528
 40
0.9428776457357632
 40
0.9752119278795135
 40
1.0
 40
1.0
 40
1.0
 40
1.0
 10
215.2366004663675
 20
260.3339415389246
 30
0.0
 10
215.2376642883808
 20
260.293830365886
 30
0.0
 10
215.2401514287551
 20
260.2000532897558
 30
0.0
 10
215.2452441058895
 20
260.0149967206744
 30
0.0
 10
215.2520488420102
 20
259.7750970754714
 30
0.0
 10
215.2603582128793
 20
259.4905460739466
 30
0.0
 10
215.2722642375228
 20
259.0964021852483
 30
0.0
 10
215.2887002957868
 20
258.5859242772378
 30
0.0
 10
215.3120111796536
 20
257.9407375382924
 30
0.0
 10
215.3391282331443
 20
257.288471084987
 30
0.0
 10
215.3660375319764
 20
256.7485691269424
 30
0.0
 10
215.3903371885774
 20
256.345129782634
 30
0.0
 10
215.4092066394275
 20
256.0743304035289
 30
0.0
 10
215.4287755174581
 20
255.834551913642
 30
0.0
 10
215.4494836736608
 20
255.6304814202153
 30
0.0
 10
215.4695335733772
 20
255.4641676156683
 30
0.0
 10
215.4874707778932
 20
255.3712541778407
 30
0.0
 10
215.4952545733077
 20
255.3309346737254
 30
0.0
  0
SPLINE
  5
1A2
330
1F
100
AcDbEntity
  8
0
  6
Continuous
 62
     8
370
    18
100
AcDbSpline
210
0.0
220
0.0
230
1.0
 70
     8
 71
     3
 72
    18
 73
    14
 74
     0
 42
0.00000001
 43
0.00000001
 40
0.0
 40
0.0
 40
0.0
 40
0.0
 40
0.0251946355267449
 40
0.0563460566902558
 40
0.094094453505068
 40
0.1475719739844616
 40
0.1955687201062609
 40
0.4459640144982315
 40
0.5997697505103834
 40
0.7351323683585836
 40
0.8284006297982907
 40
0.916327441472955
 40
1.0
 40
1.0
 40
1.0
 40
1.0
 10
215.1436852580601
 20
269.9015427420937
 30
0.0
 10
215.1437748566301
 20
269.8212417705445
 30
0.0
 10
215.1439752376239
 20
269.6416542115028
 30
0.0
 10
215.1444890399298
 20
269.3405007571925
 30
0.0
 10
215.1453627559092
 20
268.947908247486
 30
0.0
 10
215.1466817036308
 20
268.500269741947
 30
0.0
 10
215.1509056732763
 20
267.367455811251
 30
0.0
 10
215.1597409894941
 20
265.9089878078226
 30
0.0
 10
215.1763955952388
 20
264.1766705105281
 30
0.0
 10
215.1915607420501
 20
262.9563997391334
 30
0.0
 10
215.206537377868
 20
261.9553863052928
 30
0.0
 10
215.2206749972443
 20
261.1245055917337
 30
0.0
 10
215.2313804456877
 20
260.5930711553594
 30
0.0
 10
215.2366004663695
 20
260.3339415389247
 30
0.0
  0
SPLINE
  5
1A3
330
1F
100
AcDbEntity
  8
0
  6
Continuous
 62
     8
370
    18
100
AcDbSpline
210
0.0
220
0.0
230
1.0
 70
     8
 71
     3
 72
     9
 73
     5
 74
     0
 42
0.00000001
 43
0.00000001
 40
0.0
 40
0.0
 40
0.0
 40
0.0
 40
0.9561364210979668
 40
1.0
 40
1.0
 40
1.0
 40
1.0
 10
215.1436852580741
 20
269.9015427420933
 30
0.0
 10
215.1433412985444
 20
270.2443844980596
 30
0.0
 10
215.1429815595762
 20
270.6029544138175
 30
0.0
 10
215.1438615627569
 20
270.9070175706728
 30
0.0
 10
215.1439001628458
 20
270.9203548689448
 30
0.0
  0
SPLINE
  5
1A4
330
1F
100
AcDbEntity
  8
0
  6
Continuous
 62
     8
370
    18
100
AcDbSpline
210
0.0
220
0.0
230
1.0
 70
     8
 71
     3
 72
    11
 73
     7
 74
     0
 42
0.00000001
 43
0.00000001
 40
0.0
 40
0.0
 40
0.0
 40
0.0
 40
0.1618500018625701
 40
0.3666821836656128
 40
0.68166544558766
 40
1.0
 40
1.0
 40
1.0
 40
1.0
 10
215.0777430565963
 20
283.6450466144535
 30
0.0
 10
215.0799104286241
 20
283.7682166409975
 30
0.0
 10
215.0848207573163
 20
284.0472667106642
 30
0.0
 10
215.1119491472793
 20
283.6776393400799
 30
0.0
 10
215.184882364428
 20
282.7469228315078
 30
0.0
 10
215.2193003897409
 20
282.4409661543655
 30
0.0
 10
215.2366004663677
 20
282.2871783088706
 30
0.0
  0
SPLINE
  5
1A5
330
1F
100
AcDbEntity
  8
0
  6
Continuous
 62
     8
370
    18
100
AcDbSpline
210
0.0
220
0.0
230
1.0
 70
     8
 71
     3
 72
    11
 73
     7
 74
     0
 42
0.00000001
 43
0.00000001
 40
0.0
 40
0.0
 40
0.0
 40
0.0
 40
0.4707025058322992
 40
0.8301232786538594
 40
0.9822468540940159
 40
1.0
 40
1.0
 40
1.0
 40
1.0
 10
215.0376989668851
 20
261.8160060742536
 30
0.0
 10
215.013654881639
 20
263.3056050930735
 30
0.0
 10
214.9712511242137
 20
265.9326376796027
 30
0.0
 10
214.9656431782427
 20
269.0414950702039
 30
0.0
 10
214.9635517942133
 20
270.7167124819082
 30
0.0
 10
214.9635928166252
 20
271.2543713200339
 30
0.0
 10
214.9635971037156
 20
271.3105599238947
 30
0.0
  0
SPLINE
  5
1A6
330
1F
100
AcDbEntity
  8
0
  6
Continuous
 62
     8
370
    18
100
AcDbSpline
210
0.0
220
0.0
230
1.0
 70
     8
 71
     3
 72
    11
 73
     7
 74
     0
 42
0.00000001
 43
0.00000001
 40
0.0
 40
0.0
 40
0.0
 40
0.0
 40
0.1618500989243962
 40
0.366682257006858
 40
0.6816654824523227
 40
1.0
 40
1.0
 40
1.0
 40
1.0
 10
215.0777430505967
 20
258.9760734311101
 30
0.0
 10
215.079910423937
 20
258.8529033046525
 30
0.0
 10
215.0848207536402
 20
258.5738531201582
 30
0.0
 10
215.1119491468449
 20
258.9434804861538
 30
0.0
 10
215.1848823645586
 20
259.8741970226708
 30
0.0
 10
215.2193003897858
 20
260.1801536955651
 30
0.0
 10
215.2366004663696
 20
260.3339415389247
 30
0.0
  0
LINE
  5
1A7
330
1F
100
AcDbEntity
  8
0
  6
Continuous
 62
     8
370
    18
100
AcDbLine
 10
215.3135704313
 20
255.1494209135
 30
0.0
 11
215.4952545707
 21
255.3309346711
 31
0.0
  0
SPLINE
  5
1A8
330
1F
100
AcDbEntity
  8
0
  6
Continuous
 62
     8
370
    18
100
AcDbSpline
210
0.0
220
0.0
230
1.0
 70
     8
 71
     3
 72
     9
 73
     5
 74
     0
 42
0.00000001
 43
0.00000001
 40
0.0
 40
0.0
 40
0.0
 40
0.0
 40
0.3922979341297299
 40
1.0
 40
1.0
 40
1.0
 40
1.0
 10
215.2359605918294
 20
255.791273322188
 30
0.0
 10
215.241736327825
 20
255.7068432777804
 30
0.0
 10
215.2564591583402
 20
255.4916240857783
 30
0.0
 10
215.2920019716069
 20
255.2787760218565
 30
0.0
 10
215.3136014126558
 20
255.1494278136946
 30
0.0
  0
SPLINE
  5
1A9
330
1F
100
AcDbEntity
  8
0
  6
Continuous
 62
     8
370
    18
100
AcDbSpline
210
0.0
220
0.0
230
1.0
 70
     8
 71
     3
 72
     9
 73
     5
 74
     0
 42
0.00000001
 43
0.00000001
 40
0.0
 40
0.0
 40
0.0
 40
0.0
 40
0.6078250627989675
 40
0.9999999999999999
 40
0.9999999999999999
 40
0.9999999999999999
 40
0.9999999999999999
 10
215.3136018127456
 20
287.4716923131392
 30
0.0
 10
215.2920018488003
 20
287.3423447467177
 30
0.0
 10
215.2564653675537
 20
287.1295408096346
 30
0.0
 10
215.241744657053
 20
286.9143662129686
 30
0.0
 10
215.2359715633369
 20
286.8299801290339
 30
0.0
  0
LINE
  5
1AA
330
1F
100
AcDbEntity
  8
0
  6
Continuous
 62
     8
370
    18
100
AcDbLine
 10
215.3135708322
 20
287.4716992131
 30
0.0
 11
215.4952545707
 21
287.2901851767
 31
0.0
  0
SPLINE
  5
1AB
330
1F
100
AcDbEntity
  8
0
  6
Continuous
 62
     8
370
    18
100
AcDbSpline
210
0.0
220
0.0
230
1.0
 70
     8
 71
     3
 72
    19
 73
    15
 74
     0
 42
0.00000001
 43
0.00000001
 40
0.0
 40
0.0
 40
0.0
 40
0.0
 40
0.0693046741536271
 40
0.1372334517195673
 40
0.2032882834207726
 40
0.2671795139237657
 40
0.3844275628917732
 40
0.5103003520871363
 40
0.5767087401476033
 40
0.6481622836251371
 40
0.7252967654805039
 40
0.8091957089271598
 40
0.9006800447052394
 40
1.0
 40
1.0
 40
1.0
 40
1.0
 10
218.2089622685877
 20
289.229390884885
 30
0.0
 10
218.1199283230207
 20
289.2290960992578
 30
0.0
 10
217.943628011107
 20
289.2285123803439
 30
0.0
 10
217.6831539693925
 20
289.2203249027773
 30
0.0
 10
217.4308321265352
 20
289.2028321266883
 30
0.0
 10
217.1187236495797
 20
289.1651223364657
 30
0.0
 10
216.7391833193708
 20
289.0826681521971
 30
0.0
 10
216.3780022194704
 20
288.9374716159778
 30
0.0
 10
216.0985794358407
 20
288.7673682532728
 30
0.0
 10
215.8923528795289
 20
288.6000497305645
 30
0.0
 10
215.7028301661975
 20
288.3855708893209
 30
0.0
 10
215.5385776228672
 20
288.1230189869265
 30
0.0
 10
215.4016966561719
 20
287.8150677603066
 30
0.0
 10
215.3437394685701
 20
287.5892466059564
 30
0.0
 10
215.3135708321665
 20
287.4716992131354
 30
0.0
  0
LINE
  5
1AC
330
1F
100
AcDbEntity
  8
0
  6
Continuous
 62
     8
370
    18
100
AcDbLine
 10
218.3951800032
 20
253.5779264051
 30
0.0
 11
218.208972441
 21
253.3917289625
 31
0.0
  0
SPLINE
  5
1AD
330
1F
100
AcDbEntity
  8
0
  6
Continuous
 62
     8
370
    18
100
AcDbSpline
210
0.0
220
0.0
230
1.0
 70
     8
 71
     3
 72
    16
 73
    12
 74
     0
 42
0.00000001
 43
0.00000001
 40
0.0
 40
0.0
 40
0.0
 40
0.0
 40
0.2499999999999984
 40
0.2499999999999984
 40
0.4999999999999968
 40
0.4999999999999968
 40
0.6249999999999968
 40
0.6249999999999968
 40
0.7499999999999967
 40
0.7499999999999967
 40
1.0
 40
1.0
 40
1.0
 40
1.0
 10
218.2089724410077
 20
253.3917289624582
 30
0.0
 10
217.887238413377
 20
253.3917290964247
 30
0.0
 10
217.5652765686086
 20
253.3953943969541
 30
0.0
 10
216.9367607380976
 20
253.4845421129576
 30
0.0
 10
216.6282081253966
 20
253.5660436486266
 30
0.0
 10
216.2127217269182
 20
253.7781600562233
 30
0.0
 10
216.0824388874384
 20
253.8640176496179
 30
0.0
 10
215.849368877805
 20
254.0646743367134
 30
0.0
 10
215.7475517171748
 20
254.1802459291245
 30
0.0
 10
215.4892255274421
 20
254.5596982355127
 30
0.0
 10
215.3799675753642
 20
254.8510942107663
 30
0.0
 10
215.3136014089888
 20
255.1494278273266
 30
0.0
  0
SPLINE
  5
1AE
330
1F
100
AcDbEntity
  8
0
  6
Continuous
 62
     8
370
    18
100
AcDbSpline
210
0.0
220
0.0
230
1.0
 70
     8
 71
     3
 72
    12
 73
     8
 74
     0
 42
0.00000001
 43
0.00000001
 40
0.0
 40
0.0
 40
0.0
 40
0.0
 40
0.1912707514498714
 40
0.3849336306542354
 40
0.5809966897777356
 40
0.7982449294522634
 40
1.0
 40
1.0
 40
1.0
 40
1.0
 10
218.1067960046176
 20
289.2634358956666
 30
0.0
 10
218.1188547784574
 20
289.2612658696297
 30
0.0
 10
218.1431231391984
 20
289.2568986781239
 30
0.0
 10
218.1694347496233
 20
289.2503056829805
 30
0.0
 10
218.188464259588
 20
289.2434171774251
 30
0.0
 10
218.2017771661823
 20
289.2364364450971
 30
0.0
 10
218.2066270108004
 20
289.2316807895373
 30
0.0
 10
218.2089622685877
 20
289.2293908849004
 30
0.0
  0
LINE
  5
1AF
330
1F
100
AcDbEntity
  8
0
  6
Continuous
 62
     8
370
    18
100
AcDbLine
 10
219.2071363896
 20
289.2634359264
 30
0.0
 11
218.1067960046
 21
289.2634359264
 31
0.0
  0
ARC
  5
1B0
330
1F
100
AcDbEntity
  8
0
  6
Continuous
 62
     8
370
    18
100
AcDbCircle
 10
212.0225199347
 20
288.8879604128
 30
0.0
 40
7.194421134756045
100
AcDbArc
 50
1.236359057
 51
2.9916153092
  0
SPLINE
  5
1B1
330
1F
100
AcDbEntity
  8
0
  6
Continuous
 62
     8
370
    18
100
AcDbSpline
210
0.0
220
0.0
230
1.0
 70
     8
 71
     3
 72
    11
 73
     7
 74
     0
 42
0.00000001
 43
0.00000001
 40
0.0
 40
0.0
 40
0.0
 40
0.0
 40
0.2733638948636063
 40
0.5008359087790001
 40
0.7692143627716918
 40
0.9999999999999999
 40
0.9999999999999999
 40
0.9999999999999999
 40
0.9999999999999999
 10
218.2089724410077
 20
253.3917289624511
 30
0.0
 10
218.2054851369387
 20
253.3886263053222
 30
0.0
 10
218.1990959716708
 20
253.3829418600389
 30
0.0
 10
218.180232730297
 20
253.3742117628836
 30
0.0
 10
218.1536776090735
 20
253.3659653622239
 30
0.0
 10
218.1216209665641
 20
253.3603022474856
 30
0.0
 10
218.1067997628777
 20
253.3576839390644
 30
0.0
  0
LINE
  5
1B2
330
1F
100
AcDbEntity
  8
0
  6
Continuous
 62
     8
370
    18
100
AcDbLine
 10
219.2152661537
 20
253.5779264051
 30
0.0
 11
219.2083825323
 21
253.3576839277
 31
0.0
  0
LINE
  5
1B3
330
1F
100
AcDbEntity
  8
0
  6
Continuous
 62
     8
370
    18
100
AcDbLine
 10
219.2083825226
 20
253.3576839277
 30
0.0
 11
218.1067997629
 21
253.3576839391
 31
0.0
  0
ARC
  5
1B4
330
1F
100
AcDbEntity
  8
0
  6
Continuous
 62
     8
370
    18
100
AcDbCircle
 10
219.2083900839
 20
288.2634432843
 30
0.0
 40
0.9999926515894347
100
AcDbArc
 50
1.8022675628
 51
90.071831885
  0
ARC
  5
1B5
330
1F
100
AcDbEntity
  8
0
  6
Continuous
 62
     8
370
    18
100
AcDbCircle
 10
219.208390105
 20
254.3576765567
 30
0.0
 40
0.9999926302588751
100
AcDbArc
 50
269.999565557
 51
358.1977332197
  0
SPLINE
  5
1B6
330
1F
100
AcDbEntity
  8
0
  6
Continuous
 62
     8
370
    18
100
AcDbSpline
210
0.0
220
0.0
230
1.0
 70
     8
 71
     3
 72
    11
 73
     7
 74
     0
 42
0.00000001
 43
0.00000001
 40
0.0
 40
0.0
 40
0.0
 40
0.0
 40
0.2401858212702621
 40
0.5074368861473394
 40
0.7532899678199445
 40
1.0
 40
1.0
 40
1.0
 40
1.0
 10
180.6643992816277
 20
289.3052872840073
 30
0.0
 10
180.6624597784825
 20
289.3049162690607
 30
0.0
 10
180.6583622200529
 20
289.3041324314959
 30
0.0
 10
180.6587864231659
 20
289.2985193576142
 30
0.0
 10
180.6612441972551
 20
289.2862791496174
 30
0.0
 10
180.6640696525884
 20
289.2693393842567
 30
0.0
 10
180.6654848380877
 20
289.2608547658601
 30
0.0
  0
SPLINE
  5
1B7
330
1F
100
AcDbEntity
  8
0
  6
Continuous
 62
     8
370
    18
100
AcDbSpline
210
0.0
220
0.0
230
1.0
 70
     8
 71
     3
 72
    22
 73
    18
 74
     0
 42
0.00000001
 43
0.00000001
 40
0.0
 40
0.0
 40
0.0
 40
0.0
 40
0.1250000000000001
 40
0.1250000000000001
 40
0.2500000000000002
 40
0.2500000000000002
 40
0.3750000000000003
 40
0.3750000000000003
 40
0.5000000000000004
 40
0.5000000000000004
 40
0.6250000000000003
 40
0.6250000000000003
 40
0.7500000000000002
 40
0.7500000000000002
 40
0.8750000000000001
 40
0.8750000000000001
 40
1.0
 40
1.0
 40
1.0
 40
1.0
 10
180.6654848380877
 20
289.2608547658601
 30
0.0
 10
180.665439024271
 20
289.2202850281676
 30
0.0
 10
180.6653932104543
 20
289.1400518628203
 30
0.0
 10
180.665301582821
 20
288.8598363075993
 30
0.0
 10
180.6652557690043
 20
288.658396749039
 30
0.0
 10
180.665164141371
 20
288.1146192967358
 30
0.0
 10
180.6651183275543
 20
287.7722986786105
 30
0.0
 10
180.665026699921
 20
286.9385189087981
 30
0.0
 10
180.6649808861043
 20
286.4453813024157
 30
0.0
 10
180.664889258471
 20
285.3176003534692
 30
0.0
 10
180.6648434446543
 20
284.6835989011072
 30
0.0
 10
180.664751817021
 20
283.3147266770241
 30
0.0
 10
180.6647060032043
 20
282.5827576684893
 30
0.0
 10
180.664614375571
 20
281.0860023816817
 30
0.0
 10
180.6645685617543
 20
280.3207048499073
 30
0.0
 10
180.664476934121
 20
278.8057280599302
 30
0.0
 10
180.6644311203043
 20
278.0534960676706
 30
0.0
 10
180.6643853064876
 20
277.3052812461063
 30
0.0
  0
SPLINE
  5
1B8
330
1F
100
AcDbEntity
  8
0
  6
Continuous
 62
     8
370
    18
100
AcDbSpline
210
0.0
220
0.0
230
1.0
 70
     8
 71
     3
 72
    11
 73
     7
 74
     0
 42
0.00000001
 43
0.00000001
 40
0.0
 40
0.0
 40
0.0
 40
0.0
 40
0.2593328631702563
 40
0.5129613742000511
 40
0.7601295295174753
 40
1.0
 40
1.0
 40
1.0
 40
1.0
 10
180.6643940135943
 20
253.3159024043928
 30
0.0
 10
180.662236607414
 20
253.3160008952566
 30
0.0
 10
180.6579692499127
 20
253.3161957105539
 30
0.0
 10
180.6577817327114
 20
253.3229041369828
 30
0.0
 10
180.6602058300896
 20
253.3354034814105
 30
0.0
 10
180.6622841708681
 20
253.3523314184818
 30
0.0
 10
180.6633077705458
 20
253.3606685646844
 30
0.0
  0
SPLINE
  5
1B9
330
1F
100
AcDbEntity
  8
0
  6
Continuous
 62
     8
370
    18
100
AcDbSpline
210
0.0
220
0.0
230
1.0
 70
     8
 71
     3
 72
    28
 73
    24
 74
     0
 42
0.00000001
 43
0.00000001
 40
0.0
 40
0.0
 40
0.0
 40
0.0
 40
0.0259522698829291
 40
0.0511291781520259
 40
0.0755318718933932
 40
0.0991792465092395
 40
0.1220990716493936
 40
0.1443188888955679
 40
0.2089765590723549
 40
0.2698212032230709
 40
0.3188740826008901
 40
0.3663202558468345
 40
0.435553617105157
 40
0.5039734873648329
 40
0.5603137384984788
 40
0.6184828157642231
 40
0.7296423304293811
 40
0.7898361955675187
 40
0.8548055981233807
 40
0.8885458210325297
 40
0.9248766431269223
 40
0.9628865417735906
 40
1.0
 40
1.0
 40
1.0
 40
1.0
 10
180.6633077705458
 20
253.3606685646844
 30
0.0
 10
180.6637384224034
 20
253.3697654555673
 30
0.0
 10
180.6645868597712
 20
253.3876874545555
 30
0.0
 10
180.6655273110503
 20
253.4264578661676
 30
0.0
 10
180.665795427554
 20
253.4739802533904
 30
0.0
 10
180.6655052929046
 20
253.5309265920731
 30
0.0
 10
180.6649249431867
 20
253.5968150395422
 30
0.0
 10
180.6638891512297
 20
253.7197334612507
 30
0.0
 10
180.6628046417656
 20
253.9342048670034
 30
0.0
 10
180.663540619331
 20
254.285126634433
 30
0.0
 10
180.6648943761959
 20
254.6902802299351
 30
0.0
 10
180.6661804703881
 20
255.2050436950384
 30
0.0
 10
180.6632140314747
 20
255.906578597781
 30
0.0
 10
180.6659237685978
 20
256.7876716004124
 30
0.0
 10
180.6656639547341
 20
257.7118177753346
 30
0.0
 10
180.6597171080128
 20
258.9274331756961
 30
0.0
 10
180.66480088316
 20
260.2404680006363
 30
0.0
 10
180.6655690332113
 20
261.6197796255898
 30
0.0
 10
180.6652209132395
 20
262.5560995720352
 30
0.0
 10
180.6639322935201
 20
263.3537121395841
 30
0.0
 10
180.660858204593
 20
263.9927884904833
 30
0.0
 10
180.6586760639997
 20
264.6519941505698
 30
0.0
 10
180.6624973754936
 20
265.0963280473221
 30
0.0
 10
180.6643852315534
 20
265.3158438970139
 30
0.0
  0
LINE
  5
1BA
330
1F
100
AcDbEntity
  8
0
  6
Continuous
 62
     8
370
    18
100
AcDbLine
 10
145.6749611254
 20
288.8105599239
 30
0.0
 11
157.6644525079
 21
288.8105599239
 31
0.0
  0
LINE
  5
1BB
330
1F
100
AcDbEntity
  8
0
  6
Continuous
 62
     8
370
    18
100
AcDbLine
 10
145.6749611254
 20
288.8105599239
 30
0.0
 11
145.6749611254
 21
289.3105599239
 31
0.0
  0
LINE
  5
1BC
330
1F
100
AcDbEntity
  8
0
  6
Continuous
 62
     8
370
    18
100
AcDbLine
 10
157.6644525079
 20
289.3105599239
 30
0.0
 11
157.6644525079
 21
288.8105599239
 31
0.0
  0
SPLINE
  5
1BD
330
1F
100
AcDbEntity
  8
0
  6
Continuous
 62
     8
370
    18
100
AcDbSpline
210
0.0
220
0.0
230
1.0
 70
     8
 71
     3
 72
    16
 73
    12
 74
     0
 42
0.00000001
 43
0.00000001
 40
0.0
 40
0.0
 40
0.0
 40
0.0
 40
0.0255422569815961
 40
0.1758960595906517
 40
0.3115309895966626
 40
0.4464521539773716
 40
0.5949923221181433
 40
0.6758158706094751
 40
0.762895329797804
 40
0.8698425063343789
 40
1.0
 40
1.0
 40
1.0
 40
1.0
 10
140.6697068166477
 20
254.2396888486569
 30
0.0
 10
140.5520834829029
 20
254.2646142147653
 30
0.0
 10
139.7420735868888
 20
254.436262072098
 30
0.0
 10
138.3617722781913
 20
254.9810551258257
 30
0.0
 10
136.7116761142892
 20
256.1184919284856
 30
0.0
 10
135.4935644518374
 20
257.7084000821592
 30
0.0
 10
134.8369953334225
 20
259.3093211337712
 30
0.0
 10
134.4811914919797
 20
260.7570739924666
 30
0.0
 10
134.2854864607629
 20
262.0376095229886
 30
0.0
 10
134.1800221663418
 20
263.5614352551824
 30
0.0
 10
134.1767661426055
 20
264.6776678105219
 30
0.0
 10
134.1749787636877
 20
265.2904184224228
 30
0.0
  0
SPLINE
  5
1BE
330
1F
100
AcDbEntity
  8
0
  6
Continuous
 62
     8
370
    18
100
AcDbSpline
210
0.0
220
0.0
230
1.0
 70
     8
 71
     3
 72
     8
 73
     4
 74
     0
 42
0.00000001
 43
0.00000001
 40
0.0
 40
0.0
 40
0.0
 40
0.0
 40
1.0
 40
1.0
 40
1.0
 40
1.0
 10
134.1749787636883
 20
265.2904184224241
 30
0.0
 10
134.1672037033136
 20
269.7296632973185
 30
0.0
 10
134.1672037033136
 20
272.8914565504559
 30
0.0
 10
134.1749787636883
 20
277.3307014253503
 30
0.0
  0
SPLINE
  5
1BF
330
1F
100
AcDbEntity
  8
0
  6
Continuous
 62
     8
370
    18
100
AcDbSpline
210
0.0
220
0.0
230
1.0
 70
     8
 71
     3
 72
    22
 73
    18
 74
     0
 42
0.00000001
 43
0.00000001
 40
0.0
 40
0.0
 40
0.0
 40
0.0
 40
0.125
 40
0.125
 40
0.2500000000000001
 40
0.2500000000000001
 40
0.3750000000000001
 40
0.3750000000000001
 40
0.5000000000000001
 40
0.5000000000000001
 40
0.6250000000000001
 40
0.6250000000000001
 40
0.7500000000000002
 40
0.7500000000000002
 40
0.8750000000000002
 40
0.8750000000000002
 40
1.0
 40
1.0
 40
1.0
 40
1.0
 10
134.1749787636876
 20
277.3307014253503
 30
0.0
 10
134.1763933467674
 20
278.1405668328749
 30
0.0
 10
134.1807668585474
 20
278.9477326914473
 30
0.0
 10
134.284100358395
 20
280.5518740404078
 30
0.0
 10
134.3826729816821
 20
281.3501575134232
 30
0.0
 10
134.7269297299466
 20
282.9116514387181
 30
0.0
 10
134.9730323126486
 20
283.6764271130707
 30
0.0
 10
135.6653636494518
 20
285.1058094632596
 30
0.0
 10
136.1165566286984
 20
285.7686094938916
 30
0.0
 10
137.233594281445
 20
286.8838349839981
 30
0.0
 10
137.897269477013
 20
287.333859979066
 30
0.0
 10
139.3279134214121
 20
288.0237084357491
 30
0.0
 10
140.0930191203399
 20
288.2686082260875
 30
0.0
 10
141.6551272933021
 20
288.6102400489266
 30
0.0
 10
142.453582180472
 20
288.7073484550783
 30
0.0
 10
144.0578525061208
 20
288.8078557552709
 30
0.0
 10
144.8650613984611
 20
288.8105712137821
 30
0.0
 10
145.6749611254077
 20
288.8105599238964
 30
0.0
  0
SPLINE
  5
1C0
330
1F
100
AcDbEntity
  8
0
  6
Continuous
 62
     8
370
    18
100
AcDbSpline
210
0.0
220
0.0
230
1.0
 70
     8
 71
     3
 72
    22
 73
    18
 74
     0
 42
0.00000001
 43
0.00000001
 40
0.0
 40
0.0
 40
0.0
 40
0.0
 40
0.1250000000000001
 40
0.1250000000000001
 40
0.2500000000000001
 40
0.2500000000000001
 40
0.3750000000000001
 40
0.3750000000000001
 40
0.5
 40
0.5
 40
0.625
 40
0.625
 40
0.75
 40
0.75
 40
0.875
 40
0.875
 40
1.0
 40
1.0
 40
1.0
 40
1.0
 10
157.6644525078877
 20
288.8105599238958
 30
0.0
 10
158.474353847741
 20
288.8105639109571
 30
0.0
 10
159.2815241462952
 20
288.8078260213712
 30
0.0
 10
160.8858238095966
 20
288.7074573205556
 30
0.0
 10
161.6842698115479
 20
288.610250195415
 30
0.0
 10
163.2463230481184
 20
288.2685901303565
 30
0.0
 10
164.0115084150026
 20
288.0237400366503
 30
0.0
 10
165.4420700678966
 20
287.3338348161401
 30
0.0
 10
166.1056645271984
 20
286.8837977849055
 30
0.0
 10
167.2228942196057
 20
285.7687642234113
 30
0.0
 10
167.6740739349314
 20
285.105883100225
 30
0.0
 10
168.3663504439838
 20
283.6764198513911
 30
0.0
 10
168.612501016177
 20
282.9117229309257
 30
0.0
 10
168.9567309283082
 20
281.350174368555
 30
0.0
 10
169.0552066808509
 20
280.5518811134234
 30
0.0
 10
169.158675041154
 20
278.9477691617511
 30
0.0
 10
169.1630275255696
 20
278.1405653206201
 30
0.0
 10
169.1644348696111
 20
277.3307014253618
 30
0.0
  0
SPLINE
  5
1C1
330
1F
100
AcDbEntity
  8
0
  6
Continuous
 62
     8
370
    18
100
AcDbSpline
210
0.0
220
0.0
230
1.0
 70
     8
 71
     3
 72
     8
 73
     4
 74
     0
 42
0.00000001
 43
0.00000001
 40
0.0
 40
0.0
 40
0.0
 40
0.0
 40
0.9999999999999999
 40
0.9999999999999999
 40
0.9999999999999999
 40
0.9999999999999999
 10
169.1644348696079
 20
277.3307014253659
 30
0.0
 10
169.1722099299826
 20
272.8914565504674
 30
0.0
 10
169.1722099299821
 20
269.7296632973259
 30
0.0
 10
169.1644348696075
 20
265.2904184224274
 30
0.0
  0
SPLINE
  5
1C2
330
1F
100
AcDbEntity
  8
0
  6
Continuous
 62
     8
370
    18
100
AcDbSpline
210
0.0
220
0.0
230
1.0
 70
     8
 71
     3
 72
    16
 73
    12
 74
     0
 42
0.00000001
 43
0.00000001
 40
0.0
 40
0.0
 40
0.0
 40
0.0
 40
0.1171024132201583
 40
0.2171335428434447
 40
0.3026997075849344
 40
0.3820051611425117
 40
0.5323264471888589
 40
0.667924052928471
 40
0.802894379749099
 40
0.9514798302928626
 40
1.0
 40
1.0
 40
1.0
 40
1.0
 10
169.1644348696077
 20
265.2904184224288
 30
0.0
 10
169.1628725326954
 20
264.739186966077
 30
0.0
 10
169.1599756175973
 20
263.7170830166102
 30
0.0
 10
169.0775513680027
 20
262.2936610785928
 30
0.0
 10
168.9124878570977
 20
261.056355974682
 30
0.0
 10
168.5951282006127
 20
259.606004050506
 30
0.0
 10
167.9912013957783
 20
257.9813371793658
 30
0.0
 10
166.8417614415759
 20
256.3330282288459
 30
0.0
 10
165.251392665515
 20
255.1234011325271
 30
0.0
 10
163.7960038002963
 20
254.5036424900274
 30
0.0
 10
162.8921920890476
 20
254.2936010348239
 30
0.0
 10
162.6697068166477
 20
254.2418965373111
 30
0.0
  0
LINE
  5
1C3
330
1F
100
AcDbEntity
  8
0
  6
Continuous
 62
     8
370
    18
100
AcDbLine
 10
169.6644341027
 20
277.3315771428
 30
0.0
 11
169.1644348696
 21
277.3307014254
 31
0.0
  0
LINE
  5
1C4
330
1F
100
AcDbEntity
  8
0
  6
Continuous
 62
     8
370
    18
100
AcDbLine
 10
169.6644341027
 20
265.289542705
 30
0.0
 11
169.1644348696
 21
265.2904184224
 31
0.0
  0
LINE
  5
1C5
330
1F
100
AcDbEntity
  8
0
  6
Continuous
 62
     8
370
    18
100
AcDbLine
 10
134.1749787637
 20
277.3307014254
 30
0.0
 11
133.6749795306
 21
277.3315771428
 31
0.0
  0
LINE
  5
1C6
330
1F
100
AcDbEntity
  8
0
  6
Continuous
 62
     8
370
    18
100
AcDbLine
 10
134.1749787637
 20
265.2904184224
 30
0.0
 11
133.6749795306
 21
265.289542705
 31
0.0
  0
LINE
  5
1C7
330
1F
100
AcDbEntity
  8
0
  6
Continuous
 62
     8
370
    18
100
AcDbLine
 10
155.3794564873
 20
289.7200840467
 30
0.0
 11
147.959957146
 21
289.7200840467
 31
0.0
  0
LINE
  5
1C8
330
1F
100
AcDbEntity
  8
0
  6
Continuous
 62
     8
370
    18
100
AcDbLine
 10
155.5697068166
 20
289.5203218283
 30
0.0
 11
147.7697068166
 21
289.5203218283
 31
0.0
  0
LINE
  5
1C9
330
1F
100
AcDbEntity
  8
0
  6
Continuous
 62
     8
370
    18
100
AcDbLine
 10
180.6643853065
 20
265.315844118
 30
0.0
 11
180.6643853065
 21
277.3052812461
 31
0.0
  0
SPLINE
  5
1CA
330
1F
100
AcDbEntity
  8
0
  6
Continuous
 62
     8
370
    18
100
AcDbSpline
210
0.0
220
0.0
230
1.0
 70
     8
 71
     3
 72
    24
 73
    20
 74
     0
 42
0.00000001
 43
0.00000001
 40
0.0
 40
0.0
 40
0.0
 40
0.0
 40
0.0790735448455826
 40
0.1348935711148508
 40
0.2076119069142888
 40
0.2665940260936752
 40
0.3312987463729639
 40
0.3952119867175032
 40
0.4583466959276765
 40
0.4892376916231591
 40
0.5209518996655199
 40
0.5776578539917403
 40
0.644127028000338
 40
0.7000792629047515
 40
0.7650046281775915
 40
0.8278950565544863
 40
0.9003491494216134
 40
0.9481359729869023
 40
1.0
 40
1.0
 40
1.0
 40
1.0
 10
206.1122163140876
 20
289.3052872099008
 30
0.0
 10
206.6596031304941
 20
289.3052862009567
 30
0.0
 10
207.5934042214967
 20
289.3052844797734
 30
0.0
 10
209.0305562809921
 20
289.3052617410257
 30
0.0
 10
210.3282822404581
 20
289.305191210047
 30
0.0
 10
211.6850472136131
 20
289.3050231941554
 30
0.0
 10
212.9729034879697
 20
289.304694629277
 30
0.0
 10
214.2584160343613
 20
289.3040309730176
 30
0.0
 10
215.2339066335047
 20
289.302968543159
 30
0.0
 10
215.8829612230764
 20
289.3016801881126
 30
0.0
 10
216.4101417505198
 20
289.3001829016197
 30
0.0
 10
216.9228130674568
 20
289.2977510748859
 30
0.0
 10
217.3136841469189
 20
289.294321076625
 30
0.0
 10
217.58924319057
 20
289.290179891938
 30
0.0
 10
217.777204611665
 20
289.2856162526169
 30
0.0
 10
217.9182826584707
 20
289.2800886863126
 30
0.0
 10
218.0067727717674
 20
289.2744963641351
 30
0.0
 10
218.0682308432527
 20
289.2688296425976
 30
0.0
 10
218.0935950265844
 20
289.2652821924822
 30
0.0
 10
218.1067960046176
 20
289.2634358956614
 30
0.0
  0
SPLINE
  5
1CB
330
1F
100
AcDbEntity
  8
0
  6
Continuous
 62
     8
370
    18
100
AcDbSpline
210
0.0
220
0.0
230
1.0
 70
     8
 71
     3
 72
    25
 73
    21
 74
     0
 42
0.00000001
 43
0.00000001
 40
0.0
 40
0.0
 40
0.0
 40
0.0
 40
0.057281896147123
 40
0.1043502723361333
 40
0.1516654902416389
 40
0.1946544140328108
 40
0.2723200125998958
 40
0.3386148144096616
 40
0.3933619088944383
 40
0.4413983364637541
 40
0.4799127691320427
 40
0.5164912396929443
 40
0.5504339684639109
 40
0.5867459140497735
 40
0.629885609379781
 40
0.6821850617865066
 40
0.7446503159833048
 40
0.8176795993998902
 40
0.9021163091404625
 40
1.0
 40
1.0
 40
1.0
 40
1.0
 10
218.1067997628777
 20
253.3576839390691
 30
0.0
 10
218.091806893506
 20
253.3556477536221
 30
0.0
 10
218.0644944246937
 20
253.3519384402051
 30
0.0
 10
218.0099770827239
 20
253.3469773402893
 30
0.0
 10
217.9446459339523
 20
253.3427372381611
 30
0.0
 10
217.8446441523287
 20
253.3378817760735
 30
0.0
 10
217.6889336180274
 20
253.3329598250462
 30
0.0
 10
217.4358071926238
 20
253.3283610899401
 30
0.0
 10
217.1158940504258
 20
253.3249317016766
 30
0.0
 10
216.7412337731885
 20
253.3224421350586
 30
0.0
 10
216.300798879822
 20
253.3206005392722
 30
0.0
 10
215.8106458093708
 20
253.319255198893
 30
0.0
 10
215.2403579106296
 20
253.3182196643755
 30
0.0
 10
214.5571134315593
 20
253.3174124384073
 30
0.0
 10
213.7018675002761
 20
253.3167767011203
 30
0.0
 10
212.6333070512412
 20
253.3163229660989
 30
0.0
 10
211.3414173329639
 20
253.316035696881
 30
0.0
 10
209.8202999383115
 20
253.3158864329279
 30
0.0
 10
208.0523493172711
 20
253.3158334462425
 30
0.0
 10
206.7899630237845
 20
253.3158329202705
 30
0.0
 10
206.1122164343176
 20
253.3158326378881
 30
0.0
  0
LINE
  5
1CC
330
1F
100
AcDbEntity
  8
0
  6
Continuous
 62
     8
370
    18
100
AcDbLine
 10
188.6749795306
 20
280.2447093092
 30
0.0
 11
188.6749795306
 21
262.3764105386
 31
0.0
  0
ARC
  5
1CD
330
1F
100
AcDbEntity
  8
0
  6
Continuous
 62
     8
370
    18
100
AcDbCircle
 10
188.5509310791
 20
263.8418100452
 30
0.0
 40
1.470640585669372
100
AcDbArc
 50
255.1886098727
 51
274.8386451746
  0
ARC
  5
1CE
330
1F
100
AcDbEntity
  8
0
  6
Continuous
 62
     8
370
    18
100
AcDbCircle
 10
188.5509310791
 20
278.7793098027
 30
0.0
 40
1.470640585582645
100
AcDbArc
 50
85.1613548251
 51
104.811390128
  0
LINE
  5
1CF
330
1F
100
AcDbEntity
  8
0
  6
Continuous
 62
     8
370
    18
100
AcDbLine
 10
185.1749795306
 20
289.30528721
 30
0.0
 11
180.6643992816
 21
289.305287284
 31
0.0
  0
SPLINE
  5
1D0
330
1F
100
AcDbEntity
  8
0
  6
Continuous
 62
     8
370
    18
100
AcDbSpline
210
0.0
220
0.0
230
1.0
 70
    24
 71
     3
 72
    15
 73
    11
 74
     0
 42
0.00000001
 43
0.00000001
 40
0.0
 40
0.0
 40
0.0
 40
0.0
 40
0.1250000000000001
 40
0.2500000000000002
 40
0.3750000000000003
 40
0.5000000000000004
 40
0.6250000000000003
 40
0.7500000000000002
 40
0.8750000000000001
 40
1.0
 40
1.0
 40
1.0
 40
1.0
 10
185.1749795305677
 20
277.3053056151338
 30
0.0
 10
185.1749795305677
 20
278.1450626568497
 30
0.0
 10
185.1749795305677
 20
279.8346973418881
 30
0.0
 10
185.1749795305677
 20
282.4100231844154
 30
0.0
 10
185.1749795305677
 20
284.8069766924861
 30
0.0
 10
185.1749795305677
 20
286.7536190702065
 30
0.0
 10
185.1749795305677
 20
288.1291957880366
 30
0.0
 10
185.1749795305677
 20
288.9566698258063
 30
0.0
 10
185.1749795305677
 20
289.2952039337861
 30
0.0
 10
185.1749795305677
 20
289.3038141318319
 30
0.0
 10
185.1749795305677
 20
289.3052872099732
 30
0.0
  0
LINE
  5
1D1
330
1F
100
AcDbEntity
  8
0
  6
Continuous
 62
     8
370
    18
100
AcDbLine
 10
185.1749795306
 20
265.3158142327
 30
0.0
 11
185.1749795306
 21
277.3053056151
 31
0.0
  0
LINE
  5
1D2
330
1F
100
AcDbEntity
  8
0
  6
Continuous
 62
     8
370
    18
100
AcDbLine
 10
188.6838698671
 20
289.30528721
 30
0.0
 11
206.1122163141
 21
289.3052872099
 31
0.0
  0
SPLINE
  5
1D3
330
1F
100
AcDbEntity
  8
0
  6
Continuous
 62
     8
370
    18
100
AcDbSpline
210
0.0
220
0.0
230
1.0
 70
     8
 71
     3
 72
     8
 73
     4
 74
     0
 42
0.00000001
 43
0.00000001
 40
0.0
 40
0.0
 40
0.0
 40
0.0
 40
1.0
 40
1.0
 40
1.0
 40
1.0
 10
219.2070646775284
 20
289.3052872099805
 30
0.0
 10
219.2061548858484
 20
289.3193110064186
 30
0.0
 10
219.2061809689089
 20
289.3053601358421
 30
0.0
 10
219.2071363905359
 20
289.2634351500052
 30
0.0
  0
LINE
  5
1D4
330
1F
100
AcDbEntity
  8
0
  6
Continuous
 62
     8
370
    18
100
AcDbLine
 10
206.1122164343
 20
253.3158326379
 30
0.0
 11
188.6838698671
 21
253.3158326378
 31
0.0
  0
SPLINE
  5
1D5
330
1F
100
AcDbEntity
  8
0
  6
Continuous
 62
     8
370
    18
100
AcDbSpline
210
0.0
220
0.0
230
1.0
 70
     8
 71
     3
 72
     8
 73
     4
 74
     0
 42
0.00000001
 43
0.00000001
 40
0.0
 40
0.0
 40
0.0
 40
0.0
 40
1.0
 40
1.0
 40
1.0
 40
1.0
 10
219.2083825226484
 20
253.3576839277244
 30
0.0
 10
219.2070357452833
 20
253.3157593908292
 30
0.0
 10
219.2066181892658
 20
253.3018088374023
 30
0.0
 10
219.2071363912082
 20
253.3158326403793
 30
0.0
  0
LINE
  5
1D6
330
1F
100
AcDbEntity
  8
0
  6
Continuous
 62
     8
370
    18
100
AcDbLine
 10
185.1749795306
 20
253.3158326378
 30
0.0
 11
180.6643939995
 21
253.3158325885
 31
0.0
  0
SPLINE
  5
1D7
330
1F
100
AcDbEntity
  8
0
  6
Continuous
 62
     8
370
    18
100
AcDbSpline
210
0.0
220
0.0
230
1.0
 70
    24
 71
     3
 72
    22
 73
    18
 74
     0
 42
0.00000001
 43
0.00000001
 40
0.0
 40
0.0
 40
0.0
 40
0.0
 40
0.1250000000000002
 40
0.1250000000000002
 40
0.2500000000000003
 40
0.2500000000000003
 40
0.3750000000000003
 40
0.3750000000000003
 40
0.5000000000000003
 40
0.5000000000000003
 40
0.6250000000000003
 40
0.6250000000000003
 40
0.7500000000000002
 40
0.7500000000000002
 40
0.8750000000000001
 40
0.8750000000000001
 40
1.0
 40
1.0
 40
1.0
 40
1.0
 10
185.1749795305677
 20
265.3158142326553
 30
0.0
 10
185.1749795305677
 20
264.5049565689043
 30
0.0
 10
185.1749795305677
 20
263.6868572985193
 30
0.0
 10
185.1749795305677
 20
262.043718567031
 30
0.0
 10
185.1749795305677
 20
261.2204520028199
 30
0.0
 10
185.1749795305677
 20
259.5958251167927
 30
0.0
 10
185.1749795305677
 20
258.7947192633373
 30
0.0
 10
185.1749795305677
 20
257.2778940326845
 30
0.0
 10
185.1749795305677
 20
256.565213515598
 30
0.0
 10
185.1749795305677
 20
255.3602388068241
 30
0.0
 10
185.1749795305677
 20
254.8770202448358
 30
0.0
 10
185.1749795305676
 20
254.1430935703087
 30
0.0
 10
185.1749795305677
 20
253.8863609372945
 30
0.0
 10
185.1749795305677
 20
253.5283884724135
 30
0.0
 10
185.1749795305677
 20
253.4273545295063
 30
0.0
 10
185.1749795305677
 20
253.3213783011591
 30
0.0
 10
185.1749795305677
 20
253.31724098695
 30
0.0
 10
185.1749795305677
 20
253.3158326378164
 30
0.0
  0
LINE
  5
1D8
330
1F
100
AcDbEntity
  8
0
  6
Continuous
 62
     8
370
    18
100
AcDbLine
 10
185.6749795306
 20
277.3053056151
 30
0.0
 11
185.1749795306
 21
277.3053056151
 31
0.0
  0
LINE
  5
1D9
330
1F
100
AcDbEntity
  8
0
  6
Continuous
 62
     8
370
    18
100
AcDbLine
 10
185.6749795306
 20
265.3158142327
 30
0.0
 11
185.1749795306
 21
265.3158142327
 31
0.0
  0
ARC
  5
1DA
330
1F
100
AcDbEntity
  8
0
  6
Continuous
 62
     8
370
    18
100
AcDbCircle
 10
185.174979914
 20
253.8158322544
 30
0.0
 40
0.4999996165597103
100
AcDbArc
 50
269.9999560621
 51
359.999956061
  0
ARC
  5
1DB
330
1F
100
AcDbEntity
  8
0
  6
Continuous
 62
     8
370
    18
100
AcDbCircle
 10
185.174979914
 20
288.8052875934
 30
0.0
 40
0.4999996165649683
100
AcDbArc
 50
0.0000439391
 51
90.0000439392
  0
SPLINE
  5
1DC
330
1F
100
AcDbEntity
  8
0
  6
Continuous
 62
     8
370
    18
100
AcDbSpline
210
0.0
220
0.0
230
1.0
 70
    24
 71
     3
 72
    22
 73
    18
 74
     0
 42
0.00000001
 43
0.00000001
 40
0.0
 40
0.0
 40
0.0
 40
0.0
 40
0.125
 40
0.125
 40
0.25
 40
0.25
 40
0.375
 40
0.375
 40
0.5
 40
0.5
 40
0.625
 40
0.625
 40
0.75
 40
0.75
 40
0.875
 40
0.875
 40
1.0
 40
1.0
 40
1.0
 40
1.0
 10
188.6749795305677
 20
289.3015335378379
 30
0.0
 10
188.6749795305677
 20
289.2948185987793
 30
0.0
 10
188.6749795305677
 20
289.275268380048
 30
0.0
 10
188.6749795305677
 20
289.1562610749368
 30
0.0
 10
188.6749795305677
 20
289.0582712568486
 30
0.0
 10
188.6749795305677
 20
288.7557001539358
 30
0.0
 10
188.6749795305677
 20
288.5505580600718
 30
0.0
 10
188.6749795305677
 20
288.0215781342015
 30
0.0
 10
188.6749795305677
 20
287.6973006467122
 30
0.0
 10
188.6749795305677
 20
286.9236426685188
 30
0.0
 10
188.6749795305677
 20
286.4728945572506
 30
0.0
 10
188.6749795305677
 20
285.4517121645529
 30
0.0
 10
188.6749795305677
 20
284.8822925865288
 30
0.0
 10
188.6749795305677
 20
283.6521902155319
 30
0.0
 10
188.6749795305677
 20
282.9934565042099
 30
0.0
 10
188.6749795305677
 20
281.6379131633651
 30
0.0
 10
188.6749795305677
 20
280.9409610832875
 30
0.0
 10
188.6749795305677
 20
280.2447093091969
 30
0.0
  0
SPLINE
  5
1DD
330
1F
100
AcDbEntity
  8
0
  6
Continuous
 62
     8
370
    18
100
AcDbSpline
210
0.0
220
0.0
230
1.0
 70
     8
 71
     3
 72
     9
 73
     5
 74
     0
 42
0.00000001
 43
0.00000001
 40
0.0
 40
0.0
 40
0.0
 40
0.0
 40
0.4990491843294651
 40
1.0
 40
1.0
 40
1.0
 40
1.0
 10
188.6838698671047
 20
289.3052872099793
 30
0.0
 10
188.6812768549554
 20
289.3050556662675
 30
0.0
 10
188.6760809499611
 20
289.3045916965448
 30
0.0
 10
188.6753471355136
 20
289.3025542155861
 30
0.0
 10
188.6749795305677
 20
289.3015335378379
 30
0.0
  0
SPLINE
  5
1DE
330
1F
100
AcDbEntity
  8
0
  6
Continuous
 62
     8
370
    18
100
AcDbSpline
210
0.0
220
0.0
230
1.0
 70
     8
 71
     3
 72
     8
 73
     4
 74
     0
 42
0.00000001
 43
0.00000001
 40
0.0
 40
0.0
 40
0.0
 40
0.0
 40
1.0
 40
1.0
 40
1.0
 40
1.0
 10
188.6838698671041
 20
253.3158326378092
 30
0.0
 10
188.6779357776217
 20
253.3162909684493
 30
0.0
 10
188.6749795307329
 20
253.3170229369718
 30
0.0
 10
188.6749795305676
 20
253.3195863099553
 30
0.0
  0
SPLINE
  5
1DF
330
1F
100
AcDbEntity
  8
0
  6
Continuous
 62
     8
370
    18
100
AcDbSpline
210
0.0
220
0.0
230
1.0
 70
    24
 71
     3
 72
    24
 73
    20
 74
     0
 42
0.00000001
 43
0.00000001
 40
0.0
 40
0.0
 40
0.0
 40
0.0
 40
0.1249999999999995
 40
0.1249999999999995
 40
0.2499999999999989
 40
0.2499999999999989
 40
0.3749999999999984
 40
0.3749999999999984
 40
0.4999999999999979
 40
0.4999999999999979
 40
0.5624999999999986
 40
0.5624999999999986
 40
0.6249999999999989
 40
0.6249999999999989
 40
0.7499999999999992
 40
0.7499999999999992
 40
0.8749999999999997
 40
0.8749999999999997
 40
1.0
 40
1.0
 40
1.0
 40
1.0
 10
188.6749795305677
 20
253.3195863099509
 30
0.0
 10
188.6749795305677
 20
253.3260368270443
 30
0.0
 10
188.6749795305677
 20
253.3443147410906
 30
0.0
 10
188.6749795305677
 20
253.451715095169
 30
0.0
 10
188.6749795305677
 20
253.5395472587732
 30
0.0
 10
188.6749795305677
 20
253.8149057813692
 30
0.0
 10
188.6749795305677
 20
254.0029987996418
 30
0.0
 10
188.6749795305677
 20
254.5115291575781
 30
0.0
 10
188.6749795305677
 20
254.8348259412669
 30
0.0
 10
188.6749795305677
 20
255.4407517689451
 30
0.0
 10
188.6749795305676
 20
255.6627928909747
 30
0.0
 10
188.6749795305677
 20
256.1447046963335
 30
0.0
 10
188.6749795305677
 20
256.4043065926783
 30
0.0
 10
188.6749795305676
 20
257.2252646936766
 30
0.0
 10
188.6749795305677
 20
257.8281881757389
 30
0.0
 10
188.6749795305677
 20
259.0810636403492
 30
0.0
 10
188.6749795305677
 20
259.730584338595
 30
0.0
 10
188.6749795305677
 20
261.0459221663059
 30
0.0
 10
188.6749795305677
 20
261.7110582737233
 30
0.0
 10
188.6749795305677
 20
262.3764105385913
 30
0.0
  0
LINE
  5
1E0
330
1F
100
AcDbEntity
  8
0
  6
Continuous
 62
     8
370
    18
100
AcDbLine
 10
186.0868842118
 20
287.7874546597
 30
0.0
 11
186.0868842118
 21
254.8336651881
 31
0.0
  0
LINE
  5
1E1
330
1F
100
AcDbEntity
  8
0
  6
Continuous
 62
     8
370
    18
100
AcDbLine
 10
186.0378011673
 20
287.7915452476
 30
0.0
 11
186.0378011673
 21
254.8295746002
 31
0.0
  0
LINE
  5
1E2
330
1F
100
AcDbEntity
  8
0
  6
Continuous
 62
     8
370
    18
100
AcDbLine
 10
180.6643939995
 20
253.3158325885
 30
0.0
 11
180.6643939995
 21
253.315832577
 31
0.0
  0
LINE
  5
1E3
330
1F
100
AcDbEntity
  8
0
  6
Continuous
 62
     8
370
    18
100
AcDbLine
 10
185.1749795306
 20
253.3105599239
 30
0.0
 11
185.1749795306
 21
253.3158326378
 31
0.0
  0
LINE
  5
1E4
330
1F
100
AcDbEntity
  8
0
  6
Continuous
 62
     8
370
    18
100
AcDbLine
 10
180.6644002584
 20
289.305287284
 30
0.0
 11
180.6644002584
 21
289.3052872711
 31
0.0
  0
LINE
  5
1E5
330
1F
100
AcDbEntity
  8
0
  6
Continuous
 62
     8
370
    18
100
AcDbLine
 10
185.1749795306
 20
289.30528721
 30
0.0
 11
185.1749795306
 21
289.3105599239
 31
0.0
  0
SPLINE
  5
1E6
330
1F
100
AcDbEntity
  8
0
  6
Continuous
 62
     8
370
    18
100
AcDbSpline
210
0.0
220
0.0
230
1.0
 70
     8
 71
     3
 72
    21
 73
    17
 74
     0
 42
0.00000001
 43
0.00000001
 40
-0.0000000000000028
 40
-0.0000000000000028
 40
-0.0000000000000028
 40
-0.0000000000000028
 40
0.003329183646551
 40
0.006658367293102
 40
0.008322959116377
 40
0.009987550939653
 40
0.01165214276293
 40
0.0133167345862
 40
0.01414903049784
 40
0.01498132640948
 40
0.01664591823275
 40
0.01747821414439
 40
0.01831051005603
 40
0.01997510187931
 40
0.02330428552586
 40
0.0266334691724108
 40
0.0266334691724108
 40
0.0266334691724108
 40
0.0266334691724108
 10
144.6697068166504
 20
294.310559923894
 30
0.0
 10
143.5561701442358
 20
294.3105599285349
 30
0.0
 10
141.3309939164279
 20
294.3033719690301
 30
0.0
 10
138.569899164511
 20
293.9821677912378
 30
0.0
 10
136.3971738262969
 20
293.4127459039099
 30
0.0
 10
134.8441598363259
 20
292.8087273347125
 30
0.0
 10
133.3690881628247
 20
291.9749458456699
 30
0.0
 10
132.2998427126057
 20
291.0951226635448
 30
0.0
 10
131.539331555718
 20
290.2602237317348
 30
0.0
 10
130.8685064559979
 20
289.3684894900432
 30
0.0
 10
130.3188432574063
 20
288.3995547177701
 30
0.0
 10
129.8724833857455
 20
287.366116317356
 30
0.0
 10
129.4983739094048
 20
286.3182774858888
 30
0.0
 10
129.0049940571445
 20
284.4427834671177
 30
0.0
 10
128.6757993787442
 20
281.6593557402813
 30
0.0
 10
128.6697068119944
 20
279.4273593265786
 30
0.0
 10
128.6697068166476
 20
278.3105599238933
 30
0.0
  0
LINE
  5
1E7
330
1F
100
AcDbEntity
  8
0
  6
Continuous
 62
     8
370
    18
100
AcDbLine
 10
144.6697068166
 20
294.3105599239
 30
0.0
 11
158.6697068166
 21
294.3105599239
 31
0.0
  0
SPLINE
  5
1E8
330
1F
100
AcDbEntity
  8
0
  6
Continuous
 62
     8
370
    18
100
AcDbSpline
210
0.0
220
0.0
230
1.0
 70
     8
 71
     3
 72
    14
 73
    10
 74
     0
 42
0.00000001
 43
0.00000001
 40
0.0
 40
0.0
 40
0.0
 40
0.0
 40
0.1093747194254833
 40
0.218570377538573
 40
0.3322975932453057
 40
0.4371029934800756
 40
0.6698531801603971
 40
0.8742638921663628
 40
1.0
 40
1.0
 40
1.0
 40
1.0
 10
158.6697068166476
 20
294.3105599238958
 30
0.0
 10
159.2261202429606
 20
294.3100196816963
 30
0.0
 10
160.3380361710248
 20
294.3089400817473
 30
0.0
 10
162.0282783839519
 20
294.2560737323572
 30
0.0
 10
163.6898573770599
 20
294.1066234284942
 30
0.0
 10
165.95859979631
 20
293.7319695476105
 30
0.0
 10
168.5882934037451
 20
292.8751439263547
 30
0.0
 10
171.0893188937157
 20
291.2900700461813
 30
0.0
 10
171.9898788534135
 20
289.8567827665289
 30
0.0
 10
172.3328562725455
 20
289.3109166453937
 30
0.0
  0
SPLINE
  5
1E9
330
1F
100
AcDbEntity
  8
0
  6
Continuous
 62
     8
370
    18
100
AcDbSpline
210
0.0
220
0.0
230
1.0
 70
     8
 71
     3
 72
    14
 73
    10
 74
     0
 42
0.00000001
 43
0.00000001
 40
0.0
 40
0.0
 40
0.0
 40
0.0
 40
0.168724013123163
 40
0.4458925176036458
 40
0.5457274818750469
 40
0.6506358002853347
 40
0.7613602956378084
 40
0.9037202653334419
 40
1.0
 40
1.0
 40
1.0
 40
1.0
 10
172.3324982650223
 20
253.3102032110923
 30
0.0
 10
171.9940706755235
 20
252.7688845742632
 30
0.0
 10
171.0996969161822
 20
251.33832394846
 30
0.0
 10
169.2990149381754
 20
250.2049411246416
 30
0.0
 10
167.6493724981697
 20
249.4733439143972
 30
0.0
 10
166.523501082861
 20
249.0951167579842
 30
0.0
 10
165.2184546602576
 20
248.7707666750785
 30
0.0
 10
163.923651774162
 20
248.5439588573841
 30
0.0
 10
163.0301800341655
 20
248.4714106265414
 30
0.0
 10
162.6697068166477
 20
248.4421408768376
 30
0.0
  0
SPLINE
  5
1EA
330
1F
100
AcDbEntity
  8
0
  6
Continuous
 62
     8
370
    18
100
AcDbSpline
210
0.0
220
0.0
230
1.0
 70
     8
 71
     3
 72
    21
 73
    17
 74
     0
 42
0.00000001
 43
0.00000001
 40
0.0
 40
0.0
 40
0.0
 40
0.0
 40
0.0477076164577185
 40
0.1183076005970132
 40
0.1923352612984709
 40
0.2680685071066533
 40
0.3419911835767269
 40
0.4124900455490382
 40
0.5497463592533735
 40
0.5992934040469645
 40
0.6514052287367841
 40
0.706447440919081
 40
0.7768102998114297
 40
0.8532110601454023
 40
0.926545403361524
 40
0.9999999999999999
 40
0.9999999999999999
 40
0.9999999999999999
 40
0.9999999999999999
 10
140.6697068166477
 20
248.4421297761619
 30
0.0
 10
140.3094044260363
 20
248.4714070184155
 30
0.0
 10
139.4159095401543
 20
248.5440101065657
 30
0.0
 10
137.9782919089642
 20
248.795264044912
 30
0.0
 10
136.360999809371
 20
249.21791052495
 30
0.0
 10
134.7798865080464
 20
249.8414830501745
 30
0.0
 10
133.3285727052968
 20
250.6775291420609
 30
0.0
 10
131.6784047807134
 20
252.0466194980629
 30
0.0
 10
130.5507400351802
 20
253.6880519241407
 30
0.0
 10
129.8278341502307
 20
255.3473970665121
 30
0.0
 10
129.4498115831969
 20
256.4744619582268
 30
0.0
 10
129.1240742917164
 20
257.7802532886802
 30
0.0
 10
128.8733530670384
 20
259.2900139142511
 30
0.0
 10
128.724273597504
 20
260.9518713922536
 30
0.0
 10
128.6713053445041
 20
262.6422161845852
 30
0.0
 10
128.6702399501997
 20
263.7541417044252
 30
0.0
 10
128.6697068166476
 20
264.3105599238958
 30
0.0
  0
LINE
  5
1EB
330
1F
100
AcDbEntity
  8
0
  6
Continuous
 62
     8
370
    18
100
AcDbLine
 10
128.6697068166
 20
264.3105599239
 30
0.0
 11
128.6697068166
 21
278.3105599239
 31
0.0
  0
SPLINE
  5
1EC
330
1F
100
AcDbEntity
  8
0
  6
Continuous
 62
     8
370
    18
100
AcDbSpline
210
0.0
220
0.0
230
1.0
 70
    24
 71
     3
 72
    11
 73
     7
 74
     0
 42
0.00000001
 43
0.00000001
 40
0.0000000000001538
 40
0.0000000000001538
 40
0.0000000000001538
 40
0.0000000000001538
 40
0.250002097784
 40
0.5000041955681
 40
0.7500062933521
 40
1.00000000000319
 40
1.00000000000319
 40
1.00000000000319
 40
1.00000000000319
 10
144.6697068166478
 20
295.3105599238942
 30
0.0
 10
144.6697068166476
 20
295.310559923896
 30
0.0
 10
144.6697068166474
 20
295.2678457711108
 30
0.0
 10
144.6697068166477
 20
295.0387819043253
 30
0.0
 10
144.6697068166481
 20
294.6830013300337
 30
0.0
 10
144.6697068166478
 20
294.4284081422451
 30
0.0
 10
144.6697068166477
 20
294.3105599238958
 30
0.0
  0
SPLINE
  5
1ED
330
1F
100
AcDbEntity
  8
0
  6
Continuous
 62
     8
370
    18
100
AcDbSpline
210
0.0
220
0.0
230
1.0
 70
    24
 71
     3
 72
    11
 73
     7
 74
     0
 42
0.00000001
 43
0.00000001
 40
-0.0000000000050948
 40
-0.0000000000050948
 40
-0.0000000000050948
 40
-0.0000000000050948
 40
0.2499909503167
 40
0.4999939668778
 40
0.7499969834389
 40
0.99999999999989
 40
0.99999999999989
 40
0.99999999999989
 40
0.99999999999989
 10
158.669706816648
 20
294.3105599238958
 30
0.0
 10
158.669706816648
 20
294.4284068669268
 30
0.0
 10
158.669706816648
 20
294.682998841397
 30
0.0
 10
158.6697068166481
 20
295.0387798140308
 30
0.0
 10
158.6697068166479
 20
295.2678454472506
 30
0.0
 10
158.6697068166476
 20
295.3105599238953
 30
0.0
 10
158.6697068166476
 20
295.3105599238942
 30
0.0
  0
SPLINE
  5
1EE
330
1F
100
AcDbEntity
  8
0
  6
Continuous
 62
     8
370
    18
100
AcDbSpline
210
0.0
220
0.0
230
1.0
 70
    24
 71
     3
 72
    10
 73
     6
 74
     0
 42
0.00000001
 43
0.00000001
 40
0.0
 40
0.0
 40
0.0
 40
0.0
 40
0.5
 40
0.5
 40
1.0
 40
1.0
 40
1.0
 40
1.0
 10
128.6697068166476
 20
264.3105599238958
 30
0.0
 10
128.4079074288485
 20
264.3105599238958
 30
0.0
 10
128.1477201578844
 20
264.3105599238958
 30
0.0
 10
127.7774799130378
 20
264.3105599238958
 30
0.0
 10
127.6697068166477
 20
264.3105599238958
 30
0.0
 10
127.6697068166477
 20
264.3105599238958
 30
0.0
  0
SPLINE
  5
1EF
330
1F
100
AcDbEntity
  8
0
  6
Continuous
 62
     8
370
    18
100
AcDbSpline
210
0.0
220
0.0
230
1.0
 70
    24
 71
     3
 72
    11
 73
     7
 74
     0
 42
0.00000001
 43
0.00000001
 40
0.0000000000001482
 40
0.0000000000001482
 40
0.0000000000001482
 40
0.0000000000001482
 40
0.2499937066525421
 40
0.4999958044365421
 40
0.7499979022206421
 40
1.000000000004494
 40
1.000000000004494
 40
1.000000000004494
 40
1.000000000004494
 10
128.6697068166476
 20
278.3105599238957
 30
0.0
 10
128.5518585982989
 20
278.3105599238957
 30
0.0
 10
128.2972654105116
 20
278.3105599238954
 30
0.0
 10
127.9414848362196
 20
278.3105599238953
 30
0.0
 10
127.7124209694313
 20
278.3105599238957
 30
0.0
 10
127.6697068166481
 20
278.3105599238958
 30
0.0
 10
127.6697068166474
 20
278.3105599238958
 30
0.0
  0
SPLINE
  5
1F0
330
1F
100
AcDbEntity
  8
0
  6
Continuous
 62
     7
370
    25
100
AcDbSpline
210
0.0
220
0.0
230
1.0
 70
     8
 71
     3
 72
     9
 73
     5
 74
     0
 42
0.00000001
 43
0.00000001
 40
0.0
 40
0.0
 40
0.0
 40
0.0
 40
0.5022163613129383
 40
0.9999999999999999
 40
0.9999999999999999
 40
0.9999999999999999
 40
0.9999999999999999
 10
375.070269949646
 20
415.092499767249
 30
0.0
 10
375.0964426230648
 20
415.1256206432593
 30
0.0
 10
375.1485569614954
 20
415.191570059809
 30
0.0
 10
375.1543617164334
 20
415.2672700831355
 30
0.0
 10
375.1572512284681
 20
415.3049523161957
 30
0.0
  0
SPLINE
  5
1F1
330
1F
100
AcDbEntity
  8
0
  6
Continuous
 62
     7
370
    25
100
AcDbSpline
210
0.0
220
0.0
230
1.0
 70
     8
 71
     3
 72
     9
 73
     5
 74
     0
 42
0.00000001
 43
0.00000001
 40
0.0
 40
0.0
 40
0.0
 40
0.0
 40
0.4977780945704545
 40
1.0
 40
1.0
 40
1.0
 40
1.0
 10
339.159669911714
 20
415.3049523161957
 30
0.0
 10
339.1625700683239
 20
415.2672051695501
 30
0.0
 10
339.1683962720914
 20
415.1913738964238
 30
0.0
 10
339.2206728688639
 20
415.1253700924315
 30
0.0
 10
339.2469273209044
 20
415.0922215362248
 30
0.0
  0
SPLINE
  5
1F2
330
1F
100
AcDbEntity
  8
0
  6
Continuous
 62
     7
370
    25
100
AcDbSpline
210
0.0
220
0.0
230
1.0
 70
     8
 71
     3
 72
     9
 73
     5
 74
     0
 42
0.00000001
 43
0.00000001
 40
0.0
 40
0.0
 40
0.0
 40
0.0
 40
0.5008824355990542
 40
1.0
 40
1.0
 40
1.0
 40
1.0
 10
339.3051625200274
 20
534.858762515849
 30
0.0
 10
339.2615708856011
 20
534.8035027765012
 30
0.0
 10
339.1745412129113
 20
534.6931780068143
 30
0.0
 10
339.1688998973269
 20
534.5676203487036
 30
0.0
 10
339.1660842176324
 20
534.5049523161956
 30
0.0
  0
SPLINE
  5
1F3
330
1F
100
AcDbEntity
  8
0
  6
Continuous
 62
     7
370
    25
100
AcDbSpline
210
0.0
220
0.0
230
1.0
 70
     8
 71
     3
 72
     9
 73
     5
 74
     0
 42
0.00000001
 43
0.00000001
 40
0.0
 40
0.0
 40
0.0
 40
0.0
 40
0.499116503026009
 40
1.0
 40
1.0
 40
1.0
 40
1.0
 10
375.1508351206377
 20
534.5049523161954
 30
0.0
 10
375.1480264783078
 20
534.5675839515148
 30
0.0
 10
375.1423992503701
 20
534.6930689533925
 30
0.0
 10
375.0554593155452
 20
534.8033616537269
 30
0.0
 10
375.0119125369634
 20
534.8586054471614
 30
0.0
  0
ARC
  5
1F4
330
1F
100
AcDbEntity
  8
0
  6
Continuous
 62
     7
370
    25
100
AcDbCircle
 10
537.4162195428
 20
593.0640938467
 30
0.0
 40
0.3000000000078965
100
AcDbArc
 50
285.0000000001
 51
15.0000000096
  0
ARC
  5
1F5
330
1F
100
AcDbEntity
  8
0
  6
Continuous
 62
     7
370
    25
100
AcDbCircle
 10
516.7454068602
 20
587.5253662815
 30
0.0
 40
0.3000000000000521
100
AcDbArc
 50
194.9999999906
 51
285.0000000001
  0
ARC
  5
1F6
330
1F
100
AcDbEntity
  8
0
  6
Continuous
 62
     7
370
    25
100
AcDbCircle
 10
438.3656113217
 20
607.6240277262
 30
0.0
 40
92.20715240685003
100
AcDbArc
 50
15.0000000001
 51
180.0
  0
ARC
  5
1F7
330
1F
100
AcDbEntity
  8
0
  6
Continuous
 62
     7
370
    25
100
AcDbCircle
 10
438.3656113217
 20
607.6240277262
 30
0.0
 40
70.20715240685
100
AcDbArc
 50
15.0000000001
 51
180.0
  0
LINE
  5
1F8
330
1F
100
AcDbEntity
  8
0
  6
Continuous
 62
     7
370
    25
100
AcDbLine
 10
368.1584589149
 20
535.4049523162
 30
0.0
 11
368.1584589149
 21
607.6240277262
 31
0.0
  0
LINE
  5
1F9
330
1F
100
AcDbEntity
  8
0
  6
Continuous
 62
     7
370
    25
100
AcDbLine
 10
346.1584589149
 20
607.6240277262
 30
0.0
 11
346.1584589149
 21
535.4049523162
 31
0.0
  0
LINE
  5
1FA
330
1F
100
AcDbEntity
  8
0
  6
Continuous
 62
     7
370
    25
100
AcDbLine
 10
537.7059972907
 20
593.1417395603
 30
0.0
 11
527.4308812001
 21
631.4889948639
 31
0.0
  0
LINE
  5
1FB
330
1F
100
AcDbEntity
  8
0
  6
Continuous
 62
     7
370
    25
100
AcDbLine
 10
506.1805130217
 20
625.7949758716
 30
0.0
 11
516.4556291123
 21
587.447720568
 31
0.0
  0
LINE
  5
1FC
330
1F
100
AcDbEntity
  8
0
  6
Continuous
 62
     7
370
    25
100
AcDbLine
 10
346.3584589149
 20
535.4049523162
 30
0.0
 11
346.3584589149
 21
535.0049523162
 31
0.0
  0
LINE
  5
1FD
330
1F
100
AcDbEntity
  8
0
  6
Continuous
 62
     7
370
    25
100
AcDbLine
 10
367.9584589149
 20
535.0049523162
 30
0.0
 11
367.9584589149
 21
535.4049523162
 31
0.0
  0
ARC
  5
1FE
330
1F
100
AcDbEntity
  8
0
  6
Continuous
 62
     7
370
    25
100
AcDbCircle
 10
338.9486970105
 20
533.4049523162
 30
0.0
 40
0.1999999999999965
100
AcDbArc
 50
90.0
 51
177.20581768
  0
ARC
  5
1FF
330
1F
100
AcDbEntity
  8
0
  6
Continuous
 62
     7
370
    25
100
AcDbCircle
 10
338.9486970105
 20
526.0049523162
 30
0.0
 40
0.2000000000000455
100
AcDbArc
 50
182.79418232
 51
270.0
  0
LINE
  5
200
330
1F
100
AcDbEntity
  8
0
  6
Continuous
 62
     7
370
    25
100
AcDbLine
 10
339.1584589149
 20
533.6049523162
 30
0.0
 11
338.9486970105
 21
533.6049523162
 31
0.0
  0
LINE
  5
201
330
1F
100
AcDbEntity
  8
0
  6
Continuous
 62
     7
370
    25
100
AcDbLine
 10
338.9486970105
 20
525.8049523162
 30
0.0
 11
339.1584589149
 21
525.8049523162
 31
0.0
  0
ARC
  5
202
330
1F
100
AcDbEntity
  8
0
  6
Continuous
 62
     7
370
    25
100
AcDbCircle
 10
414.7584589149
 20
529.7049523162
 30
0.0
 40
76.10000000001003
100
AcDbArc
 50
177.2058176799
 51
182.7941823201
  0
LINE
  5
203
330
1F
100
AcDbEntity
  8
0
  6
Continuous
 62
     7
370
    25
100
AcDbLine
 10
333.1584589149
 20
410.2049523162
 30
0.0
 11
333.1584589149
 21
414.0049523162
 31
0.0
  0
LINE
  5
204
330
1F
100
AcDbEntity
  8
0
  6
Continuous
 62
     7
370
    25
100
AcDbLine
 10
350.1584589149
 20
410.0049523163
 30
0.0
 11
364.1584589149
 21
410.0049523163
 31
0.0
  0
LINE
  5
205
330
1F
100
AcDbEntity
  8
0
  6
Continuous
 62
     7
370
    25
100
AcDbLine
 10
381.1584589149
 20
414.0049523162
 30
0.0
 11
381.1584589149
 21
410.2049523162
 31
0.0
  0
LINE
  5
206
330
1F
100
AcDbEntity
  8
0
  6
Continuous
 62
     7
370
    25
100
AcDbLine
 10
364.1584589149
 20
415.0049523162
 30
0.0
 11
350.1584589149
 21
415.0049523162
 31
0.0
  0
SPLINE
  5
207
330
1F
100
AcDbEntity
  8
0
  6
Continuous
 62
     7
370
    25
100
AcDbSpline
210
0.0
220
0.0
230
1.0
 70
     8
 71
     3
 72
     9
 73
     5
 74
     0
 42
0.00000001
 43
0.00000001
 40
-0.0000000003347869
 40
-0.0000000003347869
 40
-0.0000000003347869
 40
-0.0000000003347869
 40
0.4999685576351
 40
0.9999999999891176
 40
0.9999999999891176
 40
0.9999999999891176
 40
0.9999999999891176
 10
333.3584589148871
 20
410.0049523163711
 30
0.0
 10
333.3113209185988
 20
410.0049532459738
 30
0.0
 10
333.1991903229775
 20
410.0456757247476
 30
0.0
 10
333.1584589148886
 20
410.1578088996995
 30
0.0
 10
333.1584589148867
 20
410.2049523161926
 30
0.0
  0
SPLINE
  5
208
330
1F
100
AcDbEntity
  8
0
  6
Continuous
 62
     7
370
    25
100
AcDbSpline
210
0.0
220
0.0
230
1.0
 70
    24
 71
     3
 72
    21
 73
    17
 74
     0
 42
0.00000001
 43
0.00000001
 40
0.0
 40
0.0
 40
0.0
 40
0.0
 40
0.033693661913544
 40
0.0980289735379917
 40
0.1648961703474295
 40
0.2269212538088491
 40
0.2935250003213961
 40
0.3557780070127963
 40
0.4217192318599053
 40
0.4847147753717607
 40
0.6111102843440211
 40
0.7418820803785199
 40
0.8038765964198517
 40
0.870831148737055
 40
0.9354139078486218
 40
1.0
 40
1.0
 40
1.0
 40
1.0
 10
333.3639094970932
 20
410.0049523161957
 30
0.0
 10
333.3647423181233
 20
410.0049523161957
 30
0.0
 10
333.3671653432885
 20
410.0049523161957
 30
0.0
 10
333.4206946600473
 20
410.0049523161957
 30
0.0
 10
333.585021462833
 20
410.0049523161957
 30
0.0
 10
333.887620048368
 20
410.0049523161957
 30
0.0
 10
334.3433686853074
 20
410.0049523161957
 30
0.0
 10
335.0054242783519
 20
410.0049523161957
 30
0.0
 10
335.8766415911006
 20
410.0049523161957
 30
0.0
 10
337.3602889905703
 20
410.0049523161957
 30
0.0
 10
339.7975796436656
 20
410.0049523161957
 30
0.0
 10
342.5708243412619
 20
410.0049523161957
 30
0.0
 10
344.8868402654365
 20
410.0049523161957
 30
0.0
 10
346.6316441326642
 20
410.0049523161957
 30
0.0
 10
348.4055117587546
 20
410.0049523161957
 30
0.0
 10
349.5741331445744
 20
410.0049523161957
 30
0.0
 10
350.158458914887
 20
410.0049523161957
 30
0.0
  0
SPLINE
  5
209
330
1F
100
AcDbEntity
  8
0
  6
Continuous
 62
     7
370
    25
100
AcDbSpline
210
0.0
220
0.0
230
1.0
 70
     8
 71
     3
 72
     9
 73
     5
 74
     0
 42
0.00000001
 43
0.00000001
 40
-0.0000083847452513
 40
-0.0000083847452513
 40
-0.0000083847452513
 40
-0.0000083847452513
 40
0.5000230576096903
 40
0.9999999999889418
 40
0.9999999999889418
 40
0.9999999999889418
 40
0.9999999999889418
 10
381.1584589148861
 20
410.2049523161926
 30
0.0
 10
381.1584589148854
 20
410.1578088996994
 30
0.0
 10
381.1177271652907
 20
410.0456747845769
 30
0.0
 10
381.0055950308731
 20
410.0049525631109
 30
0.0
 10
380.9584565433984
 20
410.0049523163415
 30
0.0
  0
SPLINE
  5
20A
330
1F
100
AcDbEntity
  8
0
  6
Continuous
 62
     7
370
    25
100
AcDbSpline
210
0.0
220
0.0
230
1.0
 70
    24
 71
     3
 72
    21
 73
    17
 74
     0
 42
0.00000001
 43
0.00000001
 40
0.0
 40
0.0
 40
0.0
 40
0.0
 40
0.0645469698186803
 40
0.1289817733040753
 40
0.195952378511588
 40
0.2580733821690148
 40
0.3247801296620428
 40
0.3871294090257304
 40
0.4531726102802561
 40
0.5162655747786099
 40
0.642856551152574
 40
0.7738305824040909
 40
0.8359209713669199
 40
0.9029790671781935
 40
0.9676617029146497
 40
1.0
 40
1.0
 40
1.0
 40
1.0
 10
364.1584589148871
 20
410.0049523161957
 30
0.0
 10
364.7415231996753
 20
410.0049523161957
 30
0.0
 10
365.9066385507681
 20
410.0049523161957
 30
0.0
 10
367.6763085122959
 20
410.0049523161957
 30
0.0
 10
369.4181423234306
 20
410.0049523161957
 30
0.0
 10
371.1626792031237
 20
410.0049523161957
 30
0.0
 10
372.8320237896369
 20
410.0049523161957
 30
0.0
 10
374.4700446235983
 20
410.0049523161957
 30
0.0
 10
375.9729352815438
 20
410.0049523161957
 30
0.0
 10
377.758404813083
 20
410.0049523161957
 30
0.0
 10
379.4309306083146
 20
410.0049523161957
 30
0.0
 10
380.3267328756303
 20
410.0049523161957
 30
0.0
 10
380.7304283275288
 20
410.0049523161957
 30
0.0
 10
380.8956381316985
 20
410.0049523161957
 30
0.0
 10
380.949561625624
 20
410.0049523161957
 30
0.0
 10
380.9519706729035
 20
410.0049523161957
 30
0.0
 10
380.9527736386589
 20
410.0049523161957
 30
0.0
  0
SPLINE
  5
20B
330
1F
100
AcDbEntity
  8
0
  6
Continuous
 62
     7
370
    25
100
AcDbSpline
210
0.0
220
0.0
230
1.0
 70
     8
 71
     3
 72
    11
 73
     7
 74
     0
 42
0.00000001
 43
0.00000001
 40
0.0000000000001538
 40
0.0000000000001538
 40
0.0000000000001538
 40
0.0000000000001538
 40
0.250002097784
 40
0.5000041955681
 40
0.7500062933521
 40
1.00000000000319
 40
1.00000000000319
 40
1.00000000000319
 40
1.00000000000319
 10
333.1584589148887
 20
414.0049523161957
 30
0.0
 10
333.1584589148869
 20
414.1228044352983
 30
0.0
 10
333.2011730676722
 20
414.377402718324
 30
0.0
 10
333.4302369344576
 20
414.7331845800777
 30
0.0
 10
333.7860175087491
 20
414.9622404753152
 30
0.0
 10
334.0406106965378
 20
415.0049522810665
 30
0.0
 10
334.158458914887
 20
415.0049523161936
 30
0.0
  0
SPLINE
  5
20C
330
1F
100
AcDbEntity
  8
0
  6
Continuous
 62
     7
370
    25
100
AcDbSpline
210
0.0
220
0.0
230
1.0
 70
    24
 71
     3
 72
    21
 73
    17
 74
     0
 42
0.00000001
 43
0.00000001
 40
-0.0000000000000028
 40
-0.0000000000000028
 40
-0.0000000000000028
 40
-0.0000000000000028
 40
0.003329183646551
 40
0.006658367293102
 40
0.008322959116377
 40
0.009987550939653
 40
0.01165214276293
 40
0.0133167345862
 40
0.01414903049784
 40
0.01498132640948
 40
0.01664591823275
 40
0.01747821414439
 40
0.01831051005603
 40
0.01997510187931
 40
0.02330428552586
 40
0.0266334691724108
 40
0.0266334691724108
 40
0.0266334691724108
 40
0.0266334691724108
 10
334.1584589148889
 20
415.0049523161936
 30
0.0
 10
334.158458910248
 20
415.0049523161937
 30
0.0
 10
334.1656468697528
 20
415.0049523161936
 30
0.0
 10
334.486851047545
 20
415.0049523161942
 30
0.0
 10
335.0562729348729
 20
415.0049523161942
 30
0.0
 10
335.6602915040704
 20
415.0049523161942
 30
0.0
 10
336.494072993113
 20
415.0049523161942
 30
0.0
 10
337.3738961752381
 20
415.0049523161942
 30
0.0
 10
338.2087951070481
 20
415.0049523161942
 30
0.0
 10
339.1005293487397
 20
415.0049523161942
 30
0.0
 10
340.0694641210128
 20
415.0049523161942
 30
0.0
 10
341.1029025214269
 20
415.0049523161942
 30
0.0
 10
342.1507413528941
 20
415.0049523161942
 30
0.0
 10
344.0262353716652
 20
415.0049523161942
 30
0.0
 10
346.8096630985016
 20
415.0049523161936
 30
0.0
 10
349.0416595122043
 20
415.0049523161937
 30
0.0
 10
350.1584589148895
 20
415.0049523161936
 30
0.0
  0
SPLINE
  5
20D
330
1F
100
AcDbEntity
  8
0
  6
Continuous
 62
     7
370
    25
100
AcDbSpline
210
0.0
220
0.0
230
1.0
 70
     8
 71
     3
 72
    11
 73
     7
 74
     0
 42
0.00000001
 43
0.00000001
 40
0.0000000000002098
 40
0.0000000000002098
 40
0.0000000000002098
 40
0.0000000000002098
 40
0.2499937066525159
 40
0.4999958044364159
 40
0.749997902220416
 40
1.000000000004106
 40
1.000000000004106
 40
1.000000000004106
 40
1.000000000004106
 10
380.1584589148871
 20
415.0049523161936
 30
0.0
 10
380.2763071332369
 20
415.0049522810666
 30
0.0
 10
380.5309003210229
 20
414.962240475315
 30
0.0
 10
380.8866808953151
 20
414.7331845800767
 30
0.0
 10
381.1157447621035
 20
414.377402718324
 30
0.0
 10
381.1584589148867
 20
414.1228044352982
 30
0.0
 10
381.1584589148874
 20
414.0049523161957
 30
0.0
  0
SPLINE
  5
20E
330
1F
100
AcDbEntity
  8
0
  6
Continuous
 62
     7
370
    25
100
AcDbSpline
210
0.0
220
0.0
230
1.0
 70
    24
 71
     3
 72
    21
 73
    17
 74
     0
 42
0.00000001
 43
0.00000001
 40
-0.0000000000000028
 40
-0.0000000000000028
 40
-0.0000000000000028
 40
-0.0000000000000028
 40
0.003329183646551
 40
0.006658367293102
 40
0.008322959116377
 40
0.009987550939653
 40
0.01165214276293
 40
0.0133167345862
 40
0.01414903049784
 40
0.01498132640948
 40
0.01664591823275
 40
0.01747821414439
 40
0.01831051005603
 40
0.01997510187931
 40
0.02330428552586
 40
0.0266334691724112
 40
0.0266334691724112
 40
0.0266334691724112
 40
0.0266334691724112
 10
364.1584589148844
 20
415.0049523161936
 30
0.0
 10
365.2719955872954
 20
415.0049523161937
 30
0.0
 10
367.4971718151129
 20
415.0049523161936
 30
0.0
 10
370.2582665670236
 20
415.0049523161942
 30
0.0
 10
372.4309919052376
 20
415.0049523161942
 30
0.0
 10
373.9840058952086
 20
415.0049523161942
 30
0.0
 10
375.4590775687097
 20
415.0049523161942
 30
0.0
 10
376.5283230189286
 20
415.0049523161942
 30
0.0
 10
377.2888341758162
 20
415.0049523161942
 30
0.0
 10
377.9596592755362
 20
415.0049523161942
 30
0.0
 10
378.5093224741278
 20
415.0049523161942
 30
0.0
 10
378.9556823457887
 20
415.0049523161942
 30
0.0
 10
379.3297918221297
 20
415.0049523161942
 30
0.0
 10
379.8231716743895
 20
415.0049523161942
 30
0.0
 10
380.1523663527899
 20
415.0049523161936
 30
0.0
 10
380.158458919543
 20
415.0049523161937
 30
0.0
 10
380.1584589148871
 20
415.0049523161936
 30
0.0
  0
SPLINE
  5
20F
330
1F
100
AcDbEntity
  8
0
  6
Continuous
 62
     7
370
    25
100
AcDbSpline
210
0.0
220
0.0
230
1.0
 70
    24
 71
     3
 72
     8
 73
     4
 74
     0
 42
0.00000001
 43
0.00000001
 40
0.0
 40
0.0
 40
0.0
 40
0.0
 40
1.0
 40
1.0
 40
1.0
 40
1.0
 10
363.1786004163588
 20
535.0049523161957
 30
0.0
 10
358.7393555414644
 20
535.0049523161957
 30
0.0
 10
355.577562288327
 20
535.0049523161957
 30
0.0
 10
351.1383174134326
 20
535.0049523161957
 30
0.0
  0
LINE
  5
210
330
1F
100
AcDbEntity
  8
0
  6
Continuous
 62
     7
370
    25
100
AcDbLine
 10
339.1584589149
 20
415.3049523162
 30
0.0
 11
339.1726808037
 21
415.3049523162
 31
0.0
  0
LINE
  5
211
330
1F
100
AcDbEntity
  8
0
  6
Continuous
 62
     7
370
    25
100
AcDbLine
 10
375.1584589149
 20
534.5049523162
 30
0.0
 11
375.1302185832
 21
534.5049523162
 31
0.0
  0
LINE
  5
212
330
1F
100
AcDbEntity
  8
0
  6
Continuous
 62
     7
370
    25
100
AcDbLine
 10
375.1584589149
 20
415.3049523162
 30
0.0
 11
375.1584589149
 21
534.5049523162
 31
0.0
  0
LINE
  5
213
330
1F
100
AcDbEntity
  8
0
  6
Continuous
 62
     7
370
    25
100
AcDbLine
 10
339.1584589149
 20
534.5049523162
 30
0.0
 11
339.1584589149
 21
415.3049523162
 31
0.0
  0
SPLINE
  5
214
330
1F
100
AcDbEntity
  8
0
  6
Continuous
 62
     7
370
    25
100
AcDbSpline
210
0.0
220
0.0
230
1.0
 70
    24
 71
     3
 72
    22
 73
    18
 74
     0
 42
0.00000001
 43
0.00000001
 40
0.0
 40
0.0
 40
0.0
 40
0.0
 40
0.125
 40
0.125
 40
0.2500000000000001
 40
0.2500000000000001
 40
0.3750000000000001
 40
0.3750000000000001
 40
0.5000000000000001
 40
0.5000000000000001
 40
0.6250000000000001
 40
0.6250000000000001
 40
0.7500000000000002
 40
0.7500000000000002
 40
0.8750000000000002
 40
0.8750000000000002
 40
1.0
 40
1.0
 40
1.0
 40
1.0
 10
351.1383174134326
 20
535.0049523162036
 30
0.0
 10
350.3284520059079
 20
535.0049523162036
 30
0.0
 10
349.5212861473356
 20
535.0049523162035
 30
0.0
 10
347.9171447983751
 20
535.0049523162037
 30
0.0
 10
347.1188613253597
 20
535.0049523162037
 30
0.0
 10
345.5573674000648
 20
535.0049523162037
 30
0.0
 10
344.7925917257122
 20
535.0049523162036
 30
0.0
 10
343.3632093755232
 20
535.0049523162036
 30
0.0
 10
342.7004093448913
 20
535.0049523162037
 30
0.0
 10
341.5851838547848
 20
535.0049523162035
 30
0.0
 10
341.1351588597169
 20
535.0049523162036
 30
0.0
 10
340.4453104030338
 20
535.0049523162036
 30
0.0
 10
340.2004106126955
 20
535.0049523162036
 30
0.0
 10
339.8587787898563
 20
535.0049523162036
 30
0.0
 10
339.7616703837046
 20
535.0049523162035
 30
0.0
 10
339.6611630835121
 20
535.0049523162037
 30
0.0
 10
339.6584476250008
 20
535.0049523162036
 30
0.0
 10
339.6584589148865
 20
535.0049523162036
 30
0.0
  0
ARC
  5
215
330
1F
100
AcDbEntity
  8
0
  6
Continuous
 62
     7
370
    25
100
AcDbCircle
 10
339.6584589149
 20
534.5049523162
 30
0.0
 40
0.5000000000001137
100
AcDbArc
 50
90.0
 51
180.0
  0
SPLINE
  5
216
330
1F
100
AcDbEntity
  8
0
  6
Continuous
 62
     7
370
    25
100
AcDbSpline
210
0.0
220
0.0
230
1.0
 70
    24
 71
     3
 72
    22
 73
    18
 74
     0
 42
0.00000001
 43
0.00000001
 40
0.0
 40
0.0
 40
0.0
 40
0.0
 40
0.1250000000000001
 40
0.1250000000000001
 40
0.2500000000000002
 40
0.2500000000000002
 40
0.3750000000000003
 40
0.3750000000000003
 40
0.5000000000000004
 40
0.5000000000000004
 40
0.6250000000000003
 40
0.6250000000000003
 40
0.7500000000000002
 40
0.7500000000000002
 40
0.8750000000000001
 40
0.8750000000000001
 40
1.0
 40
1.0
 40
1.0
 40
1.0
 10
374.6584589148871
 20
535.0049523162037
 30
0.0
 10
374.6584629475357
 20
535.0049523162037
 30
0.0
 10
374.6557246904022
 20
535.0049523162037
 30
0.0
 10
374.5553562112231
 20
535.0049523162036
 30
0.0
 10
374.4581495633906
 20
535.0049523162036
 30
0.0
 10
374.1164886249906
 20
535.0049523162036
 30
0.0
 10
373.8716395371684
 20
535.0049523162036
 30
0.0
 10
373.1817329785112
 20
535.0049523162037
 30
0.0
 10
372.7316950577606
 20
535.0049523162035
 30
0.0
 10
371.6166634496194
 20
535.0049523162038
 30
0.0
 10
370.9537820878966
 20
535.0049523162037
 30
0.0
 10
369.5243187438968
 20
535.0049523162037
 30
0.0
 10
368.7596218150492
 20
535.0049523162037
 30
0.0
 10
367.1980731770969
 20
535.0049523162037
 30
0.0
 10
366.3997800129347
 20
535.0049523162037
 30
0.0
 10
364.7956682308136
 20
535.0049523162037
 30
0.0
 10
363.9884643205891
 20
535.0049523162036
 30
0.0
 10
363.1786004163601
 20
535.0049523162037
 30
0.0
  0
ARC
  5
217
330
1F
100
AcDbEntity
  8
0
  6
Continuous
 62
     7
370
    25
100
AcDbCircle
 10
374.6584589149
 20
534.5049523162
 30
0.0
 40
0.5000000000001137
100
AcDbArc
 50
0.0
 51
90.0
  0
SPLINE
  5
218
330
1F
100
AcDbEntity
  8
0
  6
Continuous
 62
     7
370
    25
100
AcDbSpline
210
0.0
220
0.0
230
1.0
 70
    24
 71
     3
 72
    14
 73
    10
 74
     0
 42
0.00000001
 43
0.00000001
 40
0.0
 40
0.0
 40
0.0
 40
0.0
 40
0.25
 40
0.25
 40
0.5
 40
0.5
 40
0.7500000000000001
 40
0.7500000000000001
 40
1.0
 40
1.0
 40
1.0
 40
1.0
 10
516.8230525737099
 20
587.2355885335901
 30
0.0
 10
516.8230525737099
 20
587.2355885335901
 30
0.0
 10
517.9120131841689
 20
587.5273746497537
 30
0.0
 10
521.7884328253525
 20
588.5660581621397
 30
0.0
 10
524.4174163000129
 20
589.2704921610942
 30
0.0
 10
529.8995015300239
 20
590.7394124713239
 30
0.0
 10
532.5284850046843
 20
591.4438464702785
 30
0.0
 10
536.4049046458678
 20
592.4825299826645
 30
0.0
 10
537.4938652563268
 20
592.7743160988281
 30
0.0
 10
537.4938652563268
 20
592.7743160988281
 30
0.0
  0
LINE
  5
219
330
1F
100
AcDbEntity
  8
0
  6
Continuous
 62
     7
370
    25
100
AcDbLine
 10
346.1584589149
 20
535.4049523162
 30
0.0
 11
368.1584589149
 21
535.4049523162
 31
0.0
  0
SPLINE
  5
21A
330
1F
100
AcDbEntity
  8
0
  6
Continuous
 62
     7
370
    18
100
AcDbSpline
210
0.0
220
0.0
230
1.0
 70
     8
 71
     3
 72
    12
 73
     8
 74
     0
 42
0.00000001
 43
0.00000001
 40
0.0
 40
0.0
 40
0.0
 40
0.0
 40
0.3631359738258782
 40
0.5446593004198113
 40
0.7255878969406114
 40
0.9065048894359986
 40
0.9999999999999999
 40
0.9999999999999999
 40
0.9999999999999999
 40
0.9999999999999999
 10
341.1788335910253
 20
559.07373742912
 30
0.0
 10
341.1969333949926
 20
560.5093962974192
 30
0.0
 10
341.2240808749371
 20
562.6627080351991
 30
0.0
 10
342.0335183921355
 20
565.4302310251115
 30
0.0
 10
343.2253229208533
 20
567.2523491661942
 30
0.0
 10
344.7568210992776
 20
568.2984367213204
 30
0.0
 10
345.8022650766353
 20
568.5757920647466
 30
0.0
 10
346.1584589148873
 20
568.6702899684834
 30
0.0
  0
SPLINE
  5
21B
330
1F
100
AcDbEntity
  8
0
  6
Continuous
 62
     7
370
    18
100
AcDbSpline
210
0.0
220
0.0
230
1.0
 70
     8
 71
     3
 72
    12
 73
     8
 74
     0
 42
0.00000001
 43
0.00000001
 40
0.0
 40
0.0
 40
0.0
 40
0.0
 40
0.3631359779759515
 40
0.5446593053259204
 40
0.7255879057850972
 40
0.9065049063550085
 40
1.0
 40
1.0
 40
1.0
 40
1.0
 10
373.1380842757649
 20
559.0737374289058
 30
0.0
 10
373.1199844096831
 20
560.5093962015782
 30
0.0
 10
373.0928368366402
 20
562.6627077907167
 30
0.0
 10
372.2833991655746
 20
565.4302305389211
 30
0.0
 10
371.0915945916785
 20
567.252348494949
 30
0.0
 10
369.5600965256274
 20
568.2984359143302
 30
0.0
 10
368.5146526615624
 20
568.5757912132617
 30
0.0
 10
368.1584589148873
 20
568.670289087784
 30
0.0
  0
LINE
  5
21C
330
1F
100
AcDbEntity
  8
0
  6
Continuous
 62
     7
370
    25
100
AcDbLine
 10
339.299033488
 20
534.8525344828
 30
0.0
 11
339.4258253961
 21
559.0677838822
 31
0.0
  0
LINE
  5
21D
330
1F
100
AcDbEntity
  8
0
  6
Continuous
 62
     7
370
    25
100
AcDbLine
 10
374.8910924337
 20
559.0677838839
 30
0.0
 11
375.0178843417
 21
534.8525344828
 31
0.0
  0
SPLINE
  5
21E
330
1F
100
AcDbEntity
  8
0
  6
Continuous
 62
     7
370
    25
100
AcDbSpline
210
0.0
220
0.0
230
1.0
 70
     8
 71
     3
 72
    13
 73
     9
 74
     0
 42
0.00000001
 43
0.00000001
 40
0.0
 40
0.0
 40
0.0
 40
0.0
 40
0.1849625291562296
 40
0.3636343043046482
 40
0.5291908232771528
 40
0.6793463494386168
 40
0.8341670957501268
 40
1.0
 40
1.0
 40
1.0
 40
1.0
 10
339.4258253961115
 20
559.0677838821756
 30
0.0
 10
339.4329982677961
 20
559.9672473653276
 30
0.0
 10
339.4471000548811
 20
561.7355827110619
 30
0.0
 10
339.824813946844
 20
564.2917949626996
 30
0.0
 10
340.6472057491913
 20
566.5745238744415
 30
0.0
 10
341.9978148387105
 20
568.4591502966722
 30
0.0
 10
343.8869402396882
 20
569.8347718392291
 30
0.0
 10
345.3841465824278
 20
570.2950024717517
 30
0.0
 10
346.1584589148873
 20
570.5330206021623
 30
0.0
  0
SPLINE
  5
21F
330
1F
100
AcDbEntity
  8
0
  6
Continuous
 62
     7
370
    25
100
AcDbSpline
210
0.0
220
0.0
230
1.0
 70
     8
 71
     3
 72
    13
 73
     9
 74
     0
 42
0.00000001
 43
0.00000001
 40
0.0
 40
0.0
 40
0.0
 40
0.0
 40
0.1856318947889142
 40
0.3645112516500089
 40
0.5297987824621962
 40
0.679304575341053
 40
0.8330699710802527
 40
1.0
 40
1.0
 40
1.0
 40
1.0
 10
374.8910924336406
 20
559.0677838868256
 30
0.0
 10
374.8838650679222
 20
559.9705708508611
 30
0.0
 10
374.8696732388339
 20
561.7433050386367
 30
0.0
 10
374.4895991489115
 20
564.3024625565166
 30
0.0
 10
373.6657241203836
 20
566.5811125768141
 30
0.0
 10
372.3195564234653
 20
568.4569327134959
 30
0.0
 10
370.4344572943579
 20
569.8320399946876
 30
0.0
 10
368.9376070756693
 20
570.2947277762798
 30
0.0
 10
368.1584589148873
 20
570.5355683958308
 30
0.0
  0
SPLINE
  5
220
330
1F
100
AcDbEntity
  8
0
  6
Continuous
 62
     8
370
    18
100
AcDbSpline
210
0.0
220
0.0
230
1.0
 70
    24
 71
     3
 72
    21
 73
    17
 74
     0
 42
0.00000001
 43
0.00000001
 40
0.0
 40
0.0
 40
0.0
 40
0.0
 40
0.0033291836465485
 40
0.0066583672930985
 40
0.0083229591163785
 40
0.0091552550280185
 40
0.0099875509396585
 40
0.0116521427629285
 40
0.0124844386745685
 40
0.0133167345862085
 40
0.0149813264094785
 40
0.0166459182327555
 40
0.0183105100560315
 40
0.0199751018793065
 40
0.0233042855258575
 40
0.0266334691724085
 40
0.0266334691724085
 40
0.0266334691724085
 40
0.0266334691724085
 10
350.158458914887
 20
414.0049523161957
 30
0.0
 10
349.0415945778634
 20
414.0049523161961
 30
0.0
 10
346.7625520534386
 20
414.0049523161956
 30
0.0
 10
343.8530631261396
 20
414.0049523161956
 30
0.0
 10
341.8613872634826
 20
414.0049523161956
 30
0.0
 10
340.7371971754623
 20
414.0049523161956
 30
0.0
 10
339.6199469571515
 20
414.0049523161956
 30
0.0
 10
338.5585219061829
 20
414.0049523161956
 30
0.0
 10
337.5706167929795
 20
414.0049523161956
 30
0.0
 10
336.641085956183
 20
414.0049523161956
 30
0.0
 10
335.6627665619742
 20
414.0049523161956
 30
0.0
 10
334.7511903985394
 20
414.0049523161956
 30
0.0
 10
334.1018815135732
 20
414.0049523161956
 30
0.0
 10
333.4979933977216
 20
414.0049523161956
 30
0.0
 10
333.1648855334455
 20
414.0049523161956
 30
0.0
 10
333.158458914885
 20
414.004952316196
 30
0.0
 10
333.1584589148887
 20
414.0049523161957
 30
0.0
  0
SPLINE
  5
221
330
1F
100
AcDbEntity
  8
0
  6
Continuous
 62
     8
370
    18
100
AcDbSpline
210
0.0
220
0.0
230
1.0
 70
    24
 71
     3
 72
    24
 73
    20
 74
     0
 42
0.00000001
 43
0.00000001
 40
-0.0000000000000002
 40
-0.0000000000000002
 40
-0.0000000000000002
 40
-0.0000000000000002
 40
0.003489801568054
 40
0.005234702352082
 40
0.006979603136109
 40
0.008724503920136
 40
0.01046940470416
 40
0.01134185509618
 40
0.01221430548819
 40
0.01395920627222
 40
0.01483165666423
 40
0.01570410705624
 40
0.01744900784027
 40
0.01832145823229
 40
0.0191939086243
 40
0.02093880940833
 40
0.02268371019235
 40
0.02442861097638
 40
0.0279184125444311
 40
0.0279184125444311
 40
0.0279184125444311
 40
0.0279184125444311
 10
333.1584589148867
 20
410.2049523161957
 30
0.0
 10
333.1584589148865
 20
410.2049523161956
 30
0.0
 10
333.1649929776825
 20
410.2049523161957
 30
0.0
 10
333.3827411943828
 20
410.2049523161957
 30
0.0
 10
333.6828463255397
 20
410.2049523161957
 30
0.0
 10
334.148001740221
 20
410.2049523161957
 30
0.0
 10
334.6973472403424
 20
410.2049523161957
 30
0.0
 10
335.2591441182508
 20
410.2049523161957
 30
0.0
 10
335.8977575338388
 20
410.2049523161957
 30
0.0
 10
336.6541933479593
 20
410.2049523161957
 30
0.0
 10
337.5450893692517
 20
410.2049523161957
 30
0.0
 10
338.4929001207714
 20
410.2049523161957
 30
0.0
 10
339.5191761740081
 20
410.2049523161957
 30
0.0
 10
340.6133848677876
 20
410.2049523161957
 30
0.0
 10
341.7225874536734
 20
410.2049523161957
 30
0.0
 10
343.1388993677715
 20
410.2049523161957
 30
0.0
 10
344.8771256627009
 20
410.2049523161957
 30
0.0
 10
347.2300374585741
 20
410.2049523161957
 30
0.0
 10
348.9891660906422
 20
410.2049523161957
 30
0.0
 10
350.158458914887
 20
410.2049523161957
 30
0.0
  0
LINE
  5
222
330
1F
100
AcDbEntity
  8
0
  6
Continuous
 62
     8
370
    18
100
AcDbLine
 10
350.1584589149
 20
414.0049523162
 30
0.0
 11
364.1584589149
 21
414.0049523162
 31
0.0
  0
LINE
  5
223
330
1F
100
AcDbEntity
  8
0
  6
Continuous
 62
     8
370
    18
100
AcDbLine
 10
364.1584589149
 20
410.2049523162
 30
0.0
 11
350.1584589149
 21
410.2049523162
 31
0.0
  0
SPLINE
  5
224
330
1F
100
AcDbEntity
  8
0
  6
Continuous
 62
     8
370
    18
100
AcDbSpline
210
0.0
220
0.0
230
1.0
 70
    24
 71
     3
 72
     9
 73
     5
 74
     0
 42
0.00000001
 43
0.00000001
 40
-0.0000125769720739
 40
-0.0000125769720739
 40
-0.0000125769720739
 40
-0.0000125769720739
 40
0.5000188653818575
 40
0.9999999999890313
 40
0.9999999999890313
 40
0.9999999999890313
 40
0.9999999999890313
 10
350.1584589148866
 20
410.2049523161926
 30
0.0
 10
350.1584589148867
 20
410.1578088996995
 30
0.0
 10
350.1584589148866
 20
410.0456743144894
 30
0.0
 10
350.158458914887
 20
410.0049522216813
 30
0.0
 10
350.158458914887
 20
410.0049523163396
 30
0.0
  0
SPLINE
  5
225
330
1F
100
AcDbEntity
  8
0
  6
Continuous
 62
     8
370
    18
100
AcDbSpline
210
0.0
220
0.0
230
1.0
 70
    24
 71
     3
 72
    10
 73
     6
 74
     0
 42
0.00000001
 43
0.00000001
 40
0.0
 40
0.0
 40
0.0
 40
0.0
 40
0.5
 40
0.5
 40
1.0
 40
1.0
 40
1.0
 40
1.0
 10
364.1584589148871
 20
410.2049523161957
 30
0.0
 10
364.1584589148871
 20
410.1525914505158
 30
0.0
 10
364.1584589148871
 20
410.1005530382687
 30
0.0
 10
364.1584589148871
 20
410.0265046894409
 30
0.0
 10
364.1584589148871
 20
410.004950764119
 30
0.0
 10
364.1584589148871
 20
410.0049523162835
 30
0.0
  0
SPLINE
  5
226
330
1F
100
AcDbEntity
  8
0
  6
Continuous
 62
     8
370
    18
100
AcDbSpline
210
0.0
220
0.0
230
1.0
 70
    24
 71
     3
 72
    21
 73
    17
 74
     0
 42
0.00000001
 43
0.00000001
 40
0.0
 40
0.0
 40
0.0
 40
0.0
 40
0.0033291836465484
 40
0.0066583672930984
 40
0.0083229591163784
 40
0.0091552550280184
 40
0.0099875509396584
 40
0.0116521427629284
 40
0.0124844386745684
 40
0.0133167345862084
 40
0.0149813264094784
 40
0.0166459182327554
 40
0.0183105100560314
 40
0.0199751018793064
 40
0.0233042855258574
 40
0.0266334691724083
 40
0.0266334691724083
 40
0.0266334691724083
 40
0.0266334691724083
 10
381.1584589148874
 20
414.0049523161951
 30
0.0
 10
381.1584589148883
 20
414.0049523161955
 30
0.0
 10
381.1532232573737
 20
414.0049523161954
 30
0.0
 10
380.8116374533724
 20
414.0049523161956
 30
0.0
 10
380.2883793785865
 20
414.0049523161956
 30
0.0
 10
379.8871597432756
 20
414.0049523161956
 30
0.0
 10
379.4047802367533
 20
414.0049523161956
 30
0.0
 10
378.8035605472573
 20
414.0049523161956
 30
0.0
 10
378.0606228424346
 20
414.0049523161956
 30
0.0
 10
377.214073819773
 20
414.0049523161956
 30
0.0
 10
376.0240793018461
 20
414.0049523161956
 30
0.0
 10
374.4086320642614
 20
414.0049523161956
 30
0.0
 10
372.7366890542859
 20
414.0049523161956
 30
0.0
 10
370.429615176501
 20
414.004952316195
 30
0.0
 10
367.5441733115319
 20
414.0049523161979
 30
0.0
 10
365.2720527122207
 20
414.0049523161911
 30
0.0
 10
364.1584589148871
 20
414.0049523161957
 30
0.0
  0
SPLINE
  5
227
330
1F
100
AcDbEntity
  8
0
  6
Continuous
 62
     8
370
    18
100
AcDbSpline
210
0.0
220
0.0
230
1.0
 70
    24
 71
     3
 72
    24
 73
    20
 74
     0
 42
0.00000001
 43
0.00000001
 40
-0.0000000000000003
 40
-0.0000000000000003
 40
-0.0000000000000003
 40
-0.0000000000000003
 40
0.003489801568054
 40
0.005234702352082
 40
0.006979603136109
 40
0.008724503920136
 40
0.01046940470416
 40
0.01134185509618
 40
0.01221430548819
 40
0.01395920627222
 40
0.01483165666423
 40
0.01570410705624
 40
0.01744900784027
 40
0.01832145823229
 40
0.0191939086243
 40
0.02093880940833
 40
0.02268371019235
 40
0.02442861097638
 40
0.0279184125444307
 40
0.0279184125444307
 40
0.0279184125444307
 40
0.0279184125444307
 10
364.1584589148871
 20
410.2049523161957
 30
0.0
 10
365.3252415950995
 20
410.2049523161957
 30
0.0
 10
367.082084770505
 20
410.2049523161957
 30
0.0
 10
369.4170320489038
 20
410.2049523161957
 30
0.0
 10
371.1653140918818
 20
410.2049523161957
 30
0.0
 10
372.8799382547571
 20
410.2049523161957
 30
0.0
 10
374.24791459694
 20
410.2049523161957
 30
0.0
 10
375.3073570883168
 20
410.2049523161957
 30
0.0
 10
376.3113782414119
 20
410.2049523161957
 30
0.0
 10
377.2241292511849
 20
410.2049523161957
 30
0.0
 10
378.0379554848664
 20
410.2049523161957
 30
0.0
 10
378.7585262239978
 20
410.2049523161957
 30
0.0
 10
379.3525261380731
 20
410.2049523161957
 30
0.0
 10
379.837591159426
 20
410.2049523161957
 30
0.0
 10
380.2454842391596
 20
410.2049523161957
 30
0.0
 10
380.6310019228526
 20
410.2049523161957
 30
0.0
 10
380.9312039571199
 20
410.2049523161957
 30
0.0
 10
381.1524939287783
 20
410.2049523161957
 30
0.0
 10
381.1584589148839
 20
410.2049523161957
 30
0.0
 10
381.1584589148861
 20
410.2049523161957
 30
0.0
  0
LINE
  5
228
330
1F
100
AcDbEntity
  8
0
  6
Continuous
 62
     8
370
    18
100
AcDbLine
 10
351.137441696
 20
415.3049523162
 30
0.0
 11
363.1794761338
 21
415.3049523162
 31
0.0
  0
ARC
  5
229
330
1F
100
AcDbEntity
  8
0
  6
Continuous
 62
     8
370
    18
100
AcDbCircle
 10
320.3570510708
 20
415.2299525463
 30
0.0
 40
42.82249074080526
100
AcDbArc
 50
359.6989520538
 51
0.1003484945
  0
ARC
  5
22A
330
1F
100
AcDbEntity
  8
0
  6
Continuous
 62
     8
370
    18
100
AcDbCircle
 10
393.9598667628
 20
415.2299525463
 30
0.0
 40
42.82249074455451
100
AcDbArc
 50
179.8996515055
 51
180.3010479462
  0
ARC
  5
22B
330
1F
100
AcDbEntity
  8
0
  6
Continuous
 62
     8
370
    18
100
AcDbCircle
 10
291.8087676922
 20
534.6299519328
 30
0.0
 40
71.37081790449818
100
AcDbArc
 50
359.8996515055
 51
0.3010479462
  0
LINE
  5
22C
330
1F
100
AcDbEntity
  8
0
  6
Continuous
 62
     8
370
    18
100
AcDbLine
 10
363.1794761338
 20
534.5049523162
 30
0.0
 11
351.137441696
 21
534.5049523162
 31
0.0
  0
ARC
  5
22D
330
1F
100
AcDbEntity
  8
0
  6
Continuous
 62
     8
370
    18
100
AcDbCircle
 10
422.5081501207
 20
534.6299519328
 30
0.0
 40
71.37081788766427
100
AcDbArc
 50
179.6989520537
 51
180.1003484946
  0
SPLINE
  5
22E
330
1F
100
AcDbEntity
  8
0
  6
Continuous
 62
     8
370
    18
100
AcDbSpline
210
0.0
220
0.0
230
1.0
 70
    24
 71
     3
 72
    15
 73
    11
 74
     0
 42
0.00000001
 43
0.00000001
 40
0.0
 40
0.0
 40
0.0
 40
0.0
 40
0.125
 40
0.2499999999999999
 40
0.3749999999999998
 40
0.4999999999999998
 40
0.6249999999999999
 40
0.7499999999999999
 40
0.875
 40
1.0
 40
1.0
 40
1.0
 40
1.0
 10
363.1794761338141
 20
415.3049523161957
 30
0.0
 10
364.0205441497837
 20
415.3049523161957
 30
0.0
 10
365.7119667935418
 20
415.3049523161957
 30
0.0
 10
368.2860705016795
 20
415.3049523161957
 30
0.0
 10
370.6796220770089
 20
415.3049523161957
 30
0.0
 10
372.6230974429482
 20
415.3049523161957
 30
0.0
 10
373.9959313867573
 20
415.3049523161957
 30
0.0
 10
374.8197117790069
 20
415.3049523161957
 30
0.0
 10
375.153369795227
 20
415.3049523161957
 30
0.0
 10
375.1584589148901
 20
415.3049523161957
 30
0.0
 10
375.1584589148874
 20
415.3049523161957
 30
0.0
  0
SPLINE
  5
22F
330
1F
100
AcDbEntity
  8
0
  6
Continuous
 62
     8
370
    18
100
AcDbSpline
210
0.0
220
0.0
230
1.0
 70
    24
 71
     3
 72
    15
 73
    11
 74
     0
 42
0.00000001
 43
0.00000001
 40
0.0
 40
0.0
 40
0.0
 40
0.0
 40
0.0998812454638712
 40
0.2326056471889025
 40
0.3617423440988463
 40
0.4842902008865246
 40
0.6067956313677882
 40
0.7358507552845241
 40
0.8685620796217218
 40
1.0
 40
1.0
 40
1.0
 40
1.0
 10
339.1726808036661
 20
415.3049523161957
 30
0.0
 10
339.1758847498572
 20
415.3049523161957
 30
0.0
 10
339.183346170406
 20
415.3049523161957
 30
0.0
 10
339.4951520185296
 20
415.3049523161957
 30
0.0
 10
340.2873459610856
 20
415.3049523161957
 30
0.0
 10
341.6885681287632
 20
415.3049523161957
 30
0.0
 10
343.701152517818
 20
415.3049523161957
 30
0.0
 10
346.0672307032945
 20
415.3049523161957
 30
0.0
 10
348.5885530413972
 20
415.3049523161957
 30
0.0
 10
350.2905471210271
 20
415.3049523161957
 30
0.0
 10
351.1374416959621
 20
415.3049523161957
 30
0.0
  0
SPLINE
  5
230
330
1F
100
AcDbEntity
  8
0
  6
Continuous
 62
     8
370
    18
100
AcDbSpline
210
0.0
220
0.0
230
1.0
 70
    24
 71
     3
 72
    15
 73
    11
 74
     0
 42
0.00000001
 43
0.00000001
 40
0.0
 40
0.0
 40
0.0
 40
0.0
 40
0.0711095539254947
 40
0.2080764020241734
 40
0.3413408667325586
 40
0.4678058834687343
 40
0.5942271177701155
 40
0.7274074020593736
 40
0.8643607547603305
 40
1.0
 40
1.0
 40
1.0
 40
1.0
 10
375.1302185832254
 20
534.5049523161957
 30
0.0
 10
375.1264226241819
 20
534.5049523161956
 30
0.0
 10
375.1153151223571
 20
534.5049523161957
 30
0.0
 10
374.8190051625938
 20
534.5049523161956
 30
0.0
 10
374.0302614608446
 20
534.5049523161957
 30
0.0
 10
372.6281694288141
 20
534.5049523161956
 30
0.0
 10
370.6158164297787
 20
534.5049523161956
 30
0.0
 10
368.2496727515156
 20
534.5049523161957
 30
0.0
 10
365.7283683832246
 20
534.5049523161956
 30
0.0
 10
364.0263719031737
 20
534.5049523161956
 30
0.0
 10
363.1794761338141
 20
534.5049523161956
 30
0.0
  0
SPLINE
  5
231
330
1F
100
AcDbEntity
  8
0
  6
Continuous
 62
     8
370
    18
100
AcDbSpline
210
0.0
220
0.0
230
1.0
 70
    24
 71
     3
 72
    15
 73
    11
 74
     0
 42
0.00000001
 43
0.00000001
 40
0.0
 40
0.0
 40
0.0
 40
0.0
 40
0.1249999999999999
 40
0.25
 40
0.375
 40
0.5
 40
0.625
 40
0.75
 40
0.8750000000000001
 40
1.0
 40
1.0
 40
1.0
 40
1.0
 10
351.1374416959613
 20
534.5049523161956
 30
0.0
 10
350.2963736799929
 20
534.5049523161956
 30
0.0
 10
348.6049510362347
 20
534.5049523161956
 30
0.0
 10
346.0308473280974
 20
534.5049523161956
 30
0.0
 10
343.6372957527674
 20
534.5049523161956
 30
0.0
 10
341.6938203868274
 20
534.5049523161956
 30
0.0
 10
340.3209864430173
 20
534.5049523161956
 30
0.0
 10
339.4972060507672
 20
534.5049523161956
 30
0.0
 10
339.1635480345472
 20
534.5049523161957
 30
0.0
 10
339.1584589148847
 20
534.5049523161956
 30
0.0
 10
339.1584589148853
 20
534.5049523161956
 30
0.0
  0
LINE
  5
232
330
1F
100
AcDbEntity
  8
0
  6
Continuous
 62
     8
370
    18
100
AcDbLine
 10
516.4556291123
 20
587.447720568
 30
0.0
 11
537.7059972907
 21
593.1417395603
 31
0.0
  0
LINE
  5
233
330
1F
100
AcDbEntity
  8
0
  6
Continuous
 62
     8
370
    18
100
AcDbLine
 10
338.748934792
 20
529.4972807094
 30
0.0
 11
338.748934792
 21
525.9952026456
 31
0.0
  0
LINE
  5
234
330
1F
100
AcDbEntity
  8
0
  6
Continuous
 62
     8
370
    18
100
AcDbLine
 10
338.748934792
 20
533.4147019868
 30
0.0
 11
338.748934792
 21
529.4972807094
 31
0.0
  0
LINE
  5
235
330
1F
100
AcDbEntity
  8
0
  6
Continuous
 62
     8
370
    18
100
AcDbLine
 10
338.9486970105
 20
533.6049523162
 30
0.0
 11
338.9486970105
 21
525.8049523162
 31
0.0
  0
LINE
  5
236
330
1F
100
AcDbEntity
  8
0
  6
Continuous
 62
     8
370
    18
100
AcDbLine
 10
373.264012508
 20
535.0049523162
 30
0.0
 11
373.1380841677
 21
559.0737369284
 31
0.0
  0
SPLINE
  5
237
330
1F
100
AcDbEntity
  8
0
  6
Continuous
 62
     8
370
    18
100
AcDbSpline
210
0.0
220
0.0
230
1.0
 70
     8
 71
     3
 72
    22
 73
    18
 74
     0
 42
0.00000001
 43
0.00000001
 40
0.0
 40
0.0
 40
0.0
 40
0.0
 40
0.0267338500613196
 40
0.0625018443125112
 40
0.1250051284215916
 40
0.1895754327884367
 40
0.2500116422046931
 40
0.3757381670820608
 40
0.4999756804567959
 40
0.6292881251942196
 40
0.7499824006675486
 40
0.8064224366173366
 40
0.8578720321589929
 40
0.9035668227195528
 40
0.9428776457357632
 40
0.9752119278795135
 40
1.0
 40
1.0
 40
1.0
 40
1.0
 10
368.1350772998582
 20
556.4102334396056
 30
0.0
 10
368.1751884728969
 20
556.4414844835035
 30
0.0
 10
368.2689655490271
 20
556.5145472064496
 30
0.0
 10
368.4540221181085
 20
556.6638279866627
 30
0.0
 10
368.6939217633114
 20
556.8597315582105
 30
0.0
 10
368.9784727648363
 20
557.0749243882673
 30
0.0
 10
369.3726166535346
 20
557.3436273862552
 30
0.0
 10
369.8830945615452
 20
557.6414073146201
 30
0.0
 10
370.5282813004906
 20
557.9643544593292
 30
0.0
 10
371.180547753796
 20
558.249014728982
 30
0.0
 10
371.7204497118405
 20
558.467353028466
 30
0.0
 10
372.1238890561488
 20
558.6278376222757
 30
0.0
 10
372.394688435254
 20
558.7358923121484
 30
0.0
 10
372.6344669251408
 20
558.8335523281082
 30
0.0
 10
372.8385374185676
 20
558.9214614978436
 30
0.0
 10
373.0048512231146
 20
558.996922012405
 30
0.0
 10
373.0977646609422
 20
559.05049122936
 30
0.0
 10
373.1380841650575
 20
559.073737428338
 30
0.0
  0
SPLINE
  5
238
330
1F
100
AcDbEntity
  8
0
  6
Continuous
 62
     8
370
    18
100
AcDbSpline
210
0.0
220
0.0
230
1.0
 70
     8
 71
     3
 72
    22
 73
    18
 74
     0
 42
0.00000001
 43
0.00000001
 40
0.0
 40
0.0
 40
0.0
 40
0.0
 40
0.0312499999999982
 40
0.0312499999999982
 40
0.0624999999999963
 40
0.0624999999999963
 40
0.1250000000000002
 40
0.1250000000000002
 40
0.2500000000000032
 40
0.2500000000000032
 40
0.5000000000000048
 40
0.5000000000000048
 40
0.7500000000000063
 40
0.7500000000000063
 40
0.8750000000000031
 40
0.8750000000000031
 40
1.0
 40
1.0
 40
1.0
 40
1.0
 10
341.1788336646561
 20
559.0737374284608
 30
0.0
 10
341.2280554560195
 20
559.0423162264792
 30
0.0
 10
341.2806987823411
 20
559.0154587039704
 30
0.0
 10
341.3869173644571
 20
558.96394000109
 30
0.0
 10
341.4406723570237
 20
558.9394524482834
 30
0.0
 10
341.6027090478168
 20
558.8675637866792
 30
0.0
 10
341.7121464364804
 20
558.822003014179
 30
0.0
 10
342.0418496186316
 20
558.6875171076947
 30
0.0
 10
342.2626997174155
 20
558.6005474269866
 30
0.0
 10
342.923634016207
 20
558.3358357102967
 30
0.0
 10
343.3644893598095
 20
558.1561456581826
 30
0.0
 10
344.2249749077661
 20
557.7528924047574
 30
0.0
 10
344.6459932526764
 20
557.5297388663175
 30
0.0
 10
345.2452769328357
 20
557.1423195563768
 30
0.0
 10
345.4382598691071
 20
557.0030587428843
 30
0.0
 10
345.8111035524887
 20
556.7080288129102
 30
0.0
 10
345.9933108636379
 20
556.5550981950078
 30
0.0
 10
346.1818405299182
 20
556.4102334396056
 30
0.0
  0
LINE
  5
239
330
1F
100
AcDbEntity
  8
0
  6
Continuous
 62
     8
370
    18
100
AcDbLine
 10
341.0529049362
 20
535.0049523162
 30
0.0
 11
341.1788336621
 21
559.0737369284
 31
0.0
  0
SPLINE
  5
23A
330
1F
100
AcDbEntity
  8
0
  6
Continuous
 62
     8
370
    18
100
AcDbSpline
210
0.0
220
0.0
230
1.0
 70
     8
 71
     3
 72
    14
 73
    10
 74
     0
 42
0.00000001
 43
0.00000001
 40
0.0
 40
0.0
 40
0.0
 40
0.0
 40
0.25
 40
0.25
 40
0.5
 40
0.5
 40
0.75
 40
0.75
 40
1.0
 40
1.0
 40
1.0
 40
1.0
 10
339.4258253961086
 20
559.0677838821756
 30
0.0
 10
339.4258340734461
 20
559.0694411145154
 30
0.0
 10
339.4288853092669
 20
559.0711104868305
 30
0.0
 10
339.5191488825593
 20
559.0739886286295
 30
0.0
 10
339.6054763870948
 20
559.0751823584586
 30
0.0
 10
339.8849539502966
 20
559.0765625578166
 30
0.0
 10
340.078602304795
 20
559.0767363975068
 30
0.0
 10
340.5685159233818
 20
559.0759574745674
 30
0.0
 10
340.8649270259421
 20
559.0750157492823
 30
0.0
 10
341.1788233578239
 20
559.073737722751
 30
0.0
  0
SPLINE
  5
23B
330
1F
100
AcDbEntity
  8
0
  6
Continuous
 62
     8
370
    18
100
AcDbSpline
210
0.0
220
0.0
230
1.0
 70
     8
 71
     3
 72
    16
 73
    12
 74
     0
 42
0.00000001
 43
0.00000001
 40
0.0
 40
0.0
 40
0.0
 40
0.0
 40
0.2500000000000006
 40
0.2500000000000006
 40
0.3749999999999975
 40
0.3749999999999975
 40
0.4999999999999944
 40
0.4999999999999944
 40
0.7499999999999972
 40
0.7499999999999972
 40
1.0
 40
1.0
 40
1.0
 40
1.0
 10
373.1380841650621
 20
559.073737428338
 30
0.0
 10
373.4484905540917
 20
559.0750049462969
 30
0.0
 10
373.7427887386039
 20
559.0759378693081
 30
0.0
 10
374.1142280744252
 20
559.0765393318776
 30
0.0
 10
374.2260755711824
 20
559.0766037433964
 30
0.0
 10
374.4202242599122
 20
559.076432375098
 30
0.0
 10
374.503217413891
 20
559.0762038415563
 30
0.0
 10
374.712608815623
 20
559.0751636446528
 30
0.0
 10
374.7976640080945
 20
559.073991762898
 30
0.0
 10
374.8850783681819
 20
559.0711247199738
 30
0.0
 10
374.8910837445069
 20
559.0694412394085
 30
0.0
 10
374.8910924336505
 20
559.0677838868257
 30
0.0
  0
ENDSEC
  0
SECTION
  2
OBJECTS
  0
DICTIONARY
  5
C
330
0
100
AcDbDictionary
281
     1
  3
ACAD_GROUP
350
D
  3
ACAD_LAYOUT
350
1A
  3
ACAD_MLINESTYLE
350
17
  3
ACAD_PLOTSETTINGS
350
19
  3
ACAD_PLOTSTYLENAME
350
E
  3
ACAD_SCALELIST
350
47
  3
DWGPROPS
350
23C
  0
DICTIONARY
  5
D
102
{ACAD_REACTORS
330
C
102
}
330
C
100
AcDbDictionary
281
     1
  0
DICTIONARY
  5
1A
102
{ACAD_REACTORS
330
C
102
}
330
C
100
AcDbDictionary
281
     1
  3
Layout1
350
1E
  3
Layout2
350
26
  3
Model
350
22
  0
DICTIONARY
  5
17
102
{ACAD_REACTORS
330
C
102
}
330
C
100
AcDbDictionary
281
     1
  3
Standard
350
18
  0
DICTIONARY
  5
19
102
{ACAD_REACTORS
330
C
102
}
330
C
100
AcDbDictionary
281
     1
  0
ACDBDICTIONARYWDFLT
  5
E
102
{ACAD_REACTORS
330
C
102
}
330
C
100
AcDbDictionary
281
     1
  3
Normal
350
F
100
AcDbDictionaryWithDefault
340
F
  0
DICTIONARY
  5
47
102
{ACAD_REACTORS
330
C
102
}
330
C
100
AcDbDictionary
281
     1
  3
A0
350
48
  3
A1
350
49
  3
A2
350
4A
  3
A3
350
4B
  3
A4
350
4C
  3
A5
350
4D
  3
A6
350
4E
  3
A7
350
4F
  3
A8
350
50
  3
A9
350
51
  3
B0
350
52
  3
B1
350
53
  3
B2
350
54
  3
B3
350
55
  3
B4
350
56
  3
B5
350
57
  3
B6
350
58
  0
XRECORD
  5
23C
102
{ACAD_REACTORS
330
C
102
}
330
C
100
AcDbXrecord
280
     1
  1
DWGPROPS COOKIE
  2

  3

  4

  6

  7

  8
fue-task
  9

300
=
301
=
302
=
303
=
304
=
305
=
306
=
307
=
308
=
309
=
 40
0.0
 41
2460334.524392905
 42
2460334.524394526
  1

 90
        0
  0
LAYOUT
  5
1E
102
{ACAD_REACTORS
330
1A
102
}
330
1A
100
AcDbPlotSettings
  1

  2
none_device
  4

  6

 40
0.0
 41
0.0
 42
0.0
 43
0.0
 44
0.0
 45
0.0
 46
0.0
 47
0.0
 48
0.0
 49
0.0
140
0.0
141
0.0
142
1.0
143
1.0
 70
   688
 72
     1
 73
     0
 74
     5
  7

 75
    16
147
1.0
148
0.0
149
0.0
100
AcDbLayout
  1
Layout1
 70
     1
 71
     1
 10
0.0
 20
0.0
 11
420.0
 21
297.0
 12
0.0
 22
0.0
 32
0.0
 14
1.0000000000E+20
 24
1.0000000000E+20
 34
1.0000000000E+20
 15
-1.0000000000E+20
 25
-1.0000000000E+20
 35
-1.0000000000E+20
146
0.0
 13
0.0
 23
0.0
 33
0.0
 16
1.0
 26
0.0
 36
0.0
 17
0.0
 27
1.0
 37
0.0
 76
     0
330
1B
  0
LAYOUT
  5
26
102
{ACAD_REACTORS
330
1A
102
}
330
1A
100
AcDbPlotSettings
  1

  2
none_device
  4

  6

 40
0.0
 41
0.0
 42
0.0
 43
0.0
 44
0.0
 45
0.0
 46
0.0
 47
0.0
 48
0.0
 49
0.0
140
0.0
141
0.0
142
1.0
143
1.0
 70
   688
 72
     1
 73
     0
 74
     5
  7

 75
    16
147
1.0
148
0.0
149
0.0
100
AcDbLayout
  1
Layout2
 70
     1
 71
     2
 10
0.0
 20
0.0
 11
0.0
 21
0.0
 12
0.0
 22
0.0
 32
0.0
 14
0.0
 24
0.0
 34
0.0
 15
0.0
 25
0.0
 35
0.0
146
0.0
 13
0.0
 23
0.0
 33
0.0
 16
1.0
 26
0.0
 36
0.0
 17
0.0
 27
1.0
 37
0.0
 76
     0
330
23
  0
LAYOUT
  5
22
102
{ACAD_REACTORS
330
1A
102
}
330
1A
100
AcDbPlotSettings
  1

  2
none_device
  4
Letter_(8.50_x_11.00_Inches)
  6

 40
6.35
 41
6.35
 42
6.35000508
 43
6.35000508
 44
215.9
 45
279.4
 46
0.0
 47
0.0
 48
0.0
 49
0.0
140
0.0
141
0.0
142
1.0
143
1.0
 70
  1712
 72
     1
 73
     0
 74
     0
  7

 75
     0
147
1.0
148
0.0
149
0.0
100
AcDbLayout
  1
Model
 70
     1
 71
     0
 10
0.0
 20
0.0
 11
594.0
 21
841.0
 12
0.0
 22
0.0
 32
0.0
 14
0.0
 24
0.0
 34
0.0
 15
594.0
 25
841.0
 35
0.0
146
0.0
 13
0.0
 23
0.0
 33
0.0
 16
1.0
 26
0.0
 36
0.0
 17
0.0
 27
1.0
 37
0.0
 76
     0
330
1F
331
29
  0
MLINESTYLE
  5
18
102
{ACAD_REACTORS
330
17
102
}
330
17
100
AcDbMlineStyle
  2
Standard
 70
     0
  3

 62
   256
 51
90.0
 52
90.0
 71
     2
 49
0.5
 62
   256
  6
BYLAYER
 49
-0.5
 62
   256
  6
BYLAYER
  0
ACDBPLACEHOLDER
  5
F
102
{ACAD_REACTORS
330
E
102
}
330
E
  0
SCALE
  5
48
102
{ACAD_REACTORS
330
47
102
}
330
47
100
AcDbScale
 70
     0
300
1:1
140
1.0
141
1.0
290
     1
  0
SCALE
  5
49
102
{ACAD_REACTORS
330
47
102
}
330
47
100
AcDbScale
 70
     0
300
1:2
140
1.0
141
2.0
290
     0
  0
SCALE
  5
4A
102
{ACAD_REACTORS
330
47
102
}
330
47
100
AcDbScale
 70
     0
300
1:4
140
1.0
141
4.0
290
     0
  0
SCALE
  5
4B
102
{ACAD_REACTORS
330
47
102
}
330
47
100
AcDbScale
 70
     0
300
1:5
140
1.0
141
5.0
290
     0
  0
SCALE
  5
4C
102
{ACAD_REACTORS
330
47
102
}
330
47
100
AcDbScale
 70
     0
300
1:8
140
1.0
141
8.0
290
     0
  0
SCALE
  5
4D
102
{ACAD_REACTORS
330
47
102
}
330
47
100
AcDbScale
 70
     0
300
1:10
140
1.0
141
10.0
290
     0
  0
SCALE
  5
4E
102
{ACAD_REACTORS
330
47
102
}
330
47
100
AcDbScale
 70
     0
300
1:16
140
1.0
141
16.0
290
     0
  0
SCALE
  5
4F
102
{ACAD_REACTORS
330
47
102
}
330
47
100
AcDbScale
 70
     0
300
1:20
140
1.0
141
20.0
290
     0
  0
SCALE
  5
50
102
{ACAD_REACTORS
330
47
102
}
330
47
100
AcDbScale
 70
     0
300
1:30
140
1.0
141
30.0
290
     0
  0
SCALE
  5
51
102
{ACAD_REACTORS
330
47
102
}
330
47
100
AcDbScale
 70
     0
300
1:40
140
1.0
141
40.0
290
     0
  0
SCALE
  5
52
102
{ACAD_REACTORS
330
47
102
}
330
47
100
AcDbScale
 70
     0
300
1:50
140
1.0
141
50.0
290
     0
  0
SCALE
  5
53
102
{ACAD_REACTORS
330
47
102
}
330
47
100
AcDbScale
 70
     0
300
1:100
140
1.0
141
100.0
290
     0
  0
SCALE
  5
54
102
{ACAD_REACTORS
330
47
102
}
330
47
100
AcDbScale
 70
     0
300
2:1
140
2.0
141
1.0
290
     0
  0
SCALE
  5
55
102
{ACAD_REACTORS
330
47
102
}
330
47
100
AcDbScale
 70
     0
300
4:1
140
4.0
141
1.0
290
     0
  0
SCALE
  5
56
102
{ACAD_REACTORS
330
47
102
}
330
47
100
AcDbScale
 70
     0
300
8:1
140
8.0
141
1.0
290
     0
  0
SCALE
  5
57
102
{ACAD_REACTORS
330
47
102
}
330
47
100
AcDbScale
 70
     0
300
10:1
140
10.0
141
1.0
290
     0
  0
SCALE
  5
58
102
{ACAD_REACTORS
330
47
102
}
330
47
100
AcDbScale
 70
     0
300
100:1
140
100.0
141
1.0
290
     0
  0
ENDSEC
  0
EOF
