  0
SECTION
  2
HEADER
  9
$ACADVER
  1
AC1009
  9
$DWGCODEPAGE
  3
ansi_1252
  9
$INSBASE
 10
0.0
 20
0.0
 30
0.0
  9
$EXTMIN
 10
0.0
 20
0.0
 30
0.0
  9
$EXTMAX
 10
841.0
 20
594.0
 30
0.0
  9
$LIMMIN
 10
0.0
 20
0.0
  9
$LIMMAX
 10
841.0
 20
594.0
  9
$ORTHOMODE
 70
     0
  9
$REGENMODE
 70
     1
  9
$FILLMODE
 70
     1
  9
$QTEXTMODE
 70
     0
  9
$MIRRTEXT
 70
     1
  9
$DRAGMODE
 70
     2
  9
$LTSCALE
 40
1.0
  9
$OSMODE
 70
    37
  9
$ATTMODE
 70
     1
  9
$TEXTSIZE
 40
10.0
  9
$TRACEWID
 40
1.0
  9
$TEXTSTYLE
  7
STANDARD
  9
$CLAYER
  8
0
  9
$CELTYPE
  6
BYLAYER
  9
$CECOLOR
 62
   256
  9
$DIMSCALE
 40
1.0
  9
$DIMASZ
 40
2.5
  9
$DIMEXO
 40
0.0
  9
$DIMDLI
 40
3.75
  9
$DIMRND
 40
0.0
  9
$DIMDLE
 40
0.0
  9
$DIMEXE
 40
1.0
  9
$DIMTP
 40
0.0
  9
$DIMTM
 40
0.0
  9
$DIMTXT
 40
3.5
  9
$DIMCEN
 40
2.5
  9
$DIMTSZ
 40
0.0
  9
$DIMTOL
 70
     0
  9
$DIMLIM
 70
     0
  9
$DIMTIH
 70
     1
  9
$DIMTOH
 70
     1
  9
$DIMSE1
 70
     0
  9
$DIMSE2
 70
     0
  9
$DIMTAD
 70
     1
  9
$DIMZIN
 70
     0
  9
$DIMBLK
  1

  9
$DIMASO
 70
     1
  9
$DIMSHO
 70
     1
  9
$DIMPOST
  1

  9
$DIMAPOST
  1

  9
$DIMALT
 70
     0
  9
$DIMALTD
 70
     3
  9
$DIMALTF
 40
0.0393700787
  9
$DIMLFAC
 40
2.0
  9
$DIMTOFL
 70
     1
  9
$DIMTVP
 40
0.0
  9
$DIMTIX
 70
     0
  9
$DIMSOXD
 70
     0
  9
$DIMSAH
 70
     0
  9
$DIMBLK1
  1

  9
$DIMBLK2
  1

  9
$DIMSTYLE
  2
ISO-25
  9
$DIMCLRD
 70
     0
  9
$DIMCLRE
 70
     0
  9
$DIMCLRT
 70
     0
  9
$DIMTFAC
 40
1.0
  9
$DIMGAP
 40
1.5
  9
$LUNITS
 70
     2
  9
$LUPREC
 70
     2
  9
$SKETCHINC
 40
1.0
  9
$FILLETRAD
 40
10.0
  9
$AUNITS
 70
     0
  9
$AUPREC
 70
     2
  9
$MENU
  1
.
  9
$ELEVATION
 40
0.0
  9
$PELEVATION
 40
0.0
  9
$THICKNESS
 40
0.0
  9
$LIMCHECK
 70
     0
  9
$CHAMFERA
 40
0.0
  9
$CHAMFERB
 40
0.0
  9
$SKPOLY
 70
     0
  9
$TDCREATE
 40
2458705.494676146
  9
$TDUPDATE
 40
2458705.49467669
  9
$TDINDWG
 40
0.0000000116
  9
$TDUSRTIMER
 40
0.0000000116
  9
$USRTIMER
 70
     1
  9
$ANGBASE
 50
0.0
  9
$ANGDIR
 70
     0
  9
$PDMODE
 70
     0
  9
$PDSIZE
 40
-1.0
  9
$PLINEWID
 40
0.0
  9
$COORDS
 70
     1
  9
$SPLFRAME
 70
     0
  9
$SPLINETYPE
 70
     6
  9
$SPLINESEGS
 70
     8
  9
$ATTDIA
 70
     0
  9
$ATTREQ
 70
     1
  9
$HANDLING
 70
     1
  9
$HANDSEED
  5
236
  9
$SURFTAB1
 70
     6
  9
$SURFTAB2
 70
     6
  9
$SURFTYPE
 70
     6
  9
$SURFU
 70
     6
  9
$SURFV
 70
     6
  9
$UCSNAME
  2

  9
$UCSORG
 10
0.0
 20
0.0
 30
0.0
  9
$UCSXDIR
 10
1.0
 20
0.0
 30
0.0
  9
$UCSYDIR
 10
0.0
 20
1.0
 30
0.0
  9
$PUCSNAME
  2

  9
$PUCSORG
 10
0.0
 20
0.0
 30
0.0
  9
$PUCSXDIR
 10
1.0
 20
0.0
 30
0.0
  9
$PUCSYDIR
 10
0.0
 20
1.0
 30
0.0
  9
$USERI1
 70
     0
  9
$USERI2
 70
     0
  9
$USERI3
 70
     0
  9
$USERI4
 70
     0
  9
$USERI5
 70
     0
  9
$USERR1
 40
0.0
  9
$USERR2
 40
0.0
  9
$USERR3
 40
0.0
  9
$USERR4
 40
0.0
  9
$USERR5
 40
0.0
  9
$WORLDVIEW
 70
     1
  9
$SHADEDGE
 70
     3
  9
$SHADEDIF
 70
    70
  9
$TILEMODE
 70
     1
  9
$MAXACTVP
 70
    64
  9
$PLIMCHECK
 70
     0
  9
$PEXTMIN
 10
1.0000000000E+20
 20
1.0000000000E+20
 30
1.0000000000E+20
  9
$PEXTMAX
 10
-1.0000000000E+20
 20
-1.0000000000E+20
 30
-1.0000000000E+20
  9
$PLIMMIN
 10
0.0
 20
0.0
  9
$PLIMMAX
 10
420.0
 20
297.0
  9
$UNITMODE
 70
     0
  9
$VISRETAIN
 70
     1
  9
$PLINEGEN
 70
     0
  9
$PSLTSCALE
 70
     1
  0
ENDSEC
  0
SECTION
  2
TABLES
  0
TABLE
  2
VPORT
 70
     1
  0
VPORT
  2
*ACTIVE
 70
     0
 10
0.0
 20
0.0
 11
1.0
 21
1.0
 12
420.5
 22
297.0
 13
0.0
 23
0.0
 14
10.0
 24
10.0
 15
10.0
 25
10.0
 16
0.0
 26
0.0
 36
1.0
 17
0.0
 27
0.0
 37
0.0
 40
594.0
 41
1.4158249158
 42
50.0
 43
0.0
 44
0.0
 50
0.0
 51
0.0
 71
     0
 72
  2000
 73
     1
 74
     3
 75
     0
 76
     0
 77
     0
 78
     0
  0
ENDTAB
  0
TABLE
  2
LTYPE
 70
     6
  0
LTYPE
  2
CONTINUOUS
 70
     0
  3
Solid line
 72
    65
 73
     0
 40
0.0
  0
LTYPE
  2
HIDDEN
 70
     0
  3
Hidden __ __ __ __ __ __ __ __ __ __ __ __ __ __
 72
    65
 73
     2
 40
1.905
 49
1.27
 49
-0.635
  0
LTYPE
  2
PHANTOM
 70
     0
  3
Phantom ______  __  __  ______  __  __  ______
 72
    65
 73
     6
 40
12.7
 49
6.35
 49
-1.27
 49
1.27
 49
-1.27
 49
1.27
 49
-1.27
  0
LTYPE
  2
CENTER
 70
     0
  3
Center ____ _ ____ _ ____ _ ____ _ ____ _ ____
 72
    65
 73
     4
 40
10.16
 49
6.35
 49
-1.27
 49
1.27
 49
-1.27
  0
LTYPE
  2
CENTERX2
 70
     0
  3
Center (2x) ________  __  ________  __  _____
 72
    65
 73
     4
 40
20.32
 49
12.7
 49
-2.54
 49
2.54
 49
-2.54
  0
LTYPE
  2
DOT2
 70
     0
  3
Dot (.5x) ........................................
 72
    65
 73
     2
 40
0.635
 49
0.0
 49
-0.635
  0
ENDTAB
  0
TABLE
  2
LAYER
 70
     1
  0
LAYER
  2
0
 70
     0
 62
     7
  6
CONTINUOUS
  0
ENDTAB
  0
TABLE
  2
STYLE
 70
     1
  0
STYLE
  2
STANDARD
 70
     0
 40
0.0
 41
1.0
 50
0.0
 71
     0
 42
10.0
  3
txt
  4

  0
ENDTAB
  0
TABLE
  2
VIEW
 70
     0
  0
ENDTAB
  0
TABLE
  2
UCS
 70
     0
  0
ENDTAB
  0
TABLE
  2
APPID
 70
     1
  0
APPID
  2
ACAD
 70
     0
  0
ENDTAB
  0
TABLE
  2
DIMSTYLE
 70
     2
  0
DIMSTYLE
  2
ISO-25
 70
     0
  3

  4

  5

  6

  7

 40
1.0
 41
2.5
 42
0.625
 43
3.75
 44
1.25
 45
0.0
 46
0.0
 47
0.0
 48
0.0
140
2.5
141
2.5
142
0.0
143
0.0393700787
144
1.0
145
0.0
146
1.0
147
0.625
 71
     0
 72
     0
 73
     0
 74
     0
 75
     0
 76
     0
 77
     1
 78
     8
170
     0
171
     3
172
     1
173
     0
174
     0
175
     0
176
     0
177
     0
178
     0
  0
DIMSTYLE
  2
SLDDIMSTYLE0
 70
     0
  3

  4

  5

  6

  7

 40
1.0
 41
2.5
 42
0.0625
 43
0.38
 44
0.0
 45
0.000000001
 46
0.0
 47
0.0
 48
0.0
140
6.0
141
0.09
142
0.0
143
25.4
144
2.0
145
0.0
146
1.0
147
1.5
 71
     0
 72
     0
 73
     0
 74
     0
 75
     0
 76
     0
 77
     1
 78
    12
170
     0
171
     2
172
     0
173
     1
174
     0
175
     0
176
     0
177
     0
178
     0
  0
ENDTAB
  0
ENDSEC
  0
SECTION
  2
BLOCKS
  0
BLOCK
  8
0
  2
$MODEL_SPACE
 70
     0
 10
0.0
 20
0.0
 30
0.0
  3
$MODEL_SPACE
  1

  0
ENDBLK
  5
21
  8
0
  0
BLOCK
 67
     1
  8
0
  2
$PAPER_SPACE
 70
     0
 10
0.0
 20
0.0
 30
0.0
  3
$PAPER_SPACE
  1

  0
ENDBLK
  5
1D
 67
     1
  8
0
  0
BLOCK
  8
0
  2
_D
 70
     0
 10
0.0
 20
0.0
 30
0.0
  3
_D
  1

  0
SOLID
  5
7A
  8
0
  6
CONTINUOUS
 62
     7
 10
42.7614395004
 20
152.0299240879
 30
0.0
 11
42.4614395004
 21
149.5299240879
 31
0.0
 12
43.0614395004
 22
149.5299240879
 32
0.0
 13
43.0614395004
 23
149.5299240879
 33
0.0
  0
SOLID
  5
7B
  8
0
  6
CONTINUOUS
 62
     7
 10
42.7614395004
 20
52.0299240879
 30
0.0
 11
43.0614395004
 21
54.5299240879
 31
0.0
 12
42.4614395004
 22
54.5299240879
 32
0.0
 13
42.4614395004
 23
54.5299240879
 33
0.0
  0
LINE
  5
7C
  8
0
  6
CONTINUOUS
 62
     7
 10
56.6850079902
 20
152.0299240879
 30
0.0
 11
41.7614395004
 21
152.0299240879
 31
0.0
  0
LINE
  5
7D
  8
0
  6
CONTINUOUS
 62
     7
 10
56.6850079902
 20
52.0299240879
 30
0.0
 11
41.7614395004
 21
52.0299240879
 31
0.0
  0
LINE
  5
7E
  8
0
  6
CONTINUOUS
 62
     7
 10
42.7614395004
 20
152.0299240879
 30
0.0
 11
42.7614395004
 21
52.0299240879
 31
0.0
  0
TEXT
  5
7F
  8
0
  6
CONTINUOUS
 62
     7
 10
40.6418793617
 20
94.3680541463
 30
0.0
 40
6.0
  1
100
 50
90.0
 41
0.7
 11
42.7614397332
 21
94.3680541463
 31
0.0
 73
     1
  0
TEXT
  5
80
  8
0
  6
CONTINUOUS
 62
     7
 10
40.6418793617
 20
105.7430548466
 30
0.0
 40
6.0
  1
mm
 50
90.0
 41
0.7
 11
42.7614397332
 21
105.7430548466
 31
0.0
 73
     1
  0
ENDBLK
  5
79
  8
0
  0
BLOCK
  8
0
  2
_D_1
 70
     0
 10
0.0
 20
0.0
 30
0.0
  3
_D_1
  1

  0
SOLID
  5
85
  8
0
  6
CONTINUOUS
 62
     7
 10
56.6850079902
 20
38.4602342313
 30
0.0
 11
59.1850079902
 21
38.1602342313
 31
0.0
 12
59.1850079902
 22
38.7602342313
 32
0.0
 13
59.1850079902
 23
38.7602342313
 33
0.0
  0
SOLID
  5
86
  8
0
  6
CONTINUOUS
 62
     7
 10
156.6850079902
 20
38.4602342313
 30
0.0
 11
154.1850079902
 21
38.7602342313
 31
0.0
 12
154.1850079902
 22
38.1602342313
 32
0.0
 13
154.1850079902
 23
38.1602342313
 33
0.0
  0
LINE
  5
87
  8
0
  6
CONTINUOUS
 62
     7
 10
56.6850079902
 20
52.0299240879
 30
0.0
 11
56.6850079902
 21
37.4602342313
 31
0.0
  0
LINE
  5
88
  8
0
  6
CONTINUOUS
 62
     7
 10
156.6850079902
 20
52.0299240879
 30
0.0
 11
156.6850079902
 21
37.4602342313
 31
0.0
  0
LINE
  5
89
  8
0
  6
CONTINUOUS
 62
     7
 10
56.6850079902
 20
38.4602342313
 30
0.0
 11
156.6850079902
 21
38.4602342313
 31
0.0
  0
TEXT
  5
8A
  8
0
  6
CONTINUOUS
 62
     7
 10
93.9626484861
 20
40.57979437
 30
0.0
 40
6.0
  1
100
 41
0.7
 11
93.9626484861
 21
38.4602339984
 31
0.0
 73
     1
  0
TEXT
  5
8B
  8
0
  6
CONTINUOUS
 62
     7
 10
105.3376491864
 20
40.57979437
 30
0.0
 40
6.0
  1
mm
 41
0.7
 11
105.3376491864
 21
38.4602339984
 31
0.0
 73
     1
  0
ENDBLK
  5
84
  8
0
  0
ENDSEC
  0
SECTION
  2
ENTITIES
  0
LINE
  5
73
  8
0
  6
CONTINUOUS
 62
     7
 10
56.6850079902
 20
152.0299240879
 30
0.0
 11
56.6850079902
 21
52.0299240879
 31
0.0
  0
LINE
  5
74
  8
0
  6
CONTINUOUS
 62
     7
 10
56.6850079902
 20
52.0299240879
 30
0.0
 11
156.6850079902
 21
52.0299240879
 31
0.0
  0
DIMENSION
  5
75
  8
0
  6
CONTINUOUS
 62
     7
  2
_D
 10
42.7614395004
 20
52.0299240879
 30
0.0
 11
42.7614395004
 21
105.4472211621
 31
0.0
 70
   160
  1
<>mm
  3
SLDDIMSTYLE0
 13
56.6850079902
 23
152.0299240879
 33
0.0
 14
56.6850079902
 24
52.0299240879
 34
0.0
 50
90.0
  0
DIMENSION
  5
81
  8
0
  6
CONTINUOUS
 62
     7
  2
_D_1
 10
156.6850079902
 20
38.4602342313
 30
0.0
 11
105.0418155019
 21
38.4602342313
 31
0.0
 70
   160
  1
<>mm
  3
SLDDIMSTYLE0
 13
56.6850079902
 23
52.0299240879
 33
0.0
 14
156.6850079902
 24
52.0299240879
 34
0.0
  0
TEXT
  5
8C
  8
0
  6
CONTINUOUS
 62
     7
 10
664.658399795
 20
39.0761681714
 30
0.0
 40
10.0
  1
KLUDI GmbH & Co KG
 41
0.6222222222
 11
664.658399795
 21
35.5435675522
 31
0.0
 73
     1
  0
TEXT
  5
8D
  8
0
  6
CONTINUOUS
 62
     7
 10
349.0758972247
 20
39.0761681714
 30
0.0
 40
10.0
  1
20 144 05 15
 41
0.6125
 11
349.0758972247
 21
35.5435675522
 31
0.0
 73
     1
  0
ARC
  5
8E
  8
0
  6
CONTINUOUS
 62
     7
 10
268.2699184278
 20
332.0044417938
 30
0.0
 40
20.26614015164931
 50
249.6515164373
 51
271.5803785426
  0
POLYLINE
  5
8F
  8
0
  6
CONTINUOUS
 62
     7
 66
     1
 10
0.0
 20
0.0
 30
0.0
 70
   128
  0
VERTEX
  5
19F
  8
0
  6
CONTINUOUS
 62
     7
 10
268.8288446215
 20
311.7460105081
 30
0.0
  0
VERTEX
  5
1A0
  8
0
  6
CONTINUOUS
 62
     7
 10
269.752834517
 20
311.7610387552
 30
0.0
  0
VERTEX
  5
1A1
  8
0
  6
CONTINUOUS
 62
     7
 10
271.4867206537
 20
311.8724523185
 30
0.0
  0
VERTEX
  5
1A2
  8
0
  6
CONTINUOUS
 62
     7
 10
273.1387887651
 20
312.0897583023
 30
0.0
  0
VERTEX
  5
1A3
  8
0
  6
CONTINUOUS
 62
     7
 10
274.6568652785
 20
312.4072204402
 30
0.0
  0
VERTEX
  5
1A4
  8
0
  6
CONTINUOUS
 62
     7
 10
275.9957888853
 20
312.817612832
 30
0.0
  0
VERTEX
  5
1A5
  8
0
  6
CONTINUOUS
 62
     7
 10
277.1176175781
 20
313.3144326057
 30
0.0
  0
VERTEX
  5
1A6
  8
0
  6
CONTINUOUS
 62
     7
 10
277.3930957236
 20
313.4980580238
 30
0.0
  0
SEQEND
  5
22D
  8
0
  6
CONTINUOUS
 62
     7
  0
LINE
  5
90
  8
0
  6
CONTINUOUS
 62
     7
 10
278.8288446215
 20
315.429403884
 30
0.0
 11
278.8288446215
 21
331.9679940099
 31
0.0
  0
LINE
  5
91
  8
0
  6
CONTINUOUS
 62
     7
 10
258.8288446215
 20
331.9679940099
 30
0.0
 11
258.8288446215
 21
315.429403884
 31
0.0
  0
LINE
  5
92
  8
0
  6
CONTINUOUS
 62
     7
 10
258.8288446215
 20
368.8148659836
 30
0.0
 11
258.8288446215
 21
331.9679940099
 31
0.0
  0
LINE
  5
93
  8
0
  6
CONTINUOUS
 62
     7
 10
278.8288446215
 20
331.9679940099
 30
0.0
 11
278.8288446215
 21
368.8148659836
 31
0.0
  0
LINE
  5
94
  8
0
  6
CONTINUOUS
 62
     7
 10
91.8288446215
 20
365.1148659859
 30
0.0
 11
91.8288446215
 21
372.5148659859
 31
0.0
  0
LINE
  5
95
  8
0
  6
CONTINUOUS
 62
     7
 10
92.6288446215
 20
373.3148659859
 30
0.0
 11
161.2295025447
 21
373.3148659859
 31
0.0
  0
ARC
  5
96
  8
0
  6
CONTINUOUS
 62
     7
 10
92.6288446215
 20
372.5148659859
 30
0.0
 40
0.7999999999999972
 50
90.0
 51
180.0
  0
LINE
  5
97
  8
0
  6
CONTINUOUS
 62
     7
 10
161.2295025447
 20
364.3148659859
 30
0.0
 11
92.6288446215
 21
364.3148659859
 31
0.0
  0
ARC
  5
98
  8
0
  6
CONTINUOUS
 62
     7
 10
161.2295025447
 20
362.3148659859
 30
0.0
 40
2.0
 50
40.5416018735
 51
90.0
  0
ARC
  5
99
  8
0
  6
CONTINUOUS
 62
     7
 10
161.2295025447
 20
375.3148659859
 30
0.0
 40
2.0
 50
270.0
 51
319.4583981265
  0
ARC
  5
9A
  8
0
  6
CONTINUOUS
 62
     7
 10
92.6288446215
 20
365.1148659859
 30
0.0
 40
0.8000000000000114
 50
180.0
 51
270.0
  0
ARC
  5
9B
  8
0
  6
CONTINUOUS
 62
     7
 10
168.8288446215
 20
368.8148659859
 30
0.0
 40
8.000000000000139
 50
220.5416018735
 51
139.4583981265
  0
ARC
  5
9C
  8
0
  6
CONTINUOUS
 62
     7
 10
168.8288446215
 20
368.8148659859
 30
0.0
 40
28.49999999999999
 50
189.0847202874
 51
270.0
  0
ARC
  5
9D
  8
0
  6
CONTINUOUS
 62
     7
 10
168.8288446215
 20
368.8148659859
 30
0.0
 40
28.5
 50
270.0
 51
170.9152797126
  0
ARC
  5
9E
  8
0
  6
CONTINUOUS
 62
     7
 10
376.4281866983
 20
362.3148659859
 30
0.0
 40
2.000000000000046
 50
90.0
 51
139.4583981265
  0
ARC
  5
9F
  8
0
  6
CONTINUOUS
 62
     7
 10
376.4281866983
 20
375.3148659859
 30
0.0
 40
2.000000000000083
 50
220.5416018735
 51
270.0
  0
LINE
  5
A0
  8
0
  6
CONTINUOUS
 62
     7
 10
376.4281866983
 20
373.3148659859
 30
0.0
 11
445.0288446215
 21
373.3148659859
 31
0.0
  0
ARC
  5
A1
  8
0
  6
CONTINUOUS
 62
     7
 10
445.0288446215
 20
365.1148659859
 30
0.0
 40
0.8000000000000114
 50
270.0
 51
0.0
  0
LINE
  5
A2
  8
0
  6
CONTINUOUS
 62
     7
 10
445.8288446215
 20
372.5148659859
 30
0.0
 11
445.8288446215
 21
365.1148659859
 31
0.0
  0
ARC
  5
A3
  8
0
  6
CONTINUOUS
 62
     7
 10
445.0288446215
 20
372.5148659859
 30
0.0
 40
0.8000000000000114
 50
0.0
 51
90.0
  0
LINE
  5
A4
  8
0
  6
CONTINUOUS
 62
     7
 10
445.0288446215
 20
364.3148659859
 30
0.0
 11
376.4281866983
 21
364.3148659859
 31
0.0
  0
ARC
  5
A5
  8
0
  6
CONTINUOUS
 62
     7
 10
368.8288446215
 20
368.8148659859
 30
0.0
 40
8.00000000000003
 50
40.5416018735
 51
319.4583981265
  0
ARC
  5
A6
  8
0
  6
CONTINUOUS
 62
     7
 10
368.8288446215
 20
368.8148659859
 30
0.0
 40
28.50000000000006
 50
9.0847202874
 51
90.0
  0
ARC
  5
A7
  8
0
  6
CONTINUOUS
 62
     7
 10
368.8288446215
 20
368.8148659859
 30
0.0
 40
28.50000000000006
 50
90.0
 51
350.9152797126
  0
POLYLINE
  5
A8
  8
0
  6
CONTINUOUS
 62
     7
 66
     1
 10
0.0
 20
0.0
 30
0.0
 70
   128
  0
VERTEX
  5
1A7
  8
0
  6
CONTINUOUS
 62
     7
 10
268.8288446215
 20
311.7655870346
 30
0.0
  0
VERTEX
  5
1A8
  8
0
  6
CONTINUOUS
 62
     7
 10
266.9532535615
 20
311.8287682773
 30
0.0
  0
VERTEX
  5
1A9
  8
0
  6
CONTINUOUS
 62
     7
 10
265.1497404141
 20
312.0158839859
 30
0.0
  0
VERTEX
  5
1AA
  8
0
  6
CONTINUOUS
 62
     7
 10
263.4876131781
 20
312.3197434086
 30
0.0
  0
VERTEX
  5
1AB
  8
0
  6
CONTINUOUS
 62
     7
 10
262.030746471
 20
312.7286693981
 30
0.0
  0
VERTEX
  5
1AC
  8
0
  6
CONTINUOUS
 62
     7
 10
260.8351268635
 20
313.2269471581
 30
0.0
  0
VERTEX
  5
1AD
  8
0
  6
CONTINUOUS
 62
     7
 10
259.9467013465
 20
313.7954281535
 30
0.0
  0
VERTEX
  5
1AE
  8
0
  6
CONTINUOUS
 62
     7
 10
259.3996116144
 20
314.4122659787
 30
0.0
  0
VERTEX
  5
1AF
  8
0
  6
CONTINUOUS
 62
     7
 10
259.2148820188
 20
315.0537559019
 30
0.0
  0
VERTEX
  5
1B0
  8
0
  6
CONTINUOUS
 62
     7
 10
259.3996116144
 20
315.6952458251
 30
0.0
  0
VERTEX
  5
1B1
  8
0
  6
CONTINUOUS
 62
     7
 10
259.9467013465
 20
316.3120836502
 30
0.0
  0
VERTEX
  5
1B2
  8
0
  6
CONTINUOUS
 62
     7
 10
260.8351268635
 20
316.8805646457
 30
0.0
  0
VERTEX
  5
1B3
  8
0
  6
CONTINUOUS
 62
     7
 10
262.0307464711
 20
317.3788424057
 30
0.0
  0
VERTEX
  5
1B4
  8
0
  6
CONTINUOUS
 62
     7
 10
263.4876131781
 20
317.7877683952
 30
0.0
  0
VERTEX
  5
1B5
  8
0
  6
CONTINUOUS
 62
     7
 10
265.1497404141
 20
318.0916278178
 30
0.0
  0
VERTEX
  5
1B6
  8
0
  6
CONTINUOUS
 62
     7
 10
266.9532535615
 20
318.2787435264
 30
0.0
  0
VERTEX
  5
1B7
  8
0
  6
CONTINUOUS
 62
     7
 10
268.8288446215
 20
318.3419247692
 30
0.0
  0
VERTEX
  5
1B8
  8
0
  6
CONTINUOUS
 62
     7
 10
270.7044356815
 20
318.2787435264
 30
0.0
  0
VERTEX
  5
1B9
  8
0
  6
CONTINUOUS
 62
     7
 10
272.507948829
 20
318.0916278178
 30
0.0
  0
VERTEX
  5
1BA
  8
0
  6
CONTINUOUS
 62
     7
 10
274.170076065
 20
317.7877683952
 30
0.0
  0
VERTEX
  5
1BB
  8
0
  6
CONTINUOUS
 62
     7
 10
275.626942772
 20
317.3788424057
 30
0.0
  0
VERTEX
  5
1BC
  8
0
  6
CONTINUOUS
 62
     7
 10
276.8225623795
 20
316.8805646457
 30
0.0
  0
VERTEX
  5
1BD
  8
0
  6
CONTINUOUS
 62
     7
 10
277.7109878965
 20
316.3120836502
 30
0.0
  0
VERTEX
  5
1BE
  8
0
  6
CONTINUOUS
 62
     7
 10
278.2580776286
 20
315.6952458251
 30
0.0
  0
VERTEX
  5
1BF
  8
0
  6
CONTINUOUS
 62
     7
 10
278.4428072242
 20
315.0537559019
 30
0.0
  0
VERTEX
  5
1C0
  8
0
  6
CONTINUOUS
 62
     7
 10
278.2580776286
 20
314.4122659787
 30
0.0
  0
VERTEX
  5
1C1
  8
0
  6
CONTINUOUS
 62
     7
 10
277.7109878965
 20
313.7954281535
 30
0.0
  0
VERTEX
  5
1C2
  8
0
  6
CONTINUOUS
 62
     7
 10
276.8225623795
 20
313.2269471581
 30
0.0
  0
VERTEX
  5
1C3
  8
0
  6
CONTINUOUS
 62
     7
 10
275.626942772
 20
312.7286693981
 30
0.0
  0
VERTEX
  5
1C4
  8
0
  6
CONTINUOUS
 62
     7
 10
274.170076065
 20
312.3197434086
 30
0.0
  0
VERTEX
  5
1C5
  8
0
  6
CONTINUOUS
 62
     7
 10
272.507948829
 20
312.0158839859
 30
0.0
  0
VERTEX
  5
1C6
  8
0
  6
CONTINUOUS
 62
     7
 10
270.7044356815
 20
311.8287682773
 30
0.0
  0
VERTEX
  5
1C7
  8
0
  6
CONTINUOUS
 62
     7
 10
268.8288446215
 20
311.7655870346
 30
0.0
  0
SEQEND
  5
22E
  8
0
  6
CONTINUOUS
 62
     7
  0
POLYLINE
  5
A9
  8
0
  6
CONTINUOUS
 62
     7
 66
     1
 10
0.0
 20
0.0
 30
0.0
 70
   128
  0
VERTEX
  5
1C8
  8
0
  6
CONTINUOUS
 62
     7
 10
261.0456466007
 20
313.2819686864
 30
0.0
  0
VERTEX
  5
1C9
  8
0
  6
CONTINUOUS
 62
     7
 10
260.683085101
 20
313.4454924106
 30
0.0
  0
VERTEX
  5
1CA
  8
0
  6
CONTINUOUS
 62
     7
 10
259.732524668
 20
314.0086008612
 30
0.0
  0
VERTEX
  5
1CB
  8
0
  6
CONTINUOUS
 62
     7
 10
259.1107289383
 20
314.6230608349
 30
0.0
  0
VERTEX
  5
1CC
  8
0
  6
CONTINUOUS
 62
     7
 10
258.8401712297
 20
315.2666641473
 30
0.0
  0
VERTEX
  5
1CD
  8
0
  6
CONTINUOUS
 62
     7
 10
258.9306302027
 20
315.9161492979
 30
0.0
  0
VERTEX
  5
1CE
  8
0
  6
CONTINUOUS
 62
     7
 10
259.3788364344
 20
316.5480422009
 30
0.0
  0
VERTEX
  5
1CF
  8
0
  6
CONTINUOUS
 62
     7
 10
260.1685905837
 20
317.1395046007
 30
0.0
  0
VERTEX
  5
1D0
  8
0
  6
CONTINUOUS
 62
     7
 10
261.271348878
 20
317.6691595049
 30
0.0
  0
VERTEX
  5
1D1
  8
0
  6
CONTINUOUS
 62
     7
 10
262.6472547593
 20
318.1178638053
 30
0.0
  0
VERTEX
  5
1D2
  8
0
  6
CONTINUOUS
 62
     7
 10
264.2465794042
 20
318.4694001595
 30
0.0
  0
VERTEX
  5
1D3
  8
0
  6
CONTINUOUS
 62
     7
 10
266.0115190531
 20
318.7110631276
 30
0.0
  0
VERTEX
  5
1D4
  8
0
  6
CONTINUOUS
 62
     7
 10
267.8782841885
 20
318.8341183804
 30
0.0
  0
VERTEX
  5
1D5
  8
0
  6
CONTINUOUS
 62
     7
 10
269.7794050546
 20
318.8341183804
 30
0.0
  0
VERTEX
  5
1D6
  8
0
  6
CONTINUOUS
 62
     7
 10
271.6461701899
 20
318.7110631276
 30
0.0
  0
VERTEX
  5
1D7
  8
0
  6
CONTINUOUS
 62
     7
 10
273.4111098388
 20
318.4694001595
 30
0.0
  0
VERTEX
  5
1D8
  8
0
  6
CONTINUOUS
 62
     7
 10
275.0104344837
 20
318.1178638053
 30
0.0
  0
VERTEX
  5
1D9
  8
0
  6
CONTINUOUS
 62
     7
 10
276.3863403651
 20
317.6691595049
 30
0.0
  0
VERTEX
  5
1DA
  8
0
  6
CONTINUOUS
 62
     7
 10
277.4890986594
 20
317.1395046007
 30
0.0
  0
VERTEX
  5
1DB
  8
0
  6
CONTINUOUS
 62
     7
 10
278.2788528087
 20
316.5480422009
 30
0.0
  0
VERTEX
  5
1DC
  8
0
  6
CONTINUOUS
 62
     7
 10
278.7270590403
 20
315.9161492979
 30
0.0
  0
VERTEX
  5
1DD
  8
0
  6
CONTINUOUS
 62
     7
 10
278.8175180133
 20
315.2666641473
 30
0.0
  0
VERTEX
  5
1DE
  8
0
  6
CONTINUOUS
 62
     7
 10
278.5469603048
 20
314.6230608349
 30
0.0
  0
VERTEX
  5
1DF
  8
0
  6
CONTINUOUS
 62
     7
 10
277.9251645751
 20
314.0086008612
 30
0.0
  0
VERTEX
  5
1E0
  8
0
  6
CONTINUOUS
 62
     7
 10
277.5768713903
 20
313.7723867899
 30
0.0
  0
SEQEND
  5
22F
  8
0
  6
CONTINUOUS
 62
     7
  0
POLYLINE
  5
AA
  8
0
  6
CONTINUOUS
 62
     7
 66
     1
 10
0.0
 20
0.0
 30
0.0
 70
   128
  0
VERTEX
  5
1E1
  8
0
  6
CONTINUOUS
 62
     7
 10
268.8288446215
 20
312.0820111472
 30
0.0
  0
VERTEX
  5
1E2
  8
0
  6
CONTINUOUS
 62
     7
 10
266.9998728526
 20
312.1436219705
 30
0.0
  0
VERTEX
  5
1E3
  8
0
  6
CONTINUOUS
 62
     7
 10
265.2411874431
 20
312.326086771
 30
0.0
  0
VERTEX
  5
1E4
  8
0
  6
CONTINUOUS
 62
     7
 10
263.620373687
 20
312.6223935287
 30
0.0
  0
VERTEX
  5
1E5
  8
0
  6
CONTINUOUS
 62
     7
 10
262.1997185479
 20
313.0211553411
 30
0.0
  0
VERTEX
  5
1E6
  8
0
  6
CONTINUOUS
 62
     7
 10
261.0338170062
 20
313.5070480154
 30
0.0
  0
VERTEX
  5
1E7
  8
0
  6
CONTINUOUS
 62
     7
 10
260.1674740042
 20
314.0613989686
 30
0.0
  0
VERTEX
  5
1E8
  8
0
  6
CONTINUOUS
 62
     7
 10
259.6339826177
 20
314.6629048044
 30
0.0
  0
VERTEX
  5
1E9
  8
0
  6
CONTINUOUS
 62
     7
 10
259.4538446215
 20
315.2884499909
 30
0.0
  0
VERTEX
  5
1EA
  8
0
  6
CONTINUOUS
 62
     7
 10
259.6339826177
 20
315.9139951775
 30
0.0
  0
VERTEX
  5
1EB
  8
0
  6
CONTINUOUS
 62
     7
 10
259.9344819162
 20
316.3019461728
 30
0.0
  0
SEQEND
  5
230
  8
0
  6
CONTINUOUS
 62
     7
  0
POLYLINE
  5
AB
  8
0
  6
CONTINUOUS
 62
     7
 66
     1
 10
0.0
 20
0.0
 30
0.0
 70
   128
  0
VERTEX
  5
1EC
  8
0
  6
CONTINUOUS
 62
     7
 10
277.7232073268
 20
316.3019461728
 30
0.0
  0
VERTEX
  5
1ED
  8
0
  6
CONTINUOUS
 62
     7
 10
278.0237066253
 20
315.9139951775
 30
0.0
  0
VERTEX
  5
1EE
  8
0
  6
CONTINUOUS
 62
     7
 10
278.2038446215
 20
315.2884499909
 30
0.0
  0
VERTEX
  5
1EF
  8
0
  6
CONTINUOUS
 62
     7
 10
278.0237066253
 20
314.6629048044
 30
0.0
  0
VERTEX
  5
1F0
  8
0
  6
CONTINUOUS
 62
     7
 10
277.4902152388
 20
314.0613989686
 30
0.0
  0
VERTEX
  5
1F1
  8
0
  6
CONTINUOUS
 62
     7
 10
276.6238722369
 20
313.5070480154
 30
0.0
  0
VERTEX
  5
1F2
  8
0
  6
CONTINUOUS
 62
     7
 10
275.4579706951
 20
313.0211553411
 30
0.0
  0
VERTEX
  5
1F3
  8
0
  6
CONTINUOUS
 62
     7
 10
274.0373155561
 20
312.6223935287
 30
0.0
  0
VERTEX
  5
1F4
  8
0
  6
CONTINUOUS
 62
     7
 10
272.4165017999
 20
312.326086771
 30
0.0
  0
VERTEX
  5
1F5
  8
0
  6
CONTINUOUS
 62
     7
 10
270.6578163904
 20
312.1436219705
 30
0.0
  0
VERTEX
  5
1F6
  8
0
  6
CONTINUOUS
 62
     7
 10
268.8288446215
 20
312.0820111472
 30
0.0
  0
SEQEND
  5
231
  8
0
  6
CONTINUOUS
 62
     7
  0
ARC
  5
AC
  8
0
  6
CONTINUOUS
 62
     7
 10
268.8288446215
 20
368.8148659836
 30
0.0
 40
10.0
 50
0.0
 51
180.0
  0
LINE
  5
AD
  8
0
  6
CONTINUOUS
 62
     7
 10
279.7457413513
 20
342.4886173752
 30
0.0
 11
278.8288446215
 21
342.1268536935
 31
0.0
  0
ARC
  5
AE
  8
0
  6
CONTINUOUS
 62
     7
 10
268.8288446215
 20
368.8148659836
 30
0.0
 40
28.5
 50
292.5226735859
 51
249.4590224625
  0
ARC
  5
AF
  8
0
  6
CONTINUOUS
 62
     8
 10
161.2295025447
 20
375.3148659859
 30
0.0
 40
2.800000000000058
 50
270.0
 51
319.4583981265
  0
ARC
  5
B0
  8
0
  6
CONTINUOUS
 62
     8
 10
168.8288446215
 20
368.8148659859
 30
0.0
 40
7.199999999999997
 50
220.5416018735
 51
139.4583981265
  0
ARC
  5
B1
  8
0
  6
CONTINUOUS
 62
     8
 10
161.2295025447
 20
362.3148659859
 30
0.0
 40
2.800000000000095
 50
40.5416018735
 51
90.0
  0
LINE
  5
B2
  8
0
  6
CONTINUOUS
 62
     8
 10
92.6288446215
 20
365.1148659859
 30
0.0
 11
161.2295025447
 21
365.1148659859
 31
0.0
  0
LINE
  5
B3
  8
0
  6
CONTINUOUS
 62
     8
 10
92.6288446215
 20
372.5148659859
 30
0.0
 11
92.6288446215
 21
365.1148659859
 31
0.0
  0
LINE
  5
B4
  8
0
  6
CONTINUOUS
 62
     8
 10
161.2295025447
 20
372.5148659859
 30
0.0
 11
92.6288446215
 21
372.5148659859
 31
0.0
  0
LINE
  5
B5
  8
0
  6
CONTINUOUS
 62
     8
 10
91.8288446215
 20
372.5148659859
 30
0.0
 11
92.6288446215
 21
372.5148659859
 31
0.0
  0
LINE
  5
B6
  8
0
  6
CONTINUOUS
 62
     8
 10
91.8288446215
 20
365.1148659859
 30
0.0
 11
92.6288446215
 21
365.1148659859
 31
0.0
  0
LINE
  5
B7
  8
0
  6
CONTINUOUS
 62
     8
 10
92.6288446215
 20
372.5148659859
 30
0.0
 11
92.6288446215
 21
373.3148659859
 31
0.0
  0
LINE
  5
B8
  8
0
  6
CONTINUOUS
 62
     8
 10
161.2295025447
 20
372.5148659859
 30
0.0
 11
161.2295025447
 21
373.3148659859
 31
0.0
  0
LINE
  5
B9
  8
0
  6
CONTINUOUS
 62
     8
 10
92.6288446215
 20
364.3148659859
 30
0.0
 11
92.6288446215
 21
365.1148659859
 31
0.0
  0
LINE
  5
BA
  8
0
  6
CONTINUOUS
 62
     8
 10
161.2295025447
 20
364.3148659859
 30
0.0
 11
161.2295025447
 21
365.1148659859
 31
0.0
  0
LINE
  5
BB
  8
0
  6
CONTINUOUS
 62
     8
 10
163.3573183262
 20
364.1348659859
 30
0.0
 11
162.7493709601
 21
363.6148659859
 31
0.0
  0
LINE
  5
BC
  8
0
  6
CONTINUOUS
 62
     8
 10
163.3573183262
 20
373.4948659859
 30
0.0
 11
162.7493709601
 21
374.0148659859
 31
0.0
  0
ARC
  5
BD
  8
0
  6
CONTINUOUS
 62
     8
 10
168.8288446215
 20
368.8148659859
 30
0.0
 40
8.5
 50
212.3133901998
 51
270.0
  0
ARC
  5
BE
  8
0
  6
CONTINUOUS
 62
     8
 10
168.8288446215
 20
368.8148659859
 30
0.0
 40
8.5
 50
270.0
 51
147.6866098003
  0
ARC
  5
BF
  8
0
  6
CONTINUOUS
 62
     8
 10
168.8288446215
 20
368.8148659859
 30
0.0
 40
27.70000000000001
 50
270.0
 51
170.6505853108
  0
ARC
  5
C0
  8
0
  6
CONTINUOUS
 62
     8
 10
168.8288446215
 20
368.8148659859
 30
0.0
 40
27.7
 50
189.3494146892
 51
270.0
  0
ARC
  5
C1
  8
0
  6
CONTINUOUS
 62
     8
 10
376.4281866983
 20
362.3148659859
 30
0.0
 40
2.800000000000015
 50
90.0
 51
139.4583981265
  0
LINE
  5
C2
  8
0
  6
CONTINUOUS
 62
     8
 10
376.4281866983
 20
365.1148659859
 30
0.0
 11
376.4281866983
 21
364.3148659859
 31
0.0
  0
LINE
  5
C3
  8
0
  6
CONTINUOUS
 62
     8
 10
374.3003709168
 20
364.1348659859
 30
0.0
 11
374.9083182829
 21
363.6148659859
 31
0.0
  0
ARC
  5
C4
  8
0
  6
CONTINUOUS
 62
     8
 10
376.4281866983
 20
375.3148659859
 30
0.0
 40
2.800000000000015
 50
220.5416018735
 51
270.0
  0
LINE
  5
C5
  8
0
  6
CONTINUOUS
 62
     8
 10
374.3003709168
 20
373.4948659859
 30
0.0
 11
374.9083182829
 21
374.0148659859
 31
0.0
  0
LINE
  5
C6
  8
0
  6
CONTINUOUS
 62
     8
 10
376.4281866983
 20
373.3148659859
 30
0.0
 11
376.4281866983
 21
372.5148659859
 31
0.0
  0
LINE
  5
C7
  8
0
  6
CONTINUOUS
 62
     8
 10
445.0288446215
 20
373.3148659859
 30
0.0
 11
445.0288446215
 21
372.5148659859
 31
0.0
  0
LINE
  5
C8
  8
0
  6
CONTINUOUS
 62
     8
 10
445.0288446215
 20
372.5148659859
 30
0.0
 11
376.4281866983
 21
372.5148659859
 31
0.0
  0
LINE
  5
C9
  8
0
  6
CONTINUOUS
 62
     8
 10
445.0288446215
 20
365.1148659859
 30
0.0
 11
445.0288446215
 21
364.3148659859
 31
0.0
  0
LINE
  5
CA
  8
0
  6
CONTINUOUS
 62
     8
 10
445.8288446215
 20
365.1148659859
 30
0.0
 11
445.0288446215
 21
365.1148659859
 31
0.0
  0
LINE
  5
CB
  8
0
  6
CONTINUOUS
 62
     8
 10
445.0288446215
 20
365.1148659859
 30
0.0
 11
445.0288446215
 21
372.5148659859
 31
0.0
  0
LINE
  5
CC
  8
0
  6
CONTINUOUS
 62
     8
 10
445.8288446215
 20
372.5148659859
 30
0.0
 11
445.0288446215
 21
372.5148659859
 31
0.0
  0
ARC
  5
CD
  8
0
  6
CONTINUOUS
 62
     8
 10
368.8288446215
 20
368.8148659859
 30
0.0
 40
7.200000000000061
 50
40.5416018735
 51
319.4583981265
  0
LINE
  5
CE
  8
0
  6
CONTINUOUS
 62
     8
 10
376.4281866983
 20
365.1148659859
 30
0.0
 11
445.0288446215
 21
365.1148659859
 31
0.0
  0
ARC
  5
CF
  8
0
  6
CONTINUOUS
 62
     8
 10
368.8288446215
 20
368.8148659859
 30
0.0
 40
8.500000000000057
 50
32.3133901999
 51
90.0
  0
ARC
  5
D0
  8
0
  6
CONTINUOUS
 62
     8
 10
368.8288446215
 20
368.8148659859
 30
0.0
 40
8.500000000000057
 50
90.0
 51
327.6866098002
  0
ARC
  5
D1
  8
0
  6
CONTINUOUS
 62
     8
 10
368.8288446215
 20
368.8148659859
 30
0.0
 40
27.70000000000005
 50
90.0
 51
350.6505853108
  0
ARC
  5
D2
  8
0
  6
CONTINUOUS
 62
     8
 10
368.8288446215
 20
368.8148659859
 30
0.0
 40
27.70000000000005
 50
9.3494146892
 51
90.0
  0
ARC
  5
D3
  8
0
  6
CONTINUOUS
 62
     8
 10
268.8288446215
 20
368.8148659836
 30
0.0
 40
10.79999999999998
 50
337.8083934337
 51
202.1916065663
  0
ARC
  5
D4
  8
0
  6
CONTINUOUS
 62
     8
 10
268.8288446215
 20
368.8148659836
 30
0.0
 40
27.7
 50
291.1622875528
 51
248.8377124472
  0
LINE
  5
D5
  8
0
  6
CONTINUOUS
 62
     7
 10
140.3288446215
 20
259.2818815073
 30
0.0
 11
140.3288446215
 21
252.0818815073
 31
0.0
  0
LINE
  5
D6
  8
0
  6
CONTINUOUS
 62
     7
 10
197.3288446215
 20
252.0818815073
 30
0.0
 11
197.3288446215
 21
259.2818815073
 31
0.0
  0
ARC
  5
D7
  8
0
  6
CONTINUOUS
 62
     7
 10
196.5288446215
 20
252.0818815073
 30
0.0
 40
0.8000000000000114
 50
270.0
 51
0.0
  0
ARC
  5
D8
  8
0
  6
CONTINUOUS
 62
     7
 10
141.1288446215
 20
252.0818815073
 30
0.0
 40
0.8000000000000114
 50
180.0
 51
270.0
  0
ARC
  5
D9
  8
0
  6
CONTINUOUS
 62
     7
 10
177.3288446215
 20
250.7818815073
 30
0.0
 40
0.5
 50
90.0
 51
180.0
  0
ARC
  5
DA
  8
0
  6
CONTINUOUS
 62
     7
 10
160.3288446215
 20
250.7818815073
 30
0.0
 40
0.5
 50
0.0
 51
90.0
  0
LINE
  5
DB
  8
0
  6
CONTINUOUS
 62
     7
 10
160.8288446215
 20
250.7818815073
 30
0.0
 11
160.8288446215
 21
224.5818815073
 31
0.0
  0
LINE
  5
DC
  8
0
  6
CONTINUOUS
 62
     7
 10
176.8288446215
 20
224.5818815073
 30
0.0
 11
176.8288446215
 21
250.7818815073
 31
0.0
  0
ARC
  5
DD
  8
0
  6
CONTINUOUS
 62
     7
 10
176.5288446215
 20
224.5818815073
 30
0.0
 40
0.2999999999999829
 50
270.0
 51
0.0
  0
ARC
  5
DE
  8
0
  6
CONTINUOUS
 62
     7
 10
161.1288446215
 20
224.5818815073
 30
0.0
 40
0.2999999999999829
 50
180.0
 51
270.0
  0
ARC
  5
DF
  8
0
  6
CONTINUOUS
 62
     7
 10
161.1288446215
 20
223.6818815073
 30
0.0
 40
0.2999999999999829
 50
90.0
 51
180.0
  0
ARC
  5
E0
  8
0
  6
CONTINUOUS
 62
     7
 10
176.5288446215
 20
223.6818815073
 30
0.0
 40
0.2999999999999545
 50
0.0
 51
90.0
  0
LINE
  5
E1
  8
0
  6
CONTINUOUS
 62
     7
 10
160.8288446215
 20
223.6818815073
 30
0.0
 11
160.8288446215
 21
213.9818815073
 31
0.0
  0
LINE
  5
E2
  8
0
  6
CONTINUOUS
 62
     7
 10
176.8288446215
 20
204.7818815073
 30
0.0
 11
176.8288446215
 21
223.6818815073
 31
0.0
  0
ARC
  5
E3
  8
0
  6
CONTINUOUS
 62
     7
 10
176.0288446215
 20
204.7818815073
 30
0.0
 40
0.799999999999983
 50
270.0
 51
0.0
  0
ARC
  5
E4
  8
0
  6
CONTINUOUS
 62
     7
 10
174.9288446215
 20
223.9818815073
 30
0.0
 40
0.3000000000000398
 50
90.0
 51
180.0
  0
ARC
  5
E5
  8
0
  6
CONTINUOUS
 62
     7
 10
162.7288446215
 20
223.9818815073
 30
0.0
 40
0.3000000000000398
 50
0.0
 51
90.0
  0
ARC
  5
E6
  8
0
  6
CONTINUOUS
 62
     7
 10
159.8288446215
 20
213.9818815073
 30
0.0
 40
1.0
 50
270.0
 51
0.0
  0
LINE
  5
E7
  8
0
  6
CONTINUOUS
 62
     7
 10
340.3288446215
 20
259.2818815073
 30
0.0
 11
340.3288446215
 21
252.0818815073
 31
0.0
  0
LINE
  5
E8
  8
0
  6
CONTINUOUS
 62
     7
 10
397.3288446215
 20
252.0818815073
 30
0.0
 11
397.3288446215
 21
259.2818815073
 31
0.0
  0
ARC
  5
E9
  8
0
  6
CONTINUOUS
 62
     7
 10
396.5288446215
 20
252.0818815073
 30
0.0
 40
0.8000000000000114
 50
270.0
 51
0.0
  0
ARC
  5
EA
  8
0
  6
CONTINUOUS
 62
     7
 10
341.1288446215
 20
252.0818815073
 30
0.0
 40
0.8000000000000682
 50
180.0
 51
270.0
  0
ARC
  5
EB
  8
0
  6
CONTINUOUS
 62
     7
 10
377.3288446215
 20
250.7818815073
 30
0.0
 40
0.5
 50
90.0
 51
180.0
  0
ARC
  5
EC
  8
0
  6
CONTINUOUS
 62
     7
 10
360.3288446215
 20
250.7818815073
 30
0.0
 40
0.5
 50
0.0
 51
90.0
  0
ARC
  5
ED
  8
0
  6
CONTINUOUS
 62
     7
 10
361.1288446215
 20
223.6818815073
 30
0.0
 40
0.2999999999999829
 50
90.0
 51
180.0
  0
ARC
  5
EE
  8
0
  6
CONTINUOUS
 62
     7
 10
376.5288446215
 20
223.6818815073
 30
0.0
 40
0.3000000000000114
 50
0.0
 51
90.0
  0
LINE
  5
EF
  8
0
  6
CONTINUOUS
 62
     7
 10
360.8288446215
 20
223.6818815073
 30
0.0
 11
360.8288446215
 21
204.7818815073
 31
0.0
  0
LINE
  5
F0
  8
0
  6
CONTINUOUS
 62
     7
 10
376.8288446215
 20
213.9818815073
 30
0.0
 11
376.8288446215
 21
223.6818815073
 31
0.0
  0
ARC
  5
F1
  8
0
  6
CONTINUOUS
 62
     7
 10
361.6288446215
 20
204.7818815073
 30
0.0
 40
0.799999999999983
 50
180.0
 51
270.0
  0
LINE
  5
F2
  8
0
  6
CONTINUOUS
 62
     7
 10
360.8288446215
 20
250.7818815073
 30
0.0
 11
360.8288446215
 21
224.5818815073
 31
0.0
  0
LINE
  5
F3
  8
0
  6
CONTINUOUS
 62
     7
 10
376.8288446215
 20
224.5818815073
 30
0.0
 11
376.8288446215
 21
250.7818815073
 31
0.0
  0
ARC
  5
F4
  8
0
  6
CONTINUOUS
 62
     7
 10
376.5288446215
 20
224.5818815073
 30
0.0
 40
0.3000000000000114
 50
270.0
 51
0.0
  0
ARC
  5
F5
  8
0
  6
CONTINUOUS
 62
     7
 10
361.1288446215
 20
224.5818815073
 30
0.0
 40
0.3000000000000114
 50
180.0
 51
270.0
  0
ARC
  5
F6
  8
0
  6
CONTINUOUS
 62
     7
 10
374.9288446215
 20
223.9818815073
 30
0.0
 40
0.3000000000000398
 50
90.0
 51
180.0
  0
ARC
  5
F7
  8
0
  6
CONTINUOUS
 62
     7
 10
362.7288446215
 20
223.9818815073
 30
0.0
 40
0.3000000000000398
 50
0.0
 51
90.0
  0
ARC
  5
F8
  8
0
  6
CONTINUOUS
 62
     7
 10
377.8288446215
 20
213.9818815073
 30
0.0
 40
1.0
 50
180.0
 51
270.0
  0
LINE
  5
F9
  8
0
  6
CONTINUOUS
 62
     7
 10
240.3288446215
 20
259.2818815073
 30
0.0
 11
240.3288446215
 21
252.0818815073
 31
0.0
  0
LINE
  5
FA
  8
0
  6
CONTINUOUS
 62
     7
 10
297.3288446215
 20
252.0818815073
 30
0.0
 11
297.3288446215
 21
259.2818815073
 31
0.0
  0
ARC
  5
FB
  8
0
  6
CONTINUOUS
 62
     7
 10
241.1288446215
 20
252.0818815073
 30
0.0
 40
0.8000000000000398
 50
180.0
 51
270.0
  0
ARC
  5
FC
  8
0
  6
CONTINUOUS
 62
     7
 10
296.5288446215
 20
252.0818815073
 30
0.0
 40
0.8000000000000114
 50
270.0
 51
0.0
  0
ARC
  5
FD
  8
0
  6
CONTINUOUS
 62
     7
 10
258.0288446215
 20
250.4818815073
 30
0.0
 40
0.8000000000000114
 50
0.0
 51
90.0
  0
ARC
  5
FE
  8
0
  6
CONTINUOUS
 62
     7
 10
279.6288446215
 20
250.4818815073
 30
0.0
 40
0.8000000000000114
 50
90.0
 51
180.0
  0
LINE
  5
FF
  8
0
  6
CONTINUOUS
 62
     7
 10
258.8288446215
 20
250.4818815073
 30
0.0
 11
258.8288446215
 21
224.5818815073
 31
0.0
  0
LINE
  5
100
  8
0
  6
CONTINUOUS
 62
     7
 10
278.8288446215
 20
224.5818815073
 30
0.0
 11
278.8288446215
 21
250.4818815073
 31
0.0
  0
ARC
  5
101
  8
0
  6
CONTINUOUS
 62
     7
 10
259.1288446215
 20
224.5818815073
 30
0.0
 40
0.3000000000000114
 50
180.0
 51
270.0
  0
ARC
  5
102
  8
0
  6
CONTINUOUS
 62
     7
 10
278.5288446215
 20
224.5818815073
 30
0.0
 40
0.3000000000000114
 50
270.0
 51
0.0
  0
LINE
  5
103
  8
0
  6
CONTINUOUS
 62
     7
 10
258.8288446215
 20
223.8818815073
 30
0.0
 11
258.8288446215
 21
138.0610308512
 31
0.0
  0
LINE
  5
104
  8
0
  6
CONTINUOUS
 62
     7
 10
278.8288446215
 20
138.0610308512
 30
0.0
 11
278.8288446215
 21
223.8818815073
 31
0.0
  0
ARC
  5
105
  8
0
  6
CONTINUOUS
 62
     7
 10
278.4288446215
 20
223.8818815073
 30
0.0
 40
0.4000000000000341
 50
0.0
 51
90.0
  0
ARC
  5
106
  8
0
  6
CONTINUOUS
 62
     7
 10
259.2288446215
 20
223.8818815073
 30
0.0
 40
0.4000000000000057
 50
90.0
 51
180.0
  0
LINE
  5
107
  8
0
  6
CONTINUOUS
 62
     7
 10
258.8288446215
 20
138.0610308512
 30
0.0
 11
258.8288446215
 21
85.4382440871
 31
0.0
  0
LINE
  5
108
  8
0
  6
CONTINUOUS
 62
     7
 10
278.8288446215
 20
85.4382440871
 30
0.0
 11
278.8288446215
 21
138.0610308512
 31
0.0
  0
LINE
  5
109
  8
0
  6
CONTINUOUS
 62
     7
 10
278.8288446215
 20
79.4186895646
 30
0.0
 11
278.8288446215
 21
85.4382440871
 31
0.0
  0
LINE
  5
10A
  8
0
  6
CONTINUOUS
 62
     7
 10
258.8288446215
 20
85.4382440871
 30
0.0
 11
258.8288446215
 21
79.4186895646
 31
0.0
  0
LINE
  5
10B
  8
0
  6
CONTINUOUS
 62
     7
 10
168.8288446215
 20
259.2818815073
 30
0.0
 11
197.3288446215
 21
259.2818815073
 31
0.0
  0
LINE
  5
10C
  8
0
  6
CONTINUOUS
 62
     7
 10
140.3288446215
 20
259.2818815073
 30
0.0
 11
168.8288446215
 21
259.2818815073
 31
0.0
  0
LINE
  5
10D
  8
0
  6
CONTINUOUS
 62
     7
 10
196.5288446215
 20
251.2818815073
 30
0.0
 11
141.1288446215
 21
251.2818815073
 31
0.0
  0
LINE
  5
10E
  8
0
  6
CONTINUOUS
 62
     7
 10
176.5288446215
 20
224.2818815073
 30
0.0
 11
161.1288446215
 21
224.2818815073
 31
0.0
  0
LINE
  5
10F
  8
0
  6
CONTINUOUS
 62
     7
 10
168.8288446215
 20
223.9818815073
 30
0.0
 11
176.5288446215
 21
223.9818815073
 31
0.0
  0
LINE
  5
110
  8
0
  6
CONTINUOUS
 62
     7
 10
161.1288446215
 20
223.9818815073
 30
0.0
 11
168.8288446215
 21
223.9818815073
 31
0.0
  0
LINE
  5
111
  8
0
  6
CONTINUOUS
 62
     7
 10
161.735890371
 20
213.9818815073
 30
0.0
 11
162.7493709601
 21
213.9818815073
 31
0.0
  0
LINE
  5
112
  8
0
  6
CONTINUOUS
 62
     7
 10
162.7493709601
 20
213.9818815073
 30
0.0
 11
162.7493709601
 21
212.1818815073
 31
0.0
  0
LINE
  5
113
  8
0
  6
CONTINUOUS
 62
     7
 10
176.0288446215
 20
203.9818815073
 30
0.0
 11
163.3573183262
 21
203.9818815073
 31
0.0
  0
ARC
  5
114
  8
0
  6
CONTINUOUS
 62
     7
 10
160.6603589485
 20
214.0596252694
 30
0.0
 40
1.078337578512773
 50
268.0984564408
 51
355.8656199576
  0
LINE
  5
115
  8
0
  6
CONTINUOUS
 62
     7
 10
162.7493709601
 20
212.1818815073
 30
0.0
 11
161.2295025447
 21
212.1818815073
 31
0.0
  0
LINE
  5
116
  8
0
  6
CONTINUOUS
 62
     7
 10
160.6245774391
 20
212.1818815073
 30
0.0
 11
161.2295025447
 21
212.1818815073
 31
0.0
  0
LINE
  5
117
  8
0
  6
CONTINUOUS
 62
     7
 10
163.3573183262
 20
203.9818815073
 30
0.0
 11
161.2295025447
 21
203.9818815073
 31
0.0
  0
LINE
  5
118
  8
0
  6
CONTINUOUS
 62
     7
 10
92.6288446215
 20
212.9818815073
 30
0.0
 11
160.6245774391
 21
212.9818815073
 31
0.0
  0
ARC
  5
119
  8
0
  6
CONTINUOUS
 62
     7
 10
92.6288446215
 20
212.1818815073
 30
0.0
 40
0.7999999999999972
 50
90.0
 51
180.0
  0
LINE
  5
11A
  8
0
  6
CONTINUOUS
 62
     7
 10
91.8288446215
 20
204.7818815073
 30
0.0
 11
91.8288446215
 21
212.1818815073
 31
0.0
  0
LINE
  5
11B
  8
0
  6
CONTINUOUS
 62
     7
 10
161.2295025447
 20
203.9818815073
 30
0.0
 11
92.6288446215
 21
203.9818815073
 31
0.0
  0
ARC
  5
11C
  8
0
  6
CONTINUOUS
 62
     7
 10
92.6288446215
 20
204.7818815073
 30
0.0
 40
0.7999999999999972
 50
180.0
 51
270.0
  0
LINE
  5
11D
  8
0
  6
CONTINUOUS
 62
     7
 10
340.3288446215
 20
259.2818815073
 30
0.0
 11
397.3288446215
 21
259.2818815073
 31
0.0
  0
LINE
  5
11E
  8
0
  6
CONTINUOUS
 62
     7
 10
368.8288446215
 20
251.2818815073
 30
0.0
 11
341.1288446215
 21
251.2818815073
 31
0.0
  0
LINE
  5
11F
  8
0
  6
CONTINUOUS
 62
     7
 10
396.5288446215
 20
251.2818815073
 30
0.0
 11
368.8288446215
 21
251.2818815073
 31
0.0
  0
LINE
  5
120
  8
0
  6
CONTINUOUS
 62
     7
 10
361.1288446215
 20
223.9818815073
 30
0.0
 11
376.5288446215
 21
223.9818815073
 31
0.0
  0
LINE
  5
121
  8
0
  6
CONTINUOUS
 62
     7
 10
374.9083182829
 20
213.9818815073
 30
0.0
 11
375.921798872
 21
213.9818815073
 31
0.0
  0
LINE
  5
122
  8
0
  6
CONTINUOUS
 62
     7
 10
374.9083182829
 20
212.1818815073
 30
0.0
 11
374.9083182829
 21
213.9818815073
 31
0.0
  0
LINE
  5
123
  8
0
  6
CONTINUOUS
 62
     7
 10
374.3003709168
 20
203.9818815073
 30
0.0
 11
361.6288446215
 21
203.9818815073
 31
0.0
  0
LINE
  5
124
  8
0
  6
CONTINUOUS
 62
     7
 10
368.8288446215
 20
224.2818815073
 30
0.0
 11
361.1288446215
 21
224.2818815073
 31
0.0
  0
LINE
  5
125
  8
0
  6
CONTINUOUS
 62
     7
 10
376.5288446215
 20
224.2818815073
 30
0.0
 11
368.8288446215
 21
224.2818815073
 31
0.0
  0
LINE
  5
126
  8
0
  6
CONTINUOUS
 62
     7
 10
376.4281866983
 20
212.1818815073
 30
0.0
 11
377.0331118039
 21
212.1818815073
 31
0.0
  0
LINE
  5
127
  8
0
  6
CONTINUOUS
 62
     7
 10
376.4281866983
 20
212.1818815073
 30
0.0
 11
374.9083182829
 21
212.1818815073
 31
0.0
  0
ARC
  5
128
  8
0
  6
CONTINUOUS
 62
     7
 10
376.9973302945
 20
214.0596252694
 30
0.0
 40
1.07833757851564
 50
184.1343800425
 51
271.9015435592
  0
LINE
  5
129
  8
0
  6
CONTINUOUS
 62
     7
 10
376.4281866983
 20
203.9818815073
 30
0.0
 11
374.3003709168
 21
203.9818815073
 31
0.0
  0
LINE
  5
12A
  8
0
  6
CONTINUOUS
 62
     7
 10
377.0331118039
 20
212.9818815073
 30
0.0
 11
445.0288446215
 21
212.9818815073
 31
0.0
  0
ARC
  5
12B
  8
0
  6
CONTINUOUS
 62
     7
 10
445.0288446215
 20
212.1818815073
 30
0.0
 40
0.8000000000000114
 50
0.0
 51
90.0
  0
LINE
  5
12C
  8
0
  6
CONTINUOUS
 62
     7
 10
445.8288446215
 20
212.1818815073
 30
0.0
 11
445.8288446215
 21
204.7818815073
 31
0.0
  0
LINE
  5
12D
  8
0
  6
CONTINUOUS
 62
     7
 10
445.0288446215
 20
203.9818815073
 30
0.0
 11
376.4281866983
 21
203.9818815073
 31
0.0
  0
ARC
  5
12E
  8
0
  6
CONTINUOUS
 62
     7
 10
445.0288446215
 20
204.7818815073
 30
0.0
 40
0.8000000000000114
 50
270.0
 51
0.0
  0
LINE
  5
12F
  8
0
  6
CONTINUOUS
 62
     7
 10
240.3288446215
 20
259.2818815073
 30
0.0
 11
297.3288446215
 21
259.2818815073
 31
0.0
  0
LINE
  5
130
  8
0
  6
CONTINUOUS
 62
     7
 10
296.5288446215
 20
251.2818815073
 30
0.0
 11
241.1288446215
 21
251.2818815073
 31
0.0
  0
LINE
  5
131
  8
0
  6
CONTINUOUS
 62
     7
 10
278.5288446215
 20
224.2818815073
 30
0.0
 11
259.1288446215
 21
224.2818815073
 31
0.0
  0
POLYLINE
  5
132
  8
0
  6
CONTINUOUS
 62
     7
 66
     1
 10
0.0
 20
0.0
 30
0.0
 70
   128
  0
VERTEX
  5
1F7
  8
0
  6
CONTINUOUS
 62
     7
 10
258.8288446215
 20
79.4186895646
 30
0.0
  0
VERTEX
  5
1F8
  8
0
  6
CONTINUOUS
 62
     7
 10
258.9306302027
 20
78.0813675311
 30
0.0
  0
VERTEX
  5
1F9
  8
0
  6
CONTINUOUS
 62
     7
 10
259.3788364344
 20
76.3452560484
 30
0.0
  0
VERTEX
  5
1FA
  8
0
  6
CONTINUOUS
 62
     7
 10
260.1685905837
 20
74.7202264607
 30
0.0
  0
VERTEX
  5
1FB
  8
0
  6
CONTINUOUS
 62
     7
 10
261.271348878
 20
73.2650115713
 30
0.0
  0
VERTEX
  5
1FC
  8
0
  6
CONTINUOUS
 62
     7
 10
262.6472547593
 20
72.0322066379
 30
0.0
  0
VERTEX
  5
1FD
  8
0
  6
CONTINUOUS
 62
     7
 10
264.2465794042
 20
71.0663684427
 30
0.0
  0
VERTEX
  5
1FE
  8
0
  6
CONTINUOUS
 62
     7
 10
266.0115190531
 20
70.4024048946
 30
0.0
  0
VERTEX
  5
1FF
  8
0
  6
CONTINUOUS
 62
     7
 10
267.8782841885
 20
70.0643133662
 30
0.0
  0
VERTEX
  5
200
  8
0
  6
CONTINUOUS
 62
     7
 10
269.7794050546
 20
70.0643133662
 30
0.0
  0
VERTEX
  5
201
  8
0
  6
CONTINUOUS
 62
     7
 10
271.6461701899
 20
70.4024048946
 30
0.0
  0
VERTEX
  5
202
  8
0
  6
CONTINUOUS
 62
     7
 10
273.4111098388
 20
71.0663684427
 30
0.0
  0
VERTEX
  5
203
  8
0
  6
CONTINUOUS
 62
     7
 10
275.0104344837
 20
72.0322066379
 30
0.0
  0
VERTEX
  5
204
  8
0
  6
CONTINUOUS
 62
     7
 10
276.3863403651
 20
73.2650115713
 30
0.0
  0
VERTEX
  5
205
  8
0
  6
CONTINUOUS
 62
     7
 10
277.4890986594
 20
74.7202264607
 30
0.0
  0
VERTEX
  5
206
  8
0
  6
CONTINUOUS
 62
     7
 10
278.2788528087
 20
76.3452560484
 30
0.0
  0
VERTEX
  5
207
  8
0
  6
CONTINUOUS
 62
     7
 10
278.7270590403
 20
78.0813675311
 30
0.0
  0
VERTEX
  5
208
  8
0
  6
CONTINUOUS
 62
     7
 10
278.8288446215
 20
79.4186895646
 30
0.0
  0
SEQEND
  5
232
  8
0
  6
CONTINUOUS
 62
     7
  0
LINE
  5
133
  8
0
  6
CONTINUOUS
 62
     8
 10
160.8288446215
 20
213.9818815073
 30
0.0
 11
161.735890371
 21
213.9818815073
 31
0.0
  0
LINE
  5
134
  8
0
  6
CONTINUOUS
 62
     8
 10
162.7493709601
 20
204.7818815073
 30
0.0
 11
176.8288446215
 21
204.7818815073
 31
0.0
  0
LINE
  5
135
  8
0
  6
CONTINUOUS
 62
     8
 10
162.7493709601
 20
212.1818815073
 30
0.0
 11
162.7493709601
 21
204.7818815073
 31
0.0
  0
ARC
  5
136
  8
0
  6
CONTINUOUS
 62
     8
 10
163.4685121627
 20
204.6973815073
 30
0.0
 40
0.7240886128538092
 50
173.2984027432
 51
261.1664861355
  0
LINE
  5
137
  8
0
  6
CONTINUOUS
 62
     8
 10
161.2295025447
 20
204.7818815073
 30
0.0
 11
162.7493709601
 21
204.7818815073
 31
0.0
  0
LINE
  5
138
  8
0
  6
CONTINUOUS
 62
     8
 10
161.2295025447
 20
204.7818815073
 30
0.0
 11
161.2295025447
 21
212.1818815073
 31
0.0
  0
LINE
  5
139
  8
0
  6
CONTINUOUS
 62
     8
 10
161.2295025447
 20
203.9818815073
 30
0.0
 11
161.2295025447
 21
204.7818815073
 31
0.0
  0
LINE
  5
13A
  8
0
  6
CONTINUOUS
 62
     8
 10
160.6245774391
 20
212.1818815073
 30
0.0
 11
92.6288446215
 21
212.1818815073
 31
0.0
  0
LINE
  5
13B
  8
0
  6
CONTINUOUS
 62
     8
 10
92.6288446215
 20
212.9818815073
 30
0.0
 11
92.6288446215
 21
212.1818815073
 31
0.0
  0
LINE
  5
13C
  8
0
  6
CONTINUOUS
 62
     8
 10
92.6288446215
 20
204.7818815073
 30
0.0
 11
161.2295025447
 21
204.7818815073
 31
0.0
  0
LINE
  5
13D
  8
0
  6
CONTINUOUS
 62
     8
 10
92.6288446215
 20
212.1818815073
 30
0.0
 11
92.6288446215
 21
204.7818815073
 31
0.0
  0
LINE
  5
13E
  8
0
  6
CONTINUOUS
 62
     8
 10
91.8288446215
 20
212.1818815073
 30
0.0
 11
92.6288446215
 21
212.1818815073
 31
0.0
  0
LINE
  5
13F
  8
0
  6
CONTINUOUS
 62
     8
 10
91.8288446215
 20
204.7818815073
 30
0.0
 11
92.6288446215
 21
204.7818815073
 31
0.0
  0
LINE
  5
140
  8
0
  6
CONTINUOUS
 62
     8
 10
92.6288446215
 20
203.9818815073
 30
0.0
 11
92.6288446215
 21
204.7818815073
 31
0.0
  0
LINE
  5
141
  8
0
  6
CONTINUOUS
 62
     8
 10
375.921798872
 20
213.9818815073
 30
0.0
 11
376.8288446215
 21
213.9818815073
 31
0.0
  0
LINE
  5
142
  8
0
  6
CONTINUOUS
 62
     8
 10
374.9083182829
 20
204.7818815073
 30
0.0
 11
374.9083182829
 21
212.1818815073
 31
0.0
  0
LINE
  5
143
  8
0
  6
CONTINUOUS
 62
     8
 10
360.8288446215
 20
204.7818815073
 30
0.0
 11
374.9083182829
 21
204.7818815073
 31
0.0
  0
ARC
  5
144
  8
0
  6
CONTINUOUS
 62
     8
 10
374.1891770804
 20
204.6973815073
 30
0.0
 40
0.7240886128534006
 50
278.8335138645
 51
6.7015972568
  0
LINE
  5
145
  8
0
  6
CONTINUOUS
 62
     8
 10
374.9083182829
 20
204.7818815073
 30
0.0
 11
376.4281866983
 21
204.7818815073
 31
0.0
  0
LINE
  5
146
  8
0
  6
CONTINUOUS
 62
     8
 10
376.4281866983
 20
212.1818815073
 30
0.0
 11
376.4281866983
 21
204.7818815073
 31
0.0
  0
LINE
  5
147
  8
0
  6
CONTINUOUS
 62
     8
 10
376.4281866983
 20
204.7818815073
 30
0.0
 11
376.4281866983
 21
203.9818815073
 31
0.0
  0
LINE
  5
148
  8
0
  6
CONTINUOUS
 62
     8
 10
445.0288446215
 20
212.9818815073
 30
0.0
 11
445.0288446215
 21
212.1818815073
 31
0.0
  0
LINE
  5
149
  8
0
  6
CONTINUOUS
 62
     8
 10
445.0288446215
 20
212.1818815073
 30
0.0
 11
377.0331118039
 21
212.1818815073
 31
0.0
  0
LINE
  5
14A
  8
0
  6
CONTINUOUS
 62
     8
 10
445.0288446215
 20
204.7818815073
 30
0.0
 11
445.0288446215
 21
212.1818815073
 31
0.0
  0
LINE
  5
14B
  8
0
  6
CONTINUOUS
 62
     8
 10
376.4281866983
 20
204.7818815073
 30
0.0
 11
445.0288446215
 21
204.7818815073
 31
0.0
  0
LINE
  5
14C
  8
0
  6
CONTINUOUS
 62
     8
 10
445.0288446215
 20
212.1818815073
 30
0.0
 11
445.8288446215
 21
212.1818815073
 31
0.0
  0
LINE
  5
14D
  8
0
  6
CONTINUOUS
 62
     8
 10
445.0288446215
 20
204.7818815073
 30
0.0
 11
445.8288446215
 21
204.7818815073
 31
0.0
  0
LINE
  5
14E
  8
0
  6
CONTINUOUS
 62
     8
 10
445.0288446215
 20
204.7818815073
 30
0.0
 11
445.0288446215
 21
203.9818815073
 31
0.0
  0
POLYLINE
  5
14F
  8
0
  6
CONTINUOUS
 62
     8
 66
     1
 10
0.0
 20
0.0
 30
0.0
 70
   128
  0
VERTEX
  5
209
  8
0
  6
CONTINUOUS
 62
     8
 10
258.8288446215
 20
85.4382440871
 30
0.0
  0
VERTEX
  5
20A
  8
0
  6
CONTINUOUS
 62
     8
 10
259.0095576489
 20
83.6598641091
 30
0.0
  0
VERTEX
  5
20B
  8
0
  6
CONTINUOUS
 62
     8
 10
259.5451652914
 20
81.9457594171
 30
0.0
  0
VERTEX
  5
20C
  8
0
  6
CONTINUOUS
 62
     8
 10
260.4163092932
 20
80.3578822206
 30
0.0
  0
VERTEX
  5
20D
  8
0
  6
CONTINUOUS
 62
     8
 10
261.5915042405
 20
78.9536225387
 30
0.0
  0
VERTEX
  5
20E
  8
0
  6
CONTINUOUS
 62
     8
 10
263.0282755258
 20
77.783733975
 30
0.0
  0
VERTEX
  5
20F
  8
0
  6
CONTINUOUS
 62
     8
 10
264.6746944915
 20
76.8904993505
 30
0.0
  0
VERTEX
  5
210
  8
0
  6
CONTINUOUS
 62
     8
 10
266.4712552664
 20
76.3062024917
 30
0.0
  0
VERTEX
  5
211
  8
0
  6
CONTINUOUS
 62
     8
 10
268.3530254633
 20
76.0519614094
 30
0.0
  0
VERTEX
  5
212
  8
0
  6
CONTINUOUS
 62
     8
 10
270.2519930042
 20
76.1369650388
 30
0.0
  0
VERTEX
  5
213
  8
0
  6
CONTINUOUS
 62
     8
 10
272.0995242547
 20
76.5581411273
 30
0.0
  0
VERTEX
  5
214
  8
0
  6
CONTINUOUS
 62
     8
 10
273.8288446215
 20
77.3002672737
 30
0.0
  0
VERTEX
  5
215
  8
0
  6
CONTINUOUS
 62
     8
 10
275.377451961
 20
78.3365211053
 30
0.0
  0
VERTEX
  5
216
  8
0
  6
CONTINUOUS
 62
     8
 10
276.6893755689
 20
79.6294497089
 30
0.0
  0
VERTEX
  5
217
  8
0
  6
CONTINUOUS
 62
     8
 10
277.7171991081
 20
81.132323276
 30
0.0
  0
VERTEX
  5
218
  8
0
  6
CONTINUOUS
 62
     8
 10
278.4237743577
 20
82.7908240402
 30
0.0
  0
VERTEX
  5
219
  8
0
  6
CONTINUOUS
 62
     8
 10
278.7835638472
 20
84.5450094626
 30
0.0
  0
VERTEX
  5
21A
  8
0
  6
CONTINUOUS
 62
     8
 10
278.8288446215
 20
85.4382440871
 30
0.0
  0
SEQEND
  5
233
  8
0
  6
CONTINUOUS
 62
     8
  0
LINE
  5
150
  8
0
  6
CONTINUOUS
 62
     7
 10
513.7370029549
 20
340.3148659859
 30
0.0
 11
520.9370029549
 21
340.3148659859
 31
0.0
  0
LINE
  5
151
  8
0
  6
CONTINUOUS
 62
     7
 10
520.9370029549
 20
397.3148659859
 30
0.0
 11
513.7370029549
 21
397.3148659859
 31
0.0
  0
ARC
  5
152
  8
0
  6
CONTINUOUS
 62
     7
 10
520.9370029549
 20
396.5148659859
 30
0.0
 40
0.8000000000000114
 50
0.0
 51
90.0
  0
ARC
  5
153
  8
0
  6
CONTINUOUS
 62
     7
 10
520.9370029549
 20
341.1148659859
 30
0.0
 40
0.7999999999999545
 50
270.0
 51
0.0
  0
LINE
  5
154
  8
0
  6
CONTINUOUS
 62
     7
 10
560.9388056699
 20
364.3071814716
 30
0.0
 11
560.8935007651
 21
364.3148659859
 31
0.0
  0
LINE
  5
155
  8
0
  6
CONTINUOUS
 62
     7
 10
560.8935005948
 20
373.3148659859
 30
0.0
 11
560.9388057429
 21
373.3225505429
 31
0.0
  0
ARC
  5
156
  8
0
  6
CONTINUOUS
 62
     7
 10
522.2370029549
 20
377.3148659859
 30
0.0
 40
0.5
 50
180.0
 51
270.0
  0
ARC
  5
157
  8
0
  6
CONTINUOUS
 62
     7
 10
522.2370029549
 20
360.3148659859
 30
0.0
 40
0.5
 50
90.0
 51
180.0
  0
LINE
  5
158
  8
0
  6
CONTINUOUS
 62
     7
 10
549.3370029549
 20
360.8148659859
 30
0.0
 11
568.2370029549
 21
360.8148659859
 31
0.0
  0
LINE
  5
159
  8
0
  6
CONTINUOUS
 62
     7
 10
568.2370029549
 20
376.8148659859
 30
0.0
 11
549.3370029549
 21
376.8148659859
 31
0.0
  0
LINE
  5
15A
  8
0
  6
CONTINUOUS
 62
     7
 10
522.2370029549
 20
360.8148659859
 30
0.0
 11
548.4370029549
 21
360.8148659859
 31
0.0
  0
LINE
  5
15B
  8
0
  6
CONTINUOUS
 62
     7
 10
548.4370029549
 20
376.8148659859
 30
0.0
 11
522.2370029549
 21
376.8148659859
 31
0.0
  0
ARC
  5
15C
  8
0
  6
CONTINUOUS
 62
     7
 10
548.4370029549
 20
376.5148659859
 30
0.0
 40
0.3000000000000114
 50
0.0
 51
90.0
  0
ARC
  5
15D
  8
0
  6
CONTINUOUS
 62
     7
 10
548.4370029549
 20
361.1148659859
 30
0.0
 40
0.3000000000000114
 50
270.0
 51
0.0
  0
ARC
  5
15E
  8
0
  6
CONTINUOUS
 62
     7
 10
549.3370029549
 20
361.1148659859
 30
0.0
 40
0.3000000000000682
 50
180.0
 51
270.0
  0
ARC
  5
15F
  8
0
  6
CONTINUOUS
 62
     7
 10
549.3370029549
 20
376.5148659859
 30
0.0
 40
0.3000000000000682
 50
90.0
 51
180.0
  0
ARC
  5
160
  8
0
  6
CONTINUOUS
 62
     7
 10
549.0370029549
 20
374.9148659859
 30
0.0
 40
0.3000000000000114
 50
180.0
 51
270.0
  0
ARC
  5
161
  8
0
  6
CONTINUOUS
 62
     7
 10
549.0370029549
 20
362.7148659859
 30
0.0
 40
0.3000000000000114
 50
90.0
 51
180.0
  0
ARC
  5
162
  8
0
  6
CONTINUOUS
 62
     7
 10
568.2370029549
 20
376.0148659859
 30
0.0
 40
0.8000000000000682
 50
0.0
 51
90.0
  0
ARC
  5
163
  8
0
  6
CONTINUOUS
 62
     7
 10
568.2370029549
 20
361.6148659859
 30
0.0
 40
0.8000000000000682
 50
270.0
 51
0.0
  0
ARC
  5
164
  8
0
  6
CONTINUOUS
 62
     7
 10
522.5370029549
 20
358.0148659836
 30
0.0
 40
0.8000000000000682
 50
90.0
 51
180.0
  0
ARC
  5
165
  8
0
  6
CONTINUOUS
 62
     7
 10
522.5370029549
 20
379.6148659836
 30
0.0
 40
0.8000000000000682
 50
180.0
 51
270.0
  0
LINE
  5
166
  8
0
  6
CONTINUOUS
 62
     7
 10
522.5370029549
 20
358.8148659836
 30
0.0
 11
548.4370029549
 21
358.8148659836
 31
0.0
  0
LINE
  5
167
  8
0
  6
CONTINUOUS
 62
     7
 10
548.4370029549
 20
378.8148659836
 30
0.0
 11
522.5370029549
 21
378.8148659836
 31
0.0
  0
ARC
  5
168
  8
0
  6
CONTINUOUS
 62
     7
 10
548.4370029549
 20
359.1148659836
 30
0.0
 40
0.3000000000000114
 50
270.0
 51
360.0
  0
ARC
  5
169
  8
0
  6
CONTINUOUS
 62
     7
 10
548.4370029549
 20
378.5148659836
 30
0.0
 40
0.3000000000000114
 50
0.0
 51
90.0
  0
ARC
  5
16A
  8
0
  6
CONTINUOUS
 62
     7
 10
549.1370029549
 20
378.4148659836
 30
0.0
 40
0.3999999999999773
 50
90.0
 51
180.0
  0
ARC
  5
16B
  8
0
  6
CONTINUOUS
 62
     7
 10
549.1370029549
 20
359.2148659836
 30
0.0
 40
0.3999999999999773
 50
180.0
 51
270.0
  0
LINE
  5
16C
  8
0
  6
CONTINUOUS
 62
     7
 10
549.1370029549
 20
358.8148659836
 30
0.0
 11
634.957853611
 21
358.8148659836
 31
0.0
  0
LINE
  5
16D
  8
0
  6
CONTINUOUS
 62
     7
 10
634.957853611
 20
378.8148659836
 30
0.0
 11
549.1370029549
 21
378.8148659836
 31
0.0
  0
ARC
  5
16E
  8
0
  6
CONTINUOUS
 62
     7
 10
634.957853611
 20
312.8148659836
 30
0.0
 40
46.0
 50
20.0
 51
90.0
  0
ARC
  5
16F
  8
0
  6
CONTINUOUS
 62
     7
 10
634.957853611
 20
312.8148659836
 30
0.0
 40
66.00000000000006
 50
20.0
 51
90.0
  0
LINE
  5
170
  8
0
  6
CONTINUOUS
 62
     7
 10
702.9971211054
 20
318.8496053173
 30
0.0
 11
696.9775665829
 21
335.3881954431
 31
0.0
  0
LINE
  5
171
  8
0
  6
CONTINUOUS
 62
     7
 10
678.1837141671
 20
328.5477925766
 30
0.0
 11
684.2032686897
 21
312.0092024508
 31
0.0
  0
ARC
  5
172
  8
0
  6
CONTINUOUS
 62
     7
 10
684.579145738
 20
312.1460105081
 30
0.0
 40
0.3999999999999844
 50
200.0
 51
287.9995981045
  0
ARC
  5
173
  8
0
  6
CONTINUOUS
 62
     7
 10
702.6212440571
 20
318.71279726
 30
0.0
 40
0.4000000000000717
 50
292.0004018955
 51
20.0
  0
LINE
  5
174
  8
0
  6
CONTINUOUS
 62
     7
 10
560.0370029549
 20
365.1148659859
 30
0.0
 11
560.0370029549
 21
372.5148659859
 31
0.0
  0
ARC
  5
175
  8
0
  6
CONTINUOUS
 62
     7
 10
560.8370029549
 20
365.1148659859
 30
0.0
 40
0.8000000000000682
 50
180.0
 51
270.0
  0
LINE
  5
176
  8
0
  6
CONTINUOUS
 62
     7
 10
568.2370029549
 20
364.3148659859
 30
0.0
 11
560.8370029549
 21
364.3148659859
 31
0.0
  0
ARC
  5
177
  8
0
  6
CONTINUOUS
 62
     7
 10
560.8370029549
 20
372.5148659859
 30
0.0
 40
0.8000000000000682
 50
90.0
 51
180.0
  0
LINE
  5
178
  8
0
  6
CONTINUOUS
 62
     7
 10
560.8370029549
 20
373.3148659859
 30
0.0
 11
568.2370029549
 21
373.3148659859
 31
0.0
  0
LINE
  5
179
  8
0
  6
CONTINUOUS
 62
     7
 10
569.0370029549
 20
372.5148659859
 30
0.0
 11
569.0370029549
 21
365.1148659859
 31
0.0
  0
ARC
  5
17A
  8
0
  6
CONTINUOUS
 62
     7
 10
568.2370029549
 20
372.5148659859
 30
0.0
 40
0.8000000000000682
 50
0.0
 51
90.0
  0
ARC
  5
17B
  8
0
  6
CONTINUOUS
 62
     7
 10
568.2370029549
 20
365.1148659859
 30
0.0
 40
0.8000000000000682
 50
270.0
 51
0.0
  0
LINE
  5
17C
  8
0
  6
CONTINUOUS
 62
     7
 10
513.7370029549
 20
340.3148659859
 30
0.0
 11
513.7370029549
 21
397.3148659859
 31
0.0
  0
LINE
  5
17D
  8
0
  6
CONTINUOUS
 62
     7
 10
521.7370029549
 20
396.5148659747
 30
0.0
 11
521.7370029549
 21
341.1148659859
 31
0.0
  0
LINE
  5
17E
  8
0
  6
CONTINUOUS
 62
     7
 10
560.8370029549
 20
363.6148659859
 30
0.0
 11
559.0370029549
 21
363.6148659859
 31
0.0
  0
LINE
  5
17F
  8
0
  6
CONTINUOUS
 62
     7
 10
559.0370029549
 20
363.6148659859
 30
0.0
 11
559.0370029549
 21
365.1148659859
 31
0.0
  0
LINE
  5
180
  8
0
  6
CONTINUOUS
 62
     7
 10
559.0370029549
 20
372.5148659859
 30
0.0
 11
559.0370029549
 21
374.0148659859
 31
0.0
  0
LINE
  5
181
  8
0
  6
CONTINUOUS
 62
     7
 10
559.0370029549
 20
374.0148659859
 30
0.0
 11
560.8370029549
 21
374.0148659859
 31
0.0
  0
LINE
  5
182
  8
0
  6
CONTINUOUS
 62
     7
 10
548.7370029549
 20
376.5148650584
 30
0.0
 11
548.7370029549
 21
361.1148659859
 31
0.0
  0
LINE
  5
183
  8
0
  6
CONTINUOUS
 62
     7
 10
549.0370029549
 20
361.1148669134
 30
0.0
 11
549.0370029549
 21
376.5148659859
 31
0.0
  0
LINE
  5
184
  8
0
  6
CONTINUOUS
 62
     7
 10
569.0370029549
 20
373.4948659859
 30
0.0
 11
569.0370029549
 21
372.5148659859
 31
0.0
  0
LINE
  5
185
  8
0
  6
CONTINUOUS
 62
     7
 10
569.0370029549
 20
365.1148659859
 30
0.0
 11
569.0370029549
 21
364.1348659859
 31
0.0
  0
LINE
  5
186
  8
0
  6
CONTINUOUS
 62
     7
 10
569.0370029549
 20
364.1348659859
 30
0.0
 11
569.0370029549
 21
361.6148659859
 31
0.0
  0
LINE
  5
187
  8
0
  6
CONTINUOUS
 62
     7
 10
569.0370029549
 20
376.0148659859
 30
0.0
 11
569.0370029549
 21
373.4948659859
 31
0.0
  0
LINE
  5
188
  8
0
  6
CONTINUOUS
 62
     7
 10
548.7370029549
 20
378.5148659836
 30
0.0
 11
548.7370029549
 21
376.5148659859
 31
0.0
  0
LINE
  5
189
  8
0
  6
CONTINUOUS
 62
     7
 10
548.7370029549
 20
361.1148659859
 30
0.0
 11
548.7370029549
 21
359.1148659836
 31
0.0
  0
LINE
  5
18A
  8
0
  6
CONTINUOUS
 62
     7
 10
684.7027498673
 20
311.7655870346
 30
0.0
 11
702.7710892959
 21
318.3419247692
 31
0.0
  0
LINE
  5
18B
  8
0
  6
CONTINUOUS
 62
     8
 10
568.2370029549
 20
372.5148659859
 30
0.0
 11
560.8370029549
 21
372.5148659859
 31
0.0
  0
LINE
  5
18C
  8
0
  6
CONTINUOUS
 62
     8
 10
568.2370029549
 20
365.1148659859
 30
0.0
 11
568.2370029549
 21
372.5148659859
 31
0.0
  0
LINE
  5
18D
  8
0
  6
CONTINUOUS
 62
     8
 10
560.8370029549
 20
365.1148659859
 30
0.0
 11
568.2370029549
 21
365.1148659859
 31
0.0
  0
LINE
  5
18E
  8
0
  6
CONTINUOUS
 62
     8
 10
560.8370029549
 20
372.5148659859
 30
0.0
 11
560.8370029549
 21
365.1148659859
 31
0.0
  0
LINE
  5
18F
  8
0
  6
CONTINUOUS
 62
     8
 10
560.0370029549
 20
372.5148659859
 30
0.0
 11
560.8370029549
 21
372.5148659859
 31
0.0
  0
LINE
  5
190
  8
0
  6
CONTINUOUS
 62
     8
 10
560.0370029549
 20
365.1148659859
 30
0.0
 11
560.8370029549
 21
365.1148659859
 31
0.0
  0
LINE
  5
191
  8
0
  6
CONTINUOUS
 62
     8
 10
560.8370029549
 20
364.3148659859
 30
0.0
 11
560.8370029549
 21
365.1148659859
 31
0.0
  0
LINE
  5
192
  8
0
  6
CONTINUOUS
 62
     8
 10
568.2370029549
 20
364.3148659859
 30
0.0
 11
568.2370029549
 21
365.1148659859
 31
0.0
  0
LINE
  5
193
  8
0
  6
CONTINUOUS
 62
     8
 10
560.8370029549
 20
372.5148659859
 30
0.0
 11
560.8370029549
 21
373.3148659859
 31
0.0
  0
LINE
  5
194
  8
0
  6
CONTINUOUS
 62
     8
 10
568.2370029549
 20
372.5148659859
 30
0.0
 11
568.2370029549
 21
373.3148659859
 31
0.0
  0
LINE
  5
195
  8
0
  6
CONTINUOUS
 62
     8
 10
568.2370029549
 20
372.5148659859
 30
0.0
 11
569.0370029549
 21
372.5148659859
 31
0.0
  0
LINE
  5
196
  8
0
  6
CONTINUOUS
 62
     8
 10
568.2370029549
 20
365.1148659859
 30
0.0
 11
569.0370029549
 21
365.1148659859
 31
0.0
  0
LINE
  5
197
  8
0
  6
CONTINUOUS
 62
     8
 10
559.0370029549
 20
365.1148659859
 30
0.0
 11
559.0370029549
 21
372.5148659859
 31
0.0
  0
LINE
  5
198
  8
0
  6
CONTINUOUS
 62
     8
 10
568.2370029549
 20
363.6148659859
 30
0.0
 11
560.8370029549
 21
363.6148659859
 31
0.0
  0
LINE
  5
199
  8
0
  6
CONTINUOUS
 62
     8
 10
560.8370029549
 20
374.0148659859
 30
0.0
 11
568.2370029549
 21
374.0148659859
 31
0.0
  0
LINE
  5
19A
  8
0
  6
CONTINUOUS
 62
     8
 10
568.2370029549
 20
363.6148659859
 30
0.0
 11
568.2370029549
 21
364.3148659859
 31
0.0
  0
LINE
  5
19B
  8
0
  6
CONTINUOUS
 62
     8
 10
568.2370029549
 20
373.3148659859
 30
0.0
 11
568.2370029549
 21
374.0148659859
 31
0.0
  0
POLYLINE
  5
19C
  8
0
  6
CONTINUOUS
 62
     8
 66
     1
 10
0.0
 20
0.0
 30
0.0
 70
   128
  0
VERTEX
  5
21B
  8
0
  6
CONTINUOUS
 62
     8
 10
569.0370029549
 20
373.4948659859
 30
0.0
  0
VERTEX
  5
21C
  8
0
  6
CONTINUOUS
 62
     8
 10
569.0216311792
 20
373.5963129534
 30
0.0
  0
VERTEX
  5
21D
  8
0
  6
CONTINUOUS
 62
     8
 10
568.9761065809
 20
373.6938613707
 30
0.0
  0
VERTEX
  5
21E
  8
0
  6
CONTINUOUS
 62
     8
 10
568.9021786447
 20
373.7837625071
 30
0.0
  0
VERTEX
  5
21F
  8
0
  6
CONTINUOUS
 62
     8
 10
568.8026883798
 20
373.8625615121
 30
0.0
  0
VERTEX
  5
220
  8
0
  6
CONTINUOUS
 62
     8
 10
568.6814591413
 20
373.9272301843
 30
0.0
  0
VERTEX
  5
221
  8
0
  6
CONTINUOUS
 62
     8
 10
568.5431497008
 20
373.9752833428
 30
0.0
  0
VERTEX
  5
222
  8
0
  6
CONTINUOUS
 62
     8
 10
568.3930752125
 20
374.0048743317
 30
0.0
  0
VERTEX
  5
223
  8
0
  6
CONTINUOUS
 62
     8
 10
568.2370029549
 20
374.0148659859
 30
0.0
  0
SEQEND
  5
234
  8
0
  6
CONTINUOUS
 62
     8
  0
POLYLINE
  5
19D
  8
0
  6
CONTINUOUS
 62
     8
 66
     1
 10
0.0
 20
0.0
 30
0.0
 70
   128
  0
VERTEX
  5
224
  8
0
  6
CONTINUOUS
 62
     8
 10
569.0370029549
 20
364.1348659859
 30
0.0
  0
VERTEX
  5
225
  8
0
  6
CONTINUOUS
 62
     8
 10
569.0216311792
 20
364.0334190185
 30
0.0
  0
VERTEX
  5
226
  8
0
  6
CONTINUOUS
 62
     8
 10
568.9761065809
 20
363.9358706011
 30
0.0
  0
VERTEX
  5
227
  8
0
  6
CONTINUOUS
 62
     8
 10
568.9021786447
 20
363.8459694647
 30
0.0
  0
VERTEX
  5
228
  8
0
  6
CONTINUOUS
 62
     8
 10
568.8026883798
 20
363.7671704597
 30
0.0
  0
VERTEX
  5
229
  8
0
  6
CONTINUOUS
 62
     8
 10
568.6814591413
 20
363.7025017875
 30
0.0
  0
VERTEX
  5
22A
  8
0
  6
CONTINUOUS
 62
     8
 10
568.5431497008
 20
363.654448629
 30
0.0
  0
VERTEX
  5
22B
  8
0
  6
CONTINUOUS
 62
     8
 10
568.3930752125
 20
363.6248576401
 30
0.0
  0
VERTEX
  5
22C
  8
0
  6
CONTINUOUS
 62
     8
 10
568.2370029549
 20
363.6148659859
 30
0.0
  0
SEQEND
  5
235
  8
0
  6
CONTINUOUS
 62
     8
  0
LINE
  5
19E
  8
0
  6
CONTINUOUS
 62
     8
 10
684.2032686897
 20
312.0092024508
 30
0.0
 11
702.9971211054
 21
318.8496053173
 31
0.0
  0
ENDSEC
  0
EOF
