  0
SECTION
  2
HEADER
  9
$ACADVER
  1
AC1024
  9
$ACADMAINTVER
 70
     6
  9
$DWGCODEPAGE
  3
ANSI_1252
  9
$INSBASE
 10
0.0
 20
0.0
 30
0.0
  9
$EXTMIN
 10
0.0
 20
0.0
 30
0.0
  9
$EXTMAX
 10
841.0
 20
594.0
 30
0.0
  9
$LIMMIN
 10
0.0
 20
0.0
  9
$LIMMAX
 10
841.0
 20
594.0
  9
$ORTHOMODE
 70
     0
  9
$REGENMODE
 70
     1
  9
$FILLMODE
 70
     1
  9
$QTEXTMODE
 70
     0
  9
$MIRRTEXT
 70
     1
  9
$LTSCALE
 40
1.0
  9
$ATTMODE
 70
     1
  9
$TEXTSIZE
 40
10.0
  9
$TRACEWID
 40
1.0
  9
$TEXTSTYLE
  7
Standard
  9
$CLAYER
  8
0
  9
$CELTYPE
  6
ByLayer
  9
$CECOLOR
 62
   256
  9
$CELTSCALE
 40
1.0
  9
$DISPSILH
 70
     0
  9
$DIMSCALE
 40
1.0
  9
$DIMASZ
 40
2.5
  9
$DIMEXO
 40
0.0
  9
$DIMDLI
 40
3.75
  9
$DIMRND
 40
0.0
  9
$DIMDLE
 40
0.0
  9
$DIMEXE
 40
1.0
  9
$DIMTP
 40
0.0
  9
$DIMTM
 40
0.0
  9
$DIMTXT
 40
3.5
  9
$DIMCEN
 40
2.5
  9
$DIMTSZ
 40
0.0
  9
$DIMTOL
 70
     0
  9
$DIMLIM
 70
     0
  9
$DIMTIH
 70
     1
  9
$DIMTOH
 70
     1
  9
$DIMSE1
 70
     0
  9
$DIMSE2
 70
     0
  9
$DIMTAD
 70
     1
  9
$DIMZIN
 70
     0
  9
$DIMBLK
  1

  9
$DIMASO
 70
     1
  9
$DIMSHO
 70
     1
  9
$DIMPOST
  1

  9
$DIMAPOST
  1

  9
$DIMALT
 70
     0
  9
$DIMALTD
 70
     3
  9
$DIMALTF
 40
0.0393700787
  9
$DIMLFAC
 40
1.0
  9
$DIMTOFL
 70
     1
  9
$DIMTVP
 40
0.0
  9
$DIMTIX
 70
     0
  9
$DIMSOXD
 70
     0
  9
$DIMSAH
 70
     0
  9
$DIMBLK1
  1

  9
$DIMBLK2
  1

  9
$DIMSTYLE
  2
ISO-25
  9
$DIMCLRD
 70
     0
  9
$DIMCLRE
 70
     0
  9
$DIMCLRT
 70
     0
  9
$DIMTFAC
 40
1.0
  9
$DIMGAP
 40
1.5
  9
$DIMJUST
 70
     0
  9
$DIMSD1
 70
     0
  9
$DIMSD2
 70
     0
  9
$DIMTOLJ
 70
     0
  9
$DIMTZIN
 70
     0
  9
$DIMALTZ
 70
     0
  9
$DIMALTTZ
 70
     0
  9
$DIMUPT
 70
     0
  9
$DIMDEC
 70
     2
  9
$DIMTDEC
 70
     2
  9
$DIMALTU
 70
     2
  9
$DIMALTTD
 70
     3
  9
$DIMTXSTY
  7
Standard
  9
$DIMAUNIT
 70
     0
  9
$DIMADEC
 70
     2
  9
$DIMALTRND
 40
0.0
  9
$DIMAZIN
 70
     0
  9
$DIMDSEP
 70
    44
  9
$DIMATFIT
 70
     3
  9
$DIMFRAC
 70
     0
  9
$DIMLDRBLK
  1

  9
$DIMLUNIT
 70
     2
  9
$DIMLWD
 70
    -2
  9
$DIMLWE
 70
    -2
  9
$DIMTMOVE
 70
     0
  9
$DIMFXL
 40
1.0
  9
$DIMFXLON
 70
     0
  9
$DIMJOGANG
 40
0.7853981634
  9
$DIMTFILL
 70
     0
  9
$DIMTFILLCLR
 70
     0
  9
$DIMARCSYM
 70
     0
  9
$DIMLTYPE
  6

  9
$DIMLTEX1
  6

  9
$DIMLTEX2
  6

  9
$DIMTXTDIRECTION
 70
     0
  9
$LUNITS
 70
     2
  9
$LUPREC
 70
     2
  9
$SKETCHINC
 40
1.0
  9
$FILLETRAD
 40
10.0
  9
$AUNITS
 70
     0
  9
$AUPREC
 70
     2
  9
$MENU
  1
.
  9
$ELEVATION
 40
0.0
  9
$PELEVATION
 40
0.0
  9
$THICKNESS
 40
0.0
  9
$LIMCHECK
 70
     0
  9
$CHAMFERA
 40
10.0
  9
$CHAMFERB
 40
10.0
  9
$CHAMFERC
 40
20.0
  9
$CHAMFERD
 40
0.0
  9
$SKPOLY
 70
     0
  9
$TDCREATE
 40
2456160.395737454
  9
$TDUCREATE
 40
2456160.31240412
  9
$TDUPDATE
 40
2456160.395737465
  9
$TDUUPDATE
 40
2456160.312404132
  9
$TDINDWG
 40
0.0000000116
  9
$TDUSRTIMER
 40
0.0000000116
  9
$USRTIMER
 70
     1
  9
$ANGBASE
 50
0.0
  9
$ANGDIR
 70
     0
  9
$PDMODE
 70
     0
  9
$PDSIZE
 40
-1.0
  9
$PLINEWID
 40
0.0
  9
$SPLFRAME
 70
     0
  9
$SPLINETYPE
 70
     6
  9
$SPLINESEGS
 70
     8
  9
$HANDSEED
  5
125
  9
$SURFTAB1
 70
     6
  9
$SURFTAB2
 70
     6
  9
$SURFTYPE
 70
     6
  9
$SURFU
 70
     6
  9
$SURFV
 70
     6
  9
$UCSBASE
  2

  9
$UCSNAME
  2

  9
$UCSORG
 10
0.0
 20
0.0
 30
0.0
  9
$UCSXDIR
 10
1.0
 20
0.0
 30
0.0
  9
$UCSYDIR
 10
0.0
 20
1.0
 30
0.0
  9
$UCSORTHOREF
  2

  9
$UCSORTHOVIEW
 70
     0
  9
$UCSORGTOP
 10
0.0
 20
0.0
 30
0.0
  9
$UCSORGBOTTOM
 10
0.0
 20
0.0
 30
0.0
  9
$UCSORGLEFT
 10
0.0
 20
0.0
 30
0.0
  9
$UCSORGRIGHT
 10
0.0
 20
0.0
 30
0.0
  9
$UCSORGFRONT
 10
0.0
 20
0.0
 30
0.0
  9
$UCSORGBACK
 10
0.0
 20
0.0
 30
0.0
  9
$PUCSBASE
  2

  9
$PUCSNAME
  2

  9
$PUCSORG
 10
0.0
 20
0.0
 30
0.0
  9
$PUCSXDIR
 10
1.0
 20
0.0
 30
0.0
  9
$PUCSYDIR
 10
0.0
 20
1.0
 30
0.0
  9
$PUCSORTHOREF
  2

  9
$PUCSORTHOVIEW
 70
     0
  9
$PUCSORGTOP
 10
0.0
 20
0.0
 30
0.0
  9
$PUCSORGBOTTOM
 10
0.0
 20
0.0
 30
0.0
  9
$PUCSORGLEFT
 10
0.0
 20
0.0
 30
0.0
  9
$PUCSORGRIGHT
 10
0.0
 20
0.0
 30
0.0
  9
$PUCSORGFRONT
 10
0.0
 20
0.0
 30
0.0
  9
$PUCSORGBACK
 10
0.0
 20
0.0
 30
0.0
  9
$USERI1
 70
     0
  9
$USERI2
 70
     0
  9
$USERI3
 70
     0
  9
$USERI4
 70
     0
  9
$USERI5
 70
     0
  9
$USERR1
 40
0.0
  9
$USERR2
 40
0.0
  9
$USERR3
 40
0.0
  9
$USERR4
 40
0.0
  9
$USERR5
 40
0.0
  9
$WORLDVIEW
 70
     1
  9
$SHADEDGE
 70
     3
  9
$SHADEDIF
 70
    70
  9
$TILEMODE
 70
     1
  9
$MAXACTVP
 70
    64
  9
$PINSBASE
 10
0.0
 20
0.0
 30
0.0
  9
$PLIMCHECK
 70
     0
  9
$PEXTMIN
 10
1.0000000000E+20
 20
1.0000000000E+20
 30
1.0000000000E+20
  9
$PEXTMAX
 10
-1.0000000000E+20
 20
-1.0000000000E+20
 30
-1.0000000000E+20
  9
$PLIMMIN
 10
0.0
 20
0.0
  9
$PLIMMAX
 10
420.0
 20
297.0
  9
$UNITMODE
 70
     0
  9
$VISRETAIN
 70
     1
  9
$PLINEGEN
 70
     0
  9
$PSLTSCALE
 70
     1
  9
$TREEDEPTH
 70
  3020
  9
$CMLSTYLE
  2
Standard
  9
$CMLJUST
 70
     0
  9
$CMLSCALE
 40
20.0
  9
$PROXYGRAPHICS
 70
     1
  9
$MEASUREMENT
 70
     1
  9
$CELWEIGHT
370
    -1
  9
$ENDCAPS
280
     0
  9
$JOINSTYLE
280
     0
  9
$LWDISPLAY
290
     1
  9
$INSUNITS
 70
     4
  9
$HYPERLINKBASE
  1

  9
$STYLESHEET
  1

  9
$XEDIT
290
     1
  9
$CEPSNTYPE
380
     0
  9
$PSTYLEMODE
290
     1
  9
$FINGERPRINTGUID
  2
{DBBC4647-25A6-49AE-8CE1-7DA13B5C254E}
  9
$VERSIONGUID
  2
{FAEB1C32-E019-11D5-929B-00C0DF256EC4}
  9
$EXTNAMES
290
     1
  9
$PSVPSCALE
 40
0.0
  9
$OLESTARTUP
290
     0
  9
$SORTENTS
280
   127
  9
$INDEXCTL
280
     0
  9
$HIDETEXT
280
     1
  9
$XCLIPFRAME
280
     2
  9
$HALOGAP
280
     0
  9
$OBSCOLOR
 70
   257
  9
$OBSLTYPE
280
     0
  9
$INTERSECTIONDISPLAY
280
     0
  9
$INTERSECTIONCOLOR
 70
   257
  9
$DIMASSOC
280
     2
  9
$PROJECTNAME
  1

  9
$CAMERADISPLAY
290
     0
  9
$LENSLENGTH
 40
50.0
  9
$CAMERAHEIGHT
 40
0.0
  9
$STEPSPERSEC
 40
2.0
  9
$STEPSIZE
 40
6.0
  9
$3DDWFPREC
 40
2.0
  9
$PSOLWIDTH
 40
5.0
  9
$PSOLHEIGHT
 40
80.0
  9
$LOFTANG1
 40
1.5707963268
  9
$LOFTANG2
 40
1.5707963268
  9
$LOFTMAG1
 40
0.0
  9
$LOFTMAG2
 40
0.0
  9
$LOFTPARAM
 70
     7
  9
$LOFTNORMALS
280
     1
  9
$LATITUDE
 40
37.795
  9
$LONGITUDE
 40
-122.394
  9
$NORTHDIRECTION
 40
0.0
  9
$TIMEZONE
 70
 -8000
  9
$LIGHTGLYPHDISPLAY
280
     1
  9
$TILEMODELIGHTSYNCH
280
     1
  9
$SOLIDHIST
280
     1
  9
$SHOWHIST
280
     1
  9
$DWFFRAME
280
     2
  9
$DGNFRAME
280
     2
  9
$REALWORLDSCALE
290
     1
  9
$INTERFERECOLOR
 62
   256
  9
$CSHADOW
280
     0
  9
$SHADOWPLANELOCATION
 40
0.0
  0
ENDSEC
  0
SECTION
  2
CLASSES
  0
CLASS
  1
ACDBDICTIONARYWDFLT
  2
AcDbDictionaryWithDefault
  3
ObjectDBX Classes
 90
        0
 91
        4
280
     0
281
     0
  0
CLASS
  1
VISUALSTYLE
  2
AcDbVisualStyle
  3
ObjectDBX Classes
 90
     4095
 91
        4
280
     0
281
     0
  0
CLASS
  1
MATERIAL
  2
AcDbMaterial
  3
ObjectDBX Classes
 90
     1153
 91
        4
280
     0
281
     0
  0
ENDSEC
  0
SECTION
  2
TABLES
  0
TABLE
  2
VPORT
  5
8
330
0
100
AcDbSymbolTable
 70
     1
  0
VPORT
  5
29
330
8
100
AcDbSymbolTableRecord
100
AcDbViewportTableRecord
  2
*Active
 70
     0
 10
0.0
 20
0.0
 11
1.0
 21
1.0
 12
420.5
 22
297.0
 13
0.0
 23
0.0
 14
10.0
 24
10.0
 15
10.0
 25
10.0
 16
0.0
 26
0.0
 36
1.0
 17
0.0
 27
0.0
 37
0.0
 40
594.0
 41
1.4158249158
 42
50.0
 43
0.0
 44
0.0
 50
0.0
 51
0.0
 71
     0
 72
  2000
 73
     1
 74
     3
 75
     0
 76
     0
 77
     0
 78
     0
281
     0
 65
     1
110
0.0
120
0.0
130
0.0
111
1.0
121
0.0
131
0.0
112
0.0
122
1.0
132
0.0
 79
     0
146
0.0
 60
     3
 61
     5
292
     1
282
     1
141
0.0
142
0.0
 63
   250
  0
ENDTAB
  0
TABLE
  2
LTYPE
  5
5
330
0
100
AcDbSymbolTable
 70
     6
  0
LTYPE
  5
14
330
5
100
AcDbSymbolTableRecord
100
AcDbLinetypeTableRecord
  2
ByBlock
 70
     0
  3

 72
    65
 73
     0
 40
0.0
  0
LTYPE
  5
15
330
5
100
AcDbSymbolTableRecord
100
AcDbLinetypeTableRecord
  2
ByLayer
 70
     0
  3

 72
    65
 73
     0
 40
0.0
  0
LTYPE
  5
16
330
5
100
AcDbSymbolTableRecord
100
AcDbLinetypeTableRecord
  2
Continuous
 70
     0
  3
Solid line
 72
    65
 73
     0
 40
0.0
  0
LTYPE
  5
3F
330
5
100
AcDbSymbolTableRecord
100
AcDbLinetypeTableRecord
  2
HIDDEN
 70
     0
  3
Hidden __ __ __ __ __ __ __ __ __ __ __ __ __ __
 72
    65
 73
     2
 40
1.905
 49
1.27
 74
     0
 49
-0.635
 74
     0
  0
LTYPE
  5
40
330
5
100
AcDbSymbolTableRecord
100
AcDbLinetypeTableRecord
  2
PHANTOM
 70
     0
  3
Phantom ______  __  __  ______  __  __  ______
 72
    65
 73
     6
 40
12.7
 49
6.35
 74
     0
 49
-1.27
 74
     0
 49
1.27
 74
     0
 49
-1.27
 74
     0
 49
1.27
 74
     0
 49
-1.27
 74
     0
  0
LTYPE
  5
41
330
5
100
AcDbSymbolTableRecord
100
AcDbLinetypeTableRecord
  2
CENTER
 70
     0
  3
Center ____ _ ____ _ ____ _ ____ _ ____ _ ____
 72
    65
 73
     4
 40
10.16
 49
6.35
 74
     0
 49
-1.27
 74
     0
 49
1.27
 74
     0
 49
-1.27
 74
     0
  0
LTYPE
  5
42
330
5
100
AcDbSymbolTableRecord
100
AcDbLinetypeTableRecord
  2
CENTERX2
 70
     0
  3
Center (2x) ________  __  ________  __  _____
 72
    65
 73
     4
 40
20.32
 49
12.7
 74
     0
 49
-2.54
 74
     0
 49
2.54
 74
     0
 49
-2.54
 74
     0
  0
LTYPE
  5
43
330
5
100
AcDbSymbolTableRecord
100
AcDbLinetypeTableRecord
  2
DOT2
 70
     0
  3
Dot (.5x) ........................................
 72
    65
 73
     2
 40
0.635
 49
0.0
 74
     0
 49
-0.635
 74
     0
  0
ENDTAB
  0
TABLE
  2
LAYER
  5
2
330
0
100
AcDbSymbolTable
 70
     1
  0
LAYER
  5
10
330
2
100
AcDbSymbolTableRecord
100
AcDbLayerTableRecord
  2
0
 70
     0
 62
     7
  6
Continuous
370
    -3
390
F
347
3E
  0
ENDTAB
  0
TABLE
  2
STYLE
  5
3
330
0
100
AcDbSymbolTable
 70
     3
  0
STYLE
  5
11
330
3
100
AcDbSymbolTableRecord
100
AcDbTextStyleTableRecord
  2
Standard
 70
     0
 40
0.0
 41
1.0
 50
0.0
 71
     0
 42
2.5
  3
txt
  4

  0
STYLE
  5
47
330
3
100
AcDbSymbolTableRecord
100
AcDbTextStyleTableRecord
  2
SLDTEXTSTYLE0
 70
     0
 40
0.0
 41
0.96
 50
0.0
 71
     0
 42
0.2
  3
ISOCP3
  4

  0
STYLE
  5
5E
330
3
100
AcDbSymbolTableRecord
100
AcDbTextStyleTableRecord
  2
SLDTEXTSTYLE1
 70
     0
 40
0.0
 41
0.605
 50
0.0
 71
     0
 42
0.2
  3
TXT
  4

  0
ENDTAB
  0
TABLE
  2
VIEW
  5
6
330
0
100
AcDbSymbolTable
 70
     0
  0
ENDTAB
  0
TABLE
  2
UCS
  5
7
330
0
100
AcDbSymbolTable
 70
     0
  0
ENDTAB
  0
TABLE
  2
APPID
  5
9
330
0
100
AcDbSymbolTable
 70
     1
  0
APPID
  5
12
330
9
100
AcDbSymbolTableRecord
100
AcDbRegAppTableRecord
  2
ACAD
 70
     0
  0
ENDTAB
  0
TABLE
  2
DIMSTYLE
  5
A
330
0
100
AcDbSymbolTable
 70
     2
100
AcDbDimStyleTable
  0
DIMSTYLE
105
27
330
A
100
AcDbSymbolTableRecord
100
AcDbDimStyleTableRecord
  2
ISO-25
 70
     0
 41
2.5
 42
0.625
 43
3.75
 44
1.25
 73
     0
 74
     0
 77
     1
 78
     8
140
2.5
141
2.5
143
0.0393700787
147
0.625
171
     3
172
     1
178
     0
271
     2
272
     2
274
     3
278
    44
283
     0
284
     8
340
11
  0
DIMSTYLE
105
48
102
{ACAD_REACTORS
330
46
330
53
102
}
330
A
100
AcDbSymbolTableRecord
100
AcDbDimStyleTableRecord
  2
SLDDIMSTYLE0
 70
     0
 41
2.5
 44
0.0
 45
0.000000001
 73
     0
 74
     0
 77
     1
 78
    12
 79
     3
140
6.0
147
1.5
173
     1
178
     0
271
     2
272
     2
276
     2
284
    12
340
47
  0
ENDTAB
  0
TABLE
  2
BLOCK_RECORD
  5
1
330
0
100
AcDbSymbolTable
 70
     3
  0
BLOCK_RECORD
  5
1F
330
1
100
AcDbSymbolTableRecord
100
AcDbBlockTableRecord
  2
*Model_Space
340
22
 70
     0
280
     1
281
     0
  0
BLOCK_RECORD
  5
1B
330
1
100
AcDbSymbolTableRecord
100
AcDbBlockTableRecord
  2
*Paper_Space
340
1E
 70
     0
280
     1
281
     0
  0
BLOCK_RECORD
  5
23
330
1
100
AcDbSymbolTableRecord
100
AcDbBlockTableRecord
  2
*Paper_Space0
340
26
 70
     0
280
     1
281
     0
  0
BLOCK_RECORD
  5
49
330
1
100
AcDbSymbolTableRecord
100
AcDbBlockTableRecord
  2
*D1
340
0
 70
     0
280
     1
281
     0
  0
BLOCK_RECORD
  5
54
330
1
100
AcDbSymbolTableRecord
100
AcDbBlockTableRecord
  2
*D2
340
0
 70
     0
280
     1
281
     0
  0
ENDTAB
  0
ENDSEC
  0
SECTION
  2
BLOCKS
  0
BLOCK
  5
20
330
1F
100
AcDbEntity
  8
0
100
AcDbBlockBegin
  2
*Model_Space
 70
     0
 10
0.0
 20
0.0
 30
0.0
  3
*Model_Space
  1

  0
ENDBLK
  5
21
330
1F
100
AcDbEntity
  8
0
100
AcDbBlockEnd
  0
BLOCK
  5
1C
330
1B
100
AcDbEntity
 67
     1
  8
0
100
AcDbBlockBegin
  2
*Paper_Space
 70
     0
 10
0.0
 20
0.0
 30
0.0
  3
*Paper_Space
  1

  0
ENDBLK
  5
1D
330
1B
100
AcDbEntity
 67
     1
  8
0
100
AcDbBlockEnd
  0
BLOCK
  5
24
330
23
100
AcDbEntity
  8
0
100
AcDbBlockBegin
  2
*Paper_Space0
 70
     0
 10
0.0
 20
0.0
 30
0.0
  3
*Paper_Space0
  1

  0
ENDBLK
  5
25
330
23
100
AcDbEntity
  8
0
100
AcDbBlockEnd
  0
BLOCK
  5
4A
330
49
100
AcDbEntity
  8
0
100
AcDbBlockBegin
  2
*D1
 70
     1
 10
0.0
 20
0.0
 30
0.0
  3
*D1
  1

  0
SOLID
  5
4C
330
49
100
AcDbEntity
  8
0
  6
Continuous
 62
     7
370
     0
100
AcDbTrace
 10
42.7614395004
 20
152.0299240879
 30
0.0
 11
42.4614395004
 21
149.5299240879
 31
0.0
 12
43.0614395004
 22
149.5299240879
 32
0.0
 13
43.0614395004
 23
149.5299240879
 33
0.0
  0
SOLID
  5
4D
330
49
100
AcDbEntity
  8
0
  6
Continuous
 62
     7
370
     0
100
AcDbTrace
 10
42.7614395004
 20
52.0299240879
 30
0.0
 11
43.0614395004
 21
54.5299240879
 31
0.0
 12
42.4614395004
 22
54.5299240879
 32
0.0
 13
42.4614395004
 23
54.5299240879
 33
0.0
  0
LINE
  5
4E
330
49
100
AcDbEntity
  8
0
  6
Continuous
 62
     7
370
     0
100
AcDbLine
 10
56.6850079902
 20
152.0299240879
 30
0.0
 11
41.7614395004
 21
152.0299240879
 31
0.0
  0
LINE
  5
4F
330
49
100
AcDbEntity
  8
0
  6
Continuous
 62
     7
370
     0
100
AcDbLine
 10
56.6850079902
 20
52.0299240879
 30
0.0
 11
41.7614395004
 21
52.0299240879
 31
0.0
  0
LINE
  5
50
330
49
100
AcDbEntity
  8
0
  6
Continuous
 62
     7
370
     0
100
AcDbLine
 10
42.7614395004
 20
152.0299240879
 30
0.0
 11
42.7614395004
 21
52.0299240879
 31
0.0
  0
MTEXT
  5
51
330
49
100
AcDbEntity
  8
0
  6
Continuous
 62
     7
370
     0
100
AcDbMText
 10
35.0270329453
 20
91.6722208134
 30
0.1
 40
6.0
 41
0.0
 46
0.0
 71
     1
 72
     1
  1
100
  7
SLDTEXTSTYLE0
 11
-7.044195017643634E-15
 21
1.0
 31
0.0
 73
     1
 44
1.0
  0
MTEXT
  5
52
330
49
100
AcDbEntity
  8
0
  6
Continuous
 62
     7
370
     0
100
AcDbMText
 10
35.0270329453
 20
108.4388881795
 30
0.1
 40
6.0
 41
0.0
 46
0.0
 71
     1
 72
     1
  1
mm
  7
SLDTEXTSTYLE0
 11
-7.044195017643634E-15
 21
1.0
 31
0.0
 73
     1
 44
1.0
  0
ENDBLK
  5
4B
330
49
100
AcDbEntity
  8
0
100
AcDbBlockEnd
  0
BLOCK
  5
55
330
54
100
AcDbEntity
  8
0
100
AcDbBlockBegin
  2
*D2
 70
     1
 10
0.0
 20
0.0
 30
0.0
  3
*D2
  1

  0
SOLID
  5
57
330
54
100
AcDbEntity
  8
0
  6
Continuous
 62
     7
370
     0
100
AcDbTrace
 10
56.6850079902
 20
38.4602342313
 30
0.0
 11
59.1850079902
 21
38.1602342313
 31
0.0
 12
59.1850079902
 22
38.7602342313
 32
0.0
 13
59.1850079902
 23
38.7602342313
 33
0.0
  0
SOLID
  5
58
330
54
100
AcDbEntity
  8
0
  6
Continuous
 62
     7
370
     0
100
AcDbTrace
 10
156.6850079902
 20
38.4602342313
 30
0.0
 11
154.1850079902
 21
38.7602342313
 31
0.0
 12
154.1850079902
 22
38.1602342313
 32
0.0
 13
154.1850079902
 23
38.1602342313
 33
0.0
  0
LINE
  5
59
330
54
100
AcDbEntity
  8
0
  6
Continuous
 62
     7
370
     0
100
AcDbLine
 10
56.6850079902
 20
52.0299240879
 30
0.0
 11
56.6850079902
 21
37.4602342313
 31
0.0
  0
LINE
  5
5A
330
54
100
AcDbEntity
  8
0
  6
Continuous
 62
     7
370
     0
100
AcDbLine
 10
156.6850079902
 20
52.0299240879
 30
0.0
 11
156.6850079902
 21
37.4602342313
 31
0.0
  0
LINE
  5
5B
330
54
100
AcDbEntity
  8
0
  6
Continuous
 62
     7
370
     0
100
AcDbLine
 10
56.6850079902
 20
38.4602342313
 30
0.0
 11
156.6850079902
 21
38.4602342313
 31
0.0
  0
MTEXT
  5
5C
330
54
100
AcDbEntity
  8
0
  6
Continuous
 62
     7
370
     0
100
AcDbMText
 10
91.2668151533
 20
46.1946407863
 30
0.1
 40
6.0
 41
0.0
 46
0.0
 71
     1
 72
     1
  1
100
  7
SLDTEXTSTYLE0
 73
     1
 44
1.0
  0
MTEXT
  5
5D
330
54
100
AcDbEntity
  8
0
  6
Continuous
 62
     7
370
     0
100
AcDbMText
 10
108.0334825193
 20
46.1946407863
 30
0.1
 40
6.0
 41
0.0
 46
0.0
 71
     1
 72
     1
  1
mm
  7
SLDTEXTSTYLE0
 73
     1
 44
1.0
  0
ENDBLK
  5
56
330
54
100
AcDbEntity
  8
0
100
AcDbBlockEnd
  0
ENDSEC
  0
SECTION
  2
ENTITIES
  0
LINE
  5
44
330
1F
100
AcDbEntity
  8
0
  6
Continuous
 62
     7
370
     0
100
AcDbLine
 10
56.6850079902
 20
152.0299240879
 30
0.0
 11
56.6850079902
 21
52.0299240879
 31
0.0
  0
LINE
  5
45
330
1F
100
AcDbEntity
  8
0
  6
Continuous
 62
     7
370
     0
100
AcDbLine
 10
56.6850079902
 20
52.0299240879
 30
0.0
 11
156.6850079902
 21
52.0299240879
 31
0.0
  0
DIMENSION
  5
46
330
1F
100
AcDbEntity
  8
0
  6
Continuous
 62
     7
370
     0
100
AcDbDimension
280
     0
  2
*D1
 10
42.7614395004
 20
52.0299240879
 30
0.0
 11
42.7614395004
 21
105.4472211621
 31
0.0
 70
   160
  1
<>mm
 71
     2
 42
-1.0
 73
     0
 74
     0
 75
     0
  3
SLDDIMSTYLE0
100
AcDbAlignedDimension
 13
56.6850079902
 23
152.0299240879
 33
0.0
 14
56.6850079902
 24
52.0299240879
 34
0.0
 50
90.0
100
AcDbRotatedDimension
  0
DIMENSION
  5
53
330
1F
100
AcDbEntity
  8
0
  6
Continuous
 62
     7
370
     0
100
AcDbDimension
280
     0
  2
*D2
 10
156.6850079902
 20
38.4602342313
 30
0.0
 11
105.0418155019
 21
38.4602342313
 31
0.0
 70
   160
  1
<>mm
 71
     2
 42
-1.0
 73
     0
 74
     0
 75
     0
  3
SLDDIMSTYLE0
100
AcDbAlignedDimension
 13
56.6850079902
 23
52.0299240879
 33
0.0
 14
156.6850079902
 24
52.0299240879
 34
0.0
100
AcDbRotatedDimension
  0
MTEXT
  5
5F
330
1F
100
AcDbEntity
  8
0
  6
Continuous
 62
     7
370
     0
100
AcDbMText
 10
347.5532847896
 20
48.6198453877
 30
0.0
 40
10.0
 41
0.0
 46
0.0
 71
     1
 72
     1
  1
53 980 05
  7
SLDTEXTSTYLE1
 73
     1
 44
1.0
  0
MTEXT
  5
60
330
1F
100
AcDbEntity
  8
0
  6
Continuous
 62
     7
370
     0
100
AcDbMText
 10
664.658399795
 20
48.4342449499
 30
0.0
 40
10.0
 41
0.0
 46
0.0
 71
     1
 72
     1
  1
KLUDI GmbH & Co KG
  7
SLDTEXTSTYLE1
 73
     1
 44
1.0
  0
LWPOLYLINE
  5
61
330
1F
100
AcDbEntity
  8
0
  6
Continuous
 62
     7
370
    15
100
AcDbPolyline
 90
       12
 70
   128
 43
0.0
 10
68.7595188808
 20
445.0406992712
 10
68.7517032218
 20
445.0317436734
 10
69.0068315905
 20
445.0884807759
 10
69.5360016268
 20
445.223513236
 10
70.3241612953
 20
445.4259809011
 10
71.2502405238
 20
445.6537069657
 10
73.444486801
 20
446.1450979018
 10
76.123398934
 20
446.6705510297
 10
79.8793045995
 20
447.2847759628
 10
83.1352744442
 20
447.6837396526
 10
87.0080261682
 20
448.000796316
 10
87.0910829124
 20
448.0047916898
  0
ARC
  5
62
330
1F
100
AcDbEntity
  8
0
  6
Continuous
 62
     7
370
    15
100
AcDbCircle
 10
618.551471876
 20
330.2057961422
 30
0.0
 40
118.194095705585
100
AcDbArc
 50
76.5481178506
 51
85.1051861449
  0
ARC
  5
63
330
1F
100
AcDbEntity
  8
0
  6
Continuous
 62
     7
370
    15
100
AcDbCircle
 10
96.57047338
 20
586.1409326181
 30
0.0
 40
118.2102848967482
100
AcDbArc
 50
256.5487028264
 51
265.1045934512
  0
LWPOLYLINE
  5
64
330
1F
100
AcDbEntity
  8
0
  6
Continuous
 62
     7
370
    15
100
AcDbPolyline
 90
       12
 70
   128
 43
0.0
 10
646.3598508578
 20
471.290003685
 10
646.3676590663
 20
471.2989592829
 10
646.1125511867
 20
471.2422221804
 10
645.5833811504
 20
471.1071897203
 10
644.7952289325
 20
470.9047220552
 10
643.8691515666
 20
470.6769959906
 10
641.6748661739
 20
470.1856050545
 10
638.9959950191
 20
469.6601519266
 10
635.2400679332
 20
469.0459269935
 10
631.9841046077
 20
468.6469633037
 10
628.1113524181
 20
468.3299066403
 10
628.0282635432
 20
468.3259112665
  0
LINE
  5
65
330
1F
100
AcDbEntity
  8
0
  6
Continuous
 62
     7
370
    15
100
AcDbLine
 10
93.0096851969
 20
448.1653517017
 30
0.0
 11
622.109701131
 21
448.1653517017
 31
0.0
  0
LINE
  5
66
330
1F
100
AcDbEntity
  8
0
  6
Continuous
 62
     7
370
    15
100
AcDbLine
 10
622.109701131
 20
468.1653512546
 30
0.0
 11
93.0096851969
 21
468.1653512546
 31
0.0
  0
ARC
  5
67
330
1F
100
AcDbEntity
  8
0
  6
Continuous
 62
     7
370
    15
100
AcDbCircle
 10
93.0096852046
 20
467.7153514781
 30
0.0
 40
0.4500000000000455
100
AcDbArc
 50
90.0
 51
180.0
  0
ARC
  5
68
330
1F
100
AcDbEntity
  8
0
  6
Continuous
 62
     7
370
    15
100
AcDbCircle
 10
93.0096852046
 20
448.6153514781
 30
0.0
 40
0.4500000000000455
100
AcDbArc
 50
180.0
 51
270.0
  0
ARC
  5
69
330
1F
100
AcDbEntity
  8
0
  6
Continuous
 62
     7
370
    15
100
AcDbCircle
 10
622.1096852046
 20
467.7153514781
 30
0.0
 40
0.4500000000000455
100
AcDbArc
 50
0.0
 51
90.0
  0
ARC
  5
6A
330
1F
100
AcDbEntity
  8
0
  6
Continuous
 62
     7
370
    15
100
AcDbCircle
 10
622.1096852046
 20
448.6153514781
 30
0.0
 40
0.4500000000000455
100
AcDbArc
 50
270.0
 51
0.0
  0
LWPOLYLINE
  5
6B
330
1F
100
AcDbEntity
  8
0
  6
Continuous
 62
     7
370
    15
100
AcDbPolyline
 90
        3
 70
   128
 43
0.0
 10
67.6562834722
 20
471.7256819734
 10
66.8872010153
 20
472.0532709637
 10
57.3422137839
 20
475.2102309742
  0
LWPOLYLINE
  5
6C
330
1F
100
AcDbEntity
  8
0
  6
Continuous
 62
     7
370
    15
100
AcDbPolyline
 90
        3
 70
   128
 43
0.0
 10
657.7771801692
 20
475.2102309742
 10
648.8085288745
 20
472.2675664255
 10
647.722651456
 20
471.8097468743
  0
LWPOLYLINE
  5
6D
330
1F
100
AcDbEntity
  8
0
  6
Continuous
 62
     7
370
    15
100
AcDbPolyline
 90
        3
 70
   128
 43
0.0
 10
57.3422137839
 20
441.120471982
 10
66.3108390015
 20
444.0631365308
 10
67.3967406344
 20
444.5209551507
  0
LWPOLYLINE
  5
6E
330
1F
100
AcDbEntity
  8
0
  6
Continuous
 62
     7
370
    15
100
AcDbPolyline
 90
        3
 70
   128
 43
0.0
 10
647.463073228
 20
444.6050209829
 10
648.2321519595
 20
444.2774319926
 10
657.7771801692
 20
441.120471982
  0
LWPOLYLINE
  5
6F
330
1F
100
AcDbEntity
  8
0
  6
Continuous
 62
     7
370
    15
100
AcDbPolyline
 90
       10
 70
   128
 43
0.0
 10
39.0384692889
 20
437.6398159096
 10
37.1882479829
 20
440.8289754668
 10
35.5011645895
 20
445.4023392776
 10
34.4693746608
 20
450.1771872768
 10
33.8890377623
 20
455.9560566579
 10
33.9656818849
 20
461.7820062579
 10
34.7109485608
 20
467.5401255393
 10
35.7577998382
 20
471.7881755808
 10
37.356485818
 20
475.8520817289
 10
39.0384655636
 20
478.6908814588
  0
LWPOLYLINE
  5
70
330
1F
100
AcDbEntity
  8
0
  6
Continuous
 62
     7
370
    15
100
AcDbPolyline
 90
       10
 70
   128
 43
0.0
 10
676.0808725101
 20
437.6398159096
 10
677.9311198932
 20
440.8289754668
 10
679.6182293636
 20
445.4023392776
 10
680.6499857646
 20
450.1771872768
 10
681.2303561908
 20
455.9560566579
 10
681.1537046176
 20
461.7820062579
 10
680.4084081393
 20
467.5401255393
 10
679.3615717631
 20
471.7881755808
 10
677.762855981
 20
475.8520817289
 10
676.0809321147
 20
478.6908814588
  0
ARC
  5
71
330
1F
100
AcDbEntity
  8
0
  6
Continuous
 62
     7
370
    15
100
AcDbCircle
 10
92.531605987
 20
560.0944364981
 30
0.0
 40
91.92893714954766
100
AcDbArc
 50
266.2273684255
 51
269.7075308468
  0
ARC
  5
72
330
1F
100
AcDbEntity
  8
0
  6
Continuous
 62
     7
370
    15
100
AcDbCircle
 10
622.7470031758
 20
553.5780459179
 30
0.0
 40
85.41191145224667
100
AcDbArc
 50
270.2079501499
 51
273.544901523
  0
ARC
  5
73
330
1F
100
AcDbEntity
  8
0
  6
Continuous
 62
     7
370
    15
100
AcDbCircle
 10
92.3724021919
 20
362.7517430892
 30
0.0
 40
85.41282559652522
100
AcDbArc
 50
90.2079851006
 51
93.544884664
  0
ARC
  5
74
330
1F
100
AcDbEntity
  8
0
  6
Continuous
 62
     7
370
    15
100
AcDbCircle
 10
622.5878662027
 20
356.2399455953
 30
0.0
 40
91.92525743646131
100
AcDbArc
 50
86.2272983471
 51
89.7075953318
  0
LINE
  5
75
330
1F
100
AcDbEntity
  8
0
  6
Continuous
 62
     7
370
    15
100
AcDbLine
 10
646.3341612559
 20
445.0579399148
 30
0.0
 11
646.0536617976
 21
445.158768622
 31
0.0
  0
LINE
  5
76
330
1F
100
AcDbEntity
  8
0
  6
Continuous
 62
     7
370
    15
100
AcDbLine
 10
68.7852196586
 20
471.2727630415
 30
0.0
 11
69.0656949025
 21
471.1719343343
 31
0.0
  0
LINE
  5
77
330
1F
100
AcDbEntity
  8
0
  6
Continuous
 62
     7
370
    15
100
AcDbLine
 10
92.5596852046
 20
448.6153518686
 30
0.0
 11
92.5596852046
 21
467.7153510877
 31
0.0
  0
LINE
  5
78
330
1F
100
AcDbEntity
  8
0
  6
Continuous
 62
     7
370
    15
100
AcDbLine
 10
622.5596565944
 20
467.7153510877
 30
0.0
 11
622.5596565944
 21
448.6153518686
 31
0.0
  0
ARC
  5
79
330
1F
100
AcDbEntity
  8
0
  6
Continuous
 62
     7
370
    15
100
AcDbCircle
 10
40.3650639132
 20
438.3954726481
 30
0.0
 40
1.526829261790721
100
AcDbArc
 50
209.6669802207
 51
291.1687086811
  0
ARC
  5
7A
330
1F
100
AcDbEntity
  8
0
  6
Continuous
 62
     7
370
    15
100
AcDbCircle
 10
674.7543117341
 20
438.3954723233
 30
0.0
 40
1.52682234848984
100
AcDbArc
 50
248.83192751
 51
330.3328860286
  0
ARC
  5
7B
330
1F
100
AcDbEntity
  8
0
  6
Continuous
 62
     7
370
    15
100
AcDbCircle
 10
40.3643565937
 20
477.9372186514
 30
0.0
 40
1.52523113568295
100
AcDbArc
 50
68.7795409042
 51
150.3847701939
  0
ARC
  5
7C
330
1F
100
AcDbEntity
  8
0
  6
Continuous
 62
     7
370
    15
100
AcDbCircle
 10
674.7550328538
 20
477.9372577418
 30
0.0
 40
1.525193065003184
100
AcDbArc
 50
29.6143536197
 51
111.2208328418
  0
LWPOLYLINE
  5
7D
330
1F
100
AcDbEntity
  8
0
  6
Continuous
 62
     7
370
    15
100
AcDbPolyline
 90
        3
 70
   128
 43
0.0
 10
40.9164253813
 20
479.3590309003
 10
54.3883193475
 20
476.0683609077
 10
57.3265638393
 20
475.1591907719
  0
LWPOLYLINE
  5
7E
330
1F
100
AcDbEntity
  8
0
  6
Continuous
 62
     7
370
    15
100
AcDbPolyline
 90
        3
 70
   128
 43
0.0
 10
674.2029685718
 20
479.3590309003
 10
660.731067155
 20
476.0683609077
 10
657.7927965861
 20
475.1591963598
  0
LWPOLYLINE
  5
7F
330
1F
100
AcDbEntity
  8
0
  6
Continuous
 62
     7
370
    15
100
AcDbPolyline
 90
        3
 70
   128
 43
0.0
 10
40.9164253813
 20
436.971672056
 10
54.3883193475
 20
440.2623420486
 10
57.3265489381
 20
441.1715065965
  0
LWPOLYLINE
  5
80
330
1F
100
AcDbEntity
  8
0
  6
Continuous
 62
     7
370
    15
100
AcDbPolyline
 90
        3
 70
   128
 43
0.0
 10
674.2029685718
 20
436.971672056
 10
660.731067155
 20
440.2623420486
 10
657.7927965861
 20
441.1715121844
  0
LWPOLYLINE
  5
81
330
1F
100
AcDbEntity
  8
0
  6
Continuous
 62
     7
370
     0
100
AcDbPolyline
 90
        8
 70
   128
 43
0.0
 10
58.3681848091
 20
458.1653502779
 10
58.3819348556
 20
462.8199349993
 10
58.4413867634
 20
465.1332965025
 10
58.5394028765
 20
467.3423033112
 10
58.5965041262
 20
468.2915352189
 10
58.645689134
 20
469.0466096529
 10
58.7006669682
 20
470.0596269125
 10
58.5871685487
 20
471.2217982763
  0
LWPOLYLINE
  5
82
330
1F
100
AcDbEntity
  8
0
  6
Continuous
 62
     7
370
     0
100
AcDbPolyline
 90
        7
 70
   128
 43
0.0
 10
58.5871685487
 20
445.10890468
 10
58.7005403083
 20
446.2753191495
 10
58.6452383739
 20
447.291047489
 10
58.5390079957
 20
448.9954749027
 10
58.4413606864
 20
451.1981240378
 10
58.3818342727
 20
453.515931675
 10
58.3681848091
 20
458.1653526306
  0
ARC
  5
83
330
1F
100
AcDbEntity
  8
0
  6
Continuous
 62
     7
370
     0
100
AcDbCircle
 10
54.8613001926
 20
446.8807834974
 30
0.0
 40
4.125681600537893
100
AcDbArc
 50
276.7532271598
 51
334.5667435852
  0
ARC
  5
84
330
1F
100
AcDbEntity
  8
0
  6
Continuous
 62
     7
370
     0
100
AcDbCircle
 10
10.0884929879
 20
557.8434917887
 30
0.0
 40
123.6407383019496
100
AcDbArc
 50
283.5412448715
 51
291.4718492192
  0
ARC
  5
85
330
1F
100
AcDbEntity
  8
0
  6
Continuous
 62
     7
370
     0
100
AcDbCircle
 10
10.088579655
 20
358.487485931
 30
0.0
 40
123.6404508838762
100
AcDbArc
 50
68.5281415482
 51
76.4587643611
  0
ARC
  5
86
330
1F
100
AcDbEntity
  8
0
  6
Continuous
 62
     7
370
     0
100
AcDbCircle
 10
54.8613043568
 20
469.4499252625
 30
0.0
 40
4.125675347508381
100
AcDbArc
 50
25.4332084633
 51
83.2468207916
  0
ARC
  5
87
330
1F
100
AcDbEntity
  8
0
  6
Continuous
 62
     7
370
     0
100
AcDbCircle
 10
705.0309436256
 20
358.4869631258
 30
0.0
 40
123.6409929263742
100
AcDbArc
 50
103.5412438908
 51
111.4718351808
  0
ARC
  5
88
330
1F
100
AcDbEntity
  8
0
  6
Continuous
 62
     7
370
     0
100
AcDbCircle
 10
705.0309436256
 20
557.8437398305
 30
0.0
 40
123.6409929263742
100
AcDbArc
 50
248.5281648192
 51
256.4587561092
  0
ARC
  5
89
330
1F
100
AcDbEntity
  8
0
  6
Continuous
 62
     7
370
     0
100
AcDbCircle
 10
660.2579867668
 20
446.8806782472
 30
0.0
 40
4.125566689897635
100
AcDbArc
 50
205.4323967568
 51
263.2478196796
  0
LWPOLYLINE
  5
8A
330
1F
100
AcDbEntity
  8
0
  6
Continuous
 62
     7
370
     0
100
AcDbPolyline
 90
        7
 70
   128
 43
0.0
 10
656.5322179538
 20
445.10890468
 10
656.4188499194
 20
446.2753191495
 10
656.4741034251
 20
447.291047489
 10
656.5803785068
 20
448.9954749027
 10
656.6780109149
 20
451.1981240378
 10
656.737555955
 20
453.515931675
 10
656.7512054187
 20
458.1653526306
  0
LWPOLYLINE
  5
8B
330
1F
100
AcDbEntity
  8
0
  6
Continuous
 62
     7
370
     0
100
AcDbPolyline
 90
        8
 70
   128
 43
0.0
 10
656.7512054187
 20
458.1653502779
 10
656.7374367458
 20
462.8199349993
 10
656.6780109149
 20
465.1332965025
 10
656.5799612743
 20
467.3423033112
 10
656.5228600246
 20
468.2915352189
 10
656.4736861926
 20
469.0466096529
 10
656.4187307101
 20
470.0596269125
 10
656.5322179538
 20
471.2217982763
  0
ARC
  5
8C
330
1F
100
AcDbEntity
  8
0
  6
Continuous
 62
     7
370
     0
100
AcDbCircle
 10
660.2579904735
 20
469.450019543
 30
0.0
 40
4.1255722559785
100
AcDbArc
 50
96.7522230067
 51
154.5675605569
  0
LWPOLYLINE
  5
8D
330
1F
100
AcDbEntity
  8
0
  6
Continuous
 62
     7
370
     0
100
AcDbPolyline
 90
        7
 70
   128
 43
0.0
 10
60.2813188177
 20
458.1653516238
 10
59.6476022345
 20
458.165351694
 10
59.3332547885
 20
458.1653517737
 10
59.0522449654
 20
458.1653518908
 10
58.8177528423
 20
458.1653520445
 10
58.6297411662
 20
458.1653522272
 10
58.3681848091
 20
458.1653526306
  0
LWPOLYLINE
  5
8E
330
1F
100
AcDbEntity
  8
0
  6
Continuous
 62
     7
370
     0
100
AcDbPolyline
 90
        8
 70
   128
 43
0.0
 10
60.2813188177
 20
458.1653516238
 10
60.3369634789
 20
453.4071001129
 10
60.4442928177
 20
450.944102546
 10
60.5944331926
 20
448.4354790205
 10
60.6570068937
 20
447.2872178906
 10
60.6866117757
 20
446.390347732
 10
60.6743928236
 20
445.3040800893
 10
60.457219575
 20
444.1956888789
  0
ARC
  5
8F
330
1F
100
AcDbEntity
  8
0
  6
Continuous
 62
     7
370
     0
100
AcDbCircle
 10
59.9708043434
 20
445.5709958521
 30
0.0
 40
1.458755811439476
100
AcDbArc
 50
198.4673983961
 51
289.477557977
  0
LWPOLYLINE
  5
90
330
1F
100
AcDbEntity
  8
0
  6
Continuous
 62
     7
370
     0
100
AcDbPolyline
 90
        8
 70
   128
 43
0.0
 10
654.8380751353
 20
458.1653516238
 10
654.7824043971
 20
453.4071001129
 10
654.6750564319
 20
450.944102546
 10
654.5249123317
 20
448.4354790205
 10
654.4623870593
 20
447.2872178906
 10
654.4327635509
 20
446.390347732
 10
654.444982503
 20
445.3040800893
 10
654.6621818286
 20
444.1956888789
  0
LWPOLYLINE
  5
91
330
1F
100
AcDbEntity
  8
0
  6
Continuous
 62
     7
370
     0
100
AcDbPolyline
 90
        7
 70
   128
 43
0.0
 10
654.8380751353
 20
458.1653513325
 10
655.4717917186
 20
458.1653512442
 10
655.7860870105
 20
458.1653511559
 10
656.0671229106
 20
458.1653510315
 10
656.3016075832
 20
458.1653508723
 10
656.4896006328
 20
458.1653506856
 10
656.7512054187
 20
458.1653502779
  0
ARC
  5
92
330
1F
100
AcDbEntity
  8
0
  6
Continuous
 62
     7
370
     0
100
AcDbCircle
 10
655.1485470207
 20
445.5710249426
 30
0.0
 40
1.45880101050465
100
AcDbArc
 50
250.5246889328
 51
341.5316427965
  0
ARC
  5
93
330
1F
100
AcDbEntity
  8
0
  6
Continuous
 62
     7
370
     0
100
AcDbCircle
 10
59.9708537799
 20
470.7596537867
 30
0.0
 40
1.458830755067261
100
AcDbArc
 50
70.5225938727
 51
161.5331507849
  0
LWPOLYLINE
  5
94
330
1F
100
AcDbEntity
  8
0
  6
Continuous
 62
     7
370
     0
100
AcDbPolyline
 90
        8
 70
   128
 43
0.0
 10
60.457219575
 20
472.1350140774
 10
60.6741581303
 20
471.0308575907
 10
60.6867533368
 20
469.9482900926
 10
60.6575507861
 20
469.0556183362
 10
60.5949472827
 20
467.9036794135
 10
60.4443337959
 20
465.387383187
 10
60.3371460181
 20
462.9289784373
 10
60.2813188177
 20
458.1653513325
  0
LWPOLYLINE
  5
95
330
1F
100
AcDbEntity
  8
0
  6
Continuous
 62
     7
370
     0
100
AcDbPolyline
 90
        8
 70
   128
 43
0.0
 10
654.6621818286
 20
472.1350140774
 10
654.4452209216
 20
471.0308575907
 10
654.4326443416
 20
469.9482900926
 10
654.4617910129
 20
469.0556183362
 10
654.5244354945
 20
467.9036794135
 10
654.6750564319
 20
465.387383187
 10
654.7822255832
 20
462.9289784373
 10
654.8380751353
 20
458.1653513325
  0
ARC
  5
96
330
1F
100
AcDbEntity
  8
0
  6
Continuous
 62
     7
370
     0
100
AcDbCircle
 10
655.1485433288
 20
470.759655712
 30
0.0
 40
1.458790630786788
100
AcDbArc
 50
18.4666787404
 51
109.4777845689
  0
LWPOLYLINE
  5
97
330
1F
100
AcDbEntity
  8
0
  6
Continuous
 62
     7
370
     0
100
AcDbPolyline
 90
        3
 70
   128
 43
0.0
 10
60.4572419268
 20
472.13496658
 10
64.089755733
 20
471.4519550928
 10
68.6102260095
 20
470.6373728716
  0
ARC
  5
98
330
1F
100
AcDbEntity
  8
0
  6
Continuous
 62
     7
370
     0
100
AcDbCircle
 10
99.0573378676
 20
638.6668055439
 30
0.0
 40
170.7656874036616
100
AcDbArc
 50
259.7293846261
 51
265.7771784386
  0
LWPOLYLINE
  5
99
330
1F
100
AcDbEntity
  8
0
  6
Continuous
 62
     7
370
     0
100
AcDbPolyline
 90
        8
 70
   128
 43
0.0
 10
92.0619006227
 20
458.1653518084
 10
92.0619006227
 20
458.1654114668
 10
92.0620744307
 20
460.3673351833
 10
92.0626963214
 20
463.4690328406
 10
92.0626790919
 20
465.9767171273
 10
92.0621733837
 20
467.6033502349
 10
92.0621496932
 20
467.9930658916
 10
92.0623907312
 20
468.1666970158
  0
LWPOLYLINE
  5
9A
330
1F
100
AcDbEntity
  8
0
  6
Continuous
 62
     7
370
     0
100
AcDbPolyline
 90
        5
 70
   128
 43
0.0
 10
92.0619006227
 20
458.1653511479
 10
83.2648446974
 20
458.1653483567
 10
74.9675922286
 20
458.1653493414
 10
67.5562743288
 20
458.165351037
 10
60.2813188177
 20
458.1653516238
  0
LWPOLYLINE
  5
9B
330
1F
100
AcDbEntity
  8
0
  6
Continuous
 62
     7
370
     0
100
AcDbPolyline
 90
        8
 70
   128
 43
0.0
 10
623.0574745876
 20
458.1653518084
 10
623.0574745876
 20
458.1654114668
 10
623.0572957736
 20
460.3673351833
 10
623.0566997272
 20
463.4690328406
 10
623.0566997272
 20
465.9767171273
 10
623.0571765643
 20
467.6033502349
 10
623.057236169
 20
467.9930658916
 10
623.0569977504
 20
468.1666970158
  0
ARC
  5
9C
330
1F
100
AcDbEntity
  8
0
  6
Continuous
 62
     7
370
     0
100
AcDbCircle
 10
616.4518404657
 20
636.1857312233
 30
0.0
 40
168.2548796431658
100
AcDbArc
 50
273.9451714217
 51
280.2906465378
  0
LWPOLYLINE
  5
9D
330
1F
100
AcDbEntity
  8
0
  6
Continuous
 62
     7
370
     0
100
AcDbPolyline
 90
        3
 70
   128
 43
0.0
 10
654.662122224
 20
472.13496658
 10
651.0296363574
 20
471.4519550928
 10
646.509160493
 20
470.6373728716
  0
LWPOLYLINE
  5
9E
330
1F
100
AcDbEntity
  8
0
  6
Continuous
 62
     7
370
     0
100
AcDbPolyline
 90
        5
 70
   128
 43
0.0
 10
623.0574745876
 20
458.1653518084
 10
631.85452411
 20
458.1653545996
 10
640.1517886859
 20
458.1653536149
 10
647.5630898219
 20
458.1653519193
 10
654.8380751353
 20
458.1653513325
  0
LWPOLYLINE
  5
9F
330
1F
100
AcDbEntity
  8
0
  6
Continuous
 62
     7
370
     0
100
AcDbPolyline
 90
        3
 70
   128
 43
0.0
 10
60.4572419268
 20
444.1957363763
 10
64.089755733
 20
444.8787478635
 10
68.6102260095
 20
445.6933300847
  0
LWPOLYLINE
  5
A0
330
1F
100
AcDbEntity
  8
0
  6
Continuous
 62
     7
370
     0
100
AcDbPolyline
 90
        8
 70
   128
 43
0.0
 10
92.0623907312
 20
448.1640059405
 10
92.0621733837
 20
448.7273527214
 10
92.0626790919
 20
450.353985829
 10
92.0626963214
 20
452.8616701157
 10
92.0620744307
 20
455.963367773
 10
92.0619556871
 20
456.9513145273
 10
92.0619006227
 20
458.1652914895
 10
92.0619006227
 20
458.1653514895
  0
ARC
  5
A1
330
1F
100
AcDbEntity
  8
0
  6
Continuous
 62
     7
370
     0
100
AcDbCircle
 10
98.6674600896
 20
280.145723071
 30
0.0
 40
168.2541250372973
100
AcDbArc
 50
93.9451640978
 51
100.2906634471
  0
LWPOLYLINE
  5
A2
330
1F
100
AcDbEntity
  8
0
  6
Continuous
 62
     7
370
     0
100
AcDbPolyline
 90
        8
 70
   128
 43
0.0
 10
623.0569977504
 20
448.1640059405
 10
623.0571765643
 20
448.7273527214
 10
623.0566997272
 20
450.353985829
 10
623.0566997272
 20
452.8616701157
 10
623.0572957736
 20
455.963367773
 10
623.0574149829
 20
456.9513145273
 10
623.0574745876
 20
458.1652914895
 10
623.0574745876
 20
458.1653514895
  0
LWPOLYLINE
  5
A3
330
1F
100
AcDbEntity
  8
0
  6
Continuous
 62
     7
370
     0
100
AcDbPolyline
 90
        3
 70
   128
 43
0.0
 10
654.662122224
 20
444.1957363763
 10
651.0296363574
 20
444.8787478635
 10
646.509160493
 20
445.6933300847
  0
ARC
  5
A4
330
1F
100
AcDbEntity
  8
0
  6
Continuous
 62
     7
370
     0
100
AcDbCircle
 10
616.0620890611
 20
277.6639705709
 30
0.0
 40
170.7656082095534
100
AcDbArc
 50
79.7293935962
 51
85.7772049608
  0
LWPOLYLINE
  5
A5
330
1F
100
AcDbEntity
  8
0
  6
Continuous
 62
     7
370
     0
100
AcDbPolyline
 90
       10
 70
   128
 43
0.0
 10
64.6952457917
 20
443.6459561714
 10
65.0936003965
 20
443.8283603543
 10
65.4895335627
 20
444.0060911605
 10
65.8724431139
 20
444.1653855049
 10
66.259815563
 20
444.3076627234
 10
66.6570414048
 20
444.4430164897
 10
67.1476528239
 20
444.6304395699
 10
67.6375061464
 20
444.8780232945
 10
68.1254204553
 20
445.2171467149
 10
68.6102260095
 20
445.6933300847
  0
LWPOLYLINE
  5
A6
330
1F
100
AcDbEntity
  8
0
  6
Continuous
 62
     7
370
     0
100
AcDbPolyline
 90
        3
 70
   128
 43
0.0
 10
64.6952457917
 20
443.6459561714
 10
68.1282870662
 20
444.8217779302
 10
69.0493706804
 20
445.1529003584
  0
LWPOLYLINE
  5
A7
330
1F
100
AcDbEntity
  8
0
  6
Continuous
 62
     7
370
     0
100
AcDbPolyline
 90
       10
 70
   128
 43
0.0
 10
650.4241127711
 20
443.6459561714
 10
650.0257749301
 20
443.8283603543
 10
649.6298212749
 20
444.0060911605
 10
649.2469210368
 20
444.1653855049
 10
648.8595504504
 20
444.3076627234
 10
648.4623450977
 20
444.4430164897
 10
647.9717392665
 20
444.6304395699
 10
647.4818486911
 20
444.8780232945
 10
646.993925069
 20
445.2171467149
 10
646.509160493
 20
445.6933300847
  0
LWPOLYLINE
  5
A8
330
1F
100
AcDbEntity
  8
0
  6
Continuous
 62
     7
370
     0
100
AcDbPolyline
 90
        3
 70
   128
 43
0.0
 10
650.4241127711
 20
443.6459561714
 10
646.991064046
 20
444.8217779302
 10
646.663536523
 20
444.9395362192
  0
LWPOLYLINE
  5
A9
330
1F
100
AcDbEntity
  8
0
  6
Continuous
 62
     7
370
     0
100
AcDbPolyline
 90
       10
 70
   128
 43
0.0
 10
64.6952457917
 20
472.6847467849
 10
65.0936003965
 20
472.502342602
 10
65.4895335627
 20
472.3246117958
 10
65.8724431139
 20
472.1653174513
 10
66.259815563
 20
472.0230402329
 10
66.6570414048
 20
471.8876864666
 10
67.1476528239
 20
471.7002633864
 10
67.6375061464
 20
471.4526796618
 10
68.1254204553
 20
471.1135562414
 10
68.6102260095
 20
470.6373728716
  0
LWPOLYLINE
  5
AA
330
1F
100
AcDbEntity
  8
0
  6
Continuous
 62
     7
370
     0
100
AcDbPolyline
 90
        3
 70
   128
 43
0.0
 10
64.6952457917
 20
472.6847467849
 10
68.1282870662
 20
471.508925026
 10
68.4558555674
 20
471.3911667371
  0
LINE
  5
AB
330
1F
100
AcDbEntity
  8
0
  6
Continuous
 62
     7
370
     0
100
AcDbLine
 10
92.0623137806
 20
468.1667193675
 30
0.0
 11
92.0623864238
 21
468.163619926
 31
0.0
  0
LINE
  5
AC
330
1F
100
AcDbEntity
  8
0
  6
Continuous
 62
     7
370
     0
100
AcDbLine
 10
623.057057355
 20
468.1667193675
 30
0.0
 11
623.0569977504
 21
468.163619926
 31
0.0
  0
LWPOLYLINE
  5
AD
330
1F
100
AcDbEntity
  8
0
  6
Continuous
 62
     7
370
     0
100
AcDbPolyline
 90
        3
 70
   128
 43
0.0
 10
650.4241127711
 20
472.6847467849
 10
646.991064046
 20
471.508925026
 10
646.0699934703
 20
471.1778025979
  0
LWPOLYLINE
  5
AE
330
1F
100
AcDbEntity
  8
0
  6
Continuous
 62
     7
370
     0
100
AcDbPolyline
 90
       10
 70
   128
 43
0.0
 10
650.4241127711
 20
472.6847467849
 10
650.0257749301
 20
472.502342602
 10
649.6298212749
 20
472.3246117958
 10
649.2469210368
 20
472.1653174513
 10
648.8595504504
 20
472.0230402329
 10
648.4623450977
 20
471.8876864666
 10
647.9717392665
 20
471.7002633864
 10
647.4818486911
 20
471.4526796618
 10
646.993925069
 20
471.1135562414
 10
646.509160493
 20
470.6373728716
  0
ARC
  5
AF
330
1F
100
AcDbEntity
  8
0
  6
Continuous
 62
     7
370
     0
100
AcDbCircle
 10
92.0596844452
 20
448.6639774342
 30
0.0
 40
0.5000007594492981
100
AcDbArc
 50
270.3013139208
 51
359.9998608839
  0
LINE
  5
B0
330
1F
100
AcDbEntity
  8
0
  6
Continuous
 62
     7
370
     0
100
AcDbLine
 10
92.5596852046
 20
458.1653511651
 30
0.0
 11
92.0619006227
 21
458.1653511479
 31
0.0
  0
ARC
  5
B1
330
1F
100
AcDbEntity
  8
0
  6
Continuous
 62
     7
370
     0
100
AcDbCircle
 10
92.0596855612
 20
467.6667046903
 30
0.0
 40
0.4999996434040417
100
AcDbArc
 50
359.9999649378
 51
89.6900086255
  0
ARC
  5
B2
330
1F
100
AcDbEntity
  8
0
  6
Continuous
 62
     7
370
     0
100
AcDbCircle
 10
623.0597522327
 20
448.6640940067
 30
0.0
 40
0.50009565195734
100
AcDbArc
 50
180.013388061
 51
269.6844183551
  0
LINE
  5
B3
330
1F
100
AcDbEntity
  8
0
  6
Continuous
 62
     7
370
     0
100
AcDbLine
 10
622.5596565944
 20
458.1653517912
 30
0.0
 11
623.0574745876
 21
458.1653518084
 31
0.0
  0
ARC
  5
B4
330
1F
100
AcDbEntity
  8
0
  6
Continuous
 62
     7
370
     0
100
AcDbCircle
 10
623.0597068907
 20
467.6666764075
 30
0.0
 40
0.5000502987769119
100
AcDbArc
 50
90.3104149059
 51
179.9943400533
  0
LINE
  5
B5
330
1F
100
AcDbEntity
  8
0
  6
Continuous
 62
     7
370
     0
100
AcDbLine
 10
93.0096851969
 20
468.1653512546
 30
0.0
 11
93.0096851969
 21
448.1653517017
 31
0.0
  0
LINE
  5
B6
330
1F
100
AcDbEntity
  8
0
  6
Continuous
 62
     7
370
     0
100
AcDbLine
 10
622.109701131
 20
448.1653517017
 30
0.0
 11
622.109701131
 21
468.1653512546
 31
0.0
  0
ARC
  5
B7
330
1F
100
AcDbEntity
  8
0
  6
Continuous
 62
     7
370
     0
100
AcDbCircle
 10
56.708479052
 20
446.0794790138
 30
0.0
 40
4.195459912438202
100
AcDbArc
 50
275.9770242145
 51
333.3208306347
  0
ARC
  5
B8
330
1F
100
AcDbEntity
  8
0
  6
Continuous
 62
     7
370
     0
100
AcDbCircle
 10
56.6817798758
 20
443.2394611032
 30
0.0
 40
1.410958513373995
100
AcDbArc
 50
198.8443126655
 51
289.1806523112
  0
ARC
  5
B9
330
1F
100
AcDbEntity
  8
0
  6
Continuous
 62
     7
370
     0
100
AcDbCircle
 10
658.4108017746
 20
446.0793121866
 30
0.0
 40
4.195287255406979
100
AcDbArc
 50
206.6778043926
 51
264.0236173222
  0
ARC
  5
BA
330
1F
100
AcDbEntity
  8
0
  6
Continuous
 62
     7
370
     0
100
AcDbCircle
 10
658.4375725043
 20
443.2394809808
 30
0.0
 40
1.410982523196541
100
AcDbArc
 50
250.8192319192
 51
341.155247115
  0
ARC
  5
BB
330
1F
100
AcDbEntity
  8
0
  6
Continuous
 62
     7
370
     0
100
AcDbCircle
 10
56.6817852908
 20
473.0912437776
 30
0.0
 40
1.410958588449142
100
AcDbArc
 50
70.8191010628
 51
161.1558908327
  0
ARC
  5
BC
330
1F
100
AcDbEntity
  8
0
  6
Continuous
 62
     7
370
     0
100
AcDbCircle
 10
56.7084767162
 20
470.2512205626
 30
0.0
 40
4.195463517150698
100
AcDbArc
 50
26.6791962856
 51
84.0229488653
  0
ARC
  5
BD
330
1F
100
AcDbEntity
  8
0
  6
Continuous
 62
     7
370
     0
100
AcDbCircle
 10
658.4108041102
 20
470.2513873902
 30
0.0
 40
4.19529085972807
100
AcDbArc
 50
95.9764095974
 51
153.3221686878
  0
ARC
  5
BE
330
1F
100
AcDbEntity
  8
0
  6
Continuous
 62
     7
370
     0
100
AcDbCircle
 10
658.4375796735
 20
473.0912310216
 30
0.0
 40
1.410972816308488
100
AcDbArc
 50
18.8444992731
 51
109.1812134333
  0
LWPOLYLINE
  5
BF
330
1F
100
AcDbEntity
  8
0
  6
Continuous
 62
     7
370
     0
100
AcDbPolyline
 90
        3
 70
   128
 43
0.0
 10
57.145350818
 20
474.4238762089
 10
60.736366753
 20
473.6923195326
 10
64.6952457917
 20
472.6847467849
  0
LWPOLYLINE
  5
C0
330
1F
100
AcDbEntity
  8
0
  6
Continuous
 62
     7
370
     0
100
AcDbPolyline
 90
        3
 70
   128
 43
0.0
 10
657.9739947063
 20
474.4238762089
 10
654.3829936725
 20
473.6923195326
 10
650.4241127711
 20
472.6847467849
  0
LWPOLYLINE
  5
C1
330
1F
100
AcDbEntity
  8
0
  6
Continuous
 62
     7
370
     0
100
AcDbPolyline
 90
        3
 70
   128
 43
0.0
 10
57.1453582686
 20
441.90682861
 10
60.736366753
 20
442.6383834237
 10
64.6952457917
 20
443.6459561714
  0
LWPOLYLINE
  5
C2
330
1F
100
AcDbEntity
  8
0
  6
Continuous
 62
     7
370
     0
100
AcDbPolyline
 90
        3
 70
   128
 43
0.0
 10
657.9739947063
 20
441.90682861
 10
654.3829936725
 20
442.6383834237
 10
650.4241127711
 20
443.6459561714
  0
LWPOLYLINE
  5
C3
330
1F
100
AcDbEntity
  8
0
  6
Continuous
 62
     7
370
     0
100
AcDbPolyline
 90
        3
 70
   128
 43
0.0
 10
68.9626291585
 20
471.2022432962
 10
67.930213381
 20
471.6369576657
 10
64.6952457917
 20
472.6847467849
  0
LWPOLYLINE
  5
C4
330
1F
100
AcDbEntity
  8
0
  6
Continuous
 62
     7
370
     0
100
AcDbPolyline
 90
        3
 70
   128
 43
0.0
 10
645.8316344958
 20
471.0653463283
 10
647.1891302806
 20
471.6369576657
 10
650.4241127711
 20
472.6847467849
  0
LWPOLYLINE
  5
C5
330
1F
100
AcDbEntity
  8
0
  6
Continuous
 62
     7
370
     0
100
AcDbPolyline
 90
        3
 70
   128
 43
0.0
 10
69.2877482814
 20
445.265356628
 10
67.930213381
 20
444.6937452906
 10
64.6952457917
 20
443.6459561714
  0
LWPOLYLINE
  5
C6
330
1F
100
AcDbEntity
  8
0
  6
Continuous
 62
     7
370
     0
100
AcDbPolyline
 90
        3
 70
   128
 43
0.0
 10
646.1567182285
 20
445.1284596601
 10
647.1891302806
 20
444.6937452906
 10
650.4241127711
 20
443.6459561714
  0
ARC
  5
C7
330
1F
100
AcDbEntity
  8
0
  6
Continuous
 62
     7
370
     0
100
AcDbCircle
 10
10.5287574987
 20
566.0509020462
 30
0.0
 40
132.607910677352
100
AcDbArc
 50
283.2472847293
 51
290.5813600605
  0
ARC
  5
C8
330
1F
100
AcDbEntity
  8
0
  6
Continuous
 62
     7
370
     0
100
AcDbCircle
 10
704.5904179706
 20
566.0505706481
 30
0.0
 40
132.6075380312798
100
AcDbArc
 50
249.4186614036
 51
256.7527743471
  0
ARC
  5
C9
330
1F
100
AcDbEntity
  8
0
  6
Continuous
 62
     7
370
     0
100
AcDbCircle
 10
10.5288528295
 20
350.2801143991
 30
0.0
 40
132.6075836847263
100
AcDbArc
 50
69.4186308847
 51
76.7527243255
  0
ARC
  5
CA
330
1F
100
AcDbEntity
  8
0
  6
Continuous
 62
     7
370
     0
100
AcDbCircle
 10
704.5904179706
 20
350.2801323082
 30
0.0
 40
132.6075380312798
100
AcDbArc
 50
103.2472256529
 51
110.5813385964
  0
LWPOLYLINE
  5
CB
330
1F
100
AcDbEntity
  8
0
  6
Continuous
 62
     7
370
    15
100
AcDbPolyline
 90
        6
 70
   128
 43
0.0
 10
769.9659885833
 20
474.4977319518
 10
761.4187048742
 20
475.5546824911
 10
753.2440582285
 20
476.5138162205
 10
745.397950522
 20
477.3705081919
 10
734.2275781551
 20
478.4970993081
 10
724.3920220056
 20
479.4532937834
  0
LWPOLYLINE
  5
CC
330
1F
100
AcDbEntity
  8
0
  6
Continuous
 62
     7
370
    15
100
AcDbPolyline
 90
        5
 70
   128
 43
0.0
 10
724.3919661263
 20
436.8774669149
 10
736.3891666749
 20
438.0450604388
 10
748.2801629225
 20
439.2677416929
 10
759.4529921183
 20
440.5396917739
 10
769.9659895146
 20
441.8329710045
  0
ARC
  5
CD
330
1F
100
AcDbEntity
  8
0
  6
Continuous
 62
     7
370
    15
100
AcDbCircle
 10
725.8734671472
 20
80.4085551957
 30
0.0
 40
396.5481531818096
100
AcDbArc
 50
81.1230490797
 51
83.6159279552
  0
LWPOLYLINE
  5
CE
330
1F
100
AcDbEntity
  8
0
  6
Continuous
 62
     7
370
    15
100
AcDbPolyline
 90
        3
 70
   128
 43
0.0
 10
769.9667159462
 20
441.833041785
 10
779.4426698232
 20
442.9696874598
 10
787.0659765316
 20
444.1238392049
  0
LWPOLYLINE
  5
CF
330
1F
100
AcDbEntity
  8
0
  6
Continuous
 62
     7
370
    15
100
AcDbPolyline
 90
       10
 70
   128
 43
0.0
 10
798.239352181
 20
458.1653512523
 10
798.1160236517
 20
461.6549563964
 10
797.6788897062
 20
464.6469570601
 10
796.8267491082
 20
467.1270346174
 10
795.58802396
 20
468.9076600501
 10
794.9760649348
 20
469.4690473282
 10
794.2677270615
 20
469.9762362891
 10
792.3591444263
 20
470.8936449045
 10
789.9563321838
 20
471.6010635623
 10
787.0659613976
 20
472.2068916911
  0
LWPOLYLINE
  5
D0
330
1F
100
AcDbEntity
  8
0
  6
Continuous
 62
     7
370
    15
100
AcDbPolyline
 90
        9
 70
   128
 43
0.0
 10
787.0659613976
 20
444.1238112652
 10
790.4125736089
 20
444.8422511944
 10
793.3370294044
 20
445.8454588333
 10
795.6511368969
 20
447.4894424805
 10
796.8655945728
 20
449.2826333174
 10
797.4258121097
 20
450.7284436279
 10
797.8706825519
 20
452.6603591533
 10
798.1511922548
 20
455.1473508493
 10
798.239352181
 20
458.165351687
  0
LINE
  5
D1
330
1F
100
AcDbEntity
  8
0
  6
Continuous
 62
     7
370
    15
100
AcDbLine
 10
724.3899693707
 20
437.6398159096
 30
0.0
 11
724.3899693707
 21
478.6908814588
 31
0.0
  0
LINE
  5
D2
330
1F
100
AcDbEntity
  8
0
  6
Continuous
 62
     7
370
    15
100
AcDbLine
 10
724.3899693707
 20
478.6909466514
 30
0.0
 11
724.3899693707
 21
479.4382678249
 31
0.0
  0
LINE
  5
D3
330
1F
100
AcDbEntity
  8
0
  6
Continuous
 62
     7
370
    15
100
AcDbLine
 10
724.3899693707
 20
436.8920141736
 30
0.0
 11
724.3899693707
 21
437.6397563049
 31
0.0
  0
LWPOLYLINE
  5
D4
330
1F
100
AcDbEntity
  8
0
  6
Continuous
 62
     7
370
     0
100
AcDbPolyline
 90
        8
 70
   128
 43
0.0
 10
797.0614610234
 20
458.1653502779
 10
796.7672776425
 20
462.8199349993
 10
796.2596984574
 20
465.1332965025
 10
795.2311653638
 20
467.3423033112
 10
794.4302242244
 20
468.2915352189
 10
793.469479307
 20
469.0466096529
 10
791.3354528131
 20
470.0596269125
 10
786.9563163252
 20
471.2217982763
  0
LWPOLYLINE
  5
D5
330
1F
100
AcDbEntity
  8
0
  6
Continuous
 62
     7
370
     0
100
AcDbPolyline
 90
        7
 70
   128
 43
0.0
 10
786.9563163252
 20
445.10890468
 10
791.3472265931
 20
446.2753191495
 10
793.4802277008
 20
447.291047489
 10
795.2359654004
 20
448.9954749027
 10
796.2599201122
 20
451.1981240378
 10
796.7680227006
 20
453.515931675
 10
797.0614610234
 20
458.1653526306
  0
ARC
  5
D6
330
1F
100
AcDbEntity
  8
0
  6
Continuous
 62
     7
370
     0
100
AcDbCircle
 10
743.4495966699
 20
696.9504366058
 30
0.0
 40
255.5718404342152
100
AcDbArc
 50
276.0108878098
 51
279.8013754956
  0
LWPOLYLINE
  5
D7
330
1F
100
AcDbEntity
  8
0
  6
Continuous
 62
     7
370
     0
100
AcDbPolyline
 90
        4
 70
   128
 43
0.0
 10
724.3900103489
 20
437.6397656181
 10
747.3040586332
 20
439.9885201731
 10
758.7490612635
 20
441.3196371773
 10
770.2124146739
 20
442.783726556
  0
LWPOLYLINE
  5
D8
330
1F
100
AcDbEntity
  8
0
  6
Continuous
 62
     7
370
     0
100
AcDbPolyline
 90
        4
 70
   128
 43
0.0
 10
770.2124137426
 20
473.5469764003
 10
758.7490612635
 20
475.011065779
 10
747.3040549079
 20
476.3421827832
 10
724.3900103489
 20
478.6909373382
  0
ARC
  5
D9
330
1F
100
AcDbEntity
  8
0
  6
Continuous
 62
     7
370
     0
100
AcDbCircle
 10
743.4493312255
 20
219.3783485359
 30
0.0
 40
255.5737754038343
100
AcDbArc
 50
80.1986391068
 51
83.9890982391
  0
LWPOLYLINE
  5
DA
330
1F
100
AcDbEntity
  8
0
  6
Continuous
 62
     7
370
     0
100
AcDbPolyline
 90
        6
 70
   128
 43
0.0
 10
769.9664775276
 20
474.4928089806
 10
770.0289720664
 20
474.4740055779
 10
770.095863379
 20
474.3893595317
 10
770.1454795891
 20
474.2422422299
 10
770.1791469002
 20
474.0417899468
 10
770.2124249184
 20
473.546975469
  0
LWPOLYLINE
  5
DB
330
1F
100
AcDbEntity
  8
0
  6
Continuous
 62
     7
370
     0
100
AcDbPolyline
 90
        6
 70
   128
 43
0.0
 10
769.9653515587
 20
441.8375549742
 10
770.028976723
 20
441.8567029664
 10
770.0958615163
 20
441.9413434246
 10
770.1454740012
 20
442.0884570011
 10
770.1791403809
 20
442.2889111468
 10
770.2124156052
 20
442.7837246933
  0
ARC
  5
DC
330
1F
100
AcDbEntity
  8
0
  6
Continuous
 62
     7
370
     0
100
AcDbCircle
 10
783.5212981623
 20
472.1016478775
 30
0.0
 40
3.545928937492547
100
AcDbArc
 50
345.632291969
 51
1.6781711862
  0
ARC
  5
DD
330
1F
100
AcDbEntity
  8
0
  6
Continuous
 62
     7
370
     0
100
AcDbCircle
 10
783.5229540902
 20
444.2294937037
 30
0.0
 40
3.544238710680686
100
AcDbArc
 50
358.3141603862
 51
14.3666726171
  0
LWPOLYLINE
  5
DE
330
1F
100
AcDbEntity
  8
0
  6
Continuous
 62
     7
370
     0
100
AcDbPolyline
 90
        7
 70
   128
 43
0.0
 10
798.2347579667
 20
458.1653516899
 10
798.2387561345
 20
458.165351694
 10
798.1981886545
 20
458.1653517737
 10
798.0860853562
 20
458.1653518908
 10
797.9001570487
 20
458.1653520445
 10
797.6525546977
 20
458.1653522272
 10
797.0614610234
 20
458.1653526306
  0
LWPOLYLINE
  5
DF
330
1F
100
AcDbEntity
  8
0
  6
Continuous
 62
     7
370
    15
100
AcDbPolyline
 90
       19
 70
   128
 43
0.0
 10
33.8658739072
 20
287.7631988478
 10
37.242313121
 20
279.727926488
 10
40.9839350921
 20
270.8237823201
 10
44.2114819032
 20
263.1426211549
 10
46.916031484
 20
256.7015793276
 10
49.1258438867
 20
251.3917181743
 10
50.8590240222
 20
247.1308037741
 10
52.1331887883
 20
243.8816186143
 10
52.995023523
 20
241.5825966848
 10
53.4616012317
 20
240.2853677151
 10
53.8768109125
 20
239.0882186694
 10
54.5181270879
 20
237.128455202
 10
55.2887331885
 20
234.4875442897
 10
56.0079451841
 20
231.4473895924
 10
56.4751226646
 20
228.7470612893
 10
56.8247523349
 20
225.7042559897
 10
57.1038250071
 20
222.3001928171
 10
57.5146574718
 20
218.6518972842
 10
58.4758047205
 20
214.8171104593
  0
LWPOLYLINE
  5
E0
330
1F
100
AcDbEntity
  8
0
  6
Continuous
 62
     7
370
    15
100
AcDbPolyline
 90
       18
 70
   128
 43
0.0
 10
656.6435594302
 20
214.8171104593
 10
657.6157111865
 20
218.7218479914
 10
658.0098767024
 20
222.2320232642
 10
658.2553882342
 20
225.2650801194
 10
658.5079927188
 20
227.7204563099
 10
658.8006515247
 20
229.7622142462
 10
659.1307420474
 20
231.5417884485
 10
659.6531171542
 20
233.8082292219
 10
660.1844329578
 20
235.7511082766
 10
661.0863108379
 20
238.6247627539
 10
662.2323889476
 20
241.8770603938
 10
663.7851495486
 20
245.9345366908
 10
665.7743353587
 20
250.8592903716
 10
668.1909460765
 20
256.6719558192
 10
671.031286214
 20
263.4362671626
 10
674.3119854671
 20
271.2439056588
 10
678.0132550937
 20
280.0519894911
 10
681.253482793
 20
287.7631988478
  0
ARC
  5
E1
330
1F
100
AcDbEntity
  8
0
  6
Continuous
 62
     7
370
    15
100
AcDbCircle
 10
622.1096852046
 20
237.3355966342
 30
0.0
 40
0.4500000000000171
100
AcDbArc
 50
0.0
 51
90.0
  0
ARC
  5
E2
330
1F
100
AcDbEntity
  8
0
  6
Continuous
 62
     7
370
    15
100
AcDbCircle
 10
622.1096852046
 20
218.2355966342
 30
0.0
 40
0.4500000000000171
100
AcDbArc
 50
270.0
 51
0.0
  0
LINE
  5
E3
330
1F
100
AcDbEntity
  8
0
  6
Continuous
 62
     7
370
    15
100
AcDbLine
 10
93.0096851969
 20
217.7855968577
 30
0.0
 11
622.109701131
 21
217.7855968577
 31
0.0
  0
LINE
  5
E4
330
1F
100
AcDbEntity
  8
0
  6
Continuous
 62
     7
370
    15
100
AcDbLine
 10
622.109701131
 20
237.7855964107
 30
0.0
 11
93.0096851969
 21
237.7855964107
 31
0.0
  0
ARC
  5
E5
330
1F
100
AcDbEntity
  8
0
  6
Continuous
 62
     7
370
    15
100
AcDbCircle
 10
93.0096852046
 20
237.3355966342
 30
0.0
 40
0.4500000000000171
100
AcDbArc
 50
90.0
 51
180.0
  0
ARC
  5
E6
330
1F
100
AcDbEntity
  8
0
  6
Continuous
 62
     7
370
    15
100
AcDbCircle
 10
93.0096852046
 20
218.2355966342
 30
0.0
 40
0.4500000000000171
100
AcDbArc
 50
180.0
 51
270.0
  0
LINE
  5
E7
330
1F
100
AcDbEntity
  8
0
  6
Continuous
 62
     7
370
    15
100
AcDbLine
 10
676.0809917194
 20
287.7851408077
 30
0.0
 11
674.2029685718
 21
287.7851408077
 31
0.0
  0
LINE
  5
E8
330
1F
100
AcDbEntity
  8
0
  6
Continuous
 62
     7
370
    15
100
AcDbLine
 10
39.0383761567
 20
287.7851408077
 30
0.0
 11
40.9164253813
 21
287.7851408077
 31
0.0
  0
LWPOLYLINE
  5
E9
330
1F
100
AcDbEntity
  8
0
  6
Continuous
 62
     7
370
    15
100
AcDbPolyline
 90
        3
 70
   128
 43
0.0
 10
635.5751056415
 20
261.7727015269
 10
637.1868748408
 20
274.778975184
 10
638.7995381099
 20
287.7851408077
  0
LINE
  5
EA
330
1F
100
AcDbEntity
  8
0
  6
Continuous
 62
     7
370
    15
100
AcDbLine
 10
674.2029685718
 20
287.7851408077
 30
0.0
 11
638.7995381099
 21
287.7851408077
 31
0.0
  0
LWPOLYLINE
  5
EB
330
1F
100
AcDbEntity
  8
0
  6
Continuous
 62
     7
370
    15
100
AcDbPolyline
 90
        3
 70
   128
 43
0.0
 10
79.5442715478
 20
261.7727015269
 10
77.9324753401
 20
274.778975184
 10
76.3198241782
 20
287.7851408077
  0
LINE
  5
EC
330
1F
100
AcDbEntity
  8
0
  6
Continuous
 62
     7
370
    15
100
AcDbLine
 10
40.9164253813
 20
287.7851408077
 30
0.0
 11
76.3198241782
 21
287.7851408077
 31
0.0
  0
LINE
  5
ED
330
1F
100
AcDbEntity
  8
0
  6
Continuous
 62
     7
370
    15
100
AcDbLine
 10
33.9180913013
 20
287.7851408077
 30
0.0
 11
39.0384655636
 21
287.7851408077
 31
0.0
  0
LINE
  5
EE
330
1F
100
AcDbEntity
  8
0
  6
Continuous
 62
     7
370
    15
100
AcDbLine
 10
681.2012691241
 20
287.7851408077
 30
0.0
 11
676.0809321147
 21
287.7851408077
 31
0.0
  0
ARC
  5
EF
330
1F
100
AcDbEntity
  8
0
  6
Continuous
 62
     7
370
    15
100
AcDbCircle
 10
618.165566723
 20
41.1725306039
 30
0.0
 40
176.679699198611
100
AcDbArc
 50
78.0203113543
 51
88.4133915759
  0
ARC
  5
F0
330
1F
100
AcDbEntity
  8
0
  6
Continuous
 62
     7
370
    15
100
AcDbCircle
 10
96.9537206529
 20
41.173450883
 30
0.0
 40
176.6787768403834
100
AcDbArc
 50
91.5865882142
 51
101.979716782
  0
LWPOLYLINE
  5
F1
330
1F
100
AcDbEntity
  8
0
  6
Continuous
 62
     7
370
    15
100
AcDbPolyline
 90
       19
 70
   128
 43
0.0
 10
635.5751652461
 20
261.7726679993
 10
635.2229017955
 20
258.9761410011
 10
634.9274415713
 20
256.8106353385
 10
634.6956391078
 20
255.2746944231
 10
634.5465678912
 20
254.3642427874
 10
634.2052120906
 20
252.4872198803
 10
633.8148016673
 20
250.6410013986
 10
633.3654422504
 20
248.8370686871
 10
632.8459877711
 20
247.0995243741
 10
631.442417596
 20
243.6924018068
 10
630.9851903659
 20
242.8677575765
 10
630.4755110484
 20
242.0687098158
 10
629.907597993
 20
241.3040241329
 10
629.2752523166
 20
240.5833415789
 10
628.197779153
 20
239.613353285
 10
627.3454327327
 20
239.0328887952
 10
626.2249846202
 20
238.4711643783
 10
624.5505709392
 20
237.9712602226
 10
623.0385799152
 20
237.7959415419
  0
LWPOLYLINE
  5
F2
330
1F
100
AcDbEntity
  8
0
  6
Continuous
 62
     7
370
    15
100
AcDbPolyline
 90
       19
 70
   128
 43
0.0
 10
79.544223119
 20
261.7726679993
 10
79.8964604926
 20
258.9761410011
 10
80.1919076782
 20
256.8106353385
 10
80.4237278369
 20
255.2746944231
 10
80.5727981222
 20
254.3642427874
 10
80.9141818625
 20
252.4872198803
 10
81.3045680714
 20
250.6410013986
 10
81.7539498401
 20
248.8370686871
 10
82.2733586845
 20
247.0995243741
 10
83.6769772884
 20
243.6924018068
 10
84.1341849607
 20
242.8677575765
 10
84.6438670722
 20
242.0687098158
 10
85.211768486
 20
241.3040241329
 10
85.8441104372
 20
240.5833415789
 10
86.9215863947
 20
239.613353285
 10
87.7739574951
 20
239.0328887952
 10
88.8943732441
 20
238.4711643783
 10
90.5687831999
 20
237.9712602226
 10
92.0807629898
 20
237.7959415419
  0
ARC
  5
F3
330
1F
100
AcDbEntity
  8
0
  6
Continuous
 62
     7
370
    15
100
AcDbCircle
 10
655.3273628808
 20
215.3648993611
 30
0.0
 40
1.445840322754905
100
AcDbArc
 50
250.2199289257
 51
349.9926494394
  0
ARC
  5
F4
330
1F
100
AcDbEntity
  8
0
  6
Continuous
 62
     7
370
    15
100
AcDbCircle
 10
59.7919994121
 20
215.3648495398
 30
0.0
 40
1.445804155879808
100
AcDbArc
 50
190.0055986051
 51
289.7819198564
  0
ARC
  5
F5
330
1F
100
AcDbEntity
  8
0
  6
Continuous
 62
     7
370
    15
100
AcDbCircle
 10
92.0596848764
 20
218.2844886592
 30
0.0
 40
0.5000003282304687
100
AcDbArc
 50
270.2539064831
 51
0.0000007638
  0
ARC
  5
F6
330
1F
100
AcDbEntity
  8
0
  6
Continuous
 62
     7
370
    15
100
AcDbCircle
 10
623.0596703129
 20
218.2845021381
 30
0.0
 40
0.5000137187045082
100
AcDbArc
 50
180.0015437649
 51
269.7483945027
  0
ARC
  5
F7
330
1F
100
AcDbEntity
  8
0
  6
Continuous
 62
     7
370
    15
100
AcDbCircle
 10
623.0597433818
 20
237.2963027628
 30
0.0
 40
0.5000867943021942
100
AcDbArc
 50
92.4254580779
 51
179.990497661
  0
ARC
  5
F8
330
1F
100
AcDbEntity
  8
0
  6
Continuous
 62
     7
370
    15
100
AcDbCircle
 10
92.0596837805
 20
237.2963846471
 30
0.0
 40
0.5000014241154974
100
AcDbArc
 50
0.0001207359
 51
87.5837913334
  0
LINE
  5
F9
330
1F
100
AcDbEntity
  8
0
  6
Continuous
 62
     7
370
    15
100
AcDbLine
 10
622.5596565944
 20
237.3355962438
 30
0.0
 11
622.5596565944
 21
218.2355979559
 31
0.0
  0
LINE
  5
FA
330
1F
100
AcDbEntity
  8
0
  6
Continuous
 62
     7
370
    15
100
AcDbLine
 10
92.5596852046
 20
237.3355962438
 30
0.0
 11
92.5596852046
 21
218.2355970246
 31
0.0
  0
LWPOLYLINE
  5
FB
330
1F
100
AcDbEntity
  8
0
  6
Continuous
 62
     7
370
     0
100
AcDbPolyline
 90
        4
 70
   128
 43
0.0
 10
674.2029685718
 20
287.7850961042
 10
665.9294862491
 20
265.1441078735
 10
661.8182558757
 20
253.8155093891
 10
657.9739947063
 20
242.4013502998
  0
LWPOLYLINE
  5
FC
330
1F
100
AcDbEntity
  8
0
  6
Continuous
 62
     7
370
     0
100
AcDbPolyline
 90
        4
 70
   128
 43
0.0
 10
659.7729224902
 20
241.9626964358
 10
663.609911893
 20
253.4260489149
 10
667.7468914729
 20
264.8710552705
 10
676.0809917194
 20
287.7850998295
  0
ARC
  5
FD
330
1F
100
AcDbEntity
  8
0
  6
Continuous
 62
     7
370
     0
100
AcDbCircle
 10
660.5718624238
 20
249.1472095457
 30
0.0
 40
7.228798907393769
100
AcDbArc
 50
248.93802858
 51
263.6546035528
  0
LWPOLYLINE
  5
FE
330
1F
100
AcDbEntity
  8
0
  6
Continuous
 62
     7
370
     0
100
AcDbPolyline
 90
        4
 70
   128
 43
0.0
 10
55.3464491111
 20
241.9626964358
 10
51.5094708842
 20
253.4260489149
 10
47.3724801284
 20
264.8710552705
 10
39.0383873326
 20
287.7850998295
  0
LWPOLYLINE
  5
FF
330
1F
100
AcDbEntity
  8
0
  6
Continuous
 62
     7
370
     0
100
AcDbPolyline
 90
        4
 70
   128
 43
0.0
 10
40.9164253813
 20
287.7850961042
 10
49.1898704511
 20
265.1441078735
 10
53.3011157256
 20
253.8155093891
 10
57.1453582686
 20
242.4013502998
  0
ARC
  5
100
330
1F
100
AcDbEntity
  8
0
  6
Continuous
 62
     7
370
     0
100
AcDbCircle
 10
54.5474684432
 20
249.1471051009
 30
0.0
 40
7.228711123836231
100
AcDbArc
 50
276.3458283862
 51
291.0624271462
  0
LWPOLYLINE
  5
101
330
1F
100
AcDbEntity
  8
0
  6
Continuous
 62
     7
370
     0
100
AcDbPolyline
 90
        3
 70
   128
 43
0.0
 10
657.9739947063
 20
242.4013437805
 10
654.3829936725
 20
245.507296185
 10
650.4241127711
 20
248.9307820899
  0
LWPOLYLINE
  5
102
330
1F
100
AcDbEntity
  8
0
  6
Continuous
 62
     7
370
     0
100
AcDbPolyline
 90
        9
 70
   128
 43
0.0
 10
635.5751652461
 20
261.7726679993
 10
635.5754036647
 20
261.7724742842
 10
635.9648604137
 20
261.4357899976
 10
637.1181506854
 20
260.4381647063
 10
638.8762492877
 20
258.9178197188
 10
640.9730810863
 20
257.1043651653
 10
644.016077016
 20
254.4727083398
 10
647.1891302806
 20
251.7284937305
 10
650.4241127711
 20
248.9307820899
  0
LWPOLYLINE
  5
103
330
1F
100
AcDbEntity
  8
0
  6
Continuous
 62
     7
370
     0
100
AcDbPolyline
 90
        9
 70
   128
 43
0.0
 10
79.544223119
 20
261.7726679993
 10
79.5439958763
 20
261.7724742842
 10
79.1545363334
 20
261.4357899976
 10
78.0012255725
 20
260.4381647063
 10
76.2431409401
 20
258.9178197188
 10
74.1462663007
 20
257.1043651653
 10
71.10329086
 20
254.4727083398
 10
67.930213381
 20
251.7284937305
 10
64.6952457917
 20
248.9307820899
  0
LWPOLYLINE
  5
104
330
1F
100
AcDbEntity
  8
0
  6
Continuous
 62
     7
370
     0
100
AcDbPolyline
 90
        3
 70
   128
 43
0.0
 10
57.145350818
 20
242.4013437805
 10
60.736366753
 20
245.507296185
 10
64.6952457917
 20
248.9307820899
  0
ARC
  5
105
330
1F
100
AcDbEntity
  8
0
  6
Continuous
 62
     7
370
     0
100
AcDbCircle
 10
-2.9779979693
 20
221.4979979266
 30
0.0
 40
61.67750036045085
100
AcDbArc
 50
354.0585685282
 51
3.4585614204
  0
ARC
  5
106
330
1F
100
AcDbEntity
  8
0
  6
Continuous
 62
     7
370
     0
100
AcDbCircle
 10
-4.52362393
 20
221.6896017641
 30
0.0
 40
63.20936584814464
100
AcDbArc
 50
3.200607479
 51
18.7070221581
  0
ARC
  5
107
330
1F
100
AcDbEntity
  8
0
  6
Continuous
 62
     7
370
     0
100
AcDbCircle
 10
718.0985936676
 20
221.4980467463
 30
0.0
 40
61.67870440897524
100
AcDbArc
 50
176.5415516107
 51
185.9413606653
  0
ARC
  5
108
330
1F
100
AcDbEntity
  8
0
  6
Continuous
 62
     7
370
     0
100
AcDbCircle
 10
719.6406702271
 20
221.6900104114
 30
0.0
 40
63.20702879486789
100
AcDbArc
 50
161.2926515746
 51
176.7996450651
  0
ARC
  5
109
330
1F
100
AcDbEntity
  8
0
  6
Continuous
 62
     7
370
     0
100
AcDbCircle
 10
-5.7564800991
 20
221.3801524652
 30
0.0
 40
66.3214204992503
100
AcDbArc
 50
3.2652894382
 51
18.4791358138
  0
ARC
  5
10A
330
1F
100
AcDbEntity
  8
0
  6
Continuous
 62
     7
370
     0
100
AcDbCircle
 10
59.6681538452
 20
229.6602865272
 30
0.0
 40
4.57115853291455
100
AcDbArc
 50
256.3208131558
 51
279.9408475248
  0
ARC
  5
10B
330
1F
100
AcDbEntity
  8
0
  6
Continuous
 62
     7
370
     0
100
AcDbCircle
 10
720.8742715678
 20
221.3806226008
 30
0.0
 40
66.31979755832508
100
AcDbArc
 50
161.5208238601
 51
176.7350373944
  0
ARC
  5
10C
330
1F
100
AcDbEntity
  8
0
  6
Continuous
 62
     7
370
     0
100
AcDbCircle
 10
655.4513995294
 20
229.6612195829
 30
0.0
 40
4.572093036365749
100
AcDbArc
 50
260.0592714787
 51
283.6738480586
  0
LWPOLYLINE
  5
10D
330
1F
100
AcDbEntity
  8
0
  6
Continuous
 62
     7
370
     0
100
AcDbPolyline
 90
        3
 70
   128
 43
0.0
 10
654.662122224
 20
225.157764052
 10
651.0296363574
 20
225.6384028689
 10
646.509160493
 20
226.1988078346
  0
LWPOLYLINE
  5
10E
330
1F
100
AcDbEntity
  8
0
  6
Continuous
 62
     7
370
     0
100
AcDbPolyline
 90
       10
 70
   128
 43
0.0
 10
650.4241127711
 20
248.9307820899
 10
650.0257749301
 20
246.6176543487
 10
649.6298212749
 20
244.317930202
 10
649.2469210368
 20
242.095474164
 10
648.8595504504
 20
239.8461913792
 10
648.4623450977
 20
237.5397943062
 10
647.9717392665
 20
234.6911043962
 10
647.4818486911
 20
231.8468191763
 10
646.993925069
 20
229.0137810735
 10
646.509160493
 20
226.1988078346
  0
LWPOLYLINE
  5
10F
330
1F
100
AcDbEntity
  8
0
  6
Continuous
 62
     7
370
     0
100
AcDbPolyline
 90
       10
 70
   128
 43
0.0
 10
64.6952457917
 20
248.9307820899
 10
65.0936003965
 20
246.6176543487
 10
65.4895335627
 20
244.317930202
 10
65.8724431139
 20
242.095474164
 10
66.259815563
 20
239.8461913792
 10
66.6570414048
 20
237.5397943062
 10
67.1476528239
 20
234.6911043962
 10
67.6375061464
 20
231.8468191763
 10
68.1254204553
 20
229.0137810735
 10
68.6102260095
 20
226.1988078346
  0
LWPOLYLINE
  5
110
330
1F
100
AcDbEntity
  8
0
  6
Continuous
 62
     7
370
     0
100
AcDbPolyline
 90
        3
 70
   128
 43
0.0
 10
60.4572419268
 20
225.157764052
 10
64.089755733
 20
225.6384028689
 10
68.6102260095
 20
226.1988078346
  0
LINE
  5
111
330
1F
100
AcDbEntity
  8
0
  6
Continuous
 62
     7
370
     0
100
AcDbLine
 10
623.057057355
 20
227.78481965
 30
0.0
 11
623.0568785411
 21
228.1628850426
 31
0.0
  0
LWPOLYLINE
  5
112
330
1F
100
AcDbEntity
  8
0
  6
Continuous
 62
     7
370
     0
100
AcDbPolyline
 90
        8
 70
   128
 43
0.0
 10
650.4241127711
 20
248.9307820899
 10
646.991064046
 20
246.325587864
 10
643.5700554591
 20
243.7295094234
 10
640.1435632449
 20
241.129262383
 10
636.6866130572
 20
238.5059474138
 10
632.1688194019
 20
235.0774817271
 10
627.6806492549
 20
231.671330762
 10
623.0569381457
 20
228.1629683086
  0
ARC
  5
113
330
1F
100
AcDbEntity
  8
0
  6
Continuous
 62
     7
370
     0
100
AcDbCircle
 10
620.9323983449
 20
22.1847990975
 30
0.0
 40
205.6109957733354
100
AcDbArc
 50
82.8542419842
 51
89.4079463261
  0
LWPOLYLINE
  5
114
330
1F
100
AcDbEntity
  8
0
  6
Continuous
 62
     7
370
     0
100
AcDbPolyline
 90
        8
 70
   128
 43
0.0
 10
64.6952457917
 20
248.9307820899
 10
68.1282870662
 20
246.325587864
 10
71.5493142795
 20
243.7295094234
 10
74.9758344334
 20
241.129262383
 10
78.4327548188
 20
238.5059474138
 10
82.9505475429
 20
235.0774817271
 10
87.4387116362
 20
231.671330762
 10
92.0624428852
 20
228.1629683086
  0
LINE
  5
115
330
1F
100
AcDbEntity
  8
0
  6
Continuous
 62
     7
370
     0
100
AcDbLine
 10
92.0623137806
 20
227.78481965
 30
0.0
 11
92.0624875305
 21
228.1628850426
 31
0.0
  0
ARC
  5
116
330
1F
100
AcDbEntity
  8
0
  6
Continuous
 62
     7
370
     0
100
AcDbCircle
 10
94.1868773455
 20
22.1864866165
 30
0.0
 40
205.6093075771197
100
AcDbArc
 50
90.5920378413
 51
97.1457858726
  0
LWPOLYLINE
  5
117
330
1F
100
AcDbEntity
  8
0
  6
Continuous
 62
     7
370
     0
100
AcDbPolyline
 90
        8
 70
   128
 43
0.0
 10
623.0574745876
 20
217.7844932405
 10
623.0574745876
 20
217.7844932405
 10
623.0572957736
 20
218.0302888257
 10
623.0566997272
 20
219.3064568666
 10
623.0566997272
 20
221.5397297507
 10
623.0571765643
 20
224.4762682924
 10
623.057236169
 20
225.9334660004
 10
623.0569977504
 20
227.7848178469
  0
LWPOLYLINE
  5
118
330
1F
100
AcDbEntity
  8
0
  6
Continuous
 62
     7
370
     0
100
AcDbPolyline
 90
        8
 70
   128
 43
0.0
 10
654.6621818286
 20
225.1577645177
 10
654.4452209216
 20
220.5306948265
 10
654.4326443416
 20
218.0949719725
 10
654.4617910129
 20
216.9193048132
 10
654.5244354945
 20
215.9385103834
 10
654.6750564319
 20
214.7887935964
 10
654.7822255832
 20
214.2759766532
 10
654.8380751353
 20
214.0043657375
  0
LWPOLYLINE
  5
119
330
1F
100
AcDbEntity
  8
0
  6
Continuous
 62
     7
370
     0
100
AcDbPolyline
 90
        8
 70
   128
 43
0.0
 10
60.457219575
 20
225.1577645177
 10
60.6741581303
 20
220.5306948265
 10
60.6867533368
 20
218.0949719725
 10
60.6575507861
 20
216.9193048132
 10
60.5949472827
 20
215.9385103834
 10
60.4443337959
 20
214.7887935964
 10
60.3371460181
 20
214.2759766532
 10
60.2813188177
 20
214.0043657375
  0
LWPOLYLINE
  5
11A
330
1F
100
AcDbEntity
  8
0
  6
Continuous
 62
     7
370
     0
100
AcDbPolyline
 90
        8
 70
   128
 43
0.0
 10
92.0619006227
 20
217.7844932405
 10
92.0619006227
 20
217.7844932405
 10
92.0620744307
 20
218.0302888257
 10
92.0626963214
 20
219.3064568666
 10
92.0626790919
 20
221.5397297507
 10
92.0621733837
 20
224.4762682924
 10
92.0621496932
 20
225.9334660004
 10
92.0623907312
 20
227.7848178469
  0
LWPOLYLINE
  5
11B
330
1F
100
AcDbEntity
  8
0
  6
Continuous
 62
     7
370
     0
100
AcDbPolyline
 90
        7
 70
   128
 43
0.0
 10
623.0569977504
 20
228.1630180471
 10
623.0559248668
 20
229.9998479532
 10
623.0521101695
 20
233.1047789296
 10
623.046328519
 20
235.6101321158
 10
623.040785287
 20
237.233631323
 10
623.039116357
 20
237.6748845083
 10
623.0385799152
 20
237.7959415419
  0
LWPOLYLINE
  5
11C
330
1F
100
AcDbEntity
  8
0
  6
Continuous
 62
     7
370
     0
100
AcDbPolyline
 90
        7
 70
   128
 43
0.0
 10
92.0623772852
 20
228.1630180471
 10
92.0634630327
 20
229.9998479532
 10
92.0672488007
 20
233.1047789296
 10
92.0730235828
 20
235.6101321158
 10
92.0785752258
 20
237.233631323
 10
92.0802830385
 20
237.6748845083
 10
92.0807629898
 20
237.7959415419
  0
LWPOLYLINE
  5
11D
330
1F
100
AcDbEntity
  8
0
  6
Continuous
 62
     7
370
     0
100
AcDbPolyline
 90
        5
 70
   128
 43
0.0
 10
92.5596852046
 20
227.7849111121
 10
92.5218833888
 20
227.7848755371
 10
92.4141938465
 20
227.7848453413
 10
92.2529000106
 20
227.7848250906
 10
92.0623907312
 20
227.7848178469
  0
ARC
  5
11E
330
1F
100
AcDbEntity
  8
0
  6
Continuous
 62
     7
370
     0
100
AcDbCircle
 10
622.7740150796
 20
44.8156829993
 30
0.0
 40
182.9693537098342
100
AcDbArc
 50
89.9113856017
 51
90.0671251172
  0
ARC
  5
11F
330
1F
100
AcDbEntity
  8
0
  6
Continuous
 62
     7
370
     0
100
AcDbCircle
 10
622.9328476858
 20
224.8785656143
 30
0.0
 40
3.286786014112965
100
AcDbArc
 50
87.8373608098
 51
96.5195867054
  0
ARC
  5
120
330
1F
100
AcDbEntity
  8
0
  6
Continuous
 62
     7
370
     0
100
AcDbCircle
 10
92.1860833032
 20
224.8696306269
 30
0.0
 40
3.295709920163701
100
AcDbArc
 50
83.4909546752
 51
92.1511292903
  0
LINE
  5
121
330
1F
100
AcDbEntity
  8
0
  6
Continuous
 62
     7
370
     0
100
AcDbLine
 10
622.109701131
 20
217.7855968577
 30
0.0
 11
622.109701131
 21
237.7855964107
 31
0.0
  0
LINE
  5
122
330
1F
100
AcDbEntity
  8
0
  6
Continuous
 62
     7
370
     0
100
AcDbLine
 10
93.0096851969
 20
237.7855964107
 30
0.0
 11
93.0096851969
 21
217.7855968577
 31
0.0
  0
ENDSEC
  0
SECTION
  2
OBJECTS
  0
DICTIONARY
  5
C
330
0
100
AcDbDictionary
281
     1
  3
ACAD_GROUP
350
D
  3
ACAD_LAYOUT
350
1A
  3
ACAD_MATERIAL
350
3B
  3
ACAD_MLEADERSTYLE
350
124
  3
ACAD_MLINESTYLE
350
17
  3
ACAD_PLOTSETTINGS
350
19
  3
ACAD_PLOTSTYLENAME
350
E
  3
ACAD_TABLESTYLE
350
123
  3
ACAD_VISUALSTYLE
350
2A
  0
DICTIONARY
  5
D
102
{ACAD_REACTORS
330
C
102
}
330
C
100
AcDbDictionary
281
     1
  0
DICTIONARY
  5
1A
102
{ACAD_REACTORS
330
C
102
}
330
C
100
AcDbDictionary
281
     1
  3
Layout1
350
1E
  3
Layout2
350
26
  3
Model
350
22
  0
DICTIONARY
  5
3B
102
{ACAD_REACTORS
330
C
102
}
330
C
100
AcDbDictionary
281
     1
  3
ByBlock
350
3D
  3
ByLayer
350
3C
  3
Global
350
3E
  0
DICTIONARY
  5
124
102
{ACAD_REACTORS
330
C
102
}
330
C
100
AcDbDictionary
281
     1
  0
DICTIONARY
  5
17
102
{ACAD_REACTORS
330
C
102
}
330
C
100
AcDbDictionary
281
     1
  3
Standard
350
18
  0
DICTIONARY
  5
19
102
{ACAD_REACTORS
330
C
102
}
330
C
100
AcDbDictionary
281
     1
  0
ACDBDICTIONARYWDFLT
  5
E
102
{ACAD_REACTORS
330
C
102
}
330
C
100
AcDbDictionary
281
     1
  3
Normal
350
F
100
AcDbDictionaryWithDefault
340
F
  0
DICTIONARY
  5
123
102
{ACAD_REACTORS
330
C
102
}
330
C
100
AcDbDictionary
281
     1
  0
DICTIONARY
  5
2A
102
{ACAD_REACTORS
330
C
102
}
330
C
100
AcDbDictionary
281
     1
  3
2dWireframe
350
2F
  3
3D Hidden
350
31
  3
3dWireframe
350
30
  3
Basic
350
32
  3
Brighten
350
36
  3
ColorChange
350
3A
  3
Conceptual
350
34
  3
Dim
350
35
  3
Facepattern
350
39
  3
Flat
350
2B
  3
FlatWithEdges
350
2C
  3
Gouraud
350
2D
  3
GouraudWithEdges
350
2E
  3
Linepattern
350
38
  3
Realistic
350
33
  3
Thicken
350
37
  0
LAYOUT
  5
1E
102
{ACAD_REACTORS
330
1A
102
}
330
1A
100
AcDbPlotSettings
  1

  2
none_device
  4

  6

 40
0.0
 41
0.0
 42
0.0
 43
0.0
 44
0.0
 45
0.0
 46
0.0
 47
0.0
 48
0.0
 49
0.0
140
0.0
141
0.0
142
1.0
143
1.0
 70
   688
 72
     0
 73
     0
 74
     5
  7

 75
    16
 76
     0
 77
     2
 78
   300
147
1.0
148
0.0
149
0.0
100
AcDbLayout
  1
Layout1
 70
     1
 71
     1
 10
0.0
 20
0.0
 11
420.0
 21
297.0
 12
0.0
 22
0.0
 32
0.0
 14
1.0000000000E+20
 24
1.0000000000E+20
 34
1.0000000000E+20
 15
-1.0000000000E+20
 25
-1.0000000000E+20
 35
-1.0000000000E+20
146
0.0
 13
0.0
 23
0.0
 33
0.0
 16
1.0
 26
0.0
 36
0.0
 17
0.0
 27
1.0
 37
0.0
 76
     0
330
1B
  0
LAYOUT
  5
26
102
{ACAD_REACTORS
330
1A
102
}
330
1A
100
AcDbPlotSettings
  1

  2
none_device
  4

  6

 40
0.0
 41
0.0
 42
0.0
 43
0.0
 44
0.0
 45
0.0
 46
0.0
 47
0.0
 48
0.0
 49
0.0
140
0.0
141
0.0
142
1.0
143
1.0
 70
   688
 72
     0
 73
     0
 74
     5
  7

 75
    16
 76
     0
 77
     2
 78
   300
147
1.0
148
0.0
149
0.0
100
AcDbLayout
  1
Layout2
 70
     1
 71
     2
 10
0.0
 20
0.0
 11
0.0
 21
0.0
 12
0.0
 22
0.0
 32
0.0
 14
0.0
 24
0.0
 34
0.0
 15
0.0
 25
0.0
 35
0.0
146
0.0
 13
0.0
 23
0.0
 33
0.0
 16
1.0
 26
0.0
 36
0.0
 17
0.0
 27
1.0
 37
0.0
 76
     0
330
23
  0
LAYOUT
  5
22
102
{ACAD_REACTORS
330
1A
102
}
330
1A
100
AcDbPlotSettings
  1

  2
none_device
  4

  6

 40
0.0
 41
0.0
 42
0.0
 43
0.0
 44
0.0
 45
0.0
 46
0.0
 47
0.0
 48
0.0
 49
0.0
140
0.0
141
0.0
142
1.0
143
1.0
 70
  1712
 72
     0
 73
     0
 74
     0
  7

 75
     0
 76
     0
 77
     2
 78
   300
147
1.0
148
0.0
149
0.0
100
AcDbLayout
  1
Model
 70
     1
 71
     0
 10
0.0
 20
0.0
 11
841.0
 21
594.0
 12
0.0
 22
0.0
 32
0.0
 14
0.0
 24
0.0
 34
0.0
 15
841.0
 25
594.0
 35
0.0
146
0.0
 13
0.0
 23
0.0
 33
0.0
 16
1.0
 26
0.0
 36
0.0
 17
0.0
 27
1.0
 37
0.0
 76
     0
330
1F
331
29
  0
MATERIAL
  5
3D
102
{ACAD_REACTORS
330
3B
102
}
330
3B
100
AcDbMaterial
  1
ByBlock
 72
     1
 94
      127
  0
MATERIAL
  5
3C
102
{ACAD_REACTORS
330
3B
102
}
330
3B
100
AcDbMaterial
  1
ByLayer
 72
     1
 94
      127
  0
MATERIAL
  5
3E
102
{ACAD_REACTORS
330
3B
102
}
330
3B
100
AcDbMaterial
  1
Global
 72
     1
 94
      127
  0
MLINESTYLE
  5
18
102
{ACAD_REACTORS
330
17
102
}
330
17
100
AcDbMlineStyle
  2
Standard
 70
     0
  3

 62
   256
 51
90.0
 52
90.0
 71
     2
 49
0.5
 62
   256
  6
BYLAYER
 49
-0.5
 62
   256
  6
BYLAYER
  0
ACDBPLACEHOLDER
  5
F
102
{ACAD_REACTORS
330
E
102
}
330
E
  0
VISUALSTYLE
  5
2F
102
{ACAD_REACTORS
330
2A
102
}
330
2A
100
AcDbVisualStyle
  2
2dWireframe
 70
     4
177
     2
291
     0
 71
     0
176
     1
 72
     2
176
     1
 73
     0
176
     1
 90
        0
176
     1
 40
-0.6
176
     1
 41
-30.0
176
     1
 62
     5
 63
     7
421
 16777215
176
     1
 74
     1
176
     1
 91
        4
176
     1
 64
     7
176
     1
 65
   257
176
     1
 75
     1
176
     1
175
     1
176
     1
 42
1.0
176
     1
 92
        0
176
     1
 66
   257
176
     1
 43
1.0
176
     1
 76
     1
176
     1
 77
     6
176
     1
 78
     2
176
     1
 67
     7
176
     1
 79
     5
176
     1
170
     0
176
     1
171
     0
176
     1
290
     0
176
     1
 93
        1
176
     1
 44
0.0
176
     1
173
     0
176
     1
  0
VISUALSTYLE
  5
31
102
{ACAD_REACTORS
330
2A
102
}
330
2A
100
AcDbVisualStyle
  2
3D Hidden
 70
     6
177
     2
291
     0
 71
     1
176
     1
 72
     2
176
     1
 73
     2
176
     1
 90
        0
176
     1
 40
-0.6
176
     1
 41
-30.0
176
     1
 62
     5
 63
     7
421
 16777215
176
     1
 74
     2
176
     1
 91
        2
176
     1
 64
     7
176
     1
 65
   257
176
     1
 75
     2
176
     1
175
     1
176
     1
 42
40.0
176
     1
 92
        0
176
     1
 66
   257
176
     1
 43
1.0
176
     1
 76
     1
176
     1
 77
     6
176
     1
 78
     2
176
     1
 67
     7
176
     1
 79
     3
176
     1
170
     0
176
     1
171
     0
176
     1
290
     0
176
     1
 93
        1
176
     1
 44
0.0
176
     1
173
     0
176
     1
  0
VISUALSTYLE
  5
30
102
{ACAD_REACTORS
330
2A
102
}
330
2A
100
AcDbVisualStyle
  2
3dWireframe
 70
     5
177
     2
291
     0
 71
     0
176
     1
 72
     2
176
     1
 73
     0
176
     1
 90
        0
176
     1
 40
-0.6
176
     1
 41
-30.0
176
     1
 62
     5
 63
     7
421
 16777215
176
     1
 74
     1
176
     1
 91
        4
176
     1
 64
     7
176
     1
 65
   257
176
     1
 75
     1
176
     1
175
     1
176
     1
 42
1.0
176
     1
 92
        0
176
     1
 66
   257
176
     1
 43
1.0
176
     1
 76
     1
176
     1
 77
     6
176
     1
 78
     2
176
     1
 67
     7
176
     1
 79
     5
176
     1
170
     0
176
     1
171
     0
176
     1
290
     0
176
     1
 93
        1
176
     1
 44
0.0
176
     1
173
     0
176
     1
  0
VISUALSTYLE
  5
32
102
{ACAD_REACTORS
330
2A
102
}
330
2A
100
AcDbVisualStyle
  2
Basic
 70
     7
177
     2
291
     1
 71
     1
176
     1
 72
     0
176
     1
 73
     1
176
     1
 90
        0
176
     1
 40
-0.6
176
     1
 41
-30.0
176
     1
 62
     5
 63
     7
421
 16777215
176
     1
 74
     0
176
     1
 91
        4
176
     1
 64
     7
176
     1
 65
   257
176
     1
 75
     1
176
     1
175
     1
176
     1
 42
1.0
176
     1
 92
        8
176
     1
 66
     7
176
     1
 43
1.0
176
     1
 76
     1
176
     1
 77
     6
176
     1
 78
     2
176
     1
 67
     7
176
     1
 79
     5
176
     1
170
     0
176
     1
171
     0
176
     1
290
     0
176
     1
 93
        1
176
     1
 44
0.0
176
     1
173
     0
176
     1
  0
VISUALSTYLE
  5
36
102
{ACAD_REACTORS
330
2A
102
}
330
2A
100
AcDbVisualStyle
  2
Brighten
 70
    12
177
     2
291
     1
 71
     2
176
     1
 72
     2
176
     1
 73
     0
176
     1
 90
        0
176
     1
 40
-0.6
176
     1
 41
-30.0
176
     1
 62
     5
 63
     7
421
 16777215
176
     1
 74
     1
176
     1
 91
        4
176
     1
 64
     7
176
     1
 65
   257
176
     1
 75
     1
176
     1
175
     1
176
     1
 42
1.0
176
     1
 92
        8
176
     1
 66
     7
176
     1
 43
1.0
176
     1
 76
     1
176
     1
 77
     6
176
     1
 78
     2
176
     1
 67
     7
176
     1
 79
     5
176
     1
170
     0
176
     1
171
     0
176
     1
290
     0
176
     1
 93
        1
176
     1
 44
50.0
176
     1
173
     0
176
     1
  0
VISUALSTYLE
  5
3A
102
{ACAD_REACTORS
330
2A
102
}
330
2A
100
AcDbVisualStyle
  2
ColorChange
 70
    16
177
     2
291
     1
 71
     2
176
     1
 72
     2
176
     1
 73
     3
176
     1
 90
        0
176
     1
 40
-0.6
176
     1
 41
-30.0
176
     1
 62
     5
 63
     8
421
  8421504
176
     1
 74
     1
176
     1
 91
        4
176
     1
 64
     7
176
     1
 65
   257
176
     1
 75
     1
176
     1
175
     1
176
     1
 42
1.0
176
     1
 92
        8
176
     1
 66
     8
424
  8421504
176
     1
 43
1.0
176
     1
 76
     1
176
     1
 77
     6
176
     1
 78
     2
176
     1
 67
     7
176
     1
 79
     5
176
     1
170
     0
176
     1
171
     0
176
     1
290
     0
176
     1
 93
        1
176
     1
 44
0.0
176
     1
173
     0
176
     1
  0
VISUALSTYLE
  5
34
102
{ACAD_REACTORS
330
2A
102
}
330
2A
100
AcDbVisualStyle
  2
Conceptual
 70
     9
177
     2
291
     0
 71
     3
176
     1
 72
     2
176
     1
 73
     0
176
     1
 90
        0
176
     1
 40
-0.6
176
     1
 41
-30.0
176
     1
 62
     5
 63
     7
421
 16777215
176
     1
 74
     2
176
     1
 91
        2
176
     1
 64
     7
176
     1
 65
   257
176
     1
 75
     1
176
     1
175
     1
176
     1
 42
40.0
176
     1
 92
        8
176
     1
 66
     7
176
     1
 43
1.0
176
     1
 76
     1
176
     1
 77
     6
176
     1
 78
     2
176
     1
 67
     7
176
     1
 79
     3
176
     1
170
     0
176
     1
171
     0
176
     1
290
     0
176
     1
 93
        1
176
     1
 44
0.0
176
     1
173
     0
176
     1
  0
VISUALSTYLE
  5
35
102
{ACAD_REACTORS
330
2A
102
}
330
2A
100
AcDbVisualStyle
  2
Dim
 70
    11
177
     2
291
     1
 71
     2
176
     1
 72
     2
176
     1
 73
     0
176
     1
 90
        0
176
     1
 40
-0.6
176
     1
 41
-30.0
176
     1
 62
     5
 63
     7
421
 16777215
176
     1
 74
     1
176
     1
 91
        4
176
     1
 64
     7
176
     1
 65
   257
176
     1
 75
     1
176
     1
175
     1
176
     1
 42
1.0
176
     1
 92
        8
176
     1
 66
     7
176
     1
 43
1.0
176
     1
 76
     1
176
     1
 77
     6
176
     1
 78
     2
176
     1
 67
     7
176
     1
 79
     5
176
     1
170
     0
176
     1
171
     0
176
     1
290
     0
176
     1
 93
        1
176
     1
 44
-50.0
176
     1
173
     0
176
     1
  0
VISUALSTYLE
  5
39
102
{ACAD_REACTORS
330
2A
102
}
330
2A
100
AcDbVisualStyle
  2
Facepattern
 70
    15
177
     2
291
     1
 71
     2
176
     1
 72
     2
176
     1
 73
     0
176
     1
 90
        0
176
     1
 40
-0.6
176
     1
 41
-30.0
176
     1
 62
     5
 63
     7
421
 16777215
176
     1
 74
     1
176
     1
 91
        4
176
     1
 64
     7
176
     1
 65
   257
176
     1
 75
     1
176
     1
175
     1
176
     1
 42
1.0
176
     1
 92
        8
176
     1
 66
     7
176
     1
 43
1.0
176
     1
 76
     1
176
     1
 77
     6
176
     1
 78
     2
176
     1
 67
     7
176
     1
 79
     5
176
     1
170
     0
176
     1
171
     0
176
     1
290
     0
176
     1
 93
        1
176
     1
 44
0.0
176
     1
173
     0
176
     1
  0
VISUALSTYLE
  5
2B
102
{ACAD_REACTORS
330
2A
102
}
330
2A
100
AcDbVisualStyle
  2
Flat
 70
     0
177
     2
291
     1
 71
     2
176
     1
 72
     1
176
     1
 73
     1
176
     1
 90
        2
176
     1
 40
-0.6
176
     1
 41
30.0
176
     1
 62
     5
 63
     7
421
 16777215
176
     1
 74
     0
176
     1
 91
        4
176
     1
 64
     7
176
     1
 65
   257
176
     1
 75
     1
176
     1
175
     1
176
     1
 42
1.0
176
     1
 92
        8
176
     1
 66
     7
176
     1
 43
1.0
176
     1
 76
     1
176
     1
 77
     6
176
     1
 78
     2
176
     1
 67
     7
176
     1
 79
     5
176
     1
170
     0
176
     1
171
     0
176
     1
290
     0
176
     1
 93
       13
176
     1
 44
0.0
176
     1
173
     0
176
     1
  0
VISUALSTYLE
  5
2C
102
{ACAD_REACTORS
330
2A
102
}
330
2A
100
AcDbVisualStyle
  2
FlatWithEdges
 70
     1
177
     2
291
     1
 71
     2
176
     1
 72
     1
176
     1
 73
     1
176
     1
 90
        2
176
     1
 40
-0.6
176
     1
 41
30.0
176
     1
 62
     5
 63
     7
421
 16777215
176
     1
 74
     1
176
     1
 91
        4
176
     1
 64
     7
176
     1
 65
   257
176
     1
 75
     1
176
     1
175
     1
176
     1
 42
1.0
176
     1
 92
        0
176
     1
 66
   257
176
     1
 43
1.0
176
     1
 76
     1
176
     1
 77
     6
176
     1
 78
     2
176
     1
 67
     7
176
     1
 79
     5
176
     1
170
     0
176
     1
171
     0
176
     1
290
     0
176
     1
 93
       13
176
     1
 44
0.0
176
     1
173
     0
176
     1
  0
VISUALSTYLE
  5
2D
102
{ACAD_REACTORS
330
2A
102
}
330
2A
100
AcDbVisualStyle
  2
Gouraud
 70
     2
177
     2
291
     1
 71
     2
176
     1
 72
     2
176
     1
 73
     1
176
     1
 90
        2
176
     1
 40
-0.6
176
     1
 41
30.0
176
     1
 62
     5
 63
     7
421
 16777215
176
     1
 74
     0
176
     1
 91
        4
176
     1
 64
     7
176
     1
 65
   257
176
     1
 75
     1
176
     1
175
     1
176
     1
 42
1.0
176
     1
 92
        0
176
     1
 66
     7
176
     1
 43
1.0
176
     1
 76
     1
176
     1
 77
     6
176
     1
 78
     2
176
     1
 67
     7
176
     1
 79
     5
176
     1
170
     0
176
     1
171
     0
176
     1
290
     0
176
     1
 93
       13
176
     1
 44
0.0
176
     1
173
     0
176
     1
  0
VISUALSTYLE
  5
2E
102
{ACAD_REACTORS
330
2A
102
}
330
2A
100
AcDbVisualStyle
  2
GouraudWithEdges
 70
     3
177
     2
291
     1
 71
     2
176
     1
 72
     2
176
     1
 73
     1
176
     1
 90
        2
176
     1
 40
-0.6
176
     1
 41
30.0
176
     1
 62
     5
 63
     7
421
 16777215
176
     1
 74
     1
176
     1
 91
        4
176
     1
 64
     7
176
     1
 65
   257
176
     1
 75
     1
176
     1
175
     1
176
     1
 42
1.0
176
     1
 92
        0
176
     1
 66
   257
176
     1
 43
1.0
176
     1
 76
     1
176
     1
 77
     6
176
     1
 78
     2
176
     1
 67
     7
176
     1
 79
     5
176
     1
170
     0
176
     1
171
     0
176
     1
290
     0
176
     1
 93
       13
176
     1
 44
0.0
176
     1
173
     0
176
     1
  0
VISUALSTYLE
  5
38
102
{ACAD_REACTORS
330
2A
102
}
330
2A
100
AcDbVisualStyle
  2
Linepattern
 70
    14
177
     2
291
     1
 71
     2
176
     1
 72
     2
176
     1
 73
     0
176
     1
 90
        0
176
     1
 40
-0.6
176
     1
 41
-30.0
176
     1
 62
     5
 63
     7
421
 16777215
176
     1
 74
     1
176
     1
 91
        4
176
     1
 64
     7
176
     1
 65
   257
176
     1
 75
     7
176
     1
175
     7
176
     1
 42
1.0
176
     1
 92
        8
176
     1
 66
     7
176
     1
 43
1.0
176
     1
 76
     1
176
     1
 77
     6
176
     1
 78
     2
176
     1
 67
     7
176
     1
 79
     5
176
     1
170
     0
176
     1
171
     0
176
     1
290
     0
176
     1
 93
        1
176
     1
 44
0.0
176
     1
173
     0
176
     1
  0
VISUALSTYLE
  5
33
102
{ACAD_REACTORS
330
2A
102
}
330
2A
100
AcDbVisualStyle
  2
Realistic
 70
     8
177
     2
291
     0
 71
     2
176
     1
 72
     2
176
     1
 73
     0
176
     1
 90
        0
176
     1
 40
-0.6
176
     1
 41
-30.0
176
     1
 62
     5
 63
     7
421
 16777215
176
     1
 74
     1
176
     1
 91
        0
176
     1
 64
     7
176
     1
 65
   257
176
     1
 75
     1
176
     1
175
     1
176
     1
 42
1.0
176
     1
 92
        8
176
     1
 66
     8
424
  7895160
176
     1
 43
1.0
176
     1
 76
     1
176
     1
 77
     6
176
     1
 78
     2
176
     1
 67
     7
176
     1
 79
     5
176
     1
170
     0
176
     1
171
     0
176
     1
290
     0
176
     1
 93
       13
176
     1
 44
0.0
176
     1
173
     0
176
     1
  0
VISUALSTYLE
  5
37
102
{ACAD_REACTORS
330
2A
102
}
330
2A
100
AcDbVisualStyle
  2
Thicken
 70
    13
177
     2
291
     1
 71
     2
176
     1
 72
     2
176
     1
 73
     0
176
     1
 90
        0
176
     1
 40
-0.6
176
     1
 41
-30.0
176
     1
 62
     5
 63
     7
421
 16777215
176
     1
 74
     1
176
     1
 91
        4
176
     1
 64
     7
176
     1
 65
   257
176
     1
 75
     1
176
     1
175
     1
176
     1
 42
1.0
176
     1
 92
       12
176
     1
 66
     7
176
     1
 43
1.0
176
     1
 76
     1
176
     1
 77
     6
176
     1
 78
     2
176
     1
 67
     7
176
     1
 79
     5
176
     1
170
     0
176
     1
171
     0
176
     1
290
     0
176
     1
 93
        1
176
     1
 44
0.0
176
     1
173
     0
176
     1
  0
ENDSEC
  0
EOF
