  0
SECTION
  2
HEADER
  9
$ACADVER
  1
AC1009
  9
$DWGCODEPAGE
  3
ansi_1252
  9
$INSBASE
 10
0.0
 20
0.0
 30
0.0
  9
$EXTMIN
 10
0.0
 20
0.0
 30
0.0
  9
$EXTMAX
 10
594.0
 20
841.0
 30
0.0
  9
$LIMMIN
 10
0.0
 20
0.0
  9
$LIMMAX
 10
594.0
 20
841.0
  9
$ORTHOMODE
 70
     0
  9
$REGENMODE
 70
     1
  9
$FILLMODE
 70
     1
  9
$QTEXTMODE
 70
     0
  9
$MIRRTEXT
 70
     1
  9
$DRAGMODE
 70
     2
  9
$LTSCALE
 40
1.0
  9
$OSMODE
 70
    37
  9
$ATTMODE
 70
     1
  9
$TEXTSIZE
 40
10.0
  9
$TRACEWID
 40
1.0
  9
$TEXTSTYLE
  7
STANDARD
  9
$CLAYER
  8
0
  9
$CELTYPE
  6
BYLAYER
  9
$CECOLOR
 62
   256
  9
$DIMSCALE
 40
1.0
  9
$DIMASZ
 40
2.5
  9
$DIMEXO
 40
0.0
  9
$DIMDLI
 40
3.75
  9
$DIMRND
 40
0.0
  9
$DIMDLE
 40
0.0
  9
$DIMEXE
 40
1.0
  9
$DIMTP
 40
0.0
  9
$DIMTM
 40
0.0
  9
$DIMTXT
 40
3.5
  9
$DIMCEN
 40
2.5
  9
$DIMTSZ
 40
0.0
  9
$DIMTOL
 70
     0
  9
$DIMLIM
 70
     0
  9
$DIMTIH
 70
     1
  9
$DIMTOH
 70
     1
  9
$DIMSE1
 70
     0
  9
$DIMSE2
 70
     0
  9
$DIMTAD
 70
     1
  9
$DIMZIN
 70
     0
  9
$DIMBLK
  1

  9
$DIMASO
 70
     1
  9
$DIMSHO
 70
     1
  9
$DIMPOST
  1

  9
$DIMAPOST
  1

  9
$DIMALT
 70
     0
  9
$DIMALTD
 70
     3
  9
$DIMALTF
 40
0.0393700787
  9
$DIMLFAC
 40
1.0
  9
$DIMTOFL
 70
     1
  9
$DIMTVP
 40
0.0
  9
$DIMTIX
 70
     0
  9
$DIMSOXD
 70
     0
  9
$DIMSAH
 70
     0
  9
$DIMBLK1
  1

  9
$DIMBLK2
  1

  9
$DIMSTYLE
  2
ISO-25
  9
$DIMCLRD
 70
     0
  9
$DIMCLRE
 70
     0
  9
$DIMCLRT
 70
     0
  9
$DIMTFAC
 40
1.0
  9
$DIMGAP
 40
1.5
  9
$LUNITS
 70
     2
  9
$LUPREC
 70
     2
  9
$SKETCHINC
 40
1.0
  9
$FILLETRAD
 40
10.0
  9
$AUNITS
 70
     0
  9
$AUPREC
 70
     2
  9
$MENU
  1
.
  9
$ELEVATION
 40
0.0
  9
$PELEVATION
 40
0.0
  9
$THICKNESS
 40
0.0
  9
$LIMCHECK
 70
     0
  9
$CHAMFERA
 40
0.0
  9
$CHAMFERB
 40
0.0
  9
$SKPOLY
 70
     0
  9
$TDCREATE
 40
2459605.652024873
  9
$TDUPDATE
 40
2459605.652025416
  9
$TDINDWG
 40
0.0000000116
  9
$TDUSRTIMER
 40
0.0000000116
  9
$USRTIMER
 70
     1
  9
$ANGBASE
 50
0.0
  9
$ANGDIR
 70
     0
  9
$PDMODE
 70
     0
  9
$PDSIZE
 40
-1.0
  9
$PLINEWID
 40
0.0
  9
$COORDS
 70
     1
  9
$SPLFRAME
 70
     0
  9
$SPLINETYPE
 70
     6
  9
$SPLINESEGS
 70
     8
  9
$ATTDIA
 70
     0
  9
$ATTREQ
 70
     1
  9
$HANDLING
 70
     1
  9
$HANDSEED
  5
25A
  9
$SURFTAB1
 70
     6
  9
$SURFTAB2
 70
     6
  9
$SURFTYPE
 70
     6
  9
$SURFU
 70
     6
  9
$SURFV
 70
     6
  9
$UCSNAME
  2

  9
$UCSORG
 10
0.0
 20
0.0
 30
0.0
  9
$UCSXDIR
 10
1.0
 20
0.0
 30
0.0
  9
$UCSYDIR
 10
0.0
 20
1.0
 30
0.0
  9
$PUCSNAME
  2

  9
$PUCSORG
 10
0.0
 20
0.0
 30
0.0
  9
$PUCSXDIR
 10
1.0
 20
0.0
 30
0.0
  9
$PUCSYDIR
 10
0.0
 20
1.0
 30
0.0
  9
$USERI1
 70
     0
  9
$USERI2
 70
     0
  9
$USERI3
 70
     0
  9
$USERI4
 70
     0
  9
$USERI5
 70
     0
  9
$USERR1
 40
0.0
  9
$USERR2
 40
0.0
  9
$USERR3
 40
0.0
  9
$USERR4
 40
0.0
  9
$USERR5
 40
0.0
  9
$WORLDVIEW
 70
     1
  9
$SHADEDGE
 70
     3
  9
$SHADEDIF
 70
    70
  9
$TILEMODE
 70
     1
  9
$MAXACTVP
 70
    64
  9
$PLIMCHECK
 70
     0
  9
$PEXTMIN
 10
1.0000000000E+20
 20
1.0000000000E+20
 30
1.0000000000E+20
  9
$PEXTMAX
 10
-1.0000000000E+20
 20
-1.0000000000E+20
 30
-1.0000000000E+20
  9
$PLIMMIN
 10
0.0
 20
0.0
  9
$PLIMMAX
 10
420.0
 20
297.0
  9
$UNITMODE
 70
     0
  9
$VISRETAIN
 70
     1
  9
$PLINEGEN
 70
     0
  9
$PSLTSCALE
 70
     1
  0
ENDSEC
  0
SECTION
  2
TABLES
  0
TABLE
  2
VPORT
 70
     1
  0
VPORT
  2
*ACTIVE
 70
     0
 10
0.0
 20
0.0
 11
1.0
 21
1.0
 12
297.0
 22
420.5
 13
0.0
 23
0.0
 14
10.0
 24
10.0
 15
10.0
 25
10.0
 16
0.0
 26
0.0
 36
1.0
 17
0.0
 27
0.0
 37
0.0
 40
841.0
 41
0.7063020214
 42
50.0
 43
0.0
 44
0.0
 50
0.0
 51
0.0
 71
     0
 72
  2000
 73
     1
 74
     3
 75
     0
 76
     0
 77
     0
 78
     0
  0
ENDTAB
  0
TABLE
  2
LTYPE
 70
     6
  0
LTYPE
  2
CONTINUOUS
 70
     0
  3
Solid line
 72
    65
 73
     0
 40
0.0
  0
LTYPE
  2
HIDDEN
 70
     0
  3
Hidden __ __ __ __ __ __ __ __ __ __ __ __ __ __
 72
    65
 73
     2
 40
1.905
 49
1.27
 49
-0.635
  0
LTYPE
  2
PHANTOM
 70
     0
  3
Phantom ______  __  __  ______  __  __  ______
 72
    65
 73
     6
 40
12.7
 49
6.35
 49
-1.27
 49
1.27
 49
-1.27
 49
1.27
 49
-1.27
  0
LTYPE
  2
CENTER
 70
     0
  3
Center ____ _ ____ _ ____ _ ____ _ ____ _ ____
 72
    65
 73
     4
 40
10.16
 49
6.35
 49
-1.27
 49
1.27
 49
-1.27
  0
LTYPE
  2
CENTERX2
 70
     0
  3
Center (2x) ________  __  ________  __  _____
 72
    65
 73
     4
 40
20.32
 49
12.7
 49
-2.54
 49
2.54
 49
-2.54
  0
LTYPE
  2
DOT2
 70
     0
  3
Dot (.5x) ........................................
 72
    65
 73
     2
 40
0.635
 49
0.0
 49
-0.635
  0
ENDTAB
  0
TABLE
  2
LAYER
 70
     1
  0
LAYER
  2
0
 70
     0
 62
     7
  6
CONTINUOUS
  0
ENDTAB
  0
TABLE
  2
STYLE
 70
     1
  0
STYLE
  2
STANDARD
 70
     0
 40
0.0
 41
1.0
 50
0.0
 71
     0
 42
10.0
  3
txt
  4

  0
ENDTAB
  0
TABLE
  2
VIEW
 70
     0
  0
ENDTAB
  0
TABLE
  2
UCS
 70
     0
  0
ENDTAB
  0
TABLE
  2
APPID
 70
     1
  0
APPID
  2
ACAD
 70
     0
  0
ENDTAB
  0
TABLE
  2
DIMSTYLE
 70
     2
  0
DIMSTYLE
  2
ISO-25
 70
     0
  3

  4

  5

  6

  7

 40
1.0
 41
2.5
 42
0.625
 43
3.75
 44
1.25
 45
0.0
 46
0.0
 47
0.0
 48
0.0
140
2.5
141
2.5
142
0.0
143
0.0393700787
144
1.0
145
0.0
146
1.0
147
0.625
 71
     0
 72
     0
 73
     0
 74
     0
 75
     0
 76
     0
 77
     1
 78
     8
170
     0
171
     3
172
     1
173
     0
174
     0
175
     0
176
     0
177
     0
178
     0
  0
DIMSTYLE
  2
SLDDIMSTYLE0
 70
     0
  3

  4

  5

  6

  7

 40
1.0
 41
2.5
 42
0.0625
 43
0.38
 44
0.0
 45
0.000000001
 46
0.0
 47
0.0
 48
0.0
140
6.0
141
0.09
142
0.0
143
25.4
144
1.0
145
0.0
146
1.0
147
1.5
 71
     0
 72
     0
 73
     0
 74
     0
 75
     0
 76
     0
 77
     1
 78
    12
170
     0
171
     2
172
     0
173
     1
174
     0
175
     0
176
     0
177
     0
178
     0
  0
ENDTAB
  0
ENDSEC
  0
SECTION
  2
BLOCKS
  0
BLOCK
  8
0
  2
$MODEL_SPACE
 70
     0
 10
0.0
 20
0.0
 30
0.0
  3
$MODEL_SPACE
  1

  0
ENDBLK
  5
21
  8
0
  0
BLOCK
 67
     1
  8
0
  2
$PAPER_SPACE
 70
     0
 10
0.0
 20
0.0
 30
0.0
  3
$PAPER_SPACE
  1

  0
ENDBLK
  5
1D
 67
     1
  8
0
  0
BLOCK
  8
0
  2
_D
 70
     0
 10
0.0
 20
0.0
 30
0.0
  3
_D
  1

  0
SOLID
  5
7A
  8
0
  6
CONTINUOUS
 62
     7
 10
42.7614395004
 20
152.0299240879
 30
0.0
 11
42.4614395004
 21
149.5299240879
 31
0.0
 12
43.0614395004
 22
149.5299240879
 32
0.0
 13
43.0614395004
 23
149.5299240879
 33
0.0
  0
SOLID
  5
7B
  8
0
  6
CONTINUOUS
 62
     7
 10
42.7614395004
 20
52.0299240879
 30
0.0
 11
43.0614395004
 21
54.5299240879
 31
0.0
 12
42.4614395004
 22
54.5299240879
 32
0.0
 13
42.4614395004
 23
54.5299240879
 33
0.0
  0
LINE
  5
7C
  8
0
  6
CONTINUOUS
 62
     7
 10
56.6850079902
 20
152.0299240879
 30
0.0
 11
41.7614395004
 21
152.0299240879
 31
0.0
  0
LINE
  5
7D
  8
0
  6
CONTINUOUS
 62
     7
 10
56.6850079902
 20
52.0299240879
 30
0.0
 11
41.7614395004
 21
52.0299240879
 31
0.0
  0
LINE
  5
7E
  8
0
  6
CONTINUOUS
 62
     7
 10
42.7614395004
 20
152.0299240879
 30
0.0
 11
42.7614395004
 21
52.0299240879
 31
0.0
  0
TEXT
  5
7F
  8
0
  6
CONTINUOUS
 62
     7
 10
40.6418793617
 20
94.3680541463
 30
0.0
 40
6.0
  1
100
 50
90.0
 41
0.7
 11
42.7614397332
 21
94.3680541463
 31
0.0
 73
     1
  0
TEXT
  5
80
  8
0
  6
CONTINUOUS
 62
     7
 10
40.6418793617
 20
105.7430548466
 30
0.0
 40
6.0
  1
mm
 50
90.0
 41
0.7
 11
42.7614397332
 21
105.7430548466
 31
0.0
 73
     1
  0
ENDBLK
  5
79
  8
0
  0
BLOCK
  8
0
  2
_D_1
 70
     0
 10
0.0
 20
0.0
 30
0.0
  3
_D_1
  1

  0
SOLID
  5
85
  8
0
  6
CONTINUOUS
 62
     7
 10
56.6850079902
 20
38.4602342313
 30
0.0
 11
59.1850079902
 21
38.1602342313
 31
0.0
 12
59.1850079902
 22
38.7602342313
 32
0.0
 13
59.1850079902
 23
38.7602342313
 33
0.0
  0
SOLID
  5
86
  8
0
  6
CONTINUOUS
 62
     7
 10
156.6850079902
 20
38.4602342313
 30
0.0
 11
154.1850079902
 21
38.7602342313
 31
0.0
 12
154.1850079902
 22
38.1602342313
 32
0.0
 13
154.1850079902
 23
38.1602342313
 33
0.0
  0
LINE
  5
87
  8
0
  6
CONTINUOUS
 62
     7
 10
56.6850079902
 20
52.0299240879
 30
0.0
 11
56.6850079902
 21
37.4602342313
 31
0.0
  0
LINE
  5
88
  8
0
  6
CONTINUOUS
 62
     7
 10
156.6850079902
 20
52.0299240879
 30
0.0
 11
156.6850079902
 21
37.4602342313
 31
0.0
  0
LINE
  5
89
  8
0
  6
CONTINUOUS
 62
     7
 10
56.6850079902
 20
38.4602342313
 30
0.0
 11
156.6850079902
 21
38.4602342313
 31
0.0
  0
TEXT
  5
8A
  8
0
  6
CONTINUOUS
 62
     7
 10
93.9626484861
 20
40.57979437
 30
0.0
 40
6.0
  1
100
 41
0.7
 11
93.9626484861
 21
38.4602339984
 31
0.0
 73
     1
  0
TEXT
  5
8B
  8
0
  6
CONTINUOUS
 62
     7
 10
105.3376491864
 20
40.57979437
 30
0.0
 40
6.0
  1
mm
 41
0.7
 11
105.3376491864
 21
38.4602339984
 31
0.0
 73
     1
  0
ENDBLK
  5
84
  8
0
  0
ENDSEC
  0
SECTION
  2
ENTITIES
  0
LINE
  5
73
  8
0
  6
CONTINUOUS
 62
     7
 10
56.6850079902
 20
152.0299240879
 30
0.0
 11
56.6850079902
 21
52.0299240879
 31
0.0
  0
LINE
  5
74
  8
0
  6
CONTINUOUS
 62
     7
 10
56.6850079902
 20
52.0299240879
 30
0.0
 11
156.6850079902
 21
52.0299240879
 31
0.0
  0
DIMENSION
  5
75
  8
0
  6
CONTINUOUS
 62
     7
  2
_D
 10
42.7614395004
 20
52.0299240879
 30
0.0
 11
42.7614395004
 21
105.4472211621
 31
0.0
 70
   160
  1
<>mm
  3
SLDDIMSTYLE0
 13
56.6850079902
 23
152.0299240879
 33
0.0
 14
56.6850079902
 24
52.0299240879
 34
0.0
 50
90.0
  0
DIMENSION
  5
81
  8
0
  6
CONTINUOUS
 62
     7
  2
_D_1
 10
156.6850079902
 20
38.4602342313
 30
0.0
 11
105.0418155019
 21
38.4602342313
 31
0.0
 70
   160
  1
<>mm
  3
SLDDIMSTYLE0
 13
56.6850079902
 23
52.0299240879
 33
0.0
 14
156.6850079902
 24
52.0299240879
 34
0.0
  0
TEXT
  5
8C
  8
0
  6
CONTINUOUS
 62
     7
 10
412.8252631579
 20
39.0761681714
 30
0.0
 40
10.0
  1
KLUDI GmbH & Co KG
 41
0.6222222222
 11
412.8252631579
 21
35.5435675522
 31
0.0
 73
     1
  0
TEXT
  5
8D
  8
0
  6
CONTINUOUS
 62
     7
 10
210.0873490389
 20
39.0761681714
 30
0.0
 40
10.0
  1
20245..15
 41
0.7
 11
210.0873490389
 21
35.5435675522
 31
0.0
 73
     1
  0
LINE
  5
8E
  8
0
  6
CONTINUOUS
 62
     7
 10
109.53044853
 20
410.0041534114
 30
0.0
 11
109.7153734221
 21
409.9985215516
 31
0.0
  0
POLYLINE
  5
8F
  8
0
  6
CONTINUOUS
 62
     7
 66
     1
 10
0.0
 20
0.0
 30
0.0
 70
   128
  0
VERTEX
  5
149
  8
0
  6
CONTINUOUS
 62
     7
 10
99.2519730199
 20
414.7704955872
 30
0.0
  0
VERTEX
  5
14A
  8
0
  6
CONTINUOUS
 62
     7
 10
99.3064144321
 20
414.2215084905
 30
0.0
  0
VERTEX
  5
14B
  8
0
  6
CONTINUOUS
 62
     7
 10
99.653124006
 20
413.4358383787
 30
0.0
  0
VERTEX
  5
14C
  8
0
  6
CONTINUOUS
 62
     7
 10
100.2430931092
 20
412.7083966045
 30
0.0
  0
VERTEX
  5
14D
  8
0
  6
CONTINUOUS
 62
     7
 10
101.096751418
 20
412.025670411
 30
0.0
  0
VERTEX
  5
14E
  8
0
  6
CONTINUOUS
 62
     7
 10
102.2080553805
 20
411.4115126571
 30
0.0
  0
VERTEX
  5
14F
  8
0
  6
CONTINUOUS
 62
     7
 10
103.5267914352
 20
410.8966572597
 30
0.0
  0
VERTEX
  5
150
  8
0
  6
CONTINUOUS
 62
     7
 10
105.0042947659
 20
410.4937521612
 30
0.0
  0
VERTEX
  5
151
  8
0
  6
CONTINUOUS
 62
     7
 10
106.6008603651
 20
410.2077275229
 30
0.0
  0
VERTEX
  5
152
  8
0
  6
CONTINUOUS
 62
     7
 10
108.2759034049
 20
410.0423603945
 30
0.0
  0
VERTEX
  5
153
  8
0
  6
CONTINUOUS
 62
     7
 10
109.53044853
 20
410.0041534114
 30
0.0
  0
SEQEND
  5
247
  8
0
  6
CONTINUOUS
 62
     7
  0
POLYLINE
  5
90
  8
0
  6
CONTINUOUS
 62
     7
 66
     1
 10
0.0
 20
0.0
 30
0.0
 70
   128
  0
VERTEX
  5
154
  8
0
  6
CONTINUOUS
 62
     7
 10
111.1139576589
 20
410.0529002557
 30
0.0
  0
VERTEX
  5
155
  8
0
  6
CONTINUOUS
 62
     7
 10
112.3021137441
 20
410.1417249739
 30
0.0
  0
VERTEX
  5
156
  8
0
  6
CONTINUOUS
 62
     7
 10
113.9225194776
 20
410.3885121332
 30
0.0
  0
VERTEX
  5
157
  8
0
  6
CONTINUOUS
 62
     7
 10
115.4338297749
 20
410.7515894262
 30
0.0
  0
VERTEX
  5
158
  8
0
  6
CONTINUOUS
 62
     7
 10
116.7991828844
 20
411.2261577155
 30
0.0
  0
VERTEX
  5
159
  8
0
  6
CONTINUOUS
 62
     7
 10
117.9863459399
 20
411.8092462019
 30
0.0
  0
VERTEX
  5
15A
  8
0
  6
CONTINUOUS
 62
     7
 10
118.9657641742
 20
412.5033816094
 30
0.0
  0
VERTEX
  5
15B
  8
0
  6
CONTINUOUS
 62
     7
 10
119.6991814829
 20
413.3152218607
 30
0.0
  0
VERTEX
  5
15C
  8
0
  6
CONTINUOUS
 62
     7
 10
120.0839643226
 20
414.0866577645
 30
0.0
  0
VERTEX
  5
15D
  8
0
  6
CONTINUOUS
 62
     7
 10
120.2153357572
 20
414.8841067314
 30
0.0
  0
VERTEX
  5
15E
  8
0
  6
CONTINUOUS
 62
     7
 10
120.1835217204
 20
415.0795732435
 30
0.0
  0
SEQEND
  5
248
  8
0
  6
CONTINUOUS
 62
     7
  0
POLYLINE
  5
91
  8
0
  6
CONTINUOUS
 62
     7
 66
     1
 10
0.0
 20
0.0
 30
0.0
 70
   128
  0
VERTEX
  5
15F
  8
0
  6
CONTINUOUS
 62
     7
 10
109.7153734221
 20
409.9985215516
 30
0.0
  0
VERTEX
  5
160
  8
0
  6
CONTINUOUS
 62
     7
 10
110.6148075695
 20
410.0155845641
 30
0.0
  0
VERTEX
  5
161
  8
0
  6
CONTINUOUS
 62
     7
 10
111.1139576589
 20
410.0529002557
 30
0.0
  0
SEQEND
  5
249
  8
0
  6
CONTINUOUS
 62
     7
  0
LINE
  5
92
  8
0
  6
CONTINUOUS
 62
     7
 10
120.2153734221
 20
414.8979186905
 30
0.0
 11
120.2153734221
 21
425.9548736923
 31
0.0
  0
LINE
  5
93
  8
0
  6
CONTINUOUS
 62
     7
 10
99.2153734221
 20
425.9548736923
 30
0.0
 11
99.2153734221
 21
414.8979186905
 31
0.0
  0
LINE
  5
94
  8
0
  6
CONTINUOUS
 62
     7
 10
120.2153734221
 20
425.9548736923
 30
0.0
 11
120.2153734221
 21
447.1728724608
 31
0.0
  0
LINE
  5
95
  8
0
  6
CONTINUOUS
 62
     7
 10
99.2153734221
 20
447.1728724608
 30
0.0
 11
99.2153734221
 21
425.9548736923
 31
0.0
  0
ARC
  5
96
  8
0
  6
CONTINUOUS
 62
     7
 10
219.7153734221
 20
447.1728724608
 30
0.0
 40
23.00000000000006
 50
288.595354159
 51
251.404645841
  0
ARC
  5
97
  8
0
  6
CONTINUOUS
 62
     7
 10
228.1425301114
 20
422.1253647841
 30
0.0
 40
3.42715668930137
 50
108.595354159
 51
180.0
  0
LINE
  5
98
  8
0
  6
CONTINUOUS
 62
     7
 10
224.7153734221
 20
422.1253647841
 30
0.0
 11
224.7153734221
 21
363.1728724608
 31
0.0
  0
ARC
  5
99
  8
0
  6
CONTINUOUS
 62
     7
 10
211.2882167328
 20
422.1253647841
 30
0.0
 40
3.427156689301398
 50
0.0
 51
71.404645841
  0
LINE
  5
9A
  8
0
  6
CONTINUOUS
 62
     7
 10
214.7153734221
 20
422.1253647841
 30
0.0
 11
214.7153734221
 21
363.1728724608
 31
0.0
  0
ARC
  5
9B
  8
0
  6
CONTINUOUS
 62
     7
 10
223.7153734221
 20
363.1728724608
 30
0.0
 40
1.0
 50
270.0
 51
0.0
  0
LINE
  5
9C
  8
0
  6
CONTINUOUS
 62
     7
 10
223.7153734221
 20
362.1728724608
 30
0.0
 11
215.7153734221
 21
362.1728724608
 31
0.0
  0
ARC
  5
9D
  8
0
  6
CONTINUOUS
 62
     7
 10
215.7153734221
 20
363.1728724608
 30
0.0
 40
1.0
 50
180.0
 51
270.0
  0
ARC
  5
9E
  8
0
  6
CONTINUOUS
 62
     7
 10
219.7153734221
 20
447.1728724608
 30
0.0
 40
34.75000000000001
 50
180.0
 51
261.7272889043
  0
ARC
  5
9F
  8
0
  6
CONTINUOUS
 62
     7
 10
219.7153734221
 20
447.1728724608
 30
0.0
 40
34.75
 50
278.2727110957
 51
180.0
  0
LINE
  5
A0
  8
0
  6
CONTINUOUS
 62
     7
 10
99.2178285083
 20
414.8019640699
 30
0.0
 11
99.2153734221
 21
414.8979186905
 31
0.0
  0
LINE
  5
A1
  8
0
  6
CONTINUOUS
 62
     7
 10
120.2104171994
 20
415.0342457466
 30
0.0
 11
120.2153734221
 21
414.8979186905
 31
0.0
  0
ARC
  5
A2
  8
0
  6
CONTINUOUS
 62
     7
 10
109.7153734221
 20
447.1728724608
 30
0.0
 40
10.50000000000001
 50
0.0
 51
179.996725654
  0
ARC
  5
A3
  8
0
  6
CONTINUOUS
 62
     7
 10
109.7153734221
 20
447.1728724608
 30
0.0
 40
34.75000000000008
 50
180.0
 51
252.5377157029
  0
ARC
  5
A4
  8
0
  6
CONTINUOUS
 62
     7
 10
109.7153734221
 20
447.1728724608
 30
0.0
 40
34.75000000000004
 50
287.3990979142
 51
180.0
  0
ARC
  5
A5
  8
0
  6
CONTINUOUS
 62
     8
 10
228.1425301114
 20
422.1253647841
 30
0.0
 40
4.427156689301398
 50
108.595354159
 51
180.0
  0
LINE
  5
A6
  8
0
  6
CONTINUOUS
 62
     8
 10
223.7153734221
 20
363.1728724608
 30
0.0
 11
223.7153734221
 21
422.1253647841
 31
0.0
  0
LINE
  5
A7
  8
0
  6
CONTINUOUS
 62
     8
 10
215.7153734221
 20
363.1728724608
 30
0.0
 11
223.7153734221
 21
363.1728724608
 31
0.0
  0
LINE
  5
A8
  8
0
  6
CONTINUOUS
 62
     8
 10
215.7153734221
 20
363.1728724608
 30
0.0
 11
215.7153734221
 21
422.1253647841
 31
0.0
  0
ARC
  5
A9
  8
0
  6
CONTINUOUS
 62
     8
 10
211.2882167328
 20
422.1253647841
 30
0.0
 40
4.427156689301398
 50
0.0
 51
71.404645841
  0
ARC
  5
AA
  8
0
  6
CONTINUOUS
 62
     8
 10
219.7153734221
 20
447.1728724608
 30
0.0
 40
22.00000000000002
 50
288.595354159
 51
251.404645841
  0
LINE
  5
AB
  8
0
  6
CONTINUOUS
 62
     8
 10
226.7307875033
 20
426.3213985257
 30
0.0
 11
227.0496699615
 21
425.3736042559
 31
0.0
  0
LINE
  5
AC
  8
0
  6
CONTINUOUS
 62
     8
 10
212.6999593408
 20
426.3213985257
 30
0.0
 11
212.3810768826
 21
425.3736042559
 31
0.0
  0
LINE
  5
AD
  8
0
  6
CONTINUOUS
 62
     8
 10
223.7153734221
 20
422.1253647841
 30
0.0
 11
224.7153734221
 21
422.1253647841
 31
0.0
  0
LINE
  5
AE
  8
0
  6
CONTINUOUS
 62
     8
 10
223.7153734221
 20
363.1728724608
 30
0.0
 11
224.7153734221
 21
363.1728724608
 31
0.0
  0
LINE
  5
AF
  8
0
  6
CONTINUOUS
 62
     8
 10
215.7153734221
 20
422.1253647841
 30
0.0
 11
214.7153734221
 21
422.1253647841
 31
0.0
  0
LINE
  5
B0
  8
0
  6
CONTINUOUS
 62
     8
 10
215.7153734221
 20
363.1728724608
 30
0.0
 11
214.7153734221
 21
363.1728724608
 31
0.0
  0
LINE
  5
B1
  8
0
  6
CONTINUOUS
 62
     8
 10
223.7153734221
 20
362.1728724608
 30
0.0
 11
223.7153734221
 21
363.1728724608
 31
0.0
  0
LINE
  5
B2
  8
0
  6
CONTINUOUS
 62
     8
 10
215.7153734221
 20
362.1728724608
 30
0.0
 11
215.7153734221
 21
363.1728724608
 31
0.0
  0
ARC
  5
B3
  8
0
  6
CONTINUOUS
 62
     8
 10
219.7153734221
 20
447.1728724608
 30
0.0
 40
33.75000000000004
 50
180.0
 51
261.4803757459
  0
ARC
  5
B4
  8
0
  6
CONTINUOUS
 62
     8
 10
219.7153734221
 20
447.1728724608
 30
0.0
 40
33.75000000000003
 50
278.5196242541
 51
180.0
  0
POLYLINE
  5
B5
  8
0
  6
CONTINUOUS
 62
     8
 66
     1
 10
0.0
 20
0.0
 30
0.0
 70
   128
  0
VERTEX
  5
162
  8
0
  6
CONTINUOUS
 62
     8
 10
109.7153734221
 20
410.073475322
 30
0.0
  0
VERTEX
  5
163
  8
0
  6
CONTINUOUS
 62
     8
 10
111.4977437449
 20
410.1432753484
 30
0.0
  0
VERTEX
  5
164
  8
0
  6
CONTINUOUS
 62
     8
 10
113.2194175841
 20
410.3502984715
 30
0.0
  0
VERTEX
  5
165
  8
0
  6
CONTINUOUS
 62
     8
 10
114.821765402
 20
410.6874947672
 30
0.0
  0
VERTEX
  5
166
  8
0
  6
CONTINUOUS
 62
     8
 10
116.2502211654
 20
411.14338142
 30
0.0
  0
VERTEX
  5
167
  8
0
  6
CONTINUOUS
 62
     8
 10
117.4561405267
 20
411.7024337567
 30
0.0
  0
VERTEX
  5
168
  8
0
  6
CONTINUOUS
 62
     8
 10
118.3984573482
 20
412.3456139205
 30
0.0
  0
VERTEX
  5
169
  8
0
  6
CONTINUOUS
 62
     8
 10
119.0450821608
 20
413.0510191823
 30
0.0
  0
VERTEX
  5
16A
  8
0
  6
CONTINUOUS
 62
     8
 10
119.3739949321
 20
413.7946278121
 30
0.0
  0
VERTEX
  5
16B
  8
0
  6
CONTINUOUS
 62
     8
 10
119.3739949321
 20
414.5511171096
 30
0.0
  0
VERTEX
  5
16C
  8
0
  6
CONTINUOUS
 62
     8
 10
119.0450821608
 20
415.2947257394
 30
0.0
  0
VERTEX
  5
16D
  8
0
  6
CONTINUOUS
 62
     8
 10
118.3984573482
 20
416.0001310012
 30
0.0
  0
VERTEX
  5
16E
  8
0
  6
CONTINUOUS
 62
     8
 10
117.4561405267
 20
416.643311165
 30
0.0
  0
VERTEX
  5
16F
  8
0
  6
CONTINUOUS
 62
     8
 10
116.2502211654
 20
417.2023635017
 30
0.0
  0
VERTEX
  5
170
  8
0
  6
CONTINUOUS
 62
     8
 10
114.821765402
 20
417.6582501545
 30
0.0
  0
VERTEX
  5
171
  8
0
  6
CONTINUOUS
 62
     8
 10
113.2194175841
 20
417.9954464502
 30
0.0
  0
VERTEX
  5
172
  8
0
  6
CONTINUOUS
 62
     8
 10
111.4977437449
 20
418.2024695733
 30
0.0
  0
VERTEX
  5
173
  8
0
  6
CONTINUOUS
 62
     8
 10
109.7153734221
 20
418.2722695997
 30
0.0
  0
VERTEX
  5
174
  8
0
  6
CONTINUOUS
 62
     8
 10
107.9330030992
 20
418.2024695733
 30
0.0
  0
VERTEX
  5
175
  8
0
  6
CONTINUOUS
 62
     8
 10
106.21132926
 20
417.9954464502
 30
0.0
  0
VERTEX
  5
176
  8
0
  6
CONTINUOUS
 62
     8
 10
104.6089814422
 20
417.6582501545
 30
0.0
  0
VERTEX
  5
177
  8
0
  6
CONTINUOUS
 62
     8
 10
103.1805256787
 20
417.2023635017
 30
0.0
  0
VERTEX
  5
178
  8
0
  6
CONTINUOUS
 62
     8
 10
101.9746063174
 20
416.643311165
 30
0.0
  0
VERTEX
  5
179
  8
0
  6
CONTINUOUS
 62
     8
 10
101.0322894959
 20
416.0001310012
 30
0.0
  0
VERTEX
  5
17A
  8
0
  6
CONTINUOUS
 62
     8
 10
100.3856646833
 20
415.2947257394
 30
0.0
  0
VERTEX
  5
17B
  8
0
  6
CONTINUOUS
 62
     8
 10
100.056751912
 20
414.5511171096
 30
0.0
  0
VERTEX
  5
17C
  8
0
  6
CONTINUOUS
 62
     8
 10
100.056751912
 20
413.7946278121
 30
0.0
  0
VERTEX
  5
17D
  8
0
  6
CONTINUOUS
 62
     8
 10
100.3856646833
 20
413.0510191823
 30
0.0
  0
VERTEX
  5
17E
  8
0
  6
CONTINUOUS
 62
     8
 10
101.0322894959
 20
412.3456139205
 30
0.0
  0
VERTEX
  5
17F
  8
0
  6
CONTINUOUS
 62
     8
 10
101.9746063174
 20
411.7024337567
 30
0.0
  0
VERTEX
  5
180
  8
0
  6
CONTINUOUS
 62
     8
 10
103.1805256787
 20
411.14338142
 30
0.0
  0
VERTEX
  5
181
  8
0
  6
CONTINUOUS
 62
     8
 10
104.6089814422
 20
410.6874947672
 30
0.0
  0
VERTEX
  5
182
  8
0
  6
CONTINUOUS
 62
     8
 10
106.21132926
 20
410.3502984715
 30
0.0
  0
VERTEX
  5
183
  8
0
  6
CONTINUOUS
 62
     8
 10
107.9330030992
 20
410.1432753484
 30
0.0
  0
VERTEX
  5
184
  8
0
  6
CONTINUOUS
 62
     8
 10
109.7153734221
 20
410.073475322
 30
0.0
  0
SEQEND
  5
24A
  8
0
  6
CONTINUOUS
 62
     8
  0
POLYLINE
  5
B6
  8
0
  6
CONTINUOUS
 62
     8
 66
     1
 10
0.0
 20
0.0
 30
0.0
 70
   128
  0
VERTEX
  5
185
  8
0
  6
CONTINUOUS
 62
     8
 10
99.2153734221
 20
414.8979186905
 30
0.0
  0
VERTEX
  5
186
  8
0
  6
CONTINUOUS
 62
     8
 10
99.3748920154
 20
415.668481046
 30
0.0
  0
VERTEX
  5
187
  8
0
  6
CONTINUOUS
 62
     8
 10
99.8486009038
 20
416.4156302542
 30
0.0
  0
VERTEX
  5
188
  8
0
  6
CONTINUOUS
 62
     8
 10
100.6221066823
 20
417.1166645646
 30
0.0
  0
VERTEX
  5
189
  8
0
  6
CONTINUOUS
 62
     8
 10
101.6719067693
 20
417.7502834044
 30
0.0
  0
VERTEX
  5
18A
  8
0
  6
CONTINUOUS
 62
     8
 10
102.9661035204
 20
418.2972345856
 30
0.0
  0
VERTEX
  5
18B
  8
0
  6
CONTINUOUS
 62
     8
 10
104.4653734221
 20
418.7408992736
 30
0.0
  0
VERTEX
  5
18C
  8
0
  6
CONTINUOUS
 62
     8
 10
106.1241619171
 20
419.0677969411
 30
0.0
  0
VERTEX
  5
18D
  8
0
  6
CONTINUOUS
 62
     8
 10
107.8920675566
 20
419.2679949681
 30
0.0
  0
VERTEX
  5
18E
  8
0
  6
CONTINUOUS
 62
     8
 10
109.7153734221
 20
419.3354104388
 30
0.0
  0
VERTEX
  5
18F
  8
0
  6
CONTINUOUS
 62
     8
 10
111.5386792876
 20
419.2679949681
 30
0.0
  0
VERTEX
  5
190
  8
0
  6
CONTINUOUS
 62
     8
 10
113.306584927
 20
419.0677969411
 30
0.0
  0
VERTEX
  5
191
  8
0
  6
CONTINUOUS
 62
     8
 10
114.9653734221
 20
418.7408992736
 30
0.0
  0
VERTEX
  5
192
  8
0
  6
CONTINUOUS
 62
     8
 10
116.4646433238
 20
418.2972345856
 30
0.0
  0
VERTEX
  5
193
  8
0
  6
CONTINUOUS
 62
     8
 10
117.7588400748
 20
417.7502834044
 30
0.0
  0
VERTEX
  5
194
  8
0
  6
CONTINUOUS
 62
     8
 10
118.8086401618
 20
417.1166645646
 30
0.0
  0
VERTEX
  5
195
  8
0
  6
CONTINUOUS
 62
     8
 10
119.5821459403
 20
416.4156302542
 30
0.0
  0
VERTEX
  5
196
  8
0
  6
CONTINUOUS
 62
     8
 10
120.0558548287
 20
415.668481046
 30
0.0
  0
VERTEX
  5
197
  8
0
  6
CONTINUOUS
 62
     8
 10
120.2104171994
 20
415.0342457466
 30
0.0
  0
SEQEND
  5
24B
  8
0
  6
CONTINUOUS
 62
     8
  0
POLYLINE
  5
B7
  8
0
  6
CONTINUOUS
 62
     8
 66
     1
 10
0.0
 20
0.0
 30
0.0
 70
   128
  0
VERTEX
  5
198
  8
0
  6
CONTINUOUS
 62
     8
 10
120.2153734221
 20
425.9548736923
 30
0.0
  0
VERTEX
  5
199
  8
0
  6
CONTINUOUS
 62
     8
 10
120.0558548287
 20
426.7254360478
 30
0.0
  0
VERTEX
  5
19A
  8
0
  6
CONTINUOUS
 62
     8
 10
119.5821459403
 20
427.4725852561
 30
0.0
  0
VERTEX
  5
19B
  8
0
  6
CONTINUOUS
 62
     8
 10
118.8086401618
 20
428.1736195665
 30
0.0
  0
VERTEX
  5
19C
  8
0
  6
CONTINUOUS
 62
     8
 10
117.7588400748
 20
428.8072384062
 30
0.0
  0
VERTEX
  5
19D
  8
0
  6
CONTINUOUS
 62
     8
 10
116.4646433238
 20
429.3541895875
 30
0.0
  0
VERTEX
  5
19E
  8
0
  6
CONTINUOUS
 62
     8
 10
114.9653734221
 20
429.7978542754
 30
0.0
  0
VERTEX
  5
19F
  8
0
  6
CONTINUOUS
 62
     8
 10
113.306584927
 20
430.124751943
 30
0.0
  0
VERTEX
  5
1A0
  8
0
  6
CONTINUOUS
 62
     8
 10
111.5386792876
 20
430.32494997
 30
0.0
  0
VERTEX
  5
1A1
  8
0
  6
CONTINUOUS
 62
     8
 10
109.7153734221
 20
430.3923654406
 30
0.0
  0
VERTEX
  5
1A2
  8
0
  6
CONTINUOUS
 62
     8
 10
107.8920675566
 20
430.32494997
 30
0.0
  0
VERTEX
  5
1A3
  8
0
  6
CONTINUOUS
 62
     8
 10
106.1241619171
 20
430.124751943
 30
0.0
  0
VERTEX
  5
1A4
  8
0
  6
CONTINUOUS
 62
     8
 10
104.4653734221
 20
429.7978542754
 30
0.0
  0
VERTEX
  5
1A5
  8
0
  6
CONTINUOUS
 62
     8
 10
102.9661035204
 20
429.3541895875
 30
0.0
  0
VERTEX
  5
1A6
  8
0
  6
CONTINUOUS
 62
     8
 10
101.6719067693
 20
428.8072384062
 30
0.0
  0
VERTEX
  5
1A7
  8
0
  6
CONTINUOUS
 62
     8
 10
100.6221066823
 20
428.1736195665
 30
0.0
  0
VERTEX
  5
1A8
  8
0
  6
CONTINUOUS
 62
     8
 10
99.8486009038
 20
427.4725852561
 30
0.0
  0
VERTEX
  5
1A9
  8
0
  6
CONTINUOUS
 62
     8
 10
99.3748920154
 20
426.7254360478
 30
0.0
  0
VERTEX
  5
1AA
  8
0
  6
CONTINUOUS
 62
     8
 10
99.2153734221
 20
425.9548736923
 30
0.0
  0
SEQEND
  5
24C
  8
0
  6
CONTINUOUS
 62
     8
  0
ARC
  5
B8
  8
0
  6
CONTINUOUS
 62
     8
 10
109.7153734221
 20
447.1728724608
 30
0.0
 40
33.75000000000001
 50
180.0
 51
251.8737960394
  0
ARC
  5
B9
  8
0
  6
CONTINUOUS
 62
     8
 10
109.7153734221
 20
447.1728724608
 30
0.0
 40
33.75000000000006
 50
288.1262039606
 51
180.0
  0
LINE
  5
BA
  8
0
  6
CONTINUOUS
 62
     7
 10
254.4653734221
 20
296.691412117
 30
0.0
 11
254.4653734221
 21
302.691412117
 31
0.0
  0
LINE
  5
BB
  8
0
  6
CONTINUOUS
 62
     7
 10
184.9653734221
 20
302.691412117
 30
0.0
 11
184.9653734221
 21
296.691412117
 31
0.0
  0
ARC
  5
BC
  8
0
  6
CONTINUOUS
 62
     7
 10
253.4653734221
 20
296.691412117
 30
0.0
 40
1.0
 50
270.0
 51
0.0
  0
ARC
  5
BD
  8
0
  6
CONTINUOUS
 62
     7
 10
185.9653734221
 20
296.691412117
 30
0.0
 40
1.0
 50
180.0
 51
270.0
  0
LINE
  5
BE
  8
0
  6
CONTINUOUS
 62
     7
 10
196.7153734221
 20
269.4776683157
 30
0.0
 11
196.7153734221
 21
241.691412117
 31
0.0
  0
LINE
  5
BF
  8
0
  6
CONTINUOUS
 62
     7
 10
242.7153734221
 20
241.691412117
 30
0.0
 11
242.7153734221
 21
269.4776683157
 31
0.0
  0
ARC
  5
C0
  8
0
  6
CONTINUOUS
 62
     7
 10
241.7153734221
 20
241.691412117
 30
0.0
 40
1.0
 50
270.0
 51
0.0
  0
ARC
  5
C1
  8
0
  6
CONTINUOUS
 62
     7
 10
197.7153734221
 20
241.691412117
 30
0.0
 40
1.0
 50
180.0
 51
270.0
  0
LINE
  5
C2
  8
0
  6
CONTINUOUS
 62
     7
 10
242.2653734221
 20
276.7681326953
 30
0.0
 11
242.2653734221
 21
295.691412117
 31
0.0
  0
LINE
  5
C3
  8
0
  6
CONTINUOUS
 62
     7
 10
197.1653734221
 20
295.691412117
 30
0.0
 11
197.1653734221
 21
276.7681326953
 31
0.0
  0
ARC
  5
C4
  8
0
  6
CONTINUOUS
 62
     7
 10
241.5653734221
 20
276.7681326953
 30
0.0
 40
0.7000000000000061
 50
311.0
 51
0.0
  0
ARC
  5
C5
  8
0
  6
CONTINUOUS
 62
     7
 10
197.8653734221
 20
276.7681326953
 30
0.0
 40
0.7000000000000247
 50
180.0
 51
229.0
  0
LINE
  5
C6
  8
0
  6
CONTINUOUS
 62
     7
 10
197.4061321018
 20
276.2398359891
 30
0.0
 11
197.4768842155
 21
276.178332115
 31
0.0
  0
LINE
  5
C7
  8
0
  6
CONTINUOUS
 62
     7
 10
241.9538626286
 20
276.178332115
 30
0.0
 11
242.0246147424
 21
276.2398359891
 31
0.0
  0
ARC
  5
C8
  8
0
  6
CONTINUOUS
 62
     7
 10
242.4131039489
 20
275.6500354088
 30
0.0
 40
0.7000000000000155
 50
131.0
 51
179.1898025957
  0
ARC
  5
C9
  8
0
  6
CONTINUOUS
 62
     7
 10
197.0176428952
 20
275.6500354088
 30
0.0
 40
0.7000000000000155
 50
0.8101974043
 51
49.0
  0
ARC
  5
CA
  8
0
  6
CONTINUOUS
 62
     7
 10
219.7153734221
 20
275.9710166106
 30
0.0
 40
22.00000000000001
 50
342.7951259761
 51
359.1898025957
  0
ARC
  5
CB
  8
0
  6
CONTINUOUS
 62
     7
 10
219.7153734221
 20
275.9710166106
 30
0.0
 40
21.99999999999999
 50
180.8101974043
 51
197.2010101952
  0
LINE
  5
CC
  8
0
  6
CONTINUOUS
 62
     7
 10
144.4653734221
 20
296.691412117
 30
0.0
 11
144.4653734221
 21
302.691412117
 31
0.0
  0
LINE
  5
CD
  8
0
  6
CONTINUOUS
 62
     7
 10
74.9653734221
 20
302.691412117
 30
0.0
 11
74.9653734221
 21
296.691412117
 31
0.0
  0
ARC
  5
CE
  8
0
  6
CONTINUOUS
 62
     7
 10
143.4653734221
 20
296.691412117
 30
0.0
 40
1.000000000000028
 50
270.0
 51
0.0
  0
ARC
  5
CF
  8
0
  6
CONTINUOUS
 62
     7
 10
75.9653734221
 20
296.691412117
 30
0.0
 40
1.0
 50
180.0
 51
270.0
  0
LINE
  5
D0
  8
0
  6
CONTINUOUS
 62
     7
 10
99.2153734221
 20
295.691412117
 30
0.0
 11
99.2153734221
 21
132.691412117
 31
0.0
  0
LINE
  5
D1
  8
0
  6
CONTINUOUS
 62
     7
 10
120.2153734221
 20
132.691412117
 30
0.0
 11
120.2153734221
 21
295.691412117
 31
0.0
  0
LINE
  5
D2
  8
0
  6
CONTINUOUS
 62
     7
 10
99.2153734221
 20
132.691412117
 30
0.0
 11
99.2153734221
 21
88.1854495197
 31
0.0
  0
LINE
  5
D3
  8
0
  6
CONTINUOUS
 62
     7
 10
120.2153734221
 20
88.1854495197
 30
0.0
 11
120.2153734221
 21
132.691412117
 31
0.0
  0
LINE
  5
D4
  8
0
  6
CONTINUOUS
 62
     7
 10
120.2153734221
 20
83.0295067264
 30
0.0
 11
120.2153734221
 21
88.1854495197
 31
0.0
  0
LINE
  5
D5
  8
0
  6
CONTINUOUS
 62
     7
 10
99.2153734221
 20
88.1854495197
 30
0.0
 11
99.2153734221
 21
83.0295067264
 31
0.0
  0
LINE
  5
D6
  8
0
  6
CONTINUOUS
 62
     7
 10
254.4653734221
 20
302.691412117
 30
0.0
 11
184.9653734221
 21
302.691412117
 31
0.0
  0
LINE
  5
D7
  8
0
  6
CONTINUOUS
 62
     7
 10
253.4653733695
 20
295.691412117
 30
0.0
 11
185.9653734221
 21
295.691412117
 31
0.0
  0
POLYLINE
  5
D8
  8
0
  6
CONTINUOUS
 62
     7
 66
     1
 10
0.0
 20
0.0
 30
0.0
 70
   128
  0
VERTEX
  5
1AB
  8
0
  6
CONTINUOUS
 62
     7
 10
242.2994145067
 20
269.691412117
 30
0.0
  0
VERTEX
  5
1AC
  8
0
  6
CONTINUOUS
 62
     7
 10
242.6990306607
 20
269.5696343117
 30
0.0
  0
VERTEX
  5
1AD
  8
0
  6
CONTINUOUS
 62
     7
 10
242.5532804089
 20
269.1875761026
 30
0.0
  0
VERTEX
  5
1AE
  8
0
  6
CONTINUOUS
 62
     7
 10
242.3044997062
 20
268.9317997676
 30
0.0
  0
SEQEND
  5
24D
  8
0
  6
CONTINUOUS
 62
     7
  0
POLYLINE
  5
D9
  8
0
  6
CONTINUOUS
 62
     7
 66
     1
 10
0.0
 20
0.0
 30
0.0
 70
   128
  0
VERTEX
  5
1AF
  8
0
  6
CONTINUOUS
 62
     7
 10
197.1313323374
 20
269.691412117
 30
0.0
  0
VERTEX
  5
1B0
  8
0
  6
CONTINUOUS
 62
     7
 10
196.7317161835
 20
269.5696343117
 30
0.0
  0
VERTEX
  5
1B1
  8
0
  6
CONTINUOUS
 62
     7
 10
196.8774664352
 20
269.1875761026
 30
0.0
  0
VERTEX
  5
1B2
  8
0
  6
CONTINUOUS
 62
     7
 10
197.126247138
 20
268.9317997676
 30
0.0
  0
SEQEND
  5
24E
  8
0
  6
CONTINUOUS
 62
     7
  0
POLYLINE
  5
DA
  8
0
  6
CONTINUOUS
 62
     7
 66
     1
 10
0.0
 20
0.0
 30
0.0
 70
   128
  0
VERTEX
  5
1B3
  8
0
  6
CONTINUOUS
 62
     7
 10
197.126247138
 20
268.9317997676
 30
0.0
  0
VERTEX
  5
1B4
  8
0
  6
CONTINUOUS
 62
     7
 10
197.8077155499
 20
268.4599632324
 30
0.0
  0
VERTEX
  5
1B5
  8
0
  6
CONTINUOUS
 62
     7
 10
198.8049580497
 20
268.0059274698
 30
0.0
  0
VERTEX
  5
1B6
  8
0
  6
CONTINUOUS
 62
     7
 10
200.1036005155
 20
267.5762368915
 30
0.0
  0
VERTEX
  5
1B7
  8
0
  6
CONTINUOUS
 62
     7
 10
201.6849244862
 20
267.1770850006
 30
0.0
  0
VERTEX
  5
1B8
  8
0
  6
CONTINUOUS
 62
     7
 10
203.5261369672
 20
266.8142251199
 30
0.0
  0
VERTEX
  5
1B9
  8
0
  6
CONTINUOUS
 62
     7
 10
205.6006989646
 20
266.4928874637
 30
0.0
  0
VERTEX
  5
1BA
  8
0
  6
CONTINUOUS
 62
     7
 10
207.8787080159
 20
266.2177037506
 30
0.0
  0
VERTEX
  5
1BB
  8
0
  6
CONTINUOUS
 62
     7
 10
210.3273291994
 20
265.9926404422
 30
0.0
  0
VERTEX
  5
1BC
  8
0
  6
CONTINUOUS
 62
     7
 10
212.9112684126
 20
265.8209415715
 30
0.0
  0
VERTEX
  5
1BD
  8
0
  6
CONTINUOUS
 62
     7
 10
215.593281097
 20
265.7050819831
 30
0.0
  0
VERTEX
  5
1BE
  8
0
  6
CONTINUOUS
 62
     7
 10
218.3347090758
 20
265.6467316621
 30
0.0
  0
VERTEX
  5
1BF
  8
0
  6
CONTINUOUS
 62
     7
 10
221.0960377683
 20
265.6467316621
 30
0.0
  0
VERTEX
  5
1C0
  8
0
  6
CONTINUOUS
 62
     7
 10
223.8374657471
 20
265.7050819831
 30
0.0
  0
VERTEX
  5
1C1
  8
0
  6
CONTINUOUS
 62
     7
 10
226.5194784315
 20
265.8209415715
 30
0.0
  0
VERTEX
  5
1C2
  8
0
  6
CONTINUOUS
 62
     7
 10
229.1034176448
 20
265.9926404422
 30
0.0
  0
VERTEX
  5
1C3
  8
0
  6
CONTINUOUS
 62
     7
 10
231.5520388282
 20
266.2177037506
 30
0.0
  0
VERTEX
  5
1C4
  8
0
  6
CONTINUOUS
 62
     7
 10
233.8300478795
 20
266.4928874637
 30
0.0
  0
VERTEX
  5
1C5
  8
0
  6
CONTINUOUS
 62
     7
 10
235.904609877
 20
266.8142251199
 30
0.0
  0
VERTEX
  5
1C6
  8
0
  6
CONTINUOUS
 62
     7
 10
237.7458223579
 20
267.1770850006
 30
0.0
  0
VERTEX
  5
1C7
  8
0
  6
CONTINUOUS
 62
     7
 10
239.3271463287
 20
267.5762368915
 30
0.0
  0
VERTEX
  5
1C8
  8
0
  6
CONTINUOUS
 62
     7
 10
240.6257887944
 20
268.0059274698
 30
0.0
  0
VERTEX
  5
1C9
  8
0
  6
CONTINUOUS
 62
     7
 10
241.6230312942
 20
268.4599632324
 30
0.0
  0
VERTEX
  5
1CA
  8
0
  6
CONTINUOUS
 62
     7
 10
242.3044997062
 20
268.9317997676
 30
0.0
  0
SEQEND
  5
24F
  8
0
  6
CONTINUOUS
 62
     7
  0
POLYLINE
  5
DB
  8
0
  6
CONTINUOUS
 62
     7
 66
     1
 10
0.0
 20
0.0
 30
0.0
 70
   128
  0
VERTEX
  5
1CB
  8
0
  6
CONTINUOUS
 62
     7
 10
199.3262083456
 20
268.9317997676
 30
0.0
  0
VERTEX
  5
1CC
  8
0
  6
CONTINUOUS
 62
     7
 10
200.165675732
 20
268.4992622099
 30
0.0
  0
VERTEX
  5
1CD
  8
0
  6
CONTINUOUS
 62
     7
 10
201.3081341954
 20
268.0881888928
 30
0.0
  0
VERTEX
  5
1CE
  8
0
  6
CONTINUOUS
 62
     7
 10
202.7358773382
 20
267.7049508383
 30
0.0
  0
VERTEX
  5
1CF
  8
0
  6
CONTINUOUS
 62
     7
 10
204.4267772769
 20
267.3554876628
 30
0.0
  0
VERTEX
  5
1D0
  8
0
  6
CONTINUOUS
 62
     7
 10
206.3546275912
 20
267.045215523
 30
0.0
  0
VERTEX
  5
1D1
  8
0
  6
CONTINUOUS
 62
     7
 10
208.4895494845
 20
266.7789431731
 30
0.0
  0
VERTEX
  5
1D2
  8
0
  6
CONTINUOUS
 62
     7
 10
210.7984548602
 20
266.5607974362
 30
0.0
  0
VERTEX
  5
1D3
  8
0
  6
CONTINUOUS
 62
     7
 10
213.245559138
 20
266.3941592451
 30
0.0
  0
VERTEX
  5
1D4
  8
0
  6
CONTINUOUS
 62
     7
 10
215.7929358615
 20
266.2816112424
 30
0.0
  0
VERTEX
  5
1D5
  8
0
  6
CONTINUOUS
 62
     7
 10
218.4011045009
 20
266.224897754
 30
0.0
  0
VERTEX
  5
1D6
  8
0
  6
CONTINUOUS
 62
     7
 10
221.0296423432
 20
266.224897754
 30
0.0
  0
VERTEX
  5
1D7
  8
0
  6
CONTINUOUS
 62
     7
 10
223.6378109827
 20
266.2816112424
 30
0.0
  0
VERTEX
  5
1D8
  8
0
  6
CONTINUOUS
 62
     7
 10
226.1851877061
 20
266.3941592451
 30
0.0
  0
VERTEX
  5
1D9
  8
0
  6
CONTINUOUS
 62
     7
 10
228.6322919839
 20
266.5607974362
 30
0.0
  0
VERTEX
  5
1DA
  8
0
  6
CONTINUOUS
 62
     7
 10
230.9411973596
 20
266.7789431731
 30
0.0
  0
VERTEX
  5
1DB
  8
0
  6
CONTINUOUS
 62
     7
 10
233.0761192529
 20
267.045215523
 30
0.0
  0
VERTEX
  5
1DC
  8
0
  6
CONTINUOUS
 62
     7
 10
235.0039695672
 20
267.3554876628
 30
0.0
  0
VERTEX
  5
1DD
  8
0
  6
CONTINUOUS
 62
     7
 10
236.6948695059
 20
267.7049508383
 30
0.0
  0
VERTEX
  5
1DE
  8
0
  6
CONTINUOUS
 62
     7
 10
238.1226126487
 20
268.0881888928
 30
0.0
  0
VERTEX
  5
1DF
  8
0
  6
CONTINUOUS
 62
     7
 10
239.2650711121
 20
268.4992622099
 30
0.0
  0
VERTEX
  5
1E0
  8
0
  6
CONTINUOUS
 62
     7
 10
240.1045384986
 20
268.9317997676
 30
0.0
  0
SEQEND
  5
250
  8
0
  6
CONTINUOUS
 62
     7
  0
LINE
  5
DC
  8
0
  6
CONTINUOUS
 62
     7
 10
241.7153734221
 20
240.691412117
 30
0.0
 11
197.7153734221
 21
240.691412117
 31
0.0
  0
POLYLINE
  5
DD
  8
0
  6
CONTINUOUS
 62
     7
 66
     1
 10
0.0
 20
0.0
 30
0.0
 70
   128
  0
VERTEX
  5
1E1
  8
0
  6
CONTINUOUS
 62
     7
 10
240.6819849415
 20
269.4788155233
 30
0.0
  0
VERTEX
  5
1E2
  8
0
  6
CONTINUOUS
 62
     7
 10
240.638014282
 20
269.3443477708
 30
0.0
  0
VERTEX
  5
1E3
  8
0
  6
CONTINUOUS
 62
     7
 10
240.1045384986
 20
268.9317997676
 30
0.0
  0
SEQEND
  5
251
  8
0
  6
CONTINUOUS
 62
     7
  0
POLYLINE
  5
DE
  8
0
  6
CONTINUOUS
 62
     7
 66
     1
 10
0.0
 20
0.0
 30
0.0
 70
   128
  0
VERTEX
  5
1E4
  8
0
  6
CONTINUOUS
 62
     7
 10
199.3262083456
 20
268.9317997676
 30
0.0
  0
VERTEX
  5
1E5
  8
0
  6
CONTINUOUS
 62
     7
 10
198.7887987369
 20
269.3485905174
 30
0.0
  0
VERTEX
  5
1E6
  8
0
  6
CONTINUOUS
 62
     7
 10
198.7487790064
 20
269.4788084388
 30
0.0
  0
SEQEND
  5
252
  8
0
  6
CONTINUOUS
 62
     7
  0
LINE
  5
DF
  8
0
  6
CONTINUOUS
 62
     7
 10
197.1313323374
 20
269.691412117
 30
0.0
 11
198.6306261529
 21
269.691412117
 31
0.0
  0
LINE
  5
E0
  8
0
  6
CONTINUOUS
 62
     7
 10
240.8001206912
 20
269.691412117
 30
0.0
 11
242.2994145067
 21
269.691412117
 31
0.0
  0
LINE
  5
E1
  8
0
  6
CONTINUOUS
 62
     7
 10
144.4653734221
 20
302.691412117
 30
0.0
 11
74.9653734221
 21
302.691412117
 31
0.0
  0
LINE
  5
E2
  8
0
  6
CONTINUOUS
 62
     7
 10
143.4653733695
 20
295.691412117
 30
0.0
 11
75.9653734221
 21
295.691412117
 31
0.0
  0
POLYLINE
  5
E3
  8
0
  6
CONTINUOUS
 62
     7
 66
     1
 10
0.0
 20
0.0
 30
0.0
 70
   128
  0
VERTEX
  5
1E7
  8
0
  6
CONTINUOUS
 62
     7
 10
99.2153734221
 20
83.0295067264
 30
0.0
  0
VERTEX
  5
1E8
  8
0
  6
CONTINUOUS
 62
     7
 10
99.3748920154
 20
81.3770304224
 30
0.0
  0
VERTEX
  5
1E9
  8
0
  6
CONTINUOUS
 62
     7
 10
99.8486009038
 20
79.7747637746
 30
0.0
  0
VERTEX
  5
1EA
  8
0
  6
CONTINUOUS
 62
     7
 10
100.6221066823
 20
78.2713908445
 30
0.0
  0
VERTEX
  5
1EB
  8
0
  6
CONTINUOUS
 62
     7
 10
101.6719067693
 20
76.9125908577
 30
0.0
  0
VERTEX
  5
1EC
  8
0
  6
CONTINUOUS
 62
     7
 10
102.9661035204
 20
75.7396502643
 30
0.0
  0
VERTEX
  5
1ED
  8
0
  6
CONTINUOUS
 62
     7
 10
104.4653734221
 20
74.7882082706
 30
0.0
  0
VERTEX
  5
1EE
  8
0
  6
CONTINUOUS
 62
     7
 10
106.1241619171
 20
74.0871739602
 30
0.0
  0
VERTEX
  5
1EF
  8
0
  6
CONTINUOUS
 62
     7
 10
107.8920675566
 20
73.6578479059
 30
0.0
  0
VERTEX
  5
1F0
  8
0
  6
CONTINUOUS
 62
     7
 10
109.7153734221
 20
73.5132749625
 30
0.0
  0
VERTEX
  5
1F1
  8
0
  6
CONTINUOUS
 62
     7
 10
111.5386792876
 20
73.6578479059
 30
0.0
  0
VERTEX
  5
1F2
  8
0
  6
CONTINUOUS
 62
     7
 10
113.306584927
 20
74.0871739602
 30
0.0
  0
VERTEX
  5
1F3
  8
0
  6
CONTINUOUS
 62
     7
 10
114.9653734221
 20
74.7882082706
 30
0.0
  0
VERTEX
  5
1F4
  8
0
  6
CONTINUOUS
 62
     7
 10
116.4646433238
 20
75.7396502643
 30
0.0
  0
VERTEX
  5
1F5
  8
0
  6
CONTINUOUS
 62
     7
 10
117.7588400748
 20
76.9125908577
 30
0.0
  0
VERTEX
  5
1F6
  8
0
  6
CONTINUOUS
 62
     7
 10
118.8086401618
 20
78.2713908445
 30
0.0
  0
VERTEX
  5
1F7
  8
0
  6
CONTINUOUS
 62
     7
 10
119.5821459403
 20
79.7747637746
 30
0.0
  0
VERTEX
  5
1F8
  8
0
  6
CONTINUOUS
 62
     7
 10
120.0558548287
 20
81.3770304224
 30
0.0
  0
VERTEX
  5
1F9
  8
0
  6
CONTINUOUS
 62
     7
 10
120.2153734221
 20
83.0295067264
 30
0.0
  0
SEQEND
  5
253
  8
0
  6
CONTINUOUS
 62
     7
  0
LINE
  5
E4
  8
0
  6
CONTINUOUS
 62
     8
 10
254.4653734221
 20
296.691412117
 30
0.0
 11
184.9653734221
 21
296.691412117
 31
0.0
  0
LINE
  5
E5
  8
0
  6
CONTINUOUS
 62
     8
 10
196.7153734221
 20
241.691412117
 30
0.0
 11
242.7153734221
 21
241.691412117
 31
0.0
  0
LINE
  5
E6
  8
0
  6
CONTINUOUS
 62
     8
 10
242.3044997062
 20
268.9317997676
 30
0.0
 11
240.1045384986
 21
268.9317997676
 31
0.0
  0
LINE
  5
E7
  8
0
  6
CONTINUOUS
 62
     8
 10
199.3262083456
 20
268.9317997676
 30
0.0
 11
197.126247138
 21
268.9317997676
 31
0.0
  0
LINE
  5
E8
  8
0
  6
CONTINUOUS
 62
     8
 10
219.7153734221
 20
276.7681326953
 30
0.0
 11
197.1653734221
 21
276.7681326953
 31
0.0
  0
LINE
  5
E9
  8
0
  6
CONTINUOUS
 62
     8
 10
242.2653734221
 20
276.7681326953
 30
0.0
 11
219.7153734221
 21
276.7681326953
 31
0.0
  0
LINE
  5
EA
  8
0
  6
CONTINUOUS
 62
     8
 10
219.7153734221
 20
276.2398359891
 30
0.0
 11
197.4061321018
 21
276.2398359891
 31
0.0
  0
LINE
  5
EB
  8
0
  6
CONTINUOUS
 62
     8
 10
242.0246147424
 20
276.2398359891
 30
0.0
 11
219.7153734221
 21
276.2398359891
 31
0.0
  0
LINE
  5
EC
  8
0
  6
CONTINUOUS
 62
     8
 10
219.7153734221
 20
276.178332115
 30
0.0
 11
197.4768842155
 21
276.178332115
 31
0.0
  0
LINE
  5
ED
  8
0
  6
CONTINUOUS
 62
     8
 10
241.9538626286
 20
276.178332115
 30
0.0
 11
219.7153734221
 21
276.178332115
 31
0.0
  0
LINE
  5
EE
  8
0
  6
CONTINUOUS
 62
     8
 10
219.7153734221
 20
275.6599335076
 30
0.0
 11
197.7175729115
 21
275.6599335076
 31
0.0
  0
LINE
  5
EF
  8
0
  6
CONTINUOUS
 62
     8
 10
241.7131739326
 20
275.6599335076
 30
0.0
 11
219.7153734221
 21
275.6599335076
 31
0.0
  0
LINE
  5
F0
  8
0
  6
CONTINUOUS
 62
     8
 10
144.4653734221
 20
296.691412117
 30
0.0
 11
74.9653734221
 21
296.691412117
 31
0.0
  0
LINE
  5
F1
  8
0
  6
CONTINUOUS
 62
     8
 10
120.2153734221
 20
132.691412117
 30
0.0
 11
99.2153734221
 21
132.691412117
 31
0.0
  0
POLYLINE
  5
F2
  8
0
  6
CONTINUOUS
 62
     8
 66
     1
 10
0.0
 20
0.0
 30
0.0
 70
   128
  0
VERTEX
  5
1FA
  8
0
  6
CONTINUOUS
 62
     8
 10
120.2153734221
 20
88.1854495197
 30
0.0
  0
VERTEX
  5
1FB
  8
0
  6
CONTINUOUS
 62
     8
 10
120.0558548287
 20
86.5329732156
 30
0.0
  0
VERTEX
  5
1FC
  8
0
  6
CONTINUOUS
 62
     8
 10
119.5821459403
 20
84.9307065679
 30
0.0
  0
VERTEX
  5
1FD
  8
0
  6
CONTINUOUS
 62
     8
 10
118.8086401618
 20
83.4273336377
 30
0.0
  0
VERTEX
  5
1FE
  8
0
  6
CONTINUOUS
 62
     8
 10
117.7588400748
 20
82.0685336509
 30
0.0
  0
VERTEX
  5
1FF
  8
0
  6
CONTINUOUS
 62
     8
 10
116.4646433238
 20
80.8955930575
 30
0.0
  0
VERTEX
  5
200
  8
0
  6
CONTINUOUS
 62
     8
 10
114.9653734221
 20
79.9441510638
 30
0.0
  0
VERTEX
  5
201
  8
0
  6
CONTINUOUS
 62
     8
 10
113.306584927
 20
79.2431167534
 30
0.0
  0
VERTEX
  5
202
  8
0
  6
CONTINUOUS
 62
     8
 10
111.5386792876
 20
78.8137906991
 30
0.0
  0
VERTEX
  5
203
  8
0
  6
CONTINUOUS
 62
     8
 10
109.7153734221
 20
78.6692177558
 30
0.0
  0
VERTEX
  5
204
  8
0
  6
CONTINUOUS
 62
     8
 10
107.8920675566
 20
78.8137906991
 30
0.0
  0
VERTEX
  5
205
  8
0
  6
CONTINUOUS
 62
     8
 10
106.1241619171
 20
79.2431167534
 30
0.0
  0
VERTEX
  5
206
  8
0
  6
CONTINUOUS
 62
     8
 10
104.4653734221
 20
79.9441510638
 30
0.0
  0
VERTEX
  5
207
  8
0
  6
CONTINUOUS
 62
     8
 10
102.9661035204
 20
80.8955930575
 30
0.0
  0
VERTEX
  5
208
  8
0
  6
CONTINUOUS
 62
     8
 10
101.6719067693
 20
82.0685336509
 30
0.0
  0
VERTEX
  5
209
  8
0
  6
CONTINUOUS
 62
     8
 10
100.6221066823
 20
83.4273336377
 30
0.0
  0
VERTEX
  5
20A
  8
0
  6
CONTINUOUS
 62
     8
 10
99.8486009038
 20
84.9307065679
 30
0.0
  0
VERTEX
  5
20B
  8
0
  6
CONTINUOUS
 62
     8
 10
99.3748920154
 20
86.5329732156
 30
0.0
  0
VERTEX
  5
20C
  8
0
  6
CONTINUOUS
 62
     8
 10
99.2153734221
 20
88.1854495197
 30
0.0
  0
VERTEX
  5
20D
  8
0
  6
CONTINUOUS
 62
     8
 10
99.2153738261
 20
88.1880894014
 30
0.0
  0
SEQEND
  5
254
  8
0
  6
CONTINUOUS
 62
     8
  0
LINE
  5
F3
  8
0
  6
CONTINUOUS
 62
     7
 10
368.3821592151
 20
424.1728724608
 30
0.0
 11
369.5937637803
 21
424.1728724608
 31
0.0
  0
LINE
  5
F4
  8
0
  6
CONTINUOUS
 62
     7
 10
353.4221909051
 20
424.1728724608
 30
0.0
 11
360.4763022777
 21
424.1728724608
 31
0.0
  0
LINE
  5
F5
  8
0
  6
CONTINUOUS
 62
     7
 10
381.4221909051
 20
470.1728724608
 30
0.0
 11
357.4741849218
 21
470.1728724608
 31
0.0
  0
ARC
  5
F6
  8
0
  6
CONTINUOUS
 62
     7
 10
381.4221909051
 20
469.1728724608
 30
0.0
 40
1.0
 50
0.0
 51
90.0
  0
LINE
  5
F7
  8
0
  6
CONTINUOUS
 62
     7
 10
346.3454703268
 20
469.7228724608
 30
0.0
 11
327.4221909051
 21
469.7228724608
 31
0.0
  0
LINE
  5
F8
  8
0
  6
CONTINUOUS
 62
     7
 10
327.4221909051
 20
424.6228724608
 30
0.0
 11
346.3454703268
 21
424.6228724608
 31
0.0
  0
ARC
  5
F9
  8
0
  6
CONTINUOUS
 62
     7
 10
346.3454703268
 20
469.0228724608
 30
0.0
 40
0.700000000000062
 50
41.0
 51
90.0
  0
ARC
  5
FA
  8
0
  6
CONTINUOUS
 62
     7
 10
346.3454703268
 20
425.3228724608
 30
0.0
 40
0.7000000000000455
 50
270.0
 51
319.0
  0
LINE
  5
FB
  8
0
  6
CONTINUOUS
 62
     7
 10
346.873767033
 20
424.8636311406
 30
0.0
 11
346.9352709071
 21
424.9343832543
 31
0.0
  0
LINE
  5
FC
  8
0
  6
CONTINUOUS
 62
     7
 10
346.9352709071
 20
469.4113616674
 30
0.0
 11
346.873767033
 21
469.4821137811
 31
0.0
  0
ARC
  5
FD
  8
0
  6
CONTINUOUS
 62
     7
 10
347.4635676133
 20
469.8706029877
 30
0.0
 40
0.7000000000000247
 50
221.0
 51
269.1898025957
  0
ARC
  5
FE
  8
0
  6
CONTINUOUS
 62
     7
 10
347.4635676133
 20
424.475141934
 30
0.0
 40
0.7000000000000247
 50
90.8101974043
 51
139.0
  0
ARC
  5
FF
  8
0
  6
CONTINUOUS
 62
     7
 10
347.1425864115
 20
447.1728724608
 30
0.0
 40
22.00000000000006
 50
270.8101974043
 51
286.5849461079
  0
ARC
  5
100
  8
0
  6
CONTINUOUS
 62
     7
 10
347.1425864115
 20
447.1728724608
 30
0.0
 40
22.00000000000004
 50
63.683548852
 51
89.1898025957
  0
ARC
  5
101
  8
0
  6
CONTINUOUS
 62
     7
 10
369.5937637803
 20
421.3444453361
 30
0.0
 40
2.828427124742007
 50
359.9999999999
 51
90.0000000001
  0
LINE
  5
102
  8
0
  6
CONTINUOUS
 62
     7
 10
360.4221909051
 20
423.8228724608
 30
0.0
 11
360.640772272
 21
423.2223250909
 31
0.0
  0
LINE
  5
103
  8
0
  6
CONTINUOUS
 62
     7
 10
368.2036095382
 20
423.2223250909
 30
0.0
 11
368.4221909051
 21
423.8228724608
 31
0.0
  0
LINE
  5
104
  8
0
  6
CONTINUOUS
 62
     7
 10
360.4221909051
 20
424.1822042697
 30
0.0
 11
360.4221909051
 21
423.8228724608
 31
0.0
  0
LINE
  5
105
  8
0
  6
CONTINUOUS
 62
     7
 10
368.4221909051
 20
423.8228724608
 30
0.0
 11
368.4221909051
 21
424.1796894412
 31
0.0
  0
ARC
  5
106
  8
0
  6
CONTINUOUS
 62
     7
 10
368.015671014
 20
423.2907291196
 30
0.0
 40
0.2000000000000455
 50
270.0
 51
340.0
  0
ARC
  5
107
  8
0
  6
CONTINUOUS
 62
     7
 10
360.8287107961
 20
423.2907291196
 30
0.0
 40
0.2000000000000455
 50
200.0
 51
270.0
  0
LINE
  5
108
  8
0
  6
CONTINUOUS
 62
     7
 10
360.8287107961
 20
423.0907291196
 30
0.0
 11
368.015671014
 21
423.0907291196
 31
0.0
  0
ARC
  5
109
  8
0
  6
CONTINUOUS
 62
     7
 10
326.4221909051
 20
480.9228724608
 30
0.0
 40
1.0
 50
0.0
 51
90.0
  0
ARC
  5
10A
  8
0
  6
CONTINUOUS
 62
     7
 10
326.4221909051
 20
413.4228724608
 30
0.0
 40
1.0
 50
270.0
 51
0.0
  0
LINE
  5
10B
  8
0
  6
CONTINUOUS
 62
     7
 10
326.4221909051
 20
481.9228724608
 30
0.0
 11
320.4221909051
 21
481.9228724608
 31
0.0
  0
LINE
  5
10C
  8
0
  6
CONTINUOUS
 62
     7
 10
320.4221909051
 20
412.4228724608
 30
0.0
 11
326.4221909051
 21
412.4228724608
 31
0.0
  0
POLYLINE
  5
10D
  8
0
  6
CONTINUOUS
 62
     7
 66
     1
 10
0.0
 20
0.0
 30
0.0
 70
   128
  0
VERTEX
  5
20E
  8
0
  6
CONTINUOUS
 62
     7
 10
490.4221909051
 20
436.6728724608
 30
0.0
  0
VERTEX
  5
20F
  8
0
  6
CONTINUOUS
 62
     7
 10
495.3932595728
 20
436.644888645
 30
0.0
  0
VERTEX
  5
210
  8
0
  6
CONTINUOUS
 62
     7
 10
499.4981086533
 20
436.5505024363
 30
0.0
  0
VERTEX
  5
211
  8
0
  6
CONTINUOUS
 62
     7
 10
502.912882832
 20
436.3839771235
 30
0.0
  0
VERTEX
  5
212
  8
0
  6
CONTINUOUS
 62
     7
 10
505.7268825846
 20
436.1538265977
 30
0.0
  0
VERTEX
  5
213
  8
0
  6
CONTINUOUS
 62
     7
 10
508.6695567174
 20
435.7729661331
 30
0.0
  0
VERTEX
  5
214
  8
0
  6
CONTINUOUS
 62
     7
 10
510.8602354877
 20
435.3527499681
 30
0.0
  0
VERTEX
  5
215
  8
0
  6
CONTINUOUS
 62
     7
 10
512.4670888248
 20
434.9392966303
 30
0.0
  0
VERTEX
  5
216
  8
0
  6
CONTINUOUS
 62
     7
 10
513.8332091699
 20
434.4897275329
 30
0.0
  0
VERTEX
  5
217
  8
0
  6
CONTINUOUS
 62
     7
 10
515.4865988166
 20
433.7767988459
 30
0.0
  0
VERTEX
  5
218
  8
0
  6
CONTINUOUS
 62
     7
 10
517.3406126785
 20
432.672793041
 30
0.0
  0
VERTEX
  5
219
  8
0
  6
CONTINUOUS
 62
     7
 10
518.3520795804
 20
431.8916722726
 30
0.0
  0
VERTEX
  5
21A
  8
0
  6
CONTINUOUS
 62
     7
 10
519.4587206042
 20
430.8642777794
 30
0.0
  0
VERTEX
  5
21B
  8
0
  6
CONTINUOUS
 62
     7
 10
520.7069911662
 20
429.4432609763
 30
0.0
  0
VERTEX
  5
21C
  8
0
  6
CONTINUOUS
 62
     7
 10
521.5385893806
 20
428.3398666688
 30
0.0
  0
VERTEX
  5
21D
  8
0
  6
CONTINUOUS
 62
     7
 10
522.4152406968
 20
427.0515806204
 30
0.0
  0
VERTEX
  5
21E
  8
0
  6
CONTINUOUS
 62
     7
 10
523.3151465036
 20
425.5909489679
 30
0.0
  0
VERTEX
  5
21F
  8
0
  6
CONTINUOUS
 62
     7
 10
524.2761566964
 20
423.8402953394
 30
0.0
  0
VERTEX
  5
220
  8
0
  6
CONTINUOUS
 62
     7
 10
525.4119217386
 20
421.517381944
 30
0.0
  0
SEQEND
  5
255
  8
0
  6
CONTINUOUS
 62
     7
  0
POLYLINE
  5
10E
  8
0
  6
CONTINUOUS
 62
     7
 66
     1
 10
0.0
 20
0.0
 30
0.0
 70
   128
  0
VERTEX
  5
221
  8
0
  6
CONTINUOUS
 62
     7
 10
544.4443852663
 20
430.3923654406
 30
0.0
  0
VERTEX
  5
222
  8
0
  6
CONTINUOUS
 62
     7
 10
542.3365570284
 20
434.5721835176
 30
0.0
  0
VERTEX
  5
223
  8
0
  6
CONTINUOUS
 62
     7
 10
540.10342748
 20
438.3872185742
 30
0.0
  0
VERTEX
  5
224
  8
0
  6
CONTINUOUS
 62
     7
 10
537.9375468816
 20
441.5069195031
 30
0.0
  0
VERTEX
  5
225
  8
0
  6
CONTINUOUS
 62
     7
 10
535.7992574124
 20
444.1107116901
 30
0.0
  0
VERTEX
  5
226
  8
0
  6
CONTINUOUS
 62
     7
 10
533.6929486504
 20
446.3100500184
 30
0.0
  0
VERTEX
  5
227
  8
0
  6
CONTINUOUS
 62
     7
 10
531.1886320996
 20
448.5224125062
 30
0.0
  0
VERTEX
  5
228
  8
0
  6
CONTINUOUS
 62
     7
 10
528.9151872957
 20
450.2006088497
 30
0.0
  0
VERTEX
  5
229
  8
0
  6
CONTINUOUS
 62
     7
 10
526.9487540276
 20
451.4393833229
 30
0.0
  0
VERTEX
  5
22A
  8
0
  6
CONTINUOUS
 62
     7
 10
525.1017471455
 20
452.4463781653
 30
0.0
  0
VERTEX
  5
22B
  8
0
  6
CONTINUOUS
 62
     7
 10
521.9107975945
 20
453.8786409056
 30
0.0
  0
VERTEX
  5
22C
  8
0
  6
CONTINUOUS
 62
     7
 10
517.8065896372
 20
455.2532669499
 30
0.0
  0
VERTEX
  5
22D
  8
0
  6
CONTINUOUS
 62
     7
 10
512.7635724837
 20
456.381491778
 30
0.0
  0
VERTEX
  5
22E
  8
0
  6
CONTINUOUS
 62
     7
 10
508.3178352572
 20
456.9975557011
 30
0.0
  0
VERTEX
  5
22F
  8
0
  6
CONTINUOUS
 62
     7
 10
503.2170735945
 20
457.4048536143
 30
0.0
  0
VERTEX
  5
230
  8
0
  6
CONTINUOUS
 62
     7
 10
497.2899764323
 20
457.6161910924
 30
0.0
  0
VERTEX
  5
231
  8
0
  6
CONTINUOUS
 62
     7
 10
490.4221909051
 20
457.6728724608
 30
0.0
  0
SEQEND
  5
256
  8
0
  6
CONTINUOUS
 62
     7
  0
ARC
  5
10F
  8
0
  6
CONTINUOUS
 62
     7
 10
548.8752818299
 20
418.9973158294
 30
0.0
 40
0.7999999999999318
 50
295.0
 51
25.0
  0
ARC
  5
110
  8
0
  6
CONTINUOUS
 62
     7
 10
531.2929107614
 20
410.7985215516
 30
0.0
 40
0.8000000000000314
 50
205.0
 51
295.0
  0
LINE
  5
111
  8
0
  6
CONTINUOUS
 62
     7
 10
549.6003280596
 20
419.3354104388
 30
0.0
 11
544.4443852663
 21
430.3923654406
 31
0.0
  0
LINE
  5
112
  8
0
  6
CONTINUOUS
 62
     7
 10
525.4119217386
 20
421.517381944
 30
0.0
 11
530.5678645318
 21
410.4604269422
 31
0.0
  0
LINE
  5
113
  8
0
  6
CONTINUOUS
 62
     7
 10
327.4221909051
 20
436.6728724608
 30
0.0
 11
490.4221909051
 21
436.6728724608
 31
0.0
  0
LINE
  5
114
  8
0
  6
CONTINUOUS
 62
     7
 10
490.4221909051
 20
457.6728724608
 30
0.0
 11
327.4221909051
 21
457.6728724608
 31
0.0
  0
LINE
  5
115
  8
0
  6
CONTINUOUS
 62
     7
 10
353.4221909051
 20
436.6728724608
 30
0.0
 11
353.4221909051
 21
424.1728724608
 31
0.0
  0
LINE
  5
116
  8
0
  6
CONTINUOUS
 62
     7
 10
355.2700976629
 20
457.6728724608
 30
0.0
 11
357.4741849218
 21
470.1728724608
 31
0.0
  0
POLYLINE
  5
117
  8
0
  6
CONTINUOUS
 62
     7
 66
     1
 10
0.0
 20
0.0
 30
0.0
 70
   128
  0
VERTEX
  5
232
  8
0
  6
CONTINUOUS
 62
     7
 10
361.6686157973
 20
424.3566024792
 30
0.0
  0
VERTEX
  5
233
  8
0
  6
CONTINUOUS
 62
     7
 10
360.8642161585
 20
424.2456139179
 30
0.0
  0
VERTEX
  5
234
  8
0
  6
CONTINUOUS
 62
     7
 10
360.4595226178
 20
424.1793355438
 30
0.0
  0
VERTEX
  5
235
  8
0
  6
CONTINUOUS
 62
     7
 10
360.4763022777
 20
424.1822127915
 30
0.0
  0
SEQEND
  5
257
  8
0
  6
CONTINUOUS
 62
     7
  0
POLYLINE
  5
118
  8
0
  6
CONTINUOUS
 62
     7
 66
     1
 10
0.0
 20
0.0
 30
0.0
 70
   128
  0
VERTEX
  5
236
  8
0
  6
CONTINUOUS
 62
     7
 10
368.3821592151
 20
424.1797447003
 30
0.0
  0
VERTEX
  5
237
  8
0
  6
CONTINUOUS
 62
     7
 10
368.4103396479
 20
424.1749305878
 30
0.0
  0
VERTEX
  5
238
  8
0
  6
CONTINUOUS
 62
     7
 10
368.0913892591
 20
424.2280905582
 30
0.0
  0
VERTEX
  5
239
  8
0
  6
CONTINUOUS
 62
     7
 10
367.3692980778
 20
424.3324381242
 30
0.0
  0
VERTEX
  5
23A
  8
0
  6
CONTINUOUS
 62
     7
 10
366.3082500993
 20
424.4449772815
 30
0.0
  0
VERTEX
  5
23B
  8
0
  6
CONTINUOUS
 62
     7
 10
365.0279327961
 20
424.5152705745
 30
0.0
  0
VERTEX
  5
23C
  8
0
  6
CONTINUOUS
 62
     7
 10
363.6935163173
 20
424.5116508112
 30
0.0
  0
VERTEX
  5
23D
  8
0
  6
CONTINUOUS
 62
     7
 10
362.4517871351
 20
424.4378226255
 30
0.0
  0
VERTEX
  5
23E
  8
0
  6
CONTINUOUS
 62
     7
 10
361.6686157973
 20
424.3566024792
 30
0.0
  0
SEQEND
  5
258
  8
0
  6
CONTINUOUS
 62
     7
  0
LINE
  5
119
  8
0
  6
CONTINUOUS
 62
     7
 10
382.4221909051
 20
469.1728724608
 30
0.0
 11
382.4221909051
 21
457.6728724608
 31
0.0
  0
LINE
  5
11A
  8
0
  6
CONTINUOUS
 62
     7
 10
382.4221909051
 20
436.6728724608
 30
0.0
 11
382.4221909051
 21
426.3213985257
 31
0.0
  0
ARC
  5
11B
  8
0
  6
CONTINUOUS
 62
     7
 10
369.610723125
 20
421.6388949247
 30
0.0
 40
2.811520187697645
 50
0.3498362036
 51
90.3456154316
  0
LINE
  5
11C
  8
0
  6
CONTINUOUS
 62
     7
 10
382.4221909051
 20
422.1253647841
 30
0.0
 11
382.4221909051
 21
426.3213985257
 31
0.0
  0
LINE
  5
11D
  8
0
  6
CONTINUOUS
 62
     7
 10
372.4221909051
 20
421.6560613799
 30
0.0
 11
372.4221909051
 21
363.1728724608
 31
0.0
  0
LINE
  5
11E
  8
0
  6
CONTINUOUS
 62
     7
 10
373.4221909051
 20
362.1728724608
 30
0.0
 11
381.4221909051
 21
362.1728724608
 31
0.0
  0
ARC
  5
11F
  8
0
  6
CONTINUOUS
 62
     7
 10
373.4221909051
 20
363.1728724608
 30
0.0
 40
1.0
 50
180.0
 51
270.0
  0
LINE
  5
120
  8
0
  6
CONTINUOUS
 62
     7
 10
382.4221909051
 20
363.1728724608
 30
0.0
 11
382.4221909051
 21
422.1253647841
 31
0.0
  0
ARC
  5
121
  8
0
  6
CONTINUOUS
 62
     7
 10
381.4221909051
 20
363.1728724608
 30
0.0
 40
1.0
 50
270.0
 51
0.0
  0
LINE
  5
122
  8
0
  6
CONTINUOUS
 62
     7
 10
361.6686157973
 20
423.8228724608
 30
0.0
 11
368.4221909051
 21
423.8228724608
 31
0.0
  0
LINE
  5
123
  8
0
  6
CONTINUOUS
 62
     7
 10
360.4221909051
 20
423.8228724608
 30
0.0
 11
361.6686157973
 21
423.8228724608
 31
0.0
  0
LINE
  5
124
  8
0
  6
CONTINUOUS
 62
     7
 10
327.4221909051
 20
447.1728724608
 30
0.0
 11
327.4221909051
 21
413.4228724608
 31
0.0
  0
LINE
  5
125
  8
0
  6
CONTINUOUS
 62
     7
 10
327.4221909051
 20
480.9228724608
 30
0.0
 11
327.4221909051
 21
447.1728724608
 31
0.0
  0
LINE
  5
126
  8
0
  6
CONTINUOUS
 62
     7
 10
320.4221909051
 20
447.1728724608
 30
0.0
 11
320.4221909051
 21
412.4228724608
 31
0.0
  0
LINE
  5
127
  8
0
  6
CONTINUOUS
 62
     7
 10
320.4221909051
 20
481.9228724608
 30
0.0
 11
320.4221909051
 21
447.1728724608
 31
0.0
  0
LINE
  5
128
  8
0
  6
CONTINUOUS
 62
     7
 10
549.2133759399
 20
418.2722693669
 30
0.0
 11
531.6310053708
 21
410.073475322
 31
0.0
  0
POLYLINE
  5
129
  8
0
  6
CONTINUOUS
 62
     8
 66
     1
 10
0.0
 20
0.0
 30
0.0
 70
   128
  0
VERTEX
  5
23F
  8
0
  6
CONTINUOUS
 62
     8
 10
373.4221909051
 20
425.3736042559
 30
0.0
  0
VERTEX
  5
240
  8
0
  6
CONTINUOUS
 62
     8
 10
372.5850247093
 20
425.3450473276
 30
0.0
  0
VERTEX
  5
241
  8
0
  6
CONTINUOUS
 62
     8
 10
371.779441937
 20
425.261575853
 30
0.0
  0
VERTEX
  5
242
  8
0
  6
CONTINUOUS
 62
     8
 10
371.0863627986
 20
425.1427908364
 30
0.0
  0
VERTEX
  5
243
  8
0
  6
CONTINUOUS
 62
     8
 10
370.508054258
 20
424.9984320573
 30
0.0
  0
VERTEX
  5
244
  8
0
  6
CONTINUOUS
 62
     8
 10
370.0790547738
 20
424.8494723987
 30
0.0
  0
VERTEX
  5
245
  8
0
  6
CONTINUOUS
 62
     8
 10
369.7772392709
 20
424.6989938814
 30
0.0
  0
VERTEX
  5
246
  8
0
  6
CONTINUOUS
 62
     8
 10
369.5937637803
 20
424.4503639617
 30
0.0
  0
SEQEND
  5
259
  8
0
  6
CONTINUOUS
 62
     8
  0
LINE
  5
12A
  8
0
  6
CONTINUOUS
 62
     8
 10
369.5937637803
 20
424.1728724608
 30
0.0
 11
369.5937637803
 21
424.4503639617
 31
0.0
  0
LINE
  5
12B
  8
0
  6
CONTINUOUS
 62
     8
 10
381.4221909051
 20
425.3736042559
 30
0.0
 11
381.4221909051
 21
436.6728724608
 31
0.0
  0
LINE
  5
12C
  8
0
  6
CONTINUOUS
 62
     8
 10
381.4221909051
 20
457.6728724608
 30
0.0
 11
381.4221909051
 21
470.1728724608
 31
0.0
  0
LINE
  5
12D
  8
0
  6
CONTINUOUS
 62
     8
 10
381.4221909051
 20
425.3736042559
 30
0.0
 11
373.4221909051
 21
425.3736042559
 31
0.0
  0
ARC
  5
12E
  8
0
  6
CONTINUOUS
 62
     8
 10
381.4476124106
 20
426.3482202805
 30
0.0
 40
0.9749475105827304
 50
268.5058579461
 51
358.4235384439
  0
LINE
  5
12F
  8
0
  6
CONTINUOUS
 62
     8
 10
346.3454703268
 20
469.7228724608
 30
0.0
 11
346.3454703268
 21
457.6728724608
 31
0.0
  0
LINE
  5
130
  8
0
  6
CONTINUOUS
 62
     8
 10
346.3454703268
 20
436.6728724608
 30
0.0
 11
346.3454703268
 21
424.6228724608
 31
0.0
  0
LINE
  5
131
  8
0
  6
CONTINUOUS
 62
     8
 10
346.873767033
 20
469.4821137811
 30
0.0
 11
346.873767033
 21
457.6728724608
 31
0.0
  0
LINE
  5
132
  8
0
  6
CONTINUOUS
 62
     8
 10
346.873767033
 20
436.6728724608
 30
0.0
 11
346.873767033
 21
424.8636311406
 31
0.0
  0
LINE
  5
133
  8
0
  6
CONTINUOUS
 62
     8
 10
346.9352709071
 20
469.4113616674
 30
0.0
 11
346.9352709071
 21
457.6728724608
 31
0.0
  0
LINE
  5
134
  8
0
  6
CONTINUOUS
 62
     8
 10
346.9352709071
 20
436.6728724608
 30
0.0
 11
346.9352709071
 21
424.9343832543
 31
0.0
  0
LINE
  5
135
  8
0
  6
CONTINUOUS
 62
     8
 10
347.4536695145
 20
469.1706729714
 30
0.0
 11
347.4536695145
 21
457.6728724608
 31
0.0
  0
LINE
  5
136
  8
0
  6
CONTINUOUS
 62
     8
 10
347.4536695145
 20
436.6728724608
 30
0.0
 11
347.4536695145
 21
425.1750719503
 31
0.0
  0
LINE
  5
137
  8
0
  6
CONTINUOUS
 62
     8
 10
381.4221909051
 20
425.3736042559
 30
0.0
 11
381.4221909051
 21
422.1253647841
 31
0.0
  0
LINE
  5
138
  8
0
  6
CONTINUOUS
 62
     8
 10
373.4221909051
 20
422.1253647841
 30
0.0
 11
381.4221909051
 21
422.1253647841
 31
0.0
  0
LINE
  5
139
  8
0
  6
CONTINUOUS
 62
     8
 10
373.4221909051
 20
422.1253647841
 30
0.0
 11
373.4221909051
 21
425.3736042559
 31
0.0
  0
ARC
  5
13A
  8
0
  6
CONTINUOUS
 62
     8
 10
373.2781652003
 20
421.1321967532
 30
0.0
 40
1.003556745431397
 50
81.7486895168
 51
148.5329607258
  0
LINE
  5
13B
  8
0
  6
CONTINUOUS
 62
     8
 10
382.4221909051
 20
422.1253647841
 30
0.0
 11
381.4221909051
 21
422.1253647841
 31
0.0
  0
LINE
  5
13C
  8
0
  6
CONTINUOUS
 62
     8
 10
373.4221909051
 20
363.1728724608
 30
0.0
 11
373.4221909051
 21
422.1253647841
 31
0.0
  0
LINE
  5
13D
  8
0
  6
CONTINUOUS
 62
     8
 10
372.4221909051
 20
363.1728724608
 30
0.0
 11
373.4221909051
 21
363.1728724608
 31
0.0
  0
LINE
  5
13E
  8
0
  6
CONTINUOUS
 62
     8
 10
381.4221909051
 20
422.1253647841
 30
0.0
 11
381.4221909051
 21
363.1728724608
 31
0.0
  0
LINE
  5
13F
  8
0
  6
CONTINUOUS
 62
     8
 10
381.4221909051
 20
363.1728724608
 30
0.0
 11
373.4221909051
 21
363.1728724608
 31
0.0
  0
LINE
  5
140
  8
0
  6
CONTINUOUS
 62
     8
 10
381.4221909051
 20
363.1728724608
 30
0.0
 11
381.4221909051
 21
362.1728724608
 31
0.0
  0
LINE
  5
141
  8
0
  6
CONTINUOUS
 62
     8
 10
373.4221909051
 20
363.1728724608
 30
0.0
 11
373.4221909051
 21
362.1728724608
 31
0.0
  0
LINE
  5
142
  8
0
  6
CONTINUOUS
 62
     8
 10
382.4221909051
 20
363.1728724608
 30
0.0
 11
381.4221909051
 21
363.1728724608
 31
0.0
  0
LINE
  5
143
  8
0
  6
CONTINUOUS
 62
     8
 10
360.640772272
 20
423.2223250909
 30
0.0
 11
368.2036095382
 21
423.2223250909
 31
0.0
  0
LINE
  5
144
  8
0
  6
CONTINUOUS
 62
     8
 10
326.4221909051
 20
447.1728724608
 30
0.0
 11
326.4221909051
 21
412.4228724608
 31
0.0
  0
LINE
  5
145
  8
0
  6
CONTINUOUS
 62
     8
 10
326.4221909051
 20
481.9228724608
 30
0.0
 11
326.4221909051
 21
447.1728724608
 31
0.0
  0
LINE
  5
146
  8
0
  6
CONTINUOUS
 62
     8
 10
544.4443852534
 20
430.3923654346
 30
0.0
 11
525.4119217386
 21
421.517381944
 31
0.0
  0
LINE
  5
147
  8
0
  6
CONTINUOUS
 62
     8
 10
490.4221909051
 20
457.6728724465
 30
0.0
 11
490.4221909051
 21
436.6728724608
 31
0.0
  0
LINE
  5
148
  8
0
  6
CONTINUOUS
 62
     8
 10
530.5678645318
 20
410.4604269422
 30
0.0
 11
549.6003280596
 21
419.3354104388
 31
0.0
  0
ENDSEC
  0
EOF
