  0
SECTION
  2
HEADER
  9
$ACADVER
  1
AC1024
  9
$ACADMAINTVER
 70
     6
  9
$DWGCODEPAGE
  3
ANSI_1252
  9
$INSBASE
 10
0.0
 20
0.0
 30
0.0
  9
$EXTMIN
 10
0.0
 20
0.0
 30
0.0
  9
$EXTMAX
 10
594.0
 20
841.0
 30
0.0
  9
$LIMMIN
 10
0.0
 20
0.0
  9
$LIMMAX
 10
594.0
 20
841.0
  9
$ORTHOMODE
 70
     0
  9
$REGENMODE
 70
     1
  9
$FILLMODE
 70
     1
  9
$QTEXTMODE
 70
     0
  9
$MIRRTEXT
 70
     1
  9
$LTSCALE
 40
1.0
  9
$ATTMODE
 70
     1
  9
$TEXTSIZE
 40
10.0
  9
$TRACEWID
 40
1.0
  9
$TEXTSTYLE
  7
Standard
  9
$CLAYER
  8
0
  9
$CELTYPE
  6
ByLayer
  9
$CECOLOR
 62
   256
  9
$CELTSCALE
 40
1.0
  9
$DISPSILH
 70
     0
  9
$DIMSCALE
 40
1.0
  9
$DIMASZ
 40
2.5
  9
$DIMEXO
 40
0.0
  9
$DIMDLI
 40
3.75
  9
$DIMRND
 40
0.0
  9
$DIMDLE
 40
0.0
  9
$DIMEXE
 40
1.0
  9
$DIMTP
 40
0.0
  9
$DIMTM
 40
0.0
  9
$DIMTXT
 40
3.5
  9
$DIMCEN
 40
2.5
  9
$DIMTSZ
 40
0.0
  9
$DIMTOL
 70
     0
  9
$DIMLIM
 70
     0
  9
$DIMTIH
 70
     1
  9
$DIMTOH
 70
     1
  9
$DIMSE1
 70
     0
  9
$DIMSE2
 70
     0
  9
$DIMTAD
 70
     1
  9
$DIMZIN
 70
     0
  9
$DIMBLK
  1

  9
$DIMASO
 70
     1
  9
$DIMSHO
 70
     1
  9
$DIMPOST
  1

  9
$DIMAPOST
  1

  9
$DIMALT
 70
     0
  9
$DIMALTD
 70
     3
  9
$DIMALTF
 40
0.0393700787
  9
$DIMLFAC
 40
1.0
  9
$DIMTOFL
 70
     1
  9
$DIMTVP
 40
0.0
  9
$DIMTIX
 70
     0
  9
$DIMSOXD
 70
     0
  9
$DIMSAH
 70
     0
  9
$DIMBLK1
  1

  9
$DIMBLK2
  1

  9
$DIMSTYLE
  2
ISO-25
  9
$DIMCLRD
 70
     0
  9
$DIMCLRE
 70
     0
  9
$DIMCLRT
 70
     0
  9
$DIMTFAC
 40
1.0
  9
$DIMGAP
 40
1.5
  9
$DIMJUST
 70
     0
  9
$DIMSD1
 70
     0
  9
$DIMSD2
 70
     0
  9
$DIMTOLJ
 70
     0
  9
$DIMTZIN
 70
     0
  9
$DIMALTZ
 70
     0
  9
$DIMALTTZ
 70
     0
  9
$DIMUPT
 70
     0
  9
$DIMDEC
 70
     2
  9
$DIMTDEC
 70
     2
  9
$DIMALTU
 70
     2
  9
$DIMALTTD
 70
     3
  9
$DIMTXSTY
  7
Standard
  9
$DIMAUNIT
 70
     0
  9
$DIMADEC
 70
     2
  9
$DIMALTRND
 40
0.0
  9
$DIMAZIN
 70
     0
  9
$DIMDSEP
 70
    44
  9
$DIMATFIT
 70
     3
  9
$DIMFRAC
 70
     0
  9
$DIMLDRBLK
  1

  9
$DIMLUNIT
 70
     2
  9
$DIMLWD
 70
    -2
  9
$DIMLWE
 70
    -2
  9
$DIMTMOVE
 70
     0
  9
$DIMFXL
 40
1.0
  9
$DIMFXLON
 70
     0
  9
$DIMJOGANG
 40
0.7853981634
  9
$DIMTFILL
 70
     0
  9
$DIMTFILLCLR
 70
     0
  9
$DIMARCSYM
 70
     0
  9
$DIMLTYPE
  6

  9
$DIMLTEX1
  6

  9
$DIMLTEX2
  6

  9
$DIMTXTDIRECTION
 70
     0
  9
$LUNITS
 70
     2
  9
$LUPREC
 70
     2
  9
$SKETCHINC
 40
1.0
  9
$FILLETRAD
 40
10.0
  9
$AUNITS
 70
     0
  9
$AUPREC
 70
     2
  9
$MENU
  1
.
  9
$ELEVATION
 40
0.0
  9
$PELEVATION
 40
0.0
  9
$THICKNESS
 40
0.0
  9
$LIMCHECK
 70
     0
  9
$CHAMFERA
 40
10.0
  9
$CHAMFERB
 40
10.0
  9
$CHAMFERC
 40
20.0
  9
$CHAMFERD
 40
0.0
  9
$SKPOLY
 70
     0
  9
$TDCREATE
 40
2456198.5933075
  9
$TDUCREATE
 40
2456198.509974167
  9
$TDUPDATE
 40
2456198.593307511
  9
$TDUUPDATE
 40
2456198.509974178
  9
$TDINDWG
 40
0.0000000116
  9
$TDUSRTIMER
 40
0.0000000116
  9
$USRTIMER
 70
     1
  9
$ANGBASE
 50
0.0
  9
$ANGDIR
 70
     0
  9
$PDMODE
 70
     0
  9
$PDSIZE
 40
-1.0
  9
$PLINEWID
 40
0.0
  9
$SPLFRAME
 70
     0
  9
$SPLINETYPE
 70
     6
  9
$SPLINESEGS
 70
     8
  9
$HANDSEED
  5
1A3
  9
$SURFTAB1
 70
     6
  9
$SURFTAB2
 70
     6
  9
$SURFTYPE
 70
     6
  9
$SURFU
 70
     6
  9
$SURFV
 70
     6
  9
$UCSBASE
  2

  9
$UCSNAME
  2

  9
$UCSORG
 10
0.0
 20
0.0
 30
0.0
  9
$UCSXDIR
 10
1.0
 20
0.0
 30
0.0
  9
$UCSYDIR
 10
0.0
 20
1.0
 30
0.0
  9
$UCSORTHOREF
  2

  9
$UCSORTHOVIEW
 70
     0
  9
$UCSORGTOP
 10
0.0
 20
0.0
 30
0.0
  9
$UCSORGBOTTOM
 10
0.0
 20
0.0
 30
0.0
  9
$UCSORGLEFT
 10
0.0
 20
0.0
 30
0.0
  9
$UCSORGRIGHT
 10
0.0
 20
0.0
 30
0.0
  9
$UCSORGFRONT
 10
0.0
 20
0.0
 30
0.0
  9
$UCSORGBACK
 10
0.0
 20
0.0
 30
0.0
  9
$PUCSBASE
  2

  9
$PUCSNAME
  2

  9
$PUCSORG
 10
0.0
 20
0.0
 30
0.0
  9
$PUCSXDIR
 10
1.0
 20
0.0
 30
0.0
  9
$PUCSYDIR
 10
0.0
 20
1.0
 30
0.0
  9
$PUCSORTHOREF
  2

  9
$PUCSORTHOVIEW
 70
     0
  9
$PUCSORGTOP
 10
0.0
 20
0.0
 30
0.0
  9
$PUCSORGBOTTOM
 10
0.0
 20
0.0
 30
0.0
  9
$PUCSORGLEFT
 10
0.0
 20
0.0
 30
0.0
  9
$PUCSORGRIGHT
 10
0.0
 20
0.0
 30
0.0
  9
$PUCSORGFRONT
 10
0.0
 20
0.0
 30
0.0
  9
$PUCSORGBACK
 10
0.0
 20
0.0
 30
0.0
  9
$USERI1
 70
     0
  9
$USERI2
 70
     0
  9
$USERI3
 70
     0
  9
$USERI4
 70
     0
  9
$USERI5
 70
     0
  9
$USERR1
 40
0.0
  9
$USERR2
 40
0.0
  9
$USERR3
 40
0.0
  9
$USERR4
 40
0.0
  9
$USERR5
 40
0.0
  9
$WORLDVIEW
 70
     1
  9
$SHADEDGE
 70
     3
  9
$SHADEDIF
 70
    70
  9
$TILEMODE
 70
     1
  9
$MAXACTVP
 70
    64
  9
$PINSBASE
 10
0.0
 20
0.0
 30
0.0
  9
$PLIMCHECK
 70
     0
  9
$PEXTMIN
 10
1.0000000000E+20
 20
1.0000000000E+20
 30
1.0000000000E+20
  9
$PEXTMAX
 10
-1.0000000000E+20
 20
-1.0000000000E+20
 30
-1.0000000000E+20
  9
$PLIMMIN
 10
0.0
 20
0.0
  9
$PLIMMAX
 10
420.0
 20
297.0
  9
$UNITMODE
 70
     0
  9
$VISRETAIN
 70
     1
  9
$PLINEGEN
 70
     0
  9
$PSLTSCALE
 70
     1
  9
$TREEDEPTH
 70
  3020
  9
$CMLSTYLE
  2
Standard
  9
$CMLJUST
 70
     0
  9
$CMLSCALE
 40
20.0
  9
$PROXYGRAPHICS
 70
     1
  9
$MEASUREMENT
 70
     1
  9
$CELWEIGHT
370
    -1
  9
$ENDCAPS
280
     0
  9
$JOINSTYLE
280
     0
  9
$LWDISPLAY
290
     1
  9
$INSUNITS
 70
     4
  9
$HYPERLINKBASE
  1

  9
$STYLESHEET
  1

  9
$XEDIT
290
     1
  9
$CEPSNTYPE
380
     0
  9
$PSTYLEMODE
290
     1
  9
$FINGERPRINTGUID
  2
{5D8520BA-0AF9-4BBC-9EB0-87978EC331C1}
  9
$VERSIONGUID
  2
{FAEB1C32-E019-11D5-929B-00C0DF256EC4}
  9
$EXTNAMES
290
     1
  9
$PSVPSCALE
 40
0.0
  9
$OLESTARTUP
290
     0
  9
$SORTENTS
280
   127
  9
$INDEXCTL
280
     0
  9
$HIDETEXT
280
     1
  9
$XCLIPFRAME
280
     2
  9
$HALOGAP
280
     0
  9
$OBSCOLOR
 70
   257
  9
$OBSLTYPE
280
     0
  9
$INTERSECTIONDISPLAY
280
     0
  9
$INTERSECTIONCOLOR
 70
   257
  9
$DIMASSOC
280
     2
  9
$PROJECTNAME
  1

  9
$CAMERADISPLAY
290
     0
  9
$LENSLENGTH
 40
50.0
  9
$CAMERAHEIGHT
 40
0.0
  9
$STEPSPERSEC
 40
2.0
  9
$STEPSIZE
 40
6.0
  9
$3DDWFPREC
 40
2.0
  9
$PSOLWIDTH
 40
5.0
  9
$PSOLHEIGHT
 40
80.0
  9
$LOFTANG1
 40
1.5707963268
  9
$LOFTANG2
 40
1.5707963268
  9
$LOFTMAG1
 40
0.0
  9
$LOFTMAG2
 40
0.0
  9
$LOFTPARAM
 70
     7
  9
$LOFTNORMALS
280
     1
  9
$LATITUDE
 40
37.795
  9
$LONGITUDE
 40
-122.394
  9
$NORTHDIRECTION
 40
0.0
  9
$TIMEZONE
 70
 -8000
  9
$LIGHTGLYPHDISPLAY
280
     1
  9
$TILEMODELIGHTSYNCH
280
     1
  9
$SOLIDHIST
280
     1
  9
$SHOWHIST
280
     1
  9
$DWFFRAME
280
     2
  9
$DGNFRAME
280
     2
  9
$REALWORLDSCALE
290
     1
  9
$INTERFERECOLOR
 62
   256
  9
$CSHADOW
280
     0
  9
$SHADOWPLANELOCATION
 40
0.0
  0
ENDSEC
  0
SECTION
  2
CLASSES
  0
CLASS
  1
ACDBDICTIONARYWDFLT
  2
AcDbDictionaryWithDefault
  3
ObjectDBX Classes
 90
        0
 91
        4
280
     0
281
     0
  0
CLASS
  1
VISUALSTYLE
  2
AcDbVisualStyle
  3
ObjectDBX Classes
 90
     4095
 91
        4
280
     0
281
     0
  0
CLASS
  1
MATERIAL
  2
AcDbMaterial
  3
ObjectDBX Classes
 90
     1153
 91
        4
280
     0
281
     0
  0
ENDSEC
  0
SECTION
  2
TABLES
  0
TABLE
  2
VPORT
  5
8
330
0
100
AcDbSymbolTable
 70
     1
  0
VPORT
  5
29
330
8
100
AcDbSymbolTableRecord
100
AcDbViewportTableRecord
  2
*Active
 70
     0
 10
0.0
 20
0.0
 11
1.0
 21
1.0
 12
297.0
 22
420.5
 13
0.0
 23
0.0
 14
10.0
 24
10.0
 15
10.0
 25
10.0
 16
0.0
 26
0.0
 36
1.0
 17
0.0
 27
0.0
 37
0.0
 40
841.0
 41
0.7063020214
 42
50.0
 43
0.0
 44
0.0
 50
0.0
 51
0.0
 71
     0
 72
  2000
 73
     1
 74
     3
 75
     0
 76
     0
 77
     0
 78
     0
281
     0
 65
     1
110
0.0
120
0.0
130
0.0
111
1.0
121
0.0
131
0.0
112
0.0
122
1.0
132
0.0
 79
     0
146
0.0
 60
     3
 61
     5
292
     1
282
     1
141
0.0
142
0.0
 63
   250
  0
ENDTAB
  0
TABLE
  2
LTYPE
  5
5
330
0
100
AcDbSymbolTable
 70
     6
  0
LTYPE
  5
14
330
5
100
AcDbSymbolTableRecord
100
AcDbLinetypeTableRecord
  2
ByBlock
 70
     0
  3

 72
    65
 73
     0
 40
0.0
  0
LTYPE
  5
15
330
5
100
AcDbSymbolTableRecord
100
AcDbLinetypeTableRecord
  2
ByLayer
 70
     0
  3

 72
    65
 73
     0
 40
0.0
  0
LTYPE
  5
16
330
5
100
AcDbSymbolTableRecord
100
AcDbLinetypeTableRecord
  2
Continuous
 70
     0
  3
Solid line
 72
    65
 73
     0
 40
0.0
  0
LTYPE
  5
3F
330
5
100
AcDbSymbolTableRecord
100
AcDbLinetypeTableRecord
  2
HIDDEN
 70
     0
  3
Hidden __ __ __ __ __ __ __ __ __ __ __ __ __ __
 72
    65
 73
     2
 40
1.905
 49
1.27
 74
     0
 49
-0.635
 74
     0
  0
LTYPE
  5
40
330
5
100
AcDbSymbolTableRecord
100
AcDbLinetypeTableRecord
  2
PHANTOM
 70
     0
  3
Phantom ______  __  __  ______  __  __  ______
 72
    65
 73
     6
 40
12.7
 49
6.35
 74
     0
 49
-1.27
 74
     0
 49
1.27
 74
     0
 49
-1.27
 74
     0
 49
1.27
 74
     0
 49
-1.27
 74
     0
  0
LTYPE
  5
41
330
5
100
AcDbSymbolTableRecord
100
AcDbLinetypeTableRecord
  2
CENTER
 70
     0
  3
Center ____ _ ____ _ ____ _ ____ _ ____ _ ____
 72
    65
 73
     4
 40
10.16
 49
6.35
 74
     0
 49
-1.27
 74
     0
 49
1.27
 74
     0
 49
-1.27
 74
     0
  0
LTYPE
  5
42
330
5
100
AcDbSymbolTableRecord
100
AcDbLinetypeTableRecord
  2
CENTERX2
 70
     0
  3
Center (2x) ________  __  ________  __  _____
 72
    65
 73
     4
 40
20.32
 49
12.7
 74
     0
 49
-2.54
 74
     0
 49
2.54
 74
     0
 49
-2.54
 74
     0
  0
LTYPE
  5
43
330
5
100
AcDbSymbolTableRecord
100
AcDbLinetypeTableRecord
  2
DOT2
 70
     0
  3
Dot (.5x) ........................................
 72
    65
 73
     2
 40
0.635
 49
0.0
 74
     0
 49
-0.635
 74
     0
  0
ENDTAB
  0
TABLE
  2
LAYER
  5
2
330
0
100
AcDbSymbolTable
 70
     1
  0
LAYER
  5
10
330
2
100
AcDbSymbolTableRecord
100
AcDbLayerTableRecord
  2
0
 70
     0
 62
     7
  6
Continuous
370
    -3
390
F
347
3E
  0
ENDTAB
  0
TABLE
  2
STYLE
  5
3
330
0
100
AcDbSymbolTable
 70
     3
  0
STYLE
  5
11
330
3
100
AcDbSymbolTableRecord
100
AcDbTextStyleTableRecord
  2
Standard
 70
     0
 40
0.0
 41
1.0
 50
0.0
 71
     0
 42
2.5
  3
txt
  4

  0
STYLE
  5
47
330
3
100
AcDbSymbolTableRecord
100
AcDbTextStyleTableRecord
  2
SLDTEXTSTYLE0
 70
     0
 40
0.0
 41
0.96
 50
0.0
 71
     0
 42
0.2
  3
ISOCP3
  4

  0
STYLE
  5
5E
330
3
100
AcDbSymbolTableRecord
100
AcDbTextStyleTableRecord
  2
SLDTEXTSTYLE1
 70
     0
 40
0.0
 41
0.605
 50
0.0
 71
     0
 42
0.2
  3
TXT
  4

  0
ENDTAB
  0
TABLE
  2
VIEW
  5
6
330
0
100
AcDbSymbolTable
 70
     0
  0
ENDTAB
  0
TABLE
  2
UCS
  5
7
330
0
100
AcDbSymbolTable
 70
     0
  0
ENDTAB
  0
TABLE
  2
APPID
  5
9
330
0
100
AcDbSymbolTable
 70
     1
  0
APPID
  5
12
330
9
100
AcDbSymbolTableRecord
100
AcDbRegAppTableRecord
  2
ACAD
 70
     0
  0
ENDTAB
  0
TABLE
  2
DIMSTYLE
  5
A
330
0
100
AcDbSymbolTable
 70
     2
100
AcDbDimStyleTable
  0
DIMSTYLE
105
27
330
A
100
AcDbSymbolTableRecord
100
AcDbDimStyleTableRecord
  2
ISO-25
 70
     0
 41
2.5
 42
0.625
 43
3.75
 44
1.25
 73
     0
 74
     0
 77
     1
 78
     8
140
2.5
141
2.5
143
0.0393700787
147
0.625
171
     3
172
     1
178
     0
271
     2
272
     2
274
     3
278
    44
283
     0
284
     8
340
11
  0
DIMSTYLE
105
48
102
{ACAD_REACTORS
330
46
330
53
102
}
330
A
100
AcDbSymbolTableRecord
100
AcDbDimStyleTableRecord
  2
SLDDIMSTYLE0
 70
     0
 41
2.5
 44
0.0
 45
0.000000001
 73
     0
 74
     0
 77
     1
 78
    12
 79
     3
140
6.0
147
1.5
173
     1
178
     0
271
     2
272
     2
276
     2
284
    12
340
47
  0
ENDTAB
  0
TABLE
  2
BLOCK_RECORD
  5
1
330
0
100
AcDbSymbolTable
 70
     3
  0
BLOCK_RECORD
  5
1F
330
1
100
AcDbSymbolTableRecord
100
AcDbBlockTableRecord
  2
*Model_Space
340
22
 70
     0
280
     1
281
     0
  0
BLOCK_RECORD
  5
1B
330
1
100
AcDbSymbolTableRecord
100
AcDbBlockTableRecord
  2
*Paper_Space
340
1E
 70
     0
280
     1
281
     0
  0
BLOCK_RECORD
  5
23
330
1
100
AcDbSymbolTableRecord
100
AcDbBlockTableRecord
  2
*Paper_Space0
340
26
 70
     0
280
     1
281
     0
  0
BLOCK_RECORD
  5
49
330
1
100
AcDbSymbolTableRecord
100
AcDbBlockTableRecord
  2
*D1
340
0
 70
     0
280
     1
281
     0
  0
BLOCK_RECORD
  5
54
330
1
100
AcDbSymbolTableRecord
100
AcDbBlockTableRecord
  2
*D2
340
0
 70
     0
280
     1
281
     0
  0
ENDTAB
  0
ENDSEC
  0
SECTION
  2
BLOCKS
  0
BLOCK
  5
20
330
1F
100
AcDbEntity
  8
0
100
AcDbBlockBegin
  2
*Model_Space
 70
     0
 10
0.0
 20
0.0
 30
0.0
  3
*Model_Space
  1

  0
ENDBLK
  5
21
330
1F
100
AcDbEntity
  8
0
100
AcDbBlockEnd
  0
BLOCK
  5
1C
330
1B
100
AcDbEntity
 67
     1
  8
0
100
AcDbBlockBegin
  2
*Paper_Space
 70
     0
 10
0.0
 20
0.0
 30
0.0
  3
*Paper_Space
  1

  0
ENDBLK
  5
1D
330
1B
100
AcDbEntity
 67
     1
  8
0
100
AcDbBlockEnd
  0
BLOCK
  5
24
330
23
100
AcDbEntity
  8
0
100
AcDbBlockBegin
  2
*Paper_Space0
 70
     0
 10
0.0
 20
0.0
 30
0.0
  3
*Paper_Space0
  1

  0
ENDBLK
  5
25
330
23
100
AcDbEntity
  8
0
100
AcDbBlockEnd
  0
BLOCK
  5
4A
330
49
100
AcDbEntity
  8
0
100
AcDbBlockBegin
  2
*D1
 70
     1
 10
0.0
 20
0.0
 30
0.0
  3
*D1
  1

  0
SOLID
  5
4C
330
49
100
AcDbEntity
  8
0
  6
Continuous
 62
     7
370
     0
100
AcDbTrace
 10
42.7614395004
 20
152.0299240879
 30
0.0
 11
42.4614395004
 21
149.5299240879
 31
0.0
 12
43.0614395004
 22
149.5299240879
 32
0.0
 13
43.0614395004
 23
149.5299240879
 33
0.0
  0
SOLID
  5
4D
330
49
100
AcDbEntity
  8
0
  6
Continuous
 62
     7
370
     0
100
AcDbTrace
 10
42.7614395004
 20
52.0299240879
 30
0.0
 11
43.0614395004
 21
54.5299240879
 31
0.0
 12
42.4614395004
 22
54.5299240879
 32
0.0
 13
42.4614395004
 23
54.5299240879
 33
0.0
  0
LINE
  5
4E
330
49
100
AcDbEntity
  8
0
  6
Continuous
 62
     7
370
     0
100
AcDbLine
 10
56.6850079902
 20
152.0299240879
 30
0.0
 11
41.7614395004
 21
152.0299240879
 31
0.0
  0
LINE
  5
4F
330
49
100
AcDbEntity
  8
0
  6
Continuous
 62
     7
370
     0
100
AcDbLine
 10
56.6850079902
 20
52.0299240879
 30
0.0
 11
41.7614395004
 21
52.0299240879
 31
0.0
  0
LINE
  5
50
330
49
100
AcDbEntity
  8
0
  6
Continuous
 62
     7
370
     0
100
AcDbLine
 10
42.7614395004
 20
152.0299240879
 30
0.0
 11
42.7614395004
 21
52.0299240879
 31
0.0
  0
MTEXT
  5
51
330
49
100
AcDbEntity
  8
0
  6
Continuous
 62
     7
370
     0
100
AcDbMText
 10
35.0270332946
 20
91.6722208134
 30
0.1
 40
6.0
 41
0.0
 46
0.0
 71
     1
 72
     1
  1
100
  7
SLDTEXTSTYLE0
 11
-7.044195017643634E-15
 21
1.0
 31
0.0
 73
     1
 44
1.0
  0
MTEXT
  5
52
330
49
100
AcDbEntity
  8
0
  6
Continuous
 62
     7
370
     0
100
AcDbMText
 10
35.0270332946
 20
108.4388881795
 30
0.1
 40
6.0
 41
0.0
 46
0.0
 71
     1
 72
     1
  1
mm
  7
SLDTEXTSTYLE0
 11
-7.044195017643634E-15
 21
1.0
 31
0.0
 73
     1
 44
1.0
  0
ENDBLK
  5
4B
330
49
100
AcDbEntity
  8
0
100
AcDbBlockEnd
  0
BLOCK
  5
55
330
54
100
AcDbEntity
  8
0
100
AcDbBlockBegin
  2
*D2
 70
     1
 10
0.0
 20
0.0
 30
0.0
  3
*D2
  1

  0
SOLID
  5
57
330
54
100
AcDbEntity
  8
0
  6
Continuous
 62
     7
370
     0
100
AcDbTrace
 10
56.6850079902
 20
38.4602342313
 30
0.0
 11
59.1850079902
 21
38.1602342313
 31
0.0
 12
59.1850079902
 22
38.7602342313
 32
0.0
 13
59.1850079902
 23
38.7602342313
 33
0.0
  0
SOLID
  5
58
330
54
100
AcDbEntity
  8
0
  6
Continuous
 62
     7
370
     0
100
AcDbTrace
 10
156.6850079902
 20
38.4602342313
 30
0.0
 11
154.1850079902
 21
38.7602342313
 31
0.0
 12
154.1850079902
 22
38.1602342313
 32
0.0
 13
154.1850079902
 23
38.1602342313
 33
0.0
  0
LINE
  5
59
330
54
100
AcDbEntity
  8
0
  6
Continuous
 62
     7
370
     0
100
AcDbLine
 10
56.6850079902
 20
52.0299240879
 30
0.0
 11
56.6850079902
 21
37.4602342313
 31
0.0
  0
LINE
  5
5A
330
54
100
AcDbEntity
  8
0
  6
Continuous
 62
     7
370
     0
100
AcDbLine
 10
156.6850079902
 20
52.0299240879
 30
0.0
 11
156.6850079902
 21
37.4602342313
 31
0.0
  0
LINE
  5
5B
330
54
100
AcDbEntity
  8
0
  6
Continuous
 62
     7
370
     0
100
AcDbLine
 10
56.6850079902
 20
38.4602342313
 30
0.0
 11
156.6850079902
 21
38.4602342313
 31
0.0
  0
MTEXT
  5
5C
330
54
100
AcDbEntity
  8
0
  6
Continuous
 62
     7
370
     0
100
AcDbMText
 10
91.2668151533
 20
46.1946404371
 30
0.1
 40
6.0
 41
0.0
 46
0.0
 71
     1
 72
     1
  1
100
  7
SLDTEXTSTYLE0
 73
     1
 44
1.0
  0
MTEXT
  5
5D
330
54
100
AcDbEntity
  8
0
  6
Continuous
 62
     7
370
     0
100
AcDbMText
 10
108.0334825193
 20
46.1946404371
 30
0.1
 40
6.0
 41
0.0
 46
0.0
 71
     1
 72
     1
  1
mm
  7
SLDTEXTSTYLE0
 73
     1
 44
1.0
  0
ENDBLK
  5
56
330
54
100
AcDbEntity
  8
0
100
AcDbBlockEnd
  0
ENDSEC
  0
SECTION
  2
ENTITIES
  0
LINE
  5
44
330
1F
100
AcDbEntity
  8
0
  6
Continuous
 62
     7
370
     0
100
AcDbLine
 10
56.6850079902
 20
152.0299240879
 30
0.0
 11
56.6850079902
 21
52.0299240879
 31
0.0
  0
LINE
  5
45
330
1F
100
AcDbEntity
  8
0
  6
Continuous
 62
     7
370
     0
100
AcDbLine
 10
56.6850079902
 20
52.0299240879
 30
0.0
 11
156.6850079902
 21
52.0299240879
 31
0.0
  0
DIMENSION
  5
46
330
1F
100
AcDbEntity
  8
0
  6
Continuous
 62
     7
370
     0
100
AcDbDimension
280
     0
  2
*D1
 10
42.7614395004
 20
52.0299240879
 30
0.0
 11
42.7614395004
 21
105.4472211621
 31
0.0
 70
   160
  1
<>mm
 71
     2
 42
-1.0
 73
     0
 74
     0
 75
     0
  3
SLDDIMSTYLE0
100
AcDbAlignedDimension
 13
56.6850079902
 23
152.0299240879
 33
0.0
 14
56.6850079902
 24
52.0299240879
 34
0.0
 50
90.0
100
AcDbRotatedDimension
  0
DIMENSION
  5
53
330
1F
100
AcDbEntity
  8
0
  6
Continuous
 62
     7
370
     0
100
AcDbDimension
280
     0
  2
*D2
 10
156.6850079902
 20
38.4602342313
 30
0.0
 11
105.0418155019
 21
38.4602342313
 31
0.0
 70
   160
  1
<>mm
 71
     2
 42
-1.0
 73
     0
 74
     0
 75
     0
  3
SLDDIMSTYLE0
100
AcDbAlignedDimension
 13
56.6850079902
 23
52.0299240879
 33
0.0
 14
156.6850079902
 24
52.0299240879
 34
0.0
100
AcDbRotatedDimension
  0
MTEXT
  5
5F
330
1F
100
AcDbEntity
  8
0
  6
Continuous
 62
     7
370
     0
100
AcDbMText
 10
264.3498891896
 20
49.3034557666
 30
0.0
 40
10.0
 41
0.0
 46
0.0
 71
     1
 72
     1
  1
35 200 05 38
  7
SLDTEXTSTYLE1
 73
     1
 44
1.0
  0
MTEXT
  5
60
330
1F
100
AcDbEntity
  8
0
  6
Continuous
 62
     7
370
     0
100
AcDbMText
 10
412.8252631579
 20
48.4342449499
 30
0.0
 40
10.0
 41
0.0
 46
0.0
 71
     1
 72
     1
  1
KLUDI GmbH & Co KG
  7
SLDTEXTSTYLE1
 73
     1
 44
1.0
  0
LINE
  5
61
330
1F
100
AcDbEntity
  8
0
  6
Continuous
 62
     7
370
    15
100
AcDbLine
 10
229.4236836155
 20
290.7646038662
 30
0.0
 11
308.6198111349
 21
290.7646038662
 31
0.0
  0
LINE
  5
62
330
1F
100
AcDbEntity
  8
0
  6
Continuous
 62
     7
370
    15
100
AcDbLine
 10
126.6756111349
 20
290.7646038662
 30
0.0
 11
205.8941784872
 21
290.7646038662
 31
0.0
  0
LINE
  5
63
330
1F
100
AcDbEntity
  8
0
  6
Continuous
 62
     7
370
    15
100
AcDbLine
 10
308.6198111349
 20
340.9146038662
 30
0.0
 11
126.6756111349
 21
340.9146038662
 31
0.0
  0
LINE
  5
64
330
1F
100
AcDbEntity
  8
0
  6
Continuous
 62
     7
370
    15
100
AcDbLine
 10
308.6198111349
 20
290.7646038662
 30
0.0
 11
308.9207111349
 21
291.0655038662
 31
0.0
  0
LINE
  5
65
330
1F
100
AcDbEntity
  8
0
  6
Continuous
 62
     7
370
    15
100
AcDbLine
 10
308.9207111349
 20
340.6137038662
 30
0.0
 11
308.6198111349
 21
340.9146038662
 31
0.0
  0
LINE
  5
66
330
1F
100
AcDbEntity
  8
0
  6
Continuous
 62
     7
370
    15
100
AcDbLine
 10
126.6756111349
 20
340.9146038662
 30
0.0
 11
126.3747111349
 21
340.6137038662
 31
0.0
  0
LINE
  5
67
330
1F
100
AcDbEntity
  8
0
  6
Continuous
 62
     7
370
    15
100
AcDbLine
 10
126.3747111349
 20
291.0655038662
 30
0.0
 11
126.6756111349
 21
290.7646038662
 31
0.0
  0
LINE
  5
68
330
1F
100
AcDbEntity
  8
0
  6
Continuous
 62
     7
370
    15
100
AcDbLine
 10
85.709020425
 20
340.5727252879
 30
0.0
 11
77.3685778331
 21
340.4999393481
 31
0.0
  0
LINE
  5
69
330
1F
100
AcDbEntity
  8
0
  6
Continuous
 62
     7
370
    15
100
AcDbLine
 10
124.7101778331
 20
340.9130832323
 30
0.0
 11
97.585653153
 21
340.6763710915
 31
0.0
  0
LINE
  5
6A
330
1F
100
AcDbEntity
  8
0
  6
Continuous
 62
     7
370
    15
100
AcDbLine
 10
77.3685778331
 20
291.1762271165
 30
0.0
 11
124.7101778331
 21
290.7630832323
 31
0.0
  0
LINE
  5
6B
330
1F
100
AcDbEntity
  8
0
  6
Continuous
 62
     7
370
    15
100
AcDbLine
 10
309.5683621306
 20
290.7630832323
 30
0.0
 11
356.9099621306
 21
291.1762271165
 31
0.0
  0
LINE
  5
6C
330
1F
100
AcDbEntity
  8
0
  6
Continuous
 62
     7
370
    15
100
AcDbLine
 10
336.7061751473
 20
340.6762551259
 30
0.0
 11
309.5683621306
 21
340.9130832323
 31
0.0
  0
LINE
  5
6D
330
1F
100
AcDbEntity
  8
0
  6
Continuous
 62
     7
370
    15
100
AcDbLine
 10
356.9099621306
 20
340.4999393481
 30
0.0
 11
348.583627707
 21
340.5726021678
 31
0.0
  0
ARC
  5
6E
330
1F
100
AcDbEntity
  8
0
  6
Continuous
 62
     7
370
    15
100
AcDbCircle
 10
528.0443097657
 20
315.8380832323
 30
0.0
 40
451.3500000000002
100
AcDbArc
 50
182.6375703338
 51
183.1322129706
  0
ARC
  5
6F
330
1F
100
AcDbEntity
  8
0
  6
Continuous
 62
     7
370
    15
100
AcDbCircle
 10
528.0443097657
 20
315.8380832323
 30
0.0
 40
451.3500000000002
100
AcDbArc
 50
176.8677870294
 51
177.2565664185
  0
ARC
  5
70
330
1F
100
AcDbEntity
  8
0
  6
Continuous
 62
     7
370
    15
100
AcDbCircle
 10
-93.7657698019
 20
315.8380832323
 30
0.0
 40
451.3500000000002
100
AcDbArc
 50
356.8677870294
 51
3.1322129706
  0
LINE
  5
71
330
1F
100
AcDbEntity
  8
0
  6
Continuous
 62
     7
370
    15
100
AcDbLine
 10
124.7101778331
 20
292.8702347637
 30
0.0
 11
126.3747111349
 21
292.8702347637
 31
0.0
  0
LINE
  5
72
330
1F
100
AcDbEntity
  8
0
  6
Continuous
 62
     7
370
    15
100
AcDbLine
 10
126.3747111349
 20
338.8076347637
 30
0.0
 11
124.7101778331
 21
338.8076347637
 31
0.0
  0
LINE
  5
73
330
1F
100
AcDbEntity
  8
0
  6
Continuous
 62
     7
370
    15
100
AcDbLine
 10
308.9207111349
 20
292.8696628366
 30
0.0
 11
309.5683621306
 21
292.8696628366
 31
0.0
  0
ARC
  5
74
330
1F
100
AcDbEntity
  8
0
  6
Continuous
 62
     7
370
    15
100
AcDbCircle
 10
528.0098183849
 20
315.8378396901
 30
0.0
 40
451.3499999999999
100
AcDbArc
 50
177.2634583656
 51
182.5867041484
  0
LINE
  5
75
330
1F
100
AcDbEntity
  8
0
  6
Continuous
 62
     7
370
    15
100
AcDbLine
 10
229.4245199819
 20
287.8303181055
 30
0.0
 11
229.4245199819
 21
290.7648203317
 31
0.0
  0
LINE
  5
76
330
1F
100
AcDbEntity
  8
0
  6
Continuous
 62
     7
370
    15
100
AcDbLine
 10
205.8540199819
 20
290.7834855801
 30
0.0
 11
205.8540199819
 21
287.8303181055
 31
0.0
  0
LINE
  5
77
330
1F
100
AcDbEntity
  8
0
  6
Continuous
 62
     7
370
    15
100
AcDbLine
 10
228.1456949819
 20
277.9758431055
 30
0.0
 11
228.1456949819
 21
284.5956431055
 31
0.0
  0
LINE
  5
78
330
1F
100
AcDbEntity
  8
0
  6
Continuous
 62
     7
370
    15
100
AcDbLine
 10
207.1328449819
 20
284.5956431055
 30
0.0
 11
207.1328449819
 21
277.9758431055
 31
0.0
  0
LINE
  5
79
330
1F
100
AcDbEntity
  8
0
  6
Continuous
 62
     7
370
    15
100
AcDbLine
 10
207.1328449819
 20
277.9758431055
 30
0.0
 11
208.3113699819
 21
276.7973181055
 31
0.0
  0
LINE
  5
7A
330
1F
100
AcDbEntity
  8
0
  6
Continuous
 62
     7
370
    15
100
AcDbLine
 10
226.9671699819
 20
276.7973181055
 30
0.0
 11
228.1456949819
 21
277.9758431055
 31
0.0
  0
LINE
  5
7B
330
1F
100
AcDbEntity
  8
0
  6
Continuous
 62
     7
370
    15
100
AcDbLine
 10
228.1456949819
 20
284.5956431055
 30
0.0
 11
226.9170199819
 21
285.8243181055
 31
0.0
  0
LINE
  5
7C
330
1F
100
AcDbEntity
  8
0
  6
Continuous
 62
     7
370
    15
100
AcDbLine
 10
208.3615199819
 20
285.8243181055
 30
0.0
 11
207.1328449819
 21
284.5956431055
 31
0.0
  0
ARC
  5
7D
330
1F
100
AcDbEntity
  8
0
  6
Continuous
 62
     7
370
    15
100
AcDbCircle
 10
227.4185199819
 20
287.3288181055
 30
0.0
 40
0.5015000000000782
100
AcDbArc
 50
90.0
 51
180.0
  0
ARC
  5
7E
330
1F
100
AcDbEntity
  8
0
  6
Continuous
 62
     7
370
    15
100
AcDbCircle
 10
207.8600199819
 20
287.3288181055
 30
0.0
 40
0.5015000000000214
100
AcDbArc
 50
0.0
 51
90.0
  0
LINE
  5
7F
330
1F
100
AcDbEntity
  8
0
  6
Continuous
 62
     7
370
    15
100
AcDbLine
 10
226.9170199819
 20
285.8243181055
 30
0.0
 11
226.9170199819
 21
287.3288181055
 31
0.0
  0
LINE
  5
80
330
1F
100
AcDbEntity
  8
0
  6
Continuous
 62
     7
370
    15
100
AcDbLine
 10
208.3615199819
 20
287.3288181055
 30
0.0
 11
208.3615199819
 21
285.8243181055
 31
0.0
  0
ARC
  5
81
330
1F
100
AcDbEntity
  8
0
  6
Continuous
 62
     7
370
    15
100
AcDbCircle
 10
96.8353191758
 20
346.1925361534
 30
0.0
 40
0.7522500000000036
100
AcDbArc
 50
0.0
 51
84.8250179637
  0
ARC
  5
82
330
1F
100
AcDbEntity
  8
0
  6
Continuous
 62
     7
370
    15
100
AcDbCircle
 10
86.4442391758
 20
346.1925361534
 30
0.0
 40
0.7522500000000178
100
AcDbArc
 50
95.1749820363
 51
180.0
  0
LINE
  5
83
330
1F
100
AcDbEntity
  8
0
  6
Continuous
 62
     7
370
    15
100
AcDbLine
 10
97.5875691758
 20
340.6759144005
 30
0.0
 11
97.5875691758
 21
346.1925361534
 31
0.0
  0
LINE
  5
84
330
1F
100
AcDbEntity
  8
0
  6
Continuous
 62
     7
370
    15
100
AcDbLine
 10
85.6919891758
 20
346.1925361534
 30
0.0
 11
85.6919891758
 21
340.568636238
 31
0.0
  0
LINE
  5
85
330
1F
100
AcDbEntity
  8
0
  6
Continuous
 62
     7
370
    15
100
AcDbLine
 10
348.5865507879
 20
340.5718991432
 30
0.0
 11
348.5865507879
 21
346.1925361534
 31
0.0
  0
LINE
  5
86
330
1F
100
AcDbEntity
  8
0
  6
Continuous
 62
     7
370
    15
100
AcDbLine
 10
336.6909707879
 20
346.1925361534
 30
0.0
 11
336.6909707879
 21
340.6726379051
 31
0.0
  0
ARC
  5
87
330
1F
100
AcDbEntity
  8
0
  6
Continuous
 62
     7
370
    15
100
AcDbCircle
 10
347.8343007879
 20
346.1925361534
 30
0.0
 40
0.7522500000000036
100
AcDbArc
 50
0.0
 51
84.8250179637
  0
ARC
  5
88
330
1F
100
AcDbEntity
  8
0
  6
Continuous
 62
     7
370
    15
100
AcDbCircle
 10
337.4432207879
 20
346.1925361534
 30
0.0
 40
0.7522500000000036
100
AcDbArc
 50
95.1749820363
 51
180.0
  0
ARC
  5
89
330
1F
100
AcDbEntity
  8
0
  6
Continuous
 62
     7
370
    15
100
AcDbCircle
 10
91.6397791758
 20
288.8256516589
 30
0.0
 40
58.35392595214486
100
AcDbArc
 50
84.8250179637
 51
95.1749820363
  0
ARC
  5
8A
330
1F
100
AcDbEntity
  8
0
  6
Continuous
 62
     7
370
    15
100
AcDbCircle
 10
342.6387607879
 20
288.8256516589
 30
0.0
 40
58.35392595214492
100
AcDbArc
 50
84.8250179637
 51
95.1749820363
  0
SPLINE
  5
8B
330
1F
100
AcDbEntity
  8
0
  6
Continuous
 62
     7
370
    15
100
AcDbSpline
210
0.0
220
0.0
230
1.0
 70
     8
 71
     3
 72
     9
 73
     5
 74
     0
 42
0.00000001
 43
0.00000001
 40
0.0
 40
0.0
 40
0.0
 40
0.0
 40
0.8421491732953856
 40
1.0
 40
1.0
 40
1.0
 40
1.0
 10
77.1241063779082
 20
295.4578200689411
 30
0.0
 10
77.12408861725456
 20
295.4580703986751
 30
0.0
 10
77.12406752757798
 20
295.4583676497347
 30
0.0
 10
77.12410693333679
 20
295.4577613915086
 30
0.0
 10
77.12411315356843
 20
295.4576656931464
 30
0.0
  0
ARC
  5
8C
330
1F
100
AcDbEntity
  8
0
  6
Continuous
 62
     7
370
    15
100
AcDbCircle
 10
77.3748962371
 20
294.411711303
 30
0.0
 40
0.2005999999999832
100
AcDbArc
 50
182.7221656221
 51
216.8144660328
  0
LINE
  5
8D
330
1F
100
AcDbEntity
  8
0
  6
Continuous
 62
     7
370
    15
100
AcDbLine
 10
309.5683621306
 20
339.0076628366
 30
0.0
 11
308.9207111349
 21
339.0076628366
 31
0.0
  0
LINE
  5
8E
330
1F
100
AcDbEntity
  8
0
  6
Continuous
 62
     7
370
    15
100
AcDbLine
 10
308.6198111349
 20
290.7646038662
 30
0.0
 11
308.6198111349
 21
340.9146038662
 31
0.0
  0
LINE
  5
8F
330
1F
100
AcDbEntity
  8
0
  6
Continuous
 62
     7
370
    15
100
AcDbLine
 10
126.6756111349
 20
290.7646038662
 30
0.0
 11
126.6756111349
 21
340.9146038662
 31
0.0
  0
SPLINE
  5
90
330
1F
100
AcDbEntity
  8
0
  6
Continuous
 62
     7
370
    15
100
AcDbSpline
210
0.0
220
0.0
230
1.0
 70
     8
 71
     3
 72
    27
 73
    23
 74
     0
 42
0.00000001
 43
0.00000001
 40
0.0
 40
0.0
 40
0.0
 40
0.0
 40
0.0203801711333805
 40
0.068059111893997
 40
0.1170886176195869
 40
0.165568384875074
 40
0.2152465635662275
 40
0.2678813377112536
 40
0.3218948448400925
 40
0.3770056438435239
 40
0.4339661047968019
 40
0.4848556196172184
 40
0.5375344086971062
 40
0.5839813567086329
 40
0.6316700701788746
 40
0.6803481564024352
 40
0.7301791117717867
 40
0.784046798782488
 40
0.8394196922013598
 40
0.8939410514401765
 40
0.9503372188614202
 40
1.0
 40
1.0
 40
1.0
 40
1.0
 10
205.8941784872162
 20
290.7834472302372
 30
0.0
 10
205.8837540469871
 20
290.7785106781301
 30
0.0
 10
205.8489418690448
 20
290.7620251761181
 30
0.0
 10
206.1014109121121
 20
290.8802513856663
 30
0.0
 10
206.6124671978509
 20
291.113417447203
 30
0.0
 10
207.4048823177921
 20
291.4585130341238
 30
0.0
 10
208.4489856124196
 20
291.8811551054604
 30
0.0
 10
209.7622395196744
 20
292.3582760147299
 30
0.0
 10
211.3384240762954
 20
292.8444705871162
 30
0.0
 10
213.1531447772392
 20
293.2806206764464
 30
0.0
 10
215.0910218097001
 20
293.5872159385007
 30
0.0
 10
217.0888545712808
 20
293.7262017310659
 30
0.0
 10
218.9762638008143
 20
293.6897268649816
 30
0.0
 10
220.7775360920681
 20
293.5040235383542
 30
0.0
 10
222.4445937004457
 20
293.207547010577
 30
0.0
 10
224.0250115570335
 20
292.817391333405
 30
0.0
 10
225.508791236734
 20
292.3602878141631
 30
0.0
 10
226.8506159906807
 20
291.8743680581371
 30
0.0
 10
227.9779896527725
 20
291.4153021989512
 30
0.0
 10
228.819189242438
 20
291.0451328985348
 30
0.0
 10
229.3336858416035
 20
290.8071227234892
 30
0.0
 10
229.3949815213253
 20
290.7784300958361
 30
0.0
 10
229.423683615473
 20
290.7649945893865
 30
0.0
  0
LINE
  5
91
330
1F
100
AcDbEntity
  8
0
  6
Continuous
 62
     7
370
    15
100
AcDbLine
 10
308.9207111349
 20
291.0655038662
 30
0.0
 11
308.9207111349
 21
340.6137038662
 31
0.0
  0
LINE
  5
92
330
1F
100
AcDbEntity
  8
0
  6
Continuous
 62
     7
370
    15
100
AcDbLine
 10
126.3747111349
 20
291.0655038662
 30
0.0
 11
126.3747111349
 21
340.6137038662
 31
0.0
  0
SPLINE
  5
93
330
1F
100
AcDbEntity
  8
0
  6
Continuous
 62
     7
370
    15
100
AcDbSpline
210
0.0
220
0.0
230
1.0
 70
     8
 71
     3
 72
    29
 73
    25
 74
     0
 42
0.00000001
 43
0.00000001
 40
0.0
 40
0.0
 40
0.0
 40
0.0
 40
0.0353783972585868
 40
0.0709967129044821
 40
0.107376007013698
 40
0.1440213312207423
 40
0.1794010049119773
 40
0.2514005171845333
 40
0.288117456782363
 40
0.3228368005797689
 40
0.3934788410632352
 40
0.4294856230172487
 40
0.463939946643228
 40
0.5339764113268564
 40
0.5696306992583723
 40
0.6048728054342214
 40
0.6765096413339126
 40
0.7129845263569617
 40
0.7488941144924491
 40
0.821956373963757
 40
0.8592066628948899
 40
0.8946316382398467
 40
0.966743612972091
 40
1.0
 40
1.0
 40
1.0
 40
1.0
 10
87.53029450681728
 20
340.2122641158146
 30
0.0
 10
87.65092534672573
 20
340.1934769348705
 30
0.0
 10
87.8930050838547
 20
340.1557751678284
 30
0.0
 10
88.29263308373395
 20
340.101066346785
 30
0.0
 10
88.71891649336153
 20
340.049507159335
 30
0.0
 10
89.16627470167948
 20
340.0035496711102
 30
0.0
 10
89.7840758025163
 20
339.951590479836
 30
0.0
 10
90.43311871348148
 20
339.9156657724212
 30
0.0
 10
91.09342534200093
 20
339.8998761581606
 30
0.0
 10
91.75260487907161
 20
339.897660595507
 30
0.0
 10
92.41041118833546
 20
339.9156918083413
 30
0.0
 10
93.05199811078863
 20
339.9528084387539
 30
0.0
 10
93.67734093912163
 20
340.0012322604774
 30
0.0
 10
94.27600500072265
 20
340.0648998446437
 30
0.0
 10
94.8384876321858
 20
340.1393166863135
 30
0.0
 10
95.3777885308339
 20
340.2196488336563
 30
0.0
 10
95.87098045576874
 20
340.3051838887766
 30
0.0
 10
96.30491204074796
 20
340.3888839330228
 30
0.0
 10
96.69933957639002
 20
340.4697632233818
 30
0.0
 10
97.02566148493969
 20
340.5423320485613
 30
0.0
 10
97.27171544924862
 20
340.5997197634967
 30
0.0
 10
97.46152474472147
 20
340.6451714759331
 30
0.0
 10
97.57360965941918
 20
340.6729249723365
 30
0.0
 10
97.58276692494866
 20
340.6751968190509
 30
0.0
 10
97.58565714324075
 20
340.6759138598433
 30
0.0
  0
SPLINE
  5
94
330
1F
100
AcDbEntity
  8
0
  6
Continuous
 62
     7
370
    15
100
AcDbSpline
210
0.0
220
0.0
230
1.0
 70
     8
 71
     3
 72
    15
 73
    11
 74
     0
 42
0.00000001
 43
0.00000001
 40
0.0
 40
0.0
 40
0.0
 40
0.0
 40
0.1452498582367033
 40
0.2499405824718596
 40
0.349682422297952
 40
0.5524708332880465
 40
0.6557329759546471
 40
0.740799985841523
 40
0.9128726451162439
 40
1.0
 40
1.0
 40
1.0
 40
1.0
 10
85.70905614839009
 20
340.5686317978177
 30
0.0
 10
85.70941363357603
 20
340.5685378546257
 30
0.0
 10
85.71002878085862
 20
340.5683762006563
 30
0.0
 10
85.80672254874985
 20
340.5461724856797
 30
0.0
 10
85.96206468038872
 20
340.511147530511
 30
0.0
 10
86.19650672536991
 20
340.4598564257816
 30
0.0
 10
86.49038013700027
 20
340.399482702888
 30
0.0
 10
86.79920184975373
 20
340.3389454651976
 30
0.0
 10
87.138842517865
 20
340.2762472293142
 30
0.0
 10
87.43181491955366
 20
340.2283606762795
 30
0.0
 10
87.53029450681731
 20
340.2122641158146
 30
0.0
  0
LINE
  5
95
330
1F
100
AcDbEntity
  8
0
  6
Continuous
 62
     7
370
    15
100
AcDbLine
 10
124.7101778331
 20
315.8380832323
 30
0.0
 11
124.7101778331
 21
340.9130832323
 31
0.0
  0
LINE
  5
96
330
1F
100
AcDbEntity
  8
0
  6
Continuous
 62
     7
370
    15
100
AcDbLine
 10
124.7101778331
 20
290.7630832323
 30
0.0
 11
124.7101778331
 21
315.8380832323
 31
0.0
  0
LINE
  5
97
330
1F
100
AcDbEntity
  8
0
  6
Continuous
 62
     7
370
    15
100
AcDbLine
 10
77.3685778331
 20
315.8380832323
 30
0.0
 11
77.3685778331
 21
340.4999393481
 31
0.0
  0
LINE
  5
98
330
1F
100
AcDbEntity
  8
0
  6
Continuous
 62
     7
370
    15
100
AcDbLine
 10
77.3685778331
 20
291.1762271165
 30
0.0
 11
77.3685778331
 21
315.8380832323
 31
0.0
  0
SPLINE
  5
99
330
1F
100
AcDbEntity
  8
0
  6
Continuous
 62
     7
370
    15
100
AcDbSpline
210
0.0
220
0.0
230
1.0
 70
     8
 71
     3
 72
    30
 73
    26
 74
     0
 42
0.00000001
 43
0.00000001
 40
0.0
 40
0.0
 40
0.0
 40
0.0
 40
0.0355751146890418
 40
0.0713915821832863
 40
0.1079731789954586
 40
0.1448221243777
 40
0.2164343343854118
 40
0.2528027741421259
 40
0.2897261725065666
 40
0.3599283043300905
 40
0.3955758041287804
 40
0.4317554456787058
 40
0.5011494693582002
 40
0.5363547819513381
 40
0.5720504133189317
 40
0.6428416249968093
 40
0.6787533052442166
 40
0.7151669996883415
 40
0.7510306342080527
 40
0.7871452609858349
 40
0.8240594386881597
 40
0.8612541062104393
 40
0.9326901238043661
 40
0.968973898365309
 40
1.0
 40
1.0
 40
1.0
 40
1.0
 10
338.5460518698152
 20
340.2821311883945
 30
0.0
 10
338.6673837187694
 20
340.2612250831105
 30
0.0
 10
338.9108705702321
 20
340.2192710389264
 30
0.0
 10
339.3125656385709
 20
340.1576054809501
 30
0.0
 10
339.7409729241879
 20
340.0986666433228
 30
0.0
 10
340.3386419648717
 20
340.0272774955551
 30
0.0
 10
340.9724230972603
 20
339.9690688007412
 30
0.0
 10
341.6279835004616
 20
339.9288484774268
 30
0.0
 10
342.2874630793791
 20
339.9020545371556
 30
0.0
 10
342.9525514586524
 20
339.8956286815813
 30
0.0
 10
343.6061859022321
 20
339.9093567020132
 30
0.0
 10
344.246849367451
 20
339.9358880868289
 30
0.0
 10
344.8660405547668
 20
339.9800863004823
 30
0.0
 10
345.4494153456797
 20
340.0375095022053
 30
0.0
 10
346.0125987508446
 20
340.1028904454984
 30
0.0
 10
346.5345921115655
 20
340.1770335203975
 30
0.0
 10
347.0029309413575
 20
340.2534763047967
 30
0.0
 10
347.3265309257032
 20
340.3106743759317
 30
0.0
 10
347.6178372790429
 20
340.3657113303251
 30
0.0
 10
347.8756417413686
 20
340.4171871549344
 30
0.0
 10
348.0987969126078
 20
340.4638440789985
 30
0.0
 10
348.3409372699651
 20
340.5164179768295
 30
0.0
 10
348.4999611336914
 20
340.5525810766189
 30
0.0
 10
348.5777725352752
 20
340.5705384677377
 30
0.0
 10
348.5817761320142
 20
340.5714694548453
 30
0.0
 10
348.5836215669838
 20
340.5718985880164
 30
0.0
  0
SPLINE
  5
9A
330
1F
100
AcDbEntity
  8
0
  6
Continuous
 62
     7
370
    15
100
AcDbSpline
210
0.0
220
0.0
230
1.0
 70
     8
 71
     3
 72
    14
 73
    10
 74
     0
 42
0.00000001
 43
0.00000001
 40
0.0
 40
0.0
 40
0.0
 40
0.0
 40
0.051058829627926
 40
0.1533586003884407
 40
0.2571896321102578
 40
0.4561017559139444
 40
0.6591731052559628
 40
0.8283792753929743
 40
1.0
 40
1.0
 40
1.0
 40
1.0
 10
336.706143529497
 20
340.6726320864011
 30
0.0
 10
336.7012011441902
 20
340.6738548897724
 30
0.0
 10
336.6863563602662
 20
340.6775276612585
 30
0.0
 10
336.7339916287094
 20
340.6657168328741
 30
0.0
 10
336.8377970220403
 20
340.6402466099008
 30
0.0
 10
337.0744479454395
 20
340.5831460516663
 30
0.0
 10
337.4795777595991
 20
340.4913868115998
 30
0.0
 10
337.9725995402982
 20
340.3873115810254
 30
0.0
 10
338.3540004276719
 20
340.3173565158547
 30
0.0
 10
338.5460518698152
 20
340.2821311883945
 30
0.0
  0
LINE
  5
9B
330
1F
100
AcDbEntity
  8
0
  6
Continuous
 62
     7
370
    15
100
AcDbLine
 10
356.9099621306
 20
340.4999393481
 30
0.0
 11
356.9099621306
 21
291.1762271165
 31
0.0
  0
LINE
  5
9C
330
1F
100
AcDbEntity
  8
0
  6
Continuous
 62
     7
370
    15
100
AcDbLine
 10
309.5683621306
 20
340.9130832323
 30
0.0
 11
309.5683621306
 21
290.7630832323
 31
0.0
  0
SPLINE
  5
9D
330
1F
100
AcDbEntity
  8
0
  6
Continuous
 62
     7
370
    15
100
AcDbSpline
210
0.0
220
0.0
230
1.0
 70
     8
 71
     3
 72
    11
 73
     7
 74
     0
 42
0.00000001
 43
0.00000001
 40
0.0000018134955332
 40
0.0000018134955332
 40
0.0000018134955332
 40
0.0000018134955332
 40
0.0004012000396256
 40
0.0004012000396256
 40
0.0004012000396256
 40
0.0006668145421736
 40
0.0006668145421736
 40
0.0006668145421736
 40
0.0006668145421736
 10
77.20841464726597
 20
294.4037956805379
 30
0.0
 10
77.202092382882
 20
294.5367743222469
 30
0.0
 10
77.19582895303009
 20
294.6697557741978
 30
0.0
 10
77.18962436138851
 20
294.8027399582962
 30
0.0
 10
77.18549795894967
 20
294.8911819208442
 30
0.0
 10
77.18139758019016
 20
294.979625101406
 30
0.0
 10
77.1773232261751
 20
295.068069477009
 30
0.0
  0
LINE
  5
9E
330
1F
100
AcDbEntity
  8
0
  6
Continuous
 62
     7
370
    15
100
AcDbLine
 10
77.2143321599
 20
294.2920961457
 30
0.0
 11
77.2142998683
 21
294.291506618
 31
0.0
  0
SPLINE
  5
9F
330
1F
100
AcDbEntity
  8
0
  6
Continuous
 62
     7
370
    15
100
AcDbSpline
210
0.0
220
0.0
230
1.0
 70
     8
 71
     3
 72
    27
 73
    23
 74
     0
 42
0.00000001
 43
0.00000001
 40
0.0
 40
0.0
 40
0.0
 40
0.0
 40
0.0110013201130022
 40
0.0599511869317557
 40
0.1100257991126664
 40
0.1589756659314092
 40
0.2090502781122506
 40
0.2637592507214174
 40
0.3200547872426315
 40
0.3747637598492598
 40
0.4310592963680417
 40
0.485768268969049
 40
0.5420638054820905
 40
0.5967727780768572
 40
0.6530683145833643
 40
0.7077772871740066
 40
0.7640728236760501
 40
0.8187817962664844
 40
0.8750773327680844
 40
0.9297863053623309
 40
0.9860818418677144
 40
1.0
 40
1.0
 40
1.0
 40
1.0
 10
77.21433215986931
 20
294.2920961457468
 30
0.0
 10
77.21433222502702
 20
294.3193247710107
 30
0.0
 10
77.21433258010101
 20
294.4677059094851
 30
0.0
 10
77.21433308296719
 20
294.9809869168984
 30
0.0
 10
77.2143334493591
 20
296.1275693102533
 30
0.0
 10
77.21433348817605
 20
297.7331196718355
 30
0.0
 10
77.21433318944251
 20
299.8111660641565
 30
0.0
 10
77.21433250728352
 20
302.4066187581453
 30
0.0
 10
77.21433142278548
 20
305.4572135491098
 30
0.0
 10
77.21432997340544
 20
308.8316797581933
 30
0.0
 10
77.21432822626973
 20
312.3736603608179
 30
0.0
 10
77.21432619937971
 20
316.0466768894761
 30
0.0
 10
77.21432398658293
 20
319.6806554345574
 30
0.0
 10
77.2143216106978
 20
323.2381211353326
 30
0.0
 10
77.21431918168481
 20
326.5544359441545
 30
0.0
 10
77.21431672476295
 20
329.5951045673254
 30
0.0
 10
77.21431435300887
 20
332.2205085306088
 30
0.0
 10
77.21431209343885
 20
334.399198043398
 30
0.0
 10
77.2143100411021
 20
336.0466477172178
 30
0.0
 10
77.21430825297062
 20
337.0847146099708
 30
0.0
 10
77.21430706600196
 20
337.5433936016315
 30
0.0
 10
77.21430659632281
 20
337.4577506590176
 30
0.0
 10
77.21430650322037
 20
337.4407740275447
 30
0.0
  0
SPLINE
  5
A0
330
1F
100
AcDbEntity
  8
0
  6
Continuous
 62
     7
370
    15
100
AcDbSpline
210
0.0
220
0.0
230
1.0
 70
     8
 71
     3
 72
    12
 73
     8
 74
     0
 42
0.00000001
 43
0.00000001
 40
0.0
 40
0.0
 40
0.0
 40
0.0
 40
0.157081539553337
 40
0.3949431590574755
 40
0.632557005800721
 40
0.8700339524756319
 40
1.0
 40
1.0
 40
1.0
 40
1.0
 10
77.14342923535821
 20
295.06650798708
 30
0.0
 10
77.14205341053295
 20
295.0962012351759
 30
0.0
 10
77.13859423509872
 20
295.1708576539951
 30
0.0
 10
77.13318968312677
 20
295.2839848403333
 30
0.0
 10
77.1281855444507
 20
295.3846909808375
 30
0.0
 10
77.12492930487419
 20
295.4465741535647
 30
0.0
 10
77.12427407732078
 20
295.4547614476909
 30
0.0
 10
77.12404232073084
 20
295.4576573261655
 30
0.0
  0
LINE
  5
A1
330
1F
100
AcDbEntity
  8
0
  6
Continuous
 62
     7
370
    15
100
AcDbLine
 10
229.4245199819
 20
287.8303181055
 30
0.0
 11
205.8540199819
 21
287.8303181055
 31
0.0
  0
LINE
  5
A2
330
1F
100
AcDbEntity
  8
0
  6
Continuous
 62
     7
370
    15
100
AcDbLine
 10
228.1456949819
 20
277.9758431055
 30
0.0
 11
207.1328449819
 21
277.9758431055
 31
0.0
  0
LINE
  5
A3
330
1F
100
AcDbEntity
  8
0
  6
Continuous
 62
     7
370
    15
100
AcDbLine
 10
228.1456949819
 20
284.5956431055
 30
0.0
 11
207.1328449819
 21
284.5956431055
 31
0.0
  0
LINE
  5
A4
330
1F
100
AcDbEntity
  8
0
  6
Continuous
 62
     7
370
    15
100
AcDbLine
 10
226.9671699819
 20
276.7973181055
 30
0.0
 11
208.3113699819
 21
276.7973181055
 31
0.0
  0
LINE
  5
A5
330
1F
100
AcDbEntity
  8
0
  6
Continuous
 62
     7
370
    15
100
AcDbLine
 10
226.9170199819
 20
285.8243181055
 30
0.0
 11
208.3615199819
 21
285.8243181055
 31
0.0
  0
LINE
  5
A6
330
1F
100
AcDbEntity
  8
0
  6
Continuous
 62
     7
370
    15
100
AcDbLine
 10
77.1745249956
 20
294.4021843451
 30
0.0
 11
77.2084146473
 21
294.4037956805
 31
0.0
  0
ARC
  5
A7
330
1F
100
AcDbEntity
  8
0
  6
Continuous
 62
     7
370
    15
100
AcDbCircle
 10
292.6392699819
 20
315.8380832323
 30
0.0
 40
35.10500000000003
100
AcDbArc
 50
225.5811452533
 51
314.5719574984
  0
ARC
  5
A8
330
1F
100
AcDbEntity
  8
0
  6
Continuous
 62
     7
370
    15
100
AcDbCircle
 10
292.6392699819
 20
315.8380832323
 30
0.0
 40
35.10500000000003
100
AcDbArc
 50
45.4280425016
 51
134.4117622236
  0
ARC
  5
A9
330
1F
100
AcDbEntity
  8
0
  6
Continuous
 62
     7
370
    15
100
AcDbCircle
 10
142.6392699819
 20
315.8380832323
 30
0.0
 40
35.10499999999996
100
AcDbArc
 50
225.4485229913
 51
270.0
  0
ARC
  5
AA
330
1F
100
AcDbEntity
  8
0
  6
Continuous
 62
     7
370
    15
100
AcDbCircle
 10
142.6392699819
 20
315.8380832323
 30
0.0
 40
35.10500000000001
100
AcDbArc
 50
45.5882377763
 51
134.5514770088
  0
ARC
  5
AB
330
1F
100
AcDbEntity
  8
0
  6
Continuous
 62
     7
370
    15
100
AcDbCircle
 10
142.6392699819
 20
315.8380832323
 30
0.0
 40
35.10499999999999
100
AcDbArc
 50
270.0
 51
314.4188547467
  0
LINE
  5
AC
330
1F
100
AcDbEntity
  8
0
  6
Continuous
 62
     8
370
     0
100
AcDbLine
 10
309.5683621306
 20
338.6833248282
 30
0.0
 11
308.9207111349
 21
338.6833248282
 31
0.0
  0
LINE
  5
AD
330
1F
100
AcDbEntity
  8
0
  6
Continuous
 62
     8
370
     0
100
AcDbLine
 10
77.1745249956
 20
294.4021843451
 30
0.0
 11
77.1745249956
 21
337.3868706332
 31
0.0
  0
ARC
  5
AE
330
1F
100
AcDbEntity
  8
0
  6
Continuous
 62
     8
370
     0
100
AcDbCircle
 10
77.3731912934
 20
294.4117796602
 30
0.0
 40
0.1988978832474552
100
AcDbArc
 50
182.7651603228
 51
216.9941498032
  0
ARC
  5
AF
330
1F
100
AcDbEntity
  8
0
  6
Continuous
 62
     8
370
     0
100
AcDbCircle
 10
528.0098183849
 20
315.8378396901
 30
0.0
 40
451.3446012588148
100
AcDbArc
 50
182.6377409509
 51
182.7221656221
  0
LINE
  5
B0
330
1F
100
AcDbEntity
  8
0
  6
Continuous
 62
     8
370
     0
100
AcDbLine
 10
77.1197125919
 20
295.4678863775
 30
0.0
 11
77.1233303043
 21
295.4678863775
 31
0.0
  0
LINE
  5
B1
330
1F
100
AcDbEntity
  8
0
  6
Continuous
 62
     8
370
     0
100
AcDbLine
 10
86.3763879388
 20
346.9417198906
 30
0.0
 11
96.9031704128
 21
346.9417198906
 31
0.0
  0
LINE
  5
B2
330
1F
100
AcDbEntity
  8
0
  6
Continuous
 62
     8
370
     0
100
AcDbLine
 10
342.6387607879
 20
346.9417198906
 30
0.0
 11
347.9021520249
 21
346.9417198906
 31
0.0
  0
LINE
  5
B3
330
1F
100
AcDbEntity
  8
0
  6
Continuous
 62
     8
370
     0
100
AcDbLine
 10
337.375369551
 20
346.9417198906
 30
0.0
 11
342.6387607879
 21
346.9417198906
 31
0.0
  0
LINE
  5
B4
330
1F
100
AcDbEntity
  8
0
  6
Continuous
 62
     8
370
     0
100
AcDbLine
 10
309.5683621306
 20
338.8039808096
 30
0.0
 11
308.9207111349
 21
338.8039808096
 31
0.0
  0
LINE
  5
B5
330
1F
100
AcDbEntity
  8
0
  6
Continuous
 62
     8
370
     0
100
AcDbLine
 10
77.1233303043
 20
295.4678863775
 30
0.0
 11
77.1240392873
 21
295.457818596
 31
0.0
  0
LINE
  5
B6
330
1F
100
AcDbEntity
  8
0
  6
Continuous
 62
     8
370
     0
100
AcDbLine
 10
308.9207111349
 20
338.9251866943
 30
0.0
 11
309.5683621306
 21
338.9251866943
 31
0.0
  0
ARC
  5
B7
330
1F
100
AcDbEntity
  8
0
  6
Continuous
 62
     8
370
     0
100
AcDbCircle
 10
142.6392699819
 20
315.8380832323
 30
0.0
 40
32.73240328648558
100
AcDbArc
 50
270.0
 51
310.0027129829
  0
ARC
  5
B8
330
1F
100
AcDbEntity
  8
0
  6
Continuous
 62
     8
370
     0
100
AcDbCircle
 10
142.6392699819
 20
315.8380832323
 30
0.0
 40
32.73240328648564
100
AcDbArc
 50
50.0055692001
 51
130.0732072982
  0
ARC
  5
B9
330
1F
100
AcDbEntity
  8
0
  6
Continuous
 62
     8
370
     0
100
AcDbCircle
 10
142.6392699819
 20
315.8380832323
 30
0.0
 40
32.73240328648558
100
AcDbArc
 50
229.9267927019
 51
270.0
  0
ARC
  5
BA
330
1F
100
AcDbEntity
  8
0
  6
Continuous
 62
     8
370
     0
100
AcDbCircle
 10
292.6392699819
 20
315.8380832323
 30
0.0
 40
32.73240328648557
100
AcDbArc
 50
49.9028212741
 51
129.9944307998
  0
ARC
  5
BB
330
1F
100
AcDbEntity
  8
0
  6
Continuous
 62
     8
370
     0
100
AcDbCircle
 10
292.6392699819
 20
315.8380832323
 30
0.0
 40
32.73240328648563
100
AcDbArc
 50
229.9972870171
 51
310.0971787259
  0
ARC
  5
BC
330
1F
100
AcDbEntity
  8
0
  6
Continuous
 62
     7
370
    15
100
AcDbCircle
 10
484.4358905576
 20
315.8378396901
 30
0.0
 40
21.33885359608993
100
AcDbArc
 50
180.0
 51
208.9071318042
  0
ARC
  5
BD
330
1F
100
AcDbEntity
  8
0
  6
Continuous
 62
     7
370
    15
100
AcDbCircle
 10
484.4358905576
 20
315.8378396901
 30
0.0
 40
21.33885359608993
100
AcDbArc
 50
208.9071318042
 51
236.5809330532
  0
ARC
  5
BE
330
1F
100
AcDbEntity
  8
0
  6
Continuous
 62
     7
370
    15
100
AcDbCircle
 10
484.4358905576
 20
315.8378396901
 30
0.0
 40
21.33885359608994
100
AcDbArc
 50
236.5809330532
 51
291.6979116826
  0
ARC
  5
BF
330
1F
100
AcDbEntity
  8
0
  6
Continuous
 62
     7
370
    15
100
AcDbCircle
 10
484.4358905576
 20
315.8378396901
 30
0.0
 40
21.33885359608998
100
AcDbArc
 50
291.6979116826
 51
319.2836634219
  0
ARC
  5
C0
330
1F
100
AcDbEntity
  8
0
  6
Continuous
 62
     7
370
    15
100
AcDbCircle
 10
484.4358905576
 20
315.8378396901
 30
0.0
 40
21.33885359608998
100
AcDbArc
 50
319.2836634219
 51
346.8264350167
  0
ARC
  5
C1
330
1F
100
AcDbEntity
  8
0
  6
Continuous
 62
     7
370
    15
100
AcDbCircle
 10
484.4358905576
 20
315.8378396901
 30
0.0
 40
21.33885359609004
100
AcDbArc
 50
346.8264350167
 51
14.5005546435
  0
ARC
  5
C2
330
1F
100
AcDbEntity
  8
0
  6
Continuous
 62
     7
370
    15
100
AcDbCircle
 10
484.4358905576
 20
315.8378396901
 30
0.0
 40
21.33885359609004
100
AcDbArc
 50
14.5005546435
 51
42.1255241278
  0
ARC
  5
C3
330
1F
100
AcDbEntity
  8
0
  6
Continuous
 62
     7
370
    15
100
AcDbCircle
 10
484.4358905576
 20
315.8378396901
 30
0.0
 40
21.33885359608997
100
AcDbArc
 50
42.1255241278
 51
55.8329975148
  0
ARC
  5
C4
330
1F
100
AcDbEntity
  8
0
  6
Continuous
 62
     7
370
    15
100
AcDbCircle
 10
484.4358905576
 20
315.8378396901
 30
0.0
 40
21.33885359608993
100
AcDbArc
 50
55.8329975148
 51
83.3902789993
  0
ARC
  5
C5
330
1F
100
AcDbEntity
  8
0
  6
Continuous
 62
     7
370
    15
100
AcDbCircle
 10
484.4358905576
 20
315.8378396901
 30
0.0
 40
21.33885359608994
100
AcDbArc
 50
83.3902789993
 51
111.0638858084
  0
ARC
  5
C6
330
1F
100
AcDbEntity
  8
0
  6
Continuous
 62
     7
370
    15
100
AcDbCircle
 10
484.4358905576
 20
315.8378396901
 30
0.0
 40
21.33885359608994
100
AcDbArc
 50
111.0638858084
 51
138.6797259321
  0
ARC
  5
C7
330
1F
100
AcDbEntity
  8
0
  6
Continuous
 62
     7
370
    15
100
AcDbCircle
 10
484.4358905576
 20
315.8378396901
 30
0.0
 40
21.33885359608988
100
AcDbArc
 50
138.6797259321
 51
152.3837933703
  0
ARC
  5
C8
330
1F
100
AcDbEntity
  8
0
  6
Continuous
 62
     7
370
    15
100
AcDbCircle
 10
484.4358905576
 20
315.8378396901
 30
0.0
 40
21.3388535960899
100
AcDbArc
 50
152.3837933703
 51
180.0
  0
LINE
  5
C9
330
1F
100
AcDbEntity
  8
0
  6
Continuous
 62
     7
370
    15
100
AcDbLine
 10
490.3835381963
 20
339.9012718396
 30
0.0
 11
490.3835381963
 21
346.1925361534
 31
0.0
  0
LINE
  5
CA
330
1F
100
AcDbEntity
  8
0
  6
Continuous
 62
     7
370
    15
100
AcDbLine
 10
478.4879581963
 20
346.1925361534
 30
0.0
 11
478.4879581963
 21
339.9012332844
 31
0.0
  0
ARC
  5
CB
330
1F
100
AcDbEntity
  8
0
  6
Continuous
 62
     7
370
    15
100
AcDbCircle
 10
489.6312881963
 20
346.1925361534
 30
0.0
 40
0.7522500000000036
100
AcDbArc
 50
0.0
 51
84.8250179637
  0
ARC
  5
CC
330
1F
100
AcDbEntity
  8
0
  6
Continuous
 62
     7
370
    15
100
AcDbCircle
 10
479.2402081963
 20
346.1925361534
 30
0.0
 40
0.7522500000000036
100
AcDbArc
 50
95.1749820363
 51
180.0
  0
ARC
  5
CD
330
1F
100
AcDbEntity
  8
0
  6
Continuous
 62
     7
370
    15
100
AcDbCircle
 10
484.4357481963
 20
288.8256516589
 30
0.0
 40
58.35392595214486
100
AcDbArc
 50
84.8250179637
 51
95.1749820363
  0
LINE
  5
CE
330
1F
100
AcDbEntity
  8
0
  6
Continuous
 62
     7
370
    15
100
AcDbLine
 10
404.8017741037
 20
280.7330832323
 30
0.0
 11
428.963510461
 21
281.1548279092
 31
0.0
  0
LINE
  5
CF
330
1F
100
AcDbEntity
  8
0
  6
Continuous
 62
     7
370
    15
100
AcDbLine
 10
428.963510461
 20
350.5213385554
 30
0.0
 11
404.8017741037
 21
350.9430832323
 31
0.0
  0
ARC
  5
D0
330
1F
100
AcDbEntity
  8
0
  6
Continuous
 62
     7
370
    15
100
AcDbCircle
 10
428.9285009337
 20
283.1605223857
 30
0.0
 40
2.006000000000104
100
AcDbArc
 50
271.0
 51
358.4333838935
  0
ARC
  5
D1
330
1F
100
AcDbEntity
  8
0
  6
Continuous
 62
     7
370
    15
100
AcDbCircle
 10
428.9285009337
 20
348.5156440789
 30
0.0
 40
2.006000000000048
100
AcDbArc
 50
1.5666161065
 51
89.0
  0
ARC
  5
D2
330
1F
100
AcDbEntity
  8
0
  6
Continuous
 62
     7
370
    15
100
AcDbCircle
 10
-765.8897958963
 20
315.8381159672
 30
0.0
 40
1197.27107
100
AcDbArc
 50
358.4333838936
 51
359.303767237
  0
ARC
  5
D3
330
1F
100
AcDbEntity
  8
0
  6
Continuous
 62
     7
370
    15
100
AcDbCircle
 10
-765.8897958963
 20
315.8380504973
 30
0.0
 40
1197.27107
100
AcDbArc
 50
0.6973482337
 51
1.5666161064
  0
ARC
  5
D4
330
1F
100
AcDbEntity
  8
0
  6
Continuous
 62
     7
370
    15
100
AcDbCircle
 10
435.2407809782
 20
305.8080769435
 30
0.0
 40
6.017999999875387
100
AcDbArc
 50
228.8515486859
 51
236.4695494588
  0
ARC
  5
D5
330
1F
100
AcDbEntity
  8
0
  6
Continuous
 62
     7
370
    15
100
AcDbCircle
 10
435.2407809782
 20
325.8680769437
 30
0.0
 40
6.017999999875312
100
AcDbArc
 50
123.5357208802
 51
131.0298837106
  0
ARC
  5
D6
330
1F
100
AcDbEntity
  8
0
  6
Continuous
 62
     7
370
    15
100
AcDbCircle
 10
444.3307152832
 20
305.8080769436
 30
0.0
 40
6.018000000000142
100
AcDbArc
 50
303.5082207076
 51
311.4096221093
  0
ARC
  5
D7
330
1F
100
AcDbEntity
  8
0
  6
Continuous
 62
     7
370
    15
100
AcDbCircle
 10
444.3307152832
 20
325.8680769436
 30
0.0
 40
6.018000000000057
100
AcDbArc
 50
48.5903778907
 51
56.4408667791
  0
LINE
  5
D8
330
1F
100
AcDbEntity
  8
0
  6
Continuous
 62
     7
370
    15
100
AcDbLine
 10
448.3112481307
 20
305.3065832323
 30
0.0
 11
461.6757422015
 21
305.3065832323
 31
0.0
  0
LINE
  5
D9
330
1F
100
AcDbEntity
  8
0
  6
Continuous
 62
     7
370
    15
100
AcDbLine
 10
461.6795812151
 20
326.3695832323
 30
0.0
 11
448.3112481307
 21
326.3695832323
 31
0.0
  0
LINE
  5
DA
330
1F
100
AcDbEntity
  8
0
  6
Continuous
 62
     7
370
    15
100
AcDbLine
 10
496.220998132
 20
287.8303181055
 30
0.0
 11
496.220998132
 21
293.6899618255
 31
0.0
  0
LINE
  5
DB
330
1F
100
AcDbEntity
  8
0
  6
Continuous
 62
     7
370
    15
100
AcDbLine
 10
472.650498132
 20
293.7052228785
 30
0.0
 11
472.650498132
 21
287.8303181055
 31
0.0
  0
LINE
  5
DC
330
1F
100
AcDbEntity
  8
0
  6
Continuous
 62
     7
370
    15
100
AcDbLine
 10
494.942173132
 20
284.5956431055
 30
0.0
 11
493.713498132
 21
285.8243181055
 31
0.0
  0
LINE
  5
DD
330
1F
100
AcDbEntity
  8
0
  6
Continuous
 62
     7
370
    15
100
AcDbLine
 10
475.157998132
 20
285.8243181055
 30
0.0
 11
473.929323132
 21
284.5956431055
 31
0.0
  0
LINE
  5
DE
330
1F
100
AcDbEntity
  8
0
  6
Continuous
 62
     7
370
    15
100
AcDbLine
 10
494.942173132
 20
277.9758431055
 30
0.0
 11
494.942173132
 21
284.5956431055
 31
0.0
  0
LINE
  5
DF
330
1F
100
AcDbEntity
  8
0
  6
Continuous
 62
     7
370
    15
100
AcDbLine
 10
473.929323132
 20
284.5956431055
 30
0.0
 11
473.929323132
 21
277.9758431055
 31
0.0
  0
LINE
  5
E0
330
1F
100
AcDbEntity
  8
0
  6
Continuous
 62
     7
370
    15
100
AcDbLine
 10
473.929323132
 20
277.9758431055
 30
0.0
 11
475.107848132
 21
276.7973181055
 31
0.0
  0
LINE
  5
E1
330
1F
100
AcDbEntity
  8
0
  6
Continuous
 62
     7
370
    15
100
AcDbLine
 10
493.763648132
 20
276.7973181055
 30
0.0
 11
494.942173132
 21
277.9758431055
 31
0.0
  0
ARC
  5
E2
330
1F
100
AcDbEntity
  8
0
  6
Continuous
 62
     7
370
    15
100
AcDbCircle
 10
494.214998132
 20
287.3288181055
 30
0.0
 40
0.5015000000000782
100
AcDbArc
 50
90.0
 51
180.0
  0
ARC
  5
E3
330
1F
100
AcDbEntity
  8
0
  6
Continuous
 62
     7
370
    15
100
AcDbCircle
 10
474.656498132
 20
287.3288181055
 30
0.0
 40
0.5015000000000214
100
AcDbArc
 50
0.0
 51
90.0
  0
LINE
  5
E4
330
1F
100
AcDbEntity
  8
0
  6
Continuous
 62
     7
370
    15
100
AcDbLine
 10
493.713498132
 20
285.8243181055
 30
0.0
 11
493.713498132
 21
287.3288181055
 31
0.0
  0
LINE
  5
E5
330
1F
100
AcDbEntity
  8
0
  6
Continuous
 62
     7
370
    15
100
AcDbLine
 10
475.157998132
 20
287.3288181055
 30
0.0
 11
475.157998132
 21
285.8243181055
 31
0.0
  0
LINE
  5
E6
330
1F
100
AcDbEntity
  8
0
  6
Continuous
 62
     7
370
    15
100
AcDbLine
 10
461.6757422015
 20
305.3065832323
 30
0.0
 11
461.6795812151
 21
305.3065832323
 31
0.0
  0
CIRCLE
  5
E7
330
1F
100
AcDbEntity
  8
0
  6
Continuous
 62
     7
370
     0
100
AcDbCircle
 10
484.435748132
 20
315.8380832323
 30
0.0
 40
24.66185611579698
  0
SPLINE
  5
E8
330
1F
100
AcDbEntity
  8
0
  6
Continuous
 62
     7
370
    15
100
AcDbSpline
210
0.0
220
0.0
230
1.0
 70
     8
 71
     3
 72
    10
 73
     6
 74
     0
 42
0.00000001
 43
0.00000001
 40
0.0
 40
0.0
 40
0.0
 40
0.0
 40
0.5
 40
0.5
 40
1.0
 40
1.0
 40
1.0
 40
1.0
 10
486.5308561045696
 20
295.0680694770085
 30
0.0
 10
486.5308557673241
 20
295.1443700425287
 30
0.0
 10
486.4997149623586
 20
295.2188513959024
 30
0.0
 10
486.3931007247318
 20
295.3256933118587
 30
0.0
 10
486.3183189768785
 20
295.3571075628113
 30
0.0
 10
486.2419349985603
 20
295.3571075638424
 30
0.0
  0
SPLINE
  5
E9
330
1F
100
AcDbEntity
  8
0
  6
Continuous
 62
     7
370
    15
100
AcDbSpline
210
0.0
220
0.0
230
1.0
 70
     8
 71
     3
 72
    11
 73
     7
 74
     0
 42
0.00000001
 43
0.00000001
 40
0.0000018134955332
 40
0.0000018134955332
 40
0.0000018134955332
 40
0.0000018134955332
 40
0.0004012000396256
 40
0.0004012000396256
 40
0.0004012000396256
 40
0.0006668145421736
 40
0.0006668145421736
 40
0.0006668145421736
 40
0.0006668145421736
 10
486.5308590962651
 20
294.4037956805379
 30
0.0
 10
486.5308584862306
 20
294.5367743222469
 30
0.0
 10
486.5308578828726
 20
294.6697557741978
 30
0.0
 10
486.5308572861911
 20
294.8027399582962
 30
0.0
 10
486.5308568893643
 20
294.8911819208442
 30
0.0
 10
486.5308564954905
 20
294.979625101406
 30
0.0
 10
486.5308561045696
 20
295.068069477009
 30
0.0
  0
ARC
  5
EA
330
1F
100
AcDbEntity
  8
0
  6
Continuous
 62
     7
370
    15
100
AcDbCircle
 10
486.6432254838
 20
294.4038638739
 30
0.0
 40
0.112366408202403
100
AcDbArc
 50
180.0347718884
 51
275.917111944
  0
SPLINE
  5
EB
330
1F
100
AcDbEntity
  8
0
  6
Continuous
 62
     7
370
    15
100
AcDbSpline
210
0.0
220
0.0
230
1.0
 70
     8
 71
     3
 72
   109
 73
   105
 74
     0
 42
0.00000001
 43
0.00000001
 40
0.0
 40
0.0
 40
0.0
 40
0.0
 40
0.0156250000000001
 40
0.0156250000000001
 40
0.0312500000000001
 40
0.0468750000000002
 40
0.0468750000000002
 40
0.0625000000000003
 40
0.0625000000000003
 40
0.0937500000000004
 40
0.0937500000000004
 40
0.1093750000000004
 40
0.1093750000000004
 40
0.1250000000000004
 40
0.1250000000000004
 40
0.1562500000000004
 40
0.1562500000000004
 40
0.1640625000000004
 40
0.1640625000000004
 40
0.1718750000000004
 40
0.1718750000000004
 40
0.1875000000000004
 40
0.2031250000000003
 40
0.2031250000000003
 40
0.2109375000000003
 40
0.2109375000000003
 40
0.2187500000000003
 40
0.2187500000000003
 40
0.2500000000000003
 40
0.2500000000000003
 40
0.2656250000000002
 40
0.2656250000000002
 40
0.2812500000000002
 40
0.2812500000000002
 40
0.3125000000000002
 40
0.3125000000000002
 40
0.3281250000000001
 40
0.3281250000000001
 40
0.3437500000000001
 40
0.3437500000000001
 40
0.3750000000000001
 40
0.3750000000000001
 40
0.3906250000000001
 40
0.3906250000000001
 40
0.4062500000000001
 40
0.4062500000000001
 40
0.4375000000000001
 40
0.4375000000000001
 40
0.46875
 40
0.46875
 40
0.4843750000000001
 40
0.4843750000000001
 40
0.5
 40
0.5
 40
0.53125
 40
0.53125
 40
0.546875
 40
0.546875
 40
0.5624999999999999
 40
0.5624999999999999
 40
0.5937499999999999
 40
0.5937499999999999
 40
0.6093749999999998
 40
0.6093749999999998
 40
0.6249999999999998
 40
0.6249999999999998
 40
0.6562499999999998
 40
0.6562499999999998
 40
0.6640624999999999
 40
0.6640624999999999
 40
0.6718749999999999
 40
0.6718749999999999
 40
0.6874999999999998
 40
0.7031249999999998
 40
0.7031249999999998
 40
0.7109374999999998
 40
0.7109374999999998
 40
0.7187499999999999
 40
0.7187499999999999
 40
0.7499999999999999
 40
0.7499999999999999
 40
0.765625
 40
0.765625
 40
0.78125
 40
0.78125
 40
0.8125000000000001
 40
0.8125000000000001
 40
0.8281250000000002
 40
0.8281250000000002
 40
0.8437500000000003
 40
0.8437500000000003
 40
0.8750000000000003
 40
0.8750000000000003
 40
0.8906250000000003
 40
0.8906250000000003
 40
0.9062500000000002
 40
0.9062500000000002
 40
0.9375000000000001
 40
0.9375000000000001
 40
0.9687500000000001
 40
0.9687500000000001
 40
0.984375
 40
0.984375
 40
1.0
 40
1.0
 40
1.0
 40
1.0
 10
486.6548092929754
 20
294.2920961457361
 30
0.0
 10
487.3427268387596
 20
294.3629420459512
 30
0.0
 10
488.0275077581236
 20
294.4669533828478
 30
0.0
 10
489.3743788712815
 20
294.7374641930759
 30
0.0
 10
490.7027546561561
 20
295.0707632677117
 30
0.0
 10
491.9945684104816
 20
295.5281837640507
 30
0.0
 10
493.2678168803326
 20
296.0486300133003
 30
0.0
 10
493.8973978004541
 20
296.3417928806506
 30
0.0
 10
495.7245051310464
 20
297.3013132623337
 30
0.0
 10
496.8701963512269
 20
298.0497175906511
 30
0.0
 10
498.4807111246732
 20
299.3345863650106
 30
0.0
 10
499.0019110325032
 20
299.7926505471149
 30
0.0
 10
499.9918318438467
 20
300.750436826848
 30
0.0
 10
500.4607438938078
 20
301.2497270791542
 30
0.0
 10
501.7913215901768
 20
302.8072335596018
 30
0.0
 10
502.5775140275237
 20
303.9245489319846
 30
0.0
 10
503.4303751350369
 20
305.4228949805375
 30
0.0
 10
503.5946198243893
 20
305.728217582754
 30
0.0
 10
503.9065281668372
 20
306.3428082035544
 30
0.0
 10
504.0546188502335
 20
306.652770180068
 30
0.0
 10
504.4756993971453
 20
307.5905208125577
 30
0.0
 10
504.9753986005106
 20
308.8617927764089
 30
0.0
 10
505.3532810427981
 20
310.174375242155
 30
0.0
 10
505.5903990098137
 20
311.1745112675753
 30
0.0
 10
505.6617098888108
 20
311.5105108125406
 30
0.0
 10
505.7886110281815
 20
312.1878410789011
 30
0.0
 10
505.8442927722959
 20
312.5300193488634
 30
0.0
 10
506.0804288522094
 20
314.2380841567974
 30
0.0
 10
506.1373218130011
 20
315.6031604078465
 30
0.0
 10
506.0305426550061
 20
317.6487729237696
 30
0.0
 10
505.9627120411736
 20
318.3303078495661
 30
0.0
 10
505.760911815139
 20
319.6926885380125
 30
0.0
 10
505.6264658911845
 20
320.3735072854171
 30
0.0
 10
505.1322321963282
 20
322.3712864092863
 30
0.0
 10
504.6806052117631
 20
323.6588612018719
 30
0.0
 10
503.8210638103509
 20
325.5242073560977
 30
0.0
 10
503.5029368588812
 20
326.1367182075527
 30
0.0
 10
502.8079079940818
 20
327.3307973264899
 30
0.0
 10
502.4345421949631
 20
327.9067104370172
 30
0.0
 10
501.2393088610757
 20
329.5730466116977
 30
0.0
 10
500.3429664533511
 20
330.6026067583113
 30
0.0
 10
498.8464462968548
 20
332.0227230428143
 30
0.0
 10
498.3202535723096
 20
332.4762814115417
 30
0.0
 10
497.2382931600727
 20
333.3224534247298
 30
0.0
 10
496.6802133456298
 20
333.717540654026
 30
0.0
 10
494.9556603497965
 20
334.8204192881684
 30
0.0
 10
493.7391648561418
 20
335.44666068424
 30
0.0
 10
491.1678596141801
 20
336.4712417756069
 30
0.0
 10
489.8543010273105
 20
336.8531818766158
 30
0.0
 10
487.8438256194319
 20
337.2386072233291
 30
0.0
 10
487.1669308013905
 20
337.3356164488338
 30
0.0
 10
485.7994015087625
 20
337.4654561379442
 30
0.0
 10
485.1054505953256
 20
337.4980730327848
 30
0.0
 10
483.0425785876629
 20
337.4963516867795
 30
0.0
 10
481.6838328790007
 20
337.3654150244328
 30
0.0
 10
479.6700348267086
 20
336.9777313706722
 30
0.0
 10
479.0028491313733
 20
336.8164121145941
 30
0.0
 10
477.6769029884716
 20
336.4275097757765
 30
0.0
 10
477.0248987129212
 20
336.2017027351874
 30
0.0
 10
475.1181574573885
 20
335.4387447387074
 30
0.0
 10
473.9047565225105
 20
334.8146410772876
 30
0.0
 10
472.1718605400191
 20
333.7041574929434
 30
0.0
 10
471.6059683031415
 20
333.3023253918714
 30
0.0
 10
470.5226235252998
 20
332.4521760778909
 30
0.0
 10
470.004695069092
 20
332.0040965701161
 30
0.0
 10
468.5203654674386
 20
330.5925642427455
 30
0.0
 10
467.6227938279166
 20
329.5624243864029
 30
0.0
 10
466.6193942248607
 20
328.1598752133577
 30
0.0
 10
466.4244993934387
 20
327.873188874901
 30
0.0
 10
466.0508389879737
 20
327.2942672523984
 30
0.0
 10
465.8715429263513
 20
327.0013308539735
 30
0.0
 10
465.3558805782079
 20
326.1122686209722
 30
0.0
 10
464.7275016013301
 20
324.899556120561
 30
0.0
 10
464.2159244140572
 20
323.632961592209
 30
0.0
 10
463.876651345127
 20
322.6625289272721
 30
0.0
 10
463.7709742474851
 20
322.3356312420589
 30
0.0
 10
463.5747047482213
 20
321.674877125408
 30
0.0
 10
463.4839559880606
 20
321.3402587644022
 30
0.0
 10
463.0726720269741
 20
319.6661744928333
 30
0.0
 10
462.8749741251839
 20
318.3144127724804
 30
0.0
 10
462.7697367710579
 20
316.2685695355884
 30
0.0
 10
462.7667589882091
 20
315.5835677577479
 30
0.0
 10
462.8266959976169
 20
314.2072953647882
 30
0.0
 10
462.8900556972495
 20
313.5164204906922
 30
0.0
 10
463.175113757465
 20
311.4786294536313
 30
0.0
 10
463.4911983122307
 20
310.1512841234134
 30
0.0
 10
464.1534381190936
 20
308.2068027185931
 30
0.0
 10
464.4067267730881
 20
307.5643069341201
 30
0.0
 10
464.9744796882298
 20
306.305144043633
 30
0.0
 10
465.2862612902574
 20
305.693840635401
 30
0.0
 10
466.3027524493347
 20
303.913081758683
 30
0.0
 10
467.0878931764246
 20
302.7963091890495
 30
0.0
 10
468.4299309998634
 20
301.22878533032
 30
0.0
 10
468.9063900181674
 20
300.7233370546114
 30
0.0
 10
469.894905985606
 20
299.7700646188664
 30
0.0
 10
470.4090990602549
 20
299.3194598889429
 30
0.0
 10
472.0103640313154
 20
298.0442782725653
 30
0.0
 10
473.1564593477538
 20
297.295160651791
 30
0.0
 10
475.6073957741814
 20
296.0107298415009
 30
0.0
 10
476.8742761457887
 20
295.4951004925255
 30
0.0
 10
478.8342200974118
 20
294.9039094744978
 30
0.0
 10
479.4975412690151
 20
294.7374331000065
 30
0.0
 10
480.844603354177
 20
294.466898121611
 30
0.0
 10
481.5308405810865
 20
294.3627607143115
 30
0.0
 10
482.2169720271232
 20
294.2920981355895
 30
0.0
  0
ARC
  5
EC
330
1F
100
AcDbEntity
  8
0
  6
Continuous
 62
     7
370
    15
100
AcDbCircle
 10
482.2285557242
 20
294.4038638111
 30
0.0
 40
0.1123643548773082
100
AcDbArc
 50
264.0828369933
 51
359.9652277176
  0
SPLINE
  5
ED
330
1F
100
AcDbEntity
  8
0
  6
Continuous
 62
     7
370
    15
100
AcDbSpline
210
0.0
220
0.0
230
1.0
 70
     8
 71
     3
 72
    11
 73
     7
 74
     0
 42
0.00000001
 43
0.00000001
 40
0.0000078786161074
 40
0.0000078786161074
 40
0.0000078786161074
 40
0.0000078786161074
 40
0.0004012000396256
 40
0.0004012000396256
 40
0.0004012000396256
 40
0.0006728796646735
 40
0.0006728796646735
 40
0.0006728796646735
 40
0.0006728796646735
 10
482.3409230501948
 20
295.0680694165803
 30
0.0
 10
482.3409224713048
 20
294.9371011692089
 30
0.0
 10
482.3409218859395
 20
294.8061355382425
 30
0.0
 10
482.340921294099
 20
294.6751725982738
 30
0.0
 10
482.3409208852958
 20
294.5847123228393
 30
0.0
 10
482.3409204734032
 20
294.4942533212796
 30
0.0
 10
482.340920058421
 20
294.4037956181763
 30
0.0
  0
SPLINE
  5
EE
330
1F
100
AcDbEntity
  8
0
  6
Continuous
 62
     7
370
    15
100
AcDbSpline
210
0.0
220
0.0
230
1.0
 70
     8
 71
     3
 72
    10
 73
     6
 74
     0
 42
0.00000001
 43
0.00000001
 40
0.0
 40
0.0
 40
0.0
 40
0.0
 40
0.5
 40
0.5
 40
1.0
 40
1.0
 40
1.0
 40
1.0
 10
482.6298461117424
 20
295.3571091951099
 30
0.0
 10
482.5534624696792
 20
295.3571092630715
 30
0.0
 10
482.4789353961538
 20
295.3258435447956
 30
0.0
 10
482.3722200307484
 20
295.2191157077033
 30
0.0
 10
482.3409233874458
 20
295.1443694743035
 30
0.0
 10
482.3409230501934
 20
295.0680694165806
 30
0.0
  0
SPLINE
  5
EF
330
1F
100
AcDbEntity
  8
0
  6
Continuous
 62
     7
370
    15
100
AcDbSpline
210
0.0
220
0.0
230
1.0
 70
     8
 71
     3
 72
    14
 73
    10
 74
     0
 42
0.00000001
 43
0.00000001
 40
0.0000003583186456
 40
0.0000003583186456
 40
0.0000003583186456
 40
0.0000003583186456
 40
0.0004012000397061
 40
0.0004012000397061
 40
0.0004012000397061
 40
0.0020060049632887
 40
0.0020060049632887
 40
0.0020060049632887
 40
0.003612459928073
 40
0.003612459928073
 40
0.003612459928073
 40
0.003612459928073
 10
486.24193499856
 20
295.357107563841
 30
0.0
 10
486.1083221635951
 20
295.3571075656444
 30
0.0
 10
485.9747090775144
 20
295.3571075739441
 30
0.0
 10
485.8410958195171
 20
295.3571075887397
 30
0.0
 10
485.3061642375324
 20
295.3571076479752
 30
0.0
 10
484.7712288413069
 20
295.357107811334
 30
0.0
 10
484.2362947132396
 20
295.357108078817
 30
0.0
 10
483.7008105744323
 20
295.357108346575
 30
0.0
 10
483.1653260079051
 20
295.3571087186722
 30
0.0
 10
482.6298461117418
 20
295.3571091951098
 30
0.0
  0
SPLINE
  5
F0
330
1F
100
AcDbEntity
  8
0
  6
Continuous
 62
     7
370
    15
100
AcDbSpline
210
0.0
220
0.0
230
1.0
 70
     8
 71
     3
 72
    17
 73
    13
 74
     0
 42
0.00000001
 43
0.00000001
 40
0.0
 40
0.0
 40
0.0
 40
0.0
 40
0.1082738558909226
 40
0.217281970281548
 40
0.3286190220706499
 40
0.4407702459734396
 40
0.5494545272046849
 40
0.6589176248691042
 40
0.7696031502864523
 40
0.8819735495929439
 40
0.9886227257881917
 40
0.9999999999999999
 40
0.9999999999999999
 40
0.9999999999999999
 40
0.9999999999999999
 10
488.7355553594139
 20
340.2122641158146
 30
0.0
 10
488.8454803209063
 20
340.1934768982362
 30
0.0
 10
489.0660756993537
 20
340.1557750576767
 30
0.0
 10
489.3601633368457
 20
340.1010667948359
 30
0.0
 10
489.6253490516161
 20
340.0495054340792
 30
0.0
 10
489.8527104625663
 20
340.0034997624533
 30
0.0
 10
490.041084626626
 20
339.9645471561693
 30
0.0
 10
490.1891244643991
 20
339.9338610019573
 30
0.0
 10
490.3004287275241
 20
339.9113670980316
 30
0.0
 10
490.35981740228
 20
339.9012328295391
 30
0.0
 10
490.3951089642878
 20
339.8956793614884
 30
0.0
 10
490.3808662287748
 20
339.9007801446999
 30
0.0
 10
490.3794932864649
 20
339.9012718396471
 30
0.0
  0
SPLINE
  5
F1
330
1F
100
AcDbEntity
  8
0
  6
Continuous
 62
     7
370
    15
100
AcDbSpline
210
0.0
220
0.0
230
1.0
 70
     8
 71
     3
 72
    29
 73
    25
 74
     0
 42
0.00000001
 43
0.00000001
 40
0.0
 40
0.0
 40
0.0
 40
0.0
 40
0.0084841875296178
 40
0.0444067082001297
 40
0.0783455046708207
 40
0.1818479577024912
 40
0.2160658937658997
 40
0.285256604562546
 40
0.3205372759301968
 40
0.3556176727202011
 40
0.3909401691999959
 40
0.4266390953227651
 40
0.462855723980465
 40
0.5334300487508435
 40
0.569274327693126
 40
0.6056680198162931
 40
0.6400875065754492
 40
0.7097399280683678
 40
0.7453132965016026
 40
0.7793243161514325
 40
0.8830198398429859
 40
0.9119950023419056
 40
0.9704654113446977
 40
1.0
 40
1.0
 40
1.0
 40
1.0
 10
478.491816744896
 20
339.9012332843675
 30
0.0
 10
478.4906487434823
 20
339.9005844224065
 30
0.0
 10
478.484535359287
 20
339.8971882429058
 30
0.0
 10
478.5154839674876
 20
339.9015167412603
 30
0.0
 10
478.6310918174848
 20
339.9225310932329
 30
0.0
 10
478.8840400001391
 20
339.976318440864
 30
0.0
 10
479.3289894757824
 20
340.0661656721674
 30
0.0
 10
479.6976531623741
 20
340.1368229506764
 30
0.0
 10
480.1307363471981
 20
340.2121313848631
 30
0.0
 10
480.4886970806668
 20
340.2697456032244
 30
0.0
 10
480.8757040837198
 20
340.3265121736156
 30
0.0
 10
481.2925490661704
 20
340.3811563814443
 30
0.0
 10
481.876895159368
 20
340.4479595361521
 30
0.0
 10
482.5028757720304
 20
340.5032933584387
 30
0.0
 10
483.1548540435365
 20
340.5422335712234
 30
0.0
 10
483.6517979964472
 20
340.5622147417636
 30
0.0
 10
484.3135898120651
 20
340.575967854315
 30
0.0
 10
484.9771130932547
 20
340.5705773301499
 30
0.0
 10
485.6271570296034
 20
340.5464272538171
 30
0.0
 10
486.4215179134596
 20
340.5020326501849
 30
0.0
 10
487.1521895822664
 20
340.4333597157917
 30
0.0
 10
487.9106050213937
 20
340.3388760084413
 30
0.0
 10
488.3457739136621
 20
340.2761699444548
 30
0.0
 10
488.6376135933517
 20
340.2283219599909
 30
0.0
 10
488.7355553594139
 20
340.2122641158146
 30
0.0
  0
ARC
  5
F2
330
1F
100
AcDbEntity
  8
0
  6
Continuous
 62
     7
370
    15
100
AcDbCircle
 10
484.435748132
 20
315.8380832323
 30
0.0
 40
25.07499999999999
100
AcDbArc
 50
0.0
 51
76.2786590388
  0
ARC
  5
F3
330
1F
100
AcDbEntity
  8
0
  6
Continuous
 62
     7
370
    15
100
AcDbCircle
 10
484.435748132
 20
315.8380832323
 30
0.0
 40
25.07499999999999
100
AcDbArc
 50
103.7213406585
 51
0.0
  0
LINE
  5
F4
330
1F
100
AcDbEntity
  8
0
  6
Continuous
 62
     7
370
    15
100
AcDbLine
 10
404.8017741037
 20
280.7330832323
 30
0.0
 11
404.8017741037
 21
350.9430832323
 31
0.0
  0
LINE
  5
F5
330
1F
100
AcDbEntity
  8
0
  6
Continuous
 62
     7
370
    15
100
AcDbLine
 10
431.2925945203
 20
301.2897497093
 30
0.0
 11
431.2925946716
 21
330.4098991427
 31
0.0
  0
SPLINE
  5
F6
330
1F
100
AcDbEntity
  8
0
  6
Continuous
 62
     7
370
    15
100
AcDbSpline
210
0.0
220
0.0
230
1.0
 70
     8
 71
     3
 72
    24
 73
    20
 74
     0
 42
0.00000001
 43
0.00000001
 40
0.0
 40
0.0
 40
0.0
 40
0.0
 40
0.0202722082440573
 40
0.0405292034146695
 40
0.060846783542963
 40
0.0812995356740434
 40
0.1019596687054109
 40
0.1228959757410528
 40
0.1834686160001287
 40
0.2465832355182017
 40
0.3072887160116355
 40
0.3706308374852151
 40
0.4940972471706333
 40
0.6203986198862125
 40
0.7485514964864096
 40
0.8120600485682788
 40
0.8761428608827769
 40
0.9380859446778099
 40
1.0
 40
1.0
 40
1.0
 40
1.0
 10
435.2407809782809
 20
330.8830769435871
 30
0.0
 10
435.1925888424062
 20
330.8830731683781
 30
0.0
 10
435.0962407359573
 20
330.883065620793
 30
0.0
 10
434.9522724243395
 20
330.8830366433208
 30
0.0
 10
434.809233735224
 20
330.8830266100697
 30
0.0
 10
434.6672626334745
 20
330.8830385066161
 30
0.0
 10
434.5264819424632
 20
330.8830662620477
 30
0.0
 10
434.2998958795091
 20
330.8830955113336
 30
0.0
 10
433.9949171464125
 20
330.8829755849588
 30
0.0
 10
433.6454643135663
 20
330.8830734896842
 30
0.0
 10
433.3313483516813
 20
330.8830625892434
 30
0.0
 10
432.9681780199383
 20
330.883132894512
 30
0.0
 10
432.5997168459443
 20
330.8829540290557
 30
0.0
 10
432.2798615834594
 20
330.8829693623464
 30
0.0
 10
432.0999245162712
 20
330.8832392495328
 30
0.0
 10
432.0015903003085
 20
330.8832712817938
 30
0.0
 10
431.951003269498
 20
330.883267862037
 30
0.0
 10
431.9198901910186
 20
330.8831104718911
 30
0.0
 10
431.9161006432881
 20
330.883088117942
 30
0.0
 10
431.9142063135022
 20
330.883076943587
 30
0.0
  0
SPLINE
  5
F7
330
1F
100
AcDbEntity
  8
0
  6
Continuous
 62
     7
370
    15
100
AcDbSpline
210
0.0
220
0.0
230
1.0
 70
     8
 71
     3
 72
    34
 73
    30
 74
     0
 42
0.00000001
 43
0.00000001
 40
0.0
 40
0.0
 40
0.0
 40
0.0
 40
0.0102436354278262
 40
0.0204882363134955
 40
0.0307731700792676
 40
0.0411373572365258
 40
0.0516188027420488
 40
0.0622541783752955
 40
0.0927157460876638
 40
0.124680824715791
 40
0.1551799782896752
 40
0.1872228984685003
 40
0.2496668338800238
 40
0.313444110704624
 40
0.3776841904583058
 40
0.4408749461214584
 40
0.5027365256508151
 40
0.5662850802357823
 40
0.6304752486800307
 40
0.6941267219914744
 40
0.7563617984150944
 40
0.8183780767689743
 40
0.8500594693882546
 40
0.8802067043036109
 40
0.910940695819688
 40
0.9402519345260992
 40
0.9604662120733166
 40
0.980290861605561
 40
1.0
 40
1.0
 40
1.0
 40
1.0
 10
435.2407809782808
 20
318.524286086949
 30
0.0
 10
435.192082440027
 20
318.5251272645399
 30
0.0
 10
435.094680773705
 20
318.5268096990027
 30
0.0
 10
434.9490877286373
 20
318.5404551931855
 30
0.0
 10
434.804328191913
 20
318.5622387372683
 30
0.0
 10
434.6605435856729
 20
318.5929327065332
 30
0.0
 10
434.5178600556103
 20
318.6322941495649
 30
0.0
 10
434.2894897601414
 20
318.7098252525134
 30
0.0
 10
433.982204177556
 20
318.8533844527439
 30
0.0
 10
433.6315722895043
 20
319.0884334251477
 30
0.0
 10
433.3162580529857
 20
319.3668706424096
 30
0.0
 10
432.9522818167428
 20
319.7747548701607
 30
0.0
 10
432.5839632265502
 20
320.3468706645606
 30
0.0
 10
432.2670921095404
 20
321.0837061068024
 30
0.0
 10
432.0556176438477
 20
321.8509755528648
 30
0.0
 10
431.9369368675357
 20
322.62442477441
 30
0.0
 10
431.9011275928249
 20
323.4012061192286
 30
0.0
 10
431.9455024089465
 20
324.1818255410965
 30
0.0
 10
432.0753962819698
 20
324.9627637090171
 30
0.0
 10
432.2979508326175
 20
325.7227998847433
 30
0.0
 10
432.6231979453088
 20
326.4455005786988
 30
0.0
 10
432.9963013094049
 20
327.0044257569677
 30
0.0
 10
433.3656630495073
 20
327.4026196417837
 30
0.0
 10
433.6811305299681
 20
327.6697138264707
 30
0.0
 10
434.0268873937725
 20
327.8914093862078
 30
0.0
 10
434.3672035103374
 20
328.0444441610854
 30
0.0
 10
434.6798378412415
 20
328.1365710558707
 30
0.0
 10
434.958986023369
 20
328.1874529548174
 30
0.0
 10
435.1470324734365
 20
328.1937356374064
 30
0.0
 10
435.2407809782809
 20
328.1968678002253
 30
0.0
  0
SPLINE
  5
F8
330
1F
100
AcDbEntity
  8
0
  6
Continuous
 62
     7
370
    15
100
AcDbSpline
210
0.0
220
0.0
230
1.0
 70
     8
 71
     3
 72
    34
 73
    30
 74
     0
 42
0.00000001
 43
0.00000001
 40
0.0
 40
0.0
 40
0.0
 40
0.0
 40
0.0101839707203316
 40
0.0203577798392037
 40
0.0305597664427205
 40
0.0408276875245583
 40
0.0511981211689892
 40
0.0617059345963205
 40
0.0920327062692917
 40
0.123663596176949
 40
0.1545024458522564
 40
0.1866689656636635
 40
0.249701496124539
 40
0.3121197613874883
 40
0.3756237360389762
 40
0.439344612213962
 40
0.5020370603771654
 40
0.5646001550619137
 40
0.6284029109816281
 40
0.6921178686076678
 40
0.7547244549897014
 40
0.8171270414309244
 40
0.8489138342592859
 40
0.8793842041984024
 40
0.9102454410560725
 40
0.9398535167121407
 40
0.9601720033448419
 40
0.9801286608722909
 40
0.9999999999999999
 40
0.9999999999999999
 40
0.9999999999999999
 40
0.9999999999999999
 10
435.2407809782809
 20
303.4792860869489
 30
0.0
 10
435.1923661665644
 20
303.4801185645683
 30
0.0
 10
435.0955848515993
 20
303.4817826891579
 30
0.0
 10
434.9509908047521
 20
303.4952580820745
 30
0.0
 10
434.8073728446992
 20
303.5167230998161
 30
0.0
 10
434.664870987968
 20
303.5469116782452
 30
0.0
 10
434.5236093878087
 20
303.5855615121633
 30
0.0
 10
434.2966534966741
 20
303.6619581477395
 30
0.0
 10
433.9913621480225
 20
303.8035935201421
 30
0.0
 10
433.6400537321237
 20
304.0368590951203
 30
0.0
 10
433.3230596258463
 20
304.3147486732846
 30
0.0
 10
432.9551561230962
 20
304.7254162697229
 30
0.0
 10
432.5881312582822
 20
305.2952903913929
 30
0.0
 10
432.2722181016504
 20
306.0256097566561
 30
0.0
 10
432.0595991534125
 20
306.7858822183577
 30
0.0
 10
431.9385655810249
 20
307.5617627392627
 30
0.0
 10
431.9009254213412
 20
308.3400614623462
 30
0.0
 10
431.9436970998542
 20
309.1183785977535
 30
0.0
 10
432.0702775374314
 20
309.8943597043237
 30
0.0
 10
432.289692209049
 20
310.6553440932758
 30
0.0
 10
432.6129914916921
 20
311.3822473930211
 30
0.0
 10
432.9855035559784
 20
311.9455763192452
 30
0.0
 10
433.3553185818696
 20
312.3478420367147
 30
0.0
 10
433.6713967055259
 20
312.6175710238209
 30
0.0
 10
434.0190436920779
 20
312.8423083791425
 30
0.0
 10
434.3610808001392
 20
312.9972637712956
 30
0.0
 10
434.6758752535259
 20
313.0908147221581
 30
0.0
 10
434.9568102474172
 20
313.1423742170425
 30
0.0
 10
435.1462593454798
 20
313.1487077950344
 30
0.0
 10
435.2407809782809
 20
313.1518678002253
 30
0.0
  0
SPLINE
  5
F9
330
1F
100
AcDbEntity
  8
0
  6
Continuous
 62
     7
370
    15
100
AcDbSpline
210
0.0
220
0.0
230
1.0
 70
    24
 71
     3
 72
    14
 73
    10
 74
     0
 42
0.00000001
 43
0.00000001
 40
0.0
 40
0.0
 40
0.0
 40
0.0
 40
0.0062518907721158
 40
0.2617693692565431
 40
0.5133745976213915
 40
0.6375677597382284
 40
0.7611628238537855
 40
0.8810325901301149
 40
0.9999999999999999
 40
0.9999999999999999
 40
0.9999999999999999
 40
0.9999999999999999
 10
431.9183174946899
 20
300.793076943587
 30
0.0
 10
431.9169918831482
 20
300.793076943587
 30
0.0
 10
431.861487954852
 20
300.7930769435871
 30
0.0
 10
432.0536080374288
 20
300.793076943587
 30
0.0
 10
432.4691386941687
 20
300.793076943587
 30
0.0
 10
433.068220790926
 20
300.793076943587
 30
0.0
 10
433.6519153163646
 20
300.793076943587
 30
0.0
 10
434.387078216337
 20
300.793076943587
 30
0.0
 10
434.9569310491393
 20
300.793076943587
 30
0.0
 10
435.2407809782809
 20
300.793076943587
 30
0.0
  0
LINE
  5
FA
330
1F
100
AcDbEntity
  8
0
  6
Continuous
 62
     7
370
    15
100
AcDbLine
 10
448.3112481307
 20
301.2945769436
 30
0.0
 11
448.3112481307
 21
330.3815769436
 31
0.0
  0
SPLINE
  5
FB
330
1F
100
AcDbEntity
  8
0
  6
Continuous
 62
     7
370
    15
100
AcDbSpline
210
0.0
220
0.0
230
1.0
 70
    24
 71
     3
 72
    14
 73
    10
 74
     0
 42
0.00000001
 43
0.00000001
 40
0.0
 40
0.0
 40
0.0
 40
0.0
 40
0.0623244655732393
 40
0.1246130767616768
 40
0.2493535318393081
 40
0.3745205089296606
 40
0.4997078809454878
 40
0.7558596997871205
 40
0.9999999999999999
 40
0.9999999999999999
 40
0.9999999999999999
 40
0.9999999999999999
 10
444.3307152832454
 20
300.793076943587
 30
0.0
 10
444.4787470738088
 20
300.793076943587
 30
0.0
 10
444.7747254943371
 20
300.793076943587
 30
0.0
 10
445.3408483476862
 20
300.793076943587
 30
0.0
 10
445.9676693022708
 20
300.793076943587
 30
0.0
 10
446.5490767708444
 20
300.793076943587
 30
0.0
 10
447.1340778494168
 20
300.793076943587
 30
0.0
 10
447.5697294595225
 20
300.793076943587
 30
0.0
 10
447.6257979301524
 20
300.793076943587
 30
0.0
 10
447.6531590912235
 20
300.793076943587
 30
0.0
  0
SPLINE
  5
FC
330
1F
100
AcDbEntity
  8
0
  6
Continuous
 62
     7
370
    15
100
AcDbSpline
210
0.0
220
0.0
230
1.0
 70
     8
 71
     3
 72
    34
 73
    30
 74
     0
 42
0.00000001
 43
0.00000001
 40
0.0
 40
0.0
 40
0.0
 40
0.0
 40
0.0101839707191857
 40
0.0203577798373605
 40
0.0305597664406413
 40
0.0408276875227194
 40
0.0511981211678666
 40
0.0617059345963917
 40
0.0920327062707714
 40
0.1236635961770061
 40
0.1545024458580559
 40
0.1866689656635765
 40
0.249701496124423
 40
0.312119761387066
 40
0.3756237360380048
 40
0.439344612212448
 40
0.5020370603752219
 40
0.5646001550599403
 40
0.6284029109794824
 40
0.69211786860531
 40
0.7547244549872166
 40
0.8171270414283526
 40
0.8489138342584153
 40
0.8793842041958209
 40
0.9102454410612614
 40
0.939853516710934
 40
0.9601720033512874
 40
0.9801286608791575
 40
1.0
 40
1.0
 40
1.0
 40
1.0
 10
444.3307152832454
 20
313.1518678002253
 30
0.0
 10
444.379130094956
 20
313.1510395913803
 30
0.0
 10
444.4759114099115
 20
313.14938400008
 30
0.0
 10
444.6205054567472
 20
313.1359428369061
 30
0.0
 10
444.7641234167947
 20
313.114492322604
 30
0.0
 10
444.9066252735266
 20
313.0842933536272
 30
0.0
 10
445.047886873693
 20
313.0456122937175
 30
0.0
 10
445.2748427648382
 20
312.9691668168389
 30
0.0
 10
445.5801341134925
 20
312.8276054898844
 30
0.0
 10
445.9314425293967
 20
312.5942726061835
 30
0.0
 10
446.2484366356646
 20
312.316493709053
 30
0.0
 10
446.6163401383979
 20
311.9056909680218
 30
0.0
 10
446.9833650031954
 20
311.3358541702221
 30
0.0
 10
447.2992781598226
 20
310.6055858296818
 30
0.0
 10
447.5118971080591
 20
309.8452649029272
 30
0.0
 10
447.6329306804468
 20
309.0693119733776
 30
0.0
 10
447.6705708401325
 20
308.2911317915947
 30
0.0
 10
447.6277991616225
 20
307.5126930925839
 30
0.0
 10
447.5012187240492
 20
306.7367726885544
 30
0.0
 10
447.2818040524377
 20
305.9758770285682
 30
0.0
 10
446.9585047698022
 20
305.2488974272537
 30
0.0
 10
446.5859927055249
 20
304.6855505138163
 30
0.0
 10
446.2161776796387
 20
304.2833779702762
 30
0.0
 10
445.9000995559649
 20
304.0135296253294
 30
0.0
 10
445.5524525694345
 20
303.7888671963553
 30
0.0
 10
445.2104154613313
 20
303.6338950433367
 30
0.0
 10
444.8956210079322
 20
303.5404455959354
 30
0.0
 10
444.6146860140433
 20
303.4888368296855
 30
0.0
 10
444.425236916013
 20
303.4824651180944
 30
0.0
 10
444.3307152832454
 20
303.4792860869489
 30
0.0
  0
SPLINE
  5
FD
330
1F
100
AcDbEntity
  8
0
  6
Continuous
 62
     7
370
    15
100
AcDbSpline
210
0.0
220
0.0
230
1.0
 70
     8
 71
     3
 72
    34
 73
    30
 74
     0
 42
0.00000001
 43
0.00000001
 40
0.0
 40
0.0
 40
0.0
 40
0.0
 40
0.010243635429315
 40
0.0204882363159365
 40
0.030773170082082
 40
0.0411373572390899
 40
0.0516188027437188
 40
0.0622541783754024
 40
0.0927157460846086
 40
0.1246808247158605
 40
0.1551799782807901
 40
0.1872228984684905
 40
0.2496668338801452
 40
0.3134441107048034
 40
0.3776841904584161
 40
0.4408749461213868
 40
0.5027365256508627
 40
0.5662850802359293
 40
0.6304752486801508
 40
0.6941267219915016
 40
0.7563617984150159
 40
0.8183780767688327
 40
0.8500594693867214
 40
0.880206704303195
 40
0.9109406958132998
 40
0.940251934526068
 40
0.9604662120705201
 40
0.9802908616028602
 40
1.0
 40
1.0
 40
1.0
 40
1.0
 10
444.3307152832454
 20
328.1968678002253
 30
0.0
 10
444.3794138215057
 20
328.1960234139241
 30
0.0
 10
444.4768154878381
 20
328.1943345617384
 30
0.0
 10
444.6224085329164
 20
328.1806638443907
 30
0.0
 10
444.7671680696432
 20
328.1588711106119
 30
0.0
 10
444.9109526758773
 20
328.1281869320608
 30
0.0
 10
445.0536362059256
 20
328.088849025999
 30
0.0
 10
445.2820065013671
 20
328.0113448376705
 30
0.0
 10
445.5892920839347
 20
327.8676696955914
 30
0.0
 10
445.9399239719537
 20
327.6327376839488
 30
0.0
 10
446.2552382084711
 20
327.3542701121614
 30
0.0
 10
446.619214444727
 20
326.9464372355345
 30
0.0
 10
446.987533034929
 20
326.3741360670866
 30
0.0
 10
447.3044041519371
 20
325.6374327377133
 30
0.0
 10
447.515878617627
 20
324.8703830776383
 30
0.0
 10
447.6345593939383
 20
324.0966981292655
 30
0.0
 10
447.6703686686487
 20
323.3200184341517
 30
0.0
 10
447.6259938525273
 20
322.5394869425881
 30
0.0
 10
447.496099979504
 20
321.7583863315811
 30
0.0
 10
447.2735454288603
 20
320.9982746631875
 30
0.0
 10
446.9482983161659
 20
320.2756662093979
 30
0.0
 10
446.5751949521018
 20
319.7167545773854
 30
0.0
 10
446.2058332119628
 20
319.3184665365054
 30
0.0
 10
445.8903657315615
 20
319.0514948697368
 30
0.0
 10
445.5446088677735
 20
318.8297292784196
 30
0.0
 10
445.2042927512169
 20
318.6766984659005
 30
0.0
 10
444.8916584203021
 20
318.5844852987948
 30
0.0
 10
444.612510238179
 20
318.5336524350616
 30
0.0
 10
444.4244637881013
 20
318.5274021155227
 30
0.0
 10
444.3307152832454
 20
318.524286086949
 30
0.0
  0
SPLINE
  5
FE
330
1F
100
AcDbEntity
  8
0
  6
Continuous
 62
     7
370
    15
100
AcDbSpline
210
0.0
220
0.0
230
1.0
 70
     8
 71
     3
 72
    22
 73
    18
 74
     0
 42
0.00000001
 43
0.00000001
 40
0.0
 40
0.0
 40
0.0
 40
0.0
 40
0.0419748895800053
 40
0.0838882729939488
 40
0.1257908881264426
 40
0.1902103339967784
 40
0.2540400555464982
 40
0.3820284021361117
 40
0.5077426131938818
 40
0.6329608069165867
 40
0.6967652307079301
 40
0.7579203677324625
 40
0.8198708122155249
 40
0.8792962455066737
 40
0.9200761609782319
 40
0.960124596265568
 40
1.0
 40
1.0
 40
1.0
 40
1.0
 10
447.6572899479715
 20
330.883076943587
 30
0.0
 10
447.6564263737711
 20
330.8830771729699
 30
0.0
 10
447.6547004907728
 20
330.8830776313995
 30
0.0
 10
447.640684354724
 20
330.8831078878208
 30
0.0
 10
447.6142142100652
 20
330.8831498332812
 30
0.0
 10
447.5678940333303
 20
330.8831179516067
 30
0.0
 10
447.4683485451544
 20
330.8830939514494
 30
0.0
 10
447.28672747607
 20
330.8830031370218
 30
0.0
 10
446.9639781232355
 20
330.8830873728109
 30
0.0
 10
446.5914895329401
 20
330.883104753551
 30
0.0
 10
446.2213748663649
 20
330.8830098925529
 30
0.0
 10
445.904772403262
 20
330.883129417897
 30
0.0
 10
445.5563376396412
 20
330.8830545994472
 30
0.0
 10
445.2133161298153
 20
330.8830731433758
 30
0.0
 10
444.8975249039935
 20
330.8829699966508
 30
0.0
 10
444.6156522563995
 20
330.8830192371403
 30
0.0
 10
444.4255570917744
 20
330.8830577358876
 30
0.0
 10
444.3307152832454
 20
330.8830769435872
 30
0.0
  0
ARC
  5
FF
330
1F
100
AcDbEntity
  8
0
  6
Continuous
 62
     7
370
    15
100
AcDbCircle
 10
484.4404517368
 20
315.8396038662
 30
0.0
 40
25.07500000000001
100
AcDbArc
 50
287.9098174039
 51
76.2897221426
  0
LINE
  5
100
330
1F
100
AcDbEntity
  8
0
  6
Continuous
 62
     7
370
    15
100
AcDbLine
 10
435.2407809783
 20
313.1518678002
 30
0.0
 11
444.3307152832
 21
313.1518678002
 31
0.0
  0
LINE
  5
101
330
1F
100
AcDbEntity
  8
0
  6
Continuous
 62
     7
370
    15
100
AcDbLine
 10
444.3307152832
 20
318.5242860869
 30
0.0
 11
435.2407809783
 21
318.5242860869
 31
0.0
  0
LINE
  5
102
330
1F
100
AcDbEntity
  8
0
  6
Continuous
 62
     7
370
    15
100
AcDbLine
 10
444.3307152832
 20
303.4792860869
 30
0.0
 11
435.2407809783
 21
303.4792860869
 31
0.0
  0
LINE
  5
103
330
1F
100
AcDbEntity
  8
0
  6
Continuous
 62
     7
370
    15
100
AcDbLine
 10
435.2407809783
 20
328.1968678002
 30
0.0
 11
444.3307152832
 21
328.1968678002
 31
0.0
  0
LINE
  5
104
330
1F
100
AcDbEntity
  8
0
  6
Continuous
 62
     7
370
    15
100
AcDbLine
 10
435.2407809783
 20
300.7930769436
 30
0.0
 11
444.3307152832
 21
300.7930769436
 31
0.0
  0
LINE
  5
105
330
1F
100
AcDbEntity
  8
0
  6
Continuous
 62
     7
370
    15
100
AcDbLine
 10
444.3307152832
 20
330.8830769436
 30
0.0
 11
435.2407809783
 21
330.8830769436
 31
0.0
  0
LINE
  5
106
330
1F
100
AcDbEntity
  8
0
  6
Continuous
 62
     7
370
    15
100
AcDbLine
 10
496.220998132
 20
287.8303181055
 30
0.0
 11
472.650498132
 21
287.8303181055
 31
0.0
  0
LINE
  5
107
330
1F
100
AcDbEntity
  8
0
  6
Continuous
 62
     7
370
    15
100
AcDbLine
 10
494.942173132
 20
284.5956431055
 30
0.0
 11
473.929323132
 21
284.5956431055
 31
0.0
  0
LINE
  5
108
330
1F
100
AcDbEntity
  8
0
  6
Continuous
 62
     7
370
    15
100
AcDbLine
 10
493.713498132
 20
285.8243181055
 30
0.0
 11
475.157998132
 21
285.8243181055
 31
0.0
  0
LINE
  5
109
330
1F
100
AcDbEntity
  8
0
  6
Continuous
 62
     7
370
    15
100
AcDbLine
 10
494.942173132
 20
277.9758431055
 30
0.0
 11
473.929323132
 21
277.9758431055
 31
0.0
  0
LINE
  5
10A
330
1F
100
AcDbEntity
  8
0
  6
Continuous
 62
     7
370
    15
100
AcDbLine
 10
493.763648132
 20
276.7973181055
 30
0.0
 11
475.107848132
 21
276.7973181055
 31
0.0
  0
LINE
  5
10B
330
1F
100
AcDbEntity
  8
0
  6
Continuous
 62
     8
370
     0
100
AcDbLine
 10
482.2283094104
 20
294.4021843451
 30
0.0
 11
482.2283094104
 21
295.0665079871
 31
0.0
  0
ARC
  5
10C
330
1F
100
AcDbEntity
  8
0
  6
Continuous
 62
     8
370
     0
100
AcDbCircle
 10
484.4358905576
 20
315.8378396901
 30
0.0
 40
21.54903094317588
100
AcDbArc
 50
275.8799569961
 51
264.1200430039
  0
LINE
  5
10D
330
1F
100
AcDbEntity
  8
0
  6
Continuous
 62
     8
370
     0
100
AcDbLine
 10
486.6434717048
 20
295.0665079871
 30
0.0
 11
486.6434717048
 21
294.4021843451
 31
0.0
  0
SPLINE
  5
10E
330
1F
100
AcDbEntity
  8
0
  6
Continuous
 62
     8
370
     0
100
AcDbSpline
210
0.0
220
0.0
230
1.0
 70
     8
 71
     3
 72
    10
 73
     6
 74
     0
 42
0.00000001
 43
0.00000001
 40
0.0
 40
0.0
 40
0.0
 40
0.0
 40
0.5
 40
0.5
 40
1.0
 40
1.0
 40
1.0
 40
1.0
 10
486.6434717047611
 20
295.06650798708
 30
0.0
 10
486.6434717047611
 20
295.1724634615842
 30
0.0
 10
486.5999064699233
 20
295.2763434538303
 30
0.0
 10
486.4518617669253
 20
295.424360433917
 30
0.0
 10
486.3481635314497
 20
295.4678863774757
 30
0.0
 10
486.2420933143654
 20
295.4678863774757
 30
0.0
  0
LINE
  5
10F
330
1F
100
AcDbEntity
  8
0
  6
Continuous
 62
     8
370
     0
100
AcDbLine
 10
482.6296878008
 20
295.4678863775
 30
0.0
 11
486.2420933144
 21
295.4678863775
 31
0.0
  0
SPLINE
  5
110
330
1F
100
AcDbEntity
  8
0
  6
Continuous
 62
     8
370
     0
100
AcDbSpline
210
0.0
220
0.0
230
1.0
 70
     8
 71
     3
 72
    10
 73
     6
 74
     0
 42
0.00000001
 43
0.00000001
 40
0.0
 40
0.0
 40
0.0
 40
0.0
 40
0.5
 40
0.5
 40
1.0
 40
1.0
 40
1.0
 40
1.0
 10
482.6296878008038
 20
295.4678863774757
 30
0.0
 10
482.5236157072493
 20
295.4678863774757
 30
0.0
 10
482.41967018821
 20
295.4242168827867
 30
0.0
 10
482.2717185679219
 20
295.2760815540612
 30
0.0
 10
482.2283094104081
 20
295.1724654657465
 30
0.0
 10
482.2283094104081
 20
295.0665079870799
 30
0.0
  0
LINE
  5
111
330
1F
100
AcDbEntity
  8
0
  6
Continuous
 62
     8
370
     0
100
AcDbLine
 10
482.2169720271
 20
294.2920981356
 30
0.0
 11
482.2283094104
 21
294.4021843451
 31
0.0
  0
LINE
  5
112
330
1F
100
AcDbEntity
  8
0
  6
Continuous
 62
     8
370
     0
100
AcDbLine
 10
486.654809293
 20
294.2920961457
 30
0.0
 11
486.6434717048
 21
294.4021843451
 31
0.0
  0
ARC
  5
113
330
1F
100
AcDbEntity
  8
0
  6
Continuous
 62
     8
370
     0
100
AcDbCircle
 10
482.2330047064
 20
298.7896223468
 30
0.0
 40
3.723117320414842
100
AcDbArc
 50
269.9277431542
 51
271.6610091168
  0
ARC
  5
114
330
1F
100
AcDbEntity
  8
0
  6
Continuous
 62
     8
370
     0
100
AcDbCircle
 10
523.2993578687
 20
295.4706184294
 30
0.0
 40
40.66967015962943
100
AcDbArc
 50
180.0038489382
 51
180.1599129887
  0
ARC
  5
115
330
1F
100
AcDbEntity
  8
0
  6
Continuous
 62
     8
370
     0
100
AcDbCircle
 10
445.5726866734
 20
295.4706181684
 30
0.0
 40
40.66940673270737
100
AcDbArc
 50
359.840084045
 51
359.9961514046
  0
ARC
  5
116
330
1F
100
AcDbEntity
  8
0
  6
Continuous
 62
     8
370
     0
100
AcDbCircle
 10
486.6387761928
 20
298.7895982403
 30
0.0
 40
3.72309321419788
100
AcDbArc
 50
268.3389532682
 51
270.072260637
  0
ARC
  5
117
330
1F
100
AcDbEntity
  8
0
  6
Continuous
 62
     8
370
     0
100
AcDbCircle
 10
482.2330038646
 20
298.0100343241
 30
0.0
 40
3.607853033223444
100
AcDbArc
 50
269.9254480473
 51
271.7140567443
  0
ARC
  5
118
330
1F
100
AcDbEntity
  8
0
  6
Continuous
 62
     8
370
     0
100
AcDbCircle
 10
486.6387770347
 20
298.0100109673
 30
0.0
 40
3.607829676706643
100
AcDbArc
 50
268.2859044381
 51
270.074555864
  0
LINE
  5
119
330
1F
100
AcDbEntity
  8
0
  6
Continuous
 62
     8
370
     0
100
AcDbLine
 10
479.1723569594
 20
346.9417198906
 30
0.0
 11
489.6991394333
 21
346.9417198906
 31
0.0
  0
LINE
  5
11A
330
1F
100
AcDbEntity
  8
0
  6
Continuous
 62
     8
370
     0
100
AcDbLine
 10
430.9337511193
 20
348.5704865188
 30
0.0
 11
430.9337511193
 21
283.1056799458
 31
0.0
  0
LINE
  5
11B
330
1F
100
AcDbEntity
  8
0
  6
Continuous
 62
     8
370
     0
100
AcDbLine
 10
435.2407809783
 20
328.1968678002
 30
0.0
 11
435.2407809783
 21
330.8830769436
 31
0.0
  0
LINE
  5
11C
330
1F
100
AcDbEntity
  8
0
  6
Continuous
 62
     8
370
     0
100
AcDbLine
 10
435.2407809783
 20
313.1518678002
 30
0.0
 11
435.2407809783
 21
318.5242860869
 31
0.0
  0
LINE
  5
11D
330
1F
100
AcDbEntity
  8
0
  6
Continuous
 62
     8
370
     0
100
AcDbLine
 10
435.2407809783
 20
300.7930769436
 30
0.0
 11
435.2407809783
 21
303.4792860869
 31
0.0
  0
LINE
  5
11E
330
1F
100
AcDbEntity
  8
0
  6
Continuous
 62
     8
370
     0
100
AcDbLine
 10
444.3307152832
 20
300.7930769436
 30
0.0
 11
444.3307152832
 21
303.4792860869
 31
0.0
  0
LINE
  5
11F
330
1F
100
AcDbEntity
  8
0
  6
Continuous
 62
     8
370
     0
100
AcDbLine
 10
444.3307152832
 20
313.1518678002
 30
0.0
 11
444.3307152832
 21
318.5242860869
 31
0.0
  0
LINE
  5
120
330
1F
100
AcDbEntity
  8
0
  6
Continuous
 62
     8
370
     0
100
AcDbLine
 10
444.3307152832
 20
328.1968678002
 30
0.0
 11
444.3307152832
 21
330.8830769436
 31
0.0
  0
LINE
  5
121
330
1F
100
AcDbEntity
  8
0
  6
Continuous
 62
     7
370
    15
100
AcDbLine
 10
107.5342699819
 20
221.8225578801
 30
0.0
 11
107.9560146588
 21
197.6608215228
 31
0.0
  0
LINE
  5
122
330
1F
100
AcDbEntity
  8
0
  6
Continuous
 62
     7
370
    15
100
AcDbLine
 10
177.322525305
 20
197.6608215228
 30
0.0
 11
177.7442699819
 21
221.8225578801
 31
0.0
  0
LINE
  5
123
330
1F
100
AcDbEntity
  8
0
  6
Continuous
 62
     7
370
    15
100
AcDbLine
 10
257.5342699819
 20
221.8225578801
 30
0.0
 11
257.9560146587
 21
197.6608215228
 31
0.0
  0
LINE
  5
124
330
1F
100
AcDbEntity
  8
0
  6
Continuous
 62
     7
370
    15
100
AcDbLine
 10
327.322525305
 20
197.6608215228
 30
0.0
 11
327.7442699819
 21
221.8225578801
 31
0.0
  0
ARC
  5
125
330
1F
100
AcDbEntity
  8
0
  6
Continuous
 62
     7
370
    15
100
AcDbCircle
 10
109.9617091352
 20
197.6958310501
 30
0.0
 40
2.006000000000018
100
AcDbArc
 50
181.0
 51
268.4333838935
  0
ARC
  5
126
330
1F
100
AcDbEntity
  8
0
  6
Continuous
 62
     7
370
    15
100
AcDbCircle
 10
175.3168308285
 20
197.6958310501
 30
0.0
 40
2.006000000000018
100
AcDbArc
 50
271.5666161065
 51
359.0
  0
ARC
  5
127
330
1F
100
AcDbEntity
  8
0
  6
Continuous
 62
     7
370
    15
100
AcDbCircle
 10
259.9617091352
 20
197.6958310501
 30
0.0
 40
2.006000000000048
100
AcDbArc
 50
181.0
 51
268.4333838935
  0
ARC
  5
128
330
1F
100
AcDbEntity
  8
0
  6
Continuous
 62
     7
370
    15
100
AcDbCircle
 10
325.3168308285
 20
197.6958310501
 30
0.0
 40
2.006000000000048
100
AcDbArc
 50
271.5666161065
 51
359.0
  0
ARC
  5
129
330
1F
100
AcDbEntity
  8
0
  6
Continuous
 62
     7
370
    15
100
AcDbCircle
 10
142.6393027168
 20
1392.5141278801
 30
0.0
 40
1197.27107
100
AcDbArc
 50
268.4333838936
 51
269.3029255221
  0
ARC
  5
12A
330
1F
100
AcDbEntity
  8
0
  6
Continuous
 62
     7
370
    15
100
AcDbCircle
 10
142.6392372469
 20
1392.5141278801
 30
0.0
 40
1197.27107
100
AcDbArc
 50
270.6967780499
 51
271.5666161064
  0
ARC
  5
12B
330
1F
100
AcDbEntity
  8
0
  6
Continuous
 62
     7
370
    15
100
AcDbCircle
 10
292.6393027168
 20
1392.5141278801
 30
0.0
 40
1197.27107
100
AcDbArc
 50
268.4333838936
 51
269.3026434154
  0
ARC
  5
12C
330
1F
100
AcDbEntity
  8
0
  6
Continuous
 62
     7
370
    15
100
AcDbCircle
 10
292.6392372469
 20
1392.5141278801
 30
0.0
 40
1197.27107
100
AcDbArc
 50
270.6950831369
 51
271.5666161064
  0
LINE
  5
12D
330
1F
100
AcDbEntity
  8
0
  6
Continuous
 62
     7
370
    15
100
AcDbLine
 10
124.7101778331
 20
167.2635838518
 30
0.0
 11
77.3685778331
 21
166.8504399676
 31
0.0
  0
LINE
  5
12E
330
1F
100
AcDbEntity
  8
0
  6
Continuous
 62
     7
370
    15
100
AcDbLine
 10
77.3685778331
 20
117.526727736
 30
0.0
 11
124.7101778331
 21
117.1135838518
 31
0.0
  0
LINE
  5
12F
330
1F
100
AcDbEntity
  8
0
  6
Continuous
 62
     7
370
    15
100
AcDbLine
 10
309.5683621306
 20
117.1135838518
 30
0.0
 11
356.9099621306
 21
117.526727736
 31
0.0
  0
LINE
  5
130
330
1F
100
AcDbEntity
  8
0
  6
Continuous
 62
     7
370
    15
100
AcDbLine
 10
356.9099621306
 20
166.8504399676
 30
0.0
 11
309.5683621306
 21
167.2635838518
 31
0.0
  0
LINE
  5
131
330
1F
100
AcDbEntity
  8
0
  6
Continuous
 62
     7
370
    15
100
AcDbLine
 10
308.6198111349
 20
117.108880247
 30
0.0
 11
308.9207111349
 21
117.409780247
 31
0.0
  0
LINE
  5
132
330
1F
100
AcDbEntity
  8
0
  6
Continuous
 62
     7
370
    15
100
AcDbLine
 10
308.9207111349
 20
166.957980247
 30
0.0
 11
308.6198111349
 21
167.258880247
 31
0.0
  0
LINE
  5
133
330
1F
100
AcDbEntity
  8
0
  6
Continuous
 62
     7
370
    15
100
AcDbLine
 10
126.6756111349
 20
117.108880247
 30
0.0
 11
308.6198111349
 21
117.108880247
 31
0.0
  0
LINE
  5
134
330
1F
100
AcDbEntity
  8
0
  6
Continuous
 62
     7
370
    15
100
AcDbLine
 10
132.1308485349
 20
167.258880247
 30
0.0
 11
126.6756111349
 21
167.258880247
 31
0.0
  0
LINE
  5
135
330
1F
100
AcDbEntity
  8
0
  6
Continuous
 62
     7
370
    15
100
AcDbLine
 10
282.1118037745
 20
167.258880247
 30
0.0
 11
153.1668415696
 21
167.258880247
 31
0.0
  0
LINE
  5
136
330
1F
100
AcDbEntity
  8
0
  6
Continuous
 62
     7
370
    15
100
AcDbLine
 10
308.6198111349
 20
167.258880247
 30
0.0
 11
303.1475560029
 21
167.258880247
 31
0.0
  0
LINE
  5
137
330
1F
100
AcDbEntity
  8
0
  6
Continuous
 62
     7
370
    15
100
AcDbLine
 10
126.6756111349
 20
167.258880247
 30
0.0
 11
126.3747111349
 21
166.957980247
 31
0.0
  0
LINE
  5
138
330
1F
100
AcDbEntity
  8
0
  6
Continuous
 62
     7
370
    15
100
AcDbLine
 10
126.3747111349
 20
117.409780247
 30
0.0
 11
126.6756111349
 21
117.108880247
 31
0.0
  0
ARC
  5
139
330
1F
100
AcDbEntity
  8
0
  6
Continuous
 62
     7
370
    15
100
AcDbCircle
 10
-93.7657698019
 20
142.1885838518
 30
0.0
 40
451.3500000000003
100
AcDbArc
 50
356.8677870294
 51
0.0
  0
ARC
  5
13A
330
1F
100
AcDbEntity
  8
0
  6
Continuous
 62
     7
370
    15
100
AcDbCircle
 10
-93.7657698019
 20
142.1885838518
 30
0.0
 40
451.3500000000002
100
AcDbArc
 50
0.0
 51
3.1322129706
  0
ARC
  5
13B
330
1F
100
AcDbEntity
  8
0
  6
Continuous
 62
     7
370
    15
100
AcDbCircle
 10
528.0443097657
 20
142.1885838518
 30
0.0
 40
451.3500000000002
100
AcDbArc
 50
182.7498159957
 51
183.1322129706
  0
ARC
  5
13C
330
1F
100
AcDbEntity
  8
0
  6
Continuous
 62
     7
370
    15
100
AcDbCircle
 10
528.0443097657
 20
142.1885838518
 30
0.0
 40
451.3500000000001
100
AcDbArc
 50
176.8677870294
 51
177.2505780407
  0
LINE
  5
13D
330
1F
100
AcDbEntity
  8
0
  6
Continuous
 62
     7
370
    15
100
AcDbLine
 10
124.7101778331
 20
119.2197995949
 30
0.0
 11
126.3747111349
 21
119.2197995949
 31
0.0
  0
LINE
  5
13E
330
1F
100
AcDbEntity
  8
0
  6
Continuous
 62
     7
370
    15
100
AcDbLine
 10
126.3747111349
 20
165.1571995949
 30
0.0
 11
124.7101778331
 21
165.1571995949
 31
0.0
  0
LINE
  5
13F
330
1F
100
AcDbEntity
  8
0
  6
Continuous
 62
     7
370
    15
100
AcDbLine
 10
309.5683621306
 20
165.1585853626
 30
0.0
 11
308.9207111349
 21
165.1585853626
 31
0.0
  0
LINE
  5
140
330
1F
100
AcDbEntity
  8
0
  6
Continuous
 62
     7
370
    15
100
AcDbLine
 10
308.9207111349
 20
119.2211853626
 30
0.0
 11
309.5683621306
 21
119.2211853626
 31
0.0
  0
ARC
  5
141
330
1F
100
AcDbEntity
  8
0
  6
Continuous
 62
     7
370
    15
100
AcDbCircle
 10
528.0098183849
 20
142.1884414262
 30
0.0
 40
451.3499999999999
100
AcDbArc
 50
177.2634583656
 51
182.7365416344
  0
ARC
  5
142
330
1F
100
AcDbEntity
  8
0
  6
Continuous
 62
     7
370
    15
100
AcDbCircle
 10
282.6092699817
 20
191.3835510056
 30
0.0
 40
6.017999999875319
100
AcDbArc
 50
138.9730657716
 51
180.0000000009
  0
ARC
  5
143
330
1F
100
AcDbEntity
  8
0
  6
Continuous
 62
     7
370
    15
100
AcDbCircle
 10
302.669269982
 20
191.3835510056
 30
0.0
 40
6.017999999875316
100
AcDbArc
 50
359.9999999991
 51
41.2952562683
  0
ARC
  5
144
330
1F
100
AcDbEntity
  8
0
  6
Continuous
 62
     7
370
    15
100
AcDbCircle
 10
282.6092699819
 20
182.2936167006
 30
0.0
 40
6.018000000000062
100
AcDbArc
 50
180.0
 51
221.4096221093
  0
ARC
  5
145
330
1F
100
AcDbEntity
  8
0
  6
Continuous
 62
     7
370
    15
100
AcDbCircle
 10
302.6692699819
 20
182.2936167006
 30
0.0
 40
6.018000000000062
100
AcDbArc
 50
318.5903778907
 51
360.0
  0
ARC
  5
146
330
1F
100
AcDbEntity
  8
0
  6
Continuous
 62
     7
370
    15
100
AcDbCircle
 10
132.6092699817
 20
191.3835510056
 30
0.0
 40
6.017999999875338
100
AcDbArc
 50
138.9427925447
 51
180.0000000009
  0
ARC
  5
147
330
1F
100
AcDbEntity
  8
0
  6
Continuous
 62
     7
370
    15
100
AcDbCircle
 10
152.669269982
 20
191.3835510056
 30
0.0
 40
6.017999999875369
100
AcDbArc
 50
359.9999999991
 51
41.0943826157
  0
ARC
  5
148
330
1F
100
AcDbEntity
  8
0
  6
Continuous
 62
     7
370
    15
100
AcDbCircle
 10
132.6092699819
 20
182.2936167006
 30
0.0
 40
6.018000000000102
100
AcDbArc
 50
180.0
 51
221.4096221093
  0
ARC
  5
149
330
1F
100
AcDbEntity
  8
0
  6
Continuous
 62
     7
370
    15
100
AcDbCircle
 10
152.6692699819
 20
182.2936167006
 30
0.0
 40
6.018000000000081
100
AcDbArc
 50
318.5903778907
 51
360.0
  0
LINE
  5
14A
330
1F
100
AcDbEntity
  8
0
  6
Continuous
 62
     7
370
    15
100
AcDbLine
 10
132.1077699819
 20
178.3130838531
 30
0.0
 11
132.1077699819
 21
167.2491994848
 31
0.0
  0
LINE
  5
14B
330
1F
100
AcDbEntity
  8
0
  6
Continuous
 62
     7
370
    15
100
AcDbLine
 10
153.1707699819
 20
167.2572126443
 30
0.0
 11
153.1707699819
 21
178.3130838531
 31
0.0
  0
LINE
  5
14C
330
1F
100
AcDbEntity
  8
0
  6
Continuous
 62
     7
370
    15
100
AcDbLine
 10
282.1077699819
 20
178.3130838531
 30
0.0
 11
282.1077699819
 21
167.2572099799
 31
0.0
  0
LINE
  5
14D
330
1F
100
AcDbEntity
  8
0
  6
Continuous
 62
     7
370
    15
100
AcDbLine
 10
303.1707699819
 20
167.2491997327
 30
0.0
 11
303.1707699819
 21
178.3130838531
 31
0.0
  0
LINE
  5
14E
330
1F
100
AcDbEntity
  8
0
  6
Continuous
 62
     7
370
    15
100
AcDbLine
 10
276.5912699819
 20
191.3835510055
 30
0.0
 11
276.5912699819
 21
182.2936167006
 31
0.0
  0
LINE
  5
14F
330
1F
100
AcDbEntity
  8
0
  6
Continuous
 62
     7
370
    15
100
AcDbLine
 10
308.6872699819
 20
182.2936167006
 30
0.0
 11
308.6872699819
 21
191.3835510055
 31
0.0
  0
LINE
  5
150
330
1F
100
AcDbEntity
  8
0
  6
Continuous
 62
     7
370
    15
100
AcDbLine
 10
158.6872699819
 20
182.2936167006
 30
0.0
 11
158.6872699819
 21
191.3835510055
 31
0.0
  0
LINE
  5
151
330
1F
100
AcDbEntity
  8
0
  6
Continuous
 62
     7
370
    15
100
AcDbLine
 10
126.5912699819
 20
191.3835510055
 30
0.0
 11
126.5912699819
 21
182.2936167006
 31
0.0
  0
LINE
  5
152
330
1F
100
AcDbEntity
  8
0
  6
Continuous
 62
     7
370
    15
100
AcDbLine
 10
107.5342699819
 20
221.8225578801
 30
0.0
 11
177.7442699819
 21
221.8225578801
 31
0.0
  0
LINE
  5
153
330
1F
100
AcDbEntity
  8
0
  6
Continuous
 62
     7
370
    15
100
AcDbLine
 10
257.5342699819
 20
221.8225578801
 30
0.0
 11
327.7442699819
 21
221.8225578801
 31
0.0
  0
SPLINE
  5
154
330
1F
100
AcDbEntity
  8
0
  6
Continuous
 62
     7
370
    15
100
AcDbSpline
210
0.0
220
0.0
230
1.0
 70
     8
 71
     3
 72
    22
 73
    18
 74
     0
 42
0.00000001
 43
0.00000001
 40
0.0
 40
0.0
 40
0.0
 40
0.0
 40
0.0530167461029063
 40
0.1600792874815652
 40
0.2147622625386598
 40
0.3210750369550354
 40
0.3748435315334179
 40
0.4295265065905164
 40
0.5358393751582119
 40
0.5896077753399518
 40
0.6442907503970482
 40
0.697243990996132
 40
0.750567598191446
 40
0.8044648236555249
 40
0.8591477987126231
 40
0.9654606672803159
 40
1.0
 40
1.0
 40
1.0
 40
1.0
 10
142.6392699818657
 20
195.3317373121736
 30
0.0
 10
143.0435284143106
 20
195.3317373122263
 30
0.0
 10
144.2641503230675
 20
195.3317373123855
 30
0.0
 10
145.8879810581603
 20
195.3317373138723
 30
0.0
 10
147.8452326651365
 20
195.3317373169449
 30
0.0
 10
149.3482706103401
 20
195.3317373204462
 30
0.0
 10
150.7483745498375
 20
195.3317373248752
 30
0.0
 10
152.0712169369257
 20
195.3317373299072
 30
0.0
 10
153.2666370963744
 20
195.3317373357925
 30
0.0
 10
154.3057318999643
 20
195.3317373423808
 30
0.0
 10
155.0031829020539
 20
195.3317373476612
 30
0.0
 10
155.6106377248375
 20
195.3317373532128
 30
0.0
 10
156.1242313631078
 20
195.3317373589798
 30
0.0
 10
156.5482267364531
 20
195.3317373650162
 30
0.0
 10
156.9728139054997
 20
195.3317373732453
 30
0.0
 10
157.199766664561
 20
195.3317373809638
 30
0.0
 10
157.1992823354061
 20
195.3317373865473
 30
0.0
 10
157.1991635697377
 20
195.3317373879164
 30
0.0
  0
SPLINE
  5
155
330
1F
100
AcDbEntity
  8
0
  6
Continuous
 62
     7
370
    15
100
AcDbSpline
210
0.0
220
0.0
230
1.0
 70
     8
 71
     3
 72
    22
 73
    18
 74
     0
 42
0.00000001
 43
0.00000001
 40
0.0
 40
0.0
 40
0.0
 40
0.0
 40
0.0068708431861282
 40
0.1131844807965121
 40
0.1669534119418381
 40
0.2216368309908903
 40
0.3279505627533655
 40
0.3817193995012803
 40
0.4364028185503323
 40
0.5427164561607154
 40
0.59648538730604
 40
0.651168806355093
 40
0.7574824439654784
 40
0.8112513751108027
 40
0.865934794159856
 40
0.93259528939701
 40
1.0
 40
1.0
 40
1.0
 40
1.0
 10
128.0733467422759
 20
195.3317373879168
 30
0.0
 10
128.0714930844332
 20
195.3317373876447
 30
0.0
 10
128.0409574871526
 20
195.3317373831615
 30
0.0
 10
128.199407483444
 20
195.3317373765318
 30
0.0
 10
128.5493500033013
 20
195.3317373682192
 30
0.0
 10
129.0437756854928
 20
195.3317373600928
 30
0.0
 10
129.7318385998771
 20
195.3317373523185
 30
0.0
 10
130.5992068096709
 20
195.3317373450896
 30
0.0
 10
131.5813436836475
 20
195.3317373382675
 30
0.0
 10
132.7264404642669
 20
195.3317373321184
 30
0.0
 10
134.0051697550214
 20
195.3317373267881
 30
0.0
 10
135.3663563396026
 20
195.3317373220404
 30
0.0
 10
136.8385558975416
 20
195.3317373182091
 30
0.0
 10
138.3845197382038
 20
195.3317373153769
 30
0.0
 10
139.6786342662778
 20
195.3317373136436
 30
0.0
 10
141.1024371482211
 20
195.3317373124175
 30
0.0
 10
142.1251000540381
 20
195.3317373122552
 30
0.0
 10
142.6392699818657
 20
195.3317373121735
 30
0.0
  0
SPLINE
  5
156
330
1F
100
AcDbEntity
  8
0
  6
Continuous
 62
     7
370
    15
100
AcDbSpline
210
0.0
220
0.0
230
1.0
 70
     8
 71
     3
 72
    37
 73
    33
 74
     0
 42
0.00000001
 43
0.00000001
 40
0.0
 40
0.0
 40
0.0
 40
0.0
 40
0.0263807598001072
 40
0.0529446857970086
 40
0.0800863078469995
 40
0.1074275488538305
 40
0.1605674534983332
 40
0.1874675033448376
 40
0.2148087443516681
 40
0.2679486489961704
 40
0.2948486988426748
 40
0.3221899398495054
 40
0.3753298444940073
 40
0.4022298943405118
 40
0.4295711353473419
 40
0.4827110399918455
 40
0.509611089838349
 40
0.5369523308451797
 40
0.5900440407725481
 40
0.616992410525185
 40
0.6443336515320156
 40
0.6974735561765185
 40
0.7243736060230243
 40
0.751714847029855
 40
0.7781912286056657
 40
0.8048527918099051
 40
0.8318011615625422
 40
0.8591424025693727
 40
0.9122823072138755
 40
0.9391823570603804
 40
0.9665235980672106
 40
0.9999999999999999
 40
0.9999999999999999
 40
0.9999999999999999
 40
0.9999999999999999
 10
278.0674478485979
 20
195.3317373879157
 30
0.0
 10
278.0770838568488
 20
195.3317373900074
 30
0.0
 10
278.0964227778296
 20
195.3317373942054
 30
0.0
 10
278.2540451722314
 20
195.3317374005115
 30
0.0
 10
278.5091304604965
 20
195.3317374068037
 30
0.0
 10
278.9862601913308
 20
195.3317374149758
 30
0.0
 10
279.6587520864006
 20
195.3317374227869
 30
0.0
 10
280.5109426160545
 20
195.3317374300651
 30
0.0
 10
281.4789051938578
 20
195.3317374369413
 30
0.0
 10
282.6111395461462
 20
195.3317374431547
 30
0.0
 10
283.8787192672413
 20
195.3317374485564
 30
0.0
 10
285.2299914137878
 20
195.3317374533794
 30
0.0
 10
286.6940914043514
 20
195.3317374572948
 30
0.0
 10
288.2341874850304
 20
195.3317374602109
 30
0.0
 10
289.8164141881872
 20
195.331737462437
 30
0.0
 10
291.4473177085607
 20
195.3317374636128
 30
0.0
 10
293.0862950296275
 20
195.3317374637145
 30
0.0
 10
294.720359987109
 20
195.3317374630931
 30
0.0
 10
296.3342014908442
 20
195.3317374613972
 30
0.0
 10
297.8873291906886
 20
195.3317374586744
 30
0.0
 10
299.3910569647887
 20
195.3317374552731
 30
0.0
 10
300.8059047414357
 20
195.3317374508956
 30
0.0
 10
302.0979148766683
 20
195.3317374456539
 30
0.0
 10
303.0015530963163
 20
195.3317374412965
 30
0.0
 10
303.8285907679956
 20
195.3317374365745
 30
0.0
 10
304.5733876870454
 20
195.3317374315341
 30
0.0
 10
305.2412944088338
 20
195.3317374261279
 30
0.0
 10
306.0062932609283
 20
195.3317374185896
 30
0.0
 10
306.5874940057238
 20
195.3317374105774
 30
0.0
 10
306.9605399860726
 20
195.3317374022884
 30
0.0
 10
307.1779440910316
 20
195.331737395405
 30
0.0
 10
307.1687847400937
 20
195.3317373905749
 30
0.0
 10
307.1637430762175
 20
195.3317373879162
 30
0.0
  0
CIRCLE
  5
157
330
1F
100
AcDbEntity
  8
0
  6
Continuous
 62
     7
370
    15
100
AcDbCircle
 10
342.6387607879
 20
142.1885839162
 30
0.0
 40
5.947790000000026
  0
CIRCLE
  5
158
330
1F
100
AcDbEntity
  8
0
  6
Continuous
 62
     7
370
    15
100
AcDbCircle
 10
91.6397791758
 20
142.1885837875
 30
0.0
 40
5.947789999999998
  0
LINE
  5
159
330
1F
100
AcDbEntity
  8
0
  6
Continuous
 62
     7
370
    15
100
AcDbLine
 10
124.7101778331
 20
117.1135838518
 30
0.0
 11
124.7101778331
 21
167.2635838518
 31
0.0
  0
LINE
  5
15A
330
1F
100
AcDbEntity
  8
0
  6
Continuous
 62
     7
370
    15
100
AcDbLine
 10
77.3685778331
 20
117.526727736
 30
0.0
 11
77.3685778331
 21
166.8504399676
 31
0.0
  0
LINE
  5
15B
330
1F
100
AcDbEntity
  8
0
  6
Continuous
 62
     7
370
    15
100
AcDbLine
 10
356.9099621306
 20
166.8504399676
 30
0.0
 11
356.9099621306
 21
117.526727736
 31
0.0
  0
LINE
  5
15C
330
1F
100
AcDbEntity
  8
0
  6
Continuous
 62
     7
370
    15
100
AcDbLine
 10
309.5683621306
 20
167.2635838518
 30
0.0
 11
309.5683621306
 21
117.1135838518
 31
0.0
  0
LINE
  5
15D
330
1F
100
AcDbEntity
  8
0
  6
Continuous
 62
     7
370
    15
100
AcDbLine
 10
308.9207111349
 20
142.183880247
 30
0.0
 11
308.9207111349
 21
166.957980247
 31
0.0
  0
LINE
  5
15E
330
1F
100
AcDbEntity
  8
0
  6
Continuous
 62
     7
370
    15
100
AcDbLine
 10
308.9207111349
 20
117.409780247
 30
0.0
 11
308.9207111349
 21
142.183880247
 31
0.0
  0
LINE
  5
15F
330
1F
100
AcDbEntity
  8
0
  6
Continuous
 62
     7
370
    15
100
AcDbLine
 10
308.6198111349
 20
142.183880247
 30
0.0
 11
308.6198111349
 21
167.258880247
 31
0.0
  0
LINE
  5
160
330
1F
100
AcDbEntity
  8
0
  6
Continuous
 62
     7
370
    15
100
AcDbLine
 10
308.6198111349
 20
117.108880247
 30
0.0
 11
308.6198111349
 21
142.183880247
 31
0.0
  0
SPLINE
  5
161
330
1F
100
AcDbEntity
  8
0
  6
Continuous
 62
     7
370
    15
100
AcDbSpline
210
0.0
220
0.0
230
1.0
 70
     8
 71
     3
 72
    24
 73
    20
 74
     0
 42
0.00000001
 43
0.00000001
 40
0.0
 40
0.0
 40
0.0
 40
0.0
 40
0.0995948398613978
 40
0.1502017745523749
 40
0.2015826070138787
 40
0.3010689257258448
 40
0.4024934583802047
 40
0.4547855203624413
 40
0.5077610243106544
 40
0.5610822861616168
 40
0.615117122014743
 40
0.6695460980313558
 40
0.7243777162852237
 40
0.7805305773068385
 40
0.8371649139562112
 40
0.8886716020826799
 40
0.9405763828917716
 40
0.9937644947010874
 40
1.0
 40
1.0
 40
1.0
 40
1.0
 10
142.6392699818649
 20
164.9407508479689
 30
0.0
 10
143.1955447818225
 20
164.9521407333849
 30
0.0
 10
144.0344784274681
 20
164.9693181394012
 30
0.0
 10
145.1334047502495
 20
165.0726043283701
 30
0.0
 10
146.2068339723985
 20
165.2078970680033
 30
0.0
 10
147.4925624672737
 20
165.4376015162384
 30
0.0
 10
148.6736028047921
 20
165.7202015278439
 30
0.0
 10
149.5541570932318
 20
165.9652651566278
 30
0.0
 10
150.1832068497847
 20
166.1560671952187
 30
0.0
 10
150.7679017059565
 20
166.3467771851867
 30
0.0
 10
151.3021610876073
 20
166.5320261270964
 30
0.0
 10
151.7808861843738
 20
166.7067412165959
 30
0.0
 10
152.2002421750765
 20
166.8663926018899
 30
0.0
 10
152.5540775333927
 20
167.0058320462284
 30
0.0
 10
152.8256771948606
 20
167.1157828087974
 30
0.0
 10
153.0195764044003
 20
167.1957499508041
 30
0.0
 10
153.1319201454929
 20
167.2426114073433
 30
0.0
 10
153.180229544325
 20
167.262871217313
 30
0.0
 10
153.1681129966981
 20
167.2577675927689
 30
0.0
 10
153.1668415696021
 20
167.2572320535434
 30
0.0
  0
SPLINE
  5
162
330
1F
100
AcDbEntity
  8
0
  6
Continuous
 62
     7
370
    15
100
AcDbSpline
210
0.0
220
0.0
230
1.0
 70
     8
 71
     3
 72
    24
 73
    20
 74
     0
 42
0.00000001
 43
0.00000001
 40
0.0
 40
0.0
 40
0.0
 40
0.0
 40
0.0220983938364669
 40
0.0732323269778572
 40
0.1251689665822933
 40
0.2222824188428708
 40
0.3213292887377119
 40
0.4229205302424138
 40
0.4743947281361272
 40
0.5265178654758691
 40
0.5804495224268906
 40
0.6347491527936674
 40
0.6902344723157289
 40
0.7461467105369529
 40
0.799602874752821
 40
0.8534802367350001
 40
0.9087503656901935
 40
0.9645291242370663
 40
1.0
 40
1.0
 40
1.0
 40
1.0
 10
132.1308485348972
 20
167.2492120374512
 30
0.0
 10
132.1232163527938
 20
167.2524155414645
 30
0.0
 10
132.0979239057731
 20
167.2630317000464
 30
0.0
 10
132.1739769976699
 20
167.2311608101961
 30
0.0
 10
132.3398778716811
 20
167.1621557634842
 30
0.0
 10
132.7207286922369
 20
167.006143104003
 30
0.0
 10
133.4062748931658
 20
166.7383960005456
 30
0.0
 10
134.1742378118253
 20
166.4600168337888
 30
0.0
 10
134.9008190939039
 20
166.218226405999
 30
0.0
 10
135.5089511563727
 20
166.0288955331048
 30
0.0
 10
136.1768185257002
 20
165.8372262783799
 30
0.0
 10
136.9058295062572
 20
165.6479717838033
 30
0.0
 10
137.6879223198655
 20
165.468614630843
 30
0.0
 10
138.5060325878654
 20
165.3081591388458
 30
0.0
 10
139.3497551241077
 20
165.1721748624713
 30
0.0
 10
140.2174374060882
 20
165.0635019771355
 30
0.0
 10
141.1189589625377
 20
164.9856820652908
 30
0.0
 10
141.9324596962259
 20
164.9462474011069
 30
0.0
 10
142.4414237151834
 20
164.9422894114845
 30
0.0
 10
142.6392699818649
 20
164.9407508479689
 30
0.0
  0
LINE
  5
163
330
1F
100
AcDbEntity
  8
0
  6
Continuous
 62
     7
370
    15
100
AcDbLine
 10
126.6756111349
 20
142.183880247
 30
0.0
 11
126.6756111349
 21
167.258880247
 31
0.0
  0
LINE
  5
164
330
1F
100
AcDbEntity
  8
0
  6
Continuous
 62
     7
370
    15
100
AcDbLine
 10
126.6756111349
 20
117.108880247
 30
0.0
 11
126.6756111349
 21
142.183880247
 31
0.0
  0
SPLINE
  5
165
330
1F
100
AcDbEntity
  8
0
  6
Continuous
 62
     7
370
    15
100
AcDbSpline
210
0.0
220
0.0
230
1.0
 70
     8
 71
     3
 72
    37
 73
    33
 74
     0
 42
0.00000001
 43
0.00000001
 40
0.0
 40
0.0
 40
0.0
 40
0.0
 40
0.0236108124792026
 40
0.0723578920241358
 40
0.122133261604999
 40
0.1716877753662667
 40
0.2221801834885397
 40
0.2485669742245799
 40
0.2753049272325713
 40
0.3022209425511675
 40
0.3295053210777174
 40
0.3566912148636536
 40
0.3840817274143096
 40
0.4121494477151696
 40
0.4404667984347682
 40
0.4658489368216095
 40
0.5175969337258527
 40
0.5440400842034351
 40
0.5919278544996205
 40
0.6407752851595013
 40
0.6907612360819388
 40
0.7160803270367012
 40
0.7417100152295149
 40
0.7685793836888438
 40
0.7956300275644436
 40
0.8232617474023677
 40
0.8511009125777299
 40
0.8779755036356076
 40
0.9050569980693727
 40
0.9328181213824936
 40
0.9608257977499763
 40
1.0
 40
1.0
 40
1.0
 40
1.0
 10
282.11180377453
 20
167.2571878476029
 30
0.0
 10
282.1162500607547
 20
167.2553359934656
 30
0.0
 10
282.1298761864475
 20
167.2496607858957
 30
0.0
 10
282.3489810885191
 20
167.1579381356373
 30
0.0
 10
282.8459902385671
 20
166.9559971716699
 30
0.0
 10
283.5886173123047
 20
166.6699396313144
 30
0.0
 10
284.3958326949913
 20
166.3832927314208
 30
0.0
 10
285.1583263870157
 20
166.1362853065126
 30
0.0
 10
285.7981891342396
 20
165.9437577208459
 30
0.0
 10
286.4934531425965
 20
165.7524773324889
 30
0.0
 10
287.2377658044704
 20
165.5689309371591
 30
0.0
 10
288.0278523350026
 20
165.3986932700172
 30
0.0
 10
288.8626770094211
 20
165.2467843273963
 30
0.0
 10
289.7415519991005
 20
165.118650489491
 30
0.0
 10
290.625302758814
 20
165.02407538499
 30
0.0
 10
291.7866354129974
 20
164.9442044728895
 30
0.0
 10
292.9488743516837
 20
164.929877385931
 30
0.0
 10
294.3480502129907
 20
164.9934356344297
 30
0.0
 10
295.6901264128526
 20
165.1272372438276
 30
0.0
 10
297.2043694288177
 20
165.3790270059016
 30
0.0
 10
298.3860523108783
 20
165.6480321935793
 30
0.0
 10
299.269246704765
 20
165.8840007280878
 30
0.0
 10
299.9073878999726
 20
166.0705813629478
 30
0.0
 10
300.5110726598976
 20
166.2614062313975
 30
0.0
 10
301.0751361710646
 20
166.4519951784528
 30
0.0
 10
301.5858863370052
 20
166.634542246616
 30
0.0
 10
302.0309896133257
 20
166.8012457465249
 30
0.0
 10
302.4057689134536
 20
166.9469119867507
 30
0.0
 10
302.7115414781962
 20
167.0692875236375
 30
0.0
 10
302.9433041425779
 20
167.1641056383799
 30
0.0
 10
303.1329450044563
 20
167.2429996851154
 30
0.0
 10
303.1421743246285
 20
167.2468880459325
 30
0.0
 10
303.1475560028802
 20
167.2491553751022
 30
0.0
  0
LINE
  5
166
330
1F
100
AcDbEntity
  8
0
  6
Continuous
 62
     7
370
    15
100
AcDbLine
 10
126.3747111349
 20
142.183880247
 30
0.0
 11
126.3747111349
 21
166.957980247
 31
0.0
  0
LINE
  5
167
330
1F
100
AcDbEntity
  8
0
  6
Continuous
 62
     7
370
    15
100
AcDbLine
 10
126.3747111349
 20
117.409780247
 30
0.0
 11
126.3747111349
 21
142.183880247
 31
0.0
  0
SPLINE
  5
168
330
1F
100
AcDbEntity
  8
0
  6
Continuous
 62
     7
370
    15
100
AcDbSpline
210
0.0
220
0.0
230
1.0
 70
     8
 71
     3
 72
    42
 73
    38
 74
     0
 42
0.00000001
 43
0.00000001
 40
0.0
 40
0.0
 40
0.0
 40
0.0
 40
0.0025464609906159
 40
0.0296832887711208
 40
0.0570197002480259
 40
0.0833958001734448
 40
0.1370441423050191
 40
0.1643805537787377
 40
0.1907566537021747
 40
0.2444049958296081
 40
0.2717414073011361
 40
0.2981175072244803
 40
0.3517658493516072
 40
0.3791022608228968
 40
0.405478360748084
 40
0.4591267028788854
 40
0.4864631143519997
 40
0.5128392142801534
 40
0.5393984480507718
 40
0.5665352758306831
 40
0.5938716873068804
 40
0.6202477872378259
 40
0.6468070210112675
 40
0.6739438487941215
 40
0.7012802602733115
 40
0.7276563602056507
 40
0.7542155939805153
 40
0.7813524217649095
 40
0.8086888332456899
 40
0.8350649331774139
 40
0.8616241669516783
 40
0.8887609947355357
 40
0.916097406215808
 40
0.9424735061451727
 40
0.9690327399170705
 40
0.9961695676985431
 40
1.0
 40
1.0
 40
1.0
 40
1.0
 10
77.2143262831711
 20
120.535278291604
 30
0.0
 10
77.21432625058644
 20
120.5331455701143
 30
0.0
 10
77.2143258707574
 20
120.5082851115871
 30
0.0
 10
77.21432509087323
 20
120.6070445236116
 30
0.0
 10
77.21432396156477
 20
120.8435546649112
 30
0.0
 10
77.21432240815767
 20
121.3803179666233
 30
0.0
 10
77.21432079924476
 20
122.2092962712563
 30
0.0
 10
77.21431917239127
 20
123.3209111788807
 30
0.0
 10
77.21431754395935
 20
124.6103831428771
 30
0.0
 10
77.2143159266463
 20
126.1564202572816
 30
0.0
 10
77.21431436164747
 20
127.9227833305702
 30
0.0
 10
77.21431284041763
 20
129.8237979985873
 30
0.0
 10
77.21431139763432
 20
131.9107750908306
 30
0.0
 10
77.2143100708358
 20
134.1330469156232
 30
0.0
 10
77.21430882834449
 20
136.4311940336498
 30
0.0
 10
77.21430772273155
 20
138.8239302372294
 30
0.0
 10
77.21430678376339
 20
141.2513760640611
 30
0.0
 10
77.21430616781144
 20
143.0734119696308
 30
0.0
 10
77.21430564266434
 20
144.8846303127945
 30
0.0
 10
77.2143052064844
 20
146.6984560157688
 30
0.0
 10
77.21430487092742
 20
148.4755832005779
 30
0.0
 10
77.2143046377247
 20
150.195257146665
 30
0.0
 10
77.21430450495134
 20
151.8549319865269
 30
0.0
 10
77.21430447403738
 20
153.4654983719823
 30
0.0
 10
77.21430454813752
 20
154.9908539678924
 30
0.0
 10
77.2143047239039
 20
156.4144221755384
 30
0.0
 10
77.21430499849419
 20
157.7354009539966
 30
0.0
 10
77.21430537632563
 20
158.9611400935894
 30
0.0
 10
77.21430585173128
 20
160.0627446918514
 30
0.0
 10
77.21430641664423
 20
161.0297273833138
 30
0.0
 10
77.21430706765808
 20
161.8630193500785
 30
0.0
 10
77.2143078115603
 20
162.5659689757669
 30
0.0
 10
77.21430863495112
 20
163.1187651474677
 30
0.0
 10
77.21430952430289
 20
163.5232540363214
 30
0.0
 10
77.21431048215305
 20
163.7632257969449
 30
0.0
 10
77.21431120024336
 20
163.8666098643286
 30
0.0
 10
77.21431161374679
 20
163.8415932800264
 30
0.0
 10
77.21431166489425
 20
163.8384989044722
 30
0.0
  0
SPLINE
  5
169
330
1F
100
AcDbEntity
  8
0
  6
Continuous
 62
     7
370
    15
100
AcDbSpline
210
0.0
220
0.0
230
1.0
 70
     8
 71
     3
 72
    34
 73
    30
 74
     0
 42
0.00000001
 43
0.00000001
 40
0.0
 40
0.0
 40
0.0
 40
0.0
 40
0.0101839707203316
 40
0.0203577798392028
 40
0.0305597664427196
 40
0.0408276875245582
 40
0.0511981211689891
 40
0.0617059345963204
 40
0.0920327062692919
 40
0.1236635961769491
 40
0.1545024458522566
 40
0.1866689656636633
 40
0.2497014961245387
 40
0.312119761387488
 40
0.3756237360389759
 40
0.4393446122139621
 40
0.5020370603771656
 40
0.5646001550619135
 40
0.6284029109816284
 40
0.6921178686076681
 40
0.7547244549897009
 40
0.8171270414309233
 40
0.8489138342592857
 40
0.8793842041984026
 40
0.9102454410560722
 40
0.9398535167121408
 40
0.9601720033448418
 40
0.980128660872291
 40
1.0
 40
1.0
 40
1.0
 40
1.0
 10
302.8763883538422
 20
191.3835510055249
 30
0.0
 10
302.8768640558637
 20
191.4319658172413
 30
0.0
 10
302.8778149852495
 20
191.5287471322064
 30
0.0
 10
302.8855554818724
 20
191.6733411790537
 30
0.0
 10
302.8979315685098
 20
191.8169591391065
 30
0.0
 10
302.9153729503573
 20
191.9594609958377
 30
0.0
 10
302.9377234990359
 20
192.1007225959971
 30
0.0
 10
302.9818875142192
 20
192.3276784871316
 30
0.0
 10
303.0635752342848
 20
192.6329698357832
 30
0.0
 10
303.1983288981756
 20
192.984278251682
 30
0.0
 10
303.3586407174933
 20
193.3012723579595
 30
0.0
 10
303.595895816372
 20
193.6691758607096
 30
0.0
 10
303.9248696960638
 20
194.0362007255235
 30
0.0
 10
304.3464608599287
 20
194.3521138821553
 30
0.0
 10
304.7854603329877
 20
194.5647328303932
 30
0.0
 10
305.2334987709077
 20
194.6857664027808
 30
0.0
 10
305.6827128684993
 20
194.7234065624646
 30
0.0
 10
306.132214845711
 20
194.6806348839515
 30
0.0
 10
306.5801576532288
 20
194.5540544463743
 30
0.0
 10
307.0194097396641
 20
194.3346397747567
 30
0.0
 10
307.4391756609181
 20
194.0113404921136
 30
0.0
 10
307.764434537956
 20
193.6388284278273
 30
0.0
 10
307.9965751702377
 20
193.2690134019361
 30
0.0
 10
308.1524410960875
 20
192.9529352782798
 30
0.0
 10
308.28210675117
 20
192.6052882917278
 30
0.0
 10
308.3715896423093
 20
192.2632511836665
 30
0.0
 10
308.425484102888
 20
191.9484567302799
 30
0.0
 10
308.4553088847942
 20
191.6675217363886
 30
0.0
 10
308.4590096106353
 20
191.478072638326
 30
0.0
 10
308.4608560097611
 20
191.3835510055249
 30
0.0
  0
SPLINE
  5
16A
330
1F
100
AcDbEntity
  8
0
  6
Continuous
 62
     7
370
    15
100
AcDbSpline
210
0.0
220
0.0
230
1.0
 70
     8
 71
     3
 72
    34
 73
    30
 74
     0
 42
0.00000001
 43
0.00000001
 40
0.0
 40
0.0
 40
0.0
 40
0.0
 40
0.0102436354304557
 40
0.0204882363177383
 40
0.0307731700840709
 40
0.0411373572408127
 40
0.0516188027447441
 40
0.0622541783753256
 40
0.0927157460901439
 40
0.1246808247157937
 40
0.1551799782832502
 40
0.1872228984684476
 40
0.2496668338799992
 40
0.3134441107046496
 40
0.3776841904583966
 40
0.4408749461216003
 40
0.5027365256510183
 40
0.5662850802360693
 40
0.6304752486803991
 40
0.694126721991886
 40
0.7563617984154705
 40
0.8183780767692811
 40
0.8500594693880472
 40
0.8802067043038331
 40
0.9109406958193328
 40
0.9402519345262174
 40
0.9604662120732317
 40
0.9802908616054364
 40
1.0
 40
1.0
 40
1.0
 40
1.0
 10
287.0548023259461
 20
191.3835510055249
 30
0.0
 10
287.0557754867133
 20
191.4322495437911
 30
0.0
 10
287.0577218999675
 20
191.5296512101332
 30
0.0
 10
287.0734929220467
 20
191.6752442552232
 30
0.0
 10
287.0986516977984
 20
191.8200037919552
 30
0.0
 10
287.1340883879591
 20
191.963788398188
 30
0.0
 10
287.179525478338
 20
192.1064719282288
 30
0.0
 10
287.2690351455017
 20
192.3348422236857
 30
0.0
 10
287.4348699703514
 20
192.6421278062553
 30
0.0
 10
287.7062136179922
 20
192.9927596942906
 30
0.0
 10
288.0277427478608
 20
193.3080739307876
 30
0.0
 10
288.4986972376415
 20
193.6720501670565
 30
0.0
 10
289.1594266792246
 20
194.0403687572534
 30
0.0
 10
290.0101746856799
 20
194.3572398742666
 30
0.0
 10
290.8960142346372
 20
194.5687143399583
 30
0.0
 10
291.789252564117
 20
194.6873951162704
 30
0.0
 10
292.6861437137027
 20
194.7232043909807
 30
0.0
 10
293.5874746138227
 20
194.6788295748587
 30
0.0
 10
294.4893181233267
 20
194.5489357018346
 30
0.0
 10
295.3669758903411
 20
194.3263811511863
 30
0.0
 10
296.2014255158619
 20
194.0011340384941
 30
0.0
 10
296.8468088991779
 20
193.6280306743994
 30
0.0
 10
297.3066579534096
 20
193.2586689342966
 30
0.0
 10
297.6150010165009
 20
192.9432014538386
 30
0.0
 10
297.8710334314209
 20
192.5974445900333
 30
0.0
 10
298.0477404807029
 20
192.2571284734695
 30
0.0
 10
298.154169265054
 20
191.9444941425647
 30
0.0
 10
298.2128943106659
 20
191.6653459604376
 30
0.0
 10
298.2201302428068
 20
191.4772995103698
 30
0.0
 10
298.2237376377835
 20
191.3835510055249
 30
0.0
  0
SPLINE
  5
16B
330
1F
100
AcDbEntity
  8
0
  6
Continuous
 62
     7
370
    15
100
AcDbSpline
210
0.0
220
0.0
230
1.0
 70
     8
 71
     3
 72
    34
 73
    30
 74
     0
 42
0.00000001
 43
0.00000001
 40
0.0
 40
0.0
 40
0.0
 40
0.0
 40
0.0101839707203913
 40
0.0203577798393026
 40
0.0305597664428373
 40
0.0408276875246766
 40
0.0511981211690858
 40
0.0617059345963794
 40
0.0920327062721177
 40
0.1236635961771282
 40
0.1545024458572563
 40
0.1866689656638957
 40
0.2497014961248268
 40
0.3121197613878358
 40
0.375623736039367
 40
0.4393446122143879
 40
0.5020370603776151
 40
0.5646001550624141
 40
0.6284029109821707
 40
0.6921178686082379
 40
0.754724454990288
 40
0.8171270414315402
 40
0.8489138342596435
 40
0.879384204199059
 40
0.9102454410581283
 40
0.9398535167124868
 40
0.9601720033452315
 40
0.9801286608725683
 40
0.9999999999999999
 40
0.9999999999999999
 40
0.9999999999999999
 40
0.9999999999999999
 10
276.8176839539686
 20
191.3835510055249
 30
0.0
 10
276.8181670497243
 20
191.4319658172416
 30
0.0
 10
276.8191327592011
 20
191.5287471322072
 30
0.0
 10
276.8269325434816
 20
191.673341179055
 30
0.0
 10
276.8393337508198
 20
191.8169591391082
 30
0.0
 10
276.8567571357198
 20
191.9594609958393
 30
0.0
 10
276.8790535994056
 20
192.1007225959984
 30
0.0
 10
276.9231330189892
 20
192.3276784871444
 30
0.0
 10
277.0049489895321
 20
192.6329698358005
 30
0.0
 10
277.1395860713552
 20
192.9842782517095
 30
0.0
 10
277.3000895958306
 20
193.301272357974
 30
0.0
 10
277.53711061742
 20
193.6691758607234
 30
0.0
 10
277.8661491438899
 20
194.0362007255247
 30
0.0
 10
278.2878286851517
 20
194.3521138821567
 30
0.0
 10
278.7267442142538
 20
194.5647328303942
 30
0.0
 10
279.1746572366994
 20
194.6857664027813
 30
0.0
 10
279.6240766538272
 20
194.7234065624646
 30
0.0
 10
280.0733680766851
 20
194.6806348839508
 30
0.0
 10
280.5214160240731
 20
194.554054446373
 30
0.0
 10
280.960821793571
 20
194.334639774754
 30
0.0
 10
281.3804555566198
 20
194.0113404921113
 30
0.0
 10
281.7056832788919
 20
193.6388284278193
 30
0.0
 10
281.9379852931609
 20
193.2690134019375
 30
0.0
 10
282.0936444852018
 20
192.9529352782684
 30
0.0
 10
282.2234399165457
 20
192.605288291714
 30
0.0
 10
282.3128937770362
 20
192.2632511836547
 30
0.0
 10
282.3669640467384
 20
191.948456730275
 30
0.0
 10
282.3967034881614
 20
191.6675217363854
 30
0.0
 10
282.4003381646788
 20
191.4780726383246
 30
0.0
 10
282.4021516098873
 20
191.3835510055249
 30
0.0
  0
LINE
  5
16C
330
1F
100
AcDbEntity
  8
0
  6
Continuous
 62
     7
370
    15
100
AcDbLine
 10
278.0957699819
 20
178.3130838531
 30
0.0
 11
307.1827699819
 21
178.3130838531
 31
0.0
  0
SPLINE
  5
16D
330
1F
100
AcDbEntity
  8
0
  6
Continuous
 62
     7
370
    15
100
AcDbSpline
210
0.0
220
0.0
230
1.0
 70
     8
 71
     3
 72
    34
 73
    30
 74
     0
 42
0.00000001
 43
0.00000001
 40
0.0
 40
0.0
 40
0.0
 40
0.0
 40
0.0102436354293118
 40
0.0204882363159104
 40
0.0307731700820108
 40
0.0411373572389541
 40
0.0516188027434932
 40
0.0622541783750653
 40
0.0927157460801861
 40
0.1246808247150702
 40
0.1551799782755466
 40
0.1872228984674194
 40
0.2496668338787207
 40
0.313444110703025
 40
0.377684190456312
 40
0.4408749461190322
 40
0.5027365256481476
 40
0.5662850802328049
 40
0.630475248676681
 40
0.6941267219877626
 40
0.7563617984110652
 40
0.8183780767645896
 40
0.850059469380231
 40
0.8802067042990486
 40
0.9109406958049919
 40
0.9402519345235202
 40
0.9604662120624201
 40
0.980290861595539
 40
0.9999999999999999
 40
0.9999999999999999
 40
0.9999999999999999
 40
0.9999999999999999
 10
298.2237376377836
 20
182.2936167005603
 30
0.0
 10
298.2227644770134
 20
182.2449181623
 30
0.0
 10
298.2208180637529
 20
182.1475164959677
 30
0.0
 10
298.2050470416665
 20
182.0019234508897
 30
0.0
 10
298.1798882659093
 20
181.8571639141636
 30
0.0
 10
298.1444515757449
 20
181.7133793079304
 30
0.0
 10
298.0990144853627
 20
181.5706957778833
 30
0.0
 10
298.0095048182241
 20
181.3423254824601
 30
0.0
 10
297.8436699933577
 20
181.0350398999005
 30
0.0
 10
297.5723263457541
 20
180.6844080118885
 30
0.0
 10
297.2507972158743
 20
180.369093775347
 30
0.0
 10
296.7798427260839
 20
180.0051175391026
 30
0.0
 10
296.1191132844912
 20
179.6367989488834
 30
0.0
 10
295.2683652780465
 20
179.3199278318764
 30
0.0
 10
294.3825257291051
 20
179.1084533661839
 30
0.0
 10
293.4892873996397
 20
178.9897725898705
 30
0.0
 10
292.5923962500683
 20
178.953963315157
 30
0.0
 10
291.6910653499621
 20
178.9983381312745
 30
0.0
 10
290.7892218404719
 20
179.1282320042923
 30
0.0
 10
289.9115640734693
 20
179.350786554931
 30
0.0
 10
289.0771144479593
 20
179.6760336676121
 30
0.0
 10
288.4317310646541
 20
180.0491370316788
 30
0.0
 10
287.9718820104282
 20
180.4184987717751
 30
0.0
 10
287.6635389473488
 20
180.7339662521753
 30
0.0
 10
287.4075065324123
 20
181.079723115993
 30
0.0
 10
287.2307994831168
 20
181.4200392325115
 30
0.0
 10
287.1243706987065
 20
181.7326735634158
 30
0.0
 10
287.0656456530922
 20
182.0118217455533
 30
0.0
 10
287.0584097209328
 20
182.1998681956697
 30
0.0
 10
287.054802325946
 20
182.2936167005603
 30
0.0
  0
SPLINE
  5
16E
330
1F
100
AcDbEntity
  8
0
  6
Continuous
 62
     7
370
    15
100
AcDbSpline
210
0.0
220
0.0
230
1.0
 70
     8
 71
     3
 72
    34
 73
    30
 74
     0
 42
0.00000001
 43
0.00000001
 40
0.0
 40
0.0
 40
0.0
 40
0.0
 40
0.0101839707191862
 40
0.0203577798373605
 40
0.0305597664406417
 40
0.0408276875227195
 40
0.0511981211678668
 40
0.0617059345963922
 40
0.0920327062707718
 40
0.1236635961770059
 40
0.1545024458580563
 40
0.1866689656635772
 40
0.2497014961244237
 40
0.3121197613870662
 40
0.375623736038005
 40
0.4393446122124486
 40
0.5020370603752222
 40
0.5646001550599404
 40
0.6284029109794813
 40
0.6921178686053102
 40
0.7547244549872173
 40
0.817127041428353
 40
0.848913834258415
 40
0.8793842041958211
 40
0.9102454410612614
 40
0.9398535167109342
 40
0.9601720033512868
 40
0.9801286608791576
 40
1.0
 40
1.0
 40
1.0
 40
1.0
 10
308.4608560097611
 20
182.2936167005603
 30
0.0
 10
308.4603729140047
 20
182.2452018888497
 30
0.0
 10
308.4594072045267
 20
182.1484205738942
 30
0.0
 10
308.4516074202448
 20
182.0038265270585
 30
0.0
 10
308.439206212905
 20
181.8602085670111
 30
0.0
 10
308.4217828280029
 20
181.7177067102791
 30
0.0
 10
308.3994863643141
 20
181.5764451101127
 30
0.0
 10
308.3554069447279
 20
181.3494892189675
 30
0.0
 10
308.2735909741815
 20
181.0441978703133
 30
0.0
 10
308.1389538923567
 20
180.692889454409
 30
0.0
 10
307.9784503678785
 20
180.3758953481412
 30
0.0
 10
307.7414293462917
 20
180.0079918454078
 30
0.0
 10
307.4123908198274
 20
179.6409669806102
 30
0.0
 10
306.9907112785722
 20
179.3250538239832
 30
0.0
 10
306.5517957494779
 20
179.1124348757467
 30
0.0
 10
306.1038827270404
 20
178.9914013033589
 30
0.0
 10
305.6544633099195
 20
178.9537611436732
 30
0.0
 10
305.2051718870674
 20
178.9965328221832
 30
0.0
 10
304.7571239396847
 20
179.1231132597565
 30
0.0
 10
304.3177181701911
 20
179.3425279313681
 30
0.0
 10
303.8980844071483
 20
179.6658272140035
 30
0.0
 10
303.572856684867
 20
180.0383392782809
 30
0.0
 10
303.3405546706114
 20
180.408154304167
 30
0.0
 10
303.1848954785519
 20
180.7242324278409
 30
0.0
 10
303.0551000471855
 20
181.0718794143713
 30
0.0
 10
302.9656461866983
 20
181.4139165224744
 30
0.0
 10
302.9115759170147
 20
181.7287109758735
 30
0.0
 10
302.8818364755721
 20
182.0096459697624
 30
0.0
 10
302.8782017990519
 20
182.1990950677927
 30
0.0
 10
302.8763883538423
 20
182.2936167005603
 30
0.0
  0
SPLINE
  5
16F
330
1F
100
AcDbEntity
  8
0
  6
Continuous
 62
     7
370
    15
100
AcDbSpline
210
0.0
220
0.0
230
1.0
 70
     8
 71
     3
 72
    34
 73
    30
 74
     0
 42
0.00000001
 43
0.00000001
 40
0.0
 40
0.0
 40
0.0
 40
0.0
 40
0.0101839707187686
 40
0.0203577798366865
 40
0.0305597664398731
 40
0.0408276875220175
 40
0.0511981211673892
 40
0.0617059345962902
 40
0.0920327062664188
 40
0.1236635961767588
 40
0.1545024458512614
 40
0.1866689656632594
 40
0.2497014961240242
 40
0.3121197613865927
 40
0.3756237360374921
 40
0.4393446122119183
 40
0.5020370603746822
 40
0.5646001550593479
 40
0.6284029109788548
 40
0.6921178686046607
 40
0.7547244549865442
 40
0.8171270414276183
 40
0.848913834258265
 40
0.8793842041951706
 40
0.9102454410601222
 40
0.9398535167104926
 40
0.9601720033435397
 40
0.9801286608716201
 40
1.0
 40
1.0
 40
1.0
 40
1.0
 10
282.4021516098874
 20
182.2936167005603
 30
0.0
 10
282.4016759078661
 20
182.2452018888517
 30
0.0
 10
282.4007249784808
 20
182.1484205738994
 30
0.0
 10
282.3929844818564
 20
182.0038265270674
 30
0.0
 10
282.3806083952162
 20
181.8602085670213
 30
0.0
 10
282.3631670133653
 20
181.7177067102884
 30
0.0
 10
282.3408164646823
 20
181.5764451101189
 30
0.0
 10
282.2966524495014
 20
181.349489218988
 30
0.0
 10
282.2149647294299
 20
181.0441978703375
 30
0.0
 10
282.0802110655401
 20
180.6928894544483
 30
0.0
 10
281.919899246225
 20
180.3758953481618
 30
0.0
 10
281.6826441473405
 20
180.0079918454263
 30
0.0
 10
281.3536702676553
 20
179.6409669806121
 30
0.0
 10
280.9320791037957
 20
179.3250538239852
 30
0.0
 10
280.4930796307451
 20
179.112434875748
 30
0.0
 10
280.0450411928331
 20
178.9914013033597
 30
0.0
 10
279.5958270952484
 20
178.9537611436732
 30
0.0
 10
279.1463251180425
 20
178.9965328221825
 30
0.0
 10
278.69838231053
 20
179.1231132597545
 30
0.0
 10
278.2591302240994
 20
179.3425279313659
 30
0.0
 10
277.8393643028498
 20
179.6658272139959
 30
0.0
 10
277.5141054258075
 20
180.0383392782846
 30
0.0
 10
277.2819647935274
 20
180.4081543041462
 30
0.0
 10
277.1260988676625
 20
180.7242324278318
 30
0.0
 10
276.9964332125798
 20
181.071879414374
 30
0.0
 10
276.9069503214353
 20
181.4139165224333
 30
0.0
 10
276.8530558608573
 20
181.7287109757988
 30
0.0
 10
276.8232310789447
 20
182.0096459696911
 30
0.0
 10
276.8195303530975
 20
182.1990950677573
 30
0.0
 10
276.8176839539686
 20
182.2936167005603
 30
0.0
  0
SPLINE
  5
170
330
1F
100
AcDbEntity
  8
0
  6
Continuous
 62
     7
370
    15
100
AcDbSpline
210
0.0
220
0.0
230
1.0
 70
     8
 71
     3
 72
    34
 73
    30
 74
     0
 42
0.00000001
 43
0.00000001
 40
0.0
 40
0.0
 40
0.0
 40
0.0
 40
0.0102436354286849
 40
0.0204882363148971
 40
0.0307731700808749
 40
0.0411373572379781
 40
0.0516188027429777
 40
0.0622541783753216
 40
0.0927157460861407
 40
0.1246808247159635
 40
0.1551799782847852
 40
0.1872228984688102
 40
0.249666833880508
 40
0.3134441107052881
 40
0.3776841904591403
 40
0.4408749461224315
 40
0.5027365256519664
 40
0.566285080237135
 40
0.6304752486815599
 40
0.694126721993146
 40
0.756361798416857
 40
0.8183780767708314
 40
0.8500594693940434
 40
0.8802067043053804
 40
0.9109406958167392
 40
0.9402519345270594
 40
0.9604662120675423
 40
0.9802908615995269
 40
1.0
 40
1.0
 40
1.0
 40
1.0
 10
152.8763883538423
 20
191.3835510055249
 30
0.0
 10
152.8768721554054
 20
191.4322495437827
 30
0.0
 10
152.8778398041296
 20
191.5296512101113
 30
0.0
 10
152.8857034712758
 20
191.6752442551862
 30
0.0
 10
152.8982749006469
 20
191.8200037919131
 30
0.0
 10
152.9160017247363
 20
191.9637883981509
 30
0.0
 10
152.9387406535389
 20
192.1064719282068
 30
0.0
 10
152.9835187958511
 20
192.3348422236636
 30
0.0
 10
153.0663357996973
 20
192.6421278062433
 30
0.0
 10
153.2021089144859
 20
192.9927596942813
 30
0.0
 10
153.3628471916445
 20
193.3080739308023
 30
0.0
 10
153.5983689079059
 20
193.6720501670574
 30
0.0
 10
153.9285730900868
 20
194.0403687572579
 30
0.0
 10
154.3540615064097
 20
194.3572398742687
 30
0.0
 10
154.7971716211306
 20
194.5687143399601
 30
0.0
 10
155.2435866404434
 20
194.6873951162713
 30
0.0
 10
155.6921202464571
 20
194.7232043909807
 30
0.0
 10
156.1428618463894
 20
194.6788295748575
 30
0.0
 10
156.5936429212952
 20
194.5489357018317
 30
0.0
 10
157.0324064262296
 20
194.3263811511821
 30
0.0
 10
157.4497111213047
 20
194.0011340384841
 30
0.0
 10
157.7724145443837
 20
193.6280306743851
 30
0.0
 10
158.0022575299145
 20
193.2586689342566
 30
0.0
 10
158.1565351650941
 20
192.9432014538237
 30
0.0
 10
158.2844907234457
 20
192.5974445900298
 30
0.0
 10
158.3728476795683
 20
192.2571284735024
 30
0.0
 10
158.4259873577315
 20
191.9444941426162
 30
0.0
 10
158.455392346282
 20
191.6653459604915
 30
0.0
 10
158.4590383395961
 20
191.4772995103976
 30
0.0
 10
158.460856009761
 20
191.3835510055249
 30
0.0
  0
SPLINE
  5
171
330
1F
100
AcDbEntity
  8
0
  6
Continuous
 62
     7
370
    15
100
AcDbSpline
210
0.0
220
0.0
230
1.0
 70
     8
 71
     3
 72
    22
 73
    18
 74
     0
 42
0.00000001
 43
0.00000001
 40
0.0
 40
0.0
 40
0.0
 40
0.0
 40
0.0419748895807852
 40
0.0838882729949276
 40
0.1257908881270457
 40
0.1902103340013142
 40
0.2540400555479347
 40
0.382028402138397
 40
0.5077426131969204
 40
0.6329608069202481
 40
0.6967652307076018
 40
0.7579203677365751
 40
0.81987081222213
 40
0.8792962455090799
 40
0.9200761609852453
 40
0.9601245962717834
 40
1.0
 40
1.0
 40
1.0
 40
1.0
 10
142.6392699818648
 20
194.7101256703035
 30
0.0
 10
142.7390327335216
 20
194.709262096103
 30
0.0
 10
142.9384120536173
 20
194.7075362131048
 30
0.0
 10
143.2371137561755
 20
194.6935200770559
 30
0.0
 10
143.5884541687479
 20
194.6670499323954
 30
0.0
 10
143.9903719893468
 20
194.6207297556612
 30
0.0
 10
144.5913401273327
 20
194.5211842674804
 30
0.0
 10
145.3256399586369
 20
194.3395631983954
 30
0.0
 10
146.1690111518986
 20
194.0168138455528
 30
0.0
 10
146.8227082725532
 20
193.6443252552526
 30
0.0
 10
147.2895559657418
 20
193.2742105886669
 30
0.0
 10
147.602863544076
 20
192.9576081255503
 30
0.0
 10
147.8639068329375
 20
192.6091733619229
 30
0.0
 10
148.0440079673894
 20
192.2661518520752
 30
0.0
 10
148.1526975540181
 20
191.9503606262433
 30
0.0
 10
148.2126676845793
 20
191.6684879786509
 30
0.0
 10
148.2200529829964
 20
191.4783928140401
 30
0.0
 10
148.2237376377835
 20
191.3835510055249
 30
0.0
  0
SPLINE
  5
172
330
1F
100
AcDbEntity
  8
0
  6
Continuous
 62
     7
370
    15
100
AcDbSpline
210
0.0
220
0.0
230
1.0
 70
     8
 71
     3
 72
    24
 73
    20
 74
     0
 42
0.00000001
 43
0.00000001
 40
0.0
 40
0.0
 40
0.0
 40
0.0
 40
0.0202722082440573
 40
0.0405292034146695
 40
0.060846783542963
 40
0.0812995356740434
 40
0.1019596687054109
 40
0.1228959757410528
 40
0.1834686160001287
 40
0.2465832355182017
 40
0.3072887160116355
 40
0.3706308374852151
 40
0.4940972471706333
 40
0.6203986198862125
 40
0.7485514964864096
 40
0.8120600485682788
 40
0.8761428608827769
 40
0.9380859446778099
 40
1.0
 40
1.0
 40
1.0
 40
1.0
 10
137.0548023259461
 20
191.3835510055249
 30
0.0
 10
137.0557535601167
 20
191.4317431413995
 30
0.0
 10
137.0576553146139
 20
191.5280912478484
 30
0.0
 10
137.0730715903018
 20
191.6720595594662
 30
0.0
 10
137.0976513389594
 20
191.8150982485816
 30
0.0
 10
137.1322397206581
 20
191.9570693503312
 30
0.0
 10
137.1765362159005
 20
192.0978500413426
 30
0.0
 10
137.2642124927243
 20
192.3244361042966
 30
0.0
 10
137.4268257664646
 20
192.6294148373933
 30
0.0
 10
137.6940282700904
 20
192.9788676702395
 30
0.0
 10
138.0106249718327
 20
193.2929836321245
 30
0.0
 10
138.4748544957137
 20
193.6561539638675
 30
0.0
 10
139.126209706698
 20
194.0246151378614
 30
0.0
 10
139.9682657211206
 20
194.3444704003463
 30
0.0
 10
140.7040413228065
 20
194.5244074675345
 30
0.0
 10
141.3040774395992
 20
194.6227416834972
 30
0.0
 10
141.7518649640973
 20
194.6733287143077
 30
0.0
 10
142.1976941402774
 20
194.7044417927871
 30
0.0
 10
142.4921010347765
 20
194.7082313405176
 30
0.0
 10
142.6392699818648
 20
194.7101256703035
 30
0.0
  0
SPLINE
  5
173
330
1F
100
AcDbEntity
  8
0
  6
Continuous
 62
     7
370
    15
100
AcDbSpline
210
0.0
220
0.0
230
1.0
 70
     8
 71
     3
 72
    34
 73
    30
 74
     0
 42
0.00000001
 43
0.00000001
 40
0.0
 40
0.0
 40
0.0
 40
0.0
 40
0.0102436354278262
 40
0.0204882363134955
 40
0.0307731700792676
 40
0.0411373572365258
 40
0.0516188027420488
 40
0.0622541783752955
 40
0.0927157460876638
 40
0.124680824715791
 40
0.1551799782896752
 40
0.1872228984685003
 40
0.2496668338800238
 40
0.313444110704624
 40
0.3776841904583058
 40
0.4408749461214584
 40
0.5027365256508151
 40
0.5662850802357823
 40
0.6304752486800307
 40
0.6941267219914744
 40
0.7563617984150944
 40
0.8183780767689743
 40
0.8500594693882546
 40
0.8802067043036109
 40
0.910940695819688
 40
0.9402519345260992
 40
0.9604662120733166
 40
0.980290861605561
 40
1.0
 40
1.0
 40
1.0
 40
1.0
 10
126.8176839539686
 20
191.3835510055249
 30
0.0
 10
126.8181733131716
 20
191.4322495437787
 30
0.0
 10
126.8191520776994
 20
191.5296512101007
 30
0.0
 10
126.8270594326303
 20
191.6752442551684
 30
0.0
 10
126.8396467790094
 20
191.8200037918927
 30
0.0
 10
126.8573566450811
 20
191.9637883981328
 30
0.0
 10
126.8800548066607
 20
192.1064719281954
 30
0.0
 10
126.9247863314999
 20
192.3348422236644
 30
0.0
 10
127.0078041525069
 20
192.6421278062498
 30
0.0
 10
127.1433746853745
 20
192.9927596943014
 30
0.0
 10
127.3041655380895
 20
193.30807393082
 30
0.0
 10
127.5395983116215
 20
193.6720501670629
 30
0.0
 10
127.8701235710037
 20
194.0403687572555
 30
0.0
 10
128.2953831611383
 20
194.3572398742654
 30
0.0
 10
128.7381125953747
 20
194.568714339958
 30
0.0
 10
129.1849359055423
 20
194.68739511627
 30
0.0
 10
129.6332934491146
 20
194.7232043909808
 30
0.0
 10
130.0838827493026
 20
194.6788295748593
 30
0.0
 10
130.5349451839009
 20
194.5489357018359
 30
0.0
 10
130.9738394459812
 20
194.3263811511882
 30
0.0
 10
131.3909843764282
 20
194.0011340384969
 30
0.0
 10
131.7136643366743
 20
193.6280306744008
 30
0.0
 10
131.9436704053764
 20
193.2586689342984
 30
0.0
 10
132.0977358332782
 20
192.9432014538376
 30
0.0
 10
132.2258126898383
 20
192.5974445900332
 30
0.0
 10
132.3141627829922
 20
192.2571284734684
 30
0.0
 10
132.3674518891802
 20
191.9444941425642
 30
0.0
 10
132.3967719462438
 20
191.6653459604367
 30
0.0
 10
132.4003618850737
 20
191.4772995103692
 30
0.0
 10
132.4021516098873
 20
191.3835510055249
 30
0.0
  0
LINE
  5
174
330
1F
100
AcDbEntity
  8
0
  6
Continuous
 62
     7
370
    15
100
AcDbLine
 10
142.6392699819
 20
178.3130838531
 30
0.0
 11
157.1827699819
 21
178.3130838531
 31
0.0
  0
LINE
  5
175
330
1F
100
AcDbEntity
  8
0
  6
Continuous
 62
     7
370
    15
100
AcDbLine
 10
128.0957699819
 20
178.3130838531
 30
0.0
 11
142.6392699819
 21
178.3130838531
 31
0.0
  0
SPLINE
  5
176
330
1F
100
AcDbEntity
  8
0
  6
Continuous
 62
     7
370
    15
100
AcDbSpline
210
0.0
220
0.0
230
1.0
 70
     8
 71
     3
 72
    34
 73
    30
 74
     0
 42
0.00000001
 43
0.00000001
 40
0.0
 40
0.0
 40
0.0
 40
0.0
 40
0.010243635429315
 40
0.0204882363159365
 40
0.030773170082082
 40
0.0411373572390899
 40
0.0516188027437188
 40
0.0622541783754024
 40
0.0927157460846086
 40
0.1246808247158605
 40
0.1551799782807901
 40
0.1872228984684905
 40
0.2496668338801452
 40
0.3134441107048034
 40
0.3776841904584161
 40
0.4408749461213868
 40
0.5027365256508627
 40
0.5662850802359293
 40
0.6304752486801508
 40
0.6941267219915016
 40
0.7563617984150159
 40
0.8183780767688327
 40
0.8500594693867214
 40
0.880206704303195
 40
0.9109406958132998
 40
0.940251934526068
 40
0.9604662120705201
 40
0.9802908616028602
 40
1.0
 40
1.0
 40
1.0
 40
1.0
 10
132.4021516098873
 20
182.2936167005603
 30
0.0
 10
132.4016678083219
 20
182.2449181623
 30
0.0
 10
132.4007001595929
 20
182.1475164959676
 30
0.0
 10
132.3928364924421
 20
182.0019234508893
 30
0.0
 10
132.380265063068
 20
181.8571639141625
 30
0.0
 10
132.3625382389773
 20
181.7133793079285
 30
0.0
 10
132.3397993101747
 20
181.5706957778802
 30
0.0
 10
132.2950211678646
 20
181.3423254824386
 30
0.0
 10
132.2122041640134
 20
181.035039899871
 30
0.0
 10
132.0764310492336
 20
180.684408011852
 30
0.0
 10
131.9156927720701
 20
180.3690937753347
 30
0.0
 10
131.6801710558157
 20
180.0051175390786
 30
0.0
 10
131.3499668736283
 20
179.6367989488768
 30
0.0
 10
130.924478457311
 20
179.3199278318686
 30
0.0
 10
130.4813683425958
 20
179.1084533661787
 30
0.0
 10
130.0349533232888
 20
178.9897725898675
 30
0.0
 10
129.5864197172804
 20
178.9539633151571
 30
0.0
 10
129.1356781173533
 20
178.9983381312784
 30
0.0
 10
128.6848970424526
 20
179.1282320043017
 30
0.0
 10
128.2461335375238
 20
179.3507865549454
 30
0.0
 10
127.8288288424529
 20
179.6760336676398
 30
0.0
 10
127.5061254193886
 20
180.049137031704
 30
0.0
 10
127.2762824338537
 20
180.4184987718429
 30
0.0
 10
127.1220047986749
 20
180.7339662522442
 30
0.0
 10
126.9940492403079
 20
181.0797231160323
 30
0.0
 10
126.9056922841766
 20
181.4200392325888
 30
0.0
 10
126.8525526060073
 20
181.7326735635036
 30
0.0
 10
126.8231476174527
 20
182.0118217456267
 30
0.0
 10
126.8195016241351
 20
182.1998681957045
 30
0.0
 10
126.8176839539685
 20
182.2936167005603
 30
0.0
  0
SPLINE
  5
177
330
1F
100
AcDbEntity
  8
0
  6
Continuous
 62
     7
370
    15
100
AcDbSpline
210
0.0
220
0.0
230
1.0
 70
     8
 71
     3
 72
    22
 73
    18
 74
     0
 42
0.00000001
 43
0.00000001
 40
0.0
 40
0.0
 40
0.0
 40
0.0
 40
0.0419748895800053
 40
0.0838882729939488
 40
0.1257908881264426
 40
0.1902103339967784
 40
0.2540400555464982
 40
0.3820284021361117
 40
0.5077426131938818
 40
0.6329608069165867
 40
0.6967652307079301
 40
0.7579203677324625
 40
0.8198708122155249
 40
0.8792962455066737
 40
0.9200761609782319
 40
0.960124596265568
 40
1.0
 40
1.0
 40
1.0
 40
1.0
 10
142.6392699818648
 20
178.9670420358342
 30
0.0
 10
142.5395072302108
 20
178.9679056100347
 30
0.0
 10
142.3401279101193
 20
178.9696314930329
 30
0.0
 10
142.0414262075653
 20
178.9836476290818
 30
0.0
 10
141.6900857950049
 20
179.0101177737405
 30
0.0
 10
141.288167974411
 20
179.0564379504754
 30
0.0
 10
140.6871998364341
 20
179.1559834386513
 30
0.0
 10
139.9529000051332
 20
179.3376045077357
 30
0.0
 10
139.1095288118832
 20
179.6603538605702
 30
0.0
 10
138.455831691227
 20
180.0328424508656
 30
0.0
 10
137.9889839980407
 20
180.4029571174409
 30
0.0
 10
137.6756764197077
 20
180.7195595805437
 30
0.0
 10
137.414633130856
 20
181.0679943441645
 30
0.0
 10
137.234531996388
 20
181.4110158539904
 30
0.0
 10
137.125842409735
 20
181.7268070798122
 30
0.0
 10
137.0658722791654
 20
182.0086797274062
 30
0.0
 10
137.0584869807384
 20
182.1987748920314
 30
0.0
 10
137.0548023259461
 20
182.2936167005603
 30
0.0
  0
SPLINE
  5
178
330
1F
100
AcDbEntity
  8
0
  6
Continuous
 62
     7
370
    15
100
AcDbSpline
210
0.0
220
0.0
230
1.0
 70
     8
 71
     3
 72
    24
 73
    20
 74
     0
 42
0.00000001
 43
0.00000001
 40
0.0
 40
0.0
 40
0.0
 40
0.0
 40
0.0202722082353783
 40
0.0405292034007012
 40
0.0608467835272095
 40
0.081299535660079
 40
0.1019596686968301
 40
0.1228959757414195
 40
0.1834686160021993
 40
0.2465832355189106
 40
0.3072887160243871
 40
0.3706308374856683
 40
0.4940972471710646
 40
0.620398619886565
 40
0.748551496486609
 40
0.8120600485675575
 40
0.8761428608827889
 40
0.9380859446732053
 40
1.0
 40
1.0
 40
1.0
 40
1.0
 10
148.2237376377836
 20
182.2936167005603
 30
0.0
 10
148.2227864036156
 20
182.2454245647066
 30
0.0
 10
148.2208846491236
 20
182.1490764582916
 30
0.0
 10
148.2054683734381
 20
182.0051081467124
 30
0.0
 10
148.1808886247783
 20
181.8620694576113
 30
0.0
 10
148.1463002430722
 20
181.7200983558518
 30
0.0
 10
148.1020037478156
 20
181.5793176648061
 30
0.0
 10
148.0143274709863
 20
181.3527316018158
 30
0.0
 10
147.8517141972486
 20
181.0477528686941
 30
0.0
 10
147.5845116935752
 20
180.6983000358506
 30
0.0
 10
147.2679149918281
 20
180.3841840739833
 30
0.0
 10
146.8036854679552
 20
180.0210137422401
 30
0.0
 10
146.1523302569969
 20
179.6525525682715
 30
0.0
 10
145.3102742425834
 20
179.3326973057893
 30
0.0
 10
144.5744986409069
 20
179.1527602386001
 30
0.0
 10
143.9744625241193
 20
179.0544260226449
 30
0.0
 10
143.5266749996372
 20
179.0038389918306
 30
0.0
 10
143.0808458234594
 20
178.972725913349
 30
0.0
 10
142.7864389289628
 20
178.9689363656197
 30
0.0
 10
142.6392699818648
 20
178.9670420358342
 30
0.0
  0
SPLINE
  5
179
330
1F
100
AcDbEntity
  8
0
  6
Continuous
 62
     7
370
    15
100
AcDbSpline
210
0.0
220
0.0
230
1.0
 70
     8
 71
     3
 72
    34
 73
    30
 74
     0
 42
0.00000001
 43
0.00000001
 40
0.0
 40
0.0
 40
0.0
 40
0.0
 40
0.0102436354287357
 40
0.0204882363149859
 40
0.0307731700809942
 40
0.0411373572381269
 40
0.0516188027431655
 40
0.0622541783755623
 40
0.0927157460883259
 40
0.124680824715997
 40
0.155179978282066
 40
0.1872228984685585
 40
0.2496668338801905
 40
0.3134441107048296
 40
0.3776841904584257
 40
0.4408749461213845
 40
0.5027365256508318
 40
0.5662850802358685
 40
0.6304752486800583
 40
0.6941267219913958
 40
0.7563617984149158
 40
0.8183780767687597
 40
0.8500594693849581
 40
0.8802067043032312
 40
0.9109406958120185
 40
0.9402519345259122
 40
0.9604662120700528
 40
0.9802908616023698
 40
0.9999999999999999
 40
0.9999999999999999
 40
0.9999999999999999
 40
0.9999999999999999
 10
158.4608560097611
 20
182.2936167005603
 30
0.0
 10
158.4603666505568
 20
182.2449181623027
 30
0.0
 10
158.4593878860263
 20
182.1475164959746
 30
0.0
 10
158.4514805310918
 20
182.0019234509008
 30
0.0
 10
158.4388931847092
 20
181.8571639141756
 30
0.0
 10
158.4211833186349
 20
181.7133793079399
 30
0.0
 10
158.398485157054
 20
181.5706957778867
 30
0.0
 10
158.3537536322119
 20
181.3423254824276
 30
0.0
 10
158.2707358112029
 20
181.0350398998558
 30
0.0
 10
158.1351652783447
 20
180.6844080118347
 30
0.0
 10
157.974374425635
 20
180.3690937753376
 30
0.0
 10
157.7389416521033
 20
180.0051175390722
 30
0.0
 10
157.4084163927087
 20
179.6367989488783
 30
0.0
 10
156.9831568025773
 20
179.3199278318683
 30
0.0
 10
156.5404273683457
 20
179.1084533661788
 30
0.0
 10
156.0936040581827
 20
178.9897725898675
 30
0.0
 10
155.6452465146148
 20
178.9539633151571
 30
0.0
 10
155.1946572144306
 20
178.9983381312784
 30
0.0
 10
154.743594779837
 20
179.1282320043015
 30
0.0
 10
154.3047005177605
 20
179.3507865549462
 30
0.0
 10
153.8875555873214
 20
179.6760336676373
 30
0.0
 10
153.5648756270734
 20
180.0491370317085
 30
0.0
 10
153.334869558394
 20
180.4184987718246
 30
0.0
 10
153.1808041304861
 20
180.7339662522348
 30
0.0
 10
153.052727273914
 20
181.0797231160375
 30
0.0
 10
152.9643771807656
 20
181.420039232584
 30
0.0
 10
152.9110880745565
 20
181.7326735634962
 30
0.0
 10
152.8817680174945
 20
182.0118217456213
 30
0.0
 10
152.8781780786588
 20
182.1998681957019
 30
0.0
 10
152.8763883538423
 20
182.2936167005603
 30
0.0
  0
LINE
  5
17A
330
1F
100
AcDbEntity
  8
0
  6
Continuous
 62
     7
370
    15
100
AcDbLine
 10
137.0548023259
 20
182.2936167006
 30
0.0
 11
137.0548023259
 21
191.3835510055
 31
0.0
  0
LINE
  5
17B
330
1F
100
AcDbEntity
  8
0
  6
Continuous
 62
     7
370
    15
100
AcDbLine
 10
148.2237376378
 20
191.3835510055
 30
0.0
 11
148.2237376378
 21
182.2936167006
 31
0.0
  0
LINE
  5
17C
330
1F
100
AcDbEntity
  8
0
  6
Continuous
 62
     7
370
    15
100
AcDbLine
 10
152.8763883538
 20
182.2936167006
 30
0.0
 11
152.8763883538
 21
191.3835510055
 31
0.0
  0
LINE
  5
17D
330
1F
100
AcDbEntity
  8
0
  6
Continuous
 62
     7
370
    15
100
AcDbLine
 10
132.4021516099
 20
191.3835510055
 30
0.0
 11
132.4021516099
 21
182.2936167006
 31
0.0
  0
LINE
  5
17E
330
1F
100
AcDbEntity
  8
0
  6
Continuous
 62
     7
370
    15
100
AcDbLine
 10
287.0548023259
 20
182.2936167006
 30
0.0
 11
287.0548023259
 21
191.3835510055
 31
0.0
  0
LINE
  5
17F
330
1F
100
AcDbEntity
  8
0
  6
Continuous
 62
     7
370
    15
100
AcDbLine
 10
298.2237376378
 20
191.3835510055
 30
0.0
 11
298.2237376378
 21
182.2936167006
 31
0.0
  0
LINE
  5
180
330
1F
100
AcDbEntity
  8
0
  6
Continuous
 62
     7
370
    15
100
AcDbLine
 10
302.8763883538
 20
182.2936167006
 30
0.0
 11
302.8763883538
 21
191.3835510055
 31
0.0
  0
LINE
  5
181
330
1F
100
AcDbEntity
  8
0
  6
Continuous
 62
     7
370
    15
100
AcDbLine
 10
282.4021516099
 20
191.3835510055
 30
0.0
 11
282.4021516099
 21
182.2936167006
 31
0.0
  0
LINE
  5
182
330
1F
100
AcDbEntity
  8
0
  6
Continuous
 62
     7
370
    15
100
AcDbLine
 10
308.4608560098
 20
191.3835510055
 30
0.0
 11
308.4608560098
 21
182.2936167006
 31
0.0
  0
LINE
  5
183
330
1F
100
AcDbEntity
  8
0
  6
Continuous
 62
     7
370
    15
100
AcDbLine
 10
276.817683954
 20
182.2936167006
 30
0.0
 11
276.817683954
 21
191.3835510055
 31
0.0
  0
LINE
  5
184
330
1F
100
AcDbEntity
  8
0
  6
Continuous
 62
     7
370
    15
100
AcDbLine
 10
126.817683954
 20
182.2936167006
 30
0.0
 11
126.817683954
 21
191.3835510055
 31
0.0
  0
LINE
  5
185
330
1F
100
AcDbEntity
  8
0
  6
Continuous
 62
     7
370
    15
100
AcDbLine
 10
158.4608560098
 20
191.3835510055
 30
0.0
 11
158.4608560098
 21
182.2936167006
 31
0.0
  0
LINE
  5
186
330
1F
100
AcDbEntity
  8
0
  6
Continuous
 62
     8
370
     0
100
AcDbLine
 10
175.3716732684
 20
195.6905808645
 30
0.0
 11
109.9068666954
 21
195.6905808645
 31
0.0
  0
LINE
  5
187
330
1F
100
AcDbEntity
  8
0
  6
Continuous
 62
     8
370
     0
100
AcDbLine
 10
325.3716732683
 20
195.6905808645
 30
0.0
 11
259.9068666954
 21
195.6905808645
 31
0.0
  0
CIRCLE
  5
188
330
1F
100
AcDbEntity
  8
0
  6
Continuous
 62
     8
370
     0
100
AcDbCircle
 10
342.6387607879
 20
142.1885839162
 30
0.0
 40
5.263391236971785
  0
CIRCLE
  5
189
330
1F
100
AcDbEntity
  8
0
  6
Continuous
 62
     8
370
     0
100
AcDbCircle
 10
91.6397791758
 20
142.1885837875
 30
0.0
 40
5.263391236971785
  0
LINE
  5
18A
330
1F
100
AcDbEntity
  8
0
  6
Continuous
 62
     8
370
     0
100
AcDbLine
 10
309.5683621306
 20
143.336186309
 30
0.0
 11
308.9207111349
 21
143.336186309
 31
0.0
  0
LINE
  5
18B
330
1F
100
AcDbEntity
  8
0
  6
Continuous
 62
     8
370
     0
100
AcDbLine
 10
308.9207111349
 20
140.2366760408
 30
0.0
 11
309.5683621306
 21
140.2366760408
 31
0.0
  0
LINE
  5
18C
330
1F
100
AcDbEntity
  8
0
  6
Continuous
 62
     8
370
     0
100
AcDbLine
 10
308.9207111349
 20
143.5570638185
 30
0.0
 11
309.5683621306
 21
143.5570638185
 31
0.0
  0
LINE
  5
18D
330
1F
100
AcDbEntity
  8
0
  6
Continuous
 62
     8
370
     0
100
AcDbLine
 10
309.5683621306
 20
140.0198964994
 30
0.0
 11
308.9207111349
 21
140.0198964994
 31
0.0
  0
LINE
  5
18E
330
1F
100
AcDbEntity
  8
0
  6
Continuous
 62
     8
370
     0
100
AcDbLine
 10
308.9207111349
 20
143.7721006423
 30
0.0
 11
309.5683621306
 21
143.7721006423
 31
0.0
  0
LINE
  5
18F
330
1F
100
AcDbEntity
  8
0
  6
Continuous
 62
     8
370
     0
100
AcDbLine
 10
309.5683621306
 20
139.8089420009
 30
0.0
 11
308.9207111349
 21
139.8089420009
 31
0.0
  0
LINE
  5
190
330
1F
100
AcDbEntity
  8
0
  6
Continuous
 62
     8
370
     0
100
AcDbLine
 10
77.1745249956
 20
120.6394104831
 30
0.0
 11
77.1745249956
 21
163.7374723694
 31
0.0
  0
LINE
  5
191
330
1F
100
AcDbEntity
  8
0
  6
Continuous
 62
     8
370
     0
100
AcDbLine
 10
276.5912699819
 20
191.3835510055
 30
0.0
 11
276.817683954
 21
191.3835510055
 31
0.0
  0
LINE
  5
192
330
1F
100
AcDbEntity
  8
0
  6
Continuous
 62
     8
370
     0
100
AcDbLine
 10
308.4608560098
 20
191.3835510055
 30
0.0
 11
308.6872699819
 21
191.3835510055
 31
0.0
  0
LINE
  5
193
330
1F
100
AcDbEntity
  8
0
  6
Continuous
 62
     8
370
     0
100
AcDbLine
 10
298.2237376378
 20
191.3835510055
 30
0.0
 11
302.8763883538
 21
191.3835510055
 31
0.0
  0
LINE
  5
194
330
1F
100
AcDbEntity
  8
0
  6
Continuous
 62
     8
370
     0
100
AcDbLine
 10
282.4021516099
 20
191.3835510055
 30
0.0
 11
287.0548023259
 21
191.3835510055
 31
0.0
  0
LINE
  5
195
330
1F
100
AcDbEntity
  8
0
  6
Continuous
 62
     8
370
     0
100
AcDbLine
 10
282.4021516099
 20
182.2936167006
 30
0.0
 11
287.0548023259
 21
182.2936167006
 31
0.0
  0
LINE
  5
196
330
1F
100
AcDbEntity
  8
0
  6
Continuous
 62
     8
370
     0
100
AcDbLine
 10
298.2237376378
 20
182.2936167006
 30
0.0
 11
302.8763883538
 21
182.2936167006
 31
0.0
  0
LINE
  5
197
330
1F
100
AcDbEntity
  8
0
  6
Continuous
 62
     8
370
     0
100
AcDbLine
 10
308.4608560098
 20
182.2936167006
 30
0.0
 11
308.6872699819
 21
182.2936167006
 31
0.0
  0
LINE
  5
198
330
1F
100
AcDbEntity
  8
0
  6
Continuous
 62
     8
370
     0
100
AcDbLine
 10
276.5912699819
 20
182.2936167006
 30
0.0
 11
276.817683954
 21
182.2936167006
 31
0.0
  0
LINE
  5
199
330
1F
100
AcDbEntity
  8
0
  6
Continuous
 62
     8
370
     0
100
AcDbLine
 10
158.4608560098
 20
191.3835510055
 30
0.0
 11
158.6872699819
 21
191.3835510055
 31
0.0
  0
LINE
  5
19A
330
1F
100
AcDbEntity
  8
0
  6
Continuous
 62
     8
370
     0
100
AcDbLine
 10
148.2237376378
 20
191.3835510055
 30
0.0
 11
152.8763883538
 21
191.3835510055
 31
0.0
  0
LINE
  5
19B
330
1F
100
AcDbEntity
  8
0
  6
Continuous
 62
     8
370
     0
100
AcDbLine
 10
132.4021516099
 20
191.3835510055
 30
0.0
 11
137.0548023259
 21
191.3835510055
 31
0.0
  0
LINE
  5
19C
330
1F
100
AcDbEntity
  8
0
  6
Continuous
 62
     8
370
     0
100
AcDbLine
 10
126.5912699819
 20
191.3835510055
 30
0.0
 11
126.817683954
 21
191.3835510055
 31
0.0
  0
LINE
  5
19D
330
1F
100
AcDbEntity
  8
0
  6
Continuous
 62
     8
370
     0
100
AcDbLine
 10
126.5912699819
 20
182.2936167006
 30
0.0
 11
126.817683954
 21
182.2936167006
 31
0.0
  0
LINE
  5
19E
330
1F
100
AcDbEntity
  8
0
  6
Continuous
 62
     8
370
     0
100
AcDbLine
 10
132.4021516099
 20
182.2936167006
 30
0.0
 11
137.0548023259
 21
182.2936167006
 31
0.0
  0
LINE
  5
19F
330
1F
100
AcDbEntity
  8
0
  6
Continuous
 62
     8
370
     0
100
AcDbLine
 10
148.2237376378
 20
182.2936167006
 30
0.0
 11
152.8763883538
 21
182.2936167006
 31
0.0
  0
LINE
  5
1A0
330
1F
100
AcDbEntity
  8
0
  6
Continuous
 62
     8
370
     0
100
AcDbLine
 10
158.4608560098
 20
182.2936167006
 30
0.0
 11
158.6872699819
 21
182.2936167006
 31
0.0
  0
ENDSEC
  0
SECTION
  2
OBJECTS
  0
DICTIONARY
  5
C
330
0
100
AcDbDictionary
281
     1
  3
ACAD_GROUP
350
D
  3
ACAD_LAYOUT
350
1A
  3
ACAD_MATERIAL
350
3B
  3
ACAD_MLEADERSTYLE
350
1A2
  3
ACAD_MLINESTYLE
350
17
  3
ACAD_PLOTSETTINGS
350
19
  3
ACAD_PLOTSTYLENAME
350
E
  3
ACAD_TABLESTYLE
350
1A1
  3
ACAD_VISUALSTYLE
350
2A
  0
DICTIONARY
  5
D
102
{ACAD_REACTORS
330
C
102
}
330
C
100
AcDbDictionary
281
     1
  0
DICTIONARY
  5
1A
102
{ACAD_REACTORS
330
C
102
}
330
C
100
AcDbDictionary
281
     1
  3
Layout1
350
1E
  3
Layout2
350
26
  3
Model
350
22
  0
DICTIONARY
  5
3B
102
{ACAD_REACTORS
330
C
102
}
330
C
100
AcDbDictionary
281
     1
  3
ByBlock
350
3D
  3
ByLayer
350
3C
  3
Global
350
3E
  0
DICTIONARY
  5
1A2
102
{ACAD_REACTORS
330
C
102
}
330
C
100
AcDbDictionary
281
     1
  0
DICTIONARY
  5
17
102
{ACAD_REACTORS
330
C
102
}
330
C
100
AcDbDictionary
281
     1
  3
Standard
350
18
  0
DICTIONARY
  5
19
102
{ACAD_REACTORS
330
C
102
}
330
C
100
AcDbDictionary
281
     1
  0
ACDBDICTIONARYWDFLT
  5
E
102
{ACAD_REACTORS
330
C
102
}
330
C
100
AcDbDictionary
281
     1
  3
Normal
350
F
100
AcDbDictionaryWithDefault
340
F
  0
DICTIONARY
  5
1A1
102
{ACAD_REACTORS
330
C
102
}
330
C
100
AcDbDictionary
281
     1
  0
DICTIONARY
  5
2A
102
{ACAD_REACTORS
330
C
102
}
330
C
100
AcDbDictionary
281
     1
  3
2dWireframe
350
2F
  3
3D Hidden
350
31
  3
3dWireframe
350
30
  3
Basic
350
32
  3
Brighten
350
36
  3
ColorChange
350
3A
  3
Conceptual
350
34
  3
Dim
350
35
  3
Facepattern
350
39
  3
Flat
350
2B
  3
FlatWithEdges
350
2C
  3
Gouraud
350
2D
  3
GouraudWithEdges
350
2E
  3
Linepattern
350
38
  3
Realistic
350
33
  3
Thicken
350
37
  0
LAYOUT
  5
1E
102
{ACAD_REACTORS
330
1A
102
}
330
1A
100
AcDbPlotSettings
  1

  2
none_device
  4

  6

 40
0.0
 41
0.0
 42
0.0
 43
0.0
 44
0.0
 45
0.0
 46
0.0
 47
0.0
 48
0.0
 49
0.0
140
0.0
141
0.0
142
1.0
143
1.0
 70
   688
 72
     0
 73
     0
 74
     5
  7

 75
    16
 76
     0
 77
     2
 78
   300
147
1.0
148
0.0
149
0.0
100
AcDbLayout
  1
Layout1
 70
     1
 71
     1
 10
0.0
 20
0.0
 11
420.0
 21
297.0
 12
0.0
 22
0.0
 32
0.0
 14
1.0000000000E+20
 24
1.0000000000E+20
 34
1.0000000000E+20
 15
-1.0000000000E+20
 25
-1.0000000000E+20
 35
-1.0000000000E+20
146
0.0
 13
0.0
 23
0.0
 33
0.0
 16
1.0
 26
0.0
 36
0.0
 17
0.0
 27
1.0
 37
0.0
 76
     0
330
1B
  0
LAYOUT
  5
26
102
{ACAD_REACTORS
330
1A
102
}
330
1A
100
AcDbPlotSettings
  1

  2
none_device
  4

  6

 40
0.0
 41
0.0
 42
0.0
 43
0.0
 44
0.0
 45
0.0
 46
0.0
 47
0.0
 48
0.0
 49
0.0
140
0.0
141
0.0
142
1.0
143
1.0
 70
   688
 72
     0
 73
     0
 74
     5
  7

 75
    16
 76
     0
 77
     2
 78
   300
147
1.0
148
0.0
149
0.0
100
AcDbLayout
  1
Layout2
 70
     1
 71
     2
 10
0.0
 20
0.0
 11
0.0
 21
0.0
 12
0.0
 22
0.0
 32
0.0
 14
0.0
 24
0.0
 34
0.0
 15
0.0
 25
0.0
 35
0.0
146
0.0
 13
0.0
 23
0.0
 33
0.0
 16
1.0
 26
0.0
 36
0.0
 17
0.0
 27
1.0
 37
0.0
 76
     0
330
23
  0
LAYOUT
  5
22
102
{ACAD_REACTORS
330
1A
102
}
330
1A
100
AcDbPlotSettings
  1

  2
none_device
  4

  6

 40
0.0
 41
0.0
 42
0.0
 43
0.0
 44
0.0
 45
0.0
 46
0.0
 47
0.0
 48
0.0
 49
0.0
140
0.0
141
0.0
142
1.0
143
1.0
 70
  1712
 72
     0
 73
     0
 74
     0
  7

 75
     0
 76
     0
 77
     2
 78
   300
147
1.0
148
0.0
149
0.0
100
AcDbLayout
  1
Model
 70
     1
 71
     0
 10
0.0
 20
0.0
 11
594.0
 21
841.0
 12
0.0
 22
0.0
 32
0.0
 14
0.0
 24
0.0
 34
0.0
 15
594.0
 25
841.0
 35
0.0
146
0.0
 13
0.0
 23
0.0
 33
0.0
 16
1.0
 26
0.0
 36
0.0
 17
0.0
 27
1.0
 37
0.0
 76
     0
330
1F
331
29
  0
MATERIAL
  5
3D
102
{ACAD_REACTORS
330
3B
102
}
330
3B
100
AcDbMaterial
  1
ByBlock
 72
     1
 94
      127
  0
MATERIAL
  5
3C
102
{ACAD_REACTORS
330
3B
102
}
330
3B
100
AcDbMaterial
  1
ByLayer
 72
     1
 94
      127
  0
MATERIAL
  5
3E
102
{ACAD_REACTORS
330
3B
102
}
330
3B
100
AcDbMaterial
  1
Global
 72
     1
 94
      127
  0
MLINESTYLE
  5
18
102
{ACAD_REACTORS
330
17
102
}
330
17
100
AcDbMlineStyle
  2
Standard
 70
     0
  3

 62
   256
 51
90.0
 52
90.0
 71
     2
 49
0.5
 62
   256
  6
BYLAYER
 49
-0.5
 62
   256
  6
BYLAYER
  0
ACDBPLACEHOLDER
  5
F
102
{ACAD_REACTORS
330
E
102
}
330
E
  0
VISUALSTYLE
  5
2F
102
{ACAD_REACTORS
330
2A
102
}
330
2A
100
AcDbVisualStyle
  2
2dWireframe
 70
     4
177
     2
291
     0
 71
     0
176
     1
 72
     2
176
     1
 73
     0
176
     1
 90
        0
176
     1
 40
-0.6
176
     1
 41
-30.0
176
     1
 62
     5
 63
     7
421
 16777215
176
     1
 74
     1
176
     1
 91
        4
176
     1
 64
     7
176
     1
 65
   257
176
     1
 75
     1
176
     1
175
     1
176
     1
 42
1.0
176
     1
 92
        0
176
     1
 66
   257
176
     1
 43
1.0
176
     1
 76
     1
176
     1
 77
     6
176
     1
 78
     2
176
     1
 67
     7
176
     1
 79
     5
176
     1
170
     0
176
     1
171
     0
176
     1
290
     0
176
     1
 93
        1
176
     1
 44
0.0
176
     1
173
     0
176
     1
  0
VISUALSTYLE
  5
31
102
{ACAD_REACTORS
330
2A
102
}
330
2A
100
AcDbVisualStyle
  2
3D Hidden
 70
     6
177
     2
291
     0
 71
     1
176
     1
 72
     2
176
     1
 73
     2
176
     1
 90
        0
176
     1
 40
-0.6
176
     1
 41
-30.0
176
     1
 62
     5
 63
     7
421
 16777215
176
     1
 74
     2
176
     1
 91
        2
176
     1
 64
     7
176
     1
 65
   257
176
     1
 75
     2
176
     1
175
     1
176
     1
 42
40.0
176
     1
 92
        0
176
     1
 66
   257
176
     1
 43
1.0
176
     1
 76
     1
176
     1
 77
     6
176
     1
 78
     2
176
     1
 67
     7
176
     1
 79
     3
176
     1
170
     0
176
     1
171
     0
176
     1
290
     0
176
     1
 93
        1
176
     1
 44
0.0
176
     1
173
     0
176
     1
  0
VISUALSTYLE
  5
30
102
{ACAD_REACTORS
330
2A
102
}
330
2A
100
AcDbVisualStyle
  2
3dWireframe
 70
     5
177
     2
291
     0
 71
     0
176
     1
 72
     2
176
     1
 73
     0
176
     1
 90
        0
176
     1
 40
-0.6
176
     1
 41
-30.0
176
     1
 62
     5
 63
     7
421
 16777215
176
     1
 74
     1
176
     1
 91
        4
176
     1
 64
     7
176
     1
 65
   257
176
     1
 75
     1
176
     1
175
     1
176
     1
 42
1.0
176
     1
 92
        0
176
     1
 66
   257
176
     1
 43
1.0
176
     1
 76
     1
176
     1
 77
     6
176
     1
 78
     2
176
     1
 67
     7
176
     1
 79
     5
176
     1
170
     0
176
     1
171
     0
176
     1
290
     0
176
     1
 93
        1
176
     1
 44
0.0
176
     1
173
     0
176
     1
  0
VISUALSTYLE
  5
32
102
{ACAD_REACTORS
330
2A
102
}
330
2A
100
AcDbVisualStyle
  2
Basic
 70
     7
177
     2
291
     1
 71
     1
176
     1
 72
     0
176
     1
 73
     1
176
     1
 90
        0
176
     1
 40
-0.6
176
     1
 41
-30.0
176
     1
 62
     5
 63
     7
421
 16777215
176
     1
 74
     0
176
     1
 91
        4
176
     1
 64
     7
176
     1
 65
   257
176
     1
 75
     1
176
     1
175
     1
176
     1
 42
1.0
176
     1
 92
        8
176
     1
 66
     7
176
     1
 43
1.0
176
     1
 76
     1
176
     1
 77
     6
176
     1
 78
     2
176
     1
 67
     7
176
     1
 79
     5
176
     1
170
     0
176
     1
171
     0
176
     1
290
     0
176
     1
 93
        1
176
     1
 44
0.0
176
     1
173
     0
176
     1
  0
VISUALSTYLE
  5
36
102
{ACAD_REACTORS
330
2A
102
}
330
2A
100
AcDbVisualStyle
  2
Brighten
 70
    12
177
     2
291
     1
 71
     2
176
     1
 72
     2
176
     1
 73
     0
176
     1
 90
        0
176
     1
 40
-0.6
176
     1
 41
-30.0
176
     1
 62
     5
 63
     7
421
 16777215
176
     1
 74
     1
176
     1
 91
        4
176
     1
 64
     7
176
     1
 65
   257
176
     1
 75
     1
176
     1
175
     1
176
     1
 42
1.0
176
     1
 92
        8
176
     1
 66
     7
176
     1
 43
1.0
176
     1
 76
     1
176
     1
 77
     6
176
     1
 78
     2
176
     1
 67
     7
176
     1
 79
     5
176
     1
170
     0
176
     1
171
     0
176
     1
290
     0
176
     1
 93
        1
176
     1
 44
50.0
176
     1
173
     0
176
     1
  0
VISUALSTYLE
  5
3A
102
{ACAD_REACTORS
330
2A
102
}
330
2A
100
AcDbVisualStyle
  2
ColorChange
 70
    16
177
     2
291
     1
 71
     2
176
     1
 72
     2
176
     1
 73
     3
176
     1
 90
        0
176
     1
 40
-0.6
176
     1
 41
-30.0
176
     1
 62
     5
 63
     8
421
  8421504
176
     1
 74
     1
176
     1
 91
        4
176
     1
 64
     7
176
     1
 65
   257
176
     1
 75
     1
176
     1
175
     1
176
     1
 42
1.0
176
     1
 92
        8
176
     1
 66
     8
424
  8421504
176
     1
 43
1.0
176
     1
 76
     1
176
     1
 77
     6
176
     1
 78
     2
176
     1
 67
     7
176
     1
 79
     5
176
     1
170
     0
176
     1
171
     0
176
     1
290
     0
176
     1
 93
        1
176
     1
 44
0.0
176
     1
173
     0
176
     1
  0
VISUALSTYLE
  5
34
102
{ACAD_REACTORS
330
2A
102
}
330
2A
100
AcDbVisualStyle
  2
Conceptual
 70
     9
177
     2
291
     0
 71
     3
176
     1
 72
     2
176
     1
 73
     0
176
     1
 90
        0
176
     1
 40
-0.6
176
     1
 41
-30.0
176
     1
 62
     5
 63
     7
421
 16777215
176
     1
 74
     2
176
     1
 91
        2
176
     1
 64
     7
176
     1
 65
   257
176
     1
 75
     1
176
     1
175
     1
176
     1
 42
40.0
176
     1
 92
        8
176
     1
 66
     7
176
     1
 43
1.0
176
     1
 76
     1
176
     1
 77
     6
176
     1
 78
     2
176
     1
 67
     7
176
     1
 79
     3
176
     1
170
     0
176
     1
171
     0
176
     1
290
     0
176
     1
 93
        1
176
     1
 44
0.0
176
     1
173
     0
176
     1
  0
VISUALSTYLE
  5
35
102
{ACAD_REACTORS
330
2A
102
}
330
2A
100
AcDbVisualStyle
  2
Dim
 70
    11
177
     2
291
     1
 71
     2
176
     1
 72
     2
176
     1
 73
     0
176
     1
 90
        0
176
     1
 40
-0.6
176
     1
 41
-30.0
176
     1
 62
     5
 63
     7
421
 16777215
176
     1
 74
     1
176
     1
 91
        4
176
     1
 64
     7
176
     1
 65
   257
176
     1
 75
     1
176
     1
175
     1
176
     1
 42
1.0
176
     1
 92
        8
176
     1
 66
     7
176
     1
 43
1.0
176
     1
 76
     1
176
     1
 77
     6
176
     1
 78
     2
176
     1
 67
     7
176
     1
 79
     5
176
     1
170
     0
176
     1
171
     0
176
     1
290
     0
176
     1
 93
        1
176
     1
 44
-50.0
176
     1
173
     0
176
     1
  0
VISUALSTYLE
  5
39
102
{ACAD_REACTORS
330
2A
102
}
330
2A
100
AcDbVisualStyle
  2
Facepattern
 70
    15
177
     2
291
     1
 71
     2
176
     1
 72
     2
176
     1
 73
     0
176
     1
 90
        0
176
     1
 40
-0.6
176
     1
 41
-30.0
176
     1
 62
     5
 63
     7
421
 16777215
176
     1
 74
     1
176
     1
 91
        4
176
     1
 64
     7
176
     1
 65
   257
176
     1
 75
     1
176
     1
175
     1
176
     1
 42
1.0
176
     1
 92
        8
176
     1
 66
     7
176
     1
 43
1.0
176
     1
 76
     1
176
     1
 77
     6
176
     1
 78
     2
176
     1
 67
     7
176
     1
 79
     5
176
     1
170
     0
176
     1
171
     0
176
     1
290
     0
176
     1
 93
        1
176
     1
 44
0.0
176
     1
173
     0
176
     1
  0
VISUALSTYLE
  5
2B
102
{ACAD_REACTORS
330
2A
102
}
330
2A
100
AcDbVisualStyle
  2
Flat
 70
     0
177
     2
291
     1
 71
     2
176
     1
 72
     1
176
     1
 73
     1
176
     1
 90
        2
176
     1
 40
-0.6
176
     1
 41
30.0
176
     1
 62
     5
 63
     7
421
 16777215
176
     1
 74
     0
176
     1
 91
        4
176
     1
 64
     7
176
     1
 65
   257
176
     1
 75
     1
176
     1
175
     1
176
     1
 42
1.0
176
     1
 92
        8
176
     1
 66
     7
176
     1
 43
1.0
176
     1
 76
     1
176
     1
 77
     6
176
     1
 78
     2
176
     1
 67
     7
176
     1
 79
     5
176
     1
170
     0
176
     1
171
     0
176
     1
290
     0
176
     1
 93
       13
176
     1
 44
0.0
176
     1
173
     0
176
     1
  0
VISUALSTYLE
  5
2C
102
{ACAD_REACTORS
330
2A
102
}
330
2A
100
AcDbVisualStyle
  2
FlatWithEdges
 70
     1
177
     2
291
     1
 71
     2
176
     1
 72
     1
176
     1
 73
     1
176
     1
 90
        2
176
     1
 40
-0.6
176
     1
 41
30.0
176
     1
 62
     5
 63
     7
421
 16777215
176
     1
 74
     1
176
     1
 91
        4
176
     1
 64
     7
176
     1
 65
   257
176
     1
 75
     1
176
     1
175
     1
176
     1
 42
1.0
176
     1
 92
        0
176
     1
 66
   257
176
     1
 43
1.0
176
     1
 76
     1
176
     1
 77
     6
176
     1
 78
     2
176
     1
 67
     7
176
     1
 79
     5
176
     1
170
     0
176
     1
171
     0
176
     1
290
     0
176
     1
 93
       13
176
     1
 44
0.0
176
     1
173
     0
176
     1
  0
VISUALSTYLE
  5
2D
102
{ACAD_REACTORS
330
2A
102
}
330
2A
100
AcDbVisualStyle
  2
Gouraud
 70
     2
177
     2
291
     1
 71
     2
176
     1
 72
     2
176
     1
 73
     1
176
     1
 90
        2
176
     1
 40
-0.6
176
     1
 41
30.0
176
     1
 62
     5
 63
     7
421
 16777215
176
     1
 74
     0
176
     1
 91
        4
176
     1
 64
     7
176
     1
 65
   257
176
     1
 75
     1
176
     1
175
     1
176
     1
 42
1.0
176
     1
 92
        0
176
     1
 66
     7
176
     1
 43
1.0
176
     1
 76
     1
176
     1
 77
     6
176
     1
 78
     2
176
     1
 67
     7
176
     1
 79
     5
176
     1
170
     0
176
     1
171
     0
176
     1
290
     0
176
     1
 93
       13
176
     1
 44
0.0
176
     1
173
     0
176
     1
  0
VISUALSTYLE
  5
2E
102
{ACAD_REACTORS
330
2A
102
}
330
2A
100
AcDbVisualStyle
  2
GouraudWithEdges
 70
     3
177
     2
291
     1
 71
     2
176
     1
 72
     2
176
     1
 73
     1
176
     1
 90
        2
176
     1
 40
-0.6
176
     1
 41
30.0
176
     1
 62
     5
 63
     7
421
 16777215
176
     1
 74
     1
176
     1
 91
        4
176
     1
 64
     7
176
     1
 65
   257
176
     1
 75
     1
176
     1
175
     1
176
     1
 42
1.0
176
     1
 92
        0
176
     1
 66
   257
176
     1
 43
1.0
176
     1
 76
     1
176
     1
 77
     6
176
     1
 78
     2
176
     1
 67
     7
176
     1
 79
     5
176
     1
170
     0
176
     1
171
     0
176
     1
290
     0
176
     1
 93
       13
176
     1
 44
0.0
176
     1
173
     0
176
     1
  0
VISUALSTYLE
  5
38
102
{ACAD_REACTORS
330
2A
102
}
330
2A
100
AcDbVisualStyle
  2
Linepattern
 70
    14
177
     2
291
     1
 71
     2
176
     1
 72
     2
176
     1
 73
     0
176
     1
 90
        0
176
     1
 40
-0.6
176
     1
 41
-30.0
176
     1
 62
     5
 63
     7
421
 16777215
176
     1
 74
     1
176
     1
 91
        4
176
     1
 64
     7
176
     1
 65
   257
176
     1
 75
     7
176
     1
175
     7
176
     1
 42
1.0
176
     1
 92
        8
176
     1
 66
     7
176
     1
 43
1.0
176
     1
 76
     1
176
     1
 77
     6
176
     1
 78
     2
176
     1
 67
     7
176
     1
 79
     5
176
     1
170
     0
176
     1
171
     0
176
     1
290
     0
176
     1
 93
        1
176
     1
 44
0.0
176
     1
173
     0
176
     1
  0
VISUALSTYLE
  5
33
102
{ACAD_REACTORS
330
2A
102
}
330
2A
100
AcDbVisualStyle
  2
Realistic
 70
     8
177
     2
291
     0
 71
     2
176
     1
 72
     2
176
     1
 73
     0
176
     1
 90
        0
176
     1
 40
-0.6
176
     1
 41
-30.0
176
     1
 62
     5
 63
     7
421
 16777215
176
     1
 74
     1
176
     1
 91
        0
176
     1
 64
     7
176
     1
 65
   257
176
     1
 75
     1
176
     1
175
     1
176
     1
 42
1.0
176
     1
 92
        8
176
     1
 66
     8
424
  7895160
176
     1
 43
1.0
176
     1
 76
     1
176
     1
 77
     6
176
     1
 78
     2
176
     1
 67
     7
176
     1
 79
     5
176
     1
170
     0
176
     1
171
     0
176
     1
290
     0
176
     1
 93
       13
176
     1
 44
0.0
176
     1
173
     0
176
     1
  0
VISUALSTYLE
  5
37
102
{ACAD_REACTORS
330
2A
102
}
330
2A
100
AcDbVisualStyle
  2
Thicken
 70
    13
177
     2
291
     1
 71
     2
176
     1
 72
     2
176
     1
 73
     0
176
     1
 90
        0
176
     1
 40
-0.6
176
     1
 41
-30.0
176
     1
 62
     5
 63
     7
421
 16777215
176
     1
 74
     1
176
     1
 91
        4
176
     1
 64
     7
176
     1
 65
   257
176
     1
 75
     1
176
     1
175
     1
176
     1
 42
1.0
176
     1
 92
       12
176
     1
 66
     7
176
     1
 43
1.0
176
     1
 76
     1
176
     1
 77
     6
176
     1
 78
     2
176
     1
 67
     7
176
     1
 79
     5
176
     1
170
     0
176
     1
171
     0
176
     1
290
     0
176
     1
 93
        1
176
     1
 44
0.0
176
     1
173
     0
176
     1
  0
ENDSEC
  0
EOF
