  0
SECTION
  2
HEADER
  9
$ACADVER
  1
AC1015
  9
$ACADMAINTVER
 70
     6
  9
$DWGCODEPAGE
  3
ANSI_1252
  9
$INSBASE
 10
0.0
 20
0.0
 30
0.0
  9
$EXTMIN
 10
0.0
 20
0.0
 30
0.0
  9
$EXTMAX
 10
594.0
 20
841.0
 30
0.0
  9
$LIMMIN
 10
0.0
 20
0.0
  9
$LIMMAX
 10
594.0
 20
841.0
  9
$ORTHOMODE
 70
     0
  9
$REGENMODE
 70
     1
  9
$FILLMODE
 70
     1
  9
$QTEXTMODE
 70
     0
  9
$MIRRTEXT
 70
     1
  9
$LTSCALE
 40
1.0
  9
$ATTMODE
 70
     1
  9
$TEXTSIZE
 40
10.0
  9
$TRACEWID
 40
1.0
  9
$TEXTSTYLE
  7
Standard
  9
$CLAYER
  8
0
  9
$CELTYPE
  6
ByLayer
  9
$CECOLOR
 62
   256
  9
$CELTSCALE
 40
1.0
  9
$DISPSILH
 70
     0
  9
$DIMSCALE
 40
1.0
  9
$DIMASZ
 40
2.5
  9
$DIMEXO
 40
0.0
  9
$DIMDLI
 40
3.75
  9
$DIMRND
 40
0.0
  9
$DIMDLE
 40
0.0
  9
$DIMEXE
 40
1.0
  9
$DIMTP
 40
0.0
  9
$DIMTM
 40
0.0
  9
$DIMTXT
 40
3.5
  9
$DIMCEN
 40
2.5
  9
$DIMTSZ
 40
0.0
  9
$DIMTOL
 70
     0
  9
$DIMLIM
 70
     0
  9
$DIMTIH
 70
     1
  9
$DIMTOH
 70
     1
  9
$DIMSE1
 70
     0
  9
$DIMSE2
 70
     0
  9
$DIMTAD
 70
     1
  9
$DIMZIN
 70
     0
  9
$DIMBLK
  1

  9
$DIMASO
 70
     1
  9
$DIMSHO
 70
     1
  9
$DIMPOST
  1

  9
$DIMAPOST
  1

  9
$DIMALT
 70
     0
  9
$DIMALTD
 70
     3
  9
$DIMALTF
 40
0.0393700787
  9
$DIMLFAC
 40
1.0
  9
$DIMTOFL
 70
     1
  9
$DIMTVP
 40
0.0
  9
$DIMTIX
 70
     0
  9
$DIMSOXD
 70
     0
  9
$DIMSAH
 70
     0
  9
$DIMBLK1
  1

  9
$DIMBLK2
  1

  9
$DIMSTYLE
  2
ISO-25
  9
$DIMCLRD
 70
     0
  9
$DIMCLRE
 70
     0
  9
$DIMCLRT
 70
     0
  9
$DIMTFAC
 40
1.0
  9
$DIMGAP
 40
1.5
  9
$DIMJUST
 70
     0
  9
$DIMSD1
 70
     0
  9
$DIMSD2
 70
     0
  9
$DIMTOLJ
 70
     0
  9
$DIMTZIN
 70
     0
  9
$DIMALTZ
 70
     0
  9
$DIMALTTZ
 70
     0
  9
$DIMUPT
 70
     0
  9
$DIMDEC
 70
     2
  9
$DIMTDEC
 70
     2
  9
$DIMALTU
 70
     2
  9
$DIMALTTD
 70
     3
  9
$DIMTXSTY
  7
Standard
  9
$DIMAUNIT
 70
     0
  9
$DIMADEC
 70
     2
  9
$DIMALTRND
 40
0.0
  9
$DIMAZIN
 70
     0
  9
$DIMDSEP
 70
    44
  9
$DIMATFIT
 70
     3
  9
$DIMFRAC
 70
     0
  9
$DIMLDRBLK
  1

  9
$DIMLUNIT
 70
     2
  9
$DIMLWD
 70
    -2
  9
$DIMLWE
 70
    -2
  9
$DIMTMOVE
 70
     0
  9
$LUNITS
 70
     2
  9
$LUPREC
 70
     2
  9
$SKETCHINC
 40
1.0
  9
$FILLETRAD
 40
10.0
  9
$AUNITS
 70
     0
  9
$AUPREC
 70
     2
  9
$MENU
  1
.
  9
$ELEVATION
 40
0.0
  9
$PELEVATION
 40
0.0
  9
$THICKNESS
 40
0.0
  9
$LIMCHECK
 70
     0
  9
$CHAMFERA
 40
0.0
  9
$CHAMFERB
 40
0.0
  9
$CHAMFERC
 40
0.0
  9
$CHAMFERD
 40
0.0
  9
$SKPOLY
 70
     0
  9
$TDCREATE
 40
2457995.367482616
  9
$TDUCREATE
 40
2457995.284149283
  9
$TDUPDATE
 40
2457995.367486401
  9
$TDUUPDATE
 40
2457995.284153067
  9
$TDINDWG
 40
0.0000000116
  9
$TDUSRTIMER
 40
0.0000000116
  9
$USRTIMER
 70
     1
  9
$ANGBASE
 50
0.0
  9
$ANGDIR
 70
     0
  9
$PDMODE
 70
     0
  9
$PDSIZE
 40
-1.0
  9
$PLINEWID
 40
0.0
  9
$SPLFRAME
 70
     0
  9
$SPLINETYPE
 70
     6
  9
$SPLINESEGS
 70
     8
  9
$HANDSEED
  5
1BC
  9
$SURFTAB1
 70
     6
  9
$SURFTAB2
 70
     6
  9
$SURFTYPE
 70
     6
  9
$SURFU
 70
     6
  9
$SURFV
 70
     6
  9
$UCSBASE
  2

  9
$UCSNAME
  2

  9
$UCSORG
 10
0.0
 20
0.0
 30
0.0
  9
$UCSXDIR
 10
1.0
 20
0.0
 30
0.0
  9
$UCSYDIR
 10
0.0
 20
1.0
 30
0.0
  9
$UCSORTHOREF
  2

  9
$UCSORTHOVIEW
 70
     0
  9
$UCSORGTOP
 10
0.0
 20
0.0
 30
0.0
  9
$UCSORGBOTTOM
 10
0.0
 20
0.0
 30
0.0
  9
$UCSORGLEFT
 10
0.0
 20
0.0
 30
0.0
  9
$UCSORGRIGHT
 10
0.0
 20
0.0
 30
0.0
  9
$UCSORGFRONT
 10
0.0
 20
0.0
 30
0.0
  9
$UCSORGBACK
 10
0.0
 20
0.0
 30
0.0
  9
$PUCSBASE
  2

  9
$PUCSNAME
  2

  9
$PUCSORG
 10
0.0
 20
0.0
 30
0.0
  9
$PUCSXDIR
 10
1.0
 20
0.0
 30
0.0
  9
$PUCSYDIR
 10
0.0
 20
1.0
 30
0.0
  9
$PUCSORTHOREF
  2

  9
$PUCSORTHOVIEW
 70
     0
  9
$PUCSORGTOP
 10
0.0
 20
0.0
 30
0.0
  9
$PUCSORGBOTTOM
 10
0.0
 20
0.0
 30
0.0
  9
$PUCSORGLEFT
 10
0.0
 20
0.0
 30
0.0
  9
$PUCSORGRIGHT
 10
0.0
 20
0.0
 30
0.0
  9
$PUCSORGFRONT
 10
0.0
 20
0.0
 30
0.0
  9
$PUCSORGBACK
 10
0.0
 20
0.0
 30
0.0
  9
$USERI1
 70
     0
  9
$USERI2
 70
     0
  9
$USERI3
 70
     0
  9
$USERI4
 70
     0
  9
$USERI5
 70
     0
  9
$USERR1
 40
0.0
  9
$USERR2
 40
0.0
  9
$USERR3
 40
0.0
  9
$USERR4
 40
0.0
  9
$USERR5
 40
0.0
  9
$WORLDVIEW
 70
     1
  9
$SHADEDGE
 70
     3
  9
$SHADEDIF
 70
    70
  9
$TILEMODE
 70
     1
  9
$MAXACTVP
 70
    64
  9
$PINSBASE
 10
0.0
 20
0.0
 30
0.0
  9
$PLIMCHECK
 70
     0
  9
$PEXTMIN
 10
1.0000000000E+20
 20
1.0000000000E+20
 30
1.0000000000E+20
  9
$PEXTMAX
 10
-1.0000000000E+20
 20
-1.0000000000E+20
 30
-1.0000000000E+20
  9
$PLIMMIN
 10
0.0
 20
0.0
  9
$PLIMMAX
 10
420.0
 20
297.0
  9
$UNITMODE
 70
     0
  9
$VISRETAIN
 70
     1
  9
$PLINEGEN
 70
     0
  9
$PSLTSCALE
 70
     1
  9
$TREEDEPTH
 70
  3020
  9
$CMLSTYLE
  2
Standard
  9
$CMLJUST
 70
     0
  9
$CMLSCALE
 40
20.0
  9
$PROXYGRAPHICS
 70
     1
  9
$MEASUREMENT
 70
     1
  9
$CELWEIGHT
370
    -1
  9
$ENDCAPS
280
     0
  9
$JOINSTYLE
280
     0
  9
$LWDISPLAY
290
     1
  9
$INSUNITS
 70
     4
  9
$HYPERLINKBASE
  1

  9
$STYLESHEET
  1

  9
$XEDIT
290
     1
  9
$CEPSNTYPE
380
     0
  9
$PSTYLEMODE
290
     1
  9
$FINGERPRINTGUID
  2
{582A91C3-9156-4E4E-BA31-A1B9D6CE7531}
  9
$VERSIONGUID
  2
{FAEB1C32-E019-11D5-929B-00C0DF256EC4}
  9
$EXTNAMES
290
     1
  9
$PSVPSCALE
 40
0.0
  9
$OLESTARTUP
290
     0
  0
ENDSEC
  0
SECTION
  2
CLASSES
  0
CLASS
  1
ACDBDICTIONARYWDFLT
  2
AcDbDictionaryWithDefault
  3
ObjectDBX Classes
 90
        0
280
     0
281
     0
  0
CLASS
  1
VISUALSTYLE
  2
AcDbVisualStyle
  3
ObjectDBX Classes
 90
     4095
280
     0
281
     0
  0
CLASS
  1
MATERIAL
  2
AcDbMaterial
  3
ObjectDBX Classes
 90
     1153
280
     0
281
     0
  0
CLASS
  1
SCALE
  2
AcDbScale
  3
ObjectDBX Classes
 90
     1153
280
     0
281
     0
  0
CLASS
  1
TABLESTYLE
  2
AcDbTableStyle
  3
ObjectDBX Classes
 90
     4095
280
     0
281
     0
  0
CLASS
  1
MLEADERSTYLE
  2
AcDbMLeaderStyle
  3
ACDB_MLEADERSTYLE_CLASS
 90
     4095
280
     0
281
     0
  0
CLASS
  1
SUN
  2
AcDbSun
  3
SCENEOE
 90
     1153
280
     0
281
     0
  0
CLASS
  1
ACDBPLACEHOLDER
  2
AcDbPlaceHolder
  3
ObjectDBX Classes
 90
        0
280
     0
281
     0
  0
CLASS
  1
LAYOUT
  2
AcDbLayout
  3
ObjectDBX Classes
 90
        0
280
     0
281
     0
  0
ENDSEC
  0
SECTION
  2
TABLES
  0
TABLE
  2
VPORT
  5
8
330
0
100
AcDbSymbolTable
 70
     1
  0
VPORT
  5
29
330
8
100
AcDbSymbolTableRecord
100
AcDbViewportTableRecord
  2
*Active
 70
     0
 10
0.0
 20
0.0
 11
1.0
 21
1.0
 12
297.0
 22
420.5
 13
0.0
 23
0.0
 14
10.0
 24
10.0
 15
10.0
 25
10.0
 16
0.0
 26
0.0
 36
1.0
 17
0.0
 27
0.0
 37
0.0
 40
841.0
 41
0.7063020214
 42
50.0
 43
0.0
 44
0.0
 50
0.0
 51
0.0
 71
     0
 72
  2000
 73
     1
 74
     3
 75
     0
 76
     0
 77
     0
 78
     0
281
     0
 65
     1
110
0.0
120
0.0
130
0.0
111
1.0
121
0.0
131
0.0
112
0.0
122
1.0
132
0.0
 79
     0
146
0.0
  0
ENDTAB
  0
TABLE
  2
LTYPE
  5
5
330
0
100
AcDbSymbolTable
 70
     6
  0
LTYPE
  5
14
330
5
100
AcDbSymbolTableRecord
100
AcDbLinetypeTableRecord
  2
ByBlock
 70
     0
  3

 72
    65
 73
     0
 40
0.0
  0
LTYPE
  5
15
330
5
100
AcDbSymbolTableRecord
100
AcDbLinetypeTableRecord
  2
ByLayer
 70
     0
  3

 72
    65
 73
     0
 40
0.0
  0
LTYPE
  5
16
330
5
100
AcDbSymbolTableRecord
100
AcDbLinetypeTableRecord
  2
Continuous
 70
     0
  3
Solid line
 72
    65
 73
     0
 40
0.0
  0
LTYPE
  5
6E
330
5
100
AcDbSymbolTableRecord
100
AcDbLinetypeTableRecord
  2
HIDDEN
 70
     0
  3
Hidden __ __ __ __ __ __ __ __ __ __ __ __ __ __
 72
    65
 73
     2
 40
1.905
 49
1.27
 74
     0
 49
-0.635
 74
     0
  0
LTYPE
  5
6F
330
5
100
AcDbSymbolTableRecord
100
AcDbLinetypeTableRecord
  2
PHANTOM
 70
     0
  3
Phantom ______  __  __  ______  __  __  ______
 72
    65
 73
     6
 40
12.7
 49
6.35
 74
     0
 49
-1.27
 74
     0
 49
1.27
 74
     0
 49
-1.27
 74
     0
 49
1.27
 74
     0
 49
-1.27
 74
     0
  0
LTYPE
  5
70
330
5
100
AcDbSymbolTableRecord
100
AcDbLinetypeTableRecord
  2
CENTER
 70
     0
  3
Center ____ _ ____ _ ____ _ ____ _ ____ _ ____
 72
    65
 73
     4
 40
10.16
 49
6.35
 74
     0
 49
-1.27
 74
     0
 49
1.27
 74
     0
 49
-1.27
 74
     0
  0
LTYPE
  5
71
330
5
100
AcDbSymbolTableRecord
100
AcDbLinetypeTableRecord
  2
CENTERX2
 70
     0
  3
Center (2x) ________  __  ________  __  _____
 72
    65
 73
     4
 40
20.32
 49
12.7
 74
     0
 49
-2.54
 74
     0
 49
2.54
 74
     0
 49
-2.54
 74
     0
  0
LTYPE
  5
72
330
5
100
AcDbSymbolTableRecord
100
AcDbLinetypeTableRecord
  2
DOT2
 70
     0
  3
Dot (.5x) ........................................
 72
    65
 73
     2
 40
0.635
 49
0.0
 74
     0
 49
-0.635
 74
     0
  0
ENDTAB
  0
TABLE
  2
LAYER
  5
2
330
0
100
AcDbSymbolTable
 70
     1
  0
LAYER
  5
10
330
2
100
AcDbSymbolTableRecord
100
AcDbLayerTableRecord
  2
0
 70
     0
 62
     7
  6
Continuous
370
    -3
390
F
  0
ENDTAB
  0
TABLE
  2
STYLE
  5
3
330
0
100
AcDbSymbolTable
 70
     3
  0
STYLE
  5
11
330
3
100
AcDbSymbolTableRecord
100
AcDbTextStyleTableRecord
  2
Standard
 70
     0
 40
0.0
 41
1.0
 50
0.0
 71
     0
 42
10.0
  3
txt
  4

  0
STYLE
  5
76
330
3
100
AcDbSymbolTableRecord
100
AcDbTextStyleTableRecord
  2
SLDTEXTSTYLE0
 70
     0
 40
0.0
 41
0.96
 50
0.0
 71
     0
 42
10.0
  3
ISOCP3
  4

  0
STYLE
  5
8D
330
3
100
AcDbSymbolTableRecord
100
AcDbTextStyleTableRecord
  2
SLDTEXTSTYLE1
 70
     0
 40
0.0
 41
0.605
 50
0.0
 71
     0
 42
10.0
  3
TXT
  4

  0
ENDTAB
  0
TABLE
  2
VIEW
  5
6
330
0
100
AcDbSymbolTable
 70
     0
  0
ENDTAB
  0
TABLE
  2
UCS
  5
7
330
0
100
AcDbSymbolTable
 70
     0
  0
ENDTAB
  0
TABLE
  2
APPID
  5
9
330
0
100
AcDbSymbolTable
 70
     1
  0
APPID
  5
12
330
9
100
AcDbSymbolTableRecord
100
AcDbRegAppTableRecord
  2
ACAD
 70
     0
  0
ENDTAB
  0
TABLE
  2
DIMSTYLE
  5
A
330
0
100
AcDbSymbolTable
 70
     2
100
AcDbDimStyleTable
  0
DIMSTYLE
105
27
330
A
100
AcDbSymbolTableRecord
100
AcDbDimStyleTableRecord
  2
ISO-25
 70
     0
 41
2.5
 42
0.625
 43
3.75
 44
1.25
 73
     0
 74
     0
 77
     1
 78
     8
140
2.5
141
2.5
143
0.0393700787
147
0.625
171
     3
172
     1
178
     0
271
     2
272
     2
274
     3
278
    44
283
     0
284
     8
340
11
  0
DIMSTYLE
105
77
102
{ACAD_REACTORS
330
75
330
82
102
}
330
A
100
AcDbSymbolTableRecord
100
AcDbDimStyleTableRecord
  2
SLDDIMSTYLE0
 70
     0
 41
2.5
 44
0.0
 45
0.000000001
 73
     0
 74
     0
 77
     1
 78
    12
 79
     3
140
6.0
147
1.5
173
     1
178
     0
271
     2
272
     2
276
     2
284
    12
340
76
  0
ENDTAB
  0
TABLE
  2
BLOCK_RECORD
  5
1
330
0
100
AcDbSymbolTable
 70
     3
  0
BLOCK_RECORD
  5
1F
330
1
100
AcDbSymbolTableRecord
100
AcDbBlockTableRecord
  2
*Model_Space
340
22
  0
BLOCK_RECORD
  5
1B
330
1
100
AcDbSymbolTableRecord
100
AcDbBlockTableRecord
  2
*Paper_Space
340
1E
  0
BLOCK_RECORD
  5
23
330
1
100
AcDbSymbolTableRecord
100
AcDbBlockTableRecord
  2
*Paper_Space0
340
26
  0
BLOCK_RECORD
  5
78
330
1
100
AcDbSymbolTableRecord
100
AcDbBlockTableRecord
  2
_D
340
0
  0
BLOCK_RECORD
  5
83
330
1
100
AcDbSymbolTableRecord
100
AcDbBlockTableRecord
  2
_D_1
340
0
  0
ENDTAB
  0
ENDSEC
  0
SECTION
  2
BLOCKS
  0
BLOCK
  5
20
330
1F
100
AcDbEntity
  8
0
100
AcDbBlockBegin
  2
*Model_Space
 70
     0
 10
0.0
 20
0.0
 30
0.0
  3
*Model_Space
  1

  0
ENDBLK
  5
21
330
1F
100
AcDbEntity
  8
0
100
AcDbBlockEnd
  0
BLOCK
  5
1C
330
1B
100
AcDbEntity
 67
     1
  8
0
100
AcDbBlockBegin
  2
*Paper_Space
 70
     0
 10
0.0
 20
0.0
 30
0.0
  3
*Paper_Space
  1

  0
ENDBLK
  5
1D
330
1B
100
AcDbEntity
 67
     1
  8
0
100
AcDbBlockEnd
  0
BLOCK
  5
24
330
23
100
AcDbEntity
  8
0
100
AcDbBlockBegin
  2
*Paper_Space0
 70
     0
 10
0.0
 20
0.0
 30
0.0
  3
*Paper_Space0
  1

  0
ENDBLK
  5
25
330
23
100
AcDbEntity
  8
0
100
AcDbBlockEnd
  0
BLOCK
  5
79
330
78
100
AcDbEntity
  8
0
100
AcDbBlockBegin
  2
_D
 70
     0
 10
0.0
 20
0.0
 30
0.0
  3
_D
  1

  0
SOLID
  5
7B
330
78
100
AcDbEntity
  8
0
  6
Continuous
 62
     7
370
    18
100
AcDbTrace
 10
42.7614395004
 20
152.0299240879
 30
0.0
 11
42.4614395004
 21
149.5299240879
 31
0.0
 12
43.0614395004
 22
149.5299240879
 32
0.0
 13
43.0614395004
 23
149.5299240879
 33
0.0
  0
SOLID
  5
7C
330
78
100
AcDbEntity
  8
0
  6
Continuous
 62
     7
370
    18
100
AcDbTrace
 10
42.7614395004
 20
52.0299240879
 30
0.0
 11
43.0614395004
 21
54.5299240879
 31
0.0
 12
42.4614395004
 22
54.5299240879
 32
0.0
 13
42.4614395004
 23
54.5299240879
 33
0.0
  0
LINE
  5
7D
330
78
100
AcDbEntity
  8
0
  6
Continuous
 62
     7
370
    18
100
AcDbLine
 10
56.6850079902
 20
152.0299240879
 30
0.0
 11
41.7614395004
 21
152.0299240879
 31
0.0
  0
LINE
  5
7E
330
78
100
AcDbEntity
  8
0
  6
Continuous
 62
     7
370
    18
100
AcDbLine
 10
56.6850079902
 20
52.0299240879
 30
0.0
 11
41.7614395004
 21
52.0299240879
 31
0.0
  0
LINE
  5
7F
330
78
100
AcDbEntity
  8
0
  6
Continuous
 62
     7
370
    18
100
AcDbLine
 10
42.7614395004
 20
152.0299240879
 30
0.0
 11
42.7614395004
 21
52.0299240879
 31
0.0
  0
MTEXT
  5
80
330
78
100
AcDbEntity
  8
0
  6
Continuous
 62
     7
370
    18
100
AcDbMText
 10
35.0270332946
 20
94.3680541463
 30
0.0
 40
6.0
 41
0.0
 71
     1
 72
     1
  1
100
  7
SLDTEXTSTYLE0
 11
-7.044195017643634E-15
 21
1.0
 31
0.0
 73
     1
 44
1.0
  0
MTEXT
  5
81
330
78
100
AcDbEntity
  8
0
  6
Continuous
 62
     7
370
    18
100
AcDbMText
 10
35.0270332946
 20
105.7430548466
 30
0.0
 40
6.0
 41
0.0
 71
     1
 72
     1
  1
mm
  7
SLDTEXTSTYLE0
 11
-7.044195017643634E-15
 21
1.0
 31
0.0
 73
     1
 44
1.0
  0
ENDBLK
  5
7A
330
78
100
AcDbEntity
  8
0
100
AcDbBlockEnd
  0
BLOCK
  5
84
330
83
100
AcDbEntity
  8
0
100
AcDbBlockBegin
  2
_D_1
 70
     0
 10
0.0
 20
0.0
 30
0.0
  3
_D_1
  1

  0
SOLID
  5
86
330
83
100
AcDbEntity
  8
0
  6
Continuous
 62
     7
370
    18
100
AcDbTrace
 10
56.6850079902
 20
38.4602342313
 30
0.0
 11
59.1850079902
 21
38.1602342313
 31
0.0
 12
59.1850079902
 22
38.7602342313
 32
0.0
 13
59.1850079902
 23
38.7602342313
 33
0.0
  0
SOLID
  5
87
330
83
100
AcDbEntity
  8
0
  6
Continuous
 62
     7
370
    18
100
AcDbTrace
 10
156.6850079902
 20
38.4602342313
 30
0.0
 11
154.1850079902
 21
38.7602342313
 31
0.0
 12
154.1850079902
 22
38.1602342313
 32
0.0
 13
154.1850079902
 23
38.1602342313
 33
0.0
  0
LINE
  5
88
330
83
100
AcDbEntity
  8
0
  6
Continuous
 62
     7
370
    18
100
AcDbLine
 10
56.6850079902
 20
52.0299240879
 30
0.0
 11
56.6850079902
 21
37.4602342313
 31
0.0
  0
LINE
  5
89
330
83
100
AcDbEntity
  8
0
  6
Continuous
 62
     7
370
    18
100
AcDbLine
 10
156.6850079902
 20
52.0299240879
 30
0.0
 11
156.6850079902
 21
37.4602342313
 31
0.0
  0
LINE
  5
8A
330
83
100
AcDbEntity
  8
0
  6
Continuous
 62
     7
370
    18
100
AcDbLine
 10
56.6850079902
 20
38.4602342313
 30
0.0
 11
156.6850079902
 21
38.4602342313
 31
0.0
  0
MTEXT
  5
8B
330
83
100
AcDbEntity
  8
0
  6
Continuous
 62
     7
370
    18
100
AcDbMText
 10
93.9626484861
 20
46.1946404371
 30
0.0
 40
6.0
 41
0.0
 71
     1
 72
     1
  1
100
  7
SLDTEXTSTYLE0
 73
     1
 44
1.0
  0
MTEXT
  5
8C
330
83
100
AcDbEntity
  8
0
  6
Continuous
 62
     7
370
    18
100
AcDbMText
 10
105.3376491864
 20
46.1946404371
 30
0.0
 40
6.0
 41
0.0
 71
     1
 72
     1
  1
mm
  7
SLDTEXTSTYLE0
 73
     1
 44
1.0
  0
ENDBLK
  5
85
330
83
100
AcDbEntity
  8
0
100
AcDbBlockEnd
  0
ENDSEC
  0
SECTION
  2
ENTITIES
  0
LINE
  5
73
330
1F
100
AcDbEntity
  8
0
  6
Continuous
 62
     7
370
    18
100
AcDbLine
 10
56.6850079902
 20
152.0299240879
 30
0.0
 11
56.6850079902
 21
52.0299240879
 31
0.0
  0
LINE
  5
74
330
1F
100
AcDbEntity
  8
0
  6
Continuous
 62
     7
370
    18
100
AcDbLine
 10
56.6850079902
 20
52.0299240879
 30
0.0
 11
156.6850079902
 21
52.0299240879
 31
0.0
  0
DIMENSION
  5
75
330
1F
100
AcDbEntity
  8
0
  6
Continuous
 62
     7
370
    18
100
AcDbDimension
  2
_D
 10
42.7614395004
 20
52.0299240879
 30
0.0
 11
42.7614395004
 21
105.4472211621
 31
0.0
 70
   160
  1
<>mm
 71
     2
 42
-1.0
  3
SLDDIMSTYLE0
100
AcDbAlignedDimension
 13
56.6850079902
 23
152.0299240879
 33
0.0
 14
56.6850079902
 24
52.0299240879
 34
0.0
 50
90.0
100
AcDbRotatedDimension
  0
DIMENSION
  5
82
330
1F
100
AcDbEntity
  8
0
  6
Continuous
 62
     7
370
    18
100
AcDbDimension
  2
_D_1
 10
156.6850079902
 20
38.4602342313
 30
0.0
 11
105.0418155019
 21
38.4602342313
 31
0.0
 70
   160
  1
<>mm
 71
     2
 42
-1.0
  3
SLDDIMSTYLE0
100
AcDbAlignedDimension
 13
56.6850079902
 23
52.0299240879
 33
0.0
 14
156.6850079902
 24
52.0299240879
 34
0.0
100
AcDbRotatedDimension
  0
MTEXT
  5
8E
330
1F
100
AcDbEntity
  8
0
  6
Continuous
 62
     7
370
     0
100
AcDbMText
 10
412.8252631579
 20
48.4342449499
 30
0.0
 40
10.0
 41
0.0
 71
     1
 72
     1
  1
KLUDI GmbH & Co KG
  7
SLDTEXTSTYLE1
 73
     1
 44
1.0
  0
MTEXT
  5
8F
330
1F
100
AcDbEntity
  8
0
  6
Continuous
 62
     7
370
     0
100
AcDbMText
 10
210.0873490389
 20
48.4342449499
 30
0.0
 40
10.0
 41
0.0
 71
     1
 72
     1
  1
34 216 05 75
  7
SLDTEXTSTYLE1
 73
     1
 44
1.0
  0
SPLINE
  5
90
330
1F
100
AcDbEntity
  8
0
  6
Continuous
 62
     7
370
    25
100
AcDbSpline
210
0.0
220
0.0
230
1.0
 70
     8
 71
     3
 72
     9
 73
     5
 74
     0
 42
0.000000001
 43
0.00000001
 40
0.0
 40
0.0
 40
0.0
 40
0.0
 40
0.3038081649048775
 40
1.0
 40
1.0
 40
1.0
 40
1.0
 10
340.3770396771195
 20
355.5381153521738
 30
0.0
 10
340.3534880145626
 20
352.6157045444505
 30
0.0
 10
340.275966521471
 20
342.9964409916149
 30
0.0
 10
340.3801016877403
 20
333.3751001974413
 30
0.0
 10
340.4525997402432
 20
326.67680129387
 30
0.0
  0
LINE
  5
91
330
1F
100
AcDbEntity
  8
0
  6
Continuous
 62
     7
370
    25
100
AcDbLine
 10
340.4466579022
 20
366.8645773826
 30
0.0
 11
340.4296873423
 21
364.1037051377
 31
0.0
  0
SPLINE
  5
92
330
1F
100
AcDbEntity
  8
0
  6
Continuous
 62
     7
370
    25
100
AcDbSpline
210
0.0
220
0.0
230
1.0
 70
     8
 71
     3
 72
    13
 73
     9
 74
     0
 42
0.000000001
 43
0.00000001
 40
0.0
 40
0.0
 40
0.0
 40
0.0
 40
0.1209647965912298
 40
0.2617122355617684
 40
0.4229645362007909
 40
0.6052270822691987
 40
0.8088928512494961
 40
1.0
 40
1.0
 40
1.0
 40
1.0
 10
389.4360209169151
 20
326.67680129387
 30
0.0
 10
389.4414166554013
 20
327.575323190138
 30
0.0
 10
389.4530905541018
 20
329.5193116958862
 30
0.0
 10
389.5167038179354
 20
332.6331012524992
 30
0.0
 10
389.5936938740712
 20
336.1615301312937
 30
0.0
 10
389.6655834590478
 20
340.1042801520641
 30
0.0
 10
389.7085959441117
 20
344.2224534130617
 30
0.0
 10
389.6818533606119
 20
347.0041828551293
 30
0.0
 10
389.6689074399235
 20
348.3508010206423
 30
0.0
  0
LINE
  5
93
330
1F
100
AcDbEntity
  8
0
  6
Continuous
 62
     7
370
    25
100
AcDbLine
 10
387.9047477903
 20
412.1365775166
 30
0.0
 11
387.84106209
 21
418.1867693362
 31
0.0
  0
LINE
  5
94
330
1F
100
AcDbEntity
  8
0
  6
Continuous
 62
     7
370
    25
100
AcDbLine
 10
342.2784688236
 20
440.1231636105
 30
0.0
 11
342.083872697
 21
421.6365818677
 31
0.0
  0
LINE
  5
95
330
1F
100
AcDbEntity
  8
0
  6
Continuous
 62
     7
370
    25
100
AcDbLine
 10
342.3130264791
 20
443.4061278401
 30
0.0
 11
342.2784688236
 21
440.1231636105
 31
0.0
  0
SPLINE
  5
96
330
1F
100
AcDbEntity
  8
0
  6
Continuous
 62
     7
370
    25
100
AcDbSpline
210
0.0
220
0.0
230
1.0
 70
     8
 71
     3
 72
    13
 73
     9
 74
     0
 42
0.000000001
 43
0.00000001
 40
0.0
 40
0.0
 40
0.0
 40
0.0
 40
0.0693225790493333
 40
0.1701488411923744
 40
0.2728680172039086
 40
0.3773360749277594
 40
0.4810666340562442
 40
1.0
 40
1.0
 40
1.0
 40
1.0
 10
452.3815376969339
 20
444.4500137863359
 30
0.0
 10
451.8688294140959
 20
444.5459333702737
 30
0.0
 10
450.610412295302
 20
444.7813632443276
 30
0.0
 10
448.5796624171707
 20
445.0684900573854
 30
0.0
 10
446.2841012697374
 20
445.3385106939222
 30
0.0
 10
443.9611936635526
 20
445.5562527223371
 30
0.0
 10
438.5239388390393
 20
445.9794695774158
 30
0.0
 10
433.8632609794617
 20
446.1685531728943
 30
0.0
 10
429.9790127488138
 20
446.3261370358667
 30
0.0
  0
SPLINE
  5
97
330
1F
100
AcDbEntity
  8
0
  6
Continuous
 62
     7
370
    25
100
AcDbSpline
210
0.0
220
0.0
230
1.0
 70
     8
 71
     3
 72
    15
 73
    11
 74
     0
 42
0.000000001
 43
0.00000001
 40
0.0
 40
0.0
 40
0.0
 40
0.0
 40
0.1038907696759692
 40
0.2066047991011557
 40
0.3115216566719634
 40
0.4223036196853694
 40
0.544816736542162
 40
0.6812252120522506
 40
0.8330424360850321
 40
1.0
 40
1.0
 40
1.0
 40
1.0
 10
408.330318919039
 20
446.7605058846674
 30
0.0
 10
407.713748660409
 20
446.7638352039634
 30
0.0
 10
406.4875918534731
 20
446.770456132333
 30
0.0
 10
404.3788433345641
 20
446.7693071305939
 30
0.0
 10
402.114064725357
 20
446.7704963940024
 30
0.0
 10
399.6587310560354
 20
446.7770448989399
 30
0.0
 10
396.9929789455203
 20
446.7861749385939
 30
0.0
 10
394.066124535676
 20
446.7948304680464
 30
0.0
 10
390.8693015399675
 20
446.7995693404171
 30
0.0
 10
388.6802887241957
 20
446.7926113395434
 30
0.0
 10
387.5337982835533
 20
446.7889671025476
 30
0.0
  0
SPLINE
  5
98
330
1F
100
AcDbEntity
  8
0
  6
Continuous
 62
     7
370
    25
100
AcDbSpline
210
0.0
220
0.0
230
1.0
 70
     8
 71
     3
 72
     9
 73
     5
 74
     0
 42
0.000000001
 43
0.00000001
 40
0.0
 40
0.0
 40
0.0
 40
0.0
 40
0.5000117997015113
 40
1.0
 40
1.0
 40
1.0
 40
1.0
 10
367.7074172819318
 20
446.6112260518274
 30
0.0
 10
367.246871246045
 20
446.6040060093493
 30
0.0
 10
366.3258009109816
 20
446.5895662651627
 30
0.0
 10
365.4047999443557
 20
446.5597544067331
 30
0.0
 10
364.9443103285791
 20
446.5448488292894
 30
0.0
  0
LINE
  5
99
330
1F
100
AcDbEntity
  8
0
  6
Continuous
 62
     7
370
    25
100
AcDbLine
 10
343.4443095984
 20
408.2676400242
 30
0.0
 11
343.4443095984
 21
407.0367445049
 31
0.0
  0
ARC
  5
9A
330
1F
100
AcDbEntity
  8
0
  6
Continuous
 62
     7
370
    25
100
AcDbCircle
 10
376.4443103286
 20
408.267639811
 30
0.0
 40
10.0
100
AcDbArc
 50
1.7806607666
 51
9.0468459803
  0
ARC
  5
9B
330
1F
100
AcDbEntity
  8
0
  6
Continuous
 62
     7
370
    25
100
AcDbCircle
 10
353.4443103286
 20
408.267639811
 30
0.0
 40
10.0
100
AcDbArc
 50
170.9531540197
 51
180.0
  0
ARC
  5
9C
330
1F
100
AcDbEntity
  8
0
  6
Continuous
 62
     7
370
    25
100
AcDbCircle
 10
364.9443103286
 20
406.436579036
 30
0.0
 40
21.64486082191336
100
AcDbArc
 50
143.1988062922
 51
170.9531540197
  0
ARC
  5
9D
330
1F
100
AcDbEntity
  8
0
  6
Continuous
 62
     7
370
    25
100
AcDbCircle
 10
364.9443103286
 20
406.436579036
 30
0.0
 40
21.64486082191342
100
AcDbArc
 50
9.0468459803
 51
15.2684548419
  0
SPLINE
  5
9E
330
1F
100
AcDbEntity
  8
0
  6
Continuous
 62
     7
370
    25
100
AcDbSpline
210
0.0
220
0.0
230
1.0
 70
     8
 71
     3
 72
    10
 73
     6
 74
     0
 42
0.000000001
 43
0.00000001
 40
0.0
 40
0.0
 40
0.0
 40
0.0
 40
0.2010679542847417
 40
0.5929101607908175
 40
1.0
 40
1.0
 40
1.0
 40
1.0
 10
449.318447551346
 20
439.6293316779337
 30
0.0
 10
449.5137565539636
 20
439.7094885805995
 30
0.0
 10
450.0896846900897
 20
439.9458556447454
 30
0.0
 10
450.9712472681322
 20
440.5414745539045
 30
0.0
 10
451.5591922159711
 20
441.149874228962
 30
0.0
 10
451.8587751599314
 20
441.4598797259531
 30
0.0
  0
SPLINE
  5
9F
330
1F
100
AcDbEntity
  8
0
  6
Continuous
 62
     7
370
    25
100
AcDbSpline
210
0.0
220
0.0
230
1.0
 70
     8
 71
     3
 72
    11
 73
     7
 74
     0
 42
0.000000001
 43
0.00000001
 40
0.0
 40
0.0
 40
0.0
 40
0.0
 40
0.3731682400781544
 40
0.7340637014658907
 40
0.913244111603597
 40
1.0
 40
1.0
 40
1.0
 40
1.0
 10
442.7292583795549
 20
438.5353256759844
 30
0.0
 10
443.5486122970203
 20
438.5597560746651
 30
0.0
 10
445.1603731728634
 20
438.6078134036601
 30
0.0
 10
447.232538815027
 20
438.8882231657003
 30
0.0
 10
448.5962883182261
 20
439.3003787020249
 30
0.0
 10
449.1408094630792
 20
439.5484152053745
 30
0.0
 10
449.318447551346
 20
439.6293316779337
 30
0.0
  0
LINE
  5
A0
330
1F
100
AcDbEntity
  8
0
  6
Continuous
 62
     7
370
    25
100
AcDbLine
 10
472.996362886
 20
379.7755357621
 30
0.0
 11
473.7463606807
 21
381.0745742915
 31
0.0
  0
LINE
  5
A1
330
1F
100
AcDbEntity
  8
0
  6
Continuous
 62
     7
370
    25
100
AcDbLine
 10
473.7463606807
 20
402.3764957485
 30
0.0
 11
472.996362886
 21
403.6755342779
 31
0.0
  0
LINE
  5
A2
330
1F
100
AcDbEntity
  8
0
  6
Continuous
 62
     7
370
    25
100
AcDbLine
 10
466.5134040924
 20
379.7755357621
 30
0.0
 11
472.996362886
 21
379.7755357621
 31
0.0
  0
LINE
  5
A3
330
1F
100
AcDbEntity
  8
0
  6
Continuous
 62
     7
370
    25
100
AcDbLine
 10
472.996362886
 20
403.6755342779
 30
0.0
 11
469.9443070503
 21
403.6755342779
 31
0.0
  0
LINE
  5
A4
330
1F
100
AcDbEntity
  8
0
  6
Continuous
 62
     7
370
    25
100
AcDbLine
 10
451.8179310771
 20
441.4138649402
 30
0.0
 11
453.0288739415
 21
442.868337482
 31
0.0
  0
LINE
  5
A5
330
1F
100
AcDbEntity
  8
0
  6
Continuous
 62
     7
370
    25
100
AcDbLine
 10
387.8324138286
 20
418.1365822253
 30
0.0
 11
387.9547486367
 21
418.1365822253
 31
0.0
  0
LINE
  5
A6
330
1F
100
AcDbEntity
  8
0
  6
Continuous
 62
     7
370
    25
100
AcDbLine
 10
387.9547486367
 20
418.1365822253
 30
0.0
 11
388.5552952351
 21
418.3551599083
 31
0.0
  0
LINE
  5
A7
330
1F
100
AcDbEntity
  8
0
  6
Continuous
 62
     7
370
    25
100
AcDbLine
 10
388.5552952351
 20
425.9179984031
 30
0.0
 11
388.1184807333
 21
426.0769863425
 31
0.0
  0
ARC
  5
A8
330
1F
100
AcDbEntity
  8
0
  6
Continuous
 62
     7
370
    25
100
AcDbCircle
 10
388.4868914524
 20
425.730059145
 30
0.0
 40
0.2000000000000359
100
AcDbArc
 50
0.0
 51
70.0
  0
ARC
  5
A9
330
1F
100
AcDbEntity
  8
0
  6
Continuous
 62
     7
370
    25
100
AcDbCircle
 10
388.4868914524
 20
418.5430989271
 30
0.0
 40
0.1999999999999318
100
AcDbArc
 50
290.0
 51
0.0
  0
LINE
  5
AA
330
1F
100
AcDbEntity
  8
0
  6
Continuous
 62
     7
370
    25
100
AcDbLine
 10
388.6868911149
 20
418.5431008039
 30
0.0
 11
388.6868911149
 21
425.7300575075
 31
0.0
  0
LINE
  5
AB
330
1F
100
AcDbEntity
  8
0
  6
Continuous
 62
     7
370
    25
100
AcDbLine
 10
337.1004605951
 20
361.8821431694
 30
0.0
 11
340.2858259442
 21
353.998089656
 31
0.0
  0
LINE
  5
AC
330
1F
100
AcDbEntity
  8
0
  6
Continuous
 62
     7
370
    25
100
AcDbLine
 10
322.1842138382
 20
362.6780179141
 30
0.0
 11
335.1762941392
 21
363.1317135689
 31
0.0
  0
LINE
  5
AD
330
1F
100
AcDbEntity
  8
0
  6
Continuous
 62
     7
370
    25
100
AcDbLine
 10
335.0366963359
 20
367.1292778847
 30
0.0
 11
322.0446160348
 21
366.6755822299
 31
0.0
  0
ARC
  5
AE
330
1F
100
AcDbEntity
  8
0
  6
Continuous
 62
     7
370
    25
100
AcDbCircle
 10
335.2460934765
 20
361.1329314429
 30
0.0
 40
2.0
100
AcDbArc
 50
90.0
 51
92.0
  0
ARC
  5
AF
330
1F
100
AcDbEntity
  8
0
  6
Continuous
 62
     7
370
    25
100
AcDbCircle
 10
335.2460934765
 20
361.1329314429
 30
0.0
 40
2.0
100
AcDbArc
 50
22.0
 51
90.0
  0
ARC
  5
B0
330
1F
100
AcDbEntity
  8
0
  6
Continuous
 62
     7
370
    25
100
AcDbCircle
 10
335.2460934765
 20
361.1329314429
 30
0.0
 40
6.000000000000045
100
AcDbArc
 50
30.5657797207
 51
92.0
  0
SPLINE
  5
B1
330
1F
100
AcDbEntity
  8
0
  6
Continuous
 62
     7
370
    25
100
AcDbSpline
210
0.0
220
0.0
230
1.0
 70
     8
 71
     3
 72
    11
 73
     7
 74
     0
 42
0.000000001
 43
0.00000001
 40
0.0
 40
0.0
 40
0.0
 40
0.0
 40
0.3732982799342015
 40
0.7343195044196684
 40
0.9135623544765273
 40
1.0
 40
1.0
 40
1.0
 40
1.0
 10
442.7292583795549
 20
438.5353256759844
 30
0.0
 10
443.5486136284272
 20
438.5597532269791
 30
0.0
 10
445.1603771232967
 20
438.6078049542568
 30
0.0
 10
447.2325267953667
 20
438.8882488740093
 30
0.0
 10
448.5955469360288
 20
439.3001143517893
 30
0.0
 10
449.1393659087245
 20
439.547801758349
 30
0.0
 10
449.3162943335535
 20
439.6283854541979
 30
0.0
  0
LINE
  5
B2
330
1F
100
AcDbEntity
  8
0
  6
Continuous
 62
     7
370
    25
100
AcDbLine
 10
389.9428243103
 20
327.9185659296
 30
0.0
 11
389.9231529149
 21
328.9861634651
 31
0.0
  0
ARC
  5
B3
330
1F
100
AcDbEntity
  8
0
  6
Continuous
 62
     7
370
    25
100
AcDbCircle
 10
342.131449397
 20
405.6561043278
 30
0.0
 40
1.199999999999993
100
AcDbArc
 50
99.1262944344
 51
179.3284250364
  0
LWPOLYLINE
  5
B4
330
1F
100
AcDbEntity
  8
0
  6
Continuous
 62
     7
370
    25
100
AcDbPolyline
 90
        3
 70
   128
 43
0.0
 10
340.9315323742
 20
405.6701664624
 10
340.6413154962
 20
382.4372407792
 10
340.4131358775
 20
364.1827967761
  0
SPLINE
  5
B5
330
1F
100
AcDbEntity
  8
0
  6
Continuous
 62
     7
370
    25
100
AcDbSpline
210
0.0
220
0.0
230
1.0
 70
     8
 71
     3
 72
     9
 73
     5
 74
     0
 42
0.000000001
 43
0.00000001
 40
0.0
 40
0.0
 40
0.0
 40
0.0
 40
0.5332344502134465
 40
1.0
 40
1.0
 40
1.0
 40
1.0
 10
389.9329318018915
 20
327.9186811808175
 30
0.0
 10
389.906783148594
 20
331.5492024925639
 30
0.0
 10
389.8577453317631
 20
338.3576922859245
 30
0.0
 10
389.7336639754221
 20
345.1652187821118
 30
0.0
 10
389.6757470729115
 20
348.3427376297913
 30
0.0
  0
SPLINE
  5
B6
330
1F
100
AcDbEntity
  8
0
  6
Continuous
 62
     7
370
    25
100
AcDbSpline
210
0.0
220
0.0
230
1.0
 70
    24
 71
     3
 72
    10
 73
     6
 74
     0
 42
0.000000001
 43
0.00000001
 40
0.0
 40
0.0
 40
0.0
 40
0.0
 40
0.5
 40
0.5
 40
1.0
 40
1.0
 40
1.0
 40
1.0
 10
339.9443103285791
 20
326.67680129387
 30
0.0
 10
339.9443103285791
 20
326.6768012938699
 30
0.0
 10
351.1464350805016
 20
326.6768012938699
 30
0.0
 10
378.7421855766566
 20
326.6768012938699
 30
0.0
 10
389.9443103285791
 20
326.6768012938699
 30
0.0
 10
389.9443103285791
 20
326.67680129387
 30
0.0
  0
LINE
  5
B7
330
1F
100
AcDbEntity
  8
0
  6
Continuous
 62
     7
370
    25
100
AcDbLine
 10
340.2858259442
 20
353.998089656
 30
0.0
 11
339.9443099561
 21
326.6768012939
 31
0.0
  0
SPLINE
  5
B8
330
1F
100
AcDbEntity
  8
0
  6
Continuous
 62
     7
370
    25
100
AcDbSpline
210
0.0
220
0.0
230
1.0
 70
     8
 71
     3
 72
    28
 73
    24
 74
     0
 42
0.000000001
 43
0.00000001
 40
0.0
 40
0.0
 40
0.0
 40
0.0
 40
0.0312499999999997
 40
0.0312499999999997
 40
0.0624999999999995
 40
0.0624999999999995
 40
0.1249999999999995
 40
0.1249999999999995
 40
0.1874999999999995
 40
0.1874999999999995
 40
0.2499999999999996
 40
0.2499999999999996
 40
0.3749999999999996
 40
0.3749999999999996
 40
0.4999999999999997
 40
0.4999999999999997
 40
0.6249999999999997
 40
0.6249999999999997
 40
0.7499999999999998
 40
0.7499999999999998
 40
0.8749999999999998
 40
0.8749999999999998
 40
1.0
 40
1.0
 40
1.0
 40
1.0
 10
340.2858264249386
 20
353.9980890026326
 30
0.0
 10
340.2858363169296
 20
353.9980645190959
 30
0.0
 10
340.2868023511458
 20
354.0188965841307
 30
0.0
 10
340.2902762330642
 20
354.0951444100422
 30
0.0
 10
340.2926822314876
 20
354.1483896045264
 30
0.0
 10
340.3011463865535
 20
354.339324394443
 30
0.0
 10
340.3081086271875
 20
354.5008256097067
 30
0.0
 10
340.3224393558614
 20
354.8508095834106
 30
0.0
 10
340.3297244291877
 20
355.0369700079921
 30
0.0
 10
340.3438921847706
 20
355.4197082676554
 30
0.0
 10
340.3508083167368
 20
355.6170479217016
 30
0.0
 10
340.3707146670588
 20
356.2218925934535
 30
0.0
 10
340.3825217685843
 20
356.6318885721856
 30
0.0
 10
340.4029299230022
 20
357.4585370334589
 30
0.0
 10
340.4115510170153
 20
357.8756875996626
 30
0.0
 10
340.4256060342701
 20
358.7162071192361
 30
0.0
 10
340.4310174278732
 20
359.1392187630188
 30
0.0
 10
340.4386317230767
 20
359.9757488894455
 30
0.0
 10
340.4408716994593
 20
360.3913017668466
 30
0.0
 10
340.4424945065525
 20
361.2165075763566
 30
0.0
 10
340.4418754956854
 20
361.6262127769652
 30
0.0
 10
340.4380641263729
 20
362.4375892353643
 30
0.0
 10
340.4348092151678
 20
362.8435526619342
 30
0.0
 10
340.430643896269
 20
363.2276257816758
 30
0.0
  0
SPLINE
  5
B9
330
1F
100
AcDbEntity
  8
0
  6
Continuous
 62
     7
370
    25
100
AcDbSpline
210
0.0
220
0.0
230
1.0
 70
     8
 71
     3
 72
    14
 73
    10
 74
     0
 42
0.000000001
 43
0.00000001
 40
0.0
 40
0.0
 40
0.0
 40
0.0
 40
0.2499999999999999
 40
0.2499999999999999
 40
0.4999999999999999
 40
0.4999999999999999
 40
0.7499999999999999
 40
0.7499999999999999
 40
1.0
 40
1.0
 40
1.0
 40
1.0
 10
340.430643896269
 20
363.2276257816759
 30
0.0
 10
340.4293136746394
 20
363.3502820256792
 30
0.0
 10
340.4277131935122
 20
363.4675949005244
 30
0.0
 10
340.4241577979112
 20
363.6880109035198
 30
0.0
 10
340.4221767528527
 20
363.7920843621641
 30
0.0
 10
340.4184075318253
 20
363.9705985656908
 30
0.0
 10
340.4165808803467
 20
364.0470846080552
 30
0.0
 10
340.4139429863464
 20
364.1529201703029
 30
0.0
 10
340.4131372094384
 20
364.1827935811138
 30
0.0
 10
340.4131352731746
 20
364.1827968615063
 30
0.0
  0
SPLINE
  5
BA
330
1F
100
AcDbEntity
  8
0
  6
Continuous
 62
     7
370
    25
100
AcDbSpline
210
0.0
220
0.0
230
1.0
 70
     8
 71
     3
 72
    19
 73
    15
 74
     0
 42
0.000000001
 43
0.00000001
 40
0.0
 40
0.0
 40
0.0
 40
0.0
 40
0.0336794858127866
 40
0.0671773651423678
 40
0.1004640759027708
 40
0.1335166212299478
 40
0.1663157964827214
 40
0.3368441630750366
 40
0.5005828189392253
 40
0.6605279668324099
 40
0.7664835497006961
 40
0.8754377390018938
 40
0.9899158445739052
 40
1.0
 40
1.0
 40
1.0
 40
1.0
 10
405.6857119184465
 20
438.0716217950417
 30
0.0
 10
405.428685314444
 20
438.0514947847639
 30
0.0
 10
404.9160180449862
 20
438.011349293049
 30
0.0
 10
404.1505352800549
 20
437.9370473795495
 30
0.0
 10
403.3911957449181
 20
437.8504270163182
 30
0.0
 10
402.6390757945423
 20
437.748606879139
 30
0.0
 10
400.8522746657895
 20
437.463967190717
 30
0.0
 10
398.1104057164794
 20
436.7915159619735
 30
0.0
 10
394.6353552152363
 20
435.2342680302108
 30
0.0
 10
391.9878735236182
 20
433.2213017891428
 30
0.0
 10
390.1361291514533
 20
431.00898756617
 30
0.0
 10
388.9007653766766
 20
428.7941866402467
 30
0.0
 10
388.3380594781202
 20
427.0839549632664
 30
0.0
 10
388.1349258252911
 20
426.1524010373249
 30
0.0
 10
388.1184807855898
 20
426.0769854619997
 30
0.0
  0
SPLINE
  5
BB
330
1F
100
AcDbEntity
  8
0
  6
Continuous
 62
     7
370
    25
100
AcDbSpline
210
0.0
220
0.0
230
1.0
 70
     8
 71
     3
 72
    10
 73
     6
 74
     0
 42
0.000000001
 43
0.00000001
 40
0.0
 40
0.0
 40
0.0
 40
0.0
 40
0.5000000000000001
 40
0.5000000000000001
 40
1.0
 40
1.0
 40
1.0
 40
1.0
 10
388.1184807359239
 20
426.0769852284798
 30
0.0
 10
388.1176309745076
 20
426.0773122161448
 30
0.0
 10
388.1026401860922
 20
426.0416725937201
 30
0.0
 10
388.0459535477449
 20
425.8984416565233
 30
0.0
 10
388.0049608654534
 20
425.7927804198857
 30
0.0
 10
387.9547481111184
 20
425.6523605516229
 30
0.0
  0
SPLINE
  5
BC
330
1F
100
AcDbEntity
  8
0
  6
Continuous
 62
     7
370
    25
100
AcDbSpline
210
0.0
220
0.0
230
1.0
 70
     8
 71
     3
 72
    14
 73
    10
 74
     0
 42
0.000000001
 43
0.00000001
 40
0.0
 40
0.0
 40
0.0
 40
0.0
 40
0.25
 40
0.25
 40
0.5
 40
0.5
 40
0.75
 40
0.75
 40
1.0
 40
1.0
 40
1.0
 40
1.0
 10
387.9547481111184
 20
425.6523605516229
 30
0.0
 10
387.9051980046924
 20
425.5044500918662
 30
0.0
 10
387.8498912210056
 20
425.328734700943
 30
0.0
 10
387.7380011855677
 20
424.9234004387031
 30
0.0
 10
387.6809523833377
 20
424.6909196005578
 30
0.0
 10
387.5811263175464
 20
424.1910109522578
 30
0.0
 10
387.5375718818347
 20
423.921106354187
 30
0.0
 10
387.4731706609769
 20
423.3420480931903
 30
0.0
 10
387.4535945333441
 20
423.0439798940151
 30
0.0
 10
387.448529892931
 20
422.7374544549155
 30
0.0
  0
LWPOLYLINE
  5
BD
330
1F
100
AcDbEntity
  8
0
  6
Continuous
 62
     7
370
    25
100
AcDbPolyline
 90
       15
 70
   128
 43
0.0
 10
342.083872697
 20
421.6365818677
 10
342.1095362218
 20
421.6262106595
 10
342.3144979688
 20
421.5433974562
 10
342.7225886198
 20
421.3785235582
 10
343.3301629784
 20
421.1330418287
 10
344.1317877086
 20
420.8091650901
 10
345.1203009399
 20
420.4097841678
 10
346.2868662836
 20
419.9384604392
 10
347.6210585149
 20
419.399410933
 10
349.1109529795
 20
418.7974561749
 10
350.7432308333
 20
418.1379680333
 10
352.5033066334
 20
417.4268548188
 10
354.3754475477
 20
416.6704569755
 10
356.3429223659
 20
415.875547081
 10
358.3881463209
 20
415.0492255388
  0
LINE
  5
BE
330
1F
100
AcDbEntity
  8
0
  6
Continuous
 62
     7
370
    25
100
AcDbLine
 10
373.3724098938
 20
412.1365775166
 30
0.0
 11
387.9047477903
 21
412.1365775166
 31
0.0
  0
SPLINE
  5
BF
330
1F
100
AcDbEntity
  8
0
  6
Continuous
 62
     7
370
    25
100
AcDbSpline
210
0.0
220
0.0
230
1.0
 70
     8
 71
     3
 72
    13
 73
     9
 74
     0
 42
0.000000001
 43
0.00000001
 40
0.0
 40
0.0
 40
0.0
 40
0.0
 40
0.1275867476242628
 40
0.3200059776189131
 40
0.5145227422653931
 40
0.7115544953891592
 40
0.9078167717876028
 40
1.0
 40
1.0
 40
1.0
 40
1.0
 10
387.8323877515556
 20
418.1866799292765
 30
0.0
 10
387.8324966025987
 20
418.1857674699736
 30
0.0
 10
387.832769616725
 20
418.183478890347
 30
0.0
 10
387.7434675364007
 20
418.6807484804256
 30
0.0
 10
387.6131735528412
 20
419.559935386344
 30
0.0
 10
387.4921679710036
 20
420.751140885184
 30
0.0
 10
387.4416811036712
 20
421.8692149633129
 30
0.0
 10
387.4467231631096
 20
422.5273329772684
 30
0.0
 10
387.4483345361712
 20
422.7376584706507
 30
0.0
  0
SPLINE
  5
C0
330
1F
100
AcDbEntity
  8
0
  6
Continuous
 62
     7
370
    25
100
AcDbSpline
210
0.0
220
0.0
230
1.0
 70
     8
 71
     3
 72
    18
 73
    14
 74
     0
 42
0.000000001
 43
0.00000001
 40
0.0
 40
0.0
 40
0.0
 40
0.0
 40
0.25
 40
0.25
 40
0.3749999999999999
 40
0.3749999999999999
 40
0.4999999999999999
 40
0.4999999999999999
 40
0.7499999999999999
 40
0.7499999999999999
 40
0.875
 40
0.875
 40
1.0
 40
1.0
 40
1.0
 40
1.0
 10
358.388146282367
 20
415.0492248533595
 30
0.0
 10
359.5615584020846
 20
414.5751355832807
 30
0.0
 10
360.7647112601046
 20
414.1536394021358
 30
0.0
 10
362.616314591355
 20
413.6045033852418
 30
0.0
 10
363.2413523330146
 20
413.4353308213849
 30
0.0
 10
364.5078194415166
 20
413.1257603173473
 30
0.0
 10
365.1528505831677
 20
412.9847405762521
 30
0.0
 10
367.0790904114597
 20
412.6131103532757
 30
0.0
 10
368.354176293896
 20
412.4322713567576
 30
0.0
 10
370.2518408106588
 20
412.2534281158931
 30
0.0
 10
370.88188446697
 20
412.2092494975483
 30
0.0
 10
372.1364854903688
 20
412.1507458927858
 30
0.0
 10
372.760215929707
 20
412.136579036031
 30
0.0
 10
373.3724100190035
 20
412.136579036031
 30
0.0
  0
SPLINE
  5
C1
330
1F
100
AcDbEntity
  8
0
  6
Continuous
 62
     7
370
    25
100
AcDbSpline
210
0.0
220
0.0
230
1.0
 70
     8
 71
     3
 72
    33
 73
    29
 74
     0
 42
0.000000001
 43
0.00000001
 40
0.0
 40
0.0
 40
0.0
 40
0.0
 40
0.0533670854029857
 40
0.1067341708059714
 40
0.1601012562089572
 40
0.1867847989104501
 40
0.2134683416119429
 40
0.2401518843134358
 40
0.2668354270149286
 40
0.3202025124179143
 40
0.3468860551194072
 40
0.3735695978209001
 40
0.4002531405223929
 40
0.4269366832238858
 40
0.4269366832238858
 40
0.5100406779120428
 40
0.5931446726001997
 40
0.6762486672883569
 40
0.7593526619765139
 40
0.7593526619765139
 40
0.7743931206029817
 40
0.7894335792294496
 40
0.8044740378559175
 40
0.8195144964823855
 40
0.8345549551088534
 40
0.8495954137353212
 40
0.8646358723617891
 40
0.8755265344656493
 40
0.8755265344656493
 40
0.8755265344656493
 40
0.8755265344656493
 10
389.6757461842918
 20
348.3427380383607
 30
0.0
 10
389.6419485187018
 20
350.3372786680138
 30
0.0
 10
389.8091316068506
 20
354.333062346457
 30
0.0
 10
391.0382813677564
 20
360.2127587064125
 30
0.0
 10
393.163897474201
 20
364.7507817729714
 30
0.0
 10
395.5940631314904
 20
367.8963338865476
 30
0.0
 10
397.7377955807324
 20
369.9520605818234
 30
0.0
 10
400.1495237073404
 20
371.6713949286653
 30
0.0
 10
403.6255047506169
 20
373.5152993032611
 30
0.0
 10
407.3553021209258
 20
374.735240379932
 30
0.0
 10
411.1625250075629
 20
375.4803712694982
 30
0.0
 10
414.0384208008128
 20
375.8405218697335
 30
0.0
 10
416.9140619836201
 20
376.0264040862895
 30
0.0
 10
418.8247764578114
 20
376.0641573762992
 30
0.0
 10
422.7435841490419
 20
376.1455245384404
 30
0.0
 10
428.4922484019607
 20
376.2583582021824
 30
0.0
 10
436.8762328943631
 20
376.4053036870549
 30
0.0
 10
445.2537916949633
 20
376.5346979576184
 30
0.0
 10
450.9885583795006
 20
376.6112449335556
 30
0.0
 10
454.4792475955237
 20
376.6538938695283
 30
0.0
 10
455.5538239948581
 20
376.6778495091794
 30
0.0
 10
457.1773448480723
 20
376.7606161760386
 30
0.0
 10
458.810072613377
 20
376.9043972395532
 30
0.0
 10
460.4456312422745
 20
377.1340430976439
 30
0.0
 10
462.0729132472958
 20
377.4814673355549
 30
0.0
 10
463.6691355636924
 20
377.9930566868966
 30
0.0
 10
465.0504349751145
 20
378.6590406966494
 30
0.0
 10
465.8498467907178
 20
379.2169847321858
 30
0.0
 10
466.1665891065538
 20
379.4755360992065
 30
0.0
  0
SPLINE
  5
C2
330
1F
100
AcDbEntity
  8
0
  6
Continuous
 62
     7
370
    25
100
AcDbSpline
210
0.0
220
0.0
230
1.0
 70
     8
 71
     3
 72
    46
 73
    42
 74
     0
 42
0.000000001
 43
0.00000001
 40
0.0
 40
0.0
 40
0.0
 40
0.0
 40
0.0312500000000002
 40
0.0312500000000002
 40
0.0625000000000003
 40
0.0625000000000003
 40
0.1250000000000006
 40
0.1250000000000006
 40
0.1875000000000008
 40
0.1875000000000008
 40
0.2500000000000011
 40
0.2500000000000011
 40
0.2812500000000013
 40
0.2812500000000013
 40
0.3125000000000015
 40
0.3125000000000015
 40
0.3750000000000021
 40
0.3750000000000021
 40
0.4375000000000027
 40
0.4375000000000027
 40
0.4687500000000026
 40
0.4687500000000026
 40
0.5000000000000026
 40
0.5000000000000026
 40
0.5625000000000027
 40
0.5625000000000027
 40
0.5937500000000029
 40
0.5937500000000029
 40
0.625000000000003
 40
0.625000000000003
 40
0.7500000000000034
 40
0.7500000000000034
 40
0.7812500000000031
 40
0.7812500000000031
 40
0.8125000000000028
 40
0.8125000000000028
 40
0.8750000000000019
 40
0.8750000000000019
 40
0.937500000000001
 40
0.937500000000001
 40
1.0
 40
1.0
 40
1.0
 40
1.0
 10
466.5134063622091
 20
379.7755360973251
 30
0.0
 10
466.5134063437174
 20
379.7755360972699
 30
0.0
 10
466.5168202382625
 20
379.7850862420257
 30
0.0
 10
466.5243256503844
 20
379.822753848554
 30
0.0
 10
466.5275417318579
 20
379.8508768074677
 30
0.0
 10
466.5395893563582
 20
379.9627392889148
 30
0.0
 10
466.5572902517804
 20
380.0738161198675
 30
0.0
 10
466.6129718135261
 20
380.369934751779
 30
0.0
 10
466.6486553118069
 20
380.5563691288165
 30
0.0
 10
466.7299601863612
 20
380.9926990779275
 30
0.0
 10
466.7757506262014
 20
381.2434146671643
 30
0.0
 10
466.850772861898
 20
381.667789916416
 30
0.0
 10
466.8768715486573
 20
381.8173256163578
 30
0.0
 10
466.9308701923464
 20
382.132822200428
 30
0.0
 10
466.9588670046087
 20
382.2994660919414
 30
0.0
 10
467.0442726098052
 20
382.8189070498518
 30
0.0
 10
467.1029362607014
 20
383.1905694282007
 30
0.0
 10
467.2246692517515
 20
383.9828369370747
 30
0.0
 10
467.287916221183
 20
384.4034290764007
 30
0.0
 10
467.3866976730373
 20
385.0717562857599
 30
0.0
 10
467.4203778752567
 20
385.3016725972371
 30
0.0
 10
467.4881528452193
 20
385.7682441718304
 30
0.0
 10
467.5222947819864
 20
386.0051986079374
 30
0.0
 10
467.6254510255745
 20
386.726822435301
 30
0.0
 10
467.6950133873701
 20
387.2222259699234
 30
0.0
 10
467.8012703525562
 20
387.9866482952409
 30
0.0
 10
467.8371004199451
 20
388.2450094015227
 30
0.0
 10
467.9099221719702
 20
388.7689303611103
 30
0.0
 10
467.9470452559896
 20
389.0354277325534
 30
0.0
 10
468.1334141966338
 20
390.3681512910813
 30
0.0
 10
468.2864868271228
 20
391.4432896790637
 30
0.0
 10
468.4768572652064
 20
392.7991909275381
 30
0.0
 10
468.515003019714
 20
393.0719087422966
 30
0.0
 10
468.5898543526832
 20
393.6112055299682
 30
0.0
 10
468.626639807039
 20
393.8783811635058
 30
0.0
 10
468.7346828994991
 20
394.6726888235967
 30
0.0
 10
468.8036054750724
 20
395.192639102122
 30
0.0
 10
468.9334247063752
 20
396.2135187468908
 30
0.0
 10
468.9945676829671
 20
396.7169756885557
 30
0.0
 10
469.1068842504749
 20
397.6911755208439
 30
0.0
 10
469.1579771062846
 20
398.1597005017654
 30
0.0
 10
469.2061292674609
 20
398.6092769387984
 30
0.0
  0
SPLINE
  5
C3
330
1F
100
AcDbEntity
  8
0
  6
Continuous
 62
     7
370
    25
100
AcDbSpline
210
0.0
220
0.0
230
1.0
 70
     8
 71
     3
 72
     8
 73
     4
 74
     0
 42
0.000000001
 43
0.00000001
 40
0.8755265344656503
 40
0.8755265344656503
 40
0.8755265344656503
 40
0.8755265344656503
 40
0.8795961283660927
 40
0.8795961283660927
 40
0.8795961283660927
 40
0.8795961283660927
 10
466.5134063622092
 20
379.7755360973251
 30
0.0
 10
466.4006551850539
 20
379.6721481512229
 30
0.0
 10
466.2849485400066
 20
379.5721508923333
 30
0.0
 10
466.1665891065538
 20
379.4755360992065
 30
0.0
  0
SPLINE
  5
C4
330
1F
100
AcDbEntity
  8
0
  6
Continuous
 62
     7
370
    25
100
AcDbSpline
210
0.0
220
0.0
230
1.0
 70
     8
 71
     3
 72
    10
 73
     6
 74
     0
 42
0.000000001
 43
0.00000001
 40
0.0
 40
0.0
 40
0.0
 40
0.0
 40
0.5
 40
0.5
 40
1.0
 40
1.0
 40
1.0
 40
1.0
 10
343.0425542572669
 20
444.3583491722172
 30
0.0
 10
342.8342978355746
 20
444.2998535069527
 30
0.0
 10
342.6505868992116
 20
444.1750780738091
 30
0.0
 10
342.3885470690627
 20
443.8335208481471
 30
0.0
 10
342.3153025433905
 20
443.6224287843372
 30
0.0
 10
342.3130256625779
 20
443.4061251071339
 30
0.0
  0
SPLINE
  5
C5
330
1F
100
AcDbEntity
  8
0
  6
Continuous
 62
     7
370
    25
100
AcDbSpline
210
0.0
220
0.0
230
1.0
 70
     8
 71
     3
 72
    16
 73
    12
 74
     0
 42
0.000000001
 43
0.00000001
 40
0.0
 40
0.0
 40
0.0
 40
0.0
 40
0.0000021369654189
 40
0.1306858796575396
 40
0.2613886085372334
 40
0.392284612821303
 40
0.5231782568678136
 40
0.6542685519716369
 40
0.7853556923622972
 40
0.9165612038321594
 40
0.9999999999999999
 40
0.9999999999999999
 40
0.9999999999999999
 40
0.9999999999999999
 10
364.9244727048115
 20
444.7176311907969
 30
0.0
 10
364.9244527080549
 20
444.7176311907999
 30
0.0
 10
363.7015533109311
 20
444.7176313792609
 30
0.0
 10
361.2494397656606
 20
444.6486271515237
 30
0.0
 10
357.6758051385382
 20
444.6186492757664
 30
0.0
 10
354.3047673351766
 20
444.5614354044056
 30
0.0
 10
351.2249763354741
 20
444.5133018819932
 30
0.0
 10
348.5311505409396
 20
444.467401121854
 30
0.0
 10
346.3147147482656
 20
444.4272483990002
 30
0.0
 10
344.7606811127421
 20
444.3961231689007
 30
0.0
 10
344.2036883194822
 20
444.3847604449246
 30
0.0
 10
343.9871682139399
 20
444.3803434071741
 30
0.0
  0
SPLINE
  5
C6
330
1F
100
AcDbEntity
  8
0
  6
Continuous
 62
     7
370
    25
100
AcDbSpline
210
0.0
220
0.0
230
1.0
 70
     8
 71
     3
 72
    34
 73
    30
 74
     0
 42
0.000000001
 43
0.00000001
 40
0.0
 40
0.0
 40
0.0
 40
0.0
 40
0.125
 40
0.125
 40
0.1875000000000001
 40
0.1875000000000001
 40
0.2500000000000001
 40
0.2500000000000001
 40
0.3750000000000002
 40
0.3750000000000002
 40
0.4062500000000003
 40
0.4062500000000003
 40
0.4375000000000004
 40
0.4375000000000004
 40
0.5000000000000004
 40
0.5000000000000004
 40
0.6250000000000001
 40
0.6250000000000001
 40
0.65625
 40
0.65625
 40
0.6874999999999999
 40
0.6874999999999999
 40
0.7499999999999999
 40
0.7499999999999999
 40
0.8125
 40
0.8125
 40
0.875
 40
0.875
 40
1.0
 40
1.0
 40
1.0
 40
1.0
 10
386.6943103285791
 20
408.6288956008102
 30
0.0
 10
386.6943103285791
 20
408.6288564186474
 30
0.0
 10
386.5530733305044
 20
408.6075501518745
 30
0.0
 10
386.1383105291113
 20
408.5468156528183
 30
0.0
 10
385.9659854900042
 20
408.5217727411334
 30
0.0
 10
385.5516756826216
 20
408.4626196740207
 30
0.0
 10
385.3086488051287
 20
408.4283725072672
 30
0.0
 10
384.4902896695071
 20
408.3156876945126
 30
0.0
 10
383.8228601011385
 20
408.2267692627574
 30
0.0
 10
382.8375518814273
 20
408.1049409166558
 30
0.0
 10
382.6328700637719
 20
408.0800412515711
 30
0.0
 10
382.2080160872598
 20
408.0293422507707
 30
0.0
 10
381.9871989059272
 20
408.0034699158844
 30
0.0
 10
381.3069018948716
 20
407.9254402686717
 30
0.0
 10
380.8295968328097
 20
407.8728560565044
 30
0.0
 10
379.3283750875898
 20
407.7157442452402
 30
0.0
 10
378.2358250656126
 20
407.6118329586239
 30
0.0
 10
376.7518398328526
 20
407.4906245362408
 30
0.0
 10
376.4483504291204
 20
407.4667679676425
 30
0.0
 10
375.8355502205133
 20
407.4205997326087
 30
0.0
 10
375.5256937905192
 20
407.3982391721221
 30
0.0
 10
374.5859225188221
 20
407.3335373053633
 30
0.0
 10
373.9458296745416
 20
407.2935764874995
 30
0.0
 10
372.6387721590695
 20
407.2210812699946
 30
0.0
 10
371.9718082078169
 20
407.1885357079259
 30
0.0
 10
370.6105167786897
 20
407.1319863540489
 30
0.0
 10
369.9128574394214
 20
407.107920462779
 30
0.0
 10
367.80430767329
 20
407.0514353672235
 30
0.0
 10
366.382431455334
 20
407.035791546663
 30
0.0
 10
364.9443103285791
 20
407.0362748112029
 30
0.0
  0
SPLINE
  5
C7
330
1F
100
AcDbEntity
  8
0
  6
Continuous
 62
     7
370
    25
100
AcDbSpline
210
0.0
220
0.0
230
1.0
 70
     8
 71
     3
 72
   100
 73
    96
 74
     0
 42
0.000000001
 43
0.00000001
 40
0.194019299481111
 40
0.194019299481111
 40
0.194019299481111
 40
0.194019299481111
 40
0.2055746583968071
 40
0.2199088031435644
 40
0.2309809912552851
 40
0.2348288379048753
 40
0.2378316744173555
 40
0.253139600665989
 40
0.2649854663543826
 40
0.281462381240441
 40
0.2946215578173611
 40
0.2971567709471271
 40
0.2991578670836905
 40
0.3182207948436159
 40
0.333520518098097
 40
0.3455174809130337
 40
0.354975907497488
 40
0.3574726613725622
 40
0.3594340869953326
 40
0.3740683285702296
 40
0.3854831331935431
 40
0.395301941758579
 40
0.402930666856574
 40
0.4099108053948909
 40
0.4153321841365762
 40
0.4287803859732442
 40
0.4391915333451342
 40
0.4575032523277863
 40
0.4721276246582604
 40
0.4850581528748082
 40
0.4954107507299327
 40
0.5
 40
0.5160852674033667
 40
0.5324878152181394
 40
0.546395458818867
 40
0.5602211746215553
 40
0.5625
 40
0.5816089757989709
 40
0.5879303849421207
 40
0.5928504024777614
 40
0.6089361786649459
 40
0.6247579546301142
 40
0.6371580762700693
 40
0.6496557420259277
 40
0.6597998516933827
 40
0.6678866069101576
 40
0.6875
 40
0.6910075514005283
 40
0.71003900179733
 40
0.7178679019085701
 40
0.7242808069049482
 40
0.7420940379631837
 40
0.75
 40
0.7568992616899607
 40
0.7623929276106673
 40
0.7667541527010477
 40
0.7749253030974821
 40
0.7814161795889797
 40
0.789529537090578
 40
0.795944941579103
 40
0.8040048876545777
 40
0.8103519947377792
 40
0.8125
 40
0.8183621386409867
 40
0.8246460421864309
 40
0.832608831399272
 40
0.8388332988391761
 40
0.84375
 40
0.8467395980512848
 40
0.8529007490580792
 40
0.8607152977681659
 40
0.8668011474900376
 40
0.8744089054809928
 40
0.8744159821686962
 40
0.8744207803533836
 40
0.875
 40
0.8803548891677652
 40
0.8876235151071704
 40
0.8933482938835188
 40
0.9001123441247054
 40
0.9055105050786625
 40
0.9055167466651846
 40
0.9055648301696325
 40
0.90625
 40
0.9117005708038616
 40
0.9167258983479766
 40
0.921875
 40
0.922287534179453
 40
0.922450443519063
 40
0.9269149337402716
 40
0.9319094974255746
 40
0.936177850949829
 40
0.9375
 40
0.9446380734802216
 40
0.9466676943033607
 40
0.9466676943033607
 40
0.9466676943033607
 40
0.9466676943033607
 10
386.6943103285791
 20
408.6288956008102
 30
0.0
 10
387.1261845787045
 20
408.6269707154268
 30
0.0
 10
388.0937839408318
 20
408.6225279622783
 30
0.0
 10
389.4751809559053
 20
408.6157692482856
 30
0.0
 10
390.5685045685688
 20
408.610097053788
 30
0.0
 10
391.2383345609069
 20
408.6065058203398
 30
0.0
 10
392.0664630087422
 20
408.6019999659682
 30
0.0
 10
393.1934867120963
 20
408.5956280653958
 30
0.0
 10
394.8240373679304
 20
408.5858952602662
 30
0.0
 10
396.3742525608884
 20
408.5761323913538
 30
0.0
 10
397.5764910868392
 20
408.5681477150735
 30
0.0
 10
398.2377602999351
 20
408.5636355683199
 30
0.0
 10
399.1196453303407
 20
408.5575716804407
 30
0.0
 10
400.478503623873
 20
408.5478962966119
 30
0.0
 10
402.2108316043828
 20
408.5348721472982
 30
0.0
 10
403.5842253604795
 20
408.5241125206232
 30
0.0
 10
404.4792003873483
 20
408.516878755897
 30
0.0
 10
404.9991887484144
 20
408.5126039525284
 30
0.0
 10
405.7125654779369
 20
408.506702518791
 30
0.0
 10
406.7591384770171
 20
408.4978437869897
 30
0.0
 10
408.0992465281792
 20
408.4860968061612
 30
0.0
 10
409.1775808540382
 20
408.4763798163538
 30
0.0
 10
410.0902079575332
 20
408.4679720562609
 30
0.0
 10
410.838529650355
 20
408.460951713305
 30
0.0
 10
411.8042469372239
 20
408.4517535742536
 30
0.0
 10
412.8981119311078
 20
408.4410965368108
 30
0.0
 10
414.4734732652041
 20
408.4253146808817
 30
0.0
 10
416.0926966921081
 20
408.4085567997253
 30
0.0
 10
417.8059341572799
 20
408.3901752610618
 30
0.0
 10
419.2218080616042
 20
408.3745344923035
 30
0.0
 10
420.2628176240505
 20
408.3627554883103
 30
0.0
 10
421.421621077965
 20
408.349444220339
 30
0.0
 10
422.8063234871524
 20
408.3332083325499
 30
0.0
 10
424.5387806519748
 20
408.312294498338
 30
0.0
 10
426.186503562656
 20
408.2919138251614
 30
0.0
 10
427.3066521114236
 20
408.2777767534368
 30
0.0
 10
428.6206824619451
 20
408.2610160319457
 30
0.0
 10
429.6544139654655
 20
408.2476485186162
 30
0.0
 10
430.7865679359574
 20
408.2327165060119
 30
0.0
 10
431.8059353016802
 20
408.2191487194933
 30
0.0
 10
433.1797169573921
 20
408.2005390577233
 30
0.0
 10
434.8329483412564
 20
408.1774666902384
 30
0.0
 10
436.3529314700178
 20
408.1556365877375
 30
0.0
 10
437.6616331629035
 20
408.1363326319854
 30
0.0
 10
438.8099068483756
 20
408.1189579936419
 30
0.0
 10
440.2248527955668
 20
408.0970894833627
 30
0.0
 10
441.3927434104996
 20
408.0784391284009
 30
0.0
 10
442.9717407013387
 20
408.052477848495
 30
0.0
 10
444.1101877502005
 20
408.0328518349108
 30
0.0
 10
445.3574324858069
 20
408.0074382589335
 30
0.0
 10
446.5586824585426
 20
407.9803895272568
 30
0.0
 10
447.7618822622053
 20
407.9481070916036
 30
0.0
 10
448.9811590335844
 20
407.9073890795837
 30
0.0
 10
449.738987385034
 20
407.8788249923842
 30
0.0
 10
450.3639863204098
 20
407.8531627697693
 30
0.0
 10
451.0361198644389
 20
407.8238640747656
 30
0.0
 10
451.745133380415
 20
407.7907816293409
 30
0.0
 10
452.5938724590345
 20
407.7484144173131
 30
0.0
 10
453.3772947738081
 20
407.7069735966339
 30
0.0
 10
454.2196148657978
 20
407.6602014299172
 30
0.0
 10
454.9966712240757
 20
407.6152224753841
 30
0.0
 10
455.6151642391619
 20
407.5781768298182
 30
0.0
 10
456.1519860147959
 20
407.5454688723154
 30
0.0
 10
456.6868835075942
 20
407.5123843817572
 30
0.0
 10
457.4395999718918
 20
407.4645032632176
 30
0.0
 10
458.2052348438082
 20
407.4138704961294
 30
0.0
 10
458.9180629533106
 20
407.3645208921724
 30
0.0
 10
459.4438668113045
 20
407.3266434391514
 30
0.0
 10
459.9660118706192
 20
407.2878776310703
 30
0.0
 10
460.5936676795146
 20
407.239575544278
 30
0.0
 10
461.3313132091279
 20
407.1793830239412
 30
0.0
 10
462.1163819758213
 20
407.11117729279
 30
0.0
 10
462.6119544873287
 20
407.0652711056153
 30
0.0
 10
462.8860021768513
 20
407.0389055948169
 30
0.0
 10
462.9070068845999
 20
407.0368847316186
 30
0.0
 10
463.1205112729572
 20
407.0162845664909
 30
0.0
 10
463.593015331372
 20
406.9693540295588
 30
0.0
 10
464.2388609504707
 20
406.9016200197843
 30
0.0
 10
464.9155640702696
 20
406.827163764021
 30
0.0
 10
465.5074637696645
 20
406.7592768723767
 30
0.0
 10
465.8924767642898
 20
406.7134866764889
 30
0.0
 10
466.0609322500527
 20
406.6931518095551
 30
0.0
 10
466.0835813759912
 20
406.6904173843471
 30
0.0
 10
466.2739647619812
 20
406.6673851657375
 30
0.0
 10
466.6079608430095
 20
406.6262740216436
 30
0.0
 10
467.0493049762239
 20
406.5704228966898
 30
0.0
 10
467.3287978395241
 20
406.5341091336275
 30
0.0
 10
467.4738339191591
 20
406.5150007947332
 30
0.0
 10
467.600948800882
 20
406.4982286264984
 30
0.0
 10
467.8350293406613
 20
406.4669585321794
 30
0.0
 10
468.1405938771635
 20
406.4250924339261
 30
0.0
 10
468.353314730049
 20
406.3951731895345
 30
0.0
 10
468.5913938643157
 20
406.3611162894011
 30
0.0
 10
468.7650762471129
 20
406.335524842097
 30
0.0
 10
468.8977473156054
 20
406.3153340961113
 30
0.0
 10
468.926226141078
 20
406.3109663241751
 30
0.0
  0
SPLINE
  5
C8
330
1F
100
AcDbEntity
  8
0
  6
Continuous
 62
     7
370
    25
100
AcDbSpline
210
0.0
220
0.0
230
1.0
 70
     8
 71
     3
 72
    10
 73
     6
 74
     0
 42
0.000000001
 43
0.00000001
 40
0.8489908593265828
 40
0.8489908593265828
 40
0.8489908593265828
 40
0.8489908593265828
 40
0.8560682645689627
 40
0.870977803333314
 40
0.9121385189185879
 40
0.9121385189185879
 40
0.9121385189185879
 40
0.9121385189185879
 10
341.9411159667175
 20
406.8409136733275
 30
0.0
 10
341.9831890046563
 20
406.8476724873498
 30
0.0
 10
342.1160747582448
 20
406.8689612603075
 30
0.0
 10
342.5152125758331
 20
406.9323394323365
 30
0.0
 10
342.9002414763534
 20
406.9919731674291
 30
0.0
 10
343.1943103285793
 20
407.0365790360311
 30
0.0
  0
SPLINE
  5
C9
330
1F
100
AcDbEntity
  8
0
  6
Continuous
 62
     7
370
    25
100
AcDbSpline
210
0.0
220
0.0
230
1.0
 70
     8
 71
     3
 72
    32
 73
    28
 74
     0
 42
0.000000001
 43
0.00000001
 40
0.0
 40
0.0
 40
0.0
 40
0.0
 40
0.0625
 40
0.0625
 40
0.125
 40
0.125
 40
0.1875
 40
0.1875
 40
0.25
 40
0.25
 40
0.375
 40
0.375
 40
0.4375
 40
0.4375
 40
0.5
 40
0.5
 40
0.5625
 40
0.5625
 40
0.625
 40
0.625
 40
0.75
 40
0.75
 40
0.8125
 40
0.8125
 40
0.875
 40
0.875
 40
1.0
 40
1.0
 40
1.0
 40
1.0
 10
343.1943103285791
 20
407.036579036031
 30
0.0
 10
343.1943103285791
 20
407.0365786572898
 30
0.0
 10
343.2299639048916
 20
407.0366316629348
 30
0.0
 10
343.37099319833
 20
407.0367387014914
 30
0.0
 10
343.4761942705521
 20
407.0367925586744
 30
0.0
 10
343.7553959499021
 20
407.0368333149199
 30
0.0
 10
343.9295043820561
 20
407.0368120269075
 30
0.0
 10
344.3475198336854
 20
407.0367401343049
 30
0.0
 10
344.5886334066023
 20
407.0367164252258
 30
0.0
 10
345.4049896033775
 20
407.0367513324667
 30
0.0
 10
346.0723796000665
 20
407.0368762658576
 30
0.0
 10
347.2613939889312
 20
407.0363848206258
 30
0.0
 10
347.6907963212045
 20
407.0361056373988
 30
0.0
 10
348.5946260544074
 20
407.0358955236451
 30
0.0
 10
349.070970006514
 20
407.0359509691034
 30
0.0
 10
350.0716198245732
 20
407.036131581719
 30
0.0
 10
350.5959266500032
 20
407.0362475499718
 30
0.0
 10
351.6929951243979
 20
407.0363823715869
 30
0.0
 10
352.2679207538015
 20
407.0363927114923
 30
0.0
 10
354.0536350299381
 20
407.0365889337787
 30
0.0
 10
355.3036280590156
 20
407.0368724648373
 30
0.0
 10
357.2649142160332
 20
407.0369949481681
 30
0.0
 10
357.9331637772176
 20
407.0369887512975
 30
0.0
 10
359.2994113287695
 20
407.0369423440749
 30
0.0
 10
359.9970142232594
 20
407.0368816153987
 30
0.0
 10
362.0935290723805
 20
407.0365904785253
 30
0.0
 10
363.5095568793164
 20
407.0362748112029
 30
0.0
 10
364.9443103285791
 20
407.0362748112029
 30
0.0
  0
SPLINE
  5
CA
330
1F
100
AcDbEntity
  8
0
  6
Continuous
 62
     7
370
    25
100
AcDbSpline
210
0.0
220
0.0
230
1.0
 70
     8
 71
     3
 72
     9
 73
     5
 74
     0
 42
0.000000001
 43
0.00000001
 40
0.0461274644246422
 40
0.0461274644246422
 40
0.0461274644246422
 40
0.0461274644246422
 40
0.5
 40
1.0
 40
1.0
 40
1.0
 40
1.0
 10
343.0425542572669
 20
444.3583491722172
 30
0.0
 10
345.4607792986073
 20
445.0375872067666
 30
0.0
 10
351.5985421313067
 20
446.1373222465712
 30
0.0
 10
359.9546739035623
 20
446.5482002958116
 30
0.0
 10
364.9443103285792
 20
446.5743010818895
 30
0.0
  0
LINE
  5
CB
330
1F
100
AcDbEntity
  8
0
  6
Continuous
 62
     7
370
    25
100
AcDbLine
 10
452.4181573006
 20
444.4513921437
 30
0.0
 11
451.9953368517
 21
444.5198555289
 31
0.0
  0
SPLINE
  5
CC
330
1F
100
AcDbEntity
  8
0
  6
Continuous
 62
     7
370
    25
100
AcDbSpline
210
0.0
220
0.0
230
1.0
 70
     8
 71
     3
 72
    10
 73
     6
 74
     0
 42
0.000000001
 43
0.00000001
 40
0.0
 40
0.0
 40
0.0
 40
0.0
 40
0.038454391016204
 40
0.1954519940839044
 40
1.0
 40
1.0
 40
1.0
 40
1.0
 10
430.1779507013323
 20
446.3160116968355
 30
0.0
 10
429.8572057609978
 20
446.3284645994045
 30
0.0
 10
428.2269566132665
 20
446.3917589222352
 30
0.0
 10
419.8830557195109
 20
446.6346449591221
 30
0.0
 10
411.8568266119926
 20
446.7079562634698
 30
0.0
 10
405.1410904439451
 20
446.7692975697718
 30
0.0
  0
SPLINE
  5
CD
330
1F
100
AcDbEntity
  8
0
  6
Continuous
 62
     7
370
    25
100
AcDbSpline
210
0.0
220
0.0
230
1.0
 70
     8
 71
     3
 72
     9
 73
     5
 74
     0
 42
0.000000001
 43
0.00000001
 40
0.0
 40
0.0
 40
0.0
 40
0.0
 40
0.4400888358480721
 40
1.0
 40
1.0
 40
1.0
 40
1.0
 10
397.329424908972
 20
446.7848767337999
 30
0.0
 10
392.9838146484299
 20
446.7892104395526
 30
0.0
 10
383.1094213292541
 20
446.7990577826336
 30
0.0
 10
373.2357899949013
 20
446.673033834908
 30
0.0
 10
367.7074335800769
 20
446.602471619626
 30
0.0
  0
SPLINE
  5
CE
330
1F
100
AcDbEntity
  8
0
  6
Continuous
 62
     7
370
    25
100
AcDbSpline
210
0.0
220
0.0
230
1.0
 70
     8
 71
     3
 72
    24
 73
    20
 74
     0
 42
0.000000001
 43
0.00000001
 40
0.0
 40
0.0
 40
0.0
 40
0.0
 40
0.00703125
 40
0.0140625
 40
0.02109375
 40
0.03515625
 40
0.05712890625
 40
0.09375
 40
0.11572265625
 40
0.15234375
 40
0.18896484375
 40
0.25
 40
0.2578125
 40
0.2734375
 40
0.3125
 40
0.359375
 40
0.4375
 40
0.4514462968212261
 40
0.4792469684774267
 40
0.4792469684774267
 40
0.4792469684774267
 40
0.4792469684774267
 10
442.7970068540472
 20
438.5371844569598
 30
0.0
 10
442.677931071017
 20
438.533375722903
 30
0.0
 10
442.4362856099078
 20
438.526000509893
 30
0.0
 10
442.0605103823891
 20
438.5158506111423
 30
0.0
 10
441.5452272326465
 20
438.5032794402006
 30
0.0
 10
440.7212779585651
 20
438.4863616750605
 30
0.0
 10
439.2371782265012
 20
438.4639101950335
 30
0.0
 10
437.4354144768196
 20
438.4485770050113
 30
0.0
 10
435.1494665448549
 20
438.4388696856633
 30
0.0
 10
432.723507190115
 20
438.4358537759491
 30
0.0
 10
429.1043392169402
 20
438.4383249394766
 30
0.0
 10
426.1055046499508
 20
438.4419987259216
 30
0.0
 10
423.6636433653874
 20
438.4409225589371
 30
0.0
 10
421.8486681215704
 20
438.4389329761588
 30
0.0
 10
418.8815813258559
 20
438.4298013304135
 30
0.0
 10
414.1301168179149
 20
438.3913585025758
 30
0.0
 10
410.3155494063902
 20
438.3070134183216
 30
0.0
 10
407.3254736650647
 20
438.1774005528787
 30
0.0
 10
406.3299660706726
 20
438.119482959558
 30
0.0
 10
405.6858622674979
 20
438.0718863481295
 30
0.0
  0
LINE
  5
CF
330
1F
100
AcDbEntity
  8
0
  6
Continuous
 62
     7
370
    25
100
AcDbLine
 10
388.1167540612
 20
426.0735963283
 30
0.0
 11
388.1184807333
 21
426.0769863425
 31
0.0
  0
SPLINE
  5
D0
330
1F
100
AcDbEntity
  8
0
  6
Continuous
 62
     7
370
    25
100
AcDbSpline
210
0.0
220
0.0
230
1.0
 70
     8
 71
     3
 72
    29
 73
    25
 74
     0
 42
0.000000001
 43
0.00000001
 40
0.0
 40
0.0
 40
0.0
 40
0.0
 40
0.0306683925925307
 40
0.0609589096569967
 40
0.0908680659401473
 40
0.1204249899213786
 40
0.1496882871552767
 40
0.1787387991005659
 40
0.2076684327156455
 40
0.2365680694413685
 40
0.2655159402539189
 40
0.2945668981314004
 40
0.3237427353771333
 40
0.3530249391896185
 40
0.3823928168634675
 40
0.4118466127554155
 40
0.464893925965419
 40
0.5199856037220404
 40
0.5761843750768412
 40
0.6332092102320606
 40
0.6909865175961994
 40
0.7936870404190287
 40
0.8967955575470605
 40
0.9999999999999999
 40
0.9999999999999999
 40
0.9999999999999999
 40
0.9999999999999999
 10
451.8178648266023
 20
441.4141056429987
 30
0.0
 10
451.7505210381619
 20
441.3403992131201
 30
0.0
 10
451.6166632266347
 20
441.193894514951
 30
0.0
 10
451.4075086283946
 20
440.9846086443522
 30
0.0
 10
451.1937094174257
 20
440.78539105288
 30
0.0
 10
450.9743768712771
 20
440.5973375707015
 30
0.0
 10
450.7493891055388
 20
440.420577318117
 30
0.0
 10
450.5184308535487
 20
440.2551669013291
 30
0.0
 10
450.2813203719794
 20
440.1008673014445
 30
0.0
 10
450.0379779585354
 20
439.9572630725745
 30
0.0
 10
449.7884924397723
 20
439.8237983107055
 30
0.0
 10
449.5331703353099
 20
439.6998233274522
 30
0.0
 10
449.2725846991149
 20
439.5846438462486
 30
0.0
 10
449.007505396973
 20
439.4774700300073
 30
0.0
 10
448.7386863154537
 20
439.3774605226907
 30
0.0
 10
448.3944283865209
 20
439.2586823096084
 30
0.0
 10
447.9672159539513
 20
439.1239845973885
 30
0.0
 10
447.4522512736656
 20
438.9786388912424
 30
0.0
 10
446.9173555135746
 20
438.858452754021
 30
0.0
 10
446.3675963402966
 20
438.7695620238456
 30
0.0
 10
445.6642008281074
 20
438.6877003298769
 30
0.0
 10
444.8083725413001
 20
438.6235957950742
 30
0.0
 10
443.803799767533
 20
438.5718202978183
 30
0.0
 10
443.1326074384218
 20
438.5489322235715
 30
0.0
 10
442.7968552382436
 20
438.5374828655366
 30
0.0
  0
LINE
  5
D1
330
1F
100
AcDbEntity
  8
0
  6
Continuous
 62
     7
370
    25
100
AcDbLine
 10
472.996362886
 20
398.1240992246
 30
0.0
 11
470.0463651033
 21
398.1240992246
 31
0.0
  0
SPLINE
  5
D2
330
1F
100
AcDbEntity
  8
0
  6
Continuous
 62
     7
370
    25
100
AcDbSpline
210
0.0
220
0.0
230
1.0
 70
     8
 71
     3
 72
    14
 73
    10
 74
     0
 42
0.000000001
 43
0.00000001
 40
0.0
 40
0.0
 40
0.0
 40
0.0
 40
0.5000000000000048
 40
0.5000000000000048
 40
0.6250000000000027
 40
0.6250000000000027
 40
0.7500000000000004
 40
0.7500000000000004
 40
1.0
 40
1.0
 40
1.0
 40
1.0
 10
472.996361571307
 20
388.9101667863779
 30
0.0
 10
473.3435568624384
 20
390.4286537688273
 30
0.0
 10
473.5434647958025
 20
391.9575983306631
 30
0.0
 10
473.5451800394123
 20
393.8863993777019
 30
0.0
 10
473.5334545568908
 20
394.2730164673227
 30
0.0
 10
473.4859454659746
 20
395.0479588023964
 30
0.0
 10
473.4500417401487
 20
395.4370172637588
 30
0.0
 10
473.308919583139
 20
396.5971183538512
 30
0.0
 10
473.1702873003865
 20
397.3634203970599
 30
0.0
 10
472.9963615678794
 20
398.124098801069
 30
0.0
  0
LINE
  5
D3
330
1F
100
AcDbEntity
  8
0
  6
Continuous
 62
     7
370
    25
100
AcDbLine
 10
470.0463651033
 20
388.910167366
 30
0.0
 11
472.996362886
 21
388.910167366
 31
0.0
  0
LINE
  5
D4
330
1F
100
AcDbEntity
  8
0
  6
Continuous
 62
     7
370
    25
100
AcDbLine
 10
473.7463606807
 20
381.0745742915
 30
0.0
 11
473.7463606807
 21
402.3764957485
 31
0.0
  0
LINE
  5
D5
330
1F
100
AcDbEntity
  8
0
  6
Continuous
 62
     7
370
    25
100
AcDbLine
 10
472.996362886
 20
379.7755357621
 30
0.0
 11
472.996362886
 21
388.910167366
 31
0.0
  0
LINE
  5
D6
330
1F
100
AcDbEntity
  8
0
  6
Continuous
 62
     7
370
    25
100
AcDbLine
 10
472.996362886
 20
398.1240992246
 30
0.0
 11
472.996362886
 21
403.6755342779
 31
0.0
  0
LINE
  5
D7
330
1F
100
AcDbEntity
  8
0
  6
Continuous
 62
     7
370
    25
100
AcDbLine
 10
470.0463651033
 20
398.1240992246
 30
0.0
 11
470.0463651033
 21
388.910167366
 31
0.0
  0
SPLINE
  5
D8
330
1F
100
AcDbEntity
  8
0
  6
Continuous
 62
     7
370
    25
100
AcDbSpline
210
0.0
220
0.0
230
1.0
 70
     8
 71
     3
 72
    18
 73
    14
 74
     0
 42
0.000000001
 43
0.00000001
 40
0.0
 40
0.0
 40
0.0
 40
0.0
 40
0.2499999999999997
 40
0.2499999999999997
 40
0.4999999999999997
 40
0.4999999999999997
 40
0.6249999999999998
 40
0.6249999999999998
 40
0.7499999999999998
 40
0.7499999999999998
 40
0.8749999999999999
 40
0.8749999999999999
 40
1.0
 40
1.0
 40
1.0
 40
1.0
 10
469.2062978543141
 20
398.6105250743333
 30
0.0
 10
469.2894367129485
 20
399.3862322853169
 30
0.0
 10
469.3788775134074
 20
400.0916558506719
 30
0.0
 10
469.5551878190966
 20
401.3549371323174
 30
0.0
 10
469.6384882269606
 20
401.888396464425
 30
0.0
 10
469.7461752390859
 20
402.5461660768061
 30
0.0
 10
469.779360092
 20
402.7423346739296
 30
0.0
 10
469.8375223189085
 20
403.0798698603753
 30
0.0
 10
469.8623174705687
 20
403.2202751977387
 30
0.0
 10
469.902579825112
 20
403.4460096980695
 30
0.0
 10
469.9180488879378
 20
403.5313354712711
 30
0.0
 10
469.9389215418637
 20
403.6461373743153
 30
0.0
 10
469.9443103285791
 20
403.6755361011842
 30
0.0
 10
469.9443103285791
 20
403.6755361010879
 30
0.0
  0
LINE
  5
D9
330
1F
100
AcDbEntity
  8
0
  6
Continuous
 62
     7
370
    25
100
AcDbLine
 10
469.9443070503
 20
405.1248361168
 30
0.0
 11
469.9443070503
 21
403.6755342779
 31
0.0
  0
ARC
  5
DA
330
1F
100
AcDbEntity
  8
0
  6
Continuous
 62
     7
370
    25
100
AcDbCircle
 10
468.74431042
 20
405.1248404262
 30
0.0
 40
1.199996630363838
100
AcDbArc
 50
359.9997942399
 51
81.2806993121
  0
SPLINE
  5
DB
330
1F
100
AcDbEntity
  8
0
  6
Continuous
 62
     7
370
    25
100
AcDbSpline
210
0.0
220
0.0
230
1.0
 70
     8
 71
     3
 72
    22
 73
    18
 74
     0
 42
0.000000001
 43
0.00000001
 40
0.0
 40
0.0
 40
0.0
 40
0.0
 40
0.125
 40
0.125
 40
0.25
 40
0.25
 40
0.375
 40
0.375
 40
0.5
 40
0.5
 40
0.625
 40
0.625
 40
0.75
 40
0.75
 40
0.875
 40
0.875
 40
1.0
 40
1.0
 40
1.0
 40
1.0
 10
453.0212879234547
 20
442.8585825508194
 30
0.0
 10
453.0736576063378
 20
442.9264751457106
 30
0.0
 10
453.1163085996455
 20
442.9995309683908
 30
0.0
 10
453.18278219105
 20
443.1556455357108
 30
0.0
 10
453.2062042940735
 20
443.2388010870844
 30
0.0
 10
453.2310453968921
 20
443.4060205297509
 30
0.0
 10
453.2328016280062
 20
443.4924665258375
 30
0.0
 10
453.2145865256804
 20
443.6610646832556
 30
0.0
 10
453.1949510008516
 20
443.7435776568691
 30
0.0
 10
453.134262811308
 20
443.903750535135
 30
0.0
 10
453.0944222062636
 20
443.9783521306254
 30
0.0
 10
452.9962426410522
 20
444.1168713353229
 30
0.0
 10
452.9377518588957
 20
444.1803345040267
 30
0.0
 10
452.8083538083543
 20
444.2891387956928
 30
0.0
 10
452.7355753806931
 20
444.335977186402
 30
0.0
 10
452.5826285481501
 20
444.4087443780666
 30
0.0
 10
452.5023618722087
 20
444.4352130503465
 30
0.0
 10
452.4181581951337
 20
444.451391083779
 30
0.0
  0
ARC
  5
DC
330
1F
100
AcDbEntity
  8
0
  6
Continuous
 62
     7
370
    25
100
AcDbCircle
 10
433.2260822645
 20
458.1278272251
 30
0.0
 40
24.99999999999822
100
AcDbArc
 50
318.0450049942
 51
322.3548155901
  0
LINE
  5
DD
330
1F
100
AcDbEntity
  8
0
  6
Continuous
 62
     7
370
    25
100
AcDbLine
 10
387.9547486367
 20
418.1365822253
 30
0.0
 11
387.9547486367
 21
425.6523628531
 31
0.0
  0
LWPOLYLINE
  5
DE
330
1F
100
AcDbEntity
  8
0
  6
Continuous
 62
     7
370
    25
100
AcDbPolyline
 90
       12
 70
   128
 43
0.0
 10
322.1842138382
 20
362.6780179141
 10
322.1839754196
 20
362.6848463712
 10
322.1783353301
 20
362.8463712332
 10
322.1657662006
 20
363.2062491772
 10
322.1476352128
 20
363.7254875896
 10
322.1259018692
 20
364.3478122351
 10
322.1029280039
 20
365.0057916341
 10
322.0811946603
 20
365.6281162796
 10
322.0630636724
 20
366.1473509667
 10
322.0504945429
 20
366.507232636
 10
322.0448544534
 20
366.668757498
 10
322.0446160348
 20
366.6755822299
  0
SPLINE
  5
DF
330
1F
100
AcDbEntity
  8
0
  6
Continuous
 62
     8
370
    18
100
AcDbSpline
210
0.0
220
0.0
230
1.0
 70
     8
 71
     3
 72
    55
 73
    51
 74
     0
 42
0.000000001
 43
0.00000001
 40
0.0
 40
0.0
 40
0.0
 40
0.0
 40
0.0156250000000003
 40
0.0156250000000003
 40
0.0312500000000007
 40
0.0312500000000007
 40
0.046875000000001
 40
0.046875000000001
 40
0.0625000000000013
 40
0.0625000000000013
 40
0.0781250000000016
 40
0.0781250000000016
 40
0.0859375000000016
 40
0.0859375000000016
 40
0.0937500000000016
 40
0.0937500000000016
 40
0.1093750000000016
 40
0.1093750000000016
 40
0.1171875000000016
 40
0.1171875000000016
 40
0.1250000000000016
 40
0.1250000000000016
 40
0.1406250000000016
 40
0.1406250000000016
 40
0.1562500000000016
 40
0.1562500000000016
 40
0.1875000000000017
 40
0.1875000000000017
 40
0.2500000000000017
 40
0.2500000000000017
 40
0.3125000000000017
 40
0.3125000000000017
 40
0.3750000000000018
 40
0.3750000000000018
 40
0.5000000000000014
 40
0.5000000000000014
 40
0.7500000000000008
 40
0.7500000000000008
 40
0.8750000000000003
 40
0.8750000000000003
 40
0.9375000000000002
 40
0.9375000000000002
 40
0.9687500000000001
 40
0.9687500000000001
 40
0.9843750000000001
 40
0.9843750000000001
 40
0.9921875
 40
0.99609375
 40
0.99609375
 40
1.0
 40
1.0
 40
1.0
 40
1.0
 10
469.1051750761604
 20
405.0950722697582
 30
0.0
 10
469.0131390439983
 20
405.0896564217066
 30
0.0
 10
468.9027669426099
 20
405.0843745110861
 30
0.0
 10
468.6265314209306
 20
405.0747885389006
 30
0.0
 10
468.460043996826
 20
405.0705055078657
 30
0.0
 10
468.0586659760385
 20
405.0637302364672
 30
0.0
 10
467.8238094949296
 20
405.061148535557
 30
0.0
 10
467.2687250734303
 20
405.0576898228022
 30
0.0
 10
466.9440244263632
 20
405.0568375955564
 30
0.0
 10
466.2199311935389
 20
405.0570548174915
 30
0.0
 10
465.8201329986788
 20
405.0579621290184
 30
0.0
 10
465.1591657627636
 20
405.0605901978711
 30
0.0
 10
464.9275061730111
 20
405.0616762473418
 30
0.0
 10
464.4463233930954
 20
405.064551738806
 30
0.0
 10
464.1994873755924
 20
405.0663391918528
 30
0.0
 10
463.4424610993844
 20
405.0724575810215
 30
0.0
 10
462.9158086154759
 20
405.0774689851157
 30
0.0
 10
462.0979789288579
 20
405.0864360057141
 30
0.0
 10
461.8195189959005
 20
405.0897079898184
 30
0.0
 10
461.2616516587415
 20
405.0968909622118
 30
0.0
 10
460.9819641135413
 20
405.1007440957553
 30
0.0
 10
460.1415192754419
 20
405.1125937438833
 30
0.0
 10
459.5795201192071
 20
405.1206401629316
 30
0.0
 10
458.453995839851
 20
405.1370125194236
 30
0.0
 10
457.8904714280196
 20
405.1451108074274
 30
0.0
 10
456.198682671546
 20
405.1686512479509
 30
0.0
 10
455.0693763494796
 20
405.1834214472927
 30
0.0
 10
451.6790625364342
 20
405.2255729029225
 30
0.0
 10
449.4156209023418
 20
405.2501194038421
 30
0.0
 10
444.885444249736
 20
405.2916732508073
 30
0.0
 10
442.6184650382848
 20
405.3087268902613
 30
0.0
 10
438.0819046768755
 20
405.3430887974326
 30
0.0
 10
435.8122249409473
 20
405.3596425106702
 30
0.0
 10
429.0017109275727
 20
405.4067387231015
 30
0.0
 10
424.4606418027105
 20
405.4347570896279
 30
0.0
 10
410.8371015081333
 20
405.5108847857807
 30
0.0
 10
401.7537348241488
 20
405.54910769451
 30
0.0
 10
388.1270700743509
 20
405.6024800609493
 30
0.0
 10
383.5845765595076
 20
405.6197106329571
 30
0.0
 10
376.7702888970039
 20
405.6399690208424
 30
0.0
 10
374.4987974884983
 20
405.6455819615894
 30
0.0
 10
371.0914717007315
 20
405.6523974973634
 30
0.0
 10
369.955682123336
 20
405.6543827534741
 30
0.0
 10
368.2519774314019
 20
405.6580057431266
 30
0.0
 10
367.6840726095755
 20
405.6594031470592
 30
0.0
 10
366.8322087685114
 20
405.6610660391434
 30
0.0
 10
366.4062751813527
 20
405.6617811030816
 30
0.0
 10
365.9803387550635
 20
405.662168013023
 30
0.0
 10
365.6963804704779
 20
405.6623359503758
 30
0.0
 10
365.5560658975497
 20
405.6623750905727
 30
0.0
 10
365.4124204716337
 20
405.6623603390809
 30
0.0
  0
SPLINE
  5
E0
330
1F
100
AcDbEntity
  8
0
  6
Continuous
 62
     8
370
    18
100
AcDbSpline
210
0.0
220
0.0
230
1.0
 70
     8
 71
     3
 72
    46
 73
    42
 74
     0
 42
0.000000001
 43
0.00000001
 40
0.0
 40
0.0
 40
0.0
 40
0.0
 40
0.0312500000000001
 40
0.0312500000000001
 40
0.0625000000000001
 40
0.0625000000000001
 40
0.1250000000000002
 40
0.1250000000000002
 40
0.2500000000000004
 40
0.2500000000000004
 40
0.5000000000000008
 40
0.5000000000000008
 40
0.6250000000000008
 40
0.6250000000000008
 40
0.7500000000000009
 40
0.7500000000000009
 40
0.8125000000000009
 40
0.8125000000000009
 40
0.843750000000001
 40
0.843750000000001
 40
0.875000000000001
 40
0.875000000000001
 40
0.8906250000000011
 40
0.8906250000000011
 40
0.8984375000000011
 40
0.8984375000000011
 40
0.9062500000000011
 40
0.9062500000000011
 40
0.9218750000000011
 40
0.9218750000000011
 40
0.9375000000000012
 40
0.9375000000000012
 40
0.9453125000000011
 40
0.9453125000000011
 40
0.953125000000001
 40
0.953125000000001
 40
0.9687500000000007
 40
0.9687500000000007
 40
0.9843750000000004
 40
0.9843750000000004
 40
1.0
 40
1.0
 40
1.0
 40
1.0
 10
365.3927906541979
 20
406.8423243084649
 30
0.0
 10
366.5129496810189
 20
406.8440964114359
 30
0.0
 10
367.6330978335234
 20
406.8426179438795
 30
0.0
 10
369.873361115939
 20
406.8413824812267
 30
0.0
 10
370.9934775048522
 20
406.8412452516861
 30
0.0
 10
374.3537864223478
 20
406.8400368501375
 30
0.0
 10
376.5939361989504
 20
406.8383131998602
 30
0.0
 10
383.314207950378
 20
406.8305838848885
 30
0.0
 10
387.794039590349
 20
406.8220185346095
 30
0.0
 10
401.2326590380793
 20
406.7857229430676
 30
0.0
 10
410.1906049198034
 20
406.7472726093661
 30
0.0
 10
423.6259615713572
 20
406.6711569055155
 30
0.0
 10
428.104278567202
 20
406.6428533602857
 30
0.0
 10
437.0596911716054
 20
406.5793870692764
 30
0.0
 10
441.5359573380904
 20
406.5459825419304
 30
0.0
 10
448.2383480078831
 20
406.4853291374521
 30
0.0
 10
450.470510901373
 20
406.4621903827091
 30
0.0
 10
453.8144028135828
 20
406.4222128905994
 30
0.0
 10
454.9281757025005
 20
406.4082219508221
 30
0.0
 10
457.1535060925514
 20
406.3789674637415
 30
0.0
 10
458.2653307749554
 20
406.3633025844039
 30
0.0
 10
459.9275303996726
 20
406.3393513641307
 30
0.0
 10
460.4807220101143
 20
406.3312738607771
 30
0.0
 10
461.3067216887579
 20
406.3189436406719
 30
0.0
 10
461.5826432293571
 20
406.3148526567799
 30
0.0
 10
462.1247194455341
 20
406.3071554332954
 30
0.0
 10
462.3908438049542
 20
406.3035098877872
 30
0.0
 10
463.1730314912961
 20
406.2930180726405
 30
0.0
 10
463.6732653577765
 20
406.2865329553725
 30
0.0
 10
464.6182770176739
 20
406.2757050695091
 30
0.0
 10
465.0436144665151
 20
406.2716752899383
 30
0.0
 10
465.6179054183439
 20
406.2669774941929
 30
0.0
 10
465.7988039262247
 20
406.2656576972847
 30
0.0
 10
466.139852334121
 20
406.2635506124569
 30
0.0
 10
466.3000680234226
 20
406.2628102312001
 30
0.0
 10
466.7407689718299
 20
406.2616261577673
 30
0.0
 10
466.9859725681071
 20
406.2621625462564
 30
0.0
 10
467.40286735808
 20
406.2655516563835
 30
0.0
 10
467.5743447503728
 20
406.2685050977459
 30
0.0
 10
467.8587291320753
 20
406.2760989527907
 30
0.0
 10
467.9718620385825
 20
406.2807219814866
 30
0.0
 10
468.0666168947396
 20
406.2856054495344
 30
0.0
  0
SPLINE
  5
E1
330
1F
100
AcDbEntity
  8
0
  6
Continuous
 62
     8
370
    18
100
AcDbSpline
210
0.0
220
0.0
230
1.0
 70
     8
 71
     3
 72
    32
 73
    28
 74
     0
 42
0.000000001
 43
0.00000001
 40
0.0
 40
0.0
 40
0.0
 40
0.0
 40
0.0625
 40
0.0625
 40
0.1250000000000001
 40
0.1250000000000001
 40
0.1875000000000001
 40
0.1875000000000001
 40
0.2500000000000002
 40
0.2500000000000002
 40
0.3750000000000001
 40
0.3750000000000001
 40
0.4375000000000001
 40
0.4375000000000001
 40
0.5000000000000001
 40
0.5000000000000001
 40
0.5625000000000001
 40
0.5625000000000001
 40
0.6250000000000002
 40
0.6250000000000002
 40
0.75
 40
0.75
 40
0.8125000000000001
 40
0.8125000000000001
 40
0.8750000000000001
 40
0.8750000000000001
 40
1.0
 40
1.0
 40
1.0
 40
1.0
 10
364.9443239280457
 20
405.6617483783013
 30
0.0
 10
364.1532067867309
 20
405.6618782976871
 30
0.0
 10
363.3613424505469
 20
405.6620182512892
 30
0.0
 10
361.7913324306933
 20
405.6622986793041
 30
0.0
 10
361.0126448135647
 20
405.6624579237997
 30
0.0
 10
359.4679514372544
 20
405.6628028396094
 30
0.0
 10
358.6985846756065
 20
405.6629703765672
 30
0.0
 10
357.1918416789425
 20
405.6633611071493
 30
0.0
 10
356.4550348594832
 20
405.6635863474157
 30
0.0
 10
354.2929023231942
 20
405.6642068779729
 30
0.0
 10
352.9154033579924
 20
405.6645945419463
 30
0.0
 10
350.9474635391484
 20
405.665481214597
 30
0.0
 10
350.3141899000992
 20
405.6657268629697
 30
0.0
 10
349.1049674664453
 20
405.6660115063157
 30
0.0
 10
348.5268260674278
 20
405.6660635405865
 30
0.0
 10
347.4229200047241
 20
405.6664169013496
 30
0.0
 10
346.8971550014072
 20
405.6668666144226
 30
0.0
 10
345.899058370241
 20
405.6676976996737
 30
0.0
 10
345.424762749837
 20
405.6679522440289
 30
0.0
 10
344.1114107251056
 20
405.6680698758616
 30
0.0
 10
343.3732023697378
 20
405.6678521648332
 30
0.0
 10
342.47045294822
 20
405.6685421045435
 30
0.0
 10
342.2038672039913
 20
405.6687038584539
 30
0.0
 10
341.742002068062
 20
405.6689746934483
 30
0.0
 10
341.5494755075948
 20
405.6691210657131
 30
0.0
 10
341.0867075466365
 20
405.6696946640112
 30
0.0
 10
340.9317198756153
 20
405.6700056420666
 30
0.0
 10
340.9315318188491
 20
405.6701686706876
 30
0.0
  0
SPLINE
  5
E2
330
1F
100
AcDbEntity
  8
0
  6
Continuous
 62
     8
370
    18
100
AcDbSpline
210
0.0
220
0.0
230
1.0
 70
     8
 71
     3
 72
    32
 73
    28
 74
     0
 42
0.000000001
 43
0.00000001
 40
0.0
 40
0.0
 40
0.0
 40
0.0
 40
0.1249999999999996
 40
0.1249999999999996
 40
0.1874999999999994
 40
0.1874999999999994
 40
0.2499999999999992
 40
0.2499999999999992
 40
0.3749999999999991
 40
0.3749999999999991
 40
0.4374999999999991
 40
0.4374999999999991
 40
0.4999999999999991
 40
0.4999999999999991
 40
0.5624999999999991
 40
0.5624999999999991
 40
0.6249999999999991
 40
0.6249999999999991
 40
0.7499999999999994
 40
0.7499999999999994
 40
0.8124999999999996
 40
0.8124999999999996
 40
0.8749999999999997
 40
0.8749999999999997
 40
0.9374999999999999
 40
0.9374999999999999
 40
1.0
 40
1.0
 40
1.0
 40
1.0
 10
341.9411159667047
 20
406.8409136733255
 30
0.0
 10
341.9412955275779
 20
406.8409409194728
 30
0.0
 10
342.0899959372802
 20
406.840942218665
 30
0.0
 10
342.5328476964962
 20
406.8407808683966
 30
0.0
 10
342.7172030403822
 20
406.8407976558769
 30
0.0
 10
343.1598592306677
 20
406.8409339119935
 30
0.0
 10
343.4154858627666
 20
406.8410100701381
 30
0.0
 10
344.2802378008183
 20
406.8409143335584
 30
0.0
 10
344.9864664561617
 20
406.8413950971203
 30
0.0
 10
346.2452031958534
 20
406.8420764764109
 30
0.0
 10
346.6997601847971
 20
406.8420988124096
 30
0.0
 10
347.6558691500184
 20
406.841725627947
 30
0.0
 10
348.1591621019228
 20
406.8414251166329
 30
0.0
 10
349.2164104245119
 20
406.8414873766939
 30
0.0
 10
349.7702692665742
 20
406.8416796168403
 30
0.0
 10
350.9287283105558
 20
406.8418924017203
 30
0.0
 10
351.5354128638907
 20
406.8419002577122
 30
0.0
 10
353.4206398913324
 20
406.8417247139133
 30
0.0
 10
354.7402238450919
 20
406.8417887074511
 30
0.0
 10
356.8115413621475
 20
406.8418389975328
 30
0.0
 10
357.5174033660399
 20
406.8418317955739
 30
0.0
 10
358.9608607121825
 20
406.8418596449848
 30
0.0
 10
359.697921790614
 20
406.8418974764406
 30
0.0
 10
361.1777477356183
 20
406.8419385573677
 30
0.0
 10
361.9237350828701
 20
406.8419614837435
 30
0.0
 10
363.4278140286787
 20
406.8420276271461
 30
0.0
 10
364.1867074673081
 20
406.842051432323
 30
0.0
 10
364.9443103285791
 20
406.8420765572638
 30
0.0
  0
SPLINE
  5
E3
330
1F
100
AcDbEntity
  8
0
  6
Continuous
 62
     8
370
    18
100
AcDbSpline
210
0.0
220
0.0
230
1.0
 70
     8
 71
     3
 72
     8
 73
     4
 74
     0
 42
0.000000001
 43
0.00000001
 40
0.0
 40
0.0
 40
0.0
 40
0.0
 40
0.0004642455191564
 40
0.0004642455191564
 40
0.0004642455191564
 40
0.0004642455191564
 10
365.4085475752788
 20
405.6619858362457
 30
0.0
 10
365.2538277962676
 20
405.6617431859077
 30
0.0
 10
365.0990724103147
 20
405.6616674138123
 30
0.0
 10
364.9443239280457
 20
405.6617483784205
 30
0.0
  0
LINE
  5
E4
330
1F
100
AcDbEntity
  8
0
  6
Continuous
 62
     8
370
    18
100
AcDbLine
 10
389.9443107011
 20
326.6768012939
 30
0.0
 11
389.9329318019
 21
327.9186811808
 31
0.0
  0
SPLINE
  5
E5
330
1F
100
AcDbEntity
  8
0
  6
Continuous
 62
     8
370
    18
100
AcDbSpline
210
0.0
220
0.0
230
1.0
 70
     8
 71
     3
 72
    21
 73
    17
 74
     0
 42
0.000000001
 43
0.00000001
 40
0.0
 40
0.0
 40
0.0
 40
0.0
 40
0.0575398317396573
 40
0.1151508451279963
 40
0.1728108902846069
 40
0.2305430706842284
 40
0.2883274692212498
 40
0.3497540111847881
 40
0.4502128460100877
 40
0.4751947308933321
 40
0.5622882463851709
 40
0.6495234174481317
 40
0.736911668108778
 40
0.8244534377123989
 40
0.9121451431816284
 40
0.9999999999999999
 40
0.9999999999999999
 40
0.9999999999999999
 40
0.9999999999999999
 10
405.6839035235533
 20
441.7638714000685
 30
0.0
 10
404.906556471563
 20
441.7600285418132
 30
0.0
 10
403.3509007233945
 20
441.7523380713613
 30
0.0
 10
401.0154187464278
 20
441.7389882780785
 30
0.0
 10
398.6769617345508
 20
441.7217674412993
 30
0.0
 10
396.3354952257852
 20
441.7037267709281
 30
0.0
 10
393.9427029615771
 20
441.6815976637279
 30
0.0
 10
390.9714378387775
 20
441.6520798791517
 30
0.0
 10
388.4432670690569
 20
441.6226797091244
 30
0.0
 10
385.5673972691292
 20
441.5854032439098
 30
0.0
 10
382.8700323718822
 20
441.5476686420994
 30
0.0
 10
379.3274125250571
 20
441.4906231894643
 30
0.0
 10
375.7781030515883
 20
441.4261018473268
 30
0.0
 10
372.2221448149967
 20
441.3530169285561
 30
0.0
 10
368.6595756102353
 20
441.2710619150605
 30
0.0
 10
366.2823764236202
 20
441.2083449639076
 30
0.0
 10
365.092672156859
 20
441.1769573440542
 30
0.0
  0
SPLINE
  5
E6
330
1F
100
AcDbEntity
  8
0
  6
Continuous
 62
     8
370
    18
100
AcDbSpline
210
0.0
220
0.0
230
1.0
 70
     8
 71
     3
 72
    35
 73
    31
 74
     0
 42
0.000000001
 43
0.00000001
 40
0.0
 40
0.0
 40
0.0
 40
0.0
 40
0.1249999999999998
 40
0.1249999999999998
 40
0.1874999999999997
 40
0.1874999999999997
 40
0.2499999999999996
 40
0.2499999999999996
 40
0.3749999999999994
 40
0.3749999999999994
 40
0.4062499999999996
 40
0.4062499999999996
 40
0.4374999999999997
 40
0.4374999999999997
 40
0.4999999999999998
 40
0.4999999999999998
 40
0.6249999999999998
 40
0.6249999999999998
 40
0.6562499999999998
 40
0.6562499999999998
 40
0.6874999999999999
 40
0.6874999999999999
 40
0.7499999999999999
 40
0.8124999999999999
 40
0.8124999999999999
 40
0.8437499999999998
 40
0.8437499999999998
 40
0.8749999999999998
 40
0.8749999999999998
 40
1.0
 40
1.0
 40
1.0
 40
1.0
 10
342.2784682034195
 20
440.1231664870938
 30
0.0
 10
342.2784682034195
 20
440.1231664870938
 30
0.0
 10
342.4267761771064
 20
440.1361250360261
 30
0.0
 10
342.8624950324752
 20
440.1719481703461
 30
0.0
 10
343.043544367316
 20
440.186598328274
 30
0.0
 10
343.4789116027545
 20
440.2206743082277
 30
0.0
 10
343.7343340363092
 20
440.2401706987345
 30
0.0
 10
344.5945864889297
 20
440.3033455754059
 30
0.0
 10
345.2963590353876
 20
440.3519213876068
 30
0.0
 10
346.332699092183
 20
440.4172003924618
 30
0.0
 10
346.5479957840813
 20
440.4304919206368
 30
0.0
 10
346.9949124665163
 20
440.4574878930525
 30
0.0
 10
347.2272199243835
 20
440.4712315722297
 30
0.0
 10
347.9429505569061
 20
440.5126501500724
 30
0.0
 10
348.4450756242601
 20
440.5405125328218
 30
0.0
 10
350.0241291085597
 20
440.624314284029
 30
0.0
 10
351.1730388042764
 20
440.6804269405223
 30
0.0
 10
352.732733312948
 20
440.7500133874148
 30
0.0
 10
353.0516146924988
 20
440.7639354768745
 30
0.0
 10
353.6952516595505
 20
440.7914318873139
 30
0.0
 10
354.0206461707497
 20
440.8050360292381
 30
0.0
 10
355.0073697854978
 20
440.8454194096234
 30
0.0
 10
356.3510581900856
 20
440.8981186099454
 30
0.0
 10
357.7501185147934
 20
440.9486004244368
 30
0.0
 10
358.820504929074
 20
440.9856701249981
 30
0.0
 10
359.180821889964
 20
440.9978948065296
 30
0.0
 10
359.9086330608079
 20
441.0220879170867
 30
0.0
 10
360.2762708192014
 20
441.0340592460391
 30
0.0
 10
362.1118921919838
 20
441.0926423354006
 30
0.0
 10
363.5884602700208
 20
441.1360052973225
 30
0.0
 10
365.0729046198134
 20
441.1765095221865
 30
0.0
  0
SPLINE
  5
E7
330
1F
100
AcDbEntity
  8
0
  6
Continuous
 62
     8
370
    18
100
AcDbSpline
210
0.0
220
0.0
230
1.0
 70
     8
 71
     3
 72
    11
 73
     7
 74
     0
 42
0.000000001
 43
0.00000001
 40
-0.00000006
 40
-0.00000006
 40
-0.00000006
 40
-0.00000006
 40
0.0
 40
0.0
 40
0.0
 40
0.0004426197136962
 40
0.0004426197136962
 40
0.0004426197136962
 40
0.0004426197136962
 10
364.9443103285791
 20
406.8420765452375
 30
0.0
 10
364.9443303285777
 20
406.8420765382057
 30
0.0
 10
364.9443503285762
 20
406.8420765311687
 30
0.0
 10
364.9443703285747
 20
406.8420765241387
 30
0.0
 10
365.0919102223317
 20
406.8420246634551
 30
0.0
 10
365.2394567909777
 20
406.8421300985689
 30
0.0
 10
365.3869692317357
 20
406.842403511149
 30
0.0
  0
SPLINE
  5
E8
330
1F
100
AcDbEntity
  8
0
  6
Continuous
 62
     8
370
    18
100
AcDbSpline
210
0.0
220
0.0
230
1.0
 70
     8
 71
     3
 72
    35
 73
    31
 74
     0
 42
0.000000001
 43
0.00000001
 40
0.0
 40
0.0
 40
0.0
 40
0.0
 40
0.0624999999999998
 40
0.0624999999999998
 40
0.1249999999999997
 40
0.1249999999999997
 40
0.1874999999999995
 40
0.1874999999999995
 40
0.2499999999999993
 40
0.3124999999999993
 40
0.3124999999999993
 40
0.3437499999999993
 40
0.3437499999999993
 40
0.3749999999999994
 40
0.3749999999999994
 40
0.4999999999999992
 40
0.4999999999999992
 40
0.5624999999999991
 40
0.5624999999999991
 40
0.6249999999999991
 40
0.6249999999999991
 40
0.7499999999999992
 40
0.7499999999999992
 40
0.8124999999999993
 40
0.8124999999999993
 40
0.8749999999999996
 40
0.8749999999999996
 40
0.9374999999999998
 40
0.9374999999999998
 40
1.0
 40
1.0
 40
1.0
 40
1.0
 10
342.3130256625779
 20
443.4061251071339
 30
0.0
 10
342.3129985267209
 20
443.4035472007242
 30
0.0
 10
342.3499286256487
 20
443.4081106112654
 30
0.0
 10
342.496169488314
 20
443.4123240716938
 30
0.0
 10
342.605505472131
 20
443.4142109426481
 30
0.0
 10
342.8974283123019
 20
443.4193623525529
 30
0.0
 10
343.0799702860377
 20
443.4225771765855
 30
0.0
 10
343.5110921801993
 20
443.4302157318741
 30
0.0
 10
344.0094182204837
 20
443.4390837821734
 30
0.0
 10
344.6403620920544
 20
443.4502097103215
 30
0.0
 10
345.1640692173144
 20
443.4592510318222
 30
0.0
 10
345.3470697058414
 20
443.4623801985633
 30
0.0
 10
345.7302509031186
 20
443.4688359115729
 30
0.0
 10
345.9306069539881
 20
443.4721615287173
 30
0.0
 10
346.9642974184375
 20
443.489036449159
 30
0.0
 10
347.9006255909304
 20
443.5036883248067
 30
0.0
 10
349.4653741262101
 20
443.5273321201983
 30
0.0
 10
350.0138570047635
 20
443.5354756046365
 30
0.0
 10
351.1663558494658
 20
443.5524621316075
 30
0.0
 10
351.7652544943543
 20
443.5612290297258
 30
0.0
 10
353.6086651074718
 20
443.5880443934651
 30
0.0
 10
354.9072927870931
 20
443.6067638696218
 30
0.0
 10
356.9607064431905
 20
443.6350549569545
 30
0.0
 10
357.6666068670285
 20
443.6445832356223
 30
0.0
 10
359.0869606299249
 20
443.6641517689226
 30
0.0
 10
359.8032983508897
 20
443.6744432195673
 30
0.0
 10
361.2480365211128
 20
443.6945800487221
 30
0.0
 10
361.9764425859138
 20
443.7039724075203
 30
0.0
 10
363.4454134709478
 20
443.7206737192803
 30
0.0
 10
364.1859665847516
 20
443.7289276244638
 30
0.0
 10
364.9327410388555
 20
443.7425440851934
 30
0.0
  0
LWPOLYLINE
  5
E9
330
1F
100
AcDbEntity
  8
0
  6
Continuous
 62
     8
370
    18
100
AcDbPolyline
 90
        6
 70
   128
 43
0.0
 10
343.9871682139
 20
444.3803434072
 10
343.5800424131
 20
444.3720732627
 10
343.1766940566
 20
444.3600554762
 10
343.0425538035
 20
444.3583492933
 10
343.0425538035
 20
444.3583492933
 10
343.0425538035
 20
444.3583492933
  0
SPLINE
  5
EA
330
1F
100
AcDbEntity
  8
0
  6
Continuous
 62
     8
370
    18
100
AcDbSpline
210
0.0
220
0.0
230
1.0
 70
     8
 71
     3
 72
    23
 73
    19
 74
     0
 42
0.000000001
 43
0.00000001
 40
0.0
 40
0.0
 40
0.0
 40
0.0
 40
0.0765239764182266
 40
0.1506534693801117
 40
0.2223957920224673
 40
0.2917899309432913
 40
0.3589004564693135
 40
0.4238186148028856
 40
0.4866825844373114
 40
0.5476736684354866
 40
0.6070101690981232
 40
0.6649420434269856
 40
0.7217463473905832
 40
0.7777233652676819
 40
0.8331930557685459
 40
0.8884924198513995
 40
0.943973249844063
 40
1.0
 40
1.0
 40
1.0
 40
1.0
 10
468.066705969761
 20
406.2856141424422
 30
0.0
 10
468.1095638060723
 20
406.2877359688956
 30
0.0
 10
468.1939384299828
 20
406.2919132285151
 30
0.0
 10
468.3059955172378
 20
406.2965004391692
 30
0.0
 10
468.4060152693344
 20
406.300056163288
 30
0.0
 10
468.4940944073799
 20
406.3026913093167
 30
0.0
 10
468.5714849757265
 20
406.304638083688
 30
0.0
 10
468.6392698127958
 20
406.3060501625747
 30
0.0
 10
468.6983656204616
 20
406.307065969638
 30
0.0
 10
468.7495272877391
 20
406.3077975489774
 30
0.0
 10
468.7933794915484
 20
406.3083366097609
 30
0.0
 10
468.8304311645259
 20
406.3087560357476
 30
0.0
 10
468.8610948548528
 20
406.3091123504803
 30
0.0
 10
468.8856844311373
 20
406.3094465936222
 30
0.0
 10
468.9044770984024
 20
406.3097881761217
 30
0.0
 10
468.9175089921316
 20
406.310154499396
 30
0.0
 10
468.9253664352252
 20
406.3105514388247
 30
0.0
 10
468.9259386407678
 20
406.3108275780926
 30
0.0
 10
468.9262261442445
 20
406.3109663236895
 30
0.0
  0
SPLINE
  5
EB
330
1F
100
AcDbEntity
  8
0
  6
Continuous
 62
     8
370
    18
100
AcDbSpline
210
0.0
220
0.0
230
1.0
 70
     8
 71
     3
 72
    16
 73
    12
 74
     0
 42
0.000000001
 43
0.00000001
 40
0.0
 40
0.0
 40
0.0
 40
0.0
 40
0.0624999999999998
 40
0.0624999999999998
 40
0.1249999999999996
 40
0.1249999999999996
 40
0.2499999999999997
 40
0.2499999999999997
 40
0.4999999999999998
 40
0.4999999999999998
 40
1.0
 40
1.0
 40
1.0
 40
1.0
 10
405.6196469335952
 20
445.0220390381408
 30
0.0
 10
404.7734832197402
 20
445.0213148923209
 30
0.0
 10
403.9278758256869
 20
445.017874191596
 30
0.0
 10
402.2359909052121
 20
445.0116526899256
 30
0.0
 10
401.389706691258
 20
445.0088982198378
 30
0.0
 10
398.8499942659736
 20
445.0012445804454
 30
0.0
 10
397.155794868211
 20
444.9966509608838
 30
0.0
 10
392.0725668098287
 20
444.976477521435
 30
0.0
 10
388.6821481665775
 20
444.9572562132087
 30
0.0
 10
378.5068740123324
 20
444.8837116016455
 30
0.0
 10
371.7198995452233
 20
444.811514724621
 30
0.0
 10
364.9324227939149
 20
444.7177205376194
 30
0.0
  0
SPLINE
  5
EC
330
1F
100
AcDbEntity
  8
0
  6
Continuous
 62
     8
370
    18
100
AcDbSpline
210
0.0
220
0.0
230
1.0
 70
     8
 71
     3
 72
    16
 73
    12
 74
     0
 42
0.000000001
 43
0.00000001
 40
0.0
 40
0.0
 40
0.0
 40
0.0
 40
0.4999999999999997
 40
0.4999999999999997
 40
0.7499999999999996
 40
0.7499999999999996
 40
0.8749999999999999
 40
0.8749999999999999
 40
0.9374999999999999
 40
0.9374999999999999
 40
1.0
 40
1.0
 40
1.0
 40
1.0
 10
364.9452794946307
 20
443.7426163741248
 30
0.0
 10
371.7411365059993
 20
443.8315173399646
 30
0.0
 10
378.5364871176735
 20
443.8945360102776
 30
0.0
 10
388.7241647975506
 20
443.9676249398361
 30
0.0
 10
392.118704504064
 20
443.9876879414667
 30
0.0
 10
397.2081024404283
 20
444.0103157662911
 30
0.0
 10
398.904346740342
 20
444.0176944312464
 30
0.0
 10
401.4471627463502
 20
444.0225440897245
 30
0.0
 10
402.294492220224
 20
444.0222857222183
 30
0.0
 10
403.9884895488701
 20
444.0167606583379
 30
0.0
 10
404.835152581278
 20
444.0119398407173
 30
0.0
 10
405.682348365499
 20
444.0118780362272
 30
0.0
  0
SPLINE
  5
ED
330
1F
100
AcDbEntity
  8
0
  6
Continuous
 62
     8
370
    18
100
AcDbSpline
210
0.0
220
0.0
230
1.0
 70
     8
 71
     3
 72
    10
 73
     6
 74
     0
 42
0.000000001
 43
0.00000001
 40
0.0
 40
0.0
 40
0.0
 40
0.0
 40
0.5
 40
0.5
 40
1.0
 40
1.0
 40
1.0
 40
1.0
 10
452.4181581951336
 20
444.451391083779
 30
0.0
 10
452.4195200273333
 20
444.4512011620321
 30
0.0
 10
452.3813115908659
 20
444.4480715290125
 30
0.0
 10
452.2232403327999
 20
444.4289498948057
 30
0.0
 10
452.1035141724275
 20
444.4129221267161
 30
0.0
 10
451.9380366768715
 20
444.3820715518468
 30
0.0
  0
SPLINE
  5
EE
330
1F
100
AcDbEntity
  8
0
  6
Continuous
 62
     8
370
    18
100
AcDbSpline
210
0.0
220
0.0
230
1.0
 70
     8
 71
     3
 72
    22
 73
    18
 74
     0
 42
0.000000001
 43
0.00000001
 40
0.0
 40
0.0
 40
0.0
 40
0.0
 40
0.2500000000000023
 40
0.2500000000000023
 40
0.375000000000003
 40
0.375000000000003
 40
0.5000000000000038
 40
0.5000000000000038
 40
0.6250000000000046
 40
0.6250000000000046
 40
0.7500000000000052
 40
0.7500000000000052
 40
0.875000000000006
 40
0.875000000000006
 40
0.937500000000003
 40
0.937500000000003
 40
1.0
 40
1.0
 40
1.0
 40
1.0
 10
451.9380717544906
 20
444.3820729246206
 30
0.0
 10
451.8869644297287
 20
444.3725835366253
 30
0.0
 10
451.8122130919846
 20
444.364620423959
 30
0.0
 10
451.5988783310229
 20
444.359826810174
 30
0.0
 10
451.5088778645347
 20
444.3594956161699
 30
0.0
 10
451.2847962519406
 20
444.3617811941411
 30
0.0
 10
451.1526859101601
 20
444.364221428431
 30
0.0
 10
450.8420884403043
 20
444.3715876323741
 30
0.0
 10
450.6634629630273
 20
444.3765411118429
 30
0.0
 10
450.2665353292849
 20
444.3897051605661
 30
0.0
 10
450.0458017843071
 20
444.3979326699219
 30
0.0
 10
449.5796464836967
 20
444.4159555278268
 30
0.0
 10
449.3380580482927
 20
444.42562071194
 30
0.0
 10
448.9679043060979
 20
444.4403690462487
 30
0.0
 10
448.8432112102649
 20
444.4453257514226
 30
0.0
 10
448.5916663365422
 20
444.4552696077461
 30
0.0
 10
448.4630999691089
 20
444.4604639534865
 30
0.0
 10
448.3370479004746
 20
444.4652495499085
 30
0.0
  0
SPLINE
  5
EF
330
1F
100
AcDbEntity
  8
0
  6
Continuous
 62
     8
370
    18
100
AcDbSpline
210
0.0
220
0.0
230
1.0
 70
     8
 71
     3
 72
    19
 73
    15
 74
     0
 42
0.000000001
 43
0.00000001
 40
0.0
 40
0.0
 40
0.0
 40
0.0
 40
0.1249999999999964
 40
0.1249999999999964
 40
0.2499999999999929
 40
0.2499999999999929
 40
0.4999999999999852
 40
0.4999999999999852
 40
0.7499999999999776
 40
0.7499999999999776
 40
0.8749999999999809
 40
0.9374999999999905
 40
0.9374999999999905
 40
1.0
 40
1.0
 40
1.0
 40
1.0
 10
448.3370479004746
 20
444.4652495499085
 30
0.0
 10
448.2282478290542
 20
444.4692619120273
 30
0.0
 10
448.1181404131233
 20
444.4737873742892
 30
0.0
 10
447.8980957250014
 20
444.4822824690916
 30
0.0
 10
447.7877224558193
 20
444.4865130913729
 30
0.0
 10
447.455792663878
 20
444.4991265372408
 30
0.0
 10
447.2335094694616
 20
444.5074273965623
 30
0.0
 10
446.7883023755192
 20
444.5236547171759
 30
0.0
 10
446.5653433354693
 20
444.5315827570727
 30
0.0
 10
446.2304513964493
 20
444.5432776124796
 30
0.0
 10
446.0628920820533
 20
444.5490714588684
 30
0.0
 10
445.8951784357837
 20
444.5547852778627
 30
0.0
 10
445.7833368188063
 20
444.55857726415
 30
0.0
 10
445.7270974264877
 20
444.5606291541126
 30
0.0
 10
445.6714551722426
 20
444.5623392829751
 30
0.0
  0
SPLINE
  5
F0
330
1F
100
AcDbEntity
  8
0
  6
Continuous
 62
     8
370
    18
100
AcDbSpline
210
0.0
220
0.0
230
1.0
 70
     8
 71
     3
 72
    15
 73
    11
 74
     0
 42
0.000000001
 43
0.00000001
 40
0.0
 40
0.0
 40
0.0
 40
0.0
 40
0.0625000000000028
 40
0.0625000000000028
 40
0.1250000000000057
 40
0.2500000000000108
 40
0.2500000000000108
 40
0.5000000000000072
 40
0.5000000000000072
 40
1.0
 40
1.0
 40
1.0
 40
1.0
 10
445.6714551722426
 20
444.5623392829751
 30
0.0
 10
445.6124293045158
 20
444.5641985736848
 30
0.0
 10
445.5527777873739
 20
444.5663376799426
 30
0.0
 10
445.4340591549891
 20
444.5703093422553
 30
0.0
 10
445.2559408154331
 20
444.5762401692265
 30
0.0
 10
445.0777089432315
 20
444.5820915147239
 30
0.0
 10
444.7211137367411
 20
444.5936877344049
 30
0.0
 10
444.4832090409894
 20
444.6012790750419
 30
0.0
 10
443.7691173031943
 20
444.6235896180708
 30
0.0
 10
443.2925616892711
 20
444.6378582028178
 30
0.0
 10
442.8158810644778
 20
444.6514266906621
 30
0.0
  0
SPLINE
  5
F1
330
1F
100
AcDbEntity
  8
0
  6
Continuous
 62
     8
370
    18
100
AcDbSpline
210
0.0
220
0.0
230
1.0
 70
     8
 71
     3
 72
    12
 73
     8
 74
     0
 42
0.000000001
 43
0.00000001
 40
0.0
 40
0.0
 40
0.0
 40
0.0
 40
0.25
 40
0.25
 40
0.5
 40
0.5
 40
1.0
 40
1.0
 40
1.0
 40
1.0
 10
442.8158810450016
 20
444.6514267078254
 30
0.0
 10
439.7346599097592
 20
444.7393341565892
 30
0.0
 10
436.6462797005894
 20
444.8020856024672
 30
0.0
 10
430.461508558696
 20
444.8981288400267
 30
0.0
 10
427.3651575278393
 20
444.930913057317
 30
0.0
 10
418.0648479213297
 20
445.0065907765093
 30
0.0
 10
411.8485810644628
 20
445.0260873066227
 30
0.0
 10
405.6208625998876
 20
445.0220395514751
 30
0.0
  0
SPLINE
  5
F2
330
1F
100
AcDbEntity
  8
0
  6
Continuous
 62
     8
370
    18
100
AcDbSpline
210
0.0
220
0.0
230
1.0
 70
     8
 71
     3
 72
    12
 73
     8
 74
     0
 42
0.000000001
 43
0.00000001
 40
0.0
 40
0.0
 40
0.0
 40
0.0
 40
0.5000000000000002
 40
0.5000000000000002
 40
0.7500000000000001
 40
0.7500000000000001
 40
1.0
 40
1.0
 40
1.0
 40
1.0
 10
405.6823992582308
 20
444.0116277061265
 30
0.0
 10
411.9165660497029
 20
444.0090992298799
 30
0.0
 10
418.1393425271344
 20
443.988419265539
 30
0.0
 10
427.4502779883588
 20
443.9077779048483
 30
0.0
 10
430.5503017164365
 20
443.872737267222
 30
0.0
 10
436.7428785366232
 20
443.7696416446369
 30
0.0
 10
439.8354798623212
 20
443.7022925117207
 30
0.0
 10
442.9216267002751
 20
443.6066051802503
 30
0.0
  0
SPLINE
  5
F3
330
1F
100
AcDbEntity
  8
0
  6
Continuous
 62
     8
370
    18
100
AcDbSpline
210
0.0
220
0.0
230
1.0
 70
     8
 71
     3
 72
    12
 73
     8
 74
     0
 42
0.000000001
 43
0.00000001
 40
0.0
 40
0.0
 40
0.0
 40
0.0
 40
0.2499999999999999
 40
0.2499999999999999
 40
0.4999999999999998
 40
0.4999999999999998
 40
1.0
 40
1.0
 40
1.0
 40
1.0
 10
442.8727821716931
 20
441.6196546831379
 30
0.0
 10
439.7930386136571
 20
441.6689829484671
 30
0.0
 10
436.7060779733469
 20
441.7033599537094
 30
0.0
 10
430.5232797047923
 20
441.7547955570125
 30
0.0
 10
427.427565141273
 20
441.7715019486857
 30
0.0
 10
418.1280421838855
 20
441.8011873742263
 30
0.0
 10
411.910286925787
 20
441.794110964084
 30
0.0
 10
405.6837303835161
 20
441.7640921669272
 30
0.0
  0
SPLINE
  5
F4
330
1F
100
AcDbEntity
  8
0
  6
Continuous
 62
     8
370
    18
100
AcDbSpline
210
0.0
220
0.0
230
1.0
 70
     8
 71
     3
 72
    28
 73
    24
 74
     0
 42
0.000000001
 43
0.00000001
 40
0.0
 40
0.0
 40
0.0
 40
0.0
 40
0.2500000000000023
 40
0.2500000000000023
 40
0.3750000000000019
 40
0.3750000000000019
 40
0.5000000000000016
 40
0.5000000000000016
 40
0.5625000000000013
 40
0.5625000000000013
 40
0.6250000000000011
 40
0.6250000000000011
 40
0.687500000000001
 40
0.687500000000001
 40
0.7500000000000008
 40
0.7500000000000008
 40
0.8125000000000006
 40
0.8125000000000006
 40
0.8750000000000003
 40
0.8750000000000003
 40
0.9375000000000002
 40
0.9375000000000002
 40
1.0
 40
1.0
 40
1.0
 40
1.0
 10
442.9216268668861
 20
443.6066119578343
 30
0.0
 10
444.0014359014001
 20
443.5735565434833
 30
0.0
 10
445.0809993341442
 20
443.5243828319727
 30
0.0
 10
446.6906691139523
 20
443.4311835342676
 30
0.0
 10
447.2265981679652
 20
443.3981147060385
 30
0.0
 10
448.2893457170046
 20
443.3148856455198
 30
0.0
 10
448.8114188331568
 20
443.2648949012585
 30
0.0
 10
449.5642430716211
 20
443.1768154144572
 30
0.0
 10
449.8100387669386
 20
443.1447256016844
 30
0.0
 10
450.2864903274944
 20
443.0756837339142
 30
0.0
 10
450.5168623599856
 20
443.0386040830737
 30
0.0
 10
450.9357829075854
 20
442.9670371867225
 30
0.0
 10
451.1260376339416
 20
442.9321529914961
 30
0.0
 10
451.4724731312137
 20
442.875811791814
 30
0.0
 10
451.6277851397313
 20
442.8530933191141
 30
0.0
 10
451.8974095360377
 20
442.8166674093914
 30
0.0
 10
452.013498195973
 20
442.8026879480989
 30
0.0
 10
452.2103635697904
 20
442.7816640991044
 30
0.0
 10
452.2890687203621
 20
442.7751785959384
 30
0.0
 10
452.4164591955551
 20
442.7686462549725
 30
0.0
 10
452.4654930361045
 20
442.7683586797803
 30
0.0
 10
452.5437872634145
 20
442.771766279088
 30
0.0
 10
452.5731283260687
 20
442.7755016093267
 30
0.0
 10
452.5966138919412
 20
442.7806332637924
 30
0.0
  0
SPLINE
  5
F5
330
1F
100
AcDbEntity
  8
0
  6
Continuous
 62
     8
370
    18
100
AcDbSpline
210
0.0
220
0.0
230
1.0
 70
     8
 71
     3
 72
    12
 73
     8
 74
     0
 42
0.000000001
 43
0.00000001
 40
0.0
 40
0.0
 40
0.0
 40
0.0
 40
0.1701901918414551
 40
0.3403803836829101
 40
0.5105705755243654
 40
0.6807607673658206
 40
1.0
 40
1.0
 40
1.0
 40
1.0
 10
451.4732198423216
 20
441.4224058176807
 30
0.0
 10
451.4236772889059
 20
441.4244323753153
 30
0.0
 10
451.2544546961967
 20
441.4290665516904
 30
0.0
 10
450.1513644083008
 20
441.4676217456017
 30
0.0
 10
448.3521449753065
 20
441.5198586876531
 30
0.0
 10
445.9597037748036
 20
441.569630478459
 30
0.0
 10
444.1341005706115
 20
441.5976890463496
 30
0.0
 10
442.8727821716937
 20
441.6196546831605
 30
0.0
  0
SPLINE
  5
F6
330
1F
100
AcDbEntity
  8
0
  6
Continuous
 62
     8
370
    18
100
AcDbSpline
210
0.0
220
0.0
230
1.0
 70
     8
 71
     3
 72
    15
 73
    11
 74
     0
 42
0.000000001
 43
0.00000001
 40
0.0
 40
0.0
 40
0.0
 40
0.0
 40
0.1258247754890769
 40
0.2514583360749963
 40
0.3769022876891411
 40
0.5021362010453188
 40
0.6270973337273059
 40
0.7517426223915296
 40
0.8760258361310502
 40
1.0
 40
1.0
 40
1.0
 40
1.0
 10
451.8178648266023
 20
441.4141056429986
 30
0.0
 10
451.8173417314508
 20
441.413776870268
 30
0.0
 10
451.8162963360915
 20
441.41311982444
 30
0.0
 10
451.8004168767278
 20
441.4125618732668
 30
0.0
 10
451.7739128465373
 20
441.4128788848387
 30
0.0
 10
451.736137182774
 20
441.4135444333903
 30
0.0
 10
451.687247940145
 20
441.4150970725738
 30
0.0
 10
451.6273599152627
 20
441.4168364348681
 30
0.0
 10
451.5570213842792
 20
441.4197076125492
 30
0.0
 10
451.5011530089128
 20
441.4214628555042
 30
0.0
 10
451.473253595854
 20
441.422339384451
 30
0.0
  0
SPLINE
  5
F7
330
1F
100
AcDbEntity
  8
0
  6
Continuous
 62
     8
370
    18
100
AcDbSpline
210
0.0
220
0.0
230
1.0
 70
     8
 71
     3
 72
    26
 73
    22
 74
     0
 42
0.000000001
 43
0.00000001
 40
0.0
 40
0.0
 40
0.0
 40
0.0
 40
0.0790201236689346
 40
0.1550536476275965
 40
0.2281185171405126
 40
0.2982299584969404
 40
0.3654007089516375
 40
0.4296412403976629
 40
0.4909599760946967
 40
0.5493634998661406
 40
0.604856757263962
 40
0.657443248281232
 40
0.707125211268366
 40
0.7539037977804248
 40
0.797779238150268
 40
0.8387509976475654
 40
0.8768179231497937
 40
0.9119783803241808
 40
0.9442303814100587
 40
0.9735717038209287
 40
1.0
 40
1.0
 40
1.0
 40
1.0
 10
469.9443103285791
 20
405.1248355371696
 30
0.0
 10
469.9433093238371
 20
405.1244411061325
 30
0.0
 10
469.9413451477595
 20
405.1236671517496
 30
0.0
 10
469.9258875050687
 20
405.1224939766219
 30
0.0
 10
469.9025671432932
 20
405.1213248067655
 30
0.0
 10
469.8715792730278
 20
405.1201468065422
 30
0.0
 10
469.8341758398353
 20
405.1189494300504
 30
0.0
 10
469.7912886871354
 20
405.1177221684131
 30
0.0
 10
469.7438764606279
 20
405.1164551142984
 30
0.0
 10
469.6928374162617
 20
405.1151388182012
 30
0.0
 10
469.6390312841906
 20
405.113764321764
 30
0.0
 10
469.5832738219667
 20
405.1123231541765
 30
0.0
 10
469.5263381361905
 20
405.110807317878
 30
0.0
 10
469.4689545063193
 20
405.1092093529288
 30
0.0
 10
469.4118099387674
 20
405.1075221333426
 30
0.0
 10
469.3555499615152
 20
405.1057395878724
 30
0.0
 10
469.3007725415168
 20
405.1038543245019
 30
0.0
 10
469.2480484272024
 20
405.1018656412277
 30
0.0
 10
469.1978538489077
 20
405.0997531451061
 30
0.0
 10
469.150790884975
 20
405.0975633316327
 30
0.0
 10
469.1198991658903
 20
405.0958516484303
 30
0.0
 10
469.105260093182
 20
405.0950405101837
 30
0.0
  0
SPLINE
  5
F8
330
1F
100
AcDbEntity
  8
0
  6
Continuous
 62
     8
370
    18
100
AcDbSpline
210
0.0
220
0.0
230
1.0
 70
     8
 71
     3
 72
    10
 73
     6
 74
     0
 42
0.000000001
 43
0.00000001
 40
0.0
 40
0.0
 40
0.0
 40
0.0
 40
0.5000000000000001
 40
0.5000000000000001
 40
1.0
 40
1.0
 40
1.0
 40
1.0
 10
452.5965937450378
 20
442.7806300175091
 30
0.0
 10
452.7458001265453
 20
442.8146288406282
 30
0.0
 10
452.851912720726
 20
442.8331037981983
 30
0.0
 10
452.9907165048077
 20
442.855333869036
 30
0.0
 10
453.0233492854404
 20
442.8590808936739
 30
0.0
 10
453.0212879234547
 20
442.8585825508193
 30
0.0
  0
LINE
  5
F9
330
1F
100
AcDbEntity
  8
0
  6
Continuous
 62
     8
370
    18
100
AcDbLine
 10
388.5552952351
 20
418.3551599083
 30
0.0
 11
388.5552952351
 21
425.9179984031
 31
0.0
  0
LINE
  5
FA
330
1F
100
AcDbEntity
  8
0
  6
Continuous
 62
     8
370
    18
100
AcDbLine
 10
442.7970810147
 20
438.5401462016
 30
0.0
 11
442.7970065089
 21
438.5371808706
 31
0.0
  0
LINE
  5
FB
330
1F
100
AcDbEntity
  8
0
  6
Continuous
 62
     8
370
    18
100
AcDbLine
 10
389.6650163742
 20
348.3500336108
 30
0.0
 11
389.6757470729
 21
348.3427376298
 31
0.0
  0
SPLINE
  5
FC
330
1F
100
AcDbEntity
  8
0
  6
Continuous
 62
     7
370
    25
100
AcDbSpline
210
0.0
220
0.0
230
1.0
 70
     8
 71
     3
 72
    11
 73
     7
 74
     0
 42
0.000000001
 43
0.00000001
 40
0.0
 40
0.0
 40
0.0
 40
0.0
 40
0.2242711389732393
 40
0.4657458562634254
 40
0.723953829372198
 40
1.0
 40
1.0
 40
1.0
 40
1.0
 10
184.5056656184973
 20
444.9263443050585
 30
0.0
 10
182.9826983077146
 20
445.1765352677091
 30
0.0
 10
179.8199386344499
 20
445.6961090508655
 30
0.0
 10
174.6817384861823
 20
446.2858577528675
 30
0.0
 10
169.0297686681907
 20
446.7216403086127
 30
0.0
 10
165.0520334428385
 20
446.779431761384
 30
0.0
 10
162.9967595818815
 20
446.8092922864161
 30
0.0
  0
SPLINE
  5
FD
330
1F
100
AcDbEntity
  8
0
  6
Continuous
 62
     7
370
    25
100
AcDbSpline
210
0.0
220
0.0
230
1.0
 70
     8
 71
     3
 72
    11
 73
     7
 74
     0
 42
0.000000001
 43
0.00000001
 40
0.0
 40
0.0
 40
0.0
 40
0.0
 40
0.2760461706277769
 40
0.5342541437365586
 40
0.7757288610267529
 40
1.0
 40
1.0
 40
1.0
 40
1.0
 10
162.9967595818815
 20
446.8092922864161
 30
0.0
 10
160.9414857209247
 20
446.779431761384
 30
0.0
 10
156.9637504955729
 20
446.7216403086127
 30
0.0
 10
151.3117806775815
 20
446.2858577528675
 30
0.0
 10
146.1735805293139
 20
445.6961090508655
 30
0.0
 10
143.0108208560492
 20
445.1765352677091
 30
0.0
 10
141.4878535452665
 20
444.9263443050585
 30
0.0
  0
SPLINE
  5
FE
330
1F
100
AcDbEntity
  8
0
  6
Continuous
 62
     7
370
    25
100
AcDbSpline
210
0.0
220
0.0
230
1.0
 70
     8
 71
     3
 72
    11
 73
     7
 74
     0
 42
0.000000001
 43
0.00000001
 40
0.0
 40
0.0
 40
0.0
 40
0.0
 40
0.1373374893986792
 40
0.4588518315061227
 40
0.7510639761193247
 40
1.0
 40
1.0
 40
1.0
 40
1.0
 10
141.2077415171446
 20
444.8315431175432
 30
0.0
 10
141.165144838598
 20
444.8183313315029
 30
0.0
 10
141.022827077783
 20
444.7741900540656
 30
0.0
 10
140.7145189646895
 20
444.5627792662547
 30
0.0
 10
140.4843672515558
 20
444.1945590861816
 30
0.0
 10
140.4484690808034
 20
444.0636319975844
 30
0.0
 10
140.4319554004253
 20
444.0034036336145
 30
0.0
  0
SPLINE
  5
FF
330
1F
100
AcDbEntity
  8
0
  6
Continuous
 62
     7
370
    25
100
AcDbSpline
210
0.0
220
0.0
230
1.0
 70
     8
 71
     3
 72
    11
 73
     7
 74
     0
 42
0.000000001
 43
0.00000001
 40
0.0
 40
0.0
 40
0.0
 40
0.0
 40
0.1378069890536388
 40
0.4251653824657052
 40
0.7220055890682991
 40
0.9999999999999999
 40
0.9999999999999999
 40
0.9999999999999999
 40
0.9999999999999999
 10
185.5566594186605
 20
444.0175895390711
 30
0.0
 10
185.5510460615817
 20
444.040240985473
 30
0.0
 10
185.5337275995375
 20
444.1101257637343
 30
0.0
 10
185.4024898938565
 20
444.4079254154692
 30
0.0
 10
185.0879191802389
 20
444.712324152254
 30
0.0
 10
184.887700922308
 20
444.7924807510179
 30
0.0
 10
184.7908738437475
 20
444.8312450943193
 30
0.0
  0
SPLINE
  5
100
330
1F
100
AcDbEntity
  8
0
  6
Continuous
 62
     7
370
    25
100
AcDbSpline
210
0.0
220
0.0
230
1.0
 70
     8
 71
     3
 72
    30
 73
    26
 74
     0
 42
0.000000001
 43
0.00000001
 40
0.0
 40
0.0
 40
0.0
 40
0.0
 40
0.0564832047562901
 40
0.1120117222944556
 40
0.1665866876868979
 40
0.2182034144894053
 40
0.2608161343792385
 40
0.294013407968521
 40
0.3146291943134215
 40
0.3388057406353099
 40
0.3681814335256457
 40
0.4027562095701805
 40
0.4422972926165772
 40
0.4812722900973282
 40
0.5351814437790755
 40
0.5823027629779364
 40
0.6241370125899232
 40
0.6676979928200584
 40
0.7138755453641512
 40
0.7461218289873929
 40
0.7843820478253543
 40
0.8295110314490791
 40
0.8815082783832939
 40
0.9403733443883899
 40
1.0
 40
1.0
 40
1.0
 40
1.0
 10
187.9967599544109
 20
326.67680129387
 30
0.0
 10
187.9929795217377
 20
328.1640234919935
 30
0.0
 10
187.9854825538059
 20
331.1133306456001
 30
0.0
 10
187.9356019637625
 20
335.499427326273
 30
0.0
 10
187.8721329612939
 20
339.7571394502434
 30
0.0
 10
187.8055298998842
 20
343.6746762787926
 30
0.0
 10
187.7487008107425
 20
347.029408889317
 30
0.0
 10
187.7088248581339
 20
349.5680427531208
 30
0.0
 10
187.6792350732835
 20
351.621342365698
 30
0.0
 10
187.6527487978172
 20
353.5740516482682
 30
0.0
 10
187.6232596018731
 20
355.8943020952059
 30
0.0
 10
187.5906357765681
 20
358.619101969304
 30
0.0
 10
187.5564325730013
 20
361.5966557365701
 30
0.0
 10
187.5165785691983
 20
365.0832637456523
 30
0.0
 10
187.4728398982917
 20
368.7694333792328
 30
0.0
 10
187.4231191545797
 20
372.5308208129928
 30
0.0
 10
187.3718668750866
 20
376.0196839850528
 30
0.0
 10
187.3181619865733
 20
379.4836547592943
 30
0.0
 10
187.2671792315555
 20
382.6951793920167
 30
0.0
 10
187.2189121945374
 20
385.7671579637061
 30
0.0
 10
187.1724555804069
 20
388.8115528231335
 30
0.0
 10
187.1213613138157
 20
392.375994208063
 30
0.0
 10
187.0698829139901
 20
396.4830167508108
 30
0.0
 10
187.0237315926923
 20
400.9718751334189
 30
0.0
 10
187.0086821515981
 20
404.0917822550002
 30
0.0
 10
187.0011090669216
 20
405.6617622075281
 30
0.0
  0
SPLINE
  5
101
330
1F
100
AcDbEntity
  8
0
  6
Continuous
 62
     7
370
    25
100
AcDbSpline
210
0.0
220
0.0
230
1.0
 70
     8
 71
     3
 72
    27
 73
    23
 74
     0
 42
0.000000001
 43
0.00000001
 40
0.0
 40
0.0
 40
0.0
 40
0.0
 40
0.0652188462914537
 40
0.1350968188574121
 40
0.2030632619146965
 40
0.2644269341034248
 40
0.3179693716065715
 40
0.3651150983020524
 40
0.4154201117358554
 40
0.4706567817873593
 40
0.5355471235646599
 40
0.5992123390930256
 40
0.6611548628264321
 40
0.717399072819196
 40
0.7376739020105824
 40
0.7572198963279542
 40
0.7813463897362248
 40
0.812008327415812
 40
0.8492052898495182
 40
0.8929365262495782
 40
0.9432012586947972
 40
0.9999999999999999
 40
0.9999999999999999
 40
0.9999999999999999
 40
0.9999999999999999
 10
138.9923151019396
 20
405.6617547569475
 30
0.0
 10
138.9837865456362
 20
403.9445319612348
 30
0.0
 10
138.9661201671037
 20
400.3874108196943
 30
0.0
 10
138.9074449325357
 20
395.0409253019997
 30
0.0
 10
138.8364953847138
 20
389.7961376554567
 30
0.0
 10
138.7625959590396
 20
384.9815629536998
 30
0.0
 10
138.6948199841905
 20
380.7151856981692
 30
0.0
 10
138.6325362933013
 20
376.7399374879206
 30
0.0
 10
138.5727100991268
 20
372.7200329107648
 30
0.0
 10
138.5137070706487
 20
368.2328405165152
 30
0.0
 10
138.4574174414312
 20
363.3938078090213
 30
0.0
 10
138.4005195655157
 20
358.378202758265
 30
0.0
 10
138.342142314865
 20
353.5902861275314
 30
0.0
 10
138.2908534938412
 20
349.9448673636682
 30
0.0
 10
138.2506572984002
 20
347.4157400604813
 30
0.0
 10
138.2228180315002
 20
345.7322023546488
 30
0.0
 10
138.1896656534059
 20
343.7752178449354
 30
0.0
 10
138.148597623196
 20
341.3535418088558
 30
0.0
 10
138.1007567542925
 20
338.4156988534295
 30
0.0
 10
138.0516978928804
 20
334.9616617850372
 30
0.0
 10
138.0076972007062
 20
330.9913493658941
 30
0.0
 10
138.0005505906732
 20
328.1723315459697
 30
0.0
 10
137.9967592093529
 20
326.6768012938699
 30
0.0
  0
LINE
  5
102
330
1F
100
AcDbEntity
  8
0
  6
Continuous
 62
     7
370
    25
100
AcDbLine
 10
185.9473548266
 20
413.0716626344
 30
0.0
 11
185.6515518758
 21
441.1729206143
 31
0.0
  0
LINE
  5
103
330
1F
100
AcDbEntity
  8
0
  6
Continuous
 62
     7
370
    25
100
AcDbLine
 10
140.341967288
 20
441.1729206143
 30
0.0
 11
140.0458402369
 21
413.0407799778
 31
0.0
  0
LINE
  5
104
330
1F
100
AcDbEntity
  8
0
  6
Continuous
 62
     7
370
    25
100
AcDbLine
 10
141.4967588517
 20
408.2676400242
 30
0.0
 11
141.4967588517
 21
407.0668821035
 31
0.0
  0
LINE
  5
105
330
1F
100
AcDbEntity
  8
0
  6
Continuous
 62
     7
370
    25
100
AcDbLine
 10
184.496760312
 20
407.0667330919
 30
0.0
 11
184.496760312
 21
408.2676400242
 31
0.0
  0
ARC
  5
106
330
1F
100
AcDbEntity
  8
0
  6
Continuous
 62
     7
370
    25
100
AcDbCircle
 10
174.4967595819
 20
408.267639811
 30
0.0
 40
10.0
100
AcDbArc
 50
0.0
 51
9.0468459803
  0
ARC
  5
107
330
1F
100
AcDbEntity
  8
0
  6
Continuous
 62
     7
370
    25
100
AcDbCircle
 10
151.4967595819
 20
408.267639811
 30
0.0
 40
10.0
100
AcDbArc
 50
170.9531540197
 51
180.0
  0
ARC
  5
108
330
1F
100
AcDbEntity
  8
0
  6
Continuous
 62
     7
370
    25
100
AcDbCircle
 10
162.9967595819
 20
406.436579036
 30
0.0
 40
21.64486082191337
100
AcDbArc
 50
164.7315451581
 51
170.9531540197
  0
ARC
  5
109
330
1F
100
AcDbEntity
  8
0
  6
Continuous
 62
     7
370
    25
100
AcDbCircle
 10
162.9967595819
 20
406.436579036
 30
0.0
 40
21.64486082191334
100
AcDbArc
 50
9.0468459803
 51
15.2684548419
  0
LINE
  5
10A
330
1F
100
AcDbEntity
  8
0
  6
Continuous
 62
     7
370
    25
100
AcDbLine
 10
185.6515518758
 20
441.1729206143
 30
0.0
 11
185.6267321292
 21
443.5306866465
 31
0.0
  0
LINE
  5
10B
330
1F
100
AcDbEntity
  8
0
  6
Continuous
 62
     7
370
    25
100
AcDbLine
 10
140.3667870346
 20
443.5306866465
 30
0.0
 11
140.341967288
 21
441.1729206143
 31
0.0
  0
SPLINE
  5
10C
330
1F
100
AcDbEntity
  8
0
  6
Continuous
 62
     7
370
    25
100
AcDbSpline
210
0.0
220
0.0
230
1.0
 70
     8
 71
     3
 72
    10
 73
     6
 74
     0
 42
0.000000001
 43
0.00000001
 40
0.0
 40
0.0
 40
0.0
 40
0.0
 40
0.5
 40
0.5
 40
1.0
 40
1.0
 40
1.0
 40
1.0
 10
140.0069196131411
 20
406.842315083937
 30
0.0
 10
139.7290322133864
 20
406.7976759394857
 30
0.0
 10
139.4685785879449
 20
406.6515767525902
 30
0.0
 10
139.1026180082399
 20
406.2238133621071
 30
0.0
 10
138.9985722995665
 20
405.9438570473819
 30
0.0
 10
138.9974469032725
 20
405.6623599420909
 30
0.0
  0
CIRCLE
  5
10D
330
1F
100
AcDbEntity
  8
0
  6
Continuous
 62
     7
370
    25
100
AcDbCircle
 10
162.996759576
 20
391.7255360998
 30
0.0
 40
10.6509618936857
  0
SPLINE
  5
10E
330
1F
100
AcDbEntity
  8
0
  6
Continuous
 62
     7
370
    25
100
AcDbSpline
210
0.0
220
0.0
230
1.0
 70
     8
 71
     3
 72
     8
 73
     4
 74
     0
 42
0.000000001
 43
0.00000001
 40
0.0
 40
0.0
 40
0.0
 40
0.0
 40
1.0
 40
1.0
 40
1.0
 40
1.0
 10
173.0893754703184
 20
385.326973411553
 30
0.0
 10
173.3397396984234
 20
386.8436276105889
 30
0.0
 10
173.5928793806314
 20
388.377094935529
 30
0.0
 10
173.849878086126
 20
389.9339394128144
 30
0.0
  0
ARC
  5
10F
330
1F
100
AcDbEntity
  8
0
  6
Continuous
 62
     7
370
    25
100
AcDbCircle
 10
162.9967595795
 20
391.7255360992
 30
0.0
 40
11.94999999952072
100
AcDbArc
 50
193.6267432888
 51
327.6259334917
  0
SPLINE
  5
110
330
1F
100
AcDbEntity
  8
0
  6
Continuous
 62
     7
370
    25
100
AcDbSpline
210
0.0
220
0.0
230
1.0
 70
     8
 71
     3
 72
    14
 73
    10
 74
     0
 42
0.000000001
 43
0.00000001
 40
0.0
 40
0.0
 40
0.0
 40
0.0
 40
0.5000000000000048
 40
0.5000000000000048
 40
0.6250000000000027
 40
0.6250000000000027
 40
0.7500000000000004
 40
0.7500000000000004
 40
1.0
 40
1.0
 40
1.0
 40
1.0
 10
151.3831384576836
 20
388.9101667863779
 30
0.0
 10
151.6338052355754
 20
390.4286537688273
 30
0.0
 10
151.8861983153328
 20
391.9575983306631
 30
0.0
 10
152.2045983735774
 20
393.8863993777019
 30
0.0
 10
152.2684198361604
 20
394.2730164673227
 30
0.0
 10
152.3963447380068
 20
395.0479588023964
 30
0.0
 10
152.4605692141126
 20
395.4370172637588
 30
0.0
 10
152.6520748415189
 20
396.5971183538512
 30
0.0
 10
152.7785734327371
 20
397.3634203970599
 30
0.0
 10
152.9041436923104
 20
398.124098801069
 30
0.0
  0
ARC
  5
111
330
1F
100
AcDbEntity
  8
0
  6
Continuous
 62
     7
370
    25
100
AcDbCircle
 10
162.9967595795
 20
391.7255360992
 30
0.0
 40
11.94999999986784
100
AcDbArc
 50
13.6267432889
 51
147.6259334673
  0
SPLINE
  5
112
330
1F
100
AcDbEntity
  8
0
  6
Continuous
 62
     7
370
    25
100
AcDbSpline
210
0.0
220
0.0
230
1.0
 70
    24
 71
     3
 72
     8
 73
     4
 74
     0
 42
0.000000001
 43
0.00000001
 40
0.0
 40
0.0
 40
0.0
 40
0.0
 40
1.0
 40
1.0
 40
1.0
 40
1.0
 10
173.8498780863648
 20
389.9339394127422
 30
0.0
 10
174.1068767918633
 20
391.4907838900512
 30
0.0
 10
174.3600164745725
 20
393.0242512148755
 30
0.0
 10
174.6103807026737
 20
394.5409054138882
 30
0.0
  0
ARC
  5
113
330
1F
100
AcDbEntity
  8
0
  6
Continuous
 62
     7
370
    25
100
AcDbCircle
 10
162.9967595795
 20
391.7255360992
 30
0.0
 40
11.95000000188135
100
AcDbArc
 50
350.6263383903
 51
13.6267433067
  0
ARC
  5
114
330
1F
100
AcDbEntity
  8
0
  6
Continuous
 62
     7
370
    25
100
AcDbCircle
 10
162.9967595795
 20
391.7255360992
 30
0.0
 40
11.95000000188135
100
AcDbArc
 50
327.625933474
 51
350.6263383903
  0
ARC
  5
115
330
1F
100
AcDbEntity
  8
0
  6
Continuous
 62
     7
370
    25
100
AcDbCircle
 10
162.9967595795
 20
391.7255360992
 30
0.0
 40
11.94999999986785
100
AcDbArc
 50
147.6259334673
 51
193.6267433134
  0
SPLINE
  5
116
330
1F
100
AcDbEntity
  8
0
  6
Continuous
 62
     7
370
    25
100
AcDbSpline
210
0.0
220
0.0
230
1.0
 70
     8
 71
     3
 72
    11
 73
     7
 74
     0
 42
0.000000001
 43
0.00000001
 40
-0.00000006
 40
-0.00000006
 40
-0.00000006
 40
-0.00000006
 40
0.0
 40
0.0
 40
0.0
 40
0.0004426197136962
 40
0.0004426197136962
 40
0.0004426197136962
 40
0.0004426197136962
 10
140.0031904952218
 20
406.8420765452375
 30
0.0
 10
140.0031904982264
 20
406.8420765382057
 30
0.0
 10
140.0031905012057
 20
406.8420765311687
 30
0.0
 10
140.0031905042362
 20
406.8420765241387
 30
0.0
 10
140.0032128607616
 20
406.8420246634551
 30
0.0
 10
140.0046366395912
 20
406.8421300985689
 30
0.0
 10
140.0074701014948
 20
406.842403511149
 30
0.0
  0
SPLINE
  5
117
330
1F
100
AcDbEntity
  8
0
  6
Continuous
 62
     7
370
    25
100
AcDbSpline
210
0.0
220
0.0
230
1.0
 70
     8
 71
     3
 72
     8
 73
     4
 74
     0
 42
0.000000001
 43
0.00000001
 40
0.9055416016261804
 40
0.9055416016261804
 40
0.9055416016261804
 40
0.9055416016261804
 40
0.9577230208348811
 40
0.9577230208348811
 40
0.9577230208348811
 40
0.9577230208348811
 10
141.2467595818816
 20
407.0362748112029
 30
0.0
 10
140.8319935957755
 20
406.9733466423781
 30
0.0
 10
140.4174667858626
 20
406.9086135719703
 30
0.0
 10
140.0031904951986
 20
406.8420765452337
 30
0.0
  0
SPLINE
  5
118
330
1F
100
AcDbEntity
  8
0
  6
Continuous
 62
     7
370
    25
100
AcDbSpline
210
0.0
220
0.0
230
1.0
 70
     8
 71
     3
 72
    34
 73
    30
 74
     0
 42
0.000000001
 43
0.00000001
 40
0.0
 40
0.0
 40
0.0
 40
0.0
 40
0.125
 40
0.125
 40
0.1875000000000001
 40
0.1875000000000001
 40
0.2500000000000001
 40
0.2500000000000001
 40
0.3750000000000002
 40
0.3750000000000002
 40
0.4062500000000003
 40
0.4062500000000003
 40
0.4375000000000004
 40
0.4375000000000004
 40
0.5000000000000004
 40
0.5000000000000004
 40
0.6250000000000001
 40
0.6250000000000001
 40
0.65625
 40
0.65625
 40
0.6874999999999999
 40
0.6874999999999999
 40
0.7499999999999999
 40
0.7499999999999999
 40
0.8125
 40
0.8125
 40
0.875
 40
0.875
 40
1.0
 40
1.0
 40
1.0
 40
1.0
 10
162.9967595818816
 20
408.6288956008102
 30
0.0
 10
161.5585830784349
 20
408.6288564186474
 30
0.0
 10
160.1448243818672
 20
408.6075501518745
 30
0.0
 10
158.0592223704311
 20
408.5468156528183
 30
0.0
 10
157.3699038790971
 20
408.5217727411334
 30
0.0
 10
156.003275124371
 20
408.4626196740207
 30
0.0
 10
155.3245039792363
 20
408.4283725072672
 30
0.0
 10
153.3507063950485
 20
408.3156876945126
 30
0.0
 10
152.1027802239367
 20
408.2267692627574
 30
0.0
 10
150.6266180217853
 20
408.1049409166558
 30
0.0
 10
150.3356108340217
 20
408.0800412515711
 30
0.0
 10
149.7621724482149
 20
408.0293422507707
 30
0.0
 10
149.4789826754194
 20
408.0034699158844
 30
0.0
 10
148.6496528545365
 20
407.9254402686717
 30
0.0
 10
148.1232484489796
 20
407.8728560565044
 30
0.0
 10
146.6209901655524
 20
407.7157442452402
 30
0.0
 10
145.721345685713
 20
407.6118329586239
 30
0.0
 10
144.727321746079
 20
407.4906245362408
 30
0.0
 10
144.5347093152777
 20
407.4667679676425
 30
0.0
 10
144.16670030694
 20
407.4205997326087
 30
0.0
 10
143.9908895052265
 20
407.3982391721221
 30
0.0
 10
143.487610248038
 20
407.3335373053633
 30
0.0
 10
143.1842373465241
 20
407.2935764874995
 30
0.0
 10
142.6409583202903
 20
407.2210812699946
 30
0.0
 10
142.4010519357255
 20
407.1885357079259
 30
0.0
 10
141.9857385606806
 20
407.1319863540489
 30
0.0
 10
141.8097399899028
 20
407.107920462779
 30
0.0
 10
141.3880124288776
 20
407.0514353672235
 30
0.0
 10
141.2467595818816
 20
407.035791546663
 30
0.0
 10
141.2467595818816
 20
407.0362748112029
 30
0.0
  0
SPLINE
  5
119
330
1F
100
AcDbEntity
  8
0
  6
Continuous
 62
     7
370
    25
100
AcDbSpline
210
0.0
220
0.0
230
1.0
 70
     8
 71
     3
 72
    34
 73
    30
 74
     0
 42
0.000000001
 43
0.00000001
 40
0.0
 40
0.0
 40
0.0
 40
0.0
 40
0.1250000000000001
 40
0.1250000000000001
 40
0.1875000000000001
 40
0.1875000000000001
 40
0.2500000000000002
 40
0.2500000000000002
 40
0.3750000000000002
 40
0.3750000000000002
 40
0.4062500000000002
 40
0.4062500000000002
 40
0.4375000000000002
 40
0.4375000000000002
 40
0.5000000000000002
 40
0.5000000000000002
 40
0.6250000000000003
 40
0.6250000000000003
 40
0.6562500000000003
 40
0.6562500000000003
 40
0.6875000000000003
 40
0.6875000000000003
 40
0.7500000000000003
 40
0.7500000000000003
 40
0.8125000000000002
 40
0.8125000000000002
 40
0.8750000000000002
 40
0.8750000000000002
 40
1.0
 40
1.0
 40
1.0
 40
1.0
 10
184.7467595818816
 20
407.036274811203
 30
0.0
 10
184.7467595818816
 20
407.0357915508192
 30
0.0
 10
184.6055248121821
 20
407.0514542533207
 30
0.0
 10
184.190729331627
 20
407.106979187722
 30
0.0
 10
184.0183889262866
 20
407.1305380815684
 30
0.0
 10
183.6040348893148
 20
407.1869642806906
 30
0.0
 10
183.3609751362895
 20
407.2199488552153
 30
0.0
 10
182.5425090197416
 20
407.3291935249619
 30
0.0
 10
181.8749971352772
 20
407.4162938684096
 30
0.0
 10
180.889598099846
 20
407.536568378779
 30
0.0
 10
180.6848987479885
 20
407.5611931328802
 30
0.0
 10
180.2600117515393
 20
407.6114171804747
 30
0.0
 10
180.0391786785217
 20
407.6370891502366
 30
0.0
 10
179.3588164019763
 20
407.7146412870268
 30
0.0
 10
178.8814744325213
 20
407.7670672116747
 30
0.0
 10
177.3801686181885
 20
407.9241785093312
 30
0.0
 10
176.2875979972632
 20
408.0287219774902
 30
0.0
 10
174.8036519968969
 20
408.1514809855615
 30
0.0
 10
174.5001766547881
 20
408.1756864988973
 30
0.0
 10
173.8874114669248
 20
408.2226197802555
 30
0.0
 10
173.5775735079128
 20
408.2453970729189
 30
0.0
 10
172.6378599350858
 20
408.311445558102
 30
0.0
 10
171.9978086141706
 20
408.3524326960662
 30
0.0
 10
170.6908368369544
 20
408.4272031582549
 30
0.0
 10
170.0239166443862
 20
408.4609881956615
 30
0.0
 10
168.662713660497
 20
408.5202453454284
 30
0.0
 10
167.9651038479024
 20
408.5458048889676
 30
0.0
 10
165.8567042317931
 20
408.6075386451697
 30
0.0
 10
164.434916443247
 20
408.6288564191826
 30
0.0
 10
162.9967595818816
 20
408.6288956008102
 30
0.0
  0
SPLINE
  5
11A
330
1F
100
AcDbEntity
  8
0
  6
Continuous
 62
     7
370
    25
100
AcDbSpline
210
0.0
220
0.0
230
1.0
 70
     8
 71
     3
 72
     8
 73
     4
 74
     0
 42
0.000000001
 43
0.00000001
 40
0.9055416016261826
 40
0.9055416016261826
 40
0.9055416016261826
 40
0.9055416016261826
 40
0.9577230176910196
 40
0.9577230176910196
 40
0.9577230176910196
 40
0.9577230176910196
 10
184.7467595818816
 20
407.036274811203
 30
0.0
 10
185.1615255429986
 20
406.9733466461697
 30
0.0
 10
185.5760523279512
 20
406.9086135797706
 30
0.0
 10
185.9903285936858
 20
406.8420765572602
 30
0.0
  0
SPLINE
  5
11B
330
1F
100
AcDbEntity
  8
0
  6
Continuous
 62
     7
370
    25
100
AcDbSpline
210
0.0
220
0.0
230
1.0
 70
     8
 71
     3
 72
    10
 73
     6
 74
     0
 42
0.000000001
 43
0.00000001
 40
0.0
 40
0.0
 40
0.0
 40
0.0
 40
0.4632435059064436
 40
0.9267912926614109
 40
1.0
 40
1.0
 40
1.0
 40
1.0
 10
183.3642664733709
 20
445.0220395622454
 30
0.0
 10
183.636094107273
 20
445.0109033054612
 30
0.0
 10
184.179927924678
 20
444.9886234770583
 30
0.0
 10
184.4881744147822
 20
444.9411600362068
 30
0.0
 10
184.580424798318
 20
444.8963045218926
 30
0.0
 10
184.5930069121898
 20
444.8901866374216
 30
0.0
  0
SPLINE
  5
11C
330
1F
100
AcDbEntity
  8
0
  6
Continuous
 62
     7
370
    25
100
AcDbSpline
210
0.0
220
0.0
230
1.0
 70
     8
 71
     3
 72
    10
 73
     6
 74
     0
 42
0.000000001
 43
0.00000001
 40
0.0
 40
0.0
 40
0.0
 40
0.0
 40
0.4672256029190061
 40
0.9347581023213855
 40
1.0
 40
1.0
 40
1.0
 40
1.0
 10
142.6292526903929
 20
445.0220395622454
 30
0.0
 10
142.3575072523511
 20
445.0108811675984
 30
0.0
 10
141.813837880657
 20
444.9885570489287
 30
0.0
 10
141.5073385682543
 20
444.9417351332032
 30
0.0
 10
141.4162223636901
 20
444.897675639325
 30
0.0
 10
141.4050645563186
 20
444.8922802505693
 30
0.0
  0
SPLINE
  5
11D
330
1F
100
AcDbEntity
  8
0
  6
Continuous
 62
     7
370
    25
100
AcDbSpline
210
0.0
220
0.0
230
1.0
 70
     8
 71
     3
 72
    10
 73
     6
 74
     0
 42
0.000000001
 43
0.00000001
 40
0.0
 40
0.0
 40
0.0
 40
0.0
 40
0.5
 40
0.5
 40
1.0
 40
1.0
 40
1.0
 40
1.0
 10
164.9044493718165
 20
425.652360551623
 30
0.0
 10
164.6067523499774
 20
425.7930589360669
 30
0.0
 10
164.2981766823177
 20
425.8981089959998
 30
0.0
 10
163.6596335408201
 20
426.0405588916636
 30
0.0
 10
163.3255052656599
 20
426.0773133620833
 30
0.0
 10
162.9965468161119
 20
426.0769852284725
 30
0.0
  0
SPLINE
  5
11E
330
1F
100
AcDbEntity
  8
0
  6
Continuous
 62
     7
370
    25
100
AcDbSpline
210
0.0
220
0.0
230
1.0
 70
     8
 71
     3
 72
    10
 73
     6
 74
     0
 42
0.000000001
 43
0.00000001
 40
0.0
 40
0.0
 40
0.0
 40
0.0
 40
0.5000000000000001
 40
0.5000000000000001
 40
1.0
 40
1.0
 40
1.0
 40
1.0
 10
162.9969723404326
 20
426.0769852284798
 30
0.0
 10
162.6691621895405
 20
426.0773122161448
 30
0.0
 10
162.3400113730117
 20
426.0416725937201
 30
0.0
 10
161.6957115380384
 20
425.8984416565233
 30
0.0
 10
161.3861775146404
 20
425.7927804198857
 30
0.0
 10
161.0890697919466
 20
425.6523605516229
 30
0.0
  0
LINE
  5
11F
330
1F
100
AcDbEntity
  8
0
  6
Continuous
 62
     7
370
    25
100
AcDbLine
 10
185.6267004642
 20
443.5306866465
 30
0.0
 11
185.6245006803
 21
443.7424544988
 31
0.0
  0
LINE
  5
120
330
1F
100
AcDbEntity
  8
0
  6
Continuous
 62
     7
370
    25
100
AcDbLine
 10
140.3668186996
 20
443.5306866465
 30
0.0
 11
140.3690184835
 21
443.7424544988
 31
0.0
  0
LINE
  5
121
330
1F
100
AcDbEntity
  8
0
  6
Continuous
 62
     7
370
    25
100
AcDbLine
 10
140.4179762486
 20
444.0060113368
 30
0.0
 11
140.3688918236
 21
443.7426184116
 31
0.0
  0
LINE
  5
122
330
1F
100
AcDbEntity
  8
0
  6
Continuous
 62
     7
370
    25
100
AcDbLine
 10
185.5727079693
 20
444.0205846725
 30
0.0
 11
185.6245006803
 21
443.7427748738
 31
0.0
  0
SPLINE
  5
123
330
1F
100
AcDbEntity
  8
0
  6
Continuous
 62
     7
370
    25
100
AcDbSpline
210
0.0
220
0.0
230
1.0
 70
    24
 71
     3
 72
     8
 73
     4
 74
     0
 42
0.000000001
 43
0.00000001
 40
0.5
 40
0.5
 40
0.5
 40
0.5
 40
1.0
 40
1.0
 40
1.0
 40
1.0
 10
187.9967595818819
 20
326.67680129387
 30
0.0
 10
187.9967595818822
 20
326.67680129387
 30
0.0
 10
176.7946348299596
 20
326.67680129387
 30
0.0
 10
162.9967595818819
 20
326.67680129387
 30
0.0
  0
SPLINE
  5
124
330
1F
100
AcDbEntity
  8
0
  6
Continuous
 62
     7
370
    25
100
AcDbSpline
210
0.0
220
0.0
230
1.0
 70
    24
 71
     3
 72
     8
 73
     4
 74
     0
 42
0.000000001
 43
0.00000001
 40
0.5
 40
0.5
 40
0.5
 40
0.5
 40
1.0
 40
1.0
 40
1.0
 40
1.0
 10
137.9967595818819
 20
326.6768012938699
 30
0.0
 10
137.9967595818816
 20
326.6768012938699
 30
0.0
 10
149.1988843338042
 20
326.6768012938699
 30
0.0
 10
162.9967595818819
 20
326.67680129387
 30
0.0
  0
CIRCLE
  5
125
330
1F
100
AcDbEntity
  8
0
  6
Continuous
 62
     7
370
    25
100
AcDbCircle
 10
162.9967595819
 20
422.136579036
 30
0.0
 40
3.569682227408606
  0
ARC
  5
126
330
1F
100
AcDbEntity
  8
0
  6
Continuous
 62
     7
370
    25
100
AcDbCircle
 10
162.9967595819
 20
422.136579036
 30
0.0
 40
3.999999999999974
100
AcDbArc
 50
118.4845943639
 51
61.5154056361
  0
SPLINE
  5
127
330
1F
100
AcDbEntity
  8
0
  6
Continuous
 62
     7
370
    25
100
AcDbSpline
210
0.0
220
0.0
230
1.0
 70
     8
 71
     3
 72
    11
 73
     7
 74
     0
 42
0.000000001
 43
0.00000001
 40
0.0
 40
0.0
 40
0.0
 40
0.0
 40
0.016410027628323
 40
0.419716300939706
 40
0.8359623485117287
 40
1.0
 40
1.0
 40
1.0
 40
1.0
 10
140.055879894215
 20
413.0406756696901
 30
0.0
 10
140.0524210012511
 20
413.0287167110912
 30
0.0
 10
139.9639535231308
 20
412.722844595583
 30
0.0
 10
140.2778335283381
 20
412.3981872893666
 30
0.0
 10
140.883199320263
 20
412.1549520327561
 30
0.0
 10
141.4725252117743
 20
412.1406269939678
 30
0.0
 10
141.6391189578356
 20
412.1365775165758
 30
0.0
  0
SPLINE
  5
128
330
1F
100
AcDbEntity
  8
0
  6
Continuous
 62
     7
370
    25
100
AcDbSpline
210
0.0
220
0.0
230
1.0
 70
     8
 71
     3
 72
    10
 73
     6
 74
     0
 42
0.000000001
 43
0.00000001
 40
0.0
 40
0.0
 40
0.0
 40
0.0
 40
0.389371712024667
 40
0.7903364263193923
 40
1.0
 40
1.0
 40
1.0
 40
1.0
 10
184.3544002059282
 20
412.1365775165758
 30
0.0
 10
184.7192391281037
 20
412.1632541043302
 30
0.0
 10
185.4597795449591
 20
412.2174015382116
 30
0.0
 10
185.9290567316011
 20
412.5488794450399
 30
0.0
 10
185.8984799170277
 20
412.937575295673
 30
0.0
 10
185.8879811498703
 20
413.0710367856226
 30
0.0
  0
LINE
  5
129
330
1F
100
AcDbEntity
  8
0
  6
Continuous
 62
     7
370
    25
100
AcDbLine
 10
141.6391189578
 20
412.1365775166
 30
0.0
 11
184.3544002059
 21
412.1365775166
 31
0.0
  0
ARC
  5
12A
330
1F
100
AcDbEntity
  8
0
  6
Continuous
 62
     7
370
    25
100
AcDbCircle
 10
185.8000457668
 20
405.6572688268
 30
0.0
 40
1.199989460364778
100
AcDbArc
 50
0.2138340205
 51
80.8761051803
  0
SPLINE
  5
12B
330
1F
100
AcDbEntity
  8
0
  6
Continuous
 62
     8
370
    18
100
AcDbSpline
210
0.0
220
0.0
230
1.0
 70
     8
 71
     3
 72
    54
 73
    50
 74
     0
 42
0.000000001
 43
0.00000001
 40
0.0
 40
0.0
 40
0.0
 40
0.0
 40
0.0312499999999999
 40
0.0312499999999999
 40
0.0624999999999998
 40
0.0624999999999998
 40
0.1249999999999996
 40
0.1249999999999996
 40
0.2499999999999993
 40
0.2499999999999993
 40
0.4999999999999984
 40
0.4999999999999984
 40
0.6249999999999981
 40
0.6249999999999981
 40
0.6874999999999978
 40
0.6874999999999978
 40
0.7499999999999973
 40
0.7499999999999973
 40
0.812499999999997
 40
0.812499999999997
 40
0.8437499999999968
 40
0.8437499999999968
 40
0.8593749999999968
 40
0.8593749999999968
 40
0.8749999999999969
 40
0.8749999999999969
 40
0.8828124999999971
 40
0.8828124999999971
 40
0.8906249999999973
 40
0.8906249999999973
 40
0.9062499999999977
 40
0.9062499999999977
 40
0.9140624999999979
 40
0.9140624999999979
 40
0.9218749999999981
 40
0.9218749999999981
 40
0.9374999999999984
 40
0.9374999999999984
 40
0.9531249999999989
 40
0.9531249999999989
 40
0.9687499999999993
 40
0.9687499999999993
 40
0.9843749999999997
 40
0.9843749999999997
 40
0.9921874999999999
 40
0.9921874999999999
 40
0.99609375
 40
0.99609375
 40
1.0
 40
1.0
 40
1.0
 40
1.0
 10
186.9960043035799
 20
405.662360339081
 30
0.0
 10
186.9760275521906
 20
405.6624769819312
 30
0.0
 10
186.9552925364459
 20
405.6592134079256
 30
0.0
 10
186.9123572610586
 20
405.6543827546675
 30
0.0
 10
186.8901717790808
 20
405.6523974985204
 30
0.0
 10
186.8215769095308
 20
405.6455819629298
 30
0.0
 10
186.7730287675061
 20
405.639969022324
 30
0.0
 10
186.6184952576857
 20
405.6197106346492
 30
0.0
 10
186.5040671320477
 20
405.602480062487
 30
0.0
 10
186.1348366777887
 20
405.5491076955231
 30
0.0
 10
185.8542068052689
 20
405.510884786428
 30
0.0
 10
185.3872378222438
 20
405.4347570893043
 30
0.0
 10
185.2283930019203
 20
405.4067387223867
 30
0.0
 10
184.9555965034755
 20
405.3596425092242
 30
0.0
 10
184.8571909966519
 20
405.3430887957279
 30
0.0
 10
184.6286373199262
 20
405.3087268880187
 30
0.0
 10
184.4987892729642
 20
405.2916732482359
 30
0.0
 10
184.1947799847941
 20
405.2501194000488
 30
0.0
 10
184.0235441958478
 20
405.2255728982514
 30
0.0
 10
183.7093635672397
 20
405.1834214415576
 30
0.0
 10
183.5951791286003
 20
405.168651241803
 30
0.0
 10
183.3981154669112
 20
405.1451108005854
 30
0.0
 10
183.3276134864269
 20
405.1370125123015
 30
0.0
 10
183.1684018781297
 20
405.1206401556335
 30
0.0
 10
183.0796560620946
 20
405.1125937364814
 30
0.0
 10
182.9159735683516
 20
405.1007440885655
 30
0.0
 10
182.8558919583458
 20
405.0968909551885
 30
0.0
 10
182.7176368499656
 20
405.0897079833634
 30
0.0
 10
182.6389603195983
 20
405.0864359996959
 30
0.0
 10
182.3717314846464
 20
405.0774689799829
 30
0.0
 10
182.1525006545203
 20
405.0724575763304
 30
0.0
 10
181.7507568908484
 20
405.0663391881066
 30
0.0
 10
181.6046613758371
 20
405.0645517354263
 30
0.0
 10
181.2848381439505
 20
405.0616762448853
 30
0.0
 10
181.112414870196
 20
405.0605901957539
 30
0.0
 10
180.5665386541888
 20
405.0579621278187
 30
0.0
 10
180.162334380115
 20
405.0570548167602
 30
0.0
 10
179.2794574179027
 20
405.0568375960552
 30
0.0
 10
178.7956678068162
 20
405.057689824062
 30
0.0
 10
177.7960704155361
 20
405.061148538139
 30
0.0
 10
177.2770083822097
 20
405.0637302396846
 30
0.0
 10
176.208047204924
 20
405.0705055124317
 30
0.0
 10
175.6558668754222
 20
405.0747885441433
 30
0.0
 10
174.8188010421568
 20
405.0819780239536
 30
0.0
 10
174.5382615850292
 20
405.0844946350234
 30
0.0
 10
174.1155822384077
 20
405.0883877238069
 30
0.0
 10
173.9743772504406
 20
405.0897052525914
 30
0.0
 10
173.6914094587973
 20
405.0923695709834
 30
0.0
 10
173.5477999132458
 20
405.0937340150192
 30
0.0
 10
173.4076382958833
 20
405.0950722697583
 30
0.0
  0
SPLINE
  5
12C
330
1F
100
AcDbEntity
  8
0
  6
Continuous
 62
     8
370
    18
100
AcDbSpline
210
0.0
220
0.0
230
1.0
 70
     8
 71
     3
 72
    10
 73
     6
 74
     0
 42
0.000000001
 43
0.00000001
 40
0.0
 40
0.0
 40
0.0
 40
0.0
 40
0.5
 40
0.5
 40
1.0
 40
1.0
 40
1.0
 40
1.0
 10
173.249880153471
 20
406.2856111996576
 30
0.0
 10
173.2954897267774
 20
406.2495446759047
 30
0.0
 10
173.3377147518937
 20
406.1056754456895
 30
0.0
 10
173.3949354821302
 20
405.6720428670927
 30
0.0
 10
173.4096772235354
 20
405.3842040836223
 30
0.0
 10
173.4069786891509
 20
405.0950783987379
 30
0.0
  0
SPLINE
  5
12D
330
1F
100
AcDbEntity
  8
0
  6
Continuous
 62
     8
370
    18
100
AcDbSpline
210
0.0
220
0.0
230
1.0
 70
     8
 71
     3
 72
    46
 73
    42
 74
     0
 42
0.000000001
 43
0.00000001
 40
0.0
 40
0.0
 40
0.0
 40
0.0
 40
0.0156249999999998
 40
0.0156249999999998
 40
0.0312499999999997
 40
0.0312499999999997
 40
0.0468749999999995
 40
0.0468749999999995
 40
0.0546874999999994
 40
0.0546874999999994
 40
0.0624999999999994
 40
0.0624999999999994
 40
0.0781249999999991
 40
0.0781249999999991
 40
0.0937499999999988
 40
0.0937499999999988
 40
0.1015624999999988
 40
0.1015624999999988
 40
0.1093749999999988
 40
0.1093749999999988
 40
0.1249999999999989
 40
0.1249999999999989
 40
0.156249999999999
 40
0.156249999999999
 40
0.1874999999999991
 40
0.1874999999999991
 40
0.2499999999999993
 40
0.2499999999999993
 40
0.3749999999999994
 40
0.3749999999999994
 40
0.4999999999999994
 40
0.4999999999999994
 40
0.7499999999999998
 40
0.7499999999999998
 40
0.8749999999999999
 40
0.8749999999999999
 40
0.9374999999999999
 40
0.9374999999999999
 40
0.9687499999999999
 40
0.9687499999999999
 40
1.0
 40
1.0
 40
1.0
 40
1.0
 10
173.2505393500108
 20
406.2856054495345
 30
0.0
 10
173.8102848440857
 20
406.2807219814867
 30
0.0
 10
174.3659083147266
 20
406.2760989527907
 30
0.0
 10
175.4641261639447
 20
406.2685050977461
 30
0.0
 10
176.0061774605197
 20
406.2655516563836
 30
0.0
 10
177.0519760103523
 20
406.2621625462565
 30
0.0
 10
177.5581128320549
 20
406.2616261577674
 30
0.0
 10
178.2840738688516
 20
406.2628102312003
 30
0.0
 10
178.5216277478073
 20
406.263550612457
 30
0.0
 10
178.9738429285342
 20
406.2656576972848
 30
0.0
 10
179.1896972927333
 20
406.266977494193
 30
0.0
 10
179.8060343228108
 20
406.2716752899385
 30
0.0
 10
180.1763979534508
 20
406.2757050695093
 30
0.0
 10
180.8179815105343
 20
406.2865329553725
 30
0.0
 10
181.0777688998911
 20
406.2930180726406
 30
0.0
 10
181.3974192011661
 20
406.3035098877874
 30
0.0
 10
181.492101227643
 20
406.3071554332956
 30
0.0
 10
181.6598430600675
 20
406.31485265678
 30
0.0
 10
181.7323884098042
 20
406.3189436406722
 30
0.0
 10
181.9243873079292
 20
406.3312738607773
 30
0.0
 10
182.0228714128316
 20
406.3393513641309
 30
0.0
 10
182.2876601399411
 20
406.3633025844041
 30
0.0
 10
182.4210483422411
 20
406.3789674637419
 30
0.0
 10
182.6684166932192
 20
406.4082219508219
 30
0.0
 10
182.7792233341839
 20
406.4222128905996
 30
0.0
 10
183.0817907095981
 20
406.4621903827095
 30
0.0
 10
183.249993633232
 20
406.4853291374523
 30
0.0
 10
183.6866411161818
 20
406.5459825419305
 30
0.0
 10
183.8884845057707
 20
406.5793870692766
 30
0.0
 10
184.2432736207788
 20
406.642853360286
 30
0.0
 10
184.4014677092948
 20
406.6711569055158
 30
0.0
 10
184.8641942921175
 20
406.7472726093665
 30
0.0
 10
185.1408237754187
 20
406.7857229430682
 30
0.0
 10
185.5039307168175
 20
406.8220185346096
 30
0.0
 10
185.6162483249068
 20
406.8305838848887
 30
0.0
 10
185.7679426078051
 20
406.8383131998605
 30
0.0
 10
185.8155810684162
 20
406.8400368501376
 30
0.0
 10
185.8828776918504
 20
406.8412452516863
 30
0.0
 10
185.9046484544916
 20
406.841382481227
 30
0.0
 10
185.9466466875822
 20
406.8426179438796
 30
0.0
 10
185.9668018917604
 20
406.8440964114361
 30
0.0
 10
185.9864973647364
 20
406.842324308465
 30
0.0
  0
SPLINE
  5
12E
330
1F
100
AcDbEntity
  8
0
  6
Continuous
 62
     8
370
    18
100
AcDbSpline
210
0.0
220
0.0
230
1.0
 70
     8
 71
     3
 72
    10
 73
     6
 74
     0
 42
0.000000001
 43
0.00000001
 40
0.0
 40
0.0
 40
0.0
 40
0.0
 40
0.5
 40
0.5
 40
1.0
 40
1.0
 40
1.0
 40
1.0
 10
185.986518041264
 20
406.8423221741597
 30
0.0
 10
186.2643043552969
 20
406.7975652260192
 30
0.0
 10
186.5246198560086
 20
406.6514139882217
 30
0.0
 10
186.8903582976679
 20
406.2236680483856
 30
0.0
 10
186.9943225569899
 20
405.9437793336643
 30
0.0
 10
186.9954289786156
 20
405.6623599171151
 30
0.0
  0
SPLINE
  5
12F
330
1F
100
AcDbEntity
  8
0
  6
Continuous
 62
     8
370
    18
100
AcDbSpline
210
0.0
220
0.0
230
1.0
 70
     8
 71
     3
 72
    55
 73
    51
 74
     0
 42
0.000000001
 43
0.00000001
 40
0.0
 40
0.0
 40
0.0
 40
0.0
 40
0.0156250000000003
 40
0.0156250000000003
 40
0.0312500000000007
 40
0.0312500000000007
 40
0.046875000000001
 40
0.046875000000001
 40
0.0625000000000013
 40
0.0625000000000013
 40
0.0781250000000016
 40
0.0781250000000016
 40
0.0859375000000016
 40
0.0859375000000016
 40
0.0937500000000016
 40
0.0937500000000016
 40
0.1093750000000016
 40
0.1093750000000016
 40
0.1171875000000016
 40
0.1171875000000016
 40
0.1250000000000016
 40
0.1250000000000016
 40
0.1406250000000016
 40
0.1406250000000016
 40
0.1562500000000016
 40
0.1562500000000016
 40
0.1875000000000017
 40
0.1875000000000017
 40
0.2500000000000017
 40
0.2500000000000017
 40
0.3125000000000017
 40
0.3125000000000017
 40
0.3750000000000018
 40
0.3750000000000018
 40
0.5000000000000014
 40
0.5000000000000014
 40
0.7500000000000008
 40
0.7500000000000008
 40
0.8750000000000003
 40
0.8750000000000003
 40
0.9375000000000002
 40
0.9375000000000002
 40
0.9687500000000001
 40
0.9687500000000001
 40
0.9843750000000001
 40
0.9843750000000001
 40
0.9921875
 40
0.99609375
 40
0.99609375
 40
1.0
 40
1.0
 40
1.0
 40
1.0
 10
152.58588086788
 20
405.0950722697582
 30
0.0
 10
152.01865401872
 20
405.0896564217066
 30
0.0
 10
151.453739391615
 20
405.0843745110861
 30
0.0
 10
150.3376516377882
 20
405.0747885389006
 30
0.0
 10
149.7854713260639
 20
405.0705055078657
 30
0.0
 10
148.7165101862454
 20
405.0637302364672
 30
0.0
 10
148.1974481724176
 20
405.061148535557
 30
0.0
 10
147.197850822642
 20
405.0576898228022
 30
0.0
 10
146.7140612399249
 20
405.0568375955564
 30
0.0
 10
145.8311843429046
 20
405.0570548174915
 30
0.0
 10
145.4269801005516
 20
405.0579621290184
 30
0.0
 10
144.8811039336584
 20
405.0605901978711
 30
0.0
 10
144.7086806744275
 20
405.0616762473418
 30
0.0
 10
144.3888574841831
 20
405.064551738806
 30
0.0
 10
144.2427619882857
 20
405.0663391918528
 30
0.0
 10
143.8410182784882
 20
405.0724575810215
 30
0.0
 10
143.6217874798843
 20
405.0774689851157
 30
0.0
 10
143.3545586879415
 20
405.0864360057141
 30
0.0
 10
143.2758821718388
 20
405.0897079898184
 30
0.0
 10
143.1376270879452
 20
405.0968909622118
 30
0.0
 10
143.0775454876193
 20
405.1007440957553
 30
0.0
 10
142.913863016377
 20
405.1125937438833
 30
0.0
 10
142.8251172089117
 20
405.1206401629316
 30
0.0
 10
142.6659056138262
 20
405.1370125194236
 30
0.0
 10
142.5954036379366
 20
405.1451108074274
 30
0.0
 10
142.3983399869687
 20
405.1686512479509
 30
0.0
 10
142.2841555522391
 20
405.1834214472927
 30
0.0
 10
141.969974936168
 20
405.2255729029225
 30
0.0
 10
141.7987391514664
 20
405.2501194038421
 30
0.0
 10
141.4947298717334
 20
405.2916732508073
 30
0.0
 10
141.3648818280438
 20
405.3087268902613
 30
0.0
 10
141.1363281566469
 20
405.3430887974326
 30
0.0
 10
141.0379226517764
 20
405.3596425106702
 30
0.0
 10
140.765126157972
 20
405.4067387231015
 30
0.0
 10
140.6062813395324
 20
405.4347570896279
 30
0.0
 10
140.1393123624682
 20
405.5108847857807
 30
0.0
 10
139.858682493154
 20
405.54910769451
 30
0.0
 10
139.4894520422655
 20
405.6024800609493
 30
0.0
 10
139.3750239174777
 20
405.6197106329571
 30
0.0
 10
139.2204904083108
 20
405.6399690208424
 30
0.0
 10
139.1719422664036
 20
405.6455819615894
 30
0.0
 10
139.1033473969849
 20
405.6523974973634
 30
0.0
 10
139.0811619150399
 20
405.6543827534741
 30
0.0
 10
139.0489604584939
 20
405.6580057431266
 30
0.0
 10
139.0384084144057
 20
405.6594031470592
 30
0.0
 10
139.0228619965112
 20
405.6610660391434
 30
0.0
 10
139.015159061229
 20
405.6617811030816
 30
0.0
 10
139.0075620137326
 20
405.662168013023
 30
0.0
 10
139.0025208207729
 20
405.6623359503758
 30
0.0
 10
139.0000412628442
 20
405.6623750905727
 30
0.0
 10
138.9975148601833
 20
405.6623603390809
 30
0.0
  0
SPLINE
  5
130
330
1F
100
AcDbEntity
  8
0
  6
Continuous
 62
     8
370
    18
100
AcDbSpline
210
0.0
220
0.0
230
1.0
 70
     8
 71
     3
 72
    46
 73
    42
 74
     0
 42
0.000000001
 43
0.00000001
 40
0.0
 40
0.0
 40
0.0
 40
0.0
 40
0.0312500000000001
 40
0.0312500000000001
 40
0.0625000000000001
 40
0.0625000000000001
 40
0.1250000000000002
 40
0.1250000000000002
 40
0.2500000000000004
 40
0.2500000000000004
 40
0.5000000000000008
 40
0.5000000000000008
 40
0.6250000000000008
 40
0.6250000000000008
 40
0.7500000000000009
 40
0.7500000000000009
 40
0.8125000000000009
 40
0.8125000000000009
 40
0.843750000000001
 40
0.843750000000001
 40
0.875000000000001
 40
0.875000000000001
 40
0.8906250000000011
 40
0.8906250000000011
 40
0.8984375000000011
 40
0.8984375000000011
 40
0.9062500000000011
 40
0.9062500000000011
 40
0.9218750000000011
 40
0.9218750000000011
 40
0.9375000000000012
 40
0.9375000000000012
 40
0.9453125000000011
 40
0.9453125000000011
 40
0.953125000000001
 40
0.953125000000001
 40
0.9687500000000007
 40
0.9687500000000007
 40
0.9843750000000004
 40
0.9843750000000004
 40
1.0
 40
1.0
 40
1.0
 40
1.0
 10
140.0070217990267
 20
406.8423243084649
 30
0.0
 10
140.0267172720028
 20
406.8440964114359
 30
0.0
 10
140.0468724761816
 20
406.8426179438795
 30
0.0
 10
140.0888707092722
 20
406.8413824812267
 30
0.0
 10
140.1106414719135
 20
406.8412452516861
 30
0.0
 10
140.1779380953477
 20
406.8400368501375
 30
0.0
 10
140.2255765559587
 20
406.8383131998602
 30
0.0
 10
140.377270838857
 20
406.8305838848885
 30
0.0
 10
140.4895884469464
 20
406.8220185346095
 30
0.0
 10
140.8526953883451
 20
406.7857229430676
 30
0.0
 10
141.1293248716465
 20
406.7472726093661
 30
0.0
 10
141.592051454469
 20
406.6711569055155
 30
0.0
 10
141.7502455429849
 20
406.6428533602857
 30
0.0
 10
142.105034657993
 20
406.5793870692764
 30
0.0
 10
142.306878047582
 20
406.5459825419304
 30
0.0
 10
142.7435255305317
 20
406.4853291374521
 30
0.0
 10
142.9117284541657
 20
406.4621903827091
 30
0.0
 10
143.2142958295799
 20
406.4222128905994
 30
0.0
 10
143.3251024705445
 20
406.4082219508221
 30
0.0
 10
143.5724708215228
 20
406.3789674637415
 30
0.0
 10
143.7058590238226
 20
406.3633025844039
 30
0.0
 10
143.9706477509322
 20
406.3393513641307
 30
0.0
 10
144.0691318558347
 20
406.3312738607771
 30
0.0
 10
144.26113075396
 20
406.3189436406719
 30
0.0
 10
144.3336761036966
 20
406.3148526567799
 30
0.0
 10
144.5014179361212
 20
406.3071554332954
 30
0.0
 10
144.5960999625983
 20
406.3035098877872
 30
0.0
 10
144.9157502638736
 20
406.2930180726405
 30
0.0
 10
145.1755376532304
 20
406.2865329553725
 30
0.0
 10
145.8171212103141
 20
406.2757050695091
 30
0.0
 10
146.1874848409539
 20
406.2716752899383
 30
0.0
 10
146.8038218710316
 20
406.2669774941929
 30
0.0
 10
147.0196762352305
 20
406.2656576972847
 30
0.0
 10
147.4718914159575
 20
406.2635506124569
 30
0.0
 10
147.7094452949131
 20
406.2628102312001
 30
0.0
 10
148.43540633171
 20
406.2616261577673
 30
0.0
 10
148.941543153412
 20
406.2621625462564
 30
0.0
 10
149.9873417032449
 20
406.2655516563835
 30
0.0
 10
150.5293929998194
 20
406.2685050977459
 30
0.0
 10
151.6276108490375
 20
406.2760989527907
 30
0.0
 10
152.1832343196774
 20
406.2807219814866
 30
0.0
 10
152.7429798137522
 20
406.2856054495344
 30
0.0
  0
SPLINE
  5
131
330
1F
100
AcDbEntity
  8
0
  6
Continuous
 62
     8
370
    18
100
AcDbSpline
210
0.0
220
0.0
230
1.0
 70
     8
 71
     3
 72
    14
 73
    10
 74
     0
 42
0.000000001
 43
0.00000001
 40
0.0
 40
0.0
 40
0.0
 40
0.0
 40
0.25
 40
0.25
 40
0.5
 40
0.5
 40
0.75
 40
0.75
 40
1.0
 40
1.0
 40
1.0
 40
1.0
 10
152.7429840864569
 20
406.2856054875626
 30
0.0
 10
152.7221131010883
 20
406.2691002679286
 30
0.0
 10
152.7005094029506
 20
406.229193626044
 30
0.0
 10
152.6601503575513
 20
406.0958422595655
 30
0.0
 10
152.6414977520893
 20
406.0022371162855
 30
0.0
 10
152.6115719650443
 20
405.7754599498564
 30
0.0
 10
152.6003699959575
 20
405.6428275583261
 30
0.0
 10
152.5869285566158
 20
405.3684790088257
 30
0.0
 10
152.5846452962121
 20
405.2273699986409
 30
0.0
 10
152.5858801832429
 20
405.0950722297386
 30
0.0
  0
LINE
  5
132
330
1F
100
AcDbEntity
  8
0
  6
Continuous
 62
     8
370
    18
100
AcDbLine
 10
173.8498778451
 20
389.9339367447
 30
0.0
 11
173.505500834
 21
389.9907846747
 31
0.0
  0
SPLINE
  5
133
330
1F
100
AcDbEntity
  8
0
  6
Continuous
 62
     8
370
    18
100
AcDbSpline
210
0.0
220
0.0
230
1.0
 70
     8
 71
     3
 72
    26
 73
    22
 74
     0
 42
0.000000001
 43
0.00000001
 40
0.0
 40
0.0
 40
0.0
 40
0.0
 40
0.0790201236689346
 40
0.1550536476275965
 40
0.2281185171405126
 40
0.2982299584969404
 40
0.3654007089516375
 40
0.4296412403976629
 40
0.4909599760946967
 40
0.5493634998661406
 40
0.604856757263962
 40
0.657443248281232
 40
0.707125211268366
 40
0.7539037977804248
 40
0.797779238150268
 40
0.8387509976475654
 40
0.8768179231497937
 40
0.9119783803241808
 40
0.9442303814100587
 40
0.9735717038209287
 40
1.0
 40
1.0
 40
1.0
 40
1.0
 10
162.9967595818816
 20
405.1248355371696
 30
0.0
 10
162.7213653151878
 20
405.1244411061325
 30
0.0
 10
162.1809854270784
 20
405.1236671517496
 30
0.0
 10
161.3860913584434
 20
405.1224939766219
 30
0.0
 10
160.6224678031267
 20
405.1213248067655
 30
0.0
 10
159.890027295672
 20
405.1201468065422
 30
0.0
 10
159.1886858094584
 20
405.1189494300504
 30
0.0
 10
158.5183628024873
 20
405.1177221684131
 30
0.0
 10
157.8789812123924
 20
405.1164551142984
 30
0.0
 10
157.2704674630373
 20
405.1151388182012
 30
0.0
 10
156.6927514680322
 20
405.113764321764
 30
0.0
 10
156.1457666315027
 20
405.1123231541765
 30
0.0
 10
155.6294498578185
 20
405.110807317878
 30
0.0
 10
155.1437415271317
 20
405.1092093529288
 30
0.0
 10
154.6885855850284
 20
405.1075221333426
 30
0.0
 10
154.2639292424998
 20
405.1057395878724
 30
0.0
 10
153.8697239864412
 20
405.1038543245019
 30
0.0
 10
153.5059222038199
 20
405.1018656412277
 30
0.0
 10
153.1724883463458
 20
405.0997531451061
 30
0.0
 10
152.8693623639167
 20
405.0975633316327
 30
0.0
 10
152.6774778821795
 20
405.0958516484303
 30
0.0
 10
152.5865470125817
 20
405.0950405101837
 30
0.0
  0
SPLINE
  5
134
330
1F
100
AcDbEntity
  8
0
  6
Continuous
 62
     8
370
    18
100
AcDbSpline
210
0.0
220
0.0
230
1.0
 70
     8
 71
     3
 72
    17
 73
    13
 74
     0
 42
0.000000001
 43
0.00000001
 40
0.0
 40
0.0
 40
0.0
 40
0.0
 40
0.1143153106747189
 40
0.2242103831629275
 40
0.3297077278864197
 40
0.430832779575612
 40
0.5276144057153798
 40
0.6200855251887252
 40
0.7852341211078376
 40
0.9382441848745401
 40
0.9694200939557169
 40
1.0
 40
1.0
 40
1.0
 40
1.0
 10
152.5865469990867
 20
405.0950413563661
 30
0.0
 10
152.5913949343661
 20
404.8462908774415
 30
0.0
 10
152.6009033494693
 20
404.3584083719183
 30
0.0
 10
152.6269705023942
 20
403.6412855720922
 30
0.0
 10
152.6615012489383
 20
402.9532837123078
 30
0.0
 10
152.705275059777
 20
402.2944149266646
 30
0.0
 10
152.7580691955527
 20
401.6646654806164
 30
0.0
 10
152.8372193619317
 20
400.8974834982884
 30
0.0
 10
152.9547486242921
 20
400.0114786006632
 30
0.0
 10
153.0886190470809
 20
399.2630096873434
 30
0.0
 10
153.1853466745579
 20
398.8059415847374
 30
0.0
 10
153.2149506748842
 20
398.6749133103501
 30
0.0
 10
153.2296098215034
 20
398.6100314476175
 30
0.0
  0
SPLINE
  5
135
330
1F
100
AcDbEntity
  8
0
  6
Continuous
 62
     8
370
    18
100
AcDbSpline
210
0.0
220
0.0
230
1.0
 70
     8
 71
     3
 72
    10
 73
     6
 74
     0
 42
0.000000001
 43
0.00000001
 40
0.0
 40
0.0
 40
0.0
 40
0.0
 40
0.5000000000000001
 40
0.5000000000000001
 40
1.0
 40
1.0
 40
1.0
 40
1.0
 10
173.4069746882286
 20
405.0950404863163
 30
0.0
 10
171.6867482954211
 20
405.1112236263126
 30
0.0
 10
169.9559314490789
 20
405.1164954182044
 30
0.0
 10
166.481832461773
 20
405.1227048593645
 30
0.0
 10
164.739171131701
 20
405.1239282645855
 30
0.0
 10
162.9967595818816
 20
405.1248352051042
 30
0.0
  0
SPLINE
  5
136
330
1F
100
AcDbEntity
  8
0
  6
Continuous
 62
     8
370
    18
100
AcDbSpline
210
0.0
220
0.0
230
1.0
 70
     8
 71
     3
 72
    12
 73
     8
 74
     0
 42
0.000000001
 43
0.00000001
 40
0.0509778985003703
 40
0.0509778985003703
 40
0.0509778985003703
 40
0.0509778985003703
 40
0.0624735023662522
 40
0.1327959389789071
 40
0.2499999999999986
 40
0.2968749999999987
 40
0.3715766864811501
 40
0.3715766864811501
 40
0.3715766864811501
 40
0.3715766864811501
 10
173.4076379868088
 20
405.0950515087169
 30
0.0
 10
173.4064758033298
 20
405.0169866062244
 30
0.0
 10
173.3971554533103
 20
404.4614843565481
 30
0.0
 10
173.3552745717454
 20
403.1124506236885
 30
0.0
 10
173.2367742066756
 20
401.5288879068602
 30
0.0
 10
173.0282684653953
 20
399.9194008370263
 30
0.0
 10
172.8790070952322
 20
399.1053957364126
 30
0.0
 10
172.7650152863877
 20
398.6097681653627
 30
0.0
  0
SPLINE
  5
137
330
1F
100
AcDbEntity
  8
0
  6
Continuous
 62
     8
370
    18
100
AcDbSpline
210
0.0
220
0.0
230
1.0
 70
     8
 71
     3
 72
    10
 73
     6
 74
     0
 42
0.000000001
 43
0.00000001
 40
0.0
 40
0.0
 40
0.0
 40
0.0
 40
0.5
 40
0.5
 40
1.0
 40
1.0
 40
1.0
 40
1.0
 10
162.9973885920881
 20
406.3109658707145
 30
0.0
 10
164.7144825638892
 20
406.3097279726253
 30
0.0
 10
166.4311889707317
 20
406.3084727596893
 30
0.0
 10
169.853199980478
 20
406.3037626653396
 30
0.0
 10
171.556923528009
 20
406.3003798570874
 30
0.0
 10
173.249876459574
 20
406.2856141206299
 30
0.0
  0
SPLINE
  5
138
330
1F
100
AcDbEntity
  8
0
  6
Continuous
 62
     8
370
    18
100
AcDbSpline
210
0.0
220
0.0
230
1.0
 70
    24
 71
     3
 72
     8
 73
     4
 74
     0
 42
0.000000001
 43
0.00000001
 40
0.8755265344656503
 40
0.8755265344656503
 40
0.8755265344656503
 40
0.8755265344656503
 40
0.8795961283660927
 40
0.8795961283660927
 40
0.8795961283660927
 40
0.8795961283660927
 10
162.9967595818213
 20
379.7755360973251
 30
0.0
 10
162.9967595818211
 20
379.6721481512229
 30
0.0
 10
162.996759581821
 20
379.5721508923333
 30
0.0
 10
162.9967595818208
 20
379.4755360992065
 30
0.0
  0
SPLINE
  5
139
330
1F
100
AcDbEntity
  8
0
  6
Continuous
 62
     8
370
    18
100
AcDbSpline
210
0.0
220
0.0
230
1.0
 70
     8
 71
     3
 72
    23
 73
    19
 74
     0
 42
0.000000001
 43
0.00000001
 40
0.0
 40
0.0
 40
0.0
 40
0.0
 40
0.0765239764182266
 40
0.1506534693801117
 40
0.2223957920224673
 40
0.2917899309432913
 40
0.3589004564693135
 40
0.4238186148028856
 40
0.4866825844373114
 40
0.5476736684354866
 40
0.6070101690981232
 40
0.6649420434269856
 40
0.7217463473905832
 40
0.7777233652676819
 40
0.8331930557685459
 40
0.8884924198513995
 40
0.943973249844063
 40
1.0
 40
1.0
 40
1.0
 40
1.0
 10
152.743645205064
 20
406.2856141424422
 30
0.0
 10
153.0028812000414
 20
406.2877359688956
 30
0.0
 10
153.5132415323129
 20
406.2919132285151
 30
0.0
 10
154.2686317386118
 20
406.2965004391692
 30
0.0
 10
155.0009948484436
 20
406.300056163288
 30
0.0
 10
155.7106180378024
 20
406.3026913093167
 30
0.0
 10
156.3979085153407
 20
406.304638083688
 30
0.0
 10
157.0636779141145
 20
406.3060501625747
 30
0.0
 10
157.7091767182901
 20
406.307065969638
 30
0.0
 10
158.3361249169305
 20
406.3077975489774
 30
0.0
 10
158.9466487465071
 20
406.3083366097609
 30
0.0
 10
159.54321967068
 20
406.3087560357476
 30
0.0
 10
160.1286021507313
 20
406.3091123504803
 30
0.0
 10
160.7058089252398
 20
406.3094465936222
 30
0.0
 10
161.2780642416714
 20
406.3097881761217
 30
0.0
 10
161.8487727617696
 20
406.310154499396
 30
0.0
 10
162.4214953002353
 20
406.3105514388247
 30
0.0
 10
162.8043799775173
 20
406.3108275780926
 30
0.0
 10
162.9967595818816
 20
406.3109663236895
 30
0.0
  0
SPLINE
  5
13A
330
1F
100
AcDbEntity
  8
0
  6
Continuous
 62
     8
370
    18
100
AcDbSpline
210
0.0
220
0.0
230
1.0
 70
     8
 71
     3
 72
    11
 73
     7
 74
     0
 42
0.000000001
 43
0.00000001
 40
0.0
 40
0.0
 40
0.0
 40
0.0
 40
0.0004426197136962
 40
0.0004426197136962
 40
0.0004426197136962
 40
0.0004426797136962
 40
0.0004426797136962
 40
0.0004426797136962
 40
0.0004426797136962
 10
185.9860490622684
 20
406.8424035111492
 30
0.0
 10
185.988882524172
 20
406.8421300985691
 30
0.0
 10
185.9903063030017
 20
406.8420246634552
 30
0.0
 10
185.990328659527
 20
406.8420765241389
 30
0.0
 10
185.9903286625575
 20
406.8420765311689
 30
0.0
 10
185.9903286655368
 20
406.8420765382059
 30
0.0
 10
185.9903286685415
 20
406.8420765452376
 30
0.0
  0
SPLINE
  5
13B
330
1F
100
AcDbEntity
  8
0
  6
Continuous
 62
     8
370
    18
100
AcDbSpline
210
0.0
220
0.0
230
1.0
 70
     8
 71
     3
 72
    10
 73
     6
 74
     0
 42
0.000000001
 43
0.00000001
 40
0.0
 40
0.0
 40
0.0
 40
0.0
 40
0.5
 40
0.5
 40
1.0
 40
1.0
 40
1.0
 40
1.0
 10
173.3530950931546
 20
442.7806300175092
 30
0.0
 10
171.6318096141982
 20
442.8146292547122
 30
0.0
 10
169.9064026177523
 20
442.8331037981983
 30
0.0
 10
166.4531552109341
 20
442.8553338690359
 30
0.0
 10
164.7248329702773
 20
442.8590811898316
 30
0.0
 10
162.9967595818815
 20
442.8585825508193
 30
0.0
  0
SPLINE
  5
13C
330
1F
100
AcDbEntity
  8
0
  6
Continuous
 62
     8
370
    18
100
AcDbSpline
210
0.0
220
0.0
230
1.0
 70
     8
 71
     3
 72
    10
 73
     6
 74
     0
 42
0.000000001
 43
0.00000001
 40
0.0
 40
0.0
 40
0.0
 40
0.0
 40
0.5
 40
0.5
 40
1.0
 40
1.0
 40
1.0
 40
1.0
 10
162.9967595818815
 20
444.451391083779
 30
0.0
 10
164.7208110102631
 20
444.4512010091407
 30
0.0
 10
166.4449079754201
 20
444.4480715290125
 30
0.0
 10
169.8902942558321
 20
444.4289498948057
 30
0.0
 10
171.610841881143
 20
444.4129221267161
 30
0.0
 10
173.3271586455988
 20
444.3820715518469
 30
0.0
  0
SPLINE
  5
13D
330
1F
100
AcDbEntity
  8
0
  6
Continuous
 62
     8
370
    18
100
AcDbSpline
210
0.0
220
0.0
230
1.0
 70
     8
 71
     3
 72
    10
 73
     6
 74
     0
 42
0.000000001
 43
0.00000001
 40
0.0
 40
0.0
 40
0.0
 40
0.0
 40
0.5
 40
0.5
 40
1.0
 40
1.0
 40
1.0
 40
1.0
 10
162.9967595818815
 20
444.451391083779
 30
0.0
 10
161.2727081534719
 20
444.4512011620321
 30
0.0
 10
159.5486111883428
 20
444.4480715290125
 30
0.0
 10
156.1032249079309
 20
444.4289498948057
 30
0.0
 10
154.3826772826199
 20
444.4129221267161
 30
0.0
 10
152.6663605181642
 20
444.3820715518468
 30
0.0
  0
SPLINE
  5
13E
330
1F
100
AcDbEntity
  8
0
  6
Continuous
 62
     8
370
    18
100
AcDbSpline
210
0.0
220
0.0
230
1.0
 70
     8
 71
     3
 72
    10
 73
     6
 74
     0
 42
0.000000001
 43
0.00000001
 40
0.0
 40
0.0
 40
0.0
 40
0.0
 40
0.5000000000000001
 40
0.5000000000000001
 40
1.0
 40
1.0
 40
1.0
 40
1.0
 10
152.6404240706084
 20
442.7806300175091
 30
0.0
 10
154.3617095403748
 20
442.8146288406282
 30
0.0
 10
156.0871165460106
 20
442.8331037981983
 30
0.0
 10
159.5403639528288
 20
442.855333869036
 30
0.0
 10
161.2686861936465
 20
442.8590808936739
 30
0.0
 10
162.9967595818815
 20
442.8585825508193
 30
0.0
  0
SPLINE
  5
13F
330
1F
100
AcDbEntity
  8
0
  6
Continuous
 62
     8
370
    18
100
AcDbSpline
210
0.0
220
0.0
230
1.0
 70
     8
 71
     3
 72
    28
 73
    24
 74
     0
 42
0.000000001
 43
0.00000001
 40
0.0
 40
0.0
 40
0.0
 40
0.0
 40
0.25
 40
0.25
 40
0.375
 40
0.375
 40
0.5
 40
0.5
 40
0.5625
 40
0.5625
 40
0.625
 40
0.625
 40
0.6875
 40
0.6875
 40
0.75
 40
0.75
 40
0.8125
 40
0.8125
 40
0.875
 40
0.875
 40
0.9375
 40
0.9375
 40
1.0
 40
1.0
 40
1.0
 40
1.0
 10
179.9077551352943
 20
443.6066119578344
 30
0.0
 10
179.7374250758551
 20
443.5735562392866
 30
0.0
 10
179.5647443200723
 20
443.5243828319725
 30
0.0
 10
179.2618654060136
 20
443.4311835342678
 30
0.0
 10
179.1562948369889
 20
443.3981147060386
 30
0.0
 10
178.906580958195
 20
443.3148856455198
 30
0.0
 10
178.7593047125908
 20
443.2648949012588
 30
0.0
 10
178.4611874562406
 20
443.1768154144575
 30
0.0
 10
178.3488473410366
 20
443.1447256016844
 30
0.0
 10
178.0850745890927
 20
443.0756837339142
 30
0.0
 10
177.9328354951238
 20
443.0386040830738
 30
0.0
 10
177.590887259701
 20
442.9670371867226
 30
0.0
 10
177.3989551259792
 20
442.9321529914963
 30
0.0
 10
176.975766522175
 20
442.8758117918142
 30
0.0
 10
176.7458474141418
 20
442.8530933191141
 30
0.0
 10
176.2698596941501
 20
442.8166674093915
 30
0.0
 10
176.021609214997
 20
442.802687948099
 30
0.0
 10
175.5058383719548
 20
442.7816640991045
 30
0.0
 10
175.2417900487264
 20
442.7751785959383
 30
0.0
 10
174.709914243727
 20
442.7686462549725
 30
0.0
 10
174.4411009303604
 20
442.7683586797802
 30
0.0
 10
173.8995964356887
 20
442.7717662790881
 30
0.0
 10
173.6254526688282
 20
442.7755014280239
 30
0.0
 10
173.3530964846913
 20
442.7806332637925
 30
0.0
  0
SPLINE
  5
140
330
1F
100
AcDbEntity
  8
0
  6
Continuous
 62
     8
370
    18
100
AcDbSpline
210
0.0
220
0.0
230
1.0
 70
     8
 71
     3
 72
    22
 73
    18
 74
     0
 42
0.000000001
 43
0.00000001
 40
0.0
 40
0.0
 40
0.0
 40
0.0
 40
0.2500000000000017
 40
0.2500000000000017
 40
0.3750000000000025
 40
0.3750000000000025
 40
0.5000000000000033
 40
0.5000000000000033
 40
0.6250000000000042
 40
0.6250000000000042
 40
0.750000000000005
 40
0.750000000000005
 40
0.8750000000000058
 40
0.8750000000000058
 40
0.9375000000000029
 40
0.9375000000000029
 40
1.0
 40
1.0
 40
1.0
 40
1.0
 10
173.3269627978134
 20
444.3820729246207
 30
0.0
 10
173.8558030486094
 20
444.3725835366253
 30
0.0
 10
174.3795921411659
 20
444.3646204239592
 30
0.0
 10
175.1436608800372
 20
444.3598268101741
 30
0.0
 10
175.3967873779256
 20
444.35949561617
 30
0.0
 10
175.8800553529856
 20
444.3617811941411
 30
0.0
 10
176.109962702118
 20
444.3642214284311
 30
0.0
 10
176.5426848467274
 20
444.3715876323741
 30
0.0
 10
176.7446326494078
 20
444.376541111843
 30
0.0
 10
177.0919423755337
 20
444.3897051605662
 30
0.0
 10
177.2412598304249
 20
444.397932669922
 30
0.0
 10
177.5013941483155
 20
444.4159555278269
 30
0.0
 10
177.6106012882951
 20
444.4256207119402
 30
0.0
 10
177.7553983811923
 20
444.440369046249
 30
0.0
 10
177.8004626730814
 20
444.4453257514228
 30
0.0
 10
177.8853133590668
 20
444.4552696077462
 30
0.0
 10
177.9238872334132
 20
444.4604601560305
 30
0.0
 10
177.9626486423434
 20
444.4652495499086
 30
0.0
  0
SPLINE
  5
141
330
1F
100
AcDbEntity
  8
0
  6
Continuous
 62
     8
370
    18
100
AcDbSpline
210
0.0
220
0.0
230
1.0
 70
     8
 71
     3
 72
    15
 73
    11
 74
     0
 42
0.000000001
 43
0.00000001
 40
0.0
 40
0.0
 40
0.0
 40
0.0
 40
0.4999999999999932
 40
0.4999999999999932
 40
0.7499999999999825
 40
0.7499999999999825
 40
0.8749999999999841
 40
0.9374999999999921
 40
0.9374999999999921
 40
1.0
 40
1.0
 40
1.0
 40
1.0
 10
177.9626486423434
 20
444.4652495499086
 30
0.0
 10
178.0910701789479
 20
444.4823353309289
 30
0.0
 10
178.1932605946975
 20
444.4993137362555
 30
0.0
 10
178.3359040888307
 20
444.5236547171759
 30
0.0
 10
178.3817588608586
 20
444.5315827570728
 30
0.0
 10
178.448374950367
 20
444.5432776124797
 30
0.0
 10
178.4811422159046
 20
444.5490714588685
 30
0.0
 10
178.5131743695677
 20
444.5547852778628
 30
0.0
 10
178.5343743050874
 20
444.5585772641501
 30
0.0
 10
178.5434210192846
 20
444.5606271106719
 30
0.0
 10
178.5553851629535
 20
444.5623392829752
 30
0.0
  0
SPLINE
  5
142
330
1F
100
AcDbEntity
  8
0
  6
Continuous
 62
     8
370
    18
100
AcDbSpline
210
0.0
220
0.0
230
1.0
 70
     8
 71
     3
 72
     8
 73
     4
 74
     0
 42
0.000000001
 43
0.00000001
 40
0.0
 40
0.0
 40
0.0
 40
0.0
 40
1.0
 40
1.0
 40
1.0
 40
1.0
 10
178.5553851629535
 20
444.5623392829752
 30
0.0
 10
178.7328742363642
 20
444.5943916287756
 30
0.0
 10
178.8897670282181
 20
444.6242844135105
 30
0.0
 10
179.0444944138719
 20
444.6514194779589
 30
0.0
  0
SPLINE
  5
143
330
1F
100
AcDbEntity
  8
0
  6
Continuous
 62
     8
370
    18
100
AcDbSpline
210
0.0
220
0.0
230
1.0
 70
     8
 71
     3
 72
    15
 73
    11
 74
     0
 42
0.000000001
 43
0.00000001
 40
0.0
 40
0.0
 40
0.0
 40
0.0
 40
0.0625000000000028
 40
0.0625000000000028
 40
0.1250000000000057
 40
0.2500000000000108
 40
0.2500000000000108
 40
0.5000000000000072
 40
0.5000000000000072
 40
1.0
 40
1.0
 40
1.0
 40
1.0
 10
147.4381340008094
 20
444.5623392829751
 30
0.0
 10
147.4254170122776
 20
444.5641985736848
 30
0.0
 10
147.4160251617875
 20
444.5663376799426
 30
0.0
 10
147.3941522076984
 20
444.5703093422553
 30
0.0
 10
147.361573715774
 20
444.5762401692265
 30
0.0
 10
147.3296435330621
 20
444.5820915147239
 30
0.0
 10
147.2665312304086
 20
444.5936877344049
 30
0.0
 10
147.2254500017321
 20
444.6012790750419
 30
0.0
 10
147.1043265655284
 20
444.6235896180708
 30
0.0
 10
147.0263539504735
 20
444.6378582028178
 30
0.0
 10
146.9489836218781
 20
444.6514266906621
 30
0.0
  0
SPLINE
  5
144
330
1F
100
AcDbEntity
  8
0
  6
Continuous
 62
     8
370
    18
100
AcDbSpline
210
0.0
220
0.0
230
1.0
 70
     8
 71
     3
 72
    19
 73
    15
 74
     0
 42
0.000000001
 43
0.00000001
 40
0.0
 40
0.0
 40
0.0
 40
0.0
 40
0.1249999999999964
 40
0.1249999999999964
 40
0.2499999999999929
 40
0.2499999999999929
 40
0.4999999999999852
 40
0.4999999999999852
 40
0.7499999999999776
 40
0.7499999999999776
 40
0.8749999999999809
 40
0.9374999999999905
 40
0.9374999999999905
 40
1.0
 40
1.0
 40
1.0
 40
1.0
 10
148.0308705214196
 20
444.4652495499085
 30
0.0
 10
147.9974207613939
 20
444.4692619120273
 30
0.0
 10
147.9682948142319
 20
444.4737873742892
 30
0.0
 10
147.9100677216141
 20
444.4822824690916
 30
0.0
 10
147.8822955835402
 20
444.4865130913729
 30
0.0
 10
147.8020695293273
 20
444.4991265372408
 30
0.0
 10
147.7527107376877
 20
444.5074273965623
 30
0.0
 10
147.6576150749323
 20
444.5236547171759
 30
0.0
 10
147.6117603029044
 20
444.5315827570727
 30
0.0
 10
147.545144213396
 20
444.5432776124796
 30
0.0
 10
147.5123769478583
 20
444.5490714588684
 30
0.0
 10
147.4803447941952
 20
444.5547852778627
 30
0.0
 10
147.4591448586756
 20
444.55857726415
 30
0.0
 10
147.4501181561309
 20
444.5606291541126
 30
0.0
 10
147.4381340008094
 20
444.5623392829751
 30
0.0
  0
SPLINE
  5
145
330
1F
100
AcDbEntity
  8
0
  6
Continuous
 62
     8
370
    18
100
AcDbSpline
210
0.0
220
0.0
230
1.0
 70
     8
 71
     3
 72
    22
 73
    18
 74
     0
 42
0.000000001
 43
0.00000001
 40
0.0
 40
0.0
 40
0.0
 40
0.0
 40
0.2500000000000023
 40
0.2500000000000023
 40
0.375000000000003
 40
0.375000000000003
 40
0.5000000000000038
 40
0.5000000000000038
 40
0.6250000000000046
 40
0.6250000000000046
 40
0.7500000000000052
 40
0.7500000000000052
 40
0.875000000000006
 40
0.875000000000006
 40
0.937500000000003
 40
0.937500000000003
 40
1.0
 40
1.0
 40
1.0
 40
1.0
 10
152.6665563659496
 20
444.3820729246206
 30
0.0
 10
152.1377161151536
 20
444.3725835366253
 30
0.0
 10
151.6139270225969
 20
444.364620423959
 30
0.0
 10
150.8498582837257
 20
444.359826810174
 30
0.0
 10
150.5967317858373
 20
444.3594956161699
 30
0.0
 10
150.1134638107775
 20
444.3617811941411
 30
0.0
 10
149.883556461645
 20
444.364221428431
 30
0.0
 10
149.450834317036
 20
444.3715876323741
 30
0.0
 10
149.2488865143553
 20
444.3765411118429
 30
0.0
 10
148.9015767882295
 20
444.3897051605661
 30
0.0
 10
148.7522593333384
 20
444.3979326699219
 30
0.0
 10
148.4921250154479
 20
444.4159555278268
 30
0.0
 10
148.3829178754683
 20
444.42562071194
 30
0.0
 10
148.2381207825711
 20
444.4403690462487
 30
0.0
 10
148.1930564906821
 20
444.4453257514226
 30
0.0
 10
148.1082058046967
 20
444.4552696077461
 30
0.0
 10
148.0696508453112
 20
444.4604639534865
 30
0.0
 10
148.0308705214196
 20
444.4652495499085
 30
0.0
  0
SPLINE
  5
146
330
1F
100
AcDbEntity
  8
0
  6
Continuous
 62
     8
370
    18
100
AcDbSpline
210
0.0
220
0.0
230
1.0
 70
     8
 71
     3
 72
    28
 73
    24
 74
     0
 42
0.000000001
 43
0.00000001
 40
0.0
 40
0.0
 40
0.0
 40
0.0
 40
0.2500000000000023
 40
0.2500000000000023
 40
0.3750000000000019
 40
0.3750000000000019
 40
0.5000000000000016
 40
0.5000000000000016
 40
0.5625000000000013
 40
0.5625000000000013
 40
0.6250000000000011
 40
0.6250000000000011
 40
0.687500000000001
 40
0.687500000000001
 40
0.7500000000000008
 40
0.7500000000000008
 40
0.8125000000000006
 40
0.8125000000000006
 40
0.8750000000000003
 40
0.8750000000000003
 40
0.9375000000000002
 40
0.9375000000000002
 40
1.0
 40
1.0
 40
1.0
 40
1.0
 10
146.0857640284686
 20
443.6066119578343
 30
0.0
 10
146.2560940876604
 20
443.5735565434833
 30
0.0
 10
146.4287748436906
 20
443.5243828319727
 30
0.0
 10
146.7316537577493
 20
443.4311835342676
 30
0.0
 10
146.837224326774
 20
443.3981147060385
 30
0.0
 10
147.086938205568
 20
443.3148856455198
 30
0.0
 10
147.2342144511722
 20
443.2648949012585
 30
0.0
 10
147.5323317075224
 20
443.1768154144572
 30
0.0
 10
147.6446718227264
 20
443.1447256016844
 30
0.0
 10
147.9084445746703
 20
443.0756837339142
 30
0.0
 10
148.0606836686392
 20
443.0386040830737
 30
0.0
 10
148.402631904062
 20
442.9670371867225
 30
0.0
 10
148.5945640377839
 20
442.9321529914961
 30
0.0
 10
149.0177526415881
 20
442.875811791814
 30
0.0
 10
149.2476717496212
 20
442.8530933191141
 30
0.0
 10
149.7236594696131
 20
442.8166674093914
 30
0.0
 10
149.9719099487661
 20
442.8026879480989
 30
0.0
 10
150.4876807918085
 20
442.7816640991044
 30
0.0
 10
150.7517291150368
 20
442.7751785959384
 30
0.0
 10
151.2836049200363
 20
442.7686462549725
 30
0.0
 10
151.552418233403
 20
442.7683586797803
 30
0.0
 10
152.0939227280747
 20
442.771766279088
 30
0.0
 10
152.3680665186872
 20
442.7755016093267
 30
0.0
 10
152.6404226790717
 20
442.7806332637924
 30
0.0
  0
SPLINE
  5
147
330
1F
100
AcDbEntity
  8
0
  6
Continuous
 62
     8
370
    18
100
AcDbSpline
210
0.0
220
0.0
230
1.0
 70
     8
 71
     3
 72
    21
 73
    17
 74
     0
 42
0.000000001
 43
0.00000001
 40
0.0
 40
0.0
 40
0.0
 40
0.0
 40
0.0772710710798756
 40
0.1543479929447651
 40
0.2311728798615522
 40
0.3076931838296211
 40
0.3831339728506177
 40
0.4325247309252607
 40
0.481493088247784
 40
0.5635450087100667
 40
0.6444275994199729
 40
0.7396268682713694
 40
0.8379585575834334
 40
0.8910904438746642
 40
0.9452637310121907
 40
1.0
 40
1.0
 40
1.0
 40
1.0
 10
179.5573746236517
 20
441.6193359767739
 30
0.0
 10
179.5062046661378
 20
441.6143888685407
 30
0.0
 10
179.4039933193691
 20
441.6045070820455
 30
0.0
 10
179.2363174861498
 20
441.5892019467899
 30
0.0
 10
179.054112912725
 20
441.574461025425
 30
0.0
 10
178.856539010329
 20
441.5571279134068
 30
0.0
 10
178.6638572683009
 20
441.5431618089129
 30
0.0
 10
178.4613325403276
 20
441.5283612357292
 30
0.0
 10
178.2094423975491
 20
441.5114658049481
 30
0.0
 10
177.8322265525781
 20
441.4909621595816
 30
0.0
 10
177.1893209083781
 20
441.4673652440054
 30
0.0
 10
176.2879214003622
 20
441.4441791140781
 30
0.0
 10
175.3675150836721
 20
441.4335667066877
 30
0.0
 10
174.5677995846463
 20
441.4265986614651
 30
0.0
 10
173.9287794738266
 20
441.4244715130179
 30
0.0
 10
173.4967898724666
 20
441.4230525389914
 30
0.0
 10
173.2796785384274
 20
441.4223393844552
 30
0.0
  0
SPLINE
  5
148
330
1F
100
AcDbEntity
  8
0
  6
Continuous
 62
     8
370
    18
100
AcDbSpline
210
0.0
220
0.0
230
1.0
 70
     8
 71
     3
 72
    12
 73
     8
 74
     0
 42
0.000000001
 43
0.00000001
 40
0.0
 40
0.0
 40
0.0
 40
0.0
 40
0.1701901918414551
 40
0.3403803836829101
 40
0.5105705755243654
 40
0.6807607673658206
 40
1.0
 40
1.0
 40
1.0
 40
1.0
 10
152.7138783778535
 20
441.4224058176807
 30
0.0
 10
151.9937753740529
 20
441.4244323753153
 30
0.0
 10
150.5141269857759
 20
441.4290665516904
 30
0.0
 10
148.5980797578394
 20
441.4676217456017
 30
0.0
 10
147.6152337044582
 20
441.5198586876531
 30
0.0
 10
146.9911720885177
 20
441.569630478459
 30
0.0
 10
146.644520670307
 20
441.5976890463496
 30
0.0
 10
146.4363256538309
 20
441.6196546831605
 30
0.0
  0
SPLINE
  5
149
330
1F
100
AcDbEntity
  8
0
  6
Continuous
 62
     8
370
    18
100
AcDbSpline
210
0.0
220
0.0
230
1.0
 70
     8
 71
     3
 72
     8
 73
     4
 74
     0
 42
0.000000001
 43
0.00000001
 40
0.0
 40
0.0
 40
0.0
 40
0.0
 40
1.0
 40
1.0
 40
1.0
 40
1.0
 10
162.9967595818815
 20
441.4141604590638
 30
0.0
 10
166.4284364381552
 20
441.4107687520419
 30
0.0
 10
169.8560496562935
 20
441.4137135560592
 30
0.0
 10
173.2796407859094
 20
441.4224058176808
 30
0.0
  0
SPLINE
  5
14A
330
1F
100
AcDbEntity
  8
0
  6
Continuous
 62
     8
370
    18
100
AcDbSpline
210
0.0
220
0.0
230
1.0
 70
     8
 71
     3
 72
    15
 73
    11
 74
     0
 42
0.000000001
 43
0.00000001
 40
0.0
 40
0.0
 40
0.0
 40
0.0
 40
0.1258247754890769
 40
0.2514583360749963
 40
0.3769022876891411
 40
0.5021362010453188
 40
0.6270973337273059
 40
0.7517426223915296
 40
0.8760258361310502
 40
1.0
 40
1.0
 40
1.0
 40
1.0
 10
162.9967284311362
 20
441.4141056429986
 30
0.0
 10
162.5651173547766
 20
441.413776870268
 30
0.0
 10
161.7025511179517
 20
441.41311982444
 30
0.0
 10
160.409759148367
 20
441.4125618732668
 30
0.0
 10
159.1191810953641
 20
441.4128788848387
 30
0.0
 10
157.8311869800492
 20
441.4135444333903
 30
0.0
 10
156.5463097115537
 20
441.4150970725738
 30
0.0
 10
155.2651667770743
 20
441.4168364348681
 30
0.0
 10
153.9879368038537
 20
441.4197076125492
 30
0.0
 10
153.1381867406546
 20
441.4214628555042
 30
0.0
 10
152.7138406261604
 20
441.422339384451
 30
0.0
  0
SPLINE
  5
14B
330
1F
100
AcDbEntity
  8
0
  6
Continuous
 62
     8
370
    18
100
AcDbSpline
210
0.0
220
0.0
230
1.0
 70
     8
 71
     3
 72
    12
 73
     8
 74
     0
 42
0.000000001
 43
0.00000001
 40
0.0
 40
0.0
 40
0.0
 40
0.0
 40
0.25
 40
0.25
 40
0.5
 40
0.5
 40
1.0
 40
1.0
 40
1.0
 40
1.0
 10
179.0444944138409
 20
444.651419477963
 30
0.0
 10
179.5429927644814
 20
444.7393290206952
 30
0.0
 10
180.0018855649051
 20
444.8020816629204
 30
0.0
 10
180.8526447782425
 20
444.898126855347
 30
0.0
 10
181.2437459620155
 20
444.9309116320125
 30
0.0
 10
182.318279436234
 20
445.0065905151118
 30
0.0
 10
182.9048445138432
 20
445.0260873343648
 30
0.0
 10
183.3641792056502
 20
445.0220395514752
 30
0.0
  0
SPLINE
  5
14C
330
1F
100
AcDbEntity
  8
0
  6
Continuous
 62
     8
370
    18
100
AcDbSpline
210
0.0
220
0.0
230
1.0
 70
     8
 71
     3
 72
    12
 73
     8
 74
     0
 42
0.000000001
 43
0.00000001
 40
0.0
 40
0.0
 40
0.0
 40
0.0
 40
0.25
 40
0.25
 40
0.5
 40
0.5
 40
1.0
 40
1.0
 40
1.0
 40
1.0
 10
146.9489837521286
 20
444.6514267078254
 30
0.0
 10
146.450490990933
 20
444.7393341565892
 30
0.0
 10
145.9916030255228
 20
444.8020856024672
 30
0.0
 10
145.1408524823503
 20
444.8981288400267
 30
0.0
 10
144.7497551174576
 20
444.930913057317
 30
0.0
 10
143.6752317098622
 20
445.0065907765093
 30
0.0
 10
143.08867150184
 20
445.0260873066227
 30
0.0
 10
142.6293399581128
 20
445.0220395514751
 30
0.0
  0
SPLINE
  5
14D
330
1F
100
AcDbEntity
  8
0
  6
Continuous
 62
     8
370
    18
100
AcDbSpline
210
0.0
220
0.0
230
1.0
 70
     8
 71
     3
 72
    12
 73
     8
 74
     0
 42
0.000000001
 43
0.00000001
 40
0.0
 40
0.0
 40
0.0
 40
0.0
 40
0.2500000000000001
 40
0.2500000000000001
 40
0.5000000000000002
 40
0.5000000000000002
 40
1.0
 40
1.0
 40
1.0
 40
1.0
 10
179.5571935099235
 20
441.619654683138
 30
0.0
 10
180.0703189163987
 20
441.6689829484672
 30
0.0
 10
180.5423497835741
 20
441.7033599537095
 30
0.0
 10
181.4112648756004
 20
441.7547955570127
 30
0.0
 10
181.8078618161365
 20
441.7715019486859
 30
0.0
 10
182.8889125876308
 20
441.8011873742265
 30
0.0
 10
183.4627454964609
 20
441.794110964084
 30
0.0
 10
183.9303678780392
 20
441.7640921669274
 30
0.0
  0
SPLINE
  5
14E
330
1F
100
AcDbEntity
  8
0
  6
Continuous
 62
     8
370
    18
100
AcDbSpline
210
0.0
220
0.0
230
1.0
 70
     8
 71
     3
 72
    12
 73
     8
 74
     0
 42
0.000000001
 43
0.00000001
 40
0.0
 40
0.0
 40
0.0
 40
0.0
 40
0.5000000000000002
 40
0.5000000000000002
 40
0.7500000000000001
 40
0.7500000000000001
 40
1.0
 40
1.0
 40
1.0
 40
1.0
 10
184.1897380713392
 20
444.0116277061267
 30
0.0
 10
183.7298264268954
 20
444.0090992298797
 30
0.0
 10
183.1430110867325
 20
443.9884192655402
 30
0.0
 10
182.0743922953251
 20
443.907777904848
 30
0.0
 10
181.6862963064592
 20
443.8727372672223
 30
0.0
 10
180.8455781218684
 20
443.7696416446369
 30
0.0
 10
180.3930089227719
 20
443.7022927388347
 30
0.0
 10
179.90775479288
 20
443.6066051802504
 30
0.0
  0
SPLINE
  5
14F
330
1F
100
AcDbEntity
  8
0
  6
Continuous
 62
     8
370
    18
100
AcDbSpline
210
0.0
220
0.0
230
1.0
 70
     8
 71
     3
 72
    16
 73
    12
 74
     0
 42
0.000000001
 43
0.00000001
 40
0.0
 40
0.0
 40
0.0
 40
0.0
 40
0.1155326613160897
 40
0.2302792001652188
 40
0.3440365940522514
 40
0.4566017448861411
 40
0.567829468496534
 40
0.677667712856567
 40
0.7861743578027325
 40
0.8935185439939074
 40
1.0
 40
1.0
 40
1.0
 40
1.0
 10
183.9303425887196
 20
441.7641297236501
 30
0.0
 10
183.9516721006562
 20
441.8488301852066
 30
0.0
 10
183.9941859914704
 20
442.0176547783449
 30
0.0
 10
184.0437870102163
 20
442.2730575510619
 30
0.0
 10
184.0838042857653
 20
442.5277830317402
 30
0.0
 10
184.1151528693384
 20
442.7810443264365
 30
0.0
 10
184.139622229918
 20
443.032066861929
 30
0.0
 10
184.1584164773669
 20
443.2804970208179
 30
0.0
 10
184.1725104305699
 20
443.5262904167381
 30
0.0
 10
184.1829596275169
 20
443.7697262586876
 30
0.0
 10
184.1874877790249
 20
443.9312945991438
 30
0.0
 10
184.1897427198292
 20
444.0117528265083
 30
0.0
  0
SPLINE
  5
150
330
1F
100
AcDbEntity
  8
0
  6
Continuous
 62
     8
370
    18
100
AcDbSpline
210
0.0
220
0.0
230
1.0
 70
     8
 71
     3
 72
    12
 73
     8
 74
     0
 42
0.000000001
 43
0.00000001
 40
0.0
 40
0.0
 40
0.0
 40
0.0
 40
0.5000000000000002
 40
0.5000000000000002
 40
0.7500000000000001
 40
0.7500000000000001
 40
1.0
 40
1.0
 40
1.0
 40
1.0
 10
141.8037810924237
 20
444.0116277061265
 30
0.0
 10
142.2636927368675
 20
444.0090992298799
 30
0.0
 10
142.8505080770304
 20
443.988419265539
 30
0.0
 10
143.9191268684378
 20
443.9077779048483
 30
0.0
 10
144.3072228573037
 20
443.872737267222
 30
0.0
 10
145.1479410418945
 20
443.7696416446369
 30
0.0
 10
145.6005100698436
 20
443.7022925117207
 30
0.0
 10
146.085764370883
 20
443.6066051802503
 30
0.0
  0
SPLINE
  5
151
330
1F
100
AcDbEntity
  8
0
  6
Continuous
 62
     8
370
    18
100
AcDbSpline
210
0.0
220
0.0
230
1.0
 70
     8
 71
     3
 72
    12
 73
     8
 74
     0
 42
0.000000001
 43
0.00000001
 40
0.0
 40
0.0
 40
0.0
 40
0.0
 40
0.2499999999999999
 40
0.2499999999999999
 40
0.4999999999999998
 40
0.4999999999999998
 40
1.0
 40
1.0
 40
1.0
 40
1.0
 10
146.4363256538394
 20
441.6196546831379
 30
0.0
 10
145.9232002473642
 20
441.6689829484671
 30
0.0
 10
145.4511693801889
 20
441.7033599537094
 30
0.0
 10
144.5822542881626
 20
441.7547955570125
 30
0.0
 10
144.1856573476265
 20
441.7715019486857
 30
0.0
 10
143.1046065761322
 20
441.8011873742263
 30
0.0
 10
142.5307736673021
 20
441.794110964084
 30
0.0
 10
142.0631512857238
 20
441.7640921669272
 30
0.0
  0
SPLINE
  5
152
330
1F
100
AcDbEntity
  8
0
  6
Continuous
 62
     8
370
    18
100
AcDbSpline
210
0.0
220
0.0
230
1.0
 70
     8
 71
     3
 72
     8
 73
     4
 74
     0
 42
0.000000001
 43
0.00000001
 40
0.0
 40
0.0
 40
0.0
 40
0.0
 40
1.0
 40
1.0
 40
1.0
 40
1.0
 10
141.8037779108594
 20
444.011752900334
 30
0.0
 10
141.8258793620583
 20
443.1419731843137
 30
0.0
 10
141.8924445241402
 20
442.3988650571446
 30
0.0
 10
142.0631499422683
 20
441.7640920806846
 30
0.0
  0
SPLINE
  5
153
330
1F
100
AcDbEntity
  8
0
  6
Continuous
 62
     8
370
    18
100
AcDbSpline
210
0.0
220
0.0
230
1.0
 70
     8
 71
     3
 72
    10
 73
     6
 74
     0
 42
0.000000001
 43
0.00000001
 40
0.0
 40
0.0
 40
0.0
 40
0.0
 40
0.5
 40
0.5
 40
1.0
 40
1.0
 40
1.0
 40
1.0
 10
183.3641762022307
 20
445.0220400768194
 30
0.0
 10
183.5971987481638
 20
444.9812832361183
 30
0.0
 10
183.8142038573077
 20
444.8542292194924
 30
0.0
 10
184.1140618384814
 20
444.4873197276334
 30
0.0
 10
184.195664143065
 20
444.2489946423012
 30
0.0
 10
184.1897420524784
 20
444.0118780325133
 30
0.0
  0
SPLINE
  5
154
330
1F
100
AcDbEntity
  8
0
  6
Continuous
 62
     8
370
    18
100
AcDbSpline
210
0.0
220
0.0
230
1.0
 70
     8
 71
     3
 72
    10
 73
     6
 74
     0
 42
0.000000001
 43
0.00000001
 40
0.0
 40
0.0
 40
0.0
 40
0.0
 40
0.5
 40
0.5
 40
1.0
 40
1.0
 40
1.0
 40
1.0
 10
141.8037810924237
 20
444.0116277061265
 30
0.0
 10
141.7977874713245
 20
444.2487845220704
 30
0.0
 10
141.8793575155364
 20
444.4871716683092
 30
0.0
 10
142.1792248902244
 20
444.8541831074818
 30
0.0
 10
142.3962706066869
 20
444.9812755343337
 30
0.0
 10
142.6293399581128
 20
445.022039551475
 30
0.0
  0
SPLINE
  5
155
330
1F
100
AcDbEntity
  8
0
  6
Continuous
 62
     8
370
    18
100
AcDbSpline
210
0.0
220
0.0
230
1.0
 70
     8
 71
     3
 72
    27
 73
    23
 74
     0
 42
0.000000001
 43
0.00000001
 40
0.0
 40
0.0
 40
0.0
 40
0.0
 40
0.3172173042994666
 40
0.405573649540572
 40
0.4375065871911056
 40
0.4693264163354208
 40
0.4851759214560229
 40
0.5010272934898897
 40
0.5797956652353842
 40
0.6264880369262975
 40
0.6496146483823207
 40
0.6841460367996417
 40
0.7178524521814145
 40
0.7632811457552298
 40
0.8072250070809602
 40
0.8495416473486949
 40
0.8899380650707676
 40
0.9288701678145261
 40
0.9461296438514342
 40
0.9636279705381685
 40
0.9815390284665961
 40
1.0
 40
1.0
 40
1.0
 40
1.0
 10
162.9970167810789
 20
438.0716485009626
 30
0.0
 10
165.3516197685569
 20
438.0734686380437
 30
0.0
 10
168.3620637572905
 20
438.0757957482882
 30
0.0
 10
171.6089927319351
 20
438.1340453586076
 30
0.0
 10
172.7376289943641
 20
438.1637570201161
 30
0.0
 10
173.3281848503705
 20
438.1823332439766
 30
0.0
 10
173.7993605137957
 20
438.1993031333354
 30
0.0
 10
174.6186768439231
 20
438.2315680310653
 30
0.0
 10
175.6663502319057
 20
438.284174676708
 30
0.0
 10
176.7663967983228
 20
438.3643296047641
 30
0.0
 10
177.5378152370455
 20
438.4339224157729
 30
0.0
 10
178.2121644342169
 20
438.5062285119395
 30
0.0
 10
179.0485244191783
 20
438.6178950566682
 30
0.0
 10
179.9490504967516
 20
438.774159801351
 30
0.0
 10
180.900063549928
 20
439.0044348567559
 30
0.0
 10
181.7891258894063
 20
439.3168396089112
 30
0.0
 10
182.5904323942485
 20
439.7442257694984
 30
0.0
 10
183.1342811072959
 20
440.2254844091769
 30
0.0
 10
183.4618765421963
 20
440.6651332927465
 30
0.0
 10
183.6559000559873
 20
441.0054360287399
 30
0.0
 10
183.8159425587642
 20
441.373029690317
 30
0.0
 10
183.8920019066948
 20
441.6322842926206
 30
0.0
 10
183.9306065564152
 20
441.7638714463716
 30
0.0
  0
SPLINE
  5
156
330
1F
100
AcDbEntity
  8
0
  6
Continuous
 62
     8
370
    18
100
AcDbSpline
210
0.0
220
0.0
230
1.0
 70
     8
 71
     3
 72
    34
 73
    30
 74
     0
 42
0.000000001
 43
0.00000001
 40
0.0
 40
0.0
 40
0.0
 40
0.0
 40
0.0102400522878129
 40
0.0206142259609821
 40
0.0311450922000209
 40
0.0418733180454194
 40
0.0528611835943677
 40
0.0641957377485308
 40
0.0759910925494028
 40
0.0883893826299897
 40
0.1015601494380131
 40
0.1156982795242005
 40
0.1310209939246323
 40
0.1477645858209051
 40
0.1661815684909036
 40
0.1865386314776262
 40
0.2091155400853016
 40
0.2342049004629636
 40
0.2621125856810461
 40
0.2931586531473548
 40
0.3276785496708535
 40
0.3660245016997852
 40
0.4085669899918615
 40
0.4556962633485612
 40
0.5534180701349073
 40
0.6584062067920319
 40
0.7690326931738003
 40
0.8835204269165009
 40
1.0
 40
1.0
 40
1.0
 40
1.0
 10
142.0631512857238
 20
441.7640921669272
 30
0.0
 10
142.0838585852605
 20
441.6909272589223
 30
0.0
 10
142.1255444028418
 20
441.5436391490929
 30
0.0
 10
142.2026101460128
 20
441.3254609430943
 30
0.0
 10
142.2930200689437
 20
441.1085701932349
 30
0.0
 10
142.3997474943722
 20
440.8940454260731
 30
0.0
 10
142.5247925802823
 20
440.6826550990158
 30
0.0
 10
142.6707064190348
 20
440.4752653220235
 30
0.0
 10
142.8401735422255
 20
440.2727250531088
 30
0.0
 10
143.0361286127227
 20
440.0758844783609
 30
0.0
 10
143.2617313349088
 20
439.8855650266344
 30
0.0
 10
143.5203946771945
 20
439.7025374396335
 30
0.0
 10
143.8158117590779
 20
439.5275012632846
 30
0.0
 10
144.1519919599018
 20
439.3610773152376
 30
0.0
 10
144.5332922274625
 20
439.2038077470553
 30
0.0
 10
144.9644427401408
 20
439.0561606180581
 30
0.0
 10
145.4505668235617
 20
438.9185342672823
 30
0.0
 10
145.9971975670247
 20
438.7912590281824
 30
0.0
 10
146.6102933164824
 20
438.6745937805022
 30
0.0
 10
147.2962544963461
 20
438.5687226834466
 30
0.0
 10
148.0619413134977
 20
438.4737465799976
 30
0.0
 10
148.9146934550943
 20
438.3896808319569
 30
0.0
 10
149.8623499746107
 20
438.3164270976787
 30
0.0
 10
151.2511893009667
 20
438.2337342285498
 30
0.0
 10
153.1048392296895
 20
438.1624295209236
 30
0.0
 10
155.4306091089056
 20
438.1121619134639
 30
0.0
 10
157.8812253241725
 20
438.0852301363531
 30
0.0
 10
160.4172553011031
 20
438.0732709401432
 30
0.0
 10
162.1319955711348
 20
438.0723505246582
 30
0.0
 10
162.9967595818815
 20
438.0718863481295
 30
0.0
  0
SPLINE
  5
157
330
1F
100
AcDbEntity
  8
0
  6
Continuous
 62
     8
370
    18
100
AcDbSpline
210
0.0
220
0.0
230
1.0
 70
     8
 71
     3
 72
    30
 73
    26
 74
     0
 42
0.000000001
 43
0.00000001
 40
0.0
 40
0.0
 40
0.0
 40
0.0
 40
0.0498290267634753
 40
0.0996692268938951
 40
0.1495119867844464
 40
0.2002804450207589
 40
0.22484806469798
 40
0.2739723175305538
 40
0.3236265180086285
 40
0.348720032555306
 40
0.4493683391349891
 40
0.4998289930592667
 40
0.5124415924009191
 40
0.5502738267889654
 40
0.5628827542641577
 40
0.5691868181661499
 40
0.6007040022508315
 40
0.6382804235765581
 40
0.6508042960613306
 40
0.7266344539184203
 40
0.7523759435120152
 40
0.7781177436614183
 40
0.8533134522791271
 40
0.9267622669307971
 40
0.9999999999999999
 40
0.9999999999999999
 40
0.9999999999999999
 40
0.9999999999999999
 10
185.6512060500855
 20
441.1765871049469
 30
0.0
 10
185.6463595173524
 20
441.1947035216994
 30
0.0
 10
185.6366653651281
 20
441.2309404175229
 30
0.0
 10
185.6108567502186
 20
441.2813003571792
 30
0.0
 10
185.5774439344809
 20
441.3288972120185
 30
0.0
 10
185.5429120590889
 20
441.3659957075059
 30
0.0
 10
185.5038308757282
 20
441.4009319387179
 30
0.0
 10
185.46041879867
 20
441.4337526812631
 30
0.0
 10
185.410517233843
 20
441.4646130601814
 30
0.0
 10
185.3333607465501
 20
441.5063107043414
 30
0.0
 10
185.2455204346158
 20
441.5442277225879
 30
0.0
 10
185.1526835247579
 20
441.5756480277603
 30
0.0
 10
185.0926836731579
 20
441.5942321256247
 30
0.0
 10
185.0538072632021
 20
441.6053991924388
 30
0.0
 10
185.0175995397759
 20
441.6150005683169
 30
0.0
 10
184.9850185085247
 20
441.6233904827735
 30
0.0
 10
184.9351106650913
 20
441.6355310946054
 30
0.0
 10
184.8787885291109
 20
441.6480134817323
 30
0.0
 10
184.7893248771556
 20
441.6663766101806
 30
0.0
 10
184.7042421032494
 20
441.6816386252832
 30
0.0
 10
184.6039925435995
 20
441.6970963749117
 30
0.0
 10
184.5012851722718
 20
441.7119484357684
 30
0.0
 10
184.3516251655492
 20
441.7298532513586
 30
0.0
 10
184.1486034068935
 20
441.749894516889
 30
0.0
 10
184.0029841213325
 20
441.7592736393286
 30
0.0
 10
183.9302792514494
 20
441.7639564522813
 30
0.0
  0
SPLINE
  5
158
330
1F
100
AcDbEntity
  8
0
  6
Continuous
 62
     8
370
    18
100
AcDbSpline
210
0.0
220
0.0
230
1.0
 70
     8
 71
     3
 72
    21
 73
    17
 74
     0
 42
0.000000001
 43
0.00000001
 40
0.0
 40
0.0
 40
0.0
 40
0.0
 40
0.0575398317396573
 40
0.1151508451279963
 40
0.1728108902846069
 40
0.2305430706842284
 40
0.2883274692212498
 40
0.3497540111847881
 40
0.4502128460100877
 40
0.4751947308933321
 40
0.5622882463851709
 40
0.6495234174481317
 40
0.736911668108778
 40
0.8244534377123989
 40
0.9121451431816284
 40
0.9999999999999999
 40
0.9999999999999999
 40
0.9999999999999999
 40
0.9999999999999999
 10
142.0629113063489
 20
441.7638714000685
 30
0.0
 10
142.005395203343
 20
441.7600285418132
 30
0.0
 10
141.8902918450369
 20
441.7523380713613
 30
0.0
 10
141.729599998687
 20
441.7389882780785
 30
0.0
 10
141.5747180263597
 20
441.7217674412993
 30
0.0
 10
141.4301510725367
 20
441.7037267709281
 30
0.0
 10
141.2896262324378
 20
441.6815976637279
 30
0.0
 10
141.1275546859705
 20
441.6520798791517
 30
0.0
 10
141.001694106048
 20
441.6226797091244
 30
0.0
 10
140.8692881964901
 20
441.5854032439098
 30
0.0
 10
140.7552533788001
 20
441.5476686420994
 30
0.0
 10
140.6257005709739
 20
441.4906231894643
 30
0.0
 10
140.5180270188959
 20
441.4261018473268
 30
0.0
 10
140.4339264044185
 20
441.3530169285561
 30
0.0
 10
140.3716487637051
 20
441.2710619150605
 30
0.0
 10
140.3522507093125
 20
441.2083449639076
 30
0.0
 10
140.3425426679301
 20
441.1769573440542
 30
0.0
  0
SPLINE
  5
159
330
1F
100
AcDbEntity
  8
0
  6
Continuous
 62
     8
370
    18
100
AcDbSpline
210
0.0
220
0.0
230
1.0
 70
     8
 71
     3
 72
    16
 73
    12
 74
     0
 42
0.000000001
 43
0.00000001
 40
0.0
 40
0.0
 40
0.0
 40
0.0
 40
0.5000000000000004
 40
0.5000000000000004
 40
0.7500000000000007
 40
0.7500000000000007
 40
0.8750000000000003
 40
0.8750000000000003
 40
0.9375000000000001
 40
0.9375000000000001
 40
1.0
 40
1.0
 40
1.0
 40
1.0
 10
185.6246265156743
 20
443.7426163741249
 30
0.0
 10
185.6297267449763
 20
443.831517339965
 30
0.0
 10
185.5101992268451
 20
443.8945360102782
 30
0.0
 10
185.1746264074307
 20
443.9676249398361
 30
0.0
 10
185.0357601760379
 20
443.9876879414671
 30
0.0
 10
184.7793301154907
 20
444.0103157662911
 30
0.0
 10
184.6894697178879
 20
444.0176944312465
 30
0.0
 10
184.5236256955846
 20
444.0225440897246
 30
0.0
 10
184.4627595983311
 20
444.0222857222184
 30
0.0
 10
184.3275933930076
 20
444.016760658338
 30
0.0
 10
184.2532327778758
 20
444.0119398407174
 30
0.0
 10
184.1897458726133
 20
444.0118780362274
 30
0.0
  0
LINE
  5
15A
330
1F
100
AcDbEntity
  8
0
  6
Continuous
 62
     8
370
    18
100
AcDbLine
 10
185.6511495444
 20
441.1765117941
 30
0.0
 11
185.6267004642
 21
443.5306866465
 31
0.0
  0
SPLINE
  5
15B
330
1F
100
AcDbEntity
  8
0
  6
Continuous
 62
     8
370
    18
100
AcDbSpline
210
0.0
220
0.0
230
1.0
 70
     8
 71
     3
 72
    16
 73
    12
 74
     0
 42
0.000000001
 43
0.00000001
 40
0.0
 40
0.0
 40
0.0
 40
0.0
 40
0.4999999999999997
 40
0.4999999999999997
 40
0.7499999999999996
 40
0.7499999999999996
 40
0.8749999999999999
 40
0.8749999999999999
 40
0.9374999999999999
 40
0.9374999999999999
 40
1.0
 40
1.0
 40
1.0
 40
1.0
 10
140.3688926480887
 20
443.7426163741248
 30
0.0
 10
140.3637924187867
 20
443.8315173399646
 30
0.0
 10
140.4833199369179
 20
443.8945360102776
 30
0.0
 10
140.8188927563323
 20
443.9676249398361
 30
0.0
 10
140.957758987725
 20
443.9876879414667
 30
0.0
 10
141.2141890482723
 20
444.0103157662911
 30
0.0
 10
141.3040494458751
 20
444.0176944312464
 30
0.0
 10
141.4698934681783
 20
444.0225440897245
 30
0.0
 10
141.5307595654319
 20
444.0222857222183
 30
0.0
 10
141.6659257707553
 20
444.0167606583379
 30
0.0
 10
141.7402863858871
 20
444.0119398407173
 30
0.0
 10
141.8037732911497
 20
444.0118780362272
 30
0.0
  0
LINE
  5
15C
330
1F
100
AcDbEntity
  8
0
  6
Continuous
 62
     8
370
    18
100
AcDbLine
 10
140.3423696193
 20
441.1765117941
 30
0.0
 11
140.3668186996
 21
443.5306866465
 31
0.0
  0
SPLINE
  5
15D
330
1F
100
AcDbEntity
  8
0
  6
Continuous
 62
     8
370
    18
100
AcDbSpline
210
0.0
220
0.0
230
1.0
 70
     8
 71
     3
 72
    11
 73
     7
 74
     0
 42
0.000000001
 43
0.00000001
 40
0.0
 40
0.0
 40
0.0
 40
0.0
 40
0.2659498313706549
 40
0.5324428576210493
 40
0.7989542056530305
 40
0.9999999999999999
 40
0.9999999999999999
 40
0.9999999999999999
 40
0.9999999999999999
 10
187.0000268700899
 20
405.6617473063669
 30
0.0
 10
186.9999669345322
 20
405.6617330849258
 30
0.0
 10
186.9998469410004
 20
405.6617046129967
 30
0.0
 10
186.9989558785905
 20
405.6617392473785
 30
0.0
 10
186.9977264639901
 20
405.6618154707676
 30
0.0
 10
186.9965242319315
 20
405.661908479178
 30
0.0
 10
186.9960072818579
 20
405.661948472043
 30
0.0
  0
SPLINE
  5
15E
330
1F
100
AcDbEntity
  8
0
  6
Continuous
 62
     8
370
    18
100
AcDbSpline
210
0.0
220
0.0
230
1.0
 70
     8
 71
     3
 72
    11
 73
     7
 74
     0
 42
0.000000001
 43
0.00000001
 40
0.0
 40
0.0
 40
0.0
 40
0.0
 40
0.2010174604924079
 40
0.4675098105905144
 40
0.734020423504964
 40
1.0
 40
1.0
 40
1.0
 40
1.0
 10
138.9975118819059
 20
405.661948472043
 30
0.0
 10
138.9969949284531
 20
405.6619084789426
 30
0.0
 10
138.9957926407998
 20
405.6618154662921
 30
0.0
 10
138.9945632026202
 20
405.6617392431554
 30
0.0
 10
138.9936722188707
 20
405.6617046137639
 30
0.0
 10
138.993552228852
 20
405.6617330849637
 30
0.0
 10
138.9934922936739
 20
405.6617473063669
 30
0.0
  0
CIRCLE
  5
15F
330
1F
100
AcDbEntity
  8
0
  6
Continuous
 62
     8
370
    18
100
AcDbCircle
 10
162.9967595819
 20
422.136579036
 30
0.0
 40
3.781418633081842
  0
LINE
  5
160
330
1F
100
AcDbEntity
  8
0
  6
Continuous
 62
     8
370
    18
100
AcDbLine
 10
185.6511495444
 20
441.1765117941
 30
0.0
 11
185.6441068831
 21
441.1728386579
 31
0.0
  0
LINE
  5
161
330
1F
100
AcDbEntity
  8
0
  6
Continuous
 62
     8
370
    18
100
AcDbLine
 10
140.3489894602
 20
441.1728461085
 30
0.0
 11
140.3423696193
 21
441.1765117941
 31
0.0
  0
SPLINE
  5
162
330
1F
100
AcDbEntity
  8
0
  6
Continuous
 62
     7
370
    25
100
AcDbSpline
210
0.0
220
0.0
230
1.0
 70
     8
 71
     3
 72
    11
 73
     7
 74
     0
 42
0.000000001
 43
0.00000001
 40
0.0
 40
0.0
 40
0.0
 40
0.0
 40
0.1992047187601985
 40
0.4671275470386421
 40
0.8066857726888617
 40
1.0
 40
1.0
 40
1.0
 40
1.0
 10
185.5568363699497
 20
191.9385064086821
 30
0.0
 10
185.5631400500767
 20
192.3665910042294
 30
0.0
 10
185.5779219420588
 20
193.3704332238694
 30
0.0
 10
185.5965367705881
 20
195.0033058209188
 30
0.0
 10
185.6088616315546
 20
196.5534047155674
 30
0.0
 10
185.6199930600178
 20
197.5304999024486
 30
0.0
 10
185.6240312937082
 20
197.8849682184812
 30
0.0
  0
SPLINE
  5
163
330
1F
100
AcDbEntity
  8
0
  6
Continuous
 62
     7
370
    25
100
AcDbSpline
210
0.0
220
0.0
230
1.0
 70
     8
 71
     3
 72
    12
 73
     8
 74
     0
 42
0.000000001
 43
0.00000001
 40
0.0
 40
0.0
 40
0.0
 40
0.0
 40
0.1052793040719048
 40
0.345737504332524
 40
0.5382086303080829
 40
0.6960476712157428
 40
1.0
 40
1.0
 40
1.0
 40
1.0
 10
140.3650547746004
 20
198.3122082586345
 30
0.0
 10
140.366795978939
 20
198.1637942236228
 30
0.0
 10
140.3725140984485
 20
197.6764021523584
 30
0.0
 10
140.3788385681014
 20
196.8416889875421
 30
0.0
 10
140.3879487599206
 20
195.8535324246724
 30
0.0
 10
140.4002295498179
 20
194.6397703772671
 30
0.0
 10
140.4118968272169
 20
193.7572804357053
 30
0.0
 10
140.4195762607635
 20
193.1764231688288
 30
0.0
  0
SPLINE
  5
164
330
1F
100
AcDbEntity
  8
0
  6
Continuous
 62
     7
370
    25
100
AcDbSpline
210
0.0
220
0.0
230
1.0
 70
     8
 71
     3
 72
    19
 73
    15
 74
     0
 42
0.000000001
 43
0.00000001
 40
0.0
 40
0.0
 40
0.0
 40
0.0
 40
0.0846804459253828
 40
0.1588103915165723
 40
0.2291309268577518
 40
0.2946545968247991
 40
0.3578758754368118
 40
0.4226662917792027
 40
0.4865298508700185
 40
0.5640571091264008
 40
0.6530437333636038
 40
0.7792498122516325
 40
0.9905720047432334
 40
1.0
 40
1.0
 40
1.0
 40
1.0
 10
173.3826286527695
 20
113.2624447039273
 30
0.0
 10
173.7567795238671
 20
113.2995053586589
 30
0.0
 10
174.4584650862889
 20
113.3690092095593
 30
0.0
 10
175.4496183478335
 20
113.6132026995244
 30
0.0
 10
176.311621675578
 20
113.977258010492
 30
0.0
 10
177.057947605948
 20
114.4587335335969
 30
0.0
 10
177.6792121440841
 20
115.0596838977392
 30
0.0
 10
178.1638455697829
 20
115.7653471798648
 30
0.0
 10
178.5554989230566
 20
116.594414313022
 30
0.0
 10
178.8755556794511
 20
117.5667648449054
 30
0.0
 10
179.1662510504835
 20
118.8323059608549
 30
0.0
 10
179.5287005630804
 20
120.6885908725219
 30
0.0
 10
179.7635207605582
 20
122.2093915152945
 30
0.0
 10
179.9156512066801
 20
123.1765377031643
 30
0.0
 10
179.9221485290111
 20
123.2178434423116
 30
0.0
  0
SPLINE
  5
165
330
1F
100
AcDbEntity
  8
0
  6
Continuous
 62
     7
370
    25
100
AcDbSpline
210
0.0
220
0.0
230
1.0
 70
     8
 71
     3
 72
    18
 73
    14
 74
     0
 42
0.000000001
 43
0.00000001
 40
0.0
 40
0.0
 40
0.0
 40
0.0
 40
0.1921075979465125
 40
0.3620466312311102
 40
0.4748545814639376
 40
0.5481103293075934
 40
0.6142862307863328
 40
0.6780197672375274
 40
0.7453167538260045
 40
0.8110692424153702
 40
0.8821680569331725
 40
0.9572805944951907
 40
1.0
 40
1.0
 40
1.0
 40
1.0
 10
146.0896338704408
 20
123.1388747385648
 30
0.0
 10
146.2177053488905
 20
122.3016891749036
 30
0.0
 10
146.4590692919366
 20
120.7239264196625
 30
0.0
 10
146.852198823052
 20
118.6687337532997
 30
0.0
 10
147.2318297948517
 20
117.1432498922703
 30
0.0
 10
147.6487693721089
 20
116.1092090812038
 30
0.0
 10
148.102493023445
 20
115.3323197321145
 30
0.0
 10
148.6798429564693
 20
114.6740888935113
 30
0.0
 10
149.3794815651114
 20
114.1513494111874
 30
0.0
 10
150.1866700342847
 20
113.7436303246378
 30
0.0
 10
151.0831028105249
 20
113.4667329792191
 30
0.0
 10
151.9057799622612
 20
113.3230198982298
 30
0.0
 10
152.4235321259393
 20
113.2795194384677
 30
0.0
 10
152.6112406882824
 20
113.2637485555318
 30
0.0
  0
SPLINE
  5
166
330
1F
100
AcDbEntity
  8
0
  6
Continuous
 62
     7
370
    25
100
AcDbSpline
210
0.0
220
0.0
230
1.0
 70
     8
 71
     3
 72
    11
 73
     7
 74
     0
 42
0.000000001
 43
0.00000001
 40
0.0
 40
0.0
 40
0.0
 40
0.0
 40
0.0349351114479492
 40
0.4677782579557282
 40
0.8815862200071473
 40
1.0
 40
1.0
 40
1.0
 40
1.0
 10
162.996757786701
 20
112.8323748401311
 30
0.0
 10
163.1178419674516
 20
112.832216155636
 30
0.0
 10
164.7391491506825
 20
112.8300913833481
 30
0.0
 10
167.794461661026
 20
112.8963123819768
 30
0.0
 10
171.1362800713746
 20
113.066820368122
 30
0.0
 10
172.9733113895195
 20
113.2298767506366
 30
0.0
 10
173.3820316749991
 20
113.2661550930646
 30
0.0
  0
SPLINE
  5
167
330
1F
100
AcDbEntity
  8
0
  6
Continuous
 62
     7
370
    25
100
AcDbSpline
210
0.0
220
0.0
230
1.0
 70
     8
 71
     3
 72
    11
 73
     7
 74
     0
 42
0.000000001
 43
0.00000001
 40
0.0
 40
0.0
 40
0.0
 40
0.0
 40
0.092810932954212
 40
0.5058324773175498
 40
0.9403669894416965
 40
1.0
 40
1.0
 40
1.0
 40
1.0
 10
152.6114083263458
 20
113.2644340089467
 30
0.0
 10
152.9317418461854
 20
113.2359113840429
 30
0.0
 10
154.6776040280495
 20
113.0804591161314
 30
0.0
 10
157.9334035929128
 20
112.9065533977898
 30
0.0
 10
161.0773117572573
 20
112.8301925281558
 30
0.0
 10
162.7900750064765
 20
112.8328578666472
 30
0.0
 10
162.9967604405377
 20
112.8331795028356
 30
0.0
  0
SPLINE
  5
168
330
1F
100
AcDbEntity
  8
0
  6
Continuous
 62
     7
370
    25
100
AcDbSpline
210
0.0
220
0.0
230
1.0
 70
     8
 71
     3
 72
     9
 73
     5
 74
     0
 42
0.000000001
 43
0.00000001
 40
0.0
 40
0.0
 40
0.0
 40
0.0
 40
0.0214430814558337
 40
1.0
 40
1.0
 40
1.0
 40
1.0
 10
139.1039508763136
 20
195.3699816643205
 30
0.0
 10
139.1040274586276
 20
195.3652471206266
 30
0.0
 10
139.1075988816148
 20
195.144451256765
 30
0.0
 10
139.1097749572413
 20
194.8406774615282
 30
0.0
 10
139.1119043711008
 20
194.5434175125268
 30
0.0
  0
SPLINE
  5
169
330
1F
100
AcDbEntity
  8
0
  6
Continuous
 62
     7
370
    25
100
AcDbSpline
210
0.0
220
0.0
230
1.0
 70
     8
 71
     3
 72
    11
 73
     7
 74
     0
 42
0.000000001
 43
0.00000001
 40
0.0
 40
0.0
 40
0.0
 40
0.0
 40
0.1406165260426889
 40
0.588341192088581
 40
0.9235602781762999
 40
1.0
 40
1.0
 40
1.0
 40
1.0
 10
173.945244345385
 20
97.07318988358051
 30
0.0
 10
174.0172939144417
 20
97.08602297250485
 30
0.0
 10
174.3187501553353
 20
97.13971676688611
 30
0.0
 10
174.48367567841
 20
97.16866452658155
 30
0.0
 10
174.5942715704322
 20
97.18558022673099
 30
0.0
 10
174.575966427664
 20
97.18018387579755
 30
0.0
 10
174.5725673991622
 20
97.17918184315235
 30
0.0
  0
SPLINE
  5
16A
330
1F
100
AcDbEntity
  8
0
  6
Continuous
 62
     7
370
    25
100
AcDbSpline
210
0.0
220
0.0
230
1.0
 70
     8
 71
     3
 72
    12
 73
     8
 74
     0
 42
0.000000001
 43
0.00000001
 40
0.0
 40
0.0
 40
0.0
 40
0.0
 40
0.1165335502660451
 40
0.2928564491432019
 40
0.495511132439125
 40
0.7300261485475845
 40
1.0
 40
1.0
 40
1.0
 40
1.0
 10
186.8606563094438
 20
193.9360815725234
 30
0.0
 10
186.9882354648055
 20
194.3602816039754
 30
0.0
 10
187.3088502434559
 20
195.4263240840495
 30
0.0
 10
187.6117537450533
 20
196.9144215744561
 30
0.0
 10
187.8475724834458
 20
198.4500883192168
 30
0.0
 10
187.976114745338
 20
199.8905651495719
 30
0.0
 10
187.9895631372232
 20
200.6895252387061
 30
0.0
 10
187.9967599544109
 20
201.1170833996289
 30
0.0
  0
SPLINE
  5
16B
330
1F
100
AcDbEntity
  8
0
  6
Continuous
 62
     7
370
    25
100
AcDbSpline
210
0.0
220
0.0
230
1.0
 70
     8
 71
     3
 72
    12
 73
     8
 74
     0
 42
0.000000001
 43
0.00000001
 40
0.0
 40
0.0
 40
0.0
 40
0.0
 40
0.2699738514531738
 40
0.5044888675613897
 40
0.7071435508571022
 40
0.883466449734076
 40
0.9999999999999999
 40
0.9999999999999999
 40
0.9999999999999999
 40
0.9999999999999999
 10
137.9967592093529
 20
201.1170833996612
 30
0.0
 10
138.0039560265405
 20
200.6895252387252
 30
0.0
 10
138.0174044184256
 20
199.8905651495677
 30
0.0
 10
138.1459466803179
 20
198.4500883192182
 30
0.0
 10
138.3817654187104
 20
196.9144215744558
 30
0.0
 10
138.6846689203078
 20
195.4263240840495
 30
0.0
 10
139.0052836989583
 20
194.3602816039754
 30
0.0
 10
139.1328628543199
 20
193.9360815725234
 30
0.0
  0
LINE
  5
16C
330
1F
100
AcDbEntity
  8
0
  6
Continuous
 62
     7
370
    25
100
AcDbLine
 10
151.0467593926
 20
97.2911044649
 30
0.0
 11
151.0467593926
 21
96.0150286249
 31
0.0
  0
LINE
  5
16D
330
1F
100
AcDbEntity
  8
0
  6
Continuous
 62
     7
370
    25
100
AcDbLine
 10
174.9467597711
 20
96.0150286249
 30
0.0
 11
174.9467597711
 21
97.2911044649
 31
0.0
  0
LINE
  5
16E
330
1F
100
AcDbEntity
  8
0
  6
Continuous
 62
     7
370
    25
100
AcDbLine
 10
151.8386378321
 20
92.607840865
 30
0.0
 11
152.345797922
 21
92.3150330475
 31
0.0
  0
LINE
  5
16F
330
1F
100
AcDbEntity
  8
0
  6
Continuous
 62
     7
370
    25
100
AcDbLine
 10
173.6477212417
 20
92.3150330475
 30
0.0
 11
174.1493092287
 21
92.6046222142
 31
0.0
  0
LINE
  5
170
330
1F
100
AcDbEntity
  8
0
  6
Continuous
 62
     7
370
    25
100
AcDbLine
 10
164.9967596769
 20
227.1065655789
 30
0.0
 11
164.9967596769
 21
230.9548984907
 31
0.0
  0
LINE
  5
171
330
1F
100
AcDbEntity
  8
0
  6
Continuous
 62
     7
370
    25
100
AcDbLine
 10
160.9967594869
 20
230.9548984907
 30
0.0
 11
160.9967594869
 21
227.1065655789
 31
0.0
  0
LINE
  5
172
330
1F
100
AcDbEntity
  8
0
  6
Continuous
 62
     7
370
    25
100
AcDbLine
 10
160.9967594869
 20
243.9469806543
 30
0.0
 11
160.9967594869
 21
230.9548984907
 31
0.0
  0
LINE
  5
173
330
1F
100
AcDbEntity
  8
0
  6
Continuous
 62
     7
370
    25
100
AcDbLine
 10
164.9967596769
 20
230.9548984907
 30
0.0
 11
164.9967596769
 21
243.9469806543
 31
0.0
  0
LINE
  5
174
330
1F
100
AcDbEntity
  8
0
  6
Continuous
 62
     7
370
    25
100
AcDbLine
 10
160.9967594869
 20
227.1065655789
 30
0.0
 11
160.9967594869
 21
225.6318516723
 31
0.0
  0
LINE
  5
175
330
1F
100
AcDbEntity
  8
0
  6
Continuous
 62
     7
370
    25
100
AcDbLine
 10
164.9967596769
 20
225.6316002152
 30
0.0
 11
164.9967596769
 21
227.1065655789
 31
0.0
  0
SPLINE
  5
176
330
1F
100
AcDbEntity
  8
0
  6
Continuous
 62
     7
370
    25
100
AcDbSpline
210
0.0
220
0.0
230
1.0
 70
     8
 71
     3
 72
    16
 73
    12
 74
     0
 42
0.000000001
 43
0.00000001
 40
0.0
 40
0.0
 40
0.0
 40
0.0
 40
0.5000000000000004
 40
0.5000000000000004
 40
0.7500000000000007
 40
0.7500000000000007
 40
0.8750000000000003
 40
0.8750000000000003
 40
0.9375000000000001
 40
0.9375000000000001
 40
1.0
 40
1.0
 40
1.0
 40
1.0
 10
185.6246265156743
 20
201.1161142335926
 30
0.0
 10
185.6297267449763
 20
194.320257222224
 30
0.0
 10
185.5101992268451
 20
187.5249066105499
 30
0.0
 10
185.1746264074307
 20
177.3372289306727
 30
0.0
 10
185.0357601760379
 20
173.9426892241594
 30
0.0
 10
184.7793301154907
 20
168.853291287795
 30
0.0
 10
184.6894697178879
 20
167.1570469878814
 30
0.0
 10
184.5236256955846
 20
164.6142309818732
 30
0.0
 10
184.4627595983311
 20
163.7669015079994
 30
0.0
 10
184.3275933930076
 20
162.0729041793532
 30
0.0
 10
184.2532327778758
 20
161.2262411469454
 30
0.0
 10
184.1897458726133
 20
160.3790453627243
 30
0.0
  0
SPLINE
  5
177
330
1F
100
AcDbEntity
  8
0
  6
Continuous
 62
     7
370
    25
100
AcDbSpline
210
0.0
220
0.0
230
1.0
 70
     8
 71
     3
 72
    16
 73
    12
 74
     0
 42
0.000000001
 43
0.00000001
 40
0.0
 40
0.0
 40
0.0
 40
0.0
 40
0.4999999999999997
 40
0.4999999999999997
 40
0.7499999999999996
 40
0.7499999999999996
 40
0.8749999999999999
 40
0.8749999999999999
 40
0.9374999999999999
 40
0.9374999999999999
 40
1.0
 40
1.0
 40
1.0
 40
1.0
 10
140.3688926480887
 20
201.1161142335926
 30
0.0
 10
140.3637924187867
 20
194.320257222224
 30
0.0
 10
140.4833199369179
 20
187.5249066105499
 30
0.0
 10
140.8188927563323
 20
177.3372289306727
 30
0.0
 10
140.957758987725
 20
173.9426892241594
 30
0.0
 10
141.2141890482723
 20
168.853291287795
 30
0.0
 10
141.3040494458751
 20
167.1570469878813
 30
0.0
 10
141.4698934681783
 20
164.6142309818731
 30
0.0
 10
141.5307595654319
 20
163.7669015079994
 30
0.0
 10
141.6659257707553
 20
162.0729041793532
 30
0.0
 10
141.7402863858871
 20
161.2262411469454
 30
0.0
 10
141.8037732911497
 20
160.3790453627243
 30
0.0
  0
SPLINE
  5
178
330
1F
100
AcDbEntity
  8
0
  6
Continuous
 62
     7
370
    25
100
AcDbSpline
210
0.0
220
0.0
230
1.0
 70
     8
 71
     3
 72
    12
 73
     8
 74
     0
 42
0.000000001
 43
0.00000001
 40
0.0
 40
0.0
 40
0.0
 40
0.0
 40
0.5000000000000002
 40
0.5000000000000002
 40
0.7500000000000001
 40
0.7500000000000001
 40
1.0
 40
1.0
 40
1.0
 40
1.0
 10
184.1897380713392
 20
160.3789944699926
 30
0.0
 10
183.7298264268954
 20
154.1448276785205
 30
0.0
 10
183.1430110867325
 20
147.9220512010889
 30
0.0
 10
182.0743922953251
 20
138.6111157398645
 30
0.0
 10
181.6862963064592
 20
135.5110920117868
 30
0.0
 10
180.8455781218684
 20
129.3185151916002
 30
0.0
 10
180.3930089227719
 20
126.2259138857709
 30
0.0
 10
179.90775479288
 20
123.1397670279483
 30
0.0
  0
SPLINE
  5
179
330
1F
100
AcDbEntity
  8
0
  6
Continuous
 62
     7
370
    25
100
AcDbSpline
210
0.0
220
0.0
230
1.0
 70
     8
 71
     3
 72
    12
 73
     8
 74
     0
 42
0.000000001
 43
0.00000001
 40
0.0
 40
0.0
 40
0.0
 40
0.0
 40
0.5000000000000002
 40
0.5000000000000002
 40
0.7500000000000001
 40
0.7500000000000001
 40
1.0
 40
1.0
 40
1.0
 40
1.0
 10
141.8037810924237
 20
160.3789944699926
 30
0.0
 10
142.2636927368675
 20
154.1448276785205
 30
0.0
 10
142.8505080770304
 20
147.922051201089
 30
0.0
 10
143.9191268684378
 20
138.6111157398645
 30
0.0
 10
144.3072228573037
 20
135.5110920117868
 30
0.0
 10
145.1479410418945
 20
129.3185151916002
 30
0.0
 10
145.6005100698436
 20
126.2259138659021
 30
0.0
 10
146.085764370883
 20
123.1397670279483
 30
0.0
  0
SPLINE
  5
17A
330
1F
100
AcDbEntity
  8
0
  6
Continuous
 62
     7
370
    25
100
AcDbSpline
210
0.0
220
0.0
230
1.0
 70
     8
 71
     3
 72
    11
 73
     7
 74
     0
 42
0.000000001
 43
0.00000001
 40
0.0
 40
0.0
 40
0.0
 40
0.0
 40
0.3204914207808179
 40
0.6495084764017404
 40
0.970265771399909
 40
1.0
 40
1.0
 40
1.0
 40
1.0
 10
141.0242430302681
 20
207.6732474072781
 30
0.0
 10
140.7464843962894
 20
206.6094973174019
 30
0.0
 10
140.1835782606949
 20
204.4536995164361
 30
0.0
 10
139.9991295438304
 20
201.022140646133
 30
0.0
 10
140.0670364187172
 20
198.5612173969322
 30
0.0
 10
140.3700984029483
 20
197.3250070803676
 30
0.0
 10
140.3958089086593
 20
197.2201321898904
 30
0.0
  0
ELLIPSE
  5
17B
330
1F
100
AcDbEntity
  8
0
  6
Continuous
 62
     7
370
    25
100
AcDbEllipse
 10
162.9967595819
 20
201.0194448213
 30
0.0
 11
-1.790539272406022E-9
 21
22.95807636090268
 31
0.0
210
0.0
220
0.0
230
1.0
 40
0.9999909563
 41
5.006431970376565
 42
7.55993864382664
  0
SPLINE
  5
17C
330
1F
100
AcDbEntity
  8
0
  6
Continuous
 62
     7
370
    25
100
AcDbSpline
210
0.0
220
0.0
230
1.0
 70
     8
 71
     3
 72
    11
 73
     7
 74
     0
 42
0.000000001
 43
0.00000001
 40
0.0
 40
0.0
 40
0.0
 40
0.0
 40
0.1797119366440562
 40
0.4963221401217442
 40
0.8216862420560662
 40
1.0
 40
1.0
 40
1.0
 40
1.0
 10
185.5938694808067
 20
197.4511765568462
 30
0.0
 10
185.70492656392
 20
198.0789987998485
 30
0.0
 10
186.0116401311753
 20
199.8128963087274
 30
0.0
 10
185.9518015397894
 20
202.6920812882344
 30
0.0
 10
185.5799739360968
 20
205.479607380109
 30
0.0
 10
185.1289493865155
 20
207.0996975474281
 30
0.0
 10
184.9692761334957
 20
207.6732474072781
 30
0.0
  0
SPLINE
  5
17D
330
1F
100
AcDbEntity
  8
0
  6
Continuous
 62
     7
370
    25
100
AcDbSpline
210
0.0
220
0.0
230
1.0
 70
     8
 71
     3
 72
    54
 73
    50
 74
     0
 42
0.000000001
 43
0.00000001
 40
0.0
 40
0.0
 40
0.0
 40
0.0
 40
0.0312499999999999
 40
0.0312499999999999
 40
0.0624999999999998
 40
0.0624999999999998
 40
0.1249999999999996
 40
0.1249999999999996
 40
0.2499999999999993
 40
0.2499999999999993
 40
0.4999999999999984
 40
0.4999999999999984
 40
0.6249999999999981
 40
0.6249999999999981
 40
0.6874999999999978
 40
0.6874999999999978
 40
0.7499999999999973
 40
0.7499999999999973
 40
0.812499999999997
 40
0.812499999999997
 40
0.8437499999999968
 40
0.8437499999999968
 40
0.8593749999999968
 40
0.8593749999999968
 40
0.8749999999999969
 40
0.8749999999999969
 40
0.8828124999999971
 40
0.8828124999999971
 40
0.8906249999999973
 40
0.8906249999999973
 40
0.9062499999999977
 40
0.9062499999999977
 40
0.9140624999999979
 40
0.9140624999999979
 40
0.9218749999999981
 40
0.9218749999999981
 40
0.9374999999999984
 40
0.9374999999999984
 40
0.9531249999999989
 40
0.9531249999999989
 40
0.9687499999999993
 40
0.9687499999999993
 40
0.9843749999999997
 40
0.9843749999999997
 40
0.9921874999999999
 40
0.9921874999999999
 40
0.99609375
 40
0.99609375
 40
1.0
 40
1.0
 40
1.0
 40
1.0
 10
186.9960043035799
 20
200.6489732565897
 30
0.0
 10
186.9760275521906
 20
199.5131412554597
 30
0.0
 10
186.9552925364459
 20
198.3773185277409
 30
0.0
 10
186.9123572610586
 20
196.1057122428209
 30
0.0
 10
186.8901717790808
 20
194.9699226509221
 30
0.0
 10
186.8215769095308
 20
191.5625968196448
 30
0.0
 10
186.7730287675061
 20
189.2911053821329
 30
0.0
 10
186.6184952576857
 20
182.4768176326168
 30
0.0
 10
186.5040671320477
 20
177.9343240597591
 30
0.0
 10
186.1348366777887
 20
164.3076591359737
 30
0.0
 10
185.8542068052689
 20
155.2242923360271
 30
0.0
 10
185.3872378222438
 20
141.6007518675443
 30
0.0
 10
185.2283930019203
 20
137.0596826847109
 30
0.0
 10
184.9555965034755
 20
130.2491685844358
 30
0.0
 10
184.8571909966519
 20
127.9794888196083
 30
0.0
 10
184.6286373199262
 20
123.4429284004922
 30
0.0
 10
184.4987892729642
 20
121.175949160239
 30
0.0
 10
184.1947799847941
 20
116.6457724501933
 30
0.0
 10
184.0235441958478
 20
114.3823307873858
 30
0.0
 10
183.7093635672397
 20
110.9920169317813
 30
0.0
 10
183.5951791286003
 20
109.8627105955066
 30
0.0
 10
183.3981154669112
 20
108.1709218181274
 30
0.0
 10
183.3276134864269
 20
107.6073973994133
 30
0.0
 10
183.1684018781297
 20
106.4818731066244
 30
0.0
 10
183.0796560620946
 20
105.9198739438377
 30
0.0
 10
182.9159735683516
 20
105.0794290967134
 30
0.0
 10
182.8558919583458
 20
104.7997415486861
 30
0.0
 10
182.7176368499656
 20
104.2418742062995
 30
0.0
 10
182.6389603195983
 20
103.9634142748966
 30
0.0
 10
182.3717314846464
 20
103.1455845957365
 30
0.0
 10
182.1525006545203
 20
102.6189321180898
 30
0.0
 10
181.7507568908484
 20
101.8619058542528
 30
0.0
 10
181.6046613758371
 20
101.6150698413953
 30
0.0
 10
181.2848381439505
 20
101.1338870723135
 30
0.0
 10
181.112414870196
 20
100.9022274984144
 30
0.0
 10
180.5665386541888
 20
100.2412602967933
 30
0.0
 10
180.162334380115
 20
99.84146212376007
 30
0.0
 10
179.2794574179027
 20
99.11736893636362
 30
0.0
 10
178.7956678068162
 20
98.79266831826067
 30
0.0
 10
177.7960704155361
 20
98.23758395337062
 30
0.0
 10
177.2770083822097
 20
98.00272749778901
 30
0.0
 10
176.208047204924
 20
97.60134952466734
 30
0.0
 10
175.6558668754222
 20
97.4348621229821
 30
0.0
 10
174.8188010421568
 20
97.22768551223834
 30
0.0
 10
174.5382615850292
 20
97.16560591481817
 30
0.0
 10
174.1155822384077
 20
97.08108644653124
 30
0.0
 10
173.9743772504406
 20
97.05434743976606
 30
0.0
 10
173.6914094587973
 20
97.00343429341113
 30
0.0
 10
173.5477999132458
 20
96.97896073341744
 30
0.0
 10
173.4076382958833
 20
96.95621865206294
 30
0.0
  0
SPLINE
  5
17E
330
1F
100
AcDbEntity
  8
0
  6
Continuous
 62
     7
370
    25
100
AcDbSpline
210
0.0
220
0.0
230
1.0
 70
     8
 71
     3
 72
    55
 73
    51
 74
     0
 42
0.000000001
 43
0.00000001
 40
0.0
 40
0.0
 40
0.0
 40
0.0
 40
0.0156250000000003
 40
0.0156250000000003
 40
0.0312500000000007
 40
0.0312500000000007
 40
0.046875000000001
 40
0.046875000000001
 40
0.0625000000000013
 40
0.0625000000000013
 40
0.0781250000000016
 40
0.0781250000000016
 40
0.0859375000000016
 40
0.0859375000000016
 40
0.0937500000000016
 40
0.0937500000000016
 40
0.1093750000000016
 40
0.1093750000000016
 40
0.1171875000000016
 40
0.1171875000000016
 40
0.1250000000000016
 40
0.1250000000000016
 40
0.1406250000000016
 40
0.1406250000000016
 40
0.1562500000000016
 40
0.1562500000000016
 40
0.1875000000000017
 40
0.1875000000000017
 40
0.2500000000000017
 40
0.2500000000000017
 40
0.3125000000000017
 40
0.3125000000000017
 40
0.3750000000000018
 40
0.3750000000000018
 40
0.5000000000000014
 40
0.5000000000000014
 40
0.7500000000000008
 40
0.7500000000000008
 40
0.8750000000000003
 40
0.8750000000000003
 40
0.9375000000000002
 40
0.9375000000000002
 40
0.9687500000000001
 40
0.9687500000000001
 40
0.9843750000000001
 40
0.9843750000000001
 40
0.9921875
 40
0.99609375
 40
0.99609375
 40
1.0
 40
1.0
 40
1.0
 40
1.0
 10
152.58588086788
 20
96.95621865206293
 30
0.0
 10
152.01865401872
 20
97.04825468422503
 30
0.0
 10
151.453739391615
 20
97.15862678561342
 30
0.0
 10
150.3376516377882
 20
97.43486230729279
 30
0.0
 10
149.7854713260639
 20
97.60134973139742
 30
0.0
 10
148.7165101862454
 20
98.00272775218484
 30
0.0
 10
148.1974481724176
 20
98.23758423329372
 30
0.0
 10
147.197850822642
 20
98.79266865479299
 30
0.0
 10
146.7140612399249
 20
99.11736930186012
 30
0.0
 10
145.8311843429046
 20
99.84146253468441
 30
0.0
 10
145.4269801005516
 20
100.2412607295445
 30
0.0
 10
144.8811039336584
 20
100.9022279654597
 30
0.0
 10
144.7086806744275
 20
101.1338875552122
 30
0.0
 10
144.3888574841831
 20
101.6150703351279
 30
0.0
 10
144.2427619882857
 20
101.861906352631
 30
0.0
 10
143.8410182784882
 20
102.6189326288389
 30
0.0
 10
143.6217874798843
 20
103.1455851127475
 30
0.0
 10
143.3545586879415
 20
103.9634147993655
 30
0.0
 10
143.2758821718388
 20
104.2418747323229
 30
0.0
 10
143.1376270879452
 20
104.7997420694819
 30
0.0
 10
143.0775454876193
 20
105.0794296146821
 30
0.0
 10
142.913863016377
 20
105.9198744527815
 30
0.0
 10
142.8251172089117
 20
106.4818736090162
 30
0.0
 10
142.6659056138262
 20
107.6073978883723
 30
0.0
 10
142.5954036379366
 20
108.1709223002038
 30
0.0
 10
142.3983399869687
 20
109.8627110566774
 30
0.0
 10
142.2841555522391
 20
110.9920173787437
 30
0.0
 10
141.969974936168
 20
114.3823311917891
 30
0.0
 10
141.7987391514664
 20
116.6457728258816
 30
0.0
 10
141.4947298717334
 20
121.1759494784874
 30
0.0
 10
141.3648818280438
 20
123.4429286899386
 30
0.0
 10
141.1363281566469
 20
127.9794890513478
 30
0.0
 10
141.0379226517764
 20
130.2491687872761
 30
0.0
 10
140.765126157972
 20
137.0596828006507
 30
0.0
 10
140.6062813395324
 20
141.6007519255128
 30
0.0
 10
140.1393123624682
 20
155.22429222009
 30
0.0
 10
139.858682493154
 20
164.3076589040746
 30
0.0
 10
139.4894520422655
 20
177.9343236538725
 30
0.0
 10
139.3750239174777
 20
182.4768171687158
 30
0.0
 10
139.2204904083108
 20
189.2911048312194
 30
0.0
 10
139.1719422664036
 20
191.562596239725
 30
0.0
 10
139.1033473969849
 20
194.9699220274919
 30
0.0
 10
139.0811619150399
 20
196.1057116048873
 30
0.0
 10
139.0489604584939
 20
197.8094162968215
 30
0.0
 10
139.0384084144057
 20
198.3773211186478
 30
0.0
 10
139.0228619965112
 20
199.2291849597119
 30
0.0
 10
139.015159061229
 20
199.6551185468707
 30
0.0
 10
139.0075620137326
 20
200.0810549731598
 30
0.0
 10
139.0025208207729
 20
200.3650132577454
 30
0.0
 10
139.0000412628442
 20
200.5053278306736
 30
0.0
 10
138.9975148601833
 20
200.6489732565897
 30
0.0
  0
SPLINE
  5
17F
330
1F
100
AcDbEntity
  8
0
  6
Continuous
 62
     7
370
    25
100
AcDbSpline
210
0.0
220
0.0
230
1.0
 70
     8
 71
     3
 72
     8
 73
     4
 74
     0
 42
0.000000001
 43
0.00000001
 40
0.0
 40
0.0
 40
0.0
 40
0.0
 40
0.0004642455191564
 40
0.0004642455191564
 40
0.0004642455191564
 40
0.0004642455191564
 10
138.9979926293281
 20
200.6528461529445
 30
0.0
 10
138.9950208735106
 20
200.8075659319557
 30
0.0
 10
138.9935226694565
 20
200.9623213179086
 30
0.0
 10
138.9934925154159
 20
201.1170698001777
 30
0.0
  0
SPLINE
  5
180
330
1F
100
AcDbEntity
  8
0
  6
Continuous
 62
     7
370
    25
100
AcDbSpline
210
0.0
220
0.0
230
1.0
 70
     8
 71
     3
 72
     8
 73
     4
 74
     0
 42
0.000000001
 43
0.00000001
 40
0.0000002340382846
 40
0.0000002340382846
 40
0.0000002340382846
 40
0.0000002340382846
 40
0.000464479557402
 40
0.000464479557402
 40
0.000464479557402
 40
0.000464479557402
 10
187.0000266483473
 20
201.1170698001386
 30
0.0
 10
186.9999964943065
 20
200.9623213178826
 30
0.0
 10
186.9984982902523
 20
200.8075659319427
 30
0.0
 10
186.9955265344351
 20
200.6528461529445
 30
0.0
  0
SPLINE
  5
181
330
1F
100
AcDbEntity
  8
0
  6
Continuous
 62
     7
370
    25
100
AcDbSpline
210
0.0
220
0.0
230
1.0
 70
     8
 71
     3
 72
    10
 73
     6
 74
     0
 42
0.000000001
 43
0.00000001
 40
0.0
 40
0.0
 40
0.0
 40
0.0
 40
0.5000000000000001
 40
0.5000000000000001
 40
1.0
 40
1.0
 40
1.0
 40
1.0
 10
173.4069746882286
 20
96.95613404668327
 30
0.0
 10
171.6867482954211
 20
96.67702316914307
 30
0.0
 10
169.9559314490789
 20
96.46686034982415
 30
0.0
 10
166.481832461773
 20
96.18684706855448
 30
0.0
 10
164.739171131701
 20
96.11708417878265
 30
0.0
 10
162.9967595818816
 20
96.1170833996442
 30
0.0
  0
SPLINE
  5
182
330
1F
100
AcDbEntity
  8
0
  6
Continuous
 62
     7
370
    25
100
AcDbSpline
210
0.0
220
0.0
230
1.0
 70
     8
 71
     3
 72
    26
 73
    22
 74
     0
 42
0.000000001
 43
0.00000001
 40
0.0
 40
0.0
 40
0.0
 40
0.0
 40
0.0790201236689346
 40
0.1550536476275965
 40
0.2281185171405126
 40
0.2982299584969404
 40
0.3654007089516375
 40
0.4296412403976629
 40
0.4909599760946967
 40
0.5493634998661406
 40
0.604856757263962
 40
0.657443248281232
 40
0.707125211268366
 40
0.7539037977804248
 40
0.797779238150268
 40
0.8387509976475654
 40
0.8768179231497937
 40
0.9119783803241808
 40
0.9442303814100587
 40
0.9735717038209287
 40
1.0
 40
1.0
 40
1.0
 40
1.0
 10
162.9967595818816
 20
96.11708339964419
 30
0.0
 10
162.7213653151878
 20
96.11808440438628
 30
0.0
 10
162.1809854270784
 20
96.12004858046379
 30
0.0
 10
161.3860913584434
 20
96.13550622315466
 30
0.0
 10
160.6224678031267
 20
96.15882658493015
 30
0.0
 10
159.890027295672
 20
96.1898144551955
 30
0.0
 10
159.1886858094584
 20
96.22721788838807
 30
0.0
 10
158.5183628024873
 20
96.2701050410879
 30
0.0
 10
157.8789812123924
 20
96.3175172675954
 30
0.0
 10
157.2704674630373
 20
96.36855631196161
 30
0.0
 10
156.6927514680322
 20
96.42236244403271
 30
0.0
 10
156.1457666315027
 20
96.47811990625661
 30
0.0
 10
155.6294498578185
 20
96.53505559203285
 30
0.0
 10
155.1437415271317
 20
96.592439221904
 30
0.0
 10
154.6885855850284
 20
96.64958378945593
 30
0.0
 10
154.2639292424998
 20
96.70584376670818
 30
0.0
 10
153.8697239864412
 20
96.76062118670657
 30
0.0
 10
153.5059222038199
 20
96.813345301021
 30
0.0
 10
153.1724883463458
 20
96.86353987931564
 30
0.0
 10
152.8693623639167
 20
96.91060284324837
 30
0.0
 10
152.6774778821795
 20
96.94149456233303
 30
0.0
 10
152.5865470125817
 20
96.95613363504128
 30
0.0
  0
SPLINE
  5
183
330
1F
100
AcDbEntity
  8
0
  6
Continuous
 62
     7
370
    25
100
AcDbSpline
210
0.0
220
0.0
230
1.0
 70
     8
 71
     3
 72
    17
 73
    13
 74
     0
 42
0.000000001
 43
0.00000001
 40
0.0
 40
0.0
 40
0.0
 40
0.0
 40
0.1143153106747189
 40
0.2242103831629275
 40
0.3297077278864197
 40
0.430832779575612
 40
0.5276144057153798
 40
0.6200855251887252
 40
0.7852341211078376
 40
0.9382441848745401
 40
0.9694200939557169
 40
1.0
 40
1.0
 40
1.0
 40
1.0
 10
152.5865469990867
 20
96.9561336372309
 30
0.0
 10
152.5913949343661
 20
96.95534722157525
 30
0.0
 10
152.6009033494693
 20
96.95380479865358
 30
0.0
 10
152.6269705023942
 20
96.94958540646428
 30
0.0
 10
152.6615012489383
 20
96.94401275137052
 30
0.0
 10
152.705275059777
 20
96.93697562543824
 30
0.0
 10
152.7580691955527
 20
96.9285286772309
 30
0.0
 10
152.8372193619317
 20
96.91593796100773
 30
0.0
 10
152.9547486242921
 20
96.89740164981544
 30
0.0
 10
153.0886190470809
 20
96.87662959733876
 30
0.0
 10
153.1853466745579
 20
96.86181782391327
 30
0.0
 10
153.2149506748842
 20
96.85731054363237
 30
0.0
 10
153.2296098215034
 20
96.85507865328768
 30
0.0
  0
LINE
  5
184
330
1F
100
AcDbEntity
  8
0
  6
Continuous
 62
     7
370
    25
100
AcDbLine
 10
152.9538463238
 20
96.9076305321
 30
0.0
 11
153.228617217
 21
96.8552678517
 31
0.0
  0
LINE
  5
185
330
1F
100
AcDbEntity
  8
0
  6
Continuous
 62
     7
370
    25
100
AcDbLine
 10
172.7649019468
 20
96.8552678517
 30
0.0
 11
172.9723559129
 21
96.8948900393
 31
0.0
  0
SPLINE
  5
186
330
1F
100
AcDbEntity
  8
0
  6
Continuous
 62
     7
370
    25
100
AcDbSpline
210
0.0
220
0.0
230
1.0
 70
     8
 71
     3
 72
    12
 73
     8
 74
     0
 42
0.000000001
 43
0.00000001
 40
0.0509778985003703
 40
0.0509778985003703
 40
0.0509778985003703
 40
0.0509778985003703
 40
0.0624735023662522
 40
0.1327959389789071
 40
0.2499999999999986
 40
0.2968749999999987
 40
0.3715766864811501
 40
0.3715766864811501
 40
0.3715766864811501
 40
0.3715766864811501
 10
173.4076379868088
 20
96.9562186011964
 30
0.0
 10
173.4064758033298
 20
96.95602733261755
 30
0.0
 10
173.3971554533103
 20
96.95449568861295
 30
0.0
 10
173.3552745717454
 20
96.94766521417237
 30
0.0
 10
173.2367742066756
 20
96.92869285148936
 30
0.0
 10
173.0282684653953
 20
96.89577519233693
 30
0.0
 10
172.8790070952322
 20
96.8726458381721
 30
0.0
 10
172.7650152863877
 20
96.85528167182507
 30
0.0
  0
SPLINE
  5
187
330
1F
100
AcDbEntity
  8
0
  6
Continuous
 62
     7
370
    25
100
AcDbSpline
210
0.0
220
0.0
230
1.0
 70
     8
 71
     3
 72
    10
 73
     6
 74
     0
 42
0.000000001
 43
0.00000001
 40
0.0
 40
0.0
 40
0.0
 40
0.0
 40
0.29063415514118
 40
0.5892699885260846
 40
1.0
 40
1.0
 40
1.0
 40
1.0
 10
164.2077238667191
 20
225.6307489863541
 30
0.0
 10
164.3609922995649
 20
225.6272042140478
 30
0.0
 10
164.6717489194142
 20
225.6200170755117
 30
0.0
 10
164.9377051668053
 20
225.6171145999821
 30
0.0
 10
164.9587211588828
 20
225.6283528079307
 30
0.0
 10
164.9708896312298
 20
225.6348598441985
 30
0.0
  0
SPLINE
  5
188
330
1F
100
AcDbEntity
  8
0
  6
Continuous
 62
     7
370
    25
100
AcDbSpline
210
0.0
220
0.0
230
1.0
 70
     8
 71
     3
 72
    17
 73
    13
 74
     0
 42
0.000000001
 43
0.00000001
 40
0.0
 40
0.0
 40
0.0
 40
0.0
 40
0.0553284911496427
 40
0.1617266770628742
 40
0.2663362657637073
 40
0.3699221609032962
 40
0.4730484011757235
 40
0.5761746414481507
 40
0.6797605365877396
 40
0.7843701252885729
 40
0.8907683112018043
 40
1.0
 40
1.0
 40
1.0
 40
1.0
 10
164.9967596768768
 20
225.9554918548968
 30
0.0
 10
165.6831410880267
 20
225.9164839278464
 30
0.0
 10
167.6894525293195
 20
225.8024627013519
 30
0.0
 10
170.905411192392
 20
224.9274374876809
 30
0.0
 10
174.5172194539032
 20
223.4254603944922
 30
0.0
 10
177.8110142769076
 20
221.3723315181116
 30
0.0
 10
180.7403150405011
 20
218.860846126982
 30
0.0
 10
183.2528885971321
 20
215.9313880689
 30
0.0
 10
185.3017901894426
 20
212.6371313853764
 30
0.0
 10
186.8198373296188
 20
209.0273613248311
 30
0.0
 10
187.8103121461165
 20
205.1526360175513
 30
0.0
 10
187.9340686075101
 20
202.4740005520636
 30
0.0
 10
187.9967599544109
 20
201.1170833996442
 30
0.0
  0
LINE
  5
189
330
1F
100
AcDbEntity
  8
0
  6
Continuous
 62
     7
370
    25
100
AcDbLine
 10
187.1116402927
 20
194.8019549875
 30
0.0
 11
186.8573128614
 21
193.7702316484
 31
0.0
  0
SPLINE
  5
18A
330
1F
100
AcDbEntity
  8
0
  6
Continuous
 62
     7
370
    25
100
AcDbSpline
210
0.0
220
0.0
230
1.0
 70
     8
 71
     3
 72
    12
 73
     8
 74
     0
 42
0.000000001
 43
0.00000001
 40
0.0
 40
0.0
 40
0.0
 40
0.0
 40
0.2500000000000021
 40
0.2500000000000021
 40
0.5000000000000042
 40
0.5000000000000042
 40
1.0
 40
1.0
 40
1.0
 40
1.0
 10
162.9967595818817
 20
225.6482584550487
 30
0.0
 10
163.1338271720313
 20
225.6482565194664
 30
0.0
 10
163.2677103049114
 20
225.6474659926259
 30
0.0
 10
163.5180350406742
 20
225.6448180726066
 30
0.0
 10
163.6329916814273
 20
225.6429952497211
 30
0.0
 10
163.937191494553
 20
225.6373364393704
 30
0.0
 10
164.0900961167496
 20
225.6334120956369
 30
0.0
 10
164.207723906362
 20
225.6307498319543
 30
0.0
  0
SPLINE
  5
18B
330
1F
100
AcDbEntity
  8
0
  6
Continuous
 62
     7
370
    25
100
AcDbSpline
210
0.0
220
0.0
230
1.0
 70
     8
 71
     3
 72
    17
 73
    13
 74
     0
 42
0.000000001
 43
0.00000001
 40
0.0
 40
0.0
 40
0.0
 40
0.0
 40
0.0553284911496427
 40
0.1617266770628742
 40
0.2663362657637073
 40
0.3699221609032962
 40
0.4730484011757235
 40
0.5761746414481507
 40
0.6797605365877396
 40
0.7843701252885729
 40
0.8907683112018043
 40
1.0
 40
1.0
 40
1.0
 40
1.0
 10
160.996759486887
 20
225.9554918548968
 30
0.0
 10
160.3103780757371
 20
225.9164839278464
 30
0.0
 10
158.3040666344443
 20
225.8024627013519
 30
0.0
 10
155.0881079713718
 20
224.9274374876809
 30
0.0
 10
151.4762997098606
 20
223.4254603944922
 30
0.0
 10
148.1825048868562
 20
221.3723315181116
 30
0.0
 10
145.2532041232626
 20
218.860846126982
 30
0.0
 10
142.7406305666316
 20
215.9313880689
 30
0.0
 10
140.6917289743212
 20
212.6371313853764
 30
0.0
 10
139.173681834145
 20
209.0273613248311
 30
0.0
 10
138.1832070176472
 20
205.1526360175513
 30
0.0
 10
138.0594505562537
 20
202.4740005520636
 30
0.0
 10
137.9967592093529
 20
201.1170833996442
 30
0.0
  0
LINE
  5
18C
330
1F
100
AcDbEntity
  8
0
  6
Continuous
 62
     7
370
    25
100
AcDbLine
 10
138.881878871
 20
194.8019549875
 30
0.0
 11
139.1362063024
 21
193.7702316484
 31
0.0
  0
SPLINE
  5
18D
330
1F
100
AcDbEntity
  8
0
  6
Continuous
 62
     7
370
    25
100
AcDbSpline
210
0.0
220
0.0
230
1.0
 70
     8
 71
     3
 72
    10
 73
     6
 74
     0
 42
0.000000001
 43
0.00000001
 40
0.0
 40
0.0
 40
0.0
 40
0.0
 40
0.3970213179604363
 40
0.8766453876096969
 40
1.0
 40
1.0
 40
1.0
 40
1.0
 10
161.0160234286816
 20
225.634328990331
 30
0.0
 10
161.0303931721975
 20
225.6282334560593
 30
0.0
 10
161.0621223736396
 20
225.6147741737423
 30
0.0
 10
161.366800646557
 20
225.6210877521866
 30
0.0
 10
161.714636611217
 20
225.6291081999479
 30
0.0
 10
161.7857952970446
 20
225.6307489863541
 30
0.0
  0
SPLINE
  5
18E
330
1F
100
AcDbEntity
  8
0
  6
Continuous
 62
     7
370
    25
100
AcDbSpline
210
0.0
220
0.0
230
1.0
 70
     8
 71
     3
 72
    14
 73
    10
 74
     0
 42
0.000000001
 43
0.00000001
 40
0.0
 40
0.0
 40
0.0
 40
0.0
 40
0.2499999999999999
 40
0.2499999999999999
 40
0.4999999999999999
 40
0.4999999999999999
 40
0.7499999999999999
 40
0.7499999999999999
 40
1.0
 40
1.0
 40
1.0
 40
1.0
 10
161.7857952574016
 20
225.6307498319543
 30
0.0
 10
161.8445689359832
 20
225.6320800535839
 30
0.0
 10
161.9115663734712
 20
225.6336805347111
 30
0.0
 10
162.0674391507446
 20
225.6372359303121
 30
0.0
 10
162.1574635468633
 20
225.6392169753707
 30
0.0
 10
162.3599967892042
 20
225.642986196398
 30
0.0
 10
162.4752829954235
 20
225.6448128478766
 30
0.0
 10
162.724076575838
 20
225.6474507418769
 30
0.0
 10
162.8596437340007
 20
225.648256518785
 30
0.0
 10
162.9967595818817
 20
225.6482584550487
 30
0.0
  0
LINE
  5
18F
330
1F
100
AcDbEntity
  8
0
  6
Continuous
 62
     7
370
    25
100
AcDbLine
 10
174.6103809583
 20
96.0150286249
 30
0.0
 11
174.9467597711
 21
96.0150286249
 31
0.0
  0
LINE
  5
190
330
1F
100
AcDbEntity
  8
0
  6
Continuous
 62
     7
370
    25
100
AcDbLine
 10
174.6103809583
 20
93.0650308422
 30
0.0
 11
174.6103809583
 21
96.0150286249
 31
0.0
  0
LINE
  5
191
330
1F
100
AcDbEntity
  8
0
  6
Continuous
 62
     7
370
    25
100
AcDbLine
 10
152.9041435006
 20
93.0650308422
 30
0.0
 11
174.6103809583
 21
93.0650308422
 31
0.0
  0
LINE
  5
192
330
1F
100
AcDbEntity
  8
0
  6
Continuous
 62
     7
370
    25
100
AcDbLine
 10
152.9041435006
 20
93.0650308422
 30
0.0
 11
152.9041435006
 21
96.0150286249
 31
0.0
  0
LINE
  5
193
330
1F
100
AcDbEntity
  8
0
  6
Continuous
 62
     7
370
    25
100
AcDbLine
 10
152.9041435006
 20
96.0150286249
 30
0.0
 11
151.0467593926
 21
96.0150286249
 31
0.0
  0
LINE
  5
194
330
1F
100
AcDbEntity
  8
0
  6
Continuous
 62
     7
370
    25
100
AcDbLine
 10
151.3831382054
 20
96.0150286249
 30
0.0
 11
151.3831382054
 21
93.0650308422
 31
0.0
  0
LINE
  5
195
330
1F
100
AcDbEntity
  8
0
  6
Continuous
 62
     7
370
    25
100
AcDbLine
 10
152.345797922
 20
92.3150330475
 30
0.0
 11
173.6477212417
 21
92.3150330475
 31
0.0
  0
SPLINE
  5
196
330
1F
100
AcDbEntity
  8
0
  6
Continuous
 62
     7
370
    25
100
AcDbSpline
210
0.0
220
0.0
230
1.0
 70
     8
 71
     3
 72
    14
 73
    10
 74
     0
 42
0.000000001
 43
0.00000001
 40
0.0
 40
0.0
 40
0.0
 40
0.0
 40
0.5000000000000048
 40
0.5000000000000048
 40
0.6250000000000027
 40
0.6250000000000027
 40
0.7500000000000004
 40
0.7500000000000004
 40
1.0
 40
1.0
 40
1.0
 40
1.0
 10
151.3831384576836
 20
93.0650321569163
 30
0.0
 10
151.6338052355754
 20
92.71783686578496
 30
0.0
 10
151.8861983153328
 20
92.51792893242079
 30
0.0
 10
152.2045983735774
 20
92.51621368881099
 30
0.0
 10
152.2684198361604
 20
92.52793917133256
 30
0.0
 10
152.3963447380068
 20
92.57544826224874
 30
0.0
 10
152.4605692141126
 20
92.61135198807467
 30
0.0
 10
152.6520748415189
 20
92.75247414508432
 30
0.0
 10
152.7785734327371
 20
92.89110642783682
 30
0.0
 10
152.9041436923104
 20
93.06503216034395
 30
0.0
  0
SPLINE
  5
197
330
1F
100
AcDbEntity
  8
0
  6
Continuous
 62
     7
370
    25
100
AcDbSpline
210
0.0
220
0.0
230
1.0
 70
     8
 71
     3
 72
    10
 73
     6
 74
     0
 42
0.000000001
 43
0.00000001
 40
0.0
 40
0.0
 40
0.0
 40
0.0
 40
0.1801522370861991
 40
0.5895138704496647
 40
1.0
 40
1.0
 40
1.0
 40
1.0
 10
174.1456323671521
 20
92.61099246059925
 30
0.0
 10
174.1738192180456
 20
92.62540324629597
 30
0.0
 10
174.2660553169958
 20
92.6725597967209
 30
0.0
 10
174.4213628522551
 20
92.82136247356391
 30
0.0
 10
174.5473173369445
 20
92.98373381692275
 30
0.0
 10
174.6103809583367
 20
93.06503084217579
 30
0.0
  0
ARC
  5
198
330
1F
100
AcDbEntity
  8
0
  6
Continuous
 62
     7
370
    25
100
AcDbCircle
 10
162.9967595819
 20
224.0395770975
 30
0.0
 40
20.0076164686531
100
AcDbArc
 50
84.2630213601
 51
95.7369786399
  0
SPLINE
  5
199
330
1F
100
AcDbEntity
  8
0
  6
Continuous
 62
     8
370
    18
100
AcDbSpline
210
0.0
220
0.0
230
1.0
 70
     8
 71
     3
 72
    13
 73
     9
 74
     0
 42
0.000000001
 43
0.00000001
 40
0.0
 40
0.0
 40
0.0
 40
0.0
 40
0.0136965532953378
 40
0.2308761604760272
 40
0.4577725252435582
 40
0.6964225389505109
 40
0.8457438873289951
 40
1.0
 40
1.0
 40
1.0
 40
1.0
 10
185.6076884451689
 20
198.6645548297968
 30
0.0
 10
185.6104393301912
 20
198.6862936032498
 30
0.0
 10
185.6568096657181
 20
199.0527335710327
 30
0.0
 10
185.6641593219053
 20
199.5312524902939
 30
0.0
 10
185.6871794709478
 20
200.1896524984691
 30
0.0
 10
185.6769901892766
 20
200.586827184038
 30
0.0
 10
185.6646447829393
 20
200.8471483091479
 30
0.0
 10
185.6556964434634
 20
200.9408676981007
 30
0.0
 10
185.6511495444359
 20
200.9884891143013
 30
0.0
  0
SPLINE
  5
19A
330
1F
100
AcDbEntity
  8
0
  6
Continuous
 62
     8
370
    18
100
AcDbSpline
210
0.0
220
0.0
230
1.0
 70
     8
 71
     3
 72
    13
 73
     9
 74
     0
 42
0.000000001
 43
0.00000001
 40
0.0
 40
0.0
 40
0.0
 40
0.0
 40
0.0136965532953378
 40
0.2308761604760272
 40
0.4577725252435582
 40
0.6964225389505109
 40
0.8457438873289951
 40
1.0
 40
1.0
 40
1.0
 40
1.0
 10
140.3858307185949
 20
198.6645548297968
 30
0.0
 10
140.3830798335726
 20
198.6862936032498
 30
0.0
 10
140.3367094980457
 20
199.0527335710327
 30
0.0
 10
140.3293598418584
 20
199.5312524902939
 30
0.0
 10
140.306339692816
 20
200.1896524984691
 30
0.0
 10
140.3165289744871
 20
200.586827184038
 30
0.0
 10
140.3288743808245
 20
200.8471483091479
 30
0.0
 10
140.3378227203004
 20
200.9408676981007
 30
0.0
 10
140.3423696193279
 20
200.9884891143013
 30
0.0
  0
LINE
  5
19B
330
1F
100
AcDbEntity
  8
0
  6
Continuous
 62
     8
370
    18
100
AcDbLine
 10
140.3858567956
 20
198.3125502869
 30
0.0
 11
140.3425428453
 21
200.9687215744
 31
0.0
  0
SPLINE
  5
19C
330
1F
100
AcDbEntity
  8
0
  6
Continuous
 62
     8
370
    18
100
AcDbSpline
210
0.0
220
0.0
230
1.0
 70
     8
 71
     3
 72
    12
 73
     8
 74
     0
 42
0.000000001
 43
0.00000001
 40
0.0
 40
0.0
 40
0.0
 40
0.0
 40
0.1955469945527452
 40
0.3935729382664618
 40
0.5938216086904337
 40
0.7960448836274108
 40
1.0
 40
1.0
 40
1.0
 40
1.0
 10
185.651315559064
 20
200.9884691305238
 30
0.0
 10
185.6496057806322
 20
201.0029880144351
 30
0.0
 10
185.646164548908
 20
201.0322098381424
 30
0.0
 10
185.6407530042601
 20
201.066721507062
 30
0.0
 10
185.6353629697456
 20
201.0946880110146
 30
0.0
 10
185.6300188822236
 20
201.1160268813787
 30
0.0
 10
185.6264227187774
 20
201.1244099811011
 30
0.0
 10
185.6246169704908
 20
201.1286194026657
 30
0.0
  0
SPLINE
  5
19D
330
1F
100
AcDbEntity
  8
0
  6
Continuous
 62
     8
370
    18
100
AcDbSpline
210
0.0
220
0.0
230
1.0
 70
     8
 71
     3
 72
    11
 73
     7
 74
     0
 42
0.000000001
 43
0.00000001
 40
0.0
 40
0.0
 40
0.0
 40
0.0
 40
0.2556419835154881
 40
0.5074711816632057
 40
0.7555638837190698
 40
1.0
 40
1.0
 40
1.0
 40
1.0
 10
140.3690181602841
 20
201.1286508309178
 30
0.0
 10
140.3667109050068
 20
201.1231812413904
 30
0.0
 10
140.3621308061284
 20
201.1123236388069
 30
0.0
 10
140.3553485893113
 20
201.0819926465237
 30
0.0
 10
140.3487275352826
 20
201.0424672622711
 30
0.0
 10
140.3444788297778
 20
201.0063925522157
 30
0.0
 10
140.3423702484438
 20
200.9884891084098
 30
0.0
  0
SPLINE
  5
19E
330
1F
100
AcDbEntity
  8
0
  6
Continuous
 62
     8
370
    18
100
AcDbSpline
210
0.0
220
0.0
230
1.0
 70
     8
 71
     3
 72
    16
 73
    12
 74
     0
 42
0.000000001
 43
0.00000001
 40
0.0
 40
0.0
 40
0.0
 40
0.0
 40
0.0625000000000003
 40
0.0625000000000003
 40
0.1250000000000006
 40
0.1250000000000006
 40
0.2500000000000006
 40
0.2500000000000006
 40
0.5000000000000004
 40
0.5000000000000004
 40
1.0
 40
1.0
 40
1.0
 40
1.0
 10
183.3642672742138
 20
160.4417467946282
 30
0.0
 10
183.4276732878969
 20
161.2879105084832
 30
0.0
 10
183.50180953247
 20
162.1335179025364
 30
0.0
 10
183.6369065557011
 20
163.8254028230112
 30
0.0
 10
183.6977377406675
 20
164.6716870369654
 30
0.0
 10
183.8633044301768
 20
167.2113994622497
 30
0.0
 10
183.9528342071938
 20
168.9055988600123
 30
0.0
 10
184.2083685750448
 20
173.9888269183947
 30
0.0
 10
184.3465652046081
 20
177.3792455616459
 30
0.0
 10
184.6802541856609
 20
187.5545197158909
 30
0.0
 10
184.7987854688149
 20
194.3414941830001
 30
0.0
 10
184.7937759223798
 20
201.1289709343085
 30
0.0
  0
SPLINE
  5
19F
330
1F
100
AcDbEntity
  8
0
  6
Continuous
 62
     8
370
    18
100
AcDbSpline
210
0.0
220
0.0
230
1.0
 70
     8
 71
     3
 72
    12
 73
     8
 74
     0
 42
0.000000001
 43
0.00000001
 40
0.0
 40
0.0
 40
0.0
 40
0.0
 40
0.25
 40
0.25
 40
0.5
 40
0.5
 40
1.0
 40
1.0
 40
1.0
 40
1.0
 10
179.0444944138409
 20
123.2452592733534
 30
0.0
 10
179.5429927644814
 20
126.32650115998
 30
0.0
 10
180.0018855649051
 20
129.4149022519485
 30
0.0
 10
180.8526447782425
 20
135.5997154530974
 30
0.0
 10
181.2437459620155
 20
138.6960875748055
 30
0.0
 10
182.318279436234
 20
147.9964606138463
 30
0.0
 10
182.9048445138432
 20
154.2127699814022
 30
0.0
 10
183.3641792056502
 20
160.4405311283357
 30
0.0
  0
SPLINE
  5
1A0
330
1F
100
AcDbEntity
  8
0
  6
Continuous
 62
     8
370
    18
100
AcDbSpline
210
0.0
220
0.0
230
1.0
 70
     8
 71
     3
 72
     8
 73
     4
 74
     0
 42
0.000000001
 43
0.00000001
 40
0.0
 40
0.0
 40
0.0
 40
0.0
 40
1.0
 40
1.0
 40
1.0
 40
1.0
 10
178.5553851629535
 20
120.3899385559807
 30
0.0
 10
178.7328742363642
 20
121.3390464449595
 30
0.0
 10
178.8897670282181
 20
122.2919825776014
 30
0.0
 10
179.0444944138719
 20
123.2452592733485
 30
0.0
  0
SPLINE
  5
1A1
330
1F
100
AcDbEntity
  8
0
  6
Continuous
 62
     8
370
    18
100
AcDbSpline
210
0.0
220
0.0
230
1.0
 70
     8
 71
     3
 72
    15
 73
    11
 74
     0
 42
0.000000001
 43
0.00000001
 40
0.0
 40
0.0
 40
0.0
 40
0.0
 40
0.4999999999999932
 40
0.4999999999999932
 40
0.7499999999999825
 40
0.7499999999999825
 40
0.8749999999999841
 40
0.9374999999999921
 40
0.9374999999999921
 40
1.0
 40
1.0
 40
1.0
 40
1.0
 10
177.9626486423434
 20
117.7243458277487
 30
0.0
 10
178.0910701789479
 20
118.1610867995931
 30
0.0
 10
178.1932605946975
 20
118.6052807117906
 30
0.0
 10
178.3359040888307
 20
119.2730913527042
 30
0.0
 10
178.3817588608586
 20
119.496050392754
 30
0.0
 10
178.448374950367
 20
119.830942331774
 30
0.0
 10
178.4811422159046
 20
119.9985016461701
 30
0.0
 10
178.5131743695677
 20
120.1662152924396
 30
0.0
 10
178.5343743050874
 20
120.278056909417
 30
0.0
 10
178.5434210192846
 20
120.3342920620528
 30
0.0
 10
178.5553851629535
 20
120.3899385559807
 30
0.0
  0
SPLINE
  5
1A2
330
1F
100
AcDbEntity
  8
0
  6
Continuous
 62
     8
370
    18
100
AcDbSpline
210
0.0
220
0.0
230
1.0
 70
     8
 71
     3
 72
    22
 73
    18
 74
     0
 42
0.000000001
 43
0.00000001
 40
0.0
 40
0.0
 40
0.0
 40
0.0
 40
0.2500000000000017
 40
0.2500000000000017
 40
0.3750000000000025
 40
0.3750000000000025
 40
0.5000000000000033
 40
0.5000000000000033
 40
0.6250000000000042
 40
0.6250000000000042
 40
0.750000000000005
 40
0.750000000000005
 40
0.8750000000000058
 40
0.8750000000000058
 40
0.9375000000000029
 40
0.9375000000000029
 40
1.0
 40
1.0
 40
1.0
 40
1.0
 10
173.3269627978134
 20
114.1233219737327
 30
0.0
 10
173.8558030486094
 20
114.1744292984946
 30
0.0
 10
174.3795921411659
 20
114.2491806362391
 30
0.0
 10
175.1436608800372
 20
114.4625153972006
 30
0.0
 10
175.3967873779256
 20
114.5525158636887
 30
0.0
 10
175.8800553529856
 20
114.7765974762825
 30
0.0
 10
176.109962702118
 20
114.9087078180632
 30
0.0
 10
176.5426848467274
 20
115.2193052879185
 30
0.0
 10
176.7446326494078
 20
115.3979307651962
 30
0.0
 10
177.0919423755337
 20
115.7948583989388
 30
0.0
 10
177.2412598304249
 20
116.0155919439168
 30
0.0
 10
177.5013941483155
 20
116.4817472445275
 30
0.0
 10
177.6106012882951
 20
116.7233356799316
 30
0.0
 10
177.7553983811923
 20
117.0934894221268
 30
0.0
 10
177.8004626730814
 20
117.2181825179598
 30
0.0
 10
177.8853133590668
 20
117.4697273916827
 30
0.0
 10
177.9238872334132
 20
117.5982880872431
 30
0.0
 10
177.9626486423434
 20
117.7243458277487
 30
0.0
  0
SPLINE
  5
1A3
330
1F
100
AcDbEntity
  8
0
  6
Continuous
 62
     8
370
    18
100
AcDbSpline
210
0.0
220
0.0
230
1.0
 70
     8
 71
     3
 72
    10
 73
     6
 74
     0
 42
0.000000001
 43
0.00000001
 40
0.0
 40
0.0
 40
0.0
 40
0.0
 40
0.5
 40
0.5
 40
1.0
 40
1.0
 40
1.0
 40
1.0
 10
162.9967595818815
 20
113.6432355330897
 30
0.0
 10
164.7208110102631
 20
113.6418736869345
 30
0.0
 10
166.4449079754201
 20
113.6800821373574
 30
0.0
 10
169.8902942558321
 20
113.8381533954235
 30
0.0
 10
171.610841881143
 20
113.9578795557959
 30
0.0
 10
173.3271586455988
 20
114.1233570513519
 30
0.0
  0
SPLINE
  5
1A4
330
1F
100
AcDbEntity
  8
0
  6
Continuous
 62
     8
370
    18
100
AcDbSpline
210
0.0
220
0.0
230
1.0
 70
     8
 71
     3
 72
    10
 73
     6
 74
     0
 42
0.000000001
 43
0.00000001
 40
0.0
 40
0.0
 40
0.0
 40
0.0
 40
0.5
 40
0.5
 40
1.0
 40
1.0
 40
1.0
 40
1.0
 10
162.9967595818815
 20
113.6432355330897
 30
0.0
 10
161.2727081534719
 20
113.64187370089
 30
0.0
 10
159.5486111883428
 20
113.6800821373573
 30
0.0
 10
156.1032249079309
 20
113.8381533954235
 30
0.0
 10
154.3826772826199
 20
113.9578795557959
 30
0.0
 10
152.6663605181642
 20
114.1233570513519
 30
0.0
  0
SPLINE
  5
1A5
330
1F
100
AcDbEntity
  8
0
  6
Continuous
 62
     8
370
    18
100
AcDbSpline
210
0.0
220
0.0
230
1.0
 70
     8
 71
     3
 72
    22
 73
    18
 74
     0
 42
0.000000001
 43
0.00000001
 40
0.0
 40
0.0
 40
0.0
 40
0.0
 40
0.2500000000000023
 40
0.2500000000000023
 40
0.375000000000003
 40
0.375000000000003
 40
0.5000000000000038
 40
0.5000000000000038
 40
0.6250000000000046
 40
0.6250000000000046
 40
0.7500000000000052
 40
0.7500000000000052
 40
0.875000000000006
 40
0.875000000000006
 40
0.937500000000003
 40
0.937500000000003
 40
1.0
 40
1.0
 40
1.0
 40
1.0
 10
152.6665563659496
 20
114.1233219737327
 30
0.0
 10
152.1377161151536
 20
114.1744292984947
 30
0.0
 10
151.6139270225969
 20
114.2491806362387
 30
0.0
 10
150.8498582837257
 20
114.4625153972004
 30
0.0
 10
150.5967317858373
 20
114.5525158636887
 30
0.0
 10
150.1134638107775
 20
114.7765974762828
 30
0.0
 10
149.883556461645
 20
114.9087078180632
 30
0.0
 10
149.450834317036
 20
115.219305287919
 30
0.0
 10
149.2488865143553
 20
115.3979307651961
 30
0.0
 10
148.9015767882295
 20
115.7948583989385
 30
0.0
 10
148.7522593333384
 20
116.0155919439162
 30
0.0
 10
148.4921250154479
 20
116.4817472445266
 30
0.0
 10
148.3829178754683
 20
116.7233356799306
 30
0.0
 10
148.2381207825711
 20
117.0934894221255
 30
0.0
 10
148.1930564906821
 20
117.2181825179584
 30
0.0
 10
148.1082058046967
 20
117.4697273916812
 30
0.0
 10
148.0696508453112
 20
117.5982937591145
 30
0.0
 10
148.0308705214196
 20
117.7243458277487
 30
0.0
  0
SPLINE
  5
1A6
330
1F
100
AcDbEntity
  8
0
  6
Continuous
 62
     8
370
    18
100
AcDbSpline
210
0.0
220
0.0
230
1.0
 70
     8
 71
     3
 72
    19
 73
    15
 74
     0
 42
0.000000001
 43
0.00000001
 40
0.0
 40
0.0
 40
0.0
 40
0.0
 40
0.1249999999999964
 40
0.1249999999999964
 40
0.2499999999999929
 40
0.2499999999999929
 40
0.4999999999999852
 40
0.4999999999999852
 40
0.7499999999999776
 40
0.7499999999999776
 40
0.8749999999999809
 40
0.9374999999999905
 40
0.9374999999999905
 40
1.0
 40
1.0
 40
1.0
 40
1.0
 10
148.0308705214196
 20
117.7243458277487
 30
0.0
 10
147.9974207613939
 20
117.8331458991691
 30
0.0
 10
147.9682948142319
 20
117.9432533151
 30
0.0
 10
147.9100677216141
 20
118.1632980032219
 30
0.0
 10
147.8822955835402
 20
118.273671272404
 30
0.0
 10
147.8020695293273
 20
118.6056010643454
 30
0.0
 10
147.7527107376877
 20
118.8278842587618
 30
0.0
 10
147.6576150749323
 20
119.2730913527042
 30
0.0
 10
147.6117603029044
 20
119.496050392754
 30
0.0
 10
147.545144213396
 20
119.830942331774
 30
0.0
 10
147.5123769478583
 20
119.9985016461701
 30
0.0
 10
147.4803447941952
 20
120.1662152924396
 30
0.0
 10
147.4591448586756
 20
120.278056909417
 30
0.0
 10
147.4501181561309
 20
120.3342963017357
 30
0.0
 10
147.4381340008094
 20
120.3899385559807
 30
0.0
  0
SPLINE
  5
1A7
330
1F
100
AcDbEntity
  8
0
  6
Continuous
 62
     8
370
    18
100
AcDbSpline
210
0.0
220
0.0
230
1.0
 70
     8
 71
     3
 72
    15
 73
    11
 74
     0
 42
0.000000001
 43
0.00000001
 40
0.0
 40
0.0
 40
0.0
 40
0.0
 40
0.0625000000000028
 40
0.0625000000000028
 40
0.1250000000000057
 40
0.2500000000000108
 40
0.2500000000000108
 40
0.5000000000000072
 40
0.5000000000000072
 40
1.0
 40
1.0
 40
1.0
 40
1.0
 10
147.4381340008094
 20
120.3899385559807
 30
0.0
 10
147.4254170122776
 20
120.4489644237075
 30
0.0
 10
147.4160251617875
 20
120.5086159408494
 30
0.0
 10
147.3941522076984
 20
120.6273345732342
 30
0.0
 10
147.361573715774
 20
120.8054529127902
 30
0.0
 10
147.3296435330621
 20
120.9836847849919
 30
0.0
 10
147.2665312304086
 20
121.3402799914823
 30
0.0
 10
147.2254500017321
 20
121.5781846872339
 30
0.0
 10
147.1043265655284
 20
122.2922764250291
 30
0.0
 10
147.0263539504735
 20
122.7688320389522
 30
0.0
 10
146.9489836218781
 20
123.2455126637455
 30
0.0
  0
SPLINE
  5
1A8
330
1F
100
AcDbEntity
  8
0
  6
Continuous
 62
     8
370
    18
100
AcDbSpline
210
0.0
220
0.0
230
1.0
 70
     8
 71
     3
 72
    12
 73
     8
 74
     0
 42
0.000000001
 43
0.00000001
 40
0.0
 40
0.0
 40
0.0
 40
0.0
 40
0.25
 40
0.25
 40
0.5
 40
0.5
 40
1.0
 40
1.0
 40
1.0
 40
1.0
 10
146.9489837521286
 20
123.2455126832217
 30
0.0
 10
146.450490990933
 20
126.3267338184641
 30
0.0
 10
145.9916030255228
 20
129.4151140276339
 30
0.0
 10
145.1408524823503
 20
135.5998851695274
 30
0.0
 10
144.7497551174576
 20
138.696236200384
 30
0.0
 10
143.6752317098622
 20
147.9965458068937
 30
0.0
 10
143.08867150184
 20
154.2128126637605
 30
0.0
 10
142.6293399581128
 20
160.4405311283357
 30
0.0
  0
SPLINE
  5
1A9
330
1F
100
AcDbEntity
  8
0
  6
Continuous
 62
     8
370
    18
100
AcDbSpline
210
0.0
220
0.0
230
1.0
 70
     8
 71
     3
 72
    16
 73
    12
 74
     0
 42
0.000000001
 43
0.00000001
 40
0.0
 40
0.0
 40
0.0
 40
0.0
 40
0.0624999999999998
 40
0.0624999999999998
 40
0.1249999999999996
 40
0.1249999999999996
 40
0.2499999999999997
 40
0.2499999999999997
 40
0.4999999999999998
 40
0.4999999999999998
 40
1.0
 40
1.0
 40
1.0
 40
1.0
 10
142.6292518895492
 20
160.4417467946282
 30
0.0
 10
142.5658458758661
 20
161.2879105084832
 30
0.0
 10
142.4917096312929
 20
162.1335179025364
 30
0.0
 10
142.3566126080619
 20
163.8254028230112
 30
0.0
 10
142.2957814230955
 20
164.6716870369654
 30
0.0
 10
142.1302147335862
 20
167.2113994622497
 30
0.0
 10
142.0406849565691
 20
168.9055988600123
 30
0.0
 10
141.785150588718
 20
173.9888269183947
 30
0.0
 10
141.6469539591549
 20
177.3792455616458
 30
0.0
 10
141.313264978102
 20
187.5545197158909
 30
0.0
 10
141.1947336949482
 20
194.3414941830001
 30
0.0
 10
141.1997432413832
 20
201.1289709343085
 30
0.0
  0
SPLINE
  5
1AA
330
1F
100
AcDbEntity
  8
0
  6
Continuous
 62
     8
370
    18
100
AcDbSpline
210
0.0
220
0.0
230
1.0
 70
     8
 71
     3
 72
    45
 73
    41
 74
     0
 42
0.000000001
 43
0.00000001
 40
0.0
 40
0.0
 40
0.0
 40
0.0
 40
0.0078125
 40
0.0078125
 40
0.015625
 40
0.0312500000000001
 40
0.0312500000000001
 40
0.0625000000000001
 40
0.0625000000000001
 40
0.1250000000000001
 40
0.1250000000000001
 40
0.1875000000000002
 40
0.1875000000000002
 40
0.2500000000000003
 40
0.2500000000000003
 40
0.3750000000000005
 40
0.3750000000000005
 40
0.4375000000000006
 40
0.4375000000000006
 40
0.5000000000000007
 40
0.5000000000000007
 40
0.6250000000000006
 40
0.6250000000000006
 40
0.6562500000000006
 40
0.6562500000000006
 40
0.6875000000000006
 40
0.6875000000000006
 40
0.7500000000000004
 40
0.8125000000000003
 40
0.8125000000000003
 40
0.8750000000000002
 40
0.8750000000000002
 40
0.9375000000000002
 40
0.9375000000000002
 40
0.9687500000000001
 40
0.9687500000000001
 40
0.9843750000000001
 40
0.9921875000000001
 40
0.9921875000000001
 40
1.0
 40
1.0
 40
1.0
 40
1.0
 10
184.7936351944122
 20
201.1369210241584
 30
0.0
 10
184.7937833275232
 20
201.2257714640395
 30
0.0
 10
184.7933553816991
 20
201.3170952331422
 30
0.0
 10
184.7913475094925
 20
201.4969818439529
 30
0.0
 10
184.7866140396657
 20
201.7665242156268
 30
0.0
 10
184.7767732846306
 20
202.0352122466718
 30
0.0
 10
184.7504245893184
 20
202.5714693329641
 30
0.0
 10
184.7239738462935
 20
202.9274828522315
 30
0.0
 10
184.61894673722
 20
203.9911840408296
 30
0.0
 10
184.5149967463531
 20
204.6945691820214
 30
0.0
 10
184.2393954093835
 20
206.0898802444878
 30
0.0
 10
184.0676503664884
 20
206.7817970894307
 30
0.0
 10
183.6545104097222
 20
208.1538771529187
 30
0.0
 10
183.412035960969
 20
208.835771463315
 30
0.0
 10
182.5949545425937
 20
210.8199862697272
 30
0.0
 10
181.9280329129314
 20
212.0756331453847
 30
0.0
 10
180.7454994327189
 20
213.8590082012277
 30
0.0
 10
180.3190956199147
 20
214.4386691900819
 30
0.0
 10
179.4100933342152
 20
215.5539954387484
 30
0.0
 10
178.9316526539203
 20
216.0849924941495
 30
0.0
 10
177.4266633263538
 20
217.6003781142271
 30
0.0
 10
176.3310710284539
 20
218.5078573441968
 30
0.0
 10
174.8431160867623
 20
219.5102477684589
 30
0.0
 10
174.5386846457908
 20
219.7045655960605
 30
0.0
 10
173.923365715902
 20
220.0761371749172
 30
0.0
 10
173.6122611835332
 20
220.2536069053854
 30
0.0
 10
172.6687958058172
 20
220.7615119170818
 30
0.0
 10
171.3838177156838
 20
221.3734881190854
 30
0.0
 10
170.0455513252404
 20
221.8568479234287
 30
0.0
 10
168.6802653173654
 20
222.2749952171334
 30
0.0
 10
167.9809802931997
 20
222.452036553607
 30
0.0
 10
166.5704677504806
 20
222.7350625182842
 30
0.0
 10
165.8612317387994
 20
222.8410223666433
 30
0.0
 10
164.7915237056035
 20
222.9476282062481
 30
0.0
 10
164.4339818842658
 20
222.9744667338651
 30
0.0
 10
163.8961843201151
 20
223.0014555079092
 30
0.0
 10
163.6269097336212
 20
223.0115944164751
 30
0.0
 10
163.3570463269326
 20
223.0164897159764
 30
0.0
 10
163.1770035921296
 20
223.0185632171333
 30
0.0
 10
163.0856259719944
 20
223.019002644063
 30
0.0
 10
162.9967595818815
 20
223.0188394709565
 30
0.0
  0
SPLINE
  5
1AB
330
1F
100
AcDbEntity
  8
0
  6
Continuous
 62
     8
370
    18
100
AcDbSpline
210
0.0
220
0.0
230
1.0
 70
     8
 71
     3
 72
    45
 73
    41
 74
     0
 42
0.000000001
 43
0.00000001
 40
0.0
 40
0.0
 40
0.0
 40
0.0
 40
0.0078125
 40
0.0078125
 40
0.015625
 40
0.03125
 40
0.03125
 40
0.0625
 40
0.0625
 40
0.1250000000000001
 40
0.1250000000000001
 40
0.1875000000000001
 40
0.1875000000000001
 40
0.2500000000000001
 40
0.2500000000000001
 40
0.375
 40
0.375
 40
0.4375
 40
0.4375
 40
0.4999999999999999
 40
0.4999999999999999
 40
0.6249999999999996
 40
0.6249999999999996
 40
0.6562499999999996
 40
0.6562499999999996
 40
0.6874999999999996
 40
0.6874999999999996
 40
0.7499999999999996
 40
0.8124999999999997
 40
0.8124999999999997
 40
0.8749999999999998
 40
0.8749999999999998
 40
0.9374999999999998
 40
0.9374999999999998
 40
0.9687499999999999
 40
0.9687499999999999
 40
0.9843749999999999
 40
0.9921874999999999
 40
0.9921874999999999
 40
1.0
 40
1.0
 40
1.0
 40
1.0
 10
141.1998839693508
 20
201.1369210241584
 30
0.0
 10
141.1997359624205
 20
201.2257714642747
 30
0.0
 10
141.2001637820639
 20
201.3170952331422
 30
0.0
 10
141.2021716542705
 20
201.4969818439529
 30
0.0
 10
141.2069051240972
 20
201.7665242156268
 30
0.0
 10
141.2167458791323
 20
202.0352122466718
 30
0.0
 10
141.2430945744445
 20
202.5714693329641
 30
0.0
 10
141.2695453174694
 20
202.9274828522315
 30
0.0
 10
141.374572426543
 20
203.9911840408296
 30
0.0
 10
141.4785224174098
 20
204.6945691820214
 30
0.0
 10
141.7541237543794
 20
206.0898802444878
 30
0.0
 10
141.9258687972745
 20
206.7817970894307
 30
0.0
 10
142.3390087540407
 20
208.1538771529187
 30
0.0
 10
142.581483202794
 20
208.835771463315
 30
0.0
 10
143.3985646211693
 20
210.8199862697272
 30
0.0
 10
144.0654862508316
 20
212.0756331453847
 30
0.0
 10
145.248019731044
 20
213.8590082012277
 30
0.0
 10
145.6744235438483
 20
214.4386691900819
 30
0.0
 10
146.5834258295477
 20
215.5539954387484
 30
0.0
 10
147.0618665098427
 20
216.0849924941495
 30
0.0
 10
148.5668558374092
 20
217.600378114227
 30
0.0
 10
149.662448135309
 20
218.5078573441968
 30
0.0
 10
151.1504030770007
 20
219.5102477684589
 30
0.0
 10
151.4548345179722
 20
219.7045655960605
 30
0.0
 10
152.0701534478609
 20
220.0761371749172
 30
0.0
 10
152.3812579802297
 20
220.2536069053854
 30
0.0
 10
153.3247233579457
 20
220.7615119170818
 30
0.0
 10
154.6097014480792
 20
221.3734881190854
 30
0.0
 10
155.9479678385226
 20
221.8568479234287
 30
0.0
 10
157.3132538463975
 20
222.2749952171334
 30
0.0
 10
158.0125388705632
 20
222.4520365536071
 30
0.0
 10
159.4230514132824
 20
222.7350625182843
 30
0.0
 10
160.1322874249636
 20
222.8410223666433
 30
0.0
 10
161.2019954581595
 20
222.947628206248
 30
0.0
 10
161.5595372794972
 20
222.9744667338651
 30
0.0
 10
162.0973348436479
 20
223.0014555079092
 30
0.0
 10
162.3666094301418
 20
223.0115944164751
 30
0.0
 10
162.6364728368303
 20
223.0164897159764
 30
0.0
 10
162.8165155716333
 20
223.0185632171333
 30
0.0
 10
162.9078931915179
 20
223.0190025133614
 30
0.0
 10
162.9967595818815
 20
223.0188394709565
 30
0.0
  0
SPLINE
  5
1AC
330
1F
100
AcDbEntity
  8
0
  6
Continuous
 62
     8
370
    18
100
AcDbSpline
210
0.0
220
0.0
230
1.0
 70
     8
 71
     3
 72
    35
 73
    31
 74
     0
 42
0.000000001
 43
0.00000001
 40
0.0
 40
0.0
 40
0.0
 40
0.0
 40
0.0625
 40
0.0625
 40
0.1249999999999999
 40
0.1249999999999999
 40
0.1875
 40
0.1875
 40
0.25
 40
0.3125
 40
0.3125
 40
0.34375
 40
0.34375
 40
0.375
 40
0.375
 40
0.5
 40
0.5
 40
0.5625
 40
0.5625
 40
0.6249999999999999
 40
0.6249999999999999
 40
0.75
 40
0.75
 40
0.8125000000000001
 40
0.8125000000000001
 40
0.875
 40
0.875
 40
0.9375
 40
0.9375
 40
1.0
 40
1.0
 40
1.0
 40
1.0
 10
162.9967595818815
 20
223.7483680656455
 30
0.0
 10
163.7436587071649
 20
223.7483952015024
 30
0.0
 10
164.4864311106878
 20
223.7114651025746
 30
0.0
 10
165.9639419365213
 20
223.5652242399094
 30
0.0
 10
166.6986718511844
 20
223.4558882560924
 30
0.0
 10
168.1599849166075
 20
223.1639654159214
 30
0.0
 10
168.8844410278755
 20
222.9814234421856
 30
0.0
 10
170.2993398634335
 20
222.5503015480241
 30
0.0
 10
171.6865958261623
 20
222.0519755077397
 30
0.0
 10
173.019303716314
 20
221.4210316361689
 30
0.0
 10
173.9980645751263
 20
220.897324510909
 30
0.0
 10
174.3208503928061
 20
220.714324022382
 30
0.0
 10
174.959356180753
 20
220.3311428251047
 30
0.0
 10
175.2752278360965
 20
220.1307867742352
 30
0.0
 10
176.819368856314
 20
219.0970963097858
 30
0.0
 10
177.9572709417476
 20
218.160768137293
 30
0.0
 10
179.5213991885448
 20
216.5960196020133
 30
0.0
 10
180.0188182326989
 20
216.0475367234599
 30
0.0
 10
180.9641966517144
 20
214.8950378787575
 30
0.0
 10
181.4076093910263
 20
214.296139233869
 30
0.0
 10
182.6379035864638
 20
212.4527286207515
 30
0.0
 10
183.33228880654
 20
211.1541009411303
 30
0.0
 10
184.1834783157897
 20
209.1006872850328
 30
0.0
 10
184.4361431364877
 20
208.3947868611949
 30
0.0
 10
184.8666993867711
 20
206.9744330982984
 30
0.0
 10
185.0457886238185
 20
206.2580953773336
 30
0.0
 10
185.3332242277358
 20
204.8133572071105
 30
0.0
 10
185.4415734760411
 20
204.0849511423095
 30
0.0
 10
185.5870951640867
 20
202.6159802572756
 30
0.0
 10
185.6242615523111
 20
201.8754271434718
 30
0.0
 10
185.6245000378634
 20
201.1286526893679
 30
0.0
  0
SPLINE
  5
1AD
330
1F
100
AcDbEntity
  8
0
  6
Continuous
 62
     8
370
    18
100
AcDbSpline
210
0.0
220
0.0
230
1.0
 70
     8
 71
     3
 72
    35
 73
    31
 74
     0
 42
0.000000001
 43
0.00000001
 40
0.0
 40
0.0
 40
0.0
 40
0.0
 40
0.0624999999999998
 40
0.0624999999999998
 40
0.1249999999999997
 40
0.1249999999999997
 40
0.1874999999999995
 40
0.1874999999999995
 40
0.2499999999999993
 40
0.3124999999999993
 40
0.3124999999999993
 40
0.3437499999999993
 40
0.3437499999999993
 40
0.3749999999999994
 40
0.3749999999999994
 40
0.4999999999999992
 40
0.4999999999999992
 40
0.5624999999999991
 40
0.5624999999999991
 40
0.6249999999999991
 40
0.6249999999999991
 40
0.7499999999999992
 40
0.7499999999999992
 40
0.8124999999999993
 40
0.8124999999999993
 40
0.8749999999999996
 40
0.8749999999999996
 40
0.9374999999999998
 40
0.9374999999999998
 40
1.0
 40
1.0
 40
1.0
 40
1.0
 10
162.9967595818815
 20
223.7483680656455
 30
0.0
 10
162.2498604565981
 20
223.7483952015024
 30
0.0
 10
161.5070880530752
 20
223.7114651025746
 30
0.0
 10
160.0295772272417
 20
223.5652242399094
 30
0.0
 10
159.2948473125786
 20
223.4558882560924
 30
0.0
 10
157.8335342471554
 20
223.1639654159215
 30
0.0
 10
157.1090781358875
 20
222.9814234421856
 30
0.0
 10
155.6941793003294
 20
222.550301548024
 30
0.0
 10
154.3069233376006
 20
222.0519755077397
 30
0.0
 10
152.9742154474489
 20
221.4210316361689
 30
0.0
 10
151.9954545886366
 20
220.897324510909
 30
0.0
 10
151.6726687709569
 20
220.714324022382
 30
0.0
 10
151.0341629830099
 20
220.3311428251048
 30
0.0
 10
150.7182913276665
 20
220.1307867742352
 30
0.0
 10
149.174150307449
 20
219.0970963097858
 30
0.0
 10
148.0362482220154
 20
218.160768137293
 30
0.0
 10
146.4721199752182
 20
216.5960196020133
 30
0.0
 10
145.974700931064
 20
216.0475367234599
 30
0.0
 10
145.0293225120485
 20
214.8950378787575
 30
0.0
 10
144.5859097727366
 20
214.296139233869
 30
0.0
 10
143.3556155772991
 20
212.4527286207515
 30
0.0
 10
142.6612303572229
 20
211.1541009411303
 30
0.0
 10
141.8100408479732
 20
209.1006872850328
 30
0.0
 10
141.5573760272752
 20
208.3947868611949
 30
0.0
 10
141.1268197769919
 20
206.9744330982984
 30
0.0
 10
140.9477305399445
 20
206.2580953773336
 30
0.0
 10
140.6602949360272
 20
204.8133572071105
 30
0.0
 10
140.5519456877219
 20
204.0849511423095
 30
0.0
 10
140.4064239996763
 20
202.6159802572756
 30
0.0
 10
140.3692576114518
 20
201.8754271434718
 30
0.0
 10
140.3690191258995
 20
201.1286526893679
 30
0.0
  0
SPLINE
  5
1AE
330
1F
100
AcDbEntity
  8
0
  6
Continuous
 62
     8
370
    18
100
AcDbSpline
210
0.0
220
0.0
230
1.0
 70
     8
 71
     3
 72
    65
 73
    61
 74
     0
 42
0.000000001
 43
0.00000001
 40
0.0
 40
0.0
 40
0.0
 40
0.0
 40
0.0312499999999999
 40
0.0312499999999999
 40
0.0468749999999999
 40
0.0468749999999999
 40
0.0624999999999999
 40
0.0624999999999999
 40
0.1249999999999998
 40
0.1249999999999998
 40
0.1406249999999998
 40
0.1406249999999998
 40
0.1562499999999998
 40
0.1562499999999998
 40
0.1874999999999998
 40
0.1874999999999998
 40
0.2499999999999998
 40
0.2499999999999998
 40
0.2812499999999998
 40
0.2812499999999998
 40
0.3124999999999998
 40
0.3124999999999998
 40
0.3437499999999999
 40
0.3437499999999999
 40
0.3749999999999999
 40
0.3749999999999999
 40
0.4374999999999999
 40
0.4374999999999999
 40
0.4687499999999999
 40
0.4687499999999999
 40
0.4999999999999999
 40
0.4999999999999999
 40
0.5624999999999999
 40
0.5624999999999999
 40
0.5937499999999999
 40
0.5937499999999999
 40
0.6249999999999999
 40
0.6249999999999999
 40
0.6874999999999999
 40
0.6874999999999999
 40
0.7031249999999999
 40
0.7031249999999999
 40
0.7187499999999999
 40
0.7187499999999999
 40
0.7499999999999999
 40
0.7499999999999999
 40
0.8124999999999999
 40
0.8124999999999999
 40
0.8281249999999998
 40
0.8281249999999998
 40
0.8437499999999998
 40
0.8437499999999998
 40
0.8749999999999998
 40
0.9062499999999999
 40
0.9062499999999999
 40
0.921875
 40
0.921875
 40
0.9374999999999999
 40
0.9374999999999999
 40
1.0
 40
1.0
 40
1.0
 40
1.0
 10
185.6511489153192
 20
200.9884891084098
 30
0.0
 10
185.6555704353892
 20
201.7299100992537
 30
0.0
 10
185.6237051648279
 20
202.473231392536
 30
0.0
 10
185.5199119097978
 20
203.5911426679784
 30
0.0
 10
185.4758237420999
 20
203.9649337003461
 30
0.0
 10
185.3697982460032
 20
204.7054752212514
 30
0.0
 10
185.3078121096364
 20
205.0731180665273
 30
0.0
 10
184.9537962271791
 20
206.8984202804047
 30
0.0
 10
184.5307752516361
 20
208.3177132273894
 30
0.0
 10
183.8267513099561
 20
210.0404853866505
 30
0.0
 10
183.6771049620684
 20
210.3824494732797
 30
0.0
 10
183.3597894357302
 20
211.0610972745866
 30
0.0
 10
183.1921083553244
 20
211.3976462790688
 30
0.0
 10
182.667649825371
 20
212.3881174748826
 30
0.0
 10
182.2877796109103
 20
213.026756987956
 30
0.0
 10
181.0597505021339
 20
214.87928568798
 30
0.0
 10
180.1240413354907
 20
216.0304048335246
 30
0.0
 10
178.5383555318398
 20
217.6265590271975
 30
0.0
 10
177.9851896675837
 20
218.1304126615131
 30
0.0
 10
176.8395122729781
 20
219.0756667567045
 30
0.0
 10
176.2456847896613
 20
219.5183929827613
 30
0.0
 10
175.0163885124659
 20
220.3445521706471
 30
0.0
 10
174.3809210712842
 20
220.7279869633944
 30
0.0
 10
173.0674556754105
 20
221.4343358112446
 30
0.0
 10
172.3862377341229
 20
221.7582754451901
 30
0.0
 10
170.320054100593
 20
222.6180141904204
 30
0.0
 10
168.9026989338768
 20
223.0496784278982
 30
0.0
 10
166.7174466502731
 20
223.4875287468926
 30
0.0
 10
165.9781605490954
 20
223.5983789327736
 30
0.0
 10
164.4828290030017
 20
223.7465994901159
 30
0.0
 10
163.7330832494028
 20
223.7834240957226
 30
0.0
 10
161.4785813650388
 20
223.781913125539
 30
0.0
 10
160.000943471289
 20
223.6327714466825
 30
0.0
 10
157.8209406979632
 20
223.1959681727652
 30
0.0
 10
157.1003937512493
 20
223.0145857225206
 30
0.0
 10
155.6718144530352
 20
222.5785987043417
 30
0.0
 10
154.962330990144
 20
222.3229220424674
 30
0.0
 10
152.8993637878252
 20
221.46205139676
 30
0.0
 10
151.5951386812513
 20
220.7599948410271
 30
0.0
 10
150.0529394082896
 20
219.7234151411782
 30
0.0
 10
149.7489439404035
 20
219.5080764117545
 30
0.0
 10
149.1499870444375
 20
219.0610867407111
 30
0.0
 10
148.8542247926271
 20
218.8287492322109
 30
0.0
 10
147.9883309803034
 20
218.1130354709649
 30
0.0
 10
147.43901944373
 20
217.6109468486831
 30
0.0
 10
145.872416243978
 20
216.0320673573
 30
0.0
 10
144.9356741618038
 20
214.8833589139134
 30
0.0
 10
143.9029857151134
 20
213.3240056058289
 30
0.0
 10
143.7030575981168
 20
213.0052104275925
 30
0.0
 10
143.3214391264491
 20
212.3617779533411
 30
0.0
 10
143.1392711168668
 20
212.036489047339
 30
0.0
 10
142.6182371053459
 20
211.0500917203865
 30
0.0
 10
141.9913245834774
 20
209.7068633706257
 30
0.0
 10
141.498228742572
 20
208.3083097668318
 30
0.0
 10
141.1793848787549
 20
207.2383201650877
 30
0.0
 10
141.0816151104274
 20
206.8781383003112
 30
0.0
 10
140.9034244590896
 20
206.1506030116187
 30
0.0
 10
140.8230451853682
 20
205.78311754495
 30
0.0
 10
140.4690610180047
 20
203.9482595588203
 30
0.0
 10
140.3335213753256
 20
202.4723091909499
 30
0.0
 10
140.3423702484438
 20
200.98848910841
 30
0.0
  0
SPLINE
  5
1AF
330
1F
100
AcDbEntity
  8
0
  6
Continuous
 62
     8
370
    18
100
AcDbSpline
210
0.0
220
0.0
230
1.0
 70
     8
 71
     3
 72
    46
 73
    42
 74
     0
 42
0.000000001
 43
0.00000001
 40
0.0
 40
0.0
 40
0.0
 40
0.0
 40
0.0156249999999998
 40
0.0156249999999998
 40
0.0312499999999997
 40
0.0312499999999997
 40
0.0468749999999995
 40
0.0468749999999995
 40
0.0546874999999994
 40
0.0546874999999994
 40
0.0624999999999994
 40
0.0624999999999994
 40
0.0781249999999991
 40
0.0781249999999991
 40
0.0937499999999988
 40
0.0937499999999988
 40
0.1015624999999988
 40
0.1015624999999988
 40
0.1093749999999988
 40
0.1093749999999988
 40
0.1249999999999989
 40
0.1249999999999989
 40
0.156249999999999
 40
0.156249999999999
 40
0.1874999999999991
 40
0.1874999999999991
 40
0.2499999999999993
 40
0.2499999999999993
 40
0.3749999999999994
 40
0.3749999999999994
 40
0.4999999999999994
 40
0.4999999999999994
 40
0.7499999999999998
 40
0.7499999999999998
 40
0.8749999999999999
 40
0.8749999999999999
 40
0.9374999999999999
 40
0.9374999999999999
 40
0.9687499999999999
 40
0.9687499999999999
 40
1.0
 40
1.0
 40
1.0
 40
1.0
 10
173.2505393500108
 20
97.99477683348366
 30
0.0
 10
173.8102848440857
 20
98.08953168964109
 30
0.0
 10
174.3659083147266
 20
98.20266459614845
 30
0.0
 10
175.4641261639447
 20
98.48704897785156
 30
0.0
 10
176.0061774605197
 20
98.65852637014315
 30
0.0
 10
177.0519760103523
 20
99.07542116011761
 30
0.0
 10
177.5581128320549
 20
99.32062475639385
 30
0.0
 10
178.2840738688516
 20
99.76132570480205
 30
0.0
 10
178.5216277478073
 20
99.92154139410354
 30
0.0
 10
178.9738429285342
 20
100.2625898020003
 30
0.0
 10
179.1896972927333
 20
100.4434883098811
 30
0.0
 10
179.8060343228108
 20
101.0177792617103
 30
0.0
 10
180.1763979534508
 20
101.4431167105516
 30
0.0
 10
180.8179815105343
 20
102.3881283704494
 30
0.0
 10
181.0777688998911
 20
102.88836223693
 30
0.0
 10
181.3974192011661
 20
103.6705499232723
 30
0.0
 10
181.492101227643
 20
103.9366742826924
 30
0.0
 10
181.6598430600675
 20
104.4787504988695
 30
0.0
 10
181.7323884098042
 20
104.7546720394689
 30
0.0
 10
181.9243873079292
 20
105.5806717181128
 30
0.0
 10
182.0228714128316
 20
106.1338633285547
 30
0.0
 10
182.2876601399411
 20
107.7960629532724
 30
0.0
 10
182.4210483422411
 20
108.9078876356767
 30
0.0
 10
182.6684166932192
 20
111.1332180257282
 30
0.0
 10
182.7792233341839
 20
112.2469909146464
 30
0.0
 10
183.0817907095981
 20
115.5908828268572
 30
0.0
 10
183.249993633232
 20
117.8230457203477
 30
0.0
 10
183.6866411161818
 20
124.5254363901426
 30
0.0
 10
183.8884845057707
 20
129.0017025566289
 30
0.0
 10
184.2432736207788
 20
137.9571151610351
 30
0.0
 10
184.4014677092948
 20
142.4354321568812
 30
0.0
 10
184.8641942921175
 20
155.8707888084392
 30
0.0
 10
185.1408237754187
 20
164.8287346901661
 30
0.0
 10
185.5039307168175
 20
178.2673541379005
 30
0.0
 10
185.6162483249068
 20
182.7471857778729
 30
0.0
 10
185.7679426078051
 20
189.4674575293025
 30
0.0
 10
185.8155810684162
 20
191.7076073059059
 30
0.0
 10
185.8828776918504
 20
195.0679162234025
 30
0.0
 10
185.9046484544916
 20
196.1880326123161
 30
0.0
 10
185.9466466875822
 20
198.4282958947323
 30
0.0
 10
185.9668018917604
 20
199.5484440472041
 30
0.0
 10
185.9864973647364
 20
200.6686030740254
 30
0.0
  0
SPLINE
  5
1B0
330
1F
100
AcDbEntity
  8
0
  6
Continuous
 62
     8
370
    18
100
AcDbSpline
210
0.0
220
0.0
230
1.0
 70
     8
 71
     3
 72
    46
 73
    42
 74
     0
 42
0.000000001
 43
0.00000001
 40
0.0
 40
0.0
 40
0.0
 40
0.0
 40
0.0312500000000001
 40
0.0312500000000001
 40
0.0625000000000001
 40
0.0625000000000001
 40
0.1250000000000002
 40
0.1250000000000002
 40
0.2500000000000004
 40
0.2500000000000004
 40
0.5000000000000008
 40
0.5000000000000008
 40
0.6250000000000008
 40
0.6250000000000008
 40
0.7500000000000009
 40
0.7500000000000009
 40
0.8125000000000009
 40
0.8125000000000009
 40
0.843750000000001
 40
0.843750000000001
 40
0.875000000000001
 40
0.875000000000001
 40
0.8906250000000011
 40
0.8906250000000011
 40
0.8984375000000011
 40
0.8984375000000011
 40
0.9062500000000011
 40
0.9062500000000011
 40
0.9218750000000011
 40
0.9218750000000011
 40
0.9375000000000012
 40
0.9375000000000012
 40
0.9453125000000011
 40
0.9453125000000011
 40
0.953125000000001
 40
0.953125000000001
 40
0.9687500000000007
 40
0.9687500000000007
 40
0.9843750000000004
 40
0.9843750000000004
 40
1.0
 40
1.0
 40
1.0
 40
1.0
 10
140.0070217990267
 20
200.6686030740254
 30
0.0
 10
140.0267172720028
 20
199.5484440472045
 30
0.0
 10
140.0468724761816
 20
198.4282958947
 30
0.0
 10
140.0888707092722
 20
196.1880326122844
 30
0.0
 10
140.1106414719135
 20
195.0679162233712
 30
0.0
 10
140.1779380953477
 20
191.7076073058755
 30
0.0
 10
140.2255765559587
 20
189.4674575292729
 30
0.0
 10
140.377270838857
 20
182.7471857778453
 30
0.0
 10
140.4895884469464
 20
178.2673541378743
 30
0.0
 10
140.8526953883451
 20
164.828734690144
 30
0.0
 10
141.1293248716465
 20
155.8707888084199
 30
0.0
 10
141.592051454469
 20
142.4354321568661
 30
0.0
 10
141.7502455429849
 20
137.9571151610214
 30
0.0
 10
142.105034657993
 20
129.001702556618
 30
0.0
 10
142.306878047582
 20
124.525436390133
 30
0.0
 10
142.7435255305317
 20
117.8230457203402
 30
0.0
 10
142.9117284541657
 20
115.5908828268504
 30
0.0
 10
143.2142958295799
 20
112.2469909146406
 30
0.0
 10
143.3251024705445
 20
111.1332180257228
 30
0.0
 10
143.5724708215228
 20
108.9078876356719
 30
0.0
 10
143.7058590238226
 20
107.7960629532679
 30
0.0
 10
143.9706477509322
 20
106.1338633285507
 30
0.0
 10
144.0691318558347
 20
105.5806717181091
 30
0.0
 10
144.26113075396
 20
104.7546720394655
 30
0.0
 10
144.3336761036966
 20
104.4787504988662
 30
0.0
 10
144.5014179361212
 20
103.9366742826893
 30
0.0
 10
144.5960999625983
 20
103.6705499232691
 30
0.0
 10
144.9157502638736
 20
102.8883622369273
 30
0.0
 10
145.1755376532304
 20
102.3881283704469
 30
0.0
 10
145.8171212103141
 20
101.4431167105495
 30
0.0
 10
146.1874848409539
 20
101.0177792617082
 30
0.0
 10
146.8038218710316
 20
100.4434883098795
 30
0.0
 10
147.0196762352305
 20
100.2625898019987
 30
0.0
 10
147.4718914159575
 20
99.92154139410228
 30
0.0
 10
147.7094452949131
 20
99.76132570480074
 30
0.0
 10
148.43540633171
 20
99.32062475639344
 30
0.0
 10
148.941543153412
 20
99.07542116011629
 30
0.0
 10
149.9873417032449
 20
98.65852637014332
 30
0.0
 10
150.5293929998194
 20
98.48704897785055
 30
0.0
 10
151.6276108490375
 20
98.20266459614801
 30
0.0
 10
152.1832343196774
 20
98.08953168964078
 30
0.0
 10
152.7429798137522
 20
97.9947768334837
 30
0.0
  0
SPLINE
  5
1B1
330
1F
100
AcDbEntity
  8
0
  6
Continuous
 62
     8
370
    18
100
AcDbSpline
210
0.0
220
0.0
230
1.0
 70
     8
 71
     3
 72
    23
 73
    19
 74
     0
 42
0.000000001
 43
0.00000001
 40
0.0
 40
0.0
 40
0.0
 40
0.0
 40
0.0765239764182266
 40
0.1506534693801117
 40
0.2223957920224673
 40
0.2917899309432913
 40
0.3589004564693135
 40
0.4238186148028856
 40
0.4866825844373114
 40
0.5476736684354866
 40
0.6070101690981232
 40
0.6649420434269856
 40
0.7217463473905832
 40
0.7777233652676819
 40
0.8331930557685459
 40
0.8884924198513995
 40
0.943973249844063
 40
1.0
 40
1.0
 40
1.0
 40
1.0
 10
152.743645205064
 20
97.9946877584624
 30
0.0
 10
153.0028812000414
 20
97.95182992215108
 30
0.0
 10
153.5132415323129
 20
97.86745529824053
 30
0.0
 10
154.2686317386118
 20
97.75539821098552
 30
0.0
 10
155.0009948484436
 20
97.65537845888895
 30
0.0
 10
155.7106180378024
 20
97.56729932084346
 30
0.0
 10
156.3979085153407
 20
97.4899087524968
 30
0.0
 10
157.0636779141145
 20
97.42212391542759
 30
0.0
 10
157.7091767182901
 20
97.36302810776169
 30
0.0
 10
158.3361249169305
 20
97.31186644048424
 30
0.0
 10
158.9466487465071
 20
97.26801423667496
 30
0.0
 10
159.54321967068
 20
97.23096256369746
 30
0.0
 10
160.1286021507313
 20
97.20029887337056
 30
0.0
 10
160.7058089252398
 20
97.17570929708602
 30
0.0
 10
161.2780642416714
 20
97.15691662982088
 30
0.0
 10
161.8487727617696
 20
97.14388473609178
 30
0.0
 10
162.4214953002353
 20
97.13602729299818
 30
0.0
 10
162.8043799775173
 20
97.13545508745555
 30
0.0
 10
162.9967595818816
 20
97.13516758397883
 30
0.0
  0
SPLINE
  5
1B2
330
1F
100
AcDbEntity
  8
0
  6
Continuous
 62
     8
370
    18
100
AcDbSpline
210
0.0
220
0.0
230
1.0
 70
     8
 71
     3
 72
    11
 73
     7
 74
     0
 42
0.000000001
 43
0.00000001
 40
-0.00000006
 40
-0.00000006
 40
-0.00000006
 40
-0.00000006
 40
0.0
 40
0.0
 40
0.0
 40
0.0004426197136962
 40
0.0004426197136962
 40
0.0004426197136962
 40
0.0004426197136962
 10
140.0031904952218
 20
201.1170833996442
 30
0.0
 10
140.0031904982264
 20
201.1170633996457
 30
0.0
 10
140.0031905012057
 20
201.1170433996471
 30
0.0
 10
140.0031905042362
 20
201.1170233996486
 30
0.0
 10
140.0032128607616
 20
200.9694835058916
 30
0.0
 10
140.0046366395912
 20
200.8219369372456
 30
0.0
 10
140.0074701014948
 20
200.6744244964877
 30
0.0
  0
SPLINE
  5
1B3
330
1F
100
AcDbEntity
  8
0
  6
Continuous
 62
     8
370
    18
100
AcDbSpline
210
0.0
220
0.0
230
1.0
 70
     8
 71
     3
 72
    11
 73
     7
 74
     0
 42
0.000000001
 43
0.00000001
 40
0.0
 40
0.0
 40
0.0
 40
0.0
 40
0.0004426197136962
 40
0.0004426197136962
 40
0.0004426197136962
 40
0.0004426797136962
 40
0.0004426797136962
 40
0.0004426797136962
 40
0.0004426797136962
 10
185.9860490622684
 20
200.6744244964877
 30
0.0
 10
185.988882524172
 20
200.8219369372456
 30
0.0
 10
185.9903063030017
 20
200.9694835058916
 30
0.0
 10
185.990328659527
 20
201.1170233996486
 30
0.0
 10
185.9903286625575
 20
201.1170433996471
 30
0.0
 10
185.9903286655368
 20
201.1170633996457
 30
0.0
 10
185.9903286685415
 20
201.1170833996442
 30
0.0
  0
SPLINE
  5
1B4
330
1F
100
AcDbEntity
  8
0
  6
Continuous
 62
     8
370
    18
100
AcDbSpline
210
0.0
220
0.0
230
1.0
 70
     8
 71
     3
 72
    10
 73
     6
 74
     0
 42
0.000000001
 43
0.00000001
 40
0.0
 40
0.0
 40
0.0
 40
0.0
 40
0.5
 40
0.5
 40
1.0
 40
1.0
 40
1.0
 40
1.0
 10
162.9973885920881
 20
97.13516680214713
 30
0.0
 10
164.7144825638892
 20
97.13303264146008
 30
0.0
 10
166.4311889707317
 20
97.20158835967231
 30
0.0
 10
169.853199980478
 20
97.48772566727123
 30
0.0
 10
171.556923528009
 20
97.7081059946986
 30
0.0
 10
173.249876459574
 20
97.99468818180944
 30
0.0
  0
SPLINE
  5
1B5
330
1F
100
AcDbEntity
  8
0
  6
Continuous
 62
     8
370
    18
100
AcDbSpline
210
0.0
220
0.0
230
1.0
 70
     8
 71
     3
 72
     9
 73
     5
 74
     0
 42
0.000000001
 43
0.00000001
 40
0.0
 40
0.0
 40
0.0
 40
0.0
 40
0.0000436525595199
 40
1.0
 40
1.0
 40
1.0
 40
1.0
 10
185.9903279128851
 20
201.1170833996442
 30
0.0
 10
185.9903279129161
 20
201.1171033996446
 30
0.0
 10
185.9903286246093
 20
201.575266692089
 30
0.0
 10
185.9414187962217
 20
202.031687317183
 30
0.0
 10
185.8925111028732
 20
202.4880880183485
 30
0.0
  0
ARC
  5
1B6
330
1F
100
AcDbEntity
  8
0
  6
Continuous
 62
     8
370
    18
100
AcDbCircle
 10
163.035966763
 20
201.2503177216
 30
0.0
 40
22.86999376663634
100
AcDbArc
 50
11.8687725919
 51
90.0982250861
  0
SPLINE
  5
1B7
330
1F
100
AcDbEntity
  8
0
  6
Continuous
 62
     8
370
    18
100
AcDbSpline
210
0.0
220
0.0
230
1.0
 70
     8
 71
     3
 72
    32
 73
    28
 74
     0
 42
0.000000001
 43
0.00000001
 40
0.0
 40
0.0
 40
0.0
 40
0.0
 40
0.1249999999999996
 40
0.1249999999999996
 40
0.1874999999999994
 40
0.1874999999999994
 40
0.2499999999999992
 40
0.2499999999999992
 40
0.3749999999999991
 40
0.3749999999999991
 40
0.4374999999999991
 40
0.4374999999999991
 40
0.4999999999999991
 40
0.4999999999999991
 40
0.5624999999999991
 40
0.5624999999999991
 40
0.6249999999999991
 40
0.6249999999999991
 40
0.7499999999999994
 40
0.7499999999999994
 40
0.8124999999999996
 40
0.8124999999999996
 40
0.8749999999999997
 40
0.8749999999999997
 40
0.9374999999999999
 40
0.9374999999999999
 40
1.0
 40
1.0
 40
1.0
 40
1.0
 10
162.9967595818816
 20
224.1202777615186
 30
0.0
 10
161.4815538370739
 20
224.1200982006455
 30
0.0
 10
159.9650282775575
 20
223.9713977909432
 30
0.0
 10
157.7429783266479
 20
223.5285460317271
 30
0.0
 10
157.0097603471987
 20
223.3441906878412
 30
0.0
 10
155.5607336206702
 20
222.9015344975557
 30
0.0
 10
154.8534305148339
 20
222.6459078654567
 30
0.0
 10
152.7806311933138
 20
221.7811559274051
 30
0.0
 10
151.4638594264349
 20
221.0749272720616
 30
0.0
 10
149.5887531976368
 20
219.8161905323699
 30
0.0
 10
148.9786977319534
 20
219.3616335434263
 30
0.0
 10
147.8174995291914
 20
218.4055245782049
 30
0.0
 10
147.2629758501874
 20
217.9022316263005
 30
0.0
 10
146.2062709379404
 20
216.8449833037114
 30
0.0
 10
145.7039899807705
 20
216.2911244616491
 30
0.0
 10
144.7518520992083
 20
215.1326654176675
 30
0.0
 10
144.3006086094828
 20
214.5259808643327
 30
0.0
 10
143.0378261757911
 20
212.6407538368909
 30
0.0
 10
142.3312784085499
 20
211.3211698831315
 30
0.0
 10
141.4696591337755
 20
209.2498523660758
 30
0.0
 10
141.2157003606992
 20
208.5439903621834
 30
0.0
 10
140.7761917175802
 20
207.1005330160408
 30
0.0
 10
140.5912909310129
 20
206.3634719376094
 30
0.0
 10
140.2972044252759
 20
204.8836459926051
 30
0.0
 10
140.1869552286631
 20
204.1376586453533
 30
0.0
 10
140.0397754142463
 20
202.6335796995447
 30
0.0
 10
140.0030340986318
 20
201.8746862609153
 30
0.0
 10
140.0031905701005
 20
201.1170833996442
 30
0.0
  0
SPLINE
  5
1B8
330
1F
100
AcDbEntity
  8
0
  6
Continuous
 62
     8
370
    18
100
AcDbSpline
210
0.0
220
0.0
230
1.0
 70
     8
 71
     3
 72
    36
 73
    32
 74
     0
 42
0.000000001
 43
0.00000001
 40
0.0
 40
0.0
 40
0.0
 40
0.0
 40
0.0078125
 40
0.0078125
 40
0.015625
 40
0.0312499999999999
 40
0.0624999999999999
 40
0.0624999999999999
 40
0.1249999999999998
 40
0.1249999999999998
 40
0.1874999999999996
 40
0.1874999999999996
 40
0.2499999999999995
 40
0.2499999999999995
 40
0.3749999999999995
 40
0.3749999999999995
 40
0.4374999999999994
 40
0.4374999999999994
 40
0.4999999999999996
 40
0.4999999999999996
 40
0.5624999999999996
 40
0.5624999999999996
 40
0.6249999999999996
 40
0.6249999999999996
 40
0.7499999999999998
 40
0.7499999999999998
 40
0.8124999999999999
 40
0.8124999999999999
 40
0.8749999999999999
 40
0.8749999999999999
 40
1.0
 40
1.0
 40
1.0
 40
1.0
 10
162.9967595818816
 20
225.1298619093743
 30
0.0
 10
163.094400263573
 20
225.1298501849753
 30
0.0
 10
163.1947177433358
 20
225.1292373735596
 30
0.0
 10
163.3923719317112
 20
225.1268138289871
 30
0.0
 10
163.6885487099116
 20
225.1213814080886
 30
0.0
 10
164.3775027789805
 20
225.0961641032162
 30
0.0
 10
164.9644120076063
 20
225.0531683001919
 30
0.0
 10
166.1334320446254
 20
224.938857716864
 30
0.0
 10
166.9063894682606
 20
224.8249429442885
 30
0.0
 10
168.4394957518651
 20
224.5215206051249
 30
0.0
 10
169.1996461538522
 20
224.3320221006113
 30
0.0
 10
170.7068161852033
 20
223.875530692716
 30
0.0
 10
171.4556077598578
 20
223.6073972375696
 30
0.0
 10
173.6380359150271
 20
222.7012064430193
 30
0.0
 10
175.0226046204989
 20
221.958912202789
 30
0.0
 10
176.9935600431579
 20
220.6375874564591
 30
0.0
 10
177.6278188185097
 20
220.1652358709774
 30
0.0
 10
178.8386106687983
 20
219.1687022915982
 30
0.0
 10
179.417366024002
 20
218.6430471442502
 30
0.0
 10
180.5221913394749
 20
217.53757233208
 30
0.0
 10
181.0482632815273
 20
216.9577547689581
 30
0.0
 10
182.0466863325991
 20
215.7428909387734
 30
0.0
 10
182.5210885680619
 20
215.1043549510364
 30
0.0
 10
183.8346674095066
 20
213.1413511576977
 30
0.0
 10
184.5723263765082
 20
211.7638486340834
 30
0.0
 10
185.4733934644501
 20
209.5951771052336
 30
0.0
 10
185.7392714196577
 20
208.8550968955972
 30
0.0
 10
186.1994394720539
 20
207.3392446089609
 30
0.0
 10
186.3904119129906
 20
206.5741244097213
 30
0.0
 10
186.8478221075291
 20
204.2640508573611
 30
0.0
 10
187.0003375594596
 20
202.7017270564992
 30
0.0
 10
187.0000266483477
 20
201.1170698001385
 30
0.0
  0
SPLINE
  5
1B9
330
1F
100
AcDbEntity
  8
0
  6
Continuous
 62
     8
370
    18
100
AcDbSpline
210
0.0
220
0.0
230
1.0
 70
     8
 71
     3
 72
    32
 73
    28
 74
     0
 42
0.000000001
 43
0.00000001
 40
0.0
 40
0.0
 40
0.0
 40
0.0
 40
0.0625
 40
0.0625
 40
0.1250000000000001
 40
0.1250000000000001
 40
0.1875000000000001
 40
0.1875000000000001
 40
0.2500000000000002
 40
0.2500000000000002
 40
0.3750000000000001
 40
0.3750000000000001
 40
0.4375000000000001
 40
0.4375000000000001
 40
0.5000000000000001
 40
0.5000000000000001
 40
0.5625000000000001
 40
0.5625000000000001
 40
0.6250000000000002
 40
0.6250000000000002
 40
0.75
 40
0.75
 40
0.8125000000000001
 40
0.8125000000000001
 40
0.8750000000000001
 40
0.8750000000000001
 40
1.0
 40
1.0
 40
1.0
 40
1.0
 10
138.9934925154155
 20
201.1170698001777
 30
0.0
 10
138.9933372975556
 20
201.9081869414925
 30
0.0
 10
139.0317107945874
 20
202.7000512776764
 30
0.0
 10
139.1853909932957
 20
204.27006129753
 30
0.0
 10
139.300496127329
 20
205.0487489146586
 30
0.0
 10
139.6075216010433
 20
206.5934422909689
 30
0.0
 10
139.8005550004657
 20
207.3628090526169
 30
0.0
 10
140.2593313923774
 20
208.8695520492809
 30
0.0
 10
140.5244284010822
 20
209.60635886874
 30
0.0
 10
141.4238147728731
 20
211.7684914050291
 30
0.0
 10
142.1612052941958
 20
213.1459903702309
 30
0.0
 10
143.4792168857422
 20
215.1139301890749
 30
0.0
 10
143.9502964341836
 20
215.7472038281241
 30
0.0
 10
144.9442451621915
 20
216.9564262617781
 30
0.0
 10
145.4685700335101
 20
217.5345676607956
 30
0.0
 10
146.5713389679357
 20
218.6384737234992
 30
0.0
 10
147.1497826128315
 20
219.1642387268162
 30
0.0
 10
148.3618810328948
 20
220.1623353579824
 30
0.0
 10
148.9989143761917
 20
220.6366309783863
 30
0.0
 10
150.9568360308217
 20
221.9499830031178
 30
0.0
 10
152.3310329810317
 20
222.6881913584855
 30
0.0
 10
154.4949612442704
 20
223.5909407800034
 30
0.0
 10
155.2334950176954
 20
223.857526524232
 30
0.0
 10
156.7463382478033
 20
224.3193916601613
 30
0.0
 10
157.5118113103901
 20
224.5119182206286
 30
0.0
 10
159.8315521039868
 20
224.9746861815868
 30
0.0
 10
161.4144655212218
 20
225.1296738526081
 30
0.0
 10
162.9967595818816
 20
225.1298619093742
 30
0.0
  0
SPLINE
  5
1BA
330
1F
100
AcDbEntity
  8
0
  6
Continuous
 62
     8
370
    18
100
AcDbSpline
210
0.0
220
0.0
230
1.0
 70
     8
 71
     3
 72
    13
 73
     9
 74
     0
 42
0.000000001
 43
0.00000001
 40
0.0
 40
0.0
 40
0.0
 40
0.0
 40
0.2082813210478821
 40
0.4164335121620489
 40
0.624558398397403
 40
0.7893109746308647
 40
0.9540638270275371
 40
0.9999999999999999
 40
0.9999999999999999
 40
0.9999999999999999
 40
0.9999999999999999
 10
138.9975137445511
 20
200.6489716280196
 30
0.0
 10
138.9866016515827
 20
200.6078957113599
 30
0.0
 10
138.9647842309085
 20
200.525769344224
 30
0.0
 10
138.9050732888418
 20
200.0268163734647
 30
0.0
 10
138.8684585650487
 20
199.2528041437945
 30
0.0
 10
138.8953733903606
 20
198.191151352833
 30
0.0
 10
138.9429659907831
 20
197.30348377467
 30
0.0
 10
139.0567836600032
 20
196.6262490188548
 30
0.0
 10
139.0815991345228
 20
196.4785926668849
 30
0.0
  0
SPLINE
  5
1BB
330
1F
100
AcDbEntity
  8
0
  6
Continuous
 62
     8
370
    18
100
AcDbSpline
210
0.0
220
0.0
230
1.0
 70
     8
 71
     3
 72
    13
 73
     9
 74
     0
 42
0.000000001
 43
0.00000001
 40
0.0
 40
0.0
 40
0.0
 40
0.0
 40
0.2082812688721322
 40
0.4164334083333222
 40
0.6245584921279934
 40
0.7893110272302747
 40
0.9540638384956978
 40
0.9999999999999999
 40
0.9999999999999999
 40
0.9999999999999999
 40
0.9999999999999999
 10
186.9960054192127
 20
200.6489716862273
 30
0.0
 10
187.0069175114046
 20
200.6078958884097
 30
0.0
 10
187.028734930552
 20
200.5257697587879
 30
0.0
 10
187.0884459082068
 20
200.0268158534935
 30
0.0
 10
187.1250605945303
 20
199.2528048634845
 30
0.0
 10
187.0981457775582
 20
198.1911512962812
 30
0.0
 10
187.0505531727455
 20
197.3034837778709
 30
0.0
 10
186.9367355037185
 20
196.6262490194278
 30
0.0
 10
186.911920029241
 20
196.4785926668849
 30
0.0
  0
ENDSEC
  0
SECTION
  2
OBJECTS
  0
DICTIONARY
  5
C
330
0
100
AcDbDictionary
281
     1
  3
ACAD_GROUP
350
D
  3
ACAD_LAYOUT
350
1A
  3
ACAD_MLINESTYLE
350
17
  3
ACAD_PLOTSETTINGS
350
19
  3
ACAD_PLOTSTYLENAME
350
E
  3
ACAD_SCALELIST
350
47
  0
DICTIONARY
  5
D
102
{ACAD_REACTORS
330
C
102
}
330
C
100
AcDbDictionary
281
     1
  0
DICTIONARY
  5
1A
102
{ACAD_REACTORS
330
C
102
}
330
C
100
AcDbDictionary
281
     1
  3
Layout1
350
1E
  3
Layout2
350
26
  3
Model
350
22
  0
DICTIONARY
  5
17
102
{ACAD_REACTORS
330
C
102
}
330
C
100
AcDbDictionary
281
     1
  3
Standard
350
18
  0
DICTIONARY
  5
19
102
{ACAD_REACTORS
330
C
102
}
330
C
100
AcDbDictionary
281
     1
  0
ACDBDICTIONARYWDFLT
  5
E
102
{ACAD_REACTORS
330
C
102
}
330
C
100
AcDbDictionary
281
     1
  3
Normal
350
F
100
AcDbDictionaryWithDefault
340
F
  0
DICTIONARY
  5
47
102
{ACAD_REACTORS
330
C
102
}
330
C
100
AcDbDictionary
281
     1
  3
A0
350
48
  3
A1
350
49
  3
A2
350
4A
  3
A3
350
4B
  3
A4
350
4C
  3
A5
350
4D
  3
A6
350
4E
  3
A7
350
4F
  3
A8
350
50
  3
A9
350
51
  3
B0
350
52
  3
B1
350
53
  3
B2
350
54
  3
B3
350
55
  3
B4
350
56
  3
B5
350
57
  3
B6
350
58
  3
B7
350
59
  3
B8
350
5A
  3
B9
350
5B
  3
C0
350
5C
  3
C1
350
5D
  3
C2
350
5E
  3
C3
350
5F
  3
C4
350
60
  3
C5
350
61
  3
C6
350
62
  3
C7
350
63
  3
C8
350
64
  3
C9
350
65
  3
D0
350
66
  3
D1
350
67
  3
D2
350
68
  0
LAYOUT
  5
1E
102
{ACAD_REACTORS
330
1A
102
}
330
1A
100
AcDbPlotSettings
  1

  2
none_device
  4

  6

 40
0.0
 41
0.0
 42
0.0
 43
0.0
 44
0.0
 45
0.0
 46
0.0
 47
0.0
 48
0.0
 49
0.0
140
0.0
141
0.0
142
1.0
143
1.0
 70
   688
 72
     1
 73
     0
 74
     5
  7

 75
    16
147
1.0
148
0.0
149
0.0
100
AcDbLayout
  1
Layout1
 70
     1
 71
     1
 10
0.0
 20
0.0
 11
420.0
 21
297.0
 12
0.0
 22
0.0
 32
0.0
 14
1.0000000000E+20
 24
1.0000000000E+20
 34
1.0000000000E+20
 15
-1.0000000000E+20
 25
-1.0000000000E+20
 35
-1.0000000000E+20
146
0.0
 13
0.0
 23
0.0
 33
0.0
 16
1.0
 26
0.0
 36
0.0
 17
0.0
 27
1.0
 37
0.0
 76
     0
330
1B
  0
LAYOUT
  5
26
102
{ACAD_REACTORS
330
1A
102
}
330
1A
100
AcDbPlotSettings
  1

  2
none_device
  4

  6

 40
0.0
 41
0.0
 42
0.0
 43
0.0
 44
0.0
 45
0.0
 46
0.0
 47
0.0
 48
0.0
 49
0.0
140
0.0
141
0.0
142
1.0
143
1.0
 70
   688
 72
     1
 73
     0
 74
     5
  7

 75
    16
147
1.0
148
0.0
149
0.0
100
AcDbLayout
  1
Layout2
 70
     1
 71
     2
 10
0.0
 20
0.0
 11
0.0
 21
0.0
 12
0.0
 22
0.0
 32
0.0
 14
0.0
 24
0.0
 34
0.0
 15
0.0
 25
0.0
 35
0.0
146
0.0
 13
0.0
 23
0.0
 33
0.0
 16
1.0
 26
0.0
 36
0.0
 17
0.0
 27
1.0
 37
0.0
 76
     0
330
23
  0
LAYOUT
  5
22
102
{ACAD_REACTORS
330
1A
102
}
330
1A
100
AcDbPlotSettings
  1

  2
none_device
  4
Letter_(8.50_x_11.00_Inches)
  6

 40
6.35
 41
6.35
 42
6.35000508
 43
6.35000508
 44
215.9
 45
279.4
 46
0.0
 47
0.0
 48
0.0
 49
0.0
140
0.0
141
0.0
142
1.0
143
1.0
 70
  1712
 72
     1
 73
     0
 74
     0
  7

 75
     0
147
1.0
148
0.0
149
0.0
100
AcDbLayout
  1
Model
 70
     1
 71
     0
 10
0.0
 20
0.0
 11
594.0
 21
841.0
 12
0.0
 22
0.0
 32
0.0
 14
0.0
 24
0.0
 34
0.0
 15
594.0
 25
841.0
 35
0.0
146
0.0
 13
0.0
 23
0.0
 33
0.0
 16
1.0
 26
0.0
 36
0.0
 17
0.0
 27
1.0
 37
0.0
 76
     0
330
1F
331
29
  0
MLINESTYLE
  5
18
102
{ACAD_REACTORS
330
17
102
}
330
17
100
AcDbMlineStyle
  2
Standard
 70
     0
  3

 62
   256
 51
90.0
 52
90.0
 71
     2
 49
0.5
 62
   256
  6
BYLAYER
 49
-0.5
 62
   256
  6
BYLAYER
  0
ACDBPLACEHOLDER
  5
F
102
{ACAD_REACTORS
330
E
102
}
330
E
  0
SCALE
  5
48
102
{ACAD_REACTORS
330
47
102
}
330
47
100
AcDbScale
 70
     0
300
1:1
140
1.0
141
1.0
290
     1
  0
SCALE
  5
49
102
{ACAD_REACTORS
330
47
102
}
330
47
100
AcDbScale
 70
     0
300
1:2
140
1.0
141
2.0
290
     0
  0
SCALE
  5
4A
102
{ACAD_REACTORS
330
47
102
}
330
47
100
AcDbScale
 70
     0
300
1:4
140
1.0
141
4.0
290
     0
  0
SCALE
  5
4B
102
{ACAD_REACTORS
330
47
102
}
330
47
100
AcDbScale
 70
     0
300
1:5
140
1.0
141
5.0
290
     0
  0
SCALE
  5
4C
102
{ACAD_REACTORS
330
47
102
}
330
47
100
AcDbScale
 70
     0
300
1:8
140
1.0
141
8.0
290
     0
  0
SCALE
  5
4D
102
{ACAD_REACTORS
330
47
102
}
330
47
100
AcDbScale
 70
     0
300
1:10
140
1.0
141
10.0
290
     0
  0
SCALE
  5
4E
102
{ACAD_REACTORS
330
47
102
}
330
47
100
AcDbScale
 70
     0
300
1:16
140
1.0
141
16.0
290
     0
  0
SCALE
  5
4F
102
{ACAD_REACTORS
330
47
102
}
330
47
100
AcDbScale
 70
     0
300
1:20
140
1.0
141
20.0
290
     0
  0
SCALE
  5
50
102
{ACAD_REACTORS
330
47
102
}
330
47
100
AcDbScale
 70
     0
300
1:30
140
1.0
141
30.0
290
     0
  0
SCALE
  5
51
102
{ACAD_REACTORS
330
47
102
}
330
47
100
AcDbScale
 70
     0
300
1:40
140
1.0
141
40.0
290
     0
  0
SCALE
  5
52
102
{ACAD_REACTORS
330
47
102
}
330
47
100
AcDbScale
 70
     0
300
1:50
140
1.0
141
50.0
290
     0
  0
SCALE
  5
53
102
{ACAD_REACTORS
330
47
102
}
330
47
100
AcDbScale
 70
     0
300
1:100
140
1.0
141
100.0
290
     0
  0
SCALE
  5
54
102
{ACAD_REACTORS
330
47
102
}
330
47
100
AcDbScale
 70
     0
300
2:1
140
2.0
141
1.0
290
     0
  0
SCALE
  5
55
102
{ACAD_REACTORS
330
47
102
}
330
47
100
AcDbScale
 70
     0
300
4:1
140
4.0
141
1.0
290
     0
  0
SCALE
  5
56
102
{ACAD_REACTORS
330
47
102
}
330
47
100
AcDbScale
 70
     0
300
8:1
140
8.0
141
1.0
290
     0
  0
SCALE
  5
57
102
{ACAD_REACTORS
330
47
102
}
330
47
100
AcDbScale
 70
     0
300
10:1
140
10.0
141
1.0
290
     0
  0
SCALE
  5
58
102
{ACAD_REACTORS
330
47
102
}
330
47
100
AcDbScale
 70
     0
300
100:1
140
100.0
141
1.0
290
     0
  0
SCALE
  5
59
102
{ACAD_REACTORS
330
47
102
}
330
47
100
AcDbScale
 70
     0
300
1/128" = 1'-0"
140
0.0078125
141
12.0
290
     0
  0
SCALE
  5
5A
102
{ACAD_REACTORS
330
47
102
}
330
47
100
AcDbScale
 70
     0
300
1/64" = 1'-0"
140
0.015625
141
12.0
290
     0
  0
SCALE
  5
5B
102
{ACAD_REACTORS
330
47
102
}
330
47
100
AcDbScale
 70
     0
300
1/32" = 1'-0"
140
0.03125
141
12.0
290
     0
  0
SCALE
  5
5C
102
{ACAD_REACTORS
330
47
102
}
330
47
100
AcDbScale
 70
     0
300
1/16" = 1'-0"
140
0.0625
141
12.0
290
     0
  0
SCALE
  5
5D
102
{ACAD_REACTORS
330
47
102
}
330
47
100
AcDbScale
 70
     0
300
3/32" = 1'-0"
140
0.09375
141
12.0
290
     0
  0
SCALE
  5
5E
102
{ACAD_REACTORS
330
47
102
}
330
47
100
AcDbScale
 70
     0
300
1/8" = 1'-0"
140
0.125
141
12.0
290
     0
  0
SCALE
  5
5F
102
{ACAD_REACTORS
330
47
102
}
330
47
100
AcDbScale
 70
     0
300
3/16" = 1'-0"
140
0.1875
141
12.0
290
     0
  0
SCALE
  5
60
102
{ACAD_REACTORS
330
47
102
}
330
47
100
AcDbScale
 70
     0
300
1/4" = 1'-0"
140
0.25
141
12.0
290
     0
  0
SCALE
  5
61
102
{ACAD_REACTORS
330
47
102
}
330
47
100
AcDbScale
 70
     0
300
3/8" = 1'-0"
140
0.375
141
12.0
290
     0
  0
SCALE
  5
62
102
{ACAD_REACTORS
330
47
102
}
330
47
100
AcDbScale
 70
     0
300
1/2" = 1'-0"
140
0.5
141
12.0
290
     0
  0
SCALE
  5
63
102
{ACAD_REACTORS
330
47
102
}
330
47
100
AcDbScale
 70
     0
300
3/4" = 1'-0"
140
0.75
141
12.0
290
     0
  0
SCALE
  5
64
102
{ACAD_REACTORS
330
47
102
}
330
47
100
AcDbScale
 70
     0
300
1" = 1'-0"
140
1.0
141
12.0
290
     0
  0
SCALE
  5
65
102
{ACAD_REACTORS
330
47
102
}
330
47
100
AcDbScale
 70
     0
300
1-1/2" = 1'-0"
140
1.5
141
12.0
290
     0
  0
SCALE
  5
66
102
{ACAD_REACTORS
330
47
102
}
330
47
100
AcDbScale
 70
     0
300
3" = 1'-0"
140
3.0
141
12.0
290
     0
  0
SCALE
  5
67
102
{ACAD_REACTORS
330
47
102
}
330
47
100
AcDbScale
 70
     0
300
6" = 1'-0"
140
6.0
141
12.0
290
     0
  0
SCALE
  5
68
102
{ACAD_REACTORS
330
47
102
}
330
47
100
AcDbScale
 70
     0
300
1'-0" = 1'-0"
140
12.0
141
12.0
290
     0
  0
ENDSEC
  0
EOF
