  0
SECTION
  2
HEADER
  9
$ACADVER
  1
AC1015
  9
$ACADMAINTVER
 70
     6
  9
$DWGCODEPAGE
  3
ANSI_1252
  9
$INSBASE
 10
0.0
 20
0.0
 30
0.0
  9
$EXTMIN
 10
0.0
 20
0.0
 30
0.0
  9
$EXTMAX
 10
594.0
 20
841.0
 30
0.0
  9
$LIMMIN
 10
0.0
 20
0.0
  9
$LIMMAX
 10
594.0
 20
841.0
  9
$ORTHOMODE
 70
     0
  9
$REGENMODE
 70
     1
  9
$FILLMODE
 70
     1
  9
$QTEXTMODE
 70
     0
  9
$MIRRTEXT
 70
     1
  9
$LTSCALE
 40
1.0
  9
$ATTMODE
 70
     1
  9
$TEXTSIZE
 40
10.0
  9
$TRACEWID
 40
1.0
  9
$TEXTSTYLE
  7
Standard
  9
$CLAYER
  8
0
  9
$CELTYPE
  6
ByLayer
  9
$CECOLOR
 62
   256
  9
$CELTSCALE
 40
1.0
  9
$DISPSILH
 70
     0
  9
$DIMSCALE
 40
1.0
  9
$DIMASZ
 40
2.5
  9
$DIMEXO
 40
0.0
  9
$DIMDLI
 40
3.75
  9
$DIMRND
 40
0.0
  9
$DIMDLE
 40
0.0
  9
$DIMEXE
 40
1.0
  9
$DIMTP
 40
0.0
  9
$DIMTM
 40
0.0
  9
$DIMTXT
 40
3.5
  9
$DIMCEN
 40
2.5
  9
$DIMTSZ
 40
0.0
  9
$DIMTOL
 70
     0
  9
$DIMLIM
 70
     0
  9
$DIMTIH
 70
     1
  9
$DIMTOH
 70
     1
  9
$DIMSE1
 70
     0
  9
$DIMSE2
 70
     0
  9
$DIMTAD
 70
     1
  9
$DIMZIN
 70
     0
  9
$DIMBLK
  1

  9
$DIMASO
 70
     1
  9
$DIMSHO
 70
     1
  9
$DIMPOST
  1

  9
$DIMAPOST
  1

  9
$DIMALT
 70
     0
  9
$DIMALTD
 70
     3
  9
$DIMALTF
 40
0.0393700787
  9
$DIMLFAC
 40
1.0
  9
$DIMTOFL
 70
     1
  9
$DIMTVP
 40
0.0
  9
$DIMTIX
 70
     0
  9
$DIMSOXD
 70
     0
  9
$DIMSAH
 70
     0
  9
$DIMBLK1
  1

  9
$DIMBLK2
  1

  9
$DIMSTYLE
  2
ISO-25
  9
$DIMCLRD
 70
     0
  9
$DIMCLRE
 70
     0
  9
$DIMCLRT
 70
     0
  9
$DIMTFAC
 40
1.0
  9
$DIMGAP
 40
1.5
  9
$DIMJUST
 70
     0
  9
$DIMSD1
 70
     0
  9
$DIMSD2
 70
     0
  9
$DIMTOLJ
 70
     0
  9
$DIMTZIN
 70
     0
  9
$DIMALTZ
 70
     0
  9
$DIMALTTZ
 70
     0
  9
$DIMUPT
 70
     0
  9
$DIMDEC
 70
     2
  9
$DIMTDEC
 70
     2
  9
$DIMALTU
 70
     2
  9
$DIMALTTD
 70
     3
  9
$DIMTXSTY
  7
Standard
  9
$DIMAUNIT
 70
     0
  9
$DIMADEC
 70
     2
  9
$DIMALTRND
 40
0.0
  9
$DIMAZIN
 70
     0
  9
$DIMDSEP
 70
    44
  9
$DIMATFIT
 70
     3
  9
$DIMFRAC
 70
     0
  9
$DIMLDRBLK
  1

  9
$DIMLUNIT
 70
     2
  9
$DIMLWD
 70
    -2
  9
$DIMLWE
 70
    -2
  9
$DIMTMOVE
 70
     0
  9
$LUNITS
 70
     2
  9
$LUPREC
 70
     2
  9
$SKETCHINC
 40
1.0
  9
$FILLETRAD
 40
10.0
  9
$AUNITS
 70
     0
  9
$AUPREC
 70
     2
  9
$MENU
  1
.
  9
$ELEVATION
 40
0.0
  9
$PELEVATION
 40
0.0
  9
$THICKNESS
 40
0.0
  9
$LIMCHECK
 70
     0
  9
$CHAMFERA
 40
0.0
  9
$CHAMFERB
 40
0.0
  9
$CHAMFERC
 40
0.0
  9
$CHAMFERD
 40
0.0
  9
$SKPOLY
 70
     0
  9
$TDCREATE
 40
2458942.357718333
  9
$TDUCREATE
 40
2458942.274385
  9
$TDUPDATE
 40
2458942.357718877
  9
$TDUUPDATE
 40
2458942.274385544
  9
$TDINDWG
 40
0.0000000116
  9
$TDUSRTIMER
 40
0.0000000116
  9
$USRTIMER
 70
     1
  9
$ANGBASE
 50
0.0
  9
$ANGDIR
 70
     0
  9
$PDMODE
 70
     0
  9
$PDSIZE
 40
-1.0
  9
$PLINEWID
 40
0.0
  9
$SPLFRAME
 70
     0
  9
$SPLINETYPE
 70
     6
  9
$SPLINESEGS
 70
     8
  9
$HANDSEED
  5
117
  9
$SURFTAB1
 70
     6
  9
$SURFTAB2
 70
     6
  9
$SURFTYPE
 70
     6
  9
$SURFU
 70
     6
  9
$SURFV
 70
     6
  9
$UCSBASE
  2

  9
$UCSNAME
  2

  9
$UCSORG
 10
0.0
 20
0.0
 30
0.0
  9
$UCSXDIR
 10
1.0
 20
0.0
 30
0.0
  9
$UCSYDIR
 10
0.0
 20
1.0
 30
0.0
  9
$UCSORTHOREF
  2

  9
$UCSORTHOVIEW
 70
     0
  9
$UCSORGTOP
 10
0.0
 20
0.0
 30
0.0
  9
$UCSORGBOTTOM
 10
0.0
 20
0.0
 30
0.0
  9
$UCSORGLEFT
 10
0.0
 20
0.0
 30
0.0
  9
$UCSORGRIGHT
 10
0.0
 20
0.0
 30
0.0
  9
$UCSORGFRONT
 10
0.0
 20
0.0
 30
0.0
  9
$UCSORGBACK
 10
0.0
 20
0.0
 30
0.0
  9
$PUCSBASE
  2

  9
$PUCSNAME
  2

  9
$PUCSORG
 10
0.0
 20
0.0
 30
0.0
  9
$PUCSXDIR
 10
1.0
 20
0.0
 30
0.0
  9
$PUCSYDIR
 10
0.0
 20
1.0
 30
0.0
  9
$PUCSORTHOREF
  2

  9
$PUCSORTHOVIEW
 70
     0
  9
$PUCSORGTOP
 10
0.0
 20
0.0
 30
0.0
  9
$PUCSORGBOTTOM
 10
0.0
 20
0.0
 30
0.0
  9
$PUCSORGLEFT
 10
0.0
 20
0.0
 30
0.0
  9
$PUCSORGRIGHT
 10
0.0
 20
0.0
 30
0.0
  9
$PUCSORGFRONT
 10
0.0
 20
0.0
 30
0.0
  9
$PUCSORGBACK
 10
0.0
 20
0.0
 30
0.0
  9
$USERI1
 70
     0
  9
$USERI2
 70
     0
  9
$USERI3
 70
     0
  9
$USERI4
 70
     0
  9
$USERI5
 70
     0
  9
$USERR1
 40
0.0
  9
$USERR2
 40
0.0
  9
$USERR3
 40
0.0
  9
$USERR4
 40
0.0
  9
$USERR5
 40
0.0
  9
$WORLDVIEW
 70
     1
  9
$SHADEDGE
 70
     3
  9
$SHADEDIF
 70
    70
  9
$TILEMODE
 70
     1
  9
$MAXACTVP
 70
    64
  9
$PINSBASE
 10
0.0
 20
0.0
 30
0.0
  9
$PLIMCHECK
 70
     0
  9
$PEXTMIN
 10
1.0000000000E+20
 20
1.0000000000E+20
 30
1.0000000000E+20
  9
$PEXTMAX
 10
-1.0000000000E+20
 20
-1.0000000000E+20
 30
-1.0000000000E+20
  9
$PLIMMIN
 10
0.0
 20
0.0
  9
$PLIMMAX
 10
420.0
 20
297.0
  9
$UNITMODE
 70
     0
  9
$VISRETAIN
 70
     1
  9
$PLINEGEN
 70
     0
  9
$PSLTSCALE
 70
     1
  9
$TREEDEPTH
 70
  3020
  9
$CMLSTYLE
  2
Standard
  9
$CMLJUST
 70
     0
  9
$CMLSCALE
 40
20.0
  9
$PROXYGRAPHICS
 70
     1
  9
$MEASUREMENT
 70
     1
  9
$CELWEIGHT
370
    -1
  9
$ENDCAPS
280
     0
  9
$JOINSTYLE
280
     0
  9
$LWDISPLAY
290
     1
  9
$INSUNITS
 70
     4
  9
$HYPERLINKBASE
  1

  9
$STYLESHEET
  1

  9
$XEDIT
290
     1
  9
$CEPSNTYPE
380
     0
  9
$PSTYLEMODE
290
     1
  9
$FINGERPRINTGUID
  2
{b8c15aa5-3367-4a50-8321-3313ace5239a}
  9
$VERSIONGUID
  2
{FAEB1C32-E019-11D5-929B-00C0DF256EC4}
  9
$EXTNAMES
290
     1
  9
$PSVPSCALE
 40
0.0
  9
$OLESTARTUP
290
     0
  0
ENDSEC
  0
SECTION
  2
CLASSES
  0
CLASS
  1
ACDBDICTIONARYWDFLT
  2
AcDbDictionaryWithDefault
  3
ObjectDBX Classes
 90
        0
280
     0
281
     0
  0
CLASS
  1
VISUALSTYLE
  2
AcDbVisualStyle
  3
ObjectDBX Classes
 90
     4095
280
     0
281
     0
  0
CLASS
  1
MATERIAL
  2
AcDbMaterial
  3
ObjectDBX Classes
 90
     1153
280
     0
281
     0
  0
CLASS
  1
SCALE
  2
AcDbScale
  3
ObjectDBX Classes
 90
     1153
280
     0
281
     0
  0
CLASS
  1
TABLESTYLE
  2
AcDbTableStyle
  3
ObjectDBX Classes
 90
     4095
280
     0
281
     0
  0
CLASS
  1
MLEADERSTYLE
  2
AcDbMLeaderStyle
  3
ACDB_MLEADERSTYLE_CLASS
 90
     4095
280
     0
281
     0
  0
CLASS
  1
SUN
  2
AcDbSun
  3
SCENEOE
 90
     1153
280
     0
281
     0
  0
CLASS
  1
ACDBPLACEHOLDER
  2
AcDbPlaceHolder
  3
ObjectDBX Classes
 90
        0
280
     0
281
     0
  0
CLASS
  1
LAYOUT
  2
AcDbLayout
  3
ObjectDBX Classes
 90
        0
280
     0
281
     0
  0
ENDSEC
  0
SECTION
  2
TABLES
  0
TABLE
  2
VPORT
  5
8
330
0
100
AcDbSymbolTable
 70
     1
  0
VPORT
  5
29
330
8
100
AcDbSymbolTableRecord
100
AcDbViewportTableRecord
  2
*Active
 70
     0
 10
0.0
 20
0.0
 11
1.0
 21
1.0
 12
297.0
 22
420.5
 13
0.0
 23
0.0
 14
10.0
 24
10.0
 15
10.0
 25
10.0
 16
0.0
 26
0.0
 36
1.0
 17
0.0
 27
0.0
 37
0.0
 40
841.0
 41
0.7063020214
 42
50.0
 43
0.0
 44
0.0
 50
0.0
 51
0.0
 71
     0
 72
  2000
 73
     1
 74
     3
 75
     0
 76
     0
 77
     0
 78
     0
281
     0
 65
     1
110
0.0
120
0.0
130
0.0
111
1.0
121
0.0
131
0.0
112
0.0
122
1.0
132
0.0
 79
     0
146
0.0
  0
ENDTAB
  0
TABLE
  2
LTYPE
  5
5
330
0
100
AcDbSymbolTable
 70
     6
  0
LTYPE
  5
14
330
5
100
AcDbSymbolTableRecord
100
AcDbLinetypeTableRecord
  2
ByBlock
 70
     0
  3

 72
    65
 73
     0
 40
0.0
  0
LTYPE
  5
15
330
5
100
AcDbSymbolTableRecord
100
AcDbLinetypeTableRecord
  2
ByLayer
 70
     0
  3

 72
    65
 73
     0
 40
0.0
  0
LTYPE
  5
16
330
5
100
AcDbSymbolTableRecord
100
AcDbLinetypeTableRecord
  2
Continuous
 70
     0
  3
Solid line
 72
    65
 73
     0
 40
0.0
  0
LTYPE
  5
6E
330
5
100
AcDbSymbolTableRecord
100
AcDbLinetypeTableRecord
  2
HIDDEN
 70
     0
  3
Hidden __ __ __ __ __ __ __ __ __ __ __ __ __ __
 72
    65
 73
     2
 40
1.905
 49
1.27
 74
     0
 49
-0.635
 74
     0
  0
LTYPE
  5
6F
330
5
100
AcDbSymbolTableRecord
100
AcDbLinetypeTableRecord
  2
PHANTOM
 70
     0
  3
Phantom ______  __  __  ______  __  __  ______
 72
    65
 73
     6
 40
12.7
 49
6.35
 74
     0
 49
-1.27
 74
     0
 49
1.27
 74
     0
 49
-1.27
 74
     0
 49
1.27
 74
     0
 49
-1.27
 74
     0
  0
LTYPE
  5
70
330
5
100
AcDbSymbolTableRecord
100
AcDbLinetypeTableRecord
  2
CENTER
 70
     0
  3
Center ____ _ ____ _ ____ _ ____ _ ____ _ ____
 72
    65
 73
     4
 40
10.16
 49
6.35
 74
     0
 49
-1.27
 74
     0
 49
1.27
 74
     0
 49
-1.27
 74
     0
  0
LTYPE
  5
71
330
5
100
AcDbSymbolTableRecord
100
AcDbLinetypeTableRecord
  2
CENTERX2
 70
     0
  3
Center (2x) ________  __  ________  __  _____
 72
    65
 73
     4
 40
20.32
 49
12.7
 74
     0
 49
-2.54
 74
     0
 49
2.54
 74
     0
 49
-2.54
 74
     0
  0
LTYPE
  5
72
330
5
100
AcDbSymbolTableRecord
100
AcDbLinetypeTableRecord
  2
DOT2
 70
     0
  3
Dot (.5x) ........................................
 72
    65
 73
     2
 40
0.635
 49
0.0
 74
     0
 49
-0.635
 74
     0
  0
ENDTAB
  0
TABLE
  2
LAYER
  5
2
330
0
100
AcDbSymbolTable
 70
     1
  0
LAYER
  5
10
330
2
100
AcDbSymbolTableRecord
100
AcDbLayerTableRecord
  2
0
 70
     0
 62
     7
  6
Continuous
370
    -3
390
F
  0
ENDTAB
  0
TABLE
  2
STYLE
  5
3
330
0
100
AcDbSymbolTable
 70
     3
  0
STYLE
  5
11
330
3
100
AcDbSymbolTableRecord
100
AcDbTextStyleTableRecord
  2
Standard
 70
     0
 40
0.0
 41
1.0
 50
0.0
 71
     0
 42
10.0
  3
txt
  4

  0
STYLE
  5
76
330
3
100
AcDbSymbolTableRecord
100
AcDbTextStyleTableRecord
  2
SLDTEXTSTYLE0
 70
     0
 40
0.0
 41
0.96
 50
0.0
 71
     0
 42
10.0
  3
ISOCP3
  4

  0
STYLE
  5
8D
330
3
100
AcDbSymbolTableRecord
100
AcDbTextStyleTableRecord
  2
SLDTEXTSTYLE1
 70
     0
 40
0.0
 41
0.605
 50
0.0
 71
     0
 42
10.0
  3
TXT
  4

  0
ENDTAB
  0
TABLE
  2
VIEW
  5
6
330
0
100
AcDbSymbolTable
 70
     0
  0
ENDTAB
  0
TABLE
  2
UCS
  5
7
330
0
100
AcDbSymbolTable
 70
     0
  0
ENDTAB
  0
TABLE
  2
APPID
  5
9
330
0
100
AcDbSymbolTable
 70
     1
  0
APPID
  5
12
330
9
100
AcDbSymbolTableRecord
100
AcDbRegAppTableRecord
  2
ACAD
 70
     0
  0
ENDTAB
  0
TABLE
  2
DIMSTYLE
  5
A
330
0
100
AcDbSymbolTable
 70
     2
100
AcDbDimStyleTable
  0
DIMSTYLE
105
27
330
A
100
AcDbSymbolTableRecord
100
AcDbDimStyleTableRecord
  2
ISO-25
 70
     0
 41
2.5
 42
0.625
 43
3.75
 44
1.25
 73
     0
 74
     0
 77
     1
 78
     8
140
2.5
141
2.5
143
0.0393700787
147
0.625
171
     3
172
     1
178
     0
271
     2
272
     2
274
     3
278
    44
283
     0
284
     8
340
11
  0
DIMSTYLE
105
77
102
{ACAD_REACTORS
330
75
330
82
102
}
330
A
100
AcDbSymbolTableRecord
100
AcDbDimStyleTableRecord
  2
SLDDIMSTYLE0
 70
     0
 41
2.5
 44
0.0
 45
0.000000001
 73
     0
 74
     0
 77
     1
 78
    12
 79
     3
140
6.0
147
1.5
173
     1
178
     0
271
     2
272
     2
276
     2
284
    12
340
76
  0
ENDTAB
  0
TABLE
  2
BLOCK_RECORD
  5
1
330
0
100
AcDbSymbolTable
 70
     3
  0
BLOCK_RECORD
  5
1F
330
1
100
AcDbSymbolTableRecord
100
AcDbBlockTableRecord
  2
*Model_Space
340
22
  0
BLOCK_RECORD
  5
1B
330
1
100
AcDbSymbolTableRecord
100
AcDbBlockTableRecord
  2
*Paper_Space
340
1E
  0
BLOCK_RECORD
  5
23
330
1
100
AcDbSymbolTableRecord
100
AcDbBlockTableRecord
  2
*Paper_Space0
340
26
  0
BLOCK_RECORD
  5
78
330
1
100
AcDbSymbolTableRecord
100
AcDbBlockTableRecord
  2
_D
340
0
  0
BLOCK_RECORD
  5
83
330
1
100
AcDbSymbolTableRecord
100
AcDbBlockTableRecord
  2
_D_1
340
0
  0
ENDTAB
  0
ENDSEC
  0
SECTION
  2
BLOCKS
  0
BLOCK
  5
20
330
1F
100
AcDbEntity
  8
0
100
AcDbBlockBegin
  2
*Model_Space
 70
     0
 10
0.0
 20
0.0
 30
0.0
  3
*Model_Space
  1

  0
ENDBLK
  5
21
330
1F
100
AcDbEntity
  8
0
100
AcDbBlockEnd
  0
BLOCK
  5
1C
330
1B
100
AcDbEntity
 67
     1
  8
0
100
AcDbBlockBegin
  2
*Paper_Space
 70
     0
 10
0.0
 20
0.0
 30
0.0
  3
*Paper_Space
  1

  0
ENDBLK
  5
1D
330
1B
100
AcDbEntity
 67
     1
  8
0
100
AcDbBlockEnd
  0
BLOCK
  5
24
330
23
100
AcDbEntity
  8
0
100
AcDbBlockBegin
  2
*Paper_Space0
 70
     0
 10
0.0
 20
0.0
 30
0.0
  3
*Paper_Space0
  1

  0
ENDBLK
  5
25
330
23
100
AcDbEntity
  8
0
100
AcDbBlockEnd
  0
BLOCK
  5
79
330
78
100
AcDbEntity
  8
0
100
AcDbBlockBegin
  2
_D
 70
     0
 10
0.0
 20
0.0
 30
0.0
  3
_D
  1

  0
SOLID
  5
7B
330
78
100
AcDbEntity
  8
0
  6
Continuous
 62
     7
370
    18
100
AcDbTrace
 10
42.7614395004
 20
152.0299240879
 30
0.0
 11
42.4614395004
 21
149.5299240879
 31
0.0
 12
43.0614395004
 22
149.5299240879
 32
0.0
 13
43.0614395004
 23
149.5299240879
 33
0.0
  0
SOLID
  5
7C
330
78
100
AcDbEntity
  8
0
  6
Continuous
 62
     7
370
    18
100
AcDbTrace
 10
42.7614395004
 20
52.0299240879
 30
0.0
 11
43.0614395004
 21
54.5299240879
 31
0.0
 12
42.4614395004
 22
54.5299240879
 32
0.0
 13
42.4614395004
 23
54.5299240879
 33
0.0
  0
LINE
  5
7D
330
78
100
AcDbEntity
  8
0
  6
Continuous
 62
     7
370
     0
100
AcDbLine
 10
56.6850079902
 20
152.0299240879
 30
0.0
 11
41.7614395004
 21
152.0299240879
 31
0.0
  0
LINE
  5
7E
330
78
100
AcDbEntity
  8
0
  6
Continuous
 62
     7
370
     0
100
AcDbLine
 10
56.6850079902
 20
52.0299240879
 30
0.0
 11
41.7614395004
 21
52.0299240879
 31
0.0
  0
LINE
  5
7F
330
78
100
AcDbEntity
  8
0
  6
Continuous
 62
     7
370
     0
100
AcDbLine
 10
42.7614395004
 20
152.0299240879
 30
0.0
 11
42.7614395004
 21
52.0299240879
 31
0.0
  0
MTEXT
  5
80
330
78
100
AcDbEntity
  8
0
  6
Continuous
 62
     7
370
    18
100
AcDbMText
 10
35.0270332946
 20
94.3680541463
 30
0.0
 40
6.0
 41
0.0
 71
     1
 72
     1
  1
100
  7
SLDTEXTSTYLE0
 11
-7.044195017643634E-15
 21
1.0
 31
0.0
 73
     1
 44
1.0
  0
MTEXT
  5
81
330
78
100
AcDbEntity
  8
0
  6
Continuous
 62
     7
370
    18
100
AcDbMText
 10
35.0270332946
 20
105.7430548466
 30
0.0
 40
6.0
 41
0.0
 71
     1
 72
     1
  1
mm
  7
SLDTEXTSTYLE0
 11
-7.044195017643634E-15
 21
1.0
 31
0.0
 73
     1
 44
1.0
  0
ENDBLK
  5
7A
330
78
100
AcDbEntity
  8
0
100
AcDbBlockEnd
  0
BLOCK
  5
84
330
83
100
AcDbEntity
  8
0
100
AcDbBlockBegin
  2
_D_1
 70
     0
 10
0.0
 20
0.0
 30
0.0
  3
_D_1
  1

  0
SOLID
  5
86
330
83
100
AcDbEntity
  8
0
  6
Continuous
 62
     7
370
    18
100
AcDbTrace
 10
56.6850079902
 20
38.4602342313
 30
0.0
 11
59.1850079902
 21
38.1602342313
 31
0.0
 12
59.1850079902
 22
38.7602342313
 32
0.0
 13
59.1850079902
 23
38.7602342313
 33
0.0
  0
SOLID
  5
87
330
83
100
AcDbEntity
  8
0
  6
Continuous
 62
     7
370
    18
100
AcDbTrace
 10
156.6850079902
 20
38.4602342313
 30
0.0
 11
154.1850079902
 21
38.7602342313
 31
0.0
 12
154.1850079902
 22
38.1602342313
 32
0.0
 13
154.1850079902
 23
38.1602342313
 33
0.0
  0
LINE
  5
88
330
83
100
AcDbEntity
  8
0
  6
Continuous
 62
     7
370
     0
100
AcDbLine
 10
56.6850079902
 20
52.0299240879
 30
0.0
 11
56.6850079902
 21
37.4602342313
 31
0.0
  0
LINE
  5
89
330
83
100
AcDbEntity
  8
0
  6
Continuous
 62
     7
370
     0
100
AcDbLine
 10
156.6850079902
 20
52.0299240879
 30
0.0
 11
156.6850079902
 21
37.4602342313
 31
0.0
  0
LINE
  5
8A
330
83
100
AcDbEntity
  8
0
  6
Continuous
 62
     7
370
     0
100
AcDbLine
 10
56.6850079902
 20
38.4602342313
 30
0.0
 11
156.6850079902
 21
38.4602342313
 31
0.0
  0
MTEXT
  5
8B
330
83
100
AcDbEntity
  8
0
  6
Continuous
 62
     7
370
    18
100
AcDbMText
 10
93.9626484861
 20
46.1946404371
 30
0.0
 40
6.0
 41
0.0
 71
     1
 72
     1
  1
100
  7
SLDTEXTSTYLE0
 73
     1
 44
1.0
  0
MTEXT
  5
8C
330
83
100
AcDbEntity
  8
0
  6
Continuous
 62
     7
370
    18
100
AcDbMText
 10
105.3376491864
 20
46.1946404371
 30
0.0
 40
6.0
 41
0.0
 71
     1
 72
     1
  1
mm
  7
SLDTEXTSTYLE0
 73
     1
 44
1.0
  0
ENDBLK
  5
85
330
83
100
AcDbEntity
  8
0
100
AcDbBlockEnd
  0
ENDSEC
  0
SECTION
  2
ENTITIES
  0
LINE
  5
73
330
1F
100
AcDbEntity
  8
0
  6
Continuous
 62
     7
370
    18
100
AcDbLine
 10
56.6850079902
 20
152.0299240879
 30
0.0
 11
56.6850079902
 21
52.0299240879
 31
0.0
  0
LINE
  5
74
330
1F
100
AcDbEntity
  8
0
  6
Continuous
 62
     7
370
    18
100
AcDbLine
 10
56.6850079902
 20
52.0299240879
 30
0.0
 11
156.6850079902
 21
52.0299240879
 31
0.0
  0
DIMENSION
  5
75
330
1F
100
AcDbEntity
  8
0
  6
Continuous
 62
     7
370
    18
100
AcDbDimension
  2
_D
 10
42.7614395004
 20
52.0299240879
 30
0.0
 11
42.7614395004
 21
105.4472211621
 31
0.0
 70
   160
  1
<>mm
 71
     2
 42
-1.0
  3
SLDDIMSTYLE0
100
AcDbAlignedDimension
 13
56.6850079902
 23
152.0299240879
 33
0.0
 14
56.6850079902
 24
52.0299240879
 34
0.0
 50
90.0
100
AcDbRotatedDimension
  0
DIMENSION
  5
82
330
1F
100
AcDbEntity
  8
0
  6
Continuous
 62
     7
370
    18
100
AcDbDimension
  2
_D_1
 10
156.6850079902
 20
38.4602342313
 30
0.0
 11
105.0418155019
 21
38.4602342313
 31
0.0
 70
   160
  1
<>mm
 71
     2
 42
-1.0
  3
SLDDIMSTYLE0
100
AcDbAlignedDimension
 13
56.6850079902
 23
52.0299240879
 33
0.0
 14
156.6850079902
 24
52.0299240879
 34
0.0
100
AcDbRotatedDimension
  0
MTEXT
  5
8E
330
1F
100
AcDbEntity
  8
0
  6
Continuous
 62
     7
370
     0
100
AcDbMText
 10
412.8252631579
 20
48.4342449499
 30
0.0
 40
10.0
 41
0.0
 71
     1
 72
     1
  1
KLUDI GmbH & Co KG
  7
SLDTEXTSTYLE1
 73
     1
 44
1.0
  0
MTEXT
  5
8F
330
1F
100
AcDbEntity
  8
0
  6
Continuous
 62
     7
370
     0
100
AcDbMText
 10
210.0873490389
 20
48.4342449499
 30
0.0
 40
10.0
 41
0.0
 71
     1
 72
     1
  1
20 655 05 15
  7
SLDTEXTSTYLE1
 73
     1
 44
1.0
  0
SPLINE
  5
90
330
1F
100
AcDbEntity
  8
0
  6
Continuous
 62
     7
370
    25
100
AcDbSpline
210
0.0
220
0.0
230
1.0
 70
     8
 71
     3
 72
    20
 73
    16
 74
     0
 42
0.000000001
 43
0.00000001
 40
0.0
 40
0.0
 40
0.0
 40
0.0
 40
0.1250000000000001
 40
0.1250000000000001
 40
0.2500000000000002
 40
0.2500000000000002
 40
0.3750000000000003
 40
0.3750000000000003
 40
0.5000000000000004
 40
0.5000000000000004
 40
0.7500000000000004
 40
0.7500000000000004
 40
0.8750000000000002
 40
0.8750000000000002
 40
1.0
 40
1.0
 40
1.0
 40
1.0
 10
208.5004783657291
 20
396.7578748880641
 30
0.0
 10
208.3755348924177
 20
396.7198108249438
 30
0.0
 10
208.2481545536639
 20
396.6817466565766
 30
0.0
 10
207.9893175900795
 20
396.5888539028054
 30
0.0
 10
207.8581907963038
 20
396.5341746698944
 30
0.0
 10
207.6050964989127
 20
396.4021608250247
 30
0.0
 10
207.4834588263521
 20
396.3249755655589
 30
0.0
 10
207.2644618853042
 20
396.1481526703245
 30
0.0
 10
207.1674324478716
 20
396.0486643870487
 30
0.0
 10
206.9234233216018
 20
395.7192455618315
 30
0.0
 10
206.8230302530693
 20
395.4540314824526
 30
0.0
 10
206.7444139647414
 20
395.03872803413
 30
0.0
 10
206.7298605577538
 20
394.8981580303565
 30
0.0
 10
206.7150465882481
 20
394.6204141425698
 30
0.0
 10
206.7148184818483
 20
394.4834910710388
 30
0.0
 10
206.7148184818483
 20
394.3471864430139
 30
0.0
  0
SPLINE
  5
91
330
1F
100
AcDbEntity
  8
0
  6
Continuous
 62
     7
370
    25
100
AcDbSpline
210
0.0
220
0.0
230
1.0
 70
     8
 71
     3
 72
    20
 73
    16
 74
     0
 42
0.000000001
 43
0.00000001
 40
0.0
 40
0.0
 40
0.0
 40
0.0
 40
0.1250000000000002
 40
0.1250000000000002
 40
0.2500000000000002
 40
0.2500000000000002
 40
0.5000000000000004
 40
0.5000000000000004
 40
0.6250000000000003
 40
0.6250000000000003
 40
0.7500000000000002
 40
0.7500000000000002
 40
0.8750000000000001
 40
0.8750000000000001
 40
1.0
 40
1.0
 40
1.0
 40
1.0
 10
195.7148184818482
 20
394.3471864430139
 30
0.0
 10
195.7148184818482
 20
394.4834910710388
 30
0.0
 10
195.7145903754484
 20
394.6204141425698
 30
0.0
 10
195.6997764059427
 20
394.8981580303565
 30
0.0
 10
195.6852229989551
 20
395.03872803413
 30
0.0
 10
195.6066067106272
 20
395.4540314824526
 30
0.0
 10
195.5062136420947
 20
395.7192455618315
 30
0.0
 10
195.2622045158249
 20
396.0486643870487
 30
0.0
 10
195.1651750783923
 20
396.1481526703245
 30
0.0
 10
194.9461781373444
 20
396.3249755655589
 30
0.0
 10
194.8245404647838
 20
396.4021608250247
 30
0.0
 10
194.5714461673927
 20
396.5341746698944
 30
0.0
 10
194.4403193736169
 20
396.5888539028054
 30
0.0
 10
194.1814824100326
 20
396.6817466565766
 30
0.0
 10
194.0541020712787
 20
396.7198108249438
 30
0.0
 10
193.9291585979674
 20
396.7578748880641
 30
0.0
  0
ARC
  5
92
330
1F
100
AcDbEntity
  8
0
  6
Continuous
 62
     7
370
    25
100
AcDbCircle
 10
201.2148184818
 20
420.6727062706
 30
0.0
 40
25.00000000000004
100
AcDbArc
 50
286.9433715416
 51
253.0566284584
  0
LINE
  5
93
330
1F
100
AcDbEntity
  8
0
  6
Continuous
 62
     7
370
    25
100
AcDbLine
 10
195.7148185116
 20
321.6727032904
 30
0.0
 11
195.7148185116
 21
394.3471863512
 31
0.0
  0
LINE
  5
94
330
1F
100
AcDbEntity
  8
0
  6
Continuous
 62
     7
370
    25
100
AcDbLine
 10
206.714818452
 20
394.3471863512
 30
0.0
 11
206.714818452
 21
321.6727032904
 31
0.0
  0
ARC
  5
95
330
1F
100
AcDbEntity
  8
0
  6
Continuous
 62
     7
370
    25
100
AcDbCircle
 10
196.7148184818
 20
321.6727062706
 30
0.0
 40
1.000000000000028
100
AcDbArc
 50
180.0
 51
270.0
  0
ARC
  5
96
330
1F
100
AcDbEntity
  8
0
  6
Continuous
 62
     7
370
    25
100
AcDbCircle
 10
205.7148184818
 20
321.6727062706
 30
0.0
 40
1.0
100
AcDbArc
 50
270.0
 51
0.0
  0
LINE
  5
97
330
1F
100
AcDbEntity
  8
0
  6
Continuous
 62
     7
370
    25
100
AcDbLine
 10
205.7148182881
 20
320.6727087144
 30
0.0
 11
196.7148186756
 21
320.6727087144
 31
0.0
  0
LINE
  5
98
330
1F
100
AcDbEntity
  8
0
  6
Continuous
 62
     7
370
    25
100
AcDbLine
 10
201.2148184818
 20
320.622707868
 30
0.0
 11
204.1341506061
 21
320.6727087144
 31
0.0
  0
ARC
  5
99
330
1F
100
AcDbEntity
  8
0
  6
Continuous
 62
     7
370
    25
100
AcDbCircle
 10
201.2148184818
 20
405.8727062706
 30
0.0
 40
85.25000000000003
100
AcDbArc
 50
273.3078872737
 51
266.6921127263
  0
LINE
  5
9A
330
1F
100
AcDbEntity
  8
0
  6
Continuous
 62
     7
370
    25
100
AcDbLine
 10
198.2954863576
 20
320.6727087144
 30
0.0
 11
201.2148184818
 21
320.622707868
 31
0.0
  0
LINE
  5
9B
330
1F
100
AcDbEntity
  8
0
  6
Continuous
 62
     8
370
    18
100
AcDbLine
 10
206.714818452
 20
394.3471863512
 30
0.0
 11
205.7148182881
 21
394.3471863512
 31
0.0
  0
SPLINE
  5
9C
330
1F
100
AcDbEntity
  8
0
  6
Continuous
 62
     8
370
    18
100
AcDbSpline
210
0.0
220
0.0
230
1.0
 70
     8
 71
     3
 72
    22
 73
    18
 74
     0
 42
0.000000001
 43
0.00000001
 40
0.0
 40
0.0
 40
0.0
 40
0.0
 40
0.125
 40
0.125
 40
0.25
 40
0.25
 40
0.375
 40
0.375
 40
0.5
 40
0.5
 40
0.625
 40
0.625
 40
0.75
 40
0.75
 40
0.875
 40
0.875
 40
1.0
 40
1.0
 40
1.0
 40
1.0
 10
205.7148184818483
 20
394.3471864430139
 30
0.0
 10
205.7148184818483
 20
394.5390895172986
 30
0.0
 10
205.7164741007001
 20
394.7307952543733
 30
0.0
 10
205.7451978910112
 20
395.1111777449934
 30
0.0
 10
205.7712907893494
 20
395.2999707436978
 30
0.0
 10
205.8563313083794
 20
395.6736407073888
 30
0.0
 10
205.9160257887349
 20
395.8596825865386
 30
0.0
 10
206.0707641415585
 20
396.2102090346741
 30
0.0
 10
206.1660231504587
 20
396.3765592915723
 30
0.0
 10
206.3969580081603
 20
396.6887795285017
 30
0.0
 10
206.5281055531067
 20
396.8284941181238
 30
0.0
 10
206.8179147849719
 20
397.0791538095951
 30
0.0
 10
206.9781523551296
 20
397.1908064890245
 30
0.0
 10
207.3106839655457
 20
397.3820986834883
 30
0.0
 10
207.4838621157521
 20
397.4627346791255
 30
0.0
 10
207.8405511192586
 20
397.601569288698
 30
0.0
 10
208.0247727758515
 20
397.6583274366441
 30
0.0
 10
208.2090519703739
 20
397.7144681433666
 30
0.0
  0
LWPOLYLINE
  5
9D
330
1F
100
AcDbEntity
  8
0
  6
Continuous
 62
     8
370
    18
100
AcDbPolyline
 90
        9
 70
   128
 43
0.0
 10
208.500478149
 20
396.7578748906
 10
208.494878572
 20
396.7762555603
 10
208.4782949765
 20
396.8306912192
 10
208.4513643873
 20
396.9190899278
 10
208.4151215037
 20
397.0380545706
 10
208.3709595842
 20
397.1830134159
 10
208.3205759642
 20
397.3483957579
 10
208.2659063977
 20
397.5278460766
 10
208.2090519485
 20
397.7144681029
  0
LINE
  5
9E
330
1F
100
AcDbEntity
  8
0
  6
Continuous
 62
     8
370
    18
100
AcDbLine
 10
205.7148182881
 20
321.6727032904
 30
0.0
 11
205.7148182881
 21
394.3471863512
 31
0.0
  0
LINE
  5
9F
330
1F
100
AcDbEntity
  8
0
  6
Continuous
 62
     8
370
    18
100
AcDbLine
 10
196.7148186756
 20
321.6727032904
 30
0.0
 11
205.7148182881
 21
321.6727032904
 31
0.0
  0
LINE
  5
A0
330
1F
100
AcDbEntity
  8
0
  6
Continuous
 62
     8
370
    18
100
AcDbLine
 10
196.7148186756
 20
394.3471863512
 30
0.0
 11
196.7148186756
 21
321.6727032904
 31
0.0
  0
SPLINE
  5
A1
330
1F
100
AcDbEntity
  8
0
  6
Continuous
 62
     8
370
    18
100
AcDbSpline
210
0.0
220
0.0
230
1.0
 70
     8
 71
     3
 72
    22
 73
    18
 74
     0
 42
0.000000001
 43
0.00000001
 40
0.0
 40
0.0
 40
0.0
 40
0.0
 40
0.125
 40
0.125
 40
0.25
 40
0.25
 40
0.375
 40
0.375
 40
0.5
 40
0.5
 40
0.625
 40
0.625
 40
0.75
 40
0.75
 40
0.875
 40
0.875
 40
1.0
 40
1.0
 40
1.0
 40
1.0
 10
194.2205849933226
 20
397.7144681433666
 30
0.0
 10
194.4041141191105
 20
397.658555945288
 30
0.0
 10
194.5874088897786
 20
397.602110367638
 30
0.0
 10
194.9429015387476
 20
397.4639632858256
 30
0.0
 10
195.1157311993098
 20
397.3836996839008
 30
0.0
 10
195.4481269947903
 20
397.1929854134456
 30
0.0
 10
195.6085816911874
 20
397.0815088982083
 30
0.0
 10
195.8987631423312
 20
396.8312423019933
 30
0.0
 10
196.0301736788744
 20
396.6916720467885
 30
0.0
 10
196.2616021853558
 20
396.3797639868968
 30
0.0
 10
196.3570758758978
 20
396.2136108197867
 30
0.0
 10
196.5123016716537
 20
395.863304524107
 30
0.0
 10
196.5722348425208
 20
395.6773919241223
 30
0.0
 10
196.6577889013842
 20
395.3033553518302
 30
0.0
 10
196.6841221078043
 20
395.1141154624845
 30
0.0
 10
196.7131326791682
 20
394.7324397181665
 30
0.0
 10
196.7148184818483
 20
394.5397758407123
 30
0.0
 10
196.7148184818483
 20
394.3471864430139
 30
0.0
  0
ARC
  5
A2
330
1F
100
AcDbEntity
  8
0
  6
Continuous
 62
     8
370
    18
100
AcDbCircle
 10
201.2148184818
 20
420.6727062706
 30
0.0
 40
24.00000000000005
100
AcDbArc
 50
286.9433715416
 51
253.0566284584
  0
LWPOLYLINE
  5
A3
330
1F
100
AcDbEntity
  8
0
  6
Continuous
 62
     8
370
    18
100
AcDbPolyline
 90
        9
 70
   128
 43
0.0
 10
193.9291588147
 20
396.7578748906
 10
193.9347583917
 20
396.7762555603
 10
193.9513419871
 20
396.8306912192
 10
193.9782725764
 20
396.9190899278
 10
194.01451546
 20
397.0380545706
 10
194.0586773795
 20
397.1830134159
 10
194.1090609995
 20
397.3483957579
 10
194.163730566
 20
397.5278460766
 10
194.2205850152
 20
397.7144681029
  0
LINE
  5
A4
330
1F
100
AcDbEntity
  8
0
  6
Continuous
 62
     8
370
    18
100
AcDbLine
 10
195.7148185116
 20
394.3471863512
 30
0.0
 11
196.7148186756
 21
394.3471863512
 31
0.0
  0
LINE
  5
A5
330
1F
100
AcDbEntity
  8
0
  6
Continuous
 62
     8
370
    18
100
AcDbLine
 10
196.7148186756
 20
321.6727032904
 30
0.0
 11
195.7148185116
 21
321.6727032904
 31
0.0
  0
LINE
  5
A6
330
1F
100
AcDbEntity
  8
0
  6
Continuous
 62
     8
370
    18
100
AcDbLine
 10
205.7148182881
 20
321.6727032904
 30
0.0
 11
206.714818452
 21
321.6727032904
 31
0.0
  0
LINE
  5
A7
330
1F
100
AcDbEntity
  8
0
  6
Continuous
 62
     8
370
    18
100
AcDbLine
 10
196.7148186756
 20
321.6727032904
 30
0.0
 11
196.7148186756
 21
320.6727087144
 31
0.0
  0
LINE
  5
A8
330
1F
100
AcDbEntity
  8
0
  6
Continuous
 62
     8
370
    18
100
AcDbLine
 10
205.7148182881
 20
321.6727032904
 30
0.0
 11
205.7148182881
 21
320.6727087144
 31
0.0
  0
ARC
  5
A9
330
1F
100
AcDbEntity
  8
0
  6
Continuous
 62
     8
370
    18
100
AcDbCircle
 10
201.2148184818
 20
405.8727062706
 30
0.0
 40
83.89473357063693
100
AcDbArc
 50
273.7589124132
 51
266.2410875868
  0
ARC
  5
AA
330
1F
100
AcDbEntity
  8
0
  6
Continuous
 62
     8
370
    18
100
AcDbCircle
 10
201.2148184818
 20
405.8727062706
 30
0.0
 40
84.88240593367375
100
AcDbArc
 50
273.6192837259
 51
266.3807162741
  0
LINE
  5
AB
330
1F
100
AcDbEntity
  8
0
  6
Continuous
 62
     7
370
    25
100
AcDbLine
 10
413.5128382469
 20
320.622707868
 30
0.0
 11
427.5506901897
 21
320.9902971629
 31
0.0
  0
LINE
  5
AC
330
1F
100
AcDbEntity
  8
0
  6
Continuous
 62
     7
370
    25
100
AcDbLine
 10
427.5506901897
 20
490.755113924
 30
0.0
 11
413.5128382469
 21
491.1227032189
 31
0.0
  0
ARC
  5
AD
330
1F
100
AcDbEntity
  8
0
  6
Continuous
 62
     7
370
    25
100
AcDbCircle
 10
427.5245123752
 20
489.7554548793
 30
0.0
 40
0.999999999999202
100
AcDbArc
 50
0.686704177
 51
88.5
  0
ARC
  5
AE
330
1F
100
AcDbEntity
  8
0
  6
Continuous
 62
     7
370
    25
100
AcDbCircle
 10
427.5245123752
 20
321.9899576619
 30
0.0
 40
0.9999999999991912
100
AcDbArc
 50
271.5
 51
359.313295823
  0
ARC
  5
AF
330
1F
100
AcDbEntity
  8
0
  6
Continuous
 62
     7
370
    25
100
AcDbCircle
 10
-6570.9728037981
 20
405.8727062707
 30
0.0
 40
6999.999999999999
100
AcDbArc
 50
359.313295823
 51
359.9206944406
  0
ARC
  5
B0
330
1F
100
AcDbEntity
  8
0
  6
Continuous
 62
     7
370
    25
100
AcDbCircle
 10
-6570.9728037981
 20
405.8727062707
 30
0.0
 40
6999.999999999999
100
AcDbArc
 50
0.3210118979
 51
0.686704177
  0
LINE
  5
B1
330
1F
100
AcDbEntity
  8
0
  6
Continuous
 62
     7
370
    25
100
AcDbLine
 10
477.9790583408
 20
395.6727062231
 30
0.0
 11
485.3915143168
 21
395.6727062231
 31
0.0
  0
LINE
  5
B2
330
1F
100
AcDbEntity
  8
0
  6
Continuous
 62
     7
370
    25
100
AcDbLine
 10
463.7128393508
 20
395.6727062231
 30
0.0
 11
470.0466151691
 21
395.6727062231
 31
0.0
  0
LINE
  5
B3
330
1F
100
AcDbEntity
  8
0
  6
Continuous
 62
     7
370
    25
100
AcDbLine
 10
497.5128415382
 20
445.6727049891
 30
0.0
 11
470.3650343574
 21
445.6727049891
 31
0.0
  0
ARC
  5
B4
330
1F
100
AcDbEntity
  8
0
  6
Continuous
 62
     7
370
    25
100
AcDbCircle
 10
497.5128382838
 20
444.6727062706
 30
0.0
 40
1.0
100
AcDbArc
 50
0.0
 51
90.0
  0
ARC
  5
B5
330
1F
100
AcDbEntity
  8
0
  6
Continuous
 62
     7
370
    25
100
AcDbCircle
 10
470.3650334922
 20
445.4727062706
 30
0.0
 40
0.2000000000000112
100
AcDbArc
 50
109.0195202153
 51
165.0
  0
ARC
  5
B6
330
1F
100
AcDbEntity
  8
0
  6
Continuous
 62
     7
370
    25
100
AcDbCircle
 10
463.7128382838
 20
395.8727062706
 30
0.0
 40
0.1999999999999886
100
AcDbArc
 50
180.0
 51
270.0
  0
LINE
  5
B7
330
1F
100
AcDbEntity
  8
0
  6
Continuous
 62
     7
370
    25
100
AcDbLine
 10
458.0128397203
 20
445.1727077011
 30
0.0
 11
428.9170465774
 21
445.1727077011
 31
0.0
  0
LINE
  5
B8
330
1F
100
AcDbEntity
  8
0
  6
Continuous
 62
     7
370
    25
100
AcDbLine
 10
429.0204531855
 20
396.1727062469
 30
0.0
 11
458.0128397203
 21
396.1727062469
 31
0.0
  0
ARC
  5
B9
330
1F
100
AcDbEntity
  8
0
  6
Continuous
 62
     7
370
    25
100
AcDbCircle
 10
458.0128382838
 20
420.6727062706
 30
0.0
 40
24.50000000000005
100
AcDbArc
 50
270.0
 51
282.9728781508
  0
ARC
  5
BA
330
1F
100
AcDbEntity
  8
0
  6
Continuous
 62
     7
370
    25
100
AcDbCircle
 10
458.0128382838
 20
420.6727062706
 30
0.0
 40
24.5
100
AcDbArc
 50
62.476472663
 51
90.0
  0
SPLINE
  5
BB
330
1F
100
AcDbEntity
  8
0
  6
Continuous
 62
     7
370
    25
100
AcDbSpline
210
0.0
220
0.0
230
1.0
 70
     8
 71
     3
 72
    10
 73
     6
 74
     0
 42
0.000000001
 43
0.00000001
 40
0.0
 40
0.0
 40
0.0
 40
0.0
 40
0.2434846492966872
 40
0.4985427976086442
 40
1.0
 40
1.0
 40
1.0
 40
1.0
 10
487.1380347168955
 20
395.4592276476634
 30
0.0
 10
487.2078674951339
 20
395.3549080842873
 30
0.0
 10
487.3508523967624
 20
395.1413103600732
 30
0.0
 10
487.4935292056894
 20
394.6383183446275
 30
0.0
 10
487.5163101152025
 20
394.2522785713912
 30
0.0
 10
487.5314104712519
 20
393.9963915963036
 30
0.0
  0
SPLINE
  5
BC
330
1F
100
AcDbEntity
  8
0
  6
Continuous
 62
     7
370
    25
100
AcDbSpline
210
0.0
220
0.0
230
1.0
 70
     8
 71
     3
 72
    17
 73
    13
 74
     0
 42
0.000000001
 43
0.00000001
 40
0.0
 40
0.0
 40
0.0
 40
0.0
 40
0.1367463310133447
 40
0.2060796968876785
 40
0.2390246253000214
 40
0.2548105921093956
 40
0.2709539576466563
 40
0.2888156161707191
 40
0.3100534665970614
 40
0.3660117414940148
 40
0.5308972677932915
 40
1.0
 40
1.0
 40
1.0
 40
1.0
 10
485.3915143168482
 20
395.6735090231833
 30
0.0
 10
485.7067898625494
 20
395.6683644595303
 30
0.0
 10
486.1819169713555
 20
395.6606114901426
 30
0.0
 10
486.6785433592981
 20
395.4792617728752
 30
0.0
 10
486.8982139384441
 20
395.3393581685654
 30
0.0
 10
487.0117829029509
 20
395.2437657247852
 30
0.0
 10
487.0897356420226
 20
395.1649947989807
 30
0.0
 10
487.1598789658993
 20
395.0800609791748
 30
0.0
 10
487.2487638032583
 20
394.9517467241042
 30
0.0
 10
487.3805626784833
 20
394.6966835099819
 30
0.0
 10
487.5187806407596
 20
394.2025824359313
 30
0.0
 10
487.5153641299984
 20
394.0513607152345
 30
0.0
 10
487.5128361738238
 20
393.9394682292206
 30
0.0
  0
LINE
  5
BD
330
1F
100
AcDbEntity
  8
0
  6
Continuous
 62
     7
370
    25
100
AcDbLine
 10
470.0320120311
 20
395.6700261096
 30
0.0
 11
470.2314193702
 21
395.1221589577
 31
0.0
  0
LINE
  5
BE
330
1F
100
AcDbEntity
  8
0
  6
Continuous
 62
     7
370
    25
100
AcDbLine
 10
477.7942541397
 20
395.1221589577
 30
0.0
 11
477.9936614788
 21
395.6700261096
 31
0.0
  0
ARC
  5
BF
330
1F
100
AcDbEntity
  8
0
  6
Continuous
 62
     7
370
    25
100
AcDbCircle
 10
477.6063183928
 20
395.1905629294
 30
0.0
 40
0.1999999999999886
100
AcDbArc
 50
270.0
 51
340.0
  0
ARC
  5
C0
330
1F
100
AcDbEntity
  8
0
  6
Continuous
 62
     7
370
    25
100
AcDbCircle
 10
470.4193581749
 20
395.1905629294
 30
0.0
 40
0.1999999999999824
100
AcDbArc
 50
200.0
 51
270.0
  0
LINE
  5
C1
330
1F
100
AcDbEntity
  8
0
  6
Continuous
 62
     7
370
    25
100
AcDbLine
 10
470.4193565405
 20
394.9905629615
 30
0.0
 11
477.6063206947
 21
394.9905629615
 31
0.0
  0
LINE
  5
C2
330
1F
100
AcDbEntity
  8
0
  6
Continuous
 62
     7
370
    25
100
AcDbLine
 10
413.5128382469
 20
491.1227032189
 30
0.0
 11
413.5128382469
 21
320.622707868
 31
0.0
  0
SPLINE
  5
C3
330
1F
100
AcDbEntity
  8
0
  6
Continuous
 62
     7
370
    25
100
AcDbSpline
210
0.0
220
0.0
230
1.0
 70
     8
 71
     3
 72
    21
 73
    17
 74
     0
 42
0.000000001
 43
0.00000001
 40
0.0
 40
0.0
 40
0.0
 40
0.0
 40
0.070569231198078
 40
0.1431849828273089
 40
0.2137542080643966
 40
0.2863699530875811
 40
0.3569392727481683
 40
0.4295551058288524
 40
0.5001244609426968
 40
0.5727403384844394
 40
0.6433096314779614
 40
0.7159254427979946
 40
0.7864945935874516
 40
0.85911026230052
 40
0.9296792586587777
 40
0.9999999999999999
 40
0.9999999999999999
 40
0.9999999999999999
 40
0.9999999999999999
 10
428.9320464587721
 20
437.9969864730102
 30
0.0
 10
428.9341744202609
 20
436.9906023841922
 30
0.0
 10
428.9384920545054
 20
434.9486488864898
 30
0.0
 10
428.9460672700896
 20
431.3660673185657
 30
0.0
 10
428.9542792759005
 20
427.4813616440917
 30
0.0
 10
428.9628444914585
 20
423.4300112487377
 30
0.0
 10
428.9716489785729
 20
419.2656892264985
 30
0.0
 10
428.9802942565533
 20
415.1780346167629
 30
0.0
 10
428.9886809358438
 20
411.2100109893773
 30
0.0
 10
428.9964305421502
 20
407.5452160429895
 30
0.0
 10
429.0034599966424
 20
404.2211306902527
 30
0.0
 10
429.0094375870753
 20
401.3929770921111
 30
0.0
 10
429.0143179059652
 20
399.0849629103772
 30
0.0
 10
429.01783204371
 20
397.4223806336678
 30
0.0
 10
429.0200694652351
 20
396.3648206033544
 30
0.0
 10
429.0203254290789
 20
396.2439738687395
 30
0.0
 10
429.0204531854901
 20
396.1836569705357
 30
0.0
  0
SPLINE
  5
C4
330
1F
100
AcDbEntity
  8
0
  6
Continuous
 62
     7
370
    25
100
AcDbSpline
210
0.0
220
0.0
230
1.0
 70
     8
 71
     3
 72
    13
 73
     9
 74
     0
 42
0.000000001
 43
0.00000001
 40
0.0
 40
0.0
 40
0.0
 40
0.0
 40
0.0845472335893541
 40
0.3023432237526751
 40
0.5140010304133933
 40
0.7317969367583439
 40
0.8651539750319527
 40
1.0
 40
1.0
 40
1.0
 40
1.0
 10
428.9170465773853
 20
445.0915187243683
 30
0.0
 10
428.9170037998302
 20
445.1117313687067
 30
0.0
 10
428.916850826121
 20
445.1840123386501
 30
0.0
 10
428.9181254238069
 20
444.5806365764765
 30
0.0
 10
428.920828775805
 20
443.3031742367775
 30
0.0
 10
428.9244578520479
 20
441.5854248344179
 30
0.0
 10
428.9283005763474
 20
439.7683682642746
 30
0.0
 10
428.9307932184852
 20
438.5896284122682
 30
0.0
 10
428.9320464587721
 20
437.9969864730102
 30
0.0
  0
SPLINE
  5
C5
330
1F
100
AcDbEntity
  8
0
  6
Continuous
 62
     7
370
    25
100
AcDbSpline
210
0.0
220
0.0
230
1.0
 70
     8
 71
     3
 72
     8
 73
     4
 74
     0
 42
0.000000001
 43
0.00000001
 40
0.0
 40
0.0
 40
0.0
 40
0.0
 40
1.0
 40
1.0
 40
1.0
 40
1.0
 10
463.5128382838286
 20
418.039656318879
 30
0.0
 10
463.5128382838286
 20
419.7945101967014
 30
0.0
 10
463.7398712533298
 20
421.5200048477987
 30
0.0
 10
464.1943217580472
 20
423.2160372209295
 30
0.0
  0
LWPOLYLINE
  5
C6
330
1F
100
AcDbEntity
  8
0
  6
Continuous
 62
     7
370
    25
100
AcDbPolyline
 90
       16
 70
   128
 43
0.0
 10
470.3650343574
 20
445.6727049891
 10
470.356495992
 20
445.6405892615
 10
470.2883306301
 20
445.384136552
 10
470.1527002609
 20
444.873872364
 10
469.9509944177
 20
444.1150307302
 10
469.6852880872
 20
443.1154086832
 10
469.3583119071
 20
441.8852731232
 10
468.973422364
 20
440.4372602348
 10
468.534571991
 20
438.7862376515
 10
468.0462683893
 20
436.9491703455
 10
467.5135295249
 20
434.944926912
 10
466.9418241239
 20
432.7940858547
 10
466.3370269692
 20
430.5187455956
 10
465.7053481198
 20
428.1422748808
 10
465.0532733059
 20
425.689083675
 10
464.640127436
 20
424.1347603146
  0
SPLINE
  5
C7
330
1F
100
AcDbEntity
  8
0
  6
Continuous
 62
     7
370
    25
100
AcDbSpline
210
0.0
220
0.0
230
1.0
 70
     8
 71
     3
 72
    30
 73
    26
 74
     0
 42
0.000000001
 43
0.00000001
 40
0.0
 40
0.0
 40
0.0
 40
0.0
 40
0.1250000000000021
 40
0.1250000000000021
 40
0.1875000000000032
 40
0.1875000000000032
 40
0.2500000000000043
 40
0.2500000000000043
 40
0.3125000000000054
 40
0.3125000000000054
 40
0.3750000000000065
 40
0.3750000000000065
 40
0.5000000000000043
 40
0.5000000000000043
 40
0.5625000000000033
 40
0.5625000000000033
 40
0.6250000000000023
 40
0.6250000000000023
 40
0.6875000000000013
 40
0.6875000000000013
 40
0.7500000000000003
 40
0.7500000000000003
 40
0.8750000000000002
 40
0.8750000000000002
 40
1.0
 40
1.0
 40
1.0
 40
1.0
 10
477.6874130891631
 20
395.7227062706269
 30
0.0
 10
477.5325483756887
 20
395.745514365792
 30
0.0
 10
477.32985789164
 20
395.7740850476196
 30
0.0
 10
476.9556773560633
 20
395.8202419715455
 30
0.0
 10
476.8188970161129
 20
395.8361733541923
 30
0.0
 10
476.5301900648342
 20
395.8671330724635
 30
0.0
 10
476.3772690394425
 20
395.8822918958123
 30
0.0
 10
476.0541950059852
 20
395.9110171250129
 30
0.0
 10
475.8825140023822
 20
395.9246801987837
 30
0.0
 10
475.5301600765394
 20
395.9488034115976
 30
0.0
 10
475.3494533795293
 20
395.9593025213902
 30
0.0
 10
474.7939304202723
 20
395.9851943514288
 30
0.0
 10
474.4008347954225
 20
395.9947665920922
 30
0.0
 10
473.8202078406786
 20
395.9947880468641
 30
0.0
 10
473.6269174118753
 20
395.9925179851843
 30
0.0
 10
473.2408520721743
 20
395.9834632365347
 30
0.0
 10
473.0487607478738
 20
395.9766522464782
 30
0.0
 10
472.6776235542141
 20
395.9593811758016
 30
0.0
 10
472.4969788601057
 20
395.9488899107265
 30
0.0
 10
472.1455315477857
 20
395.9248558578727
 30
0.0
 10
471.973584157135
 20
395.9111936055149
 30
0.0
 10
471.487480593518
 20
395.8680043020674
 30
0.0
 10
471.1972904635024
 20
395.8359297198205
 30
0.0
 10
470.6961129479363
 20
395.7741354911647
 30
0.0
 10
470.4931269344499
 20
395.7455141805878
 30
0.0
 10
470.3382634784938
 20
395.7227062706269
 30
0.0
  0
SPLINE
  5
C8
330
1F
100
AcDbEntity
  8
0
  6
Continuous
 62
     7
370
    25
100
AcDbSpline
210
0.0
220
0.0
230
1.0
 70
     8
 71
     3
 72
     9
 73
     5
 74
     0
 42
0.000000001
 43
0.00000001
 40
0.0
 40
0.0
 40
0.0
 40
0.0
 40
0.9372673881341377
 40
1.0
 40
1.0
 40
1.0
 40
1.0
 10
470.3382644212755
 20
395.7227062546027
 30
0.0
 10
470.1548574876706
 20
395.6927884633938
 30
0.0
 10
469.9591748725206
 20
395.6608682327448
 30
0.0
 10
470.0414536090553
 20
395.6744296552649
 30
0.0
 10
470.0466151690993
 20
395.6752803987202
 30
0.0
  0
SPLINE
  5
C9
330
1F
100
AcDbEntity
  8
0
  6
Continuous
 62
     7
370
    25
100
AcDbSpline
210
0.0
220
0.0
230
1.0
 70
     8
 71
     3
 72
     9
 73
     5
 74
     0
 42
0.000000001
 43
0.00000001
 40
0.0
 40
0.0
 40
0.0
 40
0.0
 40
0.8044675658193804
 40
1.0
 40
1.0
 40
1.0
 40
1.0
 10
477.9790583408388
 20
395.6752803987202
 30
0.0
 10
477.9519344230441
 20
395.6801273439653
 30
0.0
 10
477.9182178147592
 20
395.686152378971
 30
0.0
 10
477.7251615711914
 20
395.7167277733197
 30
0.0
 10
477.6874128139528
 20
395.7227062546027
 30
0.0
  0
LINE
  5
CA
330
1F
100
AcDbEntity
  8
0
  6
Continuous
 62
     7
370
    25
100
AcDbLine
 10
498.5128361142
 20
444.6727066879
 30
0.0
 11
498.5128361142
 21
397.7144681029
 31
0.0
  0
LWPOLYLINE
  5
CB
330
1F
100
AcDbEntity
  8
0
  6
Continuous
 62
     7
370
    25
100
AcDbPolyline
 90
       16
 70
   128
 43
0.0
 10
464.194321946
 20
423.2160366718
 10
464.8600909269
 20
425.7007158939
 10
465.5121620155
 20
428.1342841331
 10
466.1438408649
 20
430.4917409662
 10
466.7486380196
 20
432.7488794569
 10
467.3203434206
 20
434.8825133983
 10
467.853082285
 20
436.8707231824
 10
468.3413858867
 20
438.6930942182
 10
468.7802362597
 20
440.330906922
 10
469.1651258028
 20
441.7673378829
 10
469.4921057082
 20
442.987631226
 10
469.7578083134
 20
443.9792550747
 10
469.9595141566
 20
444.7320244853
 10
470.0951445258
 20
445.2382094805
 10
470.1633098877
 20
445.4926095549
 10
470.1718482531
 20
445.5244682376
  0
LINE
  5
CC
330
1F
100
AcDbEntity
  8
0
  6
Continuous
 62
     7
370
    25
100
AcDbLine
 10
463.5128396905
 20
395.8727062908
 30
0.0
 11
463.5128396905
 21
418.0396563951
 31
0.0
  0
SPLINE
  5
CD
330
1F
100
AcDbEntity
  8
0
  6
Continuous
 62
     7
370
    25
100
AcDbSpline
210
0.0
220
0.0
230
1.0
 70
    24
 71
     3
 72
    22
 73
    18
 74
     0
 42
0.000000001
 43
0.00000001
 40
0.0
 40
0.0
 40
0.0
 40
0.0
 40
0.125
 40
0.125
 40
0.25
 40
0.25
 40
0.375
 40
0.375
 40
0.5
 40
0.5
 40
0.625
 40
0.625
 40
0.75
 40
0.75
 40
0.875
 40
0.875
 40
1.0
 40
1.0
 40
1.0
 40
1.0
 10
498.5128382838284
 20
397.7144681433666
 30
0.0
 10
498.5128382838284
 20
397.658555945288
 30
0.0
 10
498.5128382838284
 20
397.602110367638
 30
0.0
 10
498.5128382838284
 20
397.4639632858256
 30
0.0
 10
498.5128382838285
 20
397.3836996839008
 30
0.0
 10
498.5128382838284
 20
397.1929854134456
 30
0.0
 10
498.5128382838284
 20
397.0815088982083
 30
0.0
 10
498.5128382838284
 20
396.8312423019933
 30
0.0
 10
498.5128382838285
 20
396.6916720467885
 30
0.0
 10
498.5128382838284
 20
396.3797639868968
 30
0.0
 10
498.5128382838284
 20
396.2136108197867
 30
0.0
 10
498.5128382838284
 20
395.863304524107
 30
0.0
 10
498.5128382838284
 20
395.6773919241223
 30
0.0
 10
498.5128382838284
 20
395.3033553518302
 30
0.0
 10
498.5128382838284
 20
395.1141154624845
 30
0.0
 10
498.5128382838284
 20
394.7324397181665
 30
0.0
 10
498.5128382838284
 20
394.5397758407123
 30
0.0
 10
498.5128382838284
 20
394.3471864430139
 30
0.0
  0
LINE
  5
CE
330
1F
100
AcDbEntity
  8
0
  6
Continuous
 62
     7
370
    25
100
AcDbLine
 10
487.5503945506
 20
393.997482175
 30
0.0
 11
487.5128361738
 21
393.9273137711
 31
0.0
  0
SPLINE
  5
CF
330
1F
100
AcDbEntity
  8
0
  6
Continuous
 62
     7
370
    25
100
AcDbSpline
210
0.0
220
0.0
230
1.0
 70
     8
 71
     3
 72
    22
 73
    18
 74
     0
 42
0.000000001
 43
0.00000001
 40
0.0
 40
0.0
 40
0.0
 40
0.0
 40
0.1249999999999999
 40
0.1249999999999999
 40
0.2499999999999997
 40
0.2499999999999997
 40
0.3749999999999997
 40
0.3749999999999997
 40
0.4999999999999998
 40
0.4999999999999998
 40
0.6249999999999998
 40
0.6249999999999998
 40
0.7499999999999998
 40
0.7499999999999998
 40
0.8749999999999999
 40
0.8749999999999999
 40
1.0
 40
1.0
 40
1.0
 40
1.0
 10
487.5128382838283
 20
393.9274025066399
 30
0.0
 10
487.5128382833587
 20
394.0740056590737
 30
0.0
 10
487.5124073530445
 20
394.2214142441258
 30
0.0
 10
487.4922035508561
 20
394.5188854307653
 30
0.0
 10
487.4725212193555
 20
394.6686042529006
 30
0.0
 10
487.4041715139762
 20
394.9579359067154
 30
0.0
 10
487.3555946804711
 20
395.0972049589428
 30
0.0
 10
487.2257525593613
 20
395.3500748501295
 30
0.0
 10
487.1445778121303
 20
395.4633319096365
 30
0.0
 10
486.949059929737
 20
395.656126760312
 30
0.0
 10
486.8342044645703
 20
395.7361698433193
 30
0.0
 10
486.5777700365523
 20
395.8641995427158
 30
0.0
 10
486.4365396852645
 20
395.9120968737131
 30
0.0
 10
486.1431369225508
 20
395.9794880461209
 30
0.0
 10
485.9913131226884
 20
395.9988926021396
 30
0.0
 10
485.6896612176285
 20
396.0188090931472
 30
0.0
 10
485.5401817239946
 20
396.0192317427444
 30
0.0
 10
485.3915179402688
 20
396.0192317427444
 30
0.0
  0
LINE
  5
D0
330
1F
100
AcDbEntity
  8
0
  6
Continuous
 62
     7
370
    25
100
AcDbLine
 10
487.5128361738
 20
321.6727032904
 30
0.0
 11
487.5128361738
 21
393.9273137711
 31
0.0
  0
LINE
  5
D1
330
1F
100
AcDbEntity
  8
0
  6
Continuous
 62
     7
370
    25
100
AcDbLine
 10
497.5128415382
 20
320.6727087144
 30
0.0
 11
488.5128382004
 21
320.6727087144
 31
0.0
  0
LINE
  5
D2
330
1F
100
AcDbEntity
  8
0
  6
Continuous
 62
     7
370
    25
100
AcDbLine
 10
498.5128361142
 20
394.3471863512
 30
0.0
 11
498.5128361142
 21
321.6727032904
 31
0.0
  0
ARC
  5
D3
330
1F
100
AcDbEntity
  8
0
  6
Continuous
 62
     7
370
    25
100
AcDbCircle
 10
488.5128382838
 20
321.6727062706
 30
0.0
 40
1.0
100
AcDbArc
 50
180.0
 51
270.0
  0
ARC
  5
D4
330
1F
100
AcDbEntity
  8
0
  6
Continuous
 62
     7
370
    25
100
AcDbCircle
 10
497.5128382838
 20
321.6727062706
 30
0.0
 40
1.0
100
AcDbArc
 50
270.0
 51
0.0
  0
LINE
  5
D5
330
1F
100
AcDbEntity
  8
0
  6
Continuous
 62
     7
370
    25
100
AcDbLine
 10
470.3382644213
 20
395.7227062546
 30
0.0
 11
477.687412814
 21
395.7227062546
 31
0.0
  0
LINE
  5
D6
330
1F
100
AcDbEntity
  8
0
  6
Continuous
 62
     8
370
    18
100
AcDbLine
 10
427.5506901897
 20
490.755113924
 30
0.0
 11
427.5506901897
 21
320.9902971629
 31
0.0
  0
LINE
  5
D7
330
1F
100
AcDbEntity
  8
0
  6
Continuous
 62
     8
370
    18
100
AcDbLine
 10
428.5244400955
 20
489.7674426083
 30
0.0
 11
428.5244400955
 21
321.9779759292
 31
0.0
  0
SPLINE
  5
D8
330
1F
100
AcDbEntity
  8
0
  6
Continuous
 62
     8
370
    18
100
AcDbSpline
210
0.0
220
0.0
230
1.0
 70
     8
 71
     3
 72
     8
 73
     4
 74
     0
 42
0.000000001
 43
0.00000001
 40
0.0
 40
0.0
 40
0.0
 40
0.0
 40
1.0
 40
1.0
 40
1.0
 40
1.0
 10
464.387506923305
 20
423.1843666953064
 30
0.0
 10
463.9374760588942
 20
421.4912839826499
 30
0.0
 10
463.7128382838285
 20
419.7692520433038
 30
0.0
 10
463.7128382838285
 20
418.0184220450746
 30
0.0
  0
ARC
  5
D9
330
1F
100
AcDbEntity
  8
0
  6
Continuous
 62
     8
370
    18
100
AcDbCircle
 10
463.6634017579
 20
418.5052734991
 30
0.0
 40
0.489354905646654
100
AcDbArc
 50
252.0808540787
 51
275.7982580099
  0
ARC
  5
DA
330
1F
100
AcDbEntity
  8
0
  6
Continuous
 62
     8
370
    18
100
AcDbCircle
 10
464.2092816586
 20
422.7022490658
 30
0.0
 40
0.5140053472993228
100
AcDbArc
 50
69.7119308291
 51
91.6677831375
  0
SPLINE
  5
DB
330
1F
100
AcDbEntity
  8
0
  6
Continuous
 62
     8
370
    18
100
AcDbSpline
210
0.0
220
0.0
230
1.0
 70
     8
 71
     3
 72
    23
 73
    19
 74
     0
 42
0.000000001
 43
0.00000001
 40
0.0
 40
0.0
 40
0.0
 40
0.0
 40
0.0331867439762037
 40
0.0661401785636323
 40
0.0989640307156722
 40
0.1317632568154775
 40
0.1646430490757123
 40
0.1977078307795266
 40
0.2310602877041217
 40
0.2904092139197603
 40
0.3502512812894726
 40
0.4728582961787943
 40
0.6011590110453151
 40
0.7300542628984317
 40
0.797103031376103
 40
0.8642696152263665
 40
0.9320556753949598
 40
1.0
 40
1.0
 40
1.0
 40
1.0
 10
485.391517940266
 20
396.0192306020047
 30
0.0
 10
485.3890164579079
 20
396.0285477490486
 30
0.0
 10
485.3840310791085
 20
396.0471165417457
 30
0.0
 10
485.3882482273561
 20
396.0763114158876
 30
0.0
 10
485.4011156200822
 20
396.1062954318986
 30
0.0
 10
485.4234532779996
 20
396.1371512477569
 30
0.0
 10
485.4550346689412
 20
396.168826521305
 30
0.0
 10
485.4959442387301
 20
396.2013046775827
 30
0.0
 10
485.5588710714709
 20
396.2430644991803
 30
0.0
 10
485.6539693810034
 20
396.2944759640135
 30
0.0
 10
485.8414325611367
 20
396.3760877899479
 30
0.0
 10
486.1502415709508
 20
396.4789865668183
 30
0.0
 10
486.6244424049158
 20
396.5916340221147
 30
0.0
 10
487.0978459475198
 20
396.6674404343362
 30
0.0
 10
487.5087109875946
 20
396.7130428870926
 30
0.0
 10
487.8356972335834
 20
396.7384708513724
 30
0.0
 10
488.171670781553
 20
396.7548245115388
 30
0.0
 10
488.3990274155572
 20
396.7568573057956
 30
0.0
 10
488.5128382838284
 20
396.7578748880641
 30
0.0
  0
SPLINE
  5
DC
330
1F
100
AcDbEntity
  8
0
  6
Continuous
 62
     8
370
    18
100
AcDbSpline
210
0.0
220
0.0
230
1.0
 70
    24
 71
     3
 72
     8
 73
     4
 74
     0
 42
0.000000001
 43
0.00000001
 40
0.0
 40
0.0
 40
0.0
 40
0.0
 40
1.0
 40
1.0
 40
1.0
 40
1.0
 10
485.3915179402688
 20
395.6727062706269
 30
0.0
 10
485.3915179402688
 20
395.6727062706269
 30
0.0
 10
485.3915179402688
 20
395.7887495513947
 30
0.0
 10
485.3915179402688
 20
396.0192306020057
 30
0.0
  0
LINE
  5
DD
330
1F
100
AcDbEntity
  8
0
  6
Continuous
 62
     8
370
    18
100
AcDbLine
 10
497.5128415382
 20
396.7578748906
 30
0.0
 11
497.5128415382
 21
445.6727049891
 31
0.0
  0
LINE
  5
DE
330
1F
100
AcDbEntity
  8
0
  6
Continuous
 62
     8
370
    18
100
AcDbLine
 10
488.5128382004
 20
396.7578748906
 30
0.0
 11
497.5128415382
 21
396.7578748906
 31
0.0
  0
LINE
  5
DF
330
1F
100
AcDbEntity
  8
0
  6
Continuous
 62
     8
370
    18
100
AcDbLine
 10
463.7128393508
 20
418.0184222404
 30
0.0
 11
463.7128393508
 21
395.6727062231
 31
0.0
  0
LINE
  5
E0
330
1F
100
AcDbEntity
  8
0
  6
Continuous
 62
     8
370
    18
100
AcDbLine
 10
464.640127436
 20
424.1347603146
 30
0.0
 11
464.3875080503
 21
423.1843661163
 31
0.0
  0
ARC
  5
E1
330
1F
100
AcDbEntity
  8
0
  6
Continuous
 62
     8
370
    18
100
AcDbCircle
 10
497.5340751867
 20
397.7366570078
 30
0.0
 40
0.9790124109033993
100
AcDbArc
 50
268.7572232686
 51
358.7013040347
  0
LINE
  5
E2
330
1F
100
AcDbEntity
  8
0
  6
Continuous
 62
     8
370
    18
100
AcDbLine
 10
458.0128397203
 20
445.1727077011
 30
0.0
 11
458.0128397203
 21
396.1727062469
 31
0.0
  0
SPLINE
  5
E3
330
1F
100
AcDbEntity
  8
0
  6
Continuous
 62
     8
370
    18
100
AcDbSpline
210
0.0
220
0.0
230
1.0
 70
    24
 71
     3
 72
    20
 73
    16
 74
     0
 42
0.000000001
 43
0.00000001
 40
0.0
 40
0.0
 40
0.0
 40
0.0
 40
0.1250000000000002
 40
0.1250000000000002
 40
0.2500000000000002
 40
0.2500000000000002
 40
0.5000000000000004
 40
0.5000000000000004
 40
0.6250000000000003
 40
0.6250000000000003
 40
0.7500000000000002
 40
0.7500000000000002
 40
0.8750000000000001
 40
0.8750000000000001
 40
1.0
 40
1.0
 40
1.0
 40
1.0
 10
497.5128382838284
 20
394.3471864430139
 30
0.0
 10
497.5128382838284
 20
394.4834910710388
 30
0.0
 10
497.5128382838284
 20
394.6204141425698
 30
0.0
 10
497.5128382838284
 20
394.8981580303565
 30
0.0
 10
497.5128382838284
 20
395.03872803413
 30
0.0
 10
497.5128382838284
 20
395.4540314824526
 30
0.0
 10
497.5128382838284
 20
395.7192455618315
 30
0.0
 10
497.5128382838284
 20
396.0486643870487
 30
0.0
 10
497.5128382838285
 20
396.1481526703245
 30
0.0
 10
497.5128382838285
 20
396.3249755655589
 30
0.0
 10
497.5128382838285
 20
396.4021608250247
 30
0.0
 10
497.5128382838285
 20
396.5341746698944
 30
0.0
 10
497.5128382838285
 20
396.5888539028054
 30
0.0
 10
497.5128382838284
 20
396.6817466565766
 30
0.0
 10
497.5128382838285
 20
396.7198108249438
 30
0.0
 10
497.5128382838284
 20
396.7578748880641
 30
0.0
  0
LINE
  5
E4
330
1F
100
AcDbEntity
  8
0
  6
Continuous
 62
     8
370
    18
100
AcDbLine
 10
497.5128415382
 20
394.3471863512
 30
0.0
 11
498.5128361142
 21
394.3471863512
 31
0.0
  0
SPLINE
  5
E5
330
1F
100
AcDbEntity
  8
0
  6
Continuous
 62
     8
370
    18
100
AcDbSpline
210
0.0
220
0.0
230
1.0
 70
    24
 71
     3
 72
    20
 73
    16
 74
     0
 42
0.000000001
 43
0.00000001
 40
0.0
 40
0.0
 40
0.0
 40
0.0
 40
0.1250000000000001
 40
0.1250000000000001
 40
0.2500000000000002
 40
0.2500000000000002
 40
0.5000000000000004
 40
0.5000000000000004
 40
0.6250000000000003
 40
0.6250000000000003
 40
0.7500000000000002
 40
0.7500000000000002
 40
0.8750000000000001
 40
0.8750000000000001
 40
1.0
 40
1.0
 40
1.0
 40
1.0
 10
488.5128382838284
 20
394.3471864430139
 30
0.0
 10
488.5128382838284
 20
394.4834910710388
 30
0.0
 10
488.5128382838284
 20
394.6204141425698
 30
0.0
 10
488.5128382838284
 20
394.8981580303565
 30
0.0
 10
488.5128382838284
 20
395.03872803413
 30
0.0
 10
488.5128382838284
 20
395.4540314824526
 30
0.0
 10
488.5128382838284
 20
395.7192455618316
 30
0.0
 10
488.5128382838284
 20
396.0486643870487
 30
0.0
 10
488.5128382838284
 20
396.1481526703245
 30
0.0
 10
488.5128382838284
 20
396.3249755655589
 30
0.0
 10
488.5128382838284
 20
396.4021608250247
 30
0.0
 10
488.5128382838284
 20
396.5341746698944
 30
0.0
 10
488.5128382838284
 20
396.5888539028054
 30
0.0
 10
488.5128382838284
 20
396.6817466565766
 30
0.0
 10
488.5128382838284
 20
396.7198108249438
 30
0.0
 10
488.5128382838284
 20
396.7578748880641
 30
0.0
  0
LINE
  5
E6
330
1F
100
AcDbEntity
  8
0
  6
Continuous
 62
     8
370
    18
100
AcDbLine
 10
497.5128415382
 20
394.3471863512
 30
0.0
 11
488.5128382004
 21
394.3471863512
 31
0.0
  0
SPLINE
  5
E7
330
1F
100
AcDbEntity
  8
0
  6
Continuous
 62
     8
370
    18
100
AcDbSpline
210
0.0
220
0.0
230
1.0
 70
     8
 71
     3
 72
    13
 73
     9
 74
     0
 42
0.000000001
 43
0.00000001
 40
0.0
 40
0.0
 40
0.0
 40
0.0
 40
0.1350236542548812
 40
0.2744386130257099
 40
0.4088156166307828
 40
0.5581868989355646
 40
0.8496704181865145
 40
1.0
 40
1.0
 40
1.0
 40
1.0
 10
488.5128382003817
 20
394.347186351226
 30
0.0
 10
488.4485750323814
 20
394.3453674697944
 30
0.0
 10
488.3179586985846
 20
394.3416705523904
 30
0.0
 10
488.1325006107925
 20
394.3134132267675
 30
0.0
 10
487.9573568212919
 20
394.2693029404054
 30
0.0
 10
487.7549326627249
 20
394.1925816605701
 30
0.0
 10
487.5873835961822
 20
394.0940789577335
 30
0.0
 10
487.5597851044657
 20
394.0220055785475
 30
0.0
 10
487.5503945506129
 20
393.9974821750385
 30
0.0
  0
LINE
  5
E8
330
1F
100
AcDbEntity
  8
0
  6
Continuous
 62
     8
370
    18
100
AcDbLine
 10
488.5128382004
 20
394.3471863512
 30
0.0
 11
488.5128382004
 21
321.6727032904
 31
0.0
  0
LINE
  5
E9
330
1F
100
AcDbEntity
  8
0
  6
Continuous
 62
     8
370
    18
100
AcDbLine
 10
487.5128361738
 20
321.6727032904
 30
0.0
 11
488.5128382004
 21
321.6727032904
 31
0.0
  0
LINE
  5
EA
330
1F
100
AcDbEntity
  8
0
  6
Continuous
 62
     8
370
    18
100
AcDbLine
 10
497.5128415382
 20
321.6727032904
 30
0.0
 11
497.5128415382
 21
394.3471863512
 31
0.0
  0
LINE
  5
EB
330
1F
100
AcDbEntity
  8
0
  6
Continuous
 62
     8
370
    18
100
AcDbLine
 10
488.5128382004
 20
321.6727032904
 30
0.0
 11
497.5128415382
 21
321.6727032904
 31
0.0
  0
LINE
  5
EC
330
1F
100
AcDbEntity
  8
0
  6
Continuous
 62
     8
370
    18
100
AcDbLine
 10
497.5128415382
 20
321.6727032904
 30
0.0
 11
497.5128415382
 21
320.6727087144
 31
0.0
  0
LINE
  5
ED
330
1F
100
AcDbEntity
  8
0
  6
Continuous
 62
     8
370
    18
100
AcDbLine
 10
488.5128382004
 20
321.6727032904
 30
0.0
 11
488.5128382004
 21
320.6727087144
 31
0.0
  0
LINE
  5
EE
330
1F
100
AcDbEntity
  8
0
  6
Continuous
 62
     8
370
    18
100
AcDbLine
 10
498.5128361142
 20
321.6727032904
 30
0.0
 11
497.5128415382
 21
321.6727032904
 31
0.0
  0
LINE
  5
EF
330
1F
100
AcDbEntity
  8
0
  6
Continuous
 62
     8
370
    18
100
AcDbLine
 10
470.2314193702
 20
395.1221589577
 30
0.0
 11
477.7942541397
 21
395.1221589577
 31
0.0
  0
LINE
  5
F0
330
1F
100
AcDbEntity
  8
0
  6
Continuous
 62
     7
370
    25
100
AcDbLine
 10
115.9648208064
 20
227.5477558125
 30
0.0
 11
116.3324101013
 21
213.5099038698
 31
0.0
  0
LINE
  5
F1
330
1F
100
AcDbEntity
  8
0
  6
Continuous
 62
     7
370
    25
100
AcDbLine
 10
286.0972268624
 20
213.5099038698
 30
0.0
 11
286.4648161573
 21
227.5477558125
 31
0.0
  0
ARC
  5
F2
330
1F
100
AcDbEntity
  8
0
  6
Continuous
 62
     7
370
    25
100
AcDbCircle
 10
285.0975670905
 20
213.5360816842
 30
0.0
 40
0.9999999999991912
100
AcDbArc
 50
270.686704177
 51
358.5
  0
ARC
  5
F3
330
1F
100
AcDbEntity
  8
0
  6
Continuous
 62
     7
370
    25
100
AcDbCircle
 10
117.3320698731
 20
213.5360816842
 30
0.0
 40
0.999999999999177
100
AcDbArc
 50
181.5
 51
269.313295823
  0
ARC
  5
F4
330
1F
100
AcDbEntity
  8
0
  6
Continuous
 62
     7
370
    25
100
AcDbCircle
 10
201.2148184818
 20
7212.0333978575
 30
0.0
 40
7000.000000000001
100
AcDbArc
 50
269.313295823
 51
269.8410578079
  0
ARC
  5
F5
330
1F
100
AcDbEntity
  8
0
  6
Continuous
 62
     7
370
    25
100
AcDbCircle
 10
201.2148184818
 20
7212.0333978575
 30
0.0
 40
7000.0
100
AcDbArc
 50
270.158907439
 51
270.686704177
  0
LINE
  5
F6
330
1F
100
AcDbEntity
  8
0
  6
Continuous
 62
     7
370
    25
100
AcDbLine
 10
176.2148181093
 20
177.1709673323
 30
0.0
 11
176.2148181093
 21
143.5477525212
 31
0.0
  0
LINE
  5
F7
330
1F
100
AcDbEntity
  8
0
  6
Continuous
 62
     7
370
    25
100
AcDbLine
 10
226.2148188544
 20
143.5477525212
 30
0.0
 11
226.2148188544
 21
177.1663405217
 31
0.0
  0
ARC
  5
F8
330
1F
100
AcDbEntity
  8
0
  6
Continuous
 62
     7
370
    25
100
AcDbCircle
 10
225.2148184818
 20
143.5477557756
 30
0.0
 40
1.0
100
AcDbArc
 50
270.0
 51
0.0
  0
ARC
  5
F9
330
1F
100
AcDbEntity
  8
0
  6
Continuous
 62
     7
370
    25
100
AcDbCircle
 10
177.2148184818
 20
143.5477557756
 30
0.0
 40
1.0
100
AcDbArc
 50
180.0
 51
270.0
  0
LINE
  5
FA
330
1F
100
AcDbEntity
  8
0
  6
Continuous
 62
     7
370
    25
100
AcDbLine
 10
225.7148178411
 20
183.0477543391
 30
0.0
 11
225.7148178411
 21
212.0919130958
 31
0.0
  0
LINE
  5
FB
330
1F
100
AcDbEntity
  8
0
  6
Continuous
 62
     7
370
    25
100
AcDbLine
 10
176.7148191226
 20
212.0919149585
 30
0.0
 11
176.7148191226
 21
183.0477543391
 31
0.0
  0
ARC
  5
FC
330
1F
100
AcDbEntity
  8
0
  6
Continuous
 62
     7
370
    25
100
AcDbCircle
 10
201.2148184818
 20
183.0477557756
 30
0.0
 40
24.49999999999999
100
AcDbArc
 50
180.0
 51
193.3927348603
  0
ARC
  5
FD
330
1F
100
AcDbEntity
  8
0
  6
Continuous
 62
     7
370
    25
100
AcDbCircle
 10
201.2148184818
 20
183.0477557756
 30
0.0
 40
24.5
100
AcDbArc
 50
346.5940626291
 51
0.0
  0
SPLINE
  5
FE
330
1F
100
AcDbEntity
  8
0
  6
Continuous
 62
     7
370
    25
100
AcDbSpline
210
0.0
220
0.0
230
1.0
 70
     8
 71
     3
 72
    10
 73
     6
 74
     0
 42
0.000000001
 43
0.00000001
 40
0.0
 40
0.0
 40
0.0
 40
0.0
 40
0.2415298428031716
 40
0.7173841788840973
 40
1.0
 40
1.0
 40
1.0
 40
1.0
 10
226.1991428328005
 20
177.1897725976777
 30
0.0
 10
226.202128425448
 20
177.2287876345055
 30
0.0
 10
226.2109961368043
 20
177.3446688433615
 30
0.0
 10
226.0648136351451
 20
177.537259087957
 30
0.0
 10
225.9293550971938
 20
177.5315089223166
 30
0.0
 10
225.8788814884869
 20
177.5293663359952
 30
0.0
  0
SPLINE
  5
FF
330
1F
100
AcDbEntity
  8
0
  6
Continuous
 62
     7
370
    25
100
AcDbSpline
210
0.0
220
0.0
230
1.0
 70
     8
 71
     3
 72
    10
 73
     6
 74
     0
 42
0.000000001
 43
0.00000001
 40
0.0
 40
0.0
 40
0.0
 40
0.0
 40
0.409054127439455
 40
0.8772333662859523
 40
1.0
 40
1.0
 40
1.0
 40
1.0
 10
176.5542721492497
 20
177.5373608089757
 30
0.0
 10
176.4749353197492
 20
177.5264050448387
 30
0.0
 10
176.3047942324343
 20
177.5029099589578
 30
0.0
 10
176.2121169116619
 20
177.2997026995615
 30
0.0
 10
176.2220678026768
 20
177.2007083923427
 30
0.0
 10
176.2241350603548
 20
177.1801427222562
 30
0.0
  0
LINE
  5
100
330
1F
100
AcDbEntity
  8
0
  6
Continuous
 62
     7
370
    25
100
AcDbLine
 10
286.4648161573
 20
227.5477558125
 30
0.0
 11
115.9648208064
 21
227.5477558125
 31
0.0
  0
SPLINE
  5
101
330
1F
100
AcDbEntity
  8
0
  6
Continuous
 62
     7
370
    25
100
AcDbSpline
210
0.0
220
0.0
230
1.0
 70
     8
 71
     3
 72
    12
 73
     8
 74
     0
 42
0.000000001
 43
0.00000001
 40
0.0
 40
0.0
 40
0.0
 40
0.0
 40
0.2116950070852939
 40
0.4295292075529992
 40
0.6412241967563936
 40
0.8590583774071474
 40
1.0
 40
1.0
 40
1.0
 40
1.0
 10
183.8908681762663
 20
212.1285476006341
 30
0.0
 10
182.9773696592165
 20
212.126419629565
 30
0.0
 10
181.1238810033826
 20
212.122101975882
 30
0.0
 10
179.0463592405723
 20
212.1145269079162
 30
0.0
 10
177.5732192035249
 20
212.1063143478755
 30
0.0
 10
176.7878877867426
 20
212.0986960955827
 30
0.0
 10
176.7894879457024
 20
212.0938275283012
 30
0.0
 10
176.790116552755
 20
212.0919149584842
 30
0.0
  0
SPLINE
  5
102
330
1F
100
AcDbEntity
  8
0
  6
Continuous
 62
     7
370
    25
100
AcDbSpline
210
0.0
220
0.0
230
1.0
 70
     8
 71
     3
 72
    22
 73
    18
 74
     0
 42
0.000000001
 43
0.00000001
 40
0.0
 40
0.0
 40
0.0
 40
0.0
 40
0.0515459539080599
 40
0.1221096088143829
 40
0.1947196916770035
 40
0.2652833265016269
 40
0.3378933168254807
 40
0.4084568619903022
 40
0.4810667573020256
 40
0.5516301327835954
 40
0.6242398605403154
 40
0.6948031182977241
 40
0.7674127159569532
 40
0.8379759442861119
 40
0.910585514001676
 40
0.9550445551750788
 40
1.0
 40
1.0
 40
1.0
 40
1.0
 10
225.6410310161558
 20
212.091913095839
 30
0.0
 10
225.635671326161
 20
212.0940122652817
 30
0.0
 10
225.6229745071282
 20
212.0989850854559
 30
0.0
 10
224.7925039866027
 20
212.1067657270772
 30
0.0
 10
223.307101721833
 20
212.11489365483
 30
0.0
 10
221.1527740921567
 20
212.1224404281267
 30
0.0
 10
218.4611345372974
 20
212.1290591971817
 30
0.0
 10
215.2513724382854
 20
212.1346751265407
 30
0.0
 10
211.6744013256252
 20
212.1390346823011
 30
0.0
 10
207.7664629865195
 20
212.1420866862288
 30
0.0
 10
203.7087147630975
 20
212.1436993812119
 30
0.0
 10
199.5427849240169
 20
212.1438448398592
 30
0.0
 10
195.4621272129144
 20
212.14252475601
 30
0.0
 10
191.5067553438564
 20
212.139749712691
 30
0.0
 10
188.3118964237732
 20
212.1361386384393
 30
0.0
 10
185.7740730916929
 20
212.1322929957788
 30
0.0
 10
184.520922193194
 20
212.1298006778943
 30
0.0
 10
183.8908681762663
 20
212.1285476006341
 30
0.0
  0
LINE
  5
103
330
1F
100
AcDbEntity
  8
0
  6
Continuous
 62
     7
370
    25
100
AcDbLine
 10
225.2148186905
 20
142.5477579452
 30
0.0
 11
177.2148182732
 21
142.5477579452
 31
0.0
  0
LWPOLYLINE
  5
104
330
1F
100
AcDbEntity
  8
0
  6
Continuous
 62
     7
370
    25
100
AcDbPolyline
 90
       28
 70
   128
 43
0.0
 10
177.6442697388
 20
176.8662721134
 10
178.1910007936
 20
176.2402408041
 10
178.9852475864
 20
175.6322249986
 10
180.0184698892
 20
175.0487663068
 10
181.2795626116
 20
174.4961306669
 10
182.754965697
 20
173.9802636422
 10
184.4288205845
 20
173.5067047395
 10
186.283131328
 20
173.0805538811
 10
188.2979638991
 20
172.7063894488
 10
190.4516566661
 20
172.3882273055
 10
192.7210588125
 20
172.1294984437
 10
195.0817715493
 20
171.9329744793
 10
197.5084172678
 20
171.8007751025
 10
199.9749082257
 20
171.7343159236
 10
202.454728738
 20
171.7343159236
 10
204.9212196959
 20
171.8007751025
 10
207.3478654144
 20
171.9329744793
 10
209.7085781512
 20
172.1294984437
 10
211.9779802976
 20
172.3882273055
 10
214.1316730646
 20
172.7063894488
 10
216.1465056357
 20
173.0805538811
 10
218.0008163792
 20
173.5067047395
 10
219.6746712667
 20
173.9802636422
 10
221.1500743521
 20
174.4961306669
 10
222.4111670745
 20
175.0487663068
 10
223.4443893773
 20
175.6322249986
 10
224.2386361701
 20
176.2402408041
 10
224.7853672249
 20
176.8662721134
  0
SPLINE
  5
105
330
1F
100
AcDbEntity
  8
0
  6
Continuous
 62
     7
370
    25
100
AcDbSpline
210
0.0
220
0.0
230
1.0
 70
     8
 71
     3
 72
     9
 73
     5
 74
     0
 42
0.000000001
 43
0.00000001
 40
0.0
 40
0.0
 40
0.0
 40
0.0
 40
0.9862433907280609
 40
1.0
 40
1.0
 40
1.0
 40
1.0
 10
177.6442697388378
 20
176.8662721134495
 30
0.0
 10
177.4972631467262
 20
177.0885004040387
 30
0.0
 10
177.3482060341578
 20
177.3138284444376
 30
0.0
 10
177.3828532884966
 20
177.3710992866098
 30
0.0
 10
177.3833299172369
 20
177.3718871392083
 30
0.0
  0
LINE
  5
106
330
1F
100
AcDbEntity
  8
0
  6
Continuous
 62
     7
370
    25
100
AcDbLine
 10
225.0433677924
 20
177.3680575408
 30
0.0
 11
224.7853672249
 21
176.8662721134
 31
0.0
  0
LINE
  5
107
330
1F
100
AcDbEntity
  8
0
  6
Continuous
 62
     7
370
    25
100
AcDbLine
 10
225.0894906116
 20
177.5477543689
 30
0.0
 11
225.8746458334
 21
177.5477543689
 31
0.0
  0
LINE
  5
108
330
1F
100
AcDbEntity
  8
0
  6
Continuous
 62
     7
370
    25
100
AcDbLine
 10
176.5549911303
 20
177.5477543689
 30
0.0
 11
177.3401463521
 21
177.5477543689
 31
0.0
  0
LINE
  5
109
330
1F
100
AcDbEntity
  8
0
  6
Continuous
 62
     8
370
    18
100
AcDbLine
 10
286.0972268624
 20
213.5099038698
 30
0.0
 11
116.3324101013
 21
213.5099038698
 31
0.0
  0
LINE
  5
10A
330
1F
100
AcDbEntity
  8
0
  6
Continuous
 62
     8
370
    18
100
AcDbLine
 10
285.1095555467
 20
212.5361539639
 30
0.0
 11
117.320081417
 21
212.5361539639
 31
0.0
  0
LINE
  5
10B
330
1F
100
AcDbEntity
  8
0
  6
Continuous
 62
     8
370
    18
100
AcDbLine
 10
176.2148181093
 20
143.5477525212
 30
0.0
 11
226.2148188544
 21
143.5477525212
 31
0.0
  0
LINE
  5
10C
330
1F
100
AcDbEntity
  8
0
  6
Continuous
 62
     8
370
    18
100
AcDbLine
 10
226.2105180067
 20
177.1663405217
 30
0.0
 11
226.0883303476
 21
176.6730860092
 31
0.0
  0
LINE
  5
10D
330
1F
100
AcDbEntity
  8
0
  6
Continuous
 62
     8
370
    18
100
AcDbLine
 10
176.3413066161
 20
176.6730860092
 30
0.0
 11
176.2155408156
 21
177.1709673323
 31
0.0
  0
ELLIPSE
  5
10E
330
1F
100
AcDbEntity
  8
0
  6
Continuous
 62
     8
370
    18
100
AcDbEllipse
 10
201.2148184818
 20
177.3407005395
 30
0.0
 11
24.99999999999997
 21
0.0
 31
0.0
210
0.0
220
0.0
230
1.0
 40
0.2658055989
 41
3.242228852521347
 42
6.182549108248135
  0
ARC
  5
10F
330
1F
100
AcDbEntity
  8
0
  6
Continuous
 62
     8
370
    18
100
AcDbCircle
 10
176.5434385836
 20
176.663958597
 30
0.0
 40
0.2023379398931512
100
AcDbArc
 50
90.8902400479
 51
177.4145248464
  0
ELLIPSE
  5
110
330
1F
100
AcDbEntity
  8
0
  6
Continuous
 62
     8
370
    18
100
AcDbEllipse
 10
201.2148184818
 20
177.5338857048
 30
0.0
 11
24.79999999999998
 21
0.0
 31
0.0
210
0.0
220
0.0
230
1.0
 40
0.2679491924
 41
3.242228852521351
 42
6.182549108248132
  0
ARC
  5
111
330
1F
100
AcDbEntity
  8
0
  6
Continuous
 62
     8
370
    18
100
AcDbCircle
 10
225.8861983801
 20
176.663958597
 30
0.0
 40
0.202337939893096
100
AcDbArc
 50
2.5854751536
 51
89.1097599521
  0
LINE
  5
112
330
1F
100
AcDbEntity
  8
0
  6
Continuous
 62
     8
370
    18
100
AcDbLine
 10
225.8893421036
 20
176.8662721134
 30
0.0
 11
224.7853672249
 21
176.8662721134
 31
0.0
  0
LINE
  5
113
330
1F
100
AcDbEntity
  8
0
  6
Continuous
 62
     8
370
    18
100
AcDbLine
 10
177.6442697388
 20
176.8662721134
 30
0.0
 11
176.54029486
 21
176.8662721134
 31
0.0
  0
LINE
  5
114
330
1F
100
AcDbEntity
  8
0
  6
Continuous
 62
     8
370
    18
100
AcDbLine
 10
225.7148178411
 20
183.0477543391
 30
0.0
 11
176.7148191226
 21
183.0477543391
 31
0.0
  0
SPLINE
  5
115
330
1F
100
AcDbEntity
  8
0
  6
Continuous
 62
     8
370
    18
100
AcDbSpline
210
0.0
220
0.0
230
1.0
 70
     8
 71
     3
 72
     8
 73
     4
 74
     0
 42
0.000000001
 43
0.00000001
 40
0.0
 40
0.0
 40
0.0
 40
0.0
 40
1.0
 40
1.0
 40
1.0
 40
1.0
 10
225.8893416419922
 20
176.8662723013589
 30
0.0
 10
226.0588898322035
 20
177.3207228060764
 30
0.0
 10
226.0601456459062
 20
177.5477557755776
 30
0.0
 10
225.8746450820415
 20
177.5477557755776
 30
0.0
  0
SPLINE
  5
116
330
1F
100
AcDbEntity
  8
0
  6
Continuous
 62
     8
370
    18
100
AcDbSpline
210
0.0
220
0.0
230
1.0
 70
     8
 71
     3
 72
     8
 73
     4
 74
     0
 42
0.000000001
 43
0.00000001
 40
0.0
 40
0.0
 40
0.0
 40
0.0
 40
1.0
 40
1.0
 40
1.0
 40
1.0
 10
176.554991881655
 20
177.5477557755776
 30
0.0
 10
176.3694913177902
 20
177.5477557755776
 30
0.0
 10
176.3707471314929
 20
177.3207228060764
 30
0.0
 10
176.5402953217042
 20
176.8662723013589
 30
0.0
  0
ENDSEC
  0
SECTION
  2
OBJECTS
  0
DICTIONARY
  5
C
330
0
100
AcDbDictionary
281
     1
  3
ACAD_GROUP
350
D
  3
ACAD_LAYOUT
350
1A
  3
ACAD_MLINESTYLE
350
17
  3
ACAD_PLOTSETTINGS
350
19
  3
ACAD_PLOTSTYLENAME
350
E
  3
ACAD_SCALELIST
350
47
  0
DICTIONARY
  5
D
102
{ACAD_REACTORS
330
C
102
}
330
C
100
AcDbDictionary
281
     1
  0
DICTIONARY
  5
1A
102
{ACAD_REACTORS
330
C
102
}
330
C
100
AcDbDictionary
281
     1
  3
Layout1
350
1E
  3
Layout2
350
26
  3
Model
350
22
  0
DICTIONARY
  5
17
102
{ACAD_REACTORS
330
C
102
}
330
C
100
AcDbDictionary
281
     1
  3
Standard
350
18
  0
DICTIONARY
  5
19
102
{ACAD_REACTORS
330
C
102
}
330
C
100
AcDbDictionary
281
     1
  0
ACDBDICTIONARYWDFLT
  5
E
102
{ACAD_REACTORS
330
C
102
}
330
C
100
AcDbDictionary
281
     1
  3
Normal
350
F
100
AcDbDictionaryWithDefault
340
F
  0
DICTIONARY
  5
47
102
{ACAD_REACTORS
330
C
102
}
330
C
100
AcDbDictionary
281
     1
  3
A0
350
48
  3
A1
350
49
  3
A2
350
4A
  3
A3
350
4B
  3
A4
350
4C
  3
A5
350
4D
  3
A6
350
4E
  3
A7
350
4F
  3
A8
350
50
  3
A9
350
51
  3
B0
350
52
  3
B1
350
53
  3
B2
350
54
  3
B3
350
55
  3
B4
350
56
  3
B5
350
57
  3
B6
350
58
  3
B7
350
59
  3
B8
350
5A
  3
B9
350
5B
  3
C0
350
5C
  3
C1
350
5D
  3
C2
350
5E
  3
C3
350
5F
  3
C4
350
60
  3
C5
350
61
  3
C6
350
62
  3
C7
350
63
  3
C8
350
64
  3
C9
350
65
  3
D0
350
66
  3
D1
350
67
  3
D2
350
68
  0
LAYOUT
  5
1E
102
{ACAD_REACTORS
330
1A
102
}
330
1A
100
AcDbPlotSettings
  1

  2
none_device
  4

  6

 40
0.0
 41
0.0
 42
0.0
 43
0.0
 44
0.0
 45
0.0
 46
0.0
 47
0.0
 48
0.0
 49
0.0
140
0.0
141
0.0
142
1.0
143
1.0
 70
   688
 72
     1
 73
     0
 74
     5
  7

 75
    16
147
1.0
148
0.0
149
0.0
100
AcDbLayout
  1
Layout1
 70
     1
 71
     1
 10
0.0
 20
0.0
 11
420.0
 21
297.0
 12
0.0
 22
0.0
 32
0.0
 14
1.0000000000E+20
 24
1.0000000000E+20
 34
1.0000000000E+20
 15
-1.0000000000E+20
 25
-1.0000000000E+20
 35
-1.0000000000E+20
146
0.0
 13
0.0
 23
0.0
 33
0.0
 16
1.0
 26
0.0
 36
0.0
 17
0.0
 27
1.0
 37
0.0
 76
     0
330
1B
  0
LAYOUT
  5
26
102
{ACAD_REACTORS
330
1A
102
}
330
1A
100
AcDbPlotSettings
  1

  2
none_device
  4

  6

 40
0.0
 41
0.0
 42
0.0
 43
0.0
 44
0.0
 45
0.0
 46
0.0
 47
0.0
 48
0.0
 49
0.0
140
0.0
141
0.0
142
1.0
143
1.0
 70
   688
 72
     1
 73
     0
 74
     5
  7

 75
    16
147
1.0
148
0.0
149
0.0
100
AcDbLayout
  1
Layout2
 70
     1
 71
     2
 10
0.0
 20
0.0
 11
0.0
 21
0.0
 12
0.0
 22
0.0
 32
0.0
 14
0.0
 24
0.0
 34
0.0
 15
0.0
 25
0.0
 35
0.0
146
0.0
 13
0.0
 23
0.0
 33
0.0
 16
1.0
 26
0.0
 36
0.0
 17
0.0
 27
1.0
 37
0.0
 76
     0
330
23
  0
LAYOUT
  5
22
102
{ACAD_REACTORS
330
1A
102
}
330
1A
100
AcDbPlotSettings
  1

  2
none_device
  4
Letter_(8.50_x_11.00_Inches)
  6

 40
6.35
 41
6.35
 42
6.35000508
 43
6.35000508
 44
215.9
 45
279.4
 46
0.0
 47
0.0
 48
0.0
 49
0.0
140
0.0
141
0.0
142
1.0
143
1.0
 70
  1712
 72
     1
 73
     0
 74
     0
  7

 75
     0
147
1.0
148
0.0
149
0.0
100
AcDbLayout
  1
Model
 70
     1
 71
     0
 10
0.0
 20
0.0
 11
594.0
 21
841.0
 12
0.0
 22
0.0
 32
0.0
 14
0.0
 24
0.0
 34
0.0
 15
594.0
 25
841.0
 35
0.0
146
0.0
 13
0.0
 23
0.0
 33
0.0
 16
1.0
 26
0.0
 36
0.0
 17
0.0
 27
1.0
 37
0.0
 76
     0
330
1F
331
29
  0
MLINESTYLE
  5
18
102
{ACAD_REACTORS
330
17
102
}
330
17
100
AcDbMlineStyle
  2
Standard
 70
     0
  3

 62
   256
 51
90.0
 52
90.0
 71
     2
 49
0.5
 62
   256
  6
BYLAYER
 49
-0.5
 62
   256
  6
BYLAYER
  0
ACDBPLACEHOLDER
  5
F
102
{ACAD_REACTORS
330
E
102
}
330
E
  0
SCALE
  5
48
102
{ACAD_REACTORS
330
47
102
}
330
47
100
AcDbScale
 70
     0
300
1:1
140
1.0
141
1.0
290
     1
  0
SCALE
  5
49
102
{ACAD_REACTORS
330
47
102
}
330
47
100
AcDbScale
 70
     0
300
1:2
140
1.0
141
2.0
290
     0
  0
SCALE
  5
4A
102
{ACAD_REACTORS
330
47
102
}
330
47
100
AcDbScale
 70
     0
300
1:4
140
1.0
141
4.0
290
     0
  0
SCALE
  5
4B
102
{ACAD_REACTORS
330
47
102
}
330
47
100
AcDbScale
 70
     0
300
1:5
140
1.0
141
5.0
290
     0
  0
SCALE
  5
4C
102
{ACAD_REACTORS
330
47
102
}
330
47
100
AcDbScale
 70
     0
300
1:8
140
1.0
141
8.0
290
     0
  0
SCALE
  5
4D
102
{ACAD_REACTORS
330
47
102
}
330
47
100
AcDbScale
 70
     0
300
1:10
140
1.0
141
10.0
290
     0
  0
SCALE
  5
4E
102
{ACAD_REACTORS
330
47
102
}
330
47
100
AcDbScale
 70
     0
300
1:16
140
1.0
141
16.0
290
     0
  0
SCALE
  5
4F
102
{ACAD_REACTORS
330
47
102
}
330
47
100
AcDbScale
 70
     0
300
1:20
140
1.0
141
20.0
290
     0
  0
SCALE
  5
50
102
{ACAD_REACTORS
330
47
102
}
330
47
100
AcDbScale
 70
     0
300
1:30
140
1.0
141
30.0
290
     0
  0
SCALE
  5
51
102
{ACAD_REACTORS
330
47
102
}
330
47
100
AcDbScale
 70
     0
300
1:40
140
1.0
141
40.0
290
     0
  0
SCALE
  5
52
102
{ACAD_REACTORS
330
47
102
}
330
47
100
AcDbScale
 70
     0
300
1:50
140
1.0
141
50.0
290
     0
  0
SCALE
  5
53
102
{ACAD_REACTORS
330
47
102
}
330
47
100
AcDbScale
 70
     0
300
1:100
140
1.0
141
100.0
290
     0
  0
SCALE
  5
54
102
{ACAD_REACTORS
330
47
102
}
330
47
100
AcDbScale
 70
     0
300
2:1
140
2.0
141
1.0
290
     0
  0
SCALE
  5
55
102
{ACAD_REACTORS
330
47
102
}
330
47
100
AcDbScale
 70
     0
300
4:1
140
4.0
141
1.0
290
     0
  0
SCALE
  5
56
102
{ACAD_REACTORS
330
47
102
}
330
47
100
AcDbScale
 70
     0
300
8:1
140
8.0
141
1.0
290
     0
  0
SCALE
  5
57
102
{ACAD_REACTORS
330
47
102
}
330
47
100
AcDbScale
 70
     0
300
10:1
140
10.0
141
1.0
290
     0
  0
SCALE
  5
58
102
{ACAD_REACTORS
330
47
102
}
330
47
100
AcDbScale
 70
     0
300
100:1
140
100.0
141
1.0
290
     0
  0
SCALE
  5
59
102
{ACAD_REACTORS
330
47
102
}
330
47
100
AcDbScale
 70
     0
300
1/128" = 1'-0"
140
0.0078125
141
12.0
290
     0
  0
SCALE
  5
5A
102
{ACAD_REACTORS
330
47
102
}
330
47
100
AcDbScale
 70
     0
300
1/64" = 1'-0"
140
0.015625
141
12.0
290
     0
  0
SCALE
  5
5B
102
{ACAD_REACTORS
330
47
102
}
330
47
100
AcDbScale
 70
     0
300
1/32" = 1'-0"
140
0.03125
141
12.0
290
     0
  0
SCALE
  5
5C
102
{ACAD_REACTORS
330
47
102
}
330
47
100
AcDbScale
 70
     0
300
1/16" = 1'-0"
140
0.0625
141
12.0
290
     0
  0
SCALE
  5
5D
102
{ACAD_REACTORS
330
47
102
}
330
47
100
AcDbScale
 70
     0
300
3/32" = 1'-0"
140
0.09375
141
12.0
290
     0
  0
SCALE
  5
5E
102
{ACAD_REACTORS
330
47
102
}
330
47
100
AcDbScale
 70
     0
300
1/8" = 1'-0"
140
0.125
141
12.0
290
     0
  0
SCALE
  5
5F
102
{ACAD_REACTORS
330
47
102
}
330
47
100
AcDbScale
 70
     0
300
3/16" = 1'-0"
140
0.1875
141
12.0
290
     0
  0
SCALE
  5
60
102
{ACAD_REACTORS
330
47
102
}
330
47
100
AcDbScale
 70
     0
300
1/4" = 1'-0"
140
0.25
141
12.0
290
     0
  0
SCALE
  5
61
102
{ACAD_REACTORS
330
47
102
}
330
47
100
AcDbScale
 70
     0
300
3/8" = 1'-0"
140
0.375
141
12.0
290
     0
  0
SCALE
  5
62
102
{ACAD_REACTORS
330
47
102
}
330
47
100
AcDbScale
 70
     0
300
1/2" = 1'-0"
140
0.5
141
12.0
290
     0
  0
SCALE
  5
63
102
{ACAD_REACTORS
330
47
102
}
330
47
100
AcDbScale
 70
     0
300
3/4" = 1'-0"
140
0.75
141
12.0
290
     0
  0
SCALE
  5
64
102
{ACAD_REACTORS
330
47
102
}
330
47
100
AcDbScale
 70
     0
300
1" = 1'-0"
140
1.0
141
12.0
290
     0
  0
SCALE
  5
65
102
{ACAD_REACTORS
330
47
102
}
330
47
100
AcDbScale
 70
     0
300
1-1/2" = 1'-0"
140
1.5
141
12.0
290
     0
  0
SCALE
  5
66
102
{ACAD_REACTORS
330
47
102
}
330
47
100
AcDbScale
 70
     0
300
3" = 1'-0"
140
3.0
141
12.0
290
     0
  0
SCALE
  5
67
102
{ACAD_REACTORS
330
47
102
}
330
47
100
AcDbScale
 70
     0
300
6" = 1'-0"
140
6.0
141
12.0
290
     0
  0
SCALE
  5
68
102
{ACAD_REACTORS
330
47
102
}
330
47
100
AcDbScale
 70
     0
300
1'-0" = 1'-0"
140
12.0
141
12.0
290
     0
  0
ENDSEC
  0
EOF
