  0
SECTION
  2
HEADER
  9
$ACADVER
  1
AC1015
  9
$ACADMAINTVER
 70
     6
  9
$DWGCODEPAGE
  3
ANSI_1252
  9
$INSBASE
 10
0.0
 20
0.0
 30
0.0
  9
$EXTMIN
 10
0.0
 20
0.0
 30
0.0
  9
$EXTMAX
 10
841.0
 20
594.0
 30
0.0
  9
$LIMMIN
 10
0.0
 20
0.0
  9
$LIMMAX
 10
841.0
 20
594.0
  9
$ORTHOMODE
 70
     0
  9
$REGENMODE
 70
     1
  9
$FILLMODE
 70
     1
  9
$QTEXTMODE
 70
     0
  9
$MIRRTEXT
 70
     1
  9
$LTSCALE
 40
1.0
  9
$ATTMODE
 70
     1
  9
$TEXTSIZE
 40
10.0
  9
$TRACEWID
 40
1.0
  9
$TEXTSTYLE
  7
Standard
  9
$CLAYER
  8
0
  9
$CELTYPE
  6
ByLayer
  9
$CECOLOR
 62
   256
  9
$CELTSCALE
 40
1.0
  9
$DISPSILH
 70
     0
  9
$DIMSCALE
 40
1.0
  9
$DIMASZ
 40
2.5
  9
$DIMEXO
 40
0.0
  9
$DIMDLI
 40
3.75
  9
$DIMRND
 40
0.0
  9
$DIMDLE
 40
0.0
  9
$DIMEXE
 40
1.0
  9
$DIMTP
 40
0.0
  9
$DIMTM
 40
0.0
  9
$DIMTXT
 40
3.5
  9
$DIMCEN
 40
2.5
  9
$DIMTSZ
 40
0.0
  9
$DIMTOL
 70
     0
  9
$DIMLIM
 70
     0
  9
$DIMTIH
 70
     1
  9
$DIMTOH
 70
     1
  9
$DIMSE1
 70
     0
  9
$DIMSE2
 70
     0
  9
$DIMTAD
 70
     1
  9
$DIMZIN
 70
     0
  9
$DIMBLK
  1

  9
$DIMASO
 70
     1
  9
$DIMSHO
 70
     1
  9
$DIMPOST
  1

  9
$DIMAPOST
  1

  9
$DIMALT
 70
     0
  9
$DIMALTD
 70
     3
  9
$DIMALTF
 40
0.0393700787
  9
$DIMLFAC
 40
1.0
  9
$DIMTOFL
 70
     1
  9
$DIMTVP
 40
0.0
  9
$DIMTIX
 70
     0
  9
$DIMSOXD
 70
     0
  9
$DIMSAH
 70
     0
  9
$DIMBLK1
  1

  9
$DIMBLK2
  1

  9
$DIMSTYLE
  2
ISO-25
  9
$DIMCLRD
 70
     0
  9
$DIMCLRE
 70
     0
  9
$DIMCLRT
 70
     0
  9
$DIMTFAC
 40
1.0
  9
$DIMGAP
 40
1.5
  9
$DIMJUST
 70
     0
  9
$DIMSD1
 70
     0
  9
$DIMSD2
 70
     0
  9
$DIMTOLJ
 70
     0
  9
$DIMTZIN
 70
     0
  9
$DIMALTZ
 70
     0
  9
$DIMALTTZ
 70
     0
  9
$DIMUPT
 70
     0
  9
$DIMDEC
 70
     2
  9
$DIMTDEC
 70
     2
  9
$DIMALTU
 70
     2
  9
$DIMALTTD
 70
     3
  9
$DIMTXSTY
  7
Standard
  9
$DIMAUNIT
 70
     0
  9
$DIMADEC
 70
     2
  9
$DIMALTRND
 40
0.0
  9
$DIMAZIN
 70
     0
  9
$DIMDSEP
 70
    44
  9
$DIMATFIT
 70
     3
  9
$DIMFRAC
 70
     0
  9
$DIMLDRBLK
  1

  9
$DIMLUNIT
 70
     2
  9
$DIMLWD
 70
    -2
  9
$DIMLWE
 70
    -2
  9
$DIMTMOVE
 70
     0
  9
$LUNITS
 70
     2
  9
$LUPREC
 70
     2
  9
$SKETCHINC
 40
1.0
  9
$FILLETRAD
 40
10.0
  9
$AUNITS
 70
     0
  9
$AUPREC
 70
     2
  9
$MENU
  1
.
  9
$ELEVATION
 40
0.0
  9
$PELEVATION
 40
0.0
  9
$THICKNESS
 40
0.0
  9
$LIMCHECK
 70
     0
  9
$CHAMFERA
 40
10.0
  9
$CHAMFERB
 40
10.0
  9
$CHAMFERC
 40
20.0
  9
$CHAMFERD
 40
0.0
  9
$SKPOLY
 70
     0
  9
$TDCREATE
 40
2456155.462142002
  9
$TDUCREATE
 40
2456155.378808669
  9
$TDUPDATE
 40
2456155.462142014
  9
$TDUUPDATE
 40
2456155.37880868
  9
$TDINDWG
 40
0.0000000116
  9
$TDUSRTIMER
 40
0.0000000116
  9
$USRTIMER
 70
     1
  9
$ANGBASE
 50
0.0
  9
$ANGDIR
 70
     0
  9
$PDMODE
 70
     0
  9
$PDSIZE
 40
-1.0
  9
$PLINEWID
 40
0.0
  9
$SPLFRAME
 70
     0
  9
$SPLINETYPE
 70
     6
  9
$SPLINESEGS
 70
     8
  9
$HANDSEED
  5
178
  9
$SURFTAB1
 70
     6
  9
$SURFTAB2
 70
     6
  9
$SURFTYPE
 70
     6
  9
$SURFU
 70
     6
  9
$SURFV
 70
     6
  9
$UCSBASE
  2

  9
$UCSNAME
  2

  9
$UCSORG
 10
0.0
 20
0.0
 30
0.0
  9
$UCSXDIR
 10
1.0
 20
0.0
 30
0.0
  9
$UCSYDIR
 10
0.0
 20
1.0
 30
0.0
  9
$UCSORTHOREF
  2

  9
$UCSORTHOVIEW
 70
     0
  9
$UCSORGTOP
 10
0.0
 20
0.0
 30
0.0
  9
$UCSORGBOTTOM
 10
0.0
 20
0.0
 30
0.0
  9
$UCSORGLEFT
 10
0.0
 20
0.0
 30
0.0
  9
$UCSORGRIGHT
 10
0.0
 20
0.0
 30
0.0
  9
$UCSORGFRONT
 10
0.0
 20
0.0
 30
0.0
  9
$UCSORGBACK
 10
0.0
 20
0.0
 30
0.0
  9
$PUCSBASE
  2

  9
$PUCSNAME
  2

  9
$PUCSORG
 10
0.0
 20
0.0
 30
0.0
  9
$PUCSXDIR
 10
1.0
 20
0.0
 30
0.0
  9
$PUCSYDIR
 10
0.0
 20
1.0
 30
0.0
  9
$PUCSORTHOREF
  2

  9
$PUCSORTHOVIEW
 70
     0
  9
$PUCSORGTOP
 10
0.0
 20
0.0
 30
0.0
  9
$PUCSORGBOTTOM
 10
0.0
 20
0.0
 30
0.0
  9
$PUCSORGLEFT
 10
0.0
 20
0.0
 30
0.0
  9
$PUCSORGRIGHT
 10
0.0
 20
0.0
 30
0.0
  9
$PUCSORGFRONT
 10
0.0
 20
0.0
 30
0.0
  9
$PUCSORGBACK
 10
0.0
 20
0.0
 30
0.0
  9
$USERI1
 70
     0
  9
$USERI2
 70
     0
  9
$USERI3
 70
     0
  9
$USERI4
 70
     0
  9
$USERI5
 70
     0
  9
$USERR1
 40
0.0
  9
$USERR2
 40
0.0
  9
$USERR3
 40
0.0
  9
$USERR4
 40
0.0
  9
$USERR5
 40
0.0
  9
$WORLDVIEW
 70
     1
  9
$SHADEDGE
 70
     3
  9
$SHADEDIF
 70
    70
  9
$TILEMODE
 70
     1
  9
$MAXACTVP
 70
    64
  9
$PINSBASE
 10
0.0
 20
0.0
 30
0.0
  9
$PLIMCHECK
 70
     0
  9
$PEXTMIN
 10
1.0000000000E+20
 20
1.0000000000E+20
 30
1.0000000000E+20
  9
$PEXTMAX
 10
-1.0000000000E+20
 20
-1.0000000000E+20
 30
-1.0000000000E+20
  9
$PLIMMIN
 10
0.0
 20
0.0
  9
$PLIMMAX
 10
420.0
 20
297.0
  9
$UNITMODE
 70
     0
  9
$VISRETAIN
 70
     1
  9
$PLINEGEN
 70
     0
  9
$PSLTSCALE
 70
     1
  9
$TREEDEPTH
 70
  3020
  9
$CMLSTYLE
  2
Standard
  9
$CMLJUST
 70
     0
  9
$CMLSCALE
 40
20.0
  9
$PROXYGRAPHICS
 70
     1
  9
$MEASUREMENT
 70
     1
  9
$CELWEIGHT
370
    -1
  9
$ENDCAPS
280
     0
  9
$JOINSTYLE
280
     0
  9
$LWDISPLAY
290
     1
  9
$INSUNITS
 70
     4
  9
$HYPERLINKBASE
  1

  9
$STYLESHEET
  1

  9
$XEDIT
290
     1
  9
$CEPSNTYPE
380
     0
  9
$PSTYLEMODE
290
     1
  9
$FINGERPRINTGUID
  2
{65FE055A-3F2A-4429-A2C2-9EEC96392217}
  9
$VERSIONGUID
  2
{FAEB1C32-E019-11D5-929B-00C0DF256EC4}
  9
$EXTNAMES
290
     1
  9
$PSVPSCALE
 40
0.0
  9
$OLESTARTUP
290
     0
  0
ENDSEC
  0
SECTION
  2
CLASSES
  0
CLASS
  1
ACDBDICTIONARYWDFLT
  2
AcDbDictionaryWithDefault
  3
ObjectDBX Classes
 90
        0
280
     0
281
     0
  0
CLASS
  1
VISUALSTYLE
  2
AcDbVisualStyle
  3
ObjectDBX Classes
 90
     4095
280
     0
281
     0
  0
CLASS
  1
MATERIAL
  2
AcDbMaterial
  3
ObjectDBX Classes
 90
     1153
280
     0
281
     0
  0
CLASS
  1
ACDBPLACEHOLDER
  2
AcDbPlaceHolder
  3
ObjectDBX Classes
 90
        0
280
     0
281
     0
  0
CLASS
  1
LAYOUT
  2
AcDbLayout
  3
ObjectDBX Classes
 90
        0
280
     0
281
     0
  0
ENDSEC
  0
SECTION
  2
TABLES
  0
TABLE
  2
VPORT
  5
8
330
0
100
AcDbSymbolTable
 70
     1
  0
VPORT
  5
29
330
8
100
AcDbSymbolTableRecord
100
AcDbViewportTableRecord
  2
*Active
 70
     0
 10
0.0
 20
0.0
 11
1.0
 21
1.0
 12
420.5
 22
297.0
 13
0.0
 23
0.0
 14
10.0
 24
10.0
 15
10.0
 25
10.0
 16
0.0
 26
0.0
 36
1.0
 17
0.0
 27
0.0
 37
0.0
 40
594.0
 41
1.4158249158
 42
50.0
 43
0.0
 44
0.0
 50
0.0
 51
0.0
 71
     0
 72
  2000
 73
     1
 74
     3
 75
     0
 76
     0
 77
     0
 78
     0
281
     0
 65
     1
110
0.0
120
0.0
130
0.0
111
1.0
121
0.0
131
0.0
112
0.0
122
1.0
132
0.0
 79
     0
146
0.0
  0
ENDTAB
  0
TABLE
  2
LTYPE
  5
5
330
0
100
AcDbSymbolTable
 70
     6
  0
LTYPE
  5
14
330
5
100
AcDbSymbolTableRecord
100
AcDbLinetypeTableRecord
  2
ByBlock
 70
     0
  3

 72
    65
 73
     0
 40
0.0
  0
LTYPE
  5
15
330
5
100
AcDbSymbolTableRecord
100
AcDbLinetypeTableRecord
  2
ByLayer
 70
     0
  3

 72
    65
 73
     0
 40
0.0
  0
LTYPE
  5
16
330
5
100
AcDbSymbolTableRecord
100
AcDbLinetypeTableRecord
  2
Continuous
 70
     0
  3
Solid line
 72
    65
 73
     0
 40
0.0
  0
LTYPE
  5
3F
330
5
100
AcDbSymbolTableRecord
100
AcDbLinetypeTableRecord
  2
HIDDEN
 70
     0
  3
Hidden __ __ __ __ __ __ __ __ __ __ __ __ __ __
 72
    65
 73
     2
 40
1.905
 49
1.27
 74
     0
 49
-0.635
 74
     0
  0
LTYPE
  5
40
330
5
100
AcDbSymbolTableRecord
100
AcDbLinetypeTableRecord
  2
PHANTOM
 70
     0
  3
Phantom ______  __  __  ______  __  __  ______
 72
    65
 73
     6
 40
12.7
 49
6.35
 74
     0
 49
-1.27
 74
     0
 49
1.27
 74
     0
 49
-1.27
 74
     0
 49
1.27
 74
     0
 49
-1.27
 74
     0
  0
LTYPE
  5
41
330
5
100
AcDbSymbolTableRecord
100
AcDbLinetypeTableRecord
  2
CENTER
 70
     0
  3
Center ____ _ ____ _ ____ _ ____ _ ____ _ ____
 72
    65
 73
     4
 40
10.16
 49
6.35
 74
     0
 49
-1.27
 74
     0
 49
1.27
 74
     0
 49
-1.27
 74
     0
  0
LTYPE
  5
42
330
5
100
AcDbSymbolTableRecord
100
AcDbLinetypeTableRecord
  2
CENTERX2
 70
     0
  3
Center (2x) ________  __  ________  __  _____
 72
    65
 73
     4
 40
20.32
 49
12.7
 74
     0
 49
-2.54
 74
     0
 49
2.54
 74
     0
 49
-2.54
 74
     0
  0
LTYPE
  5
43
330
5
100
AcDbSymbolTableRecord
100
AcDbLinetypeTableRecord
  2
DOT2
 70
     0
  3
Dot (.5x) ........................................
 72
    65
 73
     2
 40
0.635
 49
0.0
 74
     0
 49
-0.635
 74
     0
  0
ENDTAB
  0
TABLE
  2
LAYER
  5
2
330
0
100
AcDbSymbolTable
 70
     1
  0
LAYER
  5
10
330
2
100
AcDbSymbolTableRecord
100
AcDbLayerTableRecord
  2
0
 70
     0
 62
     7
  6
Continuous
370
    -3
390
F
  0
ENDTAB
  0
TABLE
  2
STYLE
  5
3
330
0
100
AcDbSymbolTable
 70
     3
  0
STYLE
  5
11
330
3
100
AcDbSymbolTableRecord
100
AcDbTextStyleTableRecord
  2
Standard
 70
     0
 40
0.0
 41
1.0
 50
0.0
 71
     0
 42
2.5
  3
txt
  4

  0
STYLE
  5
47
330
3
100
AcDbSymbolTableRecord
100
AcDbTextStyleTableRecord
  2
SLDTEXTSTYLE0
 70
     0
 40
0.0
 41
0.96
 50
0.0
 71
     0
 42
0.2
  3
ISOCP3
  4

  0
STYLE
  5
5E
330
3
100
AcDbSymbolTableRecord
100
AcDbTextStyleTableRecord
  2
SLDTEXTSTYLE1
 70
     0
 40
0.0
 41
0.605
 50
0.0
 71
     0
 42
0.2
  3
TXT
  4

  0
ENDTAB
  0
TABLE
  2
VIEW
  5
6
330
0
100
AcDbSymbolTable
 70
     0
  0
ENDTAB
  0
TABLE
  2
UCS
  5
7
330
0
100
AcDbSymbolTable
 70
     0
  0
ENDTAB
  0
TABLE
  2
APPID
  5
9
330
0
100
AcDbSymbolTable
 70
     1
  0
APPID
  5
12
330
9
100
AcDbSymbolTableRecord
100
AcDbRegAppTableRecord
  2
ACAD
 70
     0
  0
ENDTAB
  0
TABLE
  2
DIMSTYLE
  5
A
330
0
100
AcDbSymbolTable
 70
     2
100
AcDbDimStyleTable
  0
DIMSTYLE
105
27
330
A
100
AcDbSymbolTableRecord
100
AcDbDimStyleTableRecord
  2
ISO-25
 70
     0
 41
2.5
 42
0.625
 43
3.75
 44
1.25
 73
     0
 74
     0
 77
     1
 78
     8
140
2.5
141
2.5
143
0.0393700787
147
0.625
171
     3
172
     1
178
     0
271
     2
272
     2
274
     3
278
    44
283
     0
284
     8
340
11
  0
DIMSTYLE
105
48
102
{ACAD_REACTORS
330
46
330
53
102
}
330
A
100
AcDbSymbolTableRecord
100
AcDbDimStyleTableRecord
  2
SLDDIMSTYLE0
 70
     0
 41
2.5
 44
0.0
 45
0.000000001
 73
     0
 74
     0
 77
     1
 78
    12
 79
     3
140
6.0
147
1.5
173
     1
178
     0
271
     2
272
     2
276
     2
284
    12
340
47
  0
ENDTAB
  0
TABLE
  2
BLOCK_RECORD
  5
1
330
0
100
AcDbSymbolTable
 70
     3
  0
BLOCK_RECORD
  5
1F
330
1
100
AcDbSymbolTableRecord
100
AcDbBlockTableRecord
  2
*Model_Space
340
22
  0
BLOCK_RECORD
  5
1B
330
1
100
AcDbSymbolTableRecord
100
AcDbBlockTableRecord
  2
*Paper_Space
340
1E
  0
BLOCK_RECORD
  5
23
330
1
100
AcDbSymbolTableRecord
100
AcDbBlockTableRecord
  2
*Paper_Space0
340
26
  0
BLOCK_RECORD
  5
49
330
1
100
AcDbSymbolTableRecord
100
AcDbBlockTableRecord
  2
*D1
340
0
  0
BLOCK_RECORD
  5
54
330
1
100
AcDbSymbolTableRecord
100
AcDbBlockTableRecord
  2
*D2
340
0
  0
ENDTAB
  0
ENDSEC
  0
SECTION
  2
BLOCKS
  0
BLOCK
  5
20
330
1F
100
AcDbEntity
  8
0
100
AcDbBlockBegin
  2
*Model_Space
 70
     0
 10
0.0
 20
0.0
 30
0.0
  3
*Model_Space
  1

  0
ENDBLK
  5
21
330
1F
100
AcDbEntity
  8
0
100
AcDbBlockEnd
  0
BLOCK
  5
1C
330
1B
100
AcDbEntity
 67
     1
  8
0
100
AcDbBlockBegin
  2
*Paper_Space
 70
     0
 10
0.0
 20
0.0
 30
0.0
  3
*Paper_Space
  1

  0
ENDBLK
  5
1D
330
1B
100
AcDbEntity
 67
     1
  8
0
100
AcDbBlockEnd
  0
BLOCK
  5
24
330
23
100
AcDbEntity
  8
0
100
AcDbBlockBegin
  2
*Paper_Space0
 70
     0
 10
0.0
 20
0.0
 30
0.0
  3
*Paper_Space0
  1

  0
ENDBLK
  5
25
330
23
100
AcDbEntity
  8
0
100
AcDbBlockEnd
  0
BLOCK
  5
4A
330
49
100
AcDbEntity
  8
0
100
AcDbBlockBegin
  2
*D1
 70
     1
 10
0.0
 20
0.0
 30
0.0
  3
*D1
  1

  0
SOLID
  5
4C
330
49
100
AcDbEntity
  8
0
  6
Continuous
 62
     7
370
     0
100
AcDbTrace
 10
42.7614395004
 20
152.0299240879
 30
0.0
 11
42.4614395004
 21
149.5299240879
 31
0.0
 12
43.0614395004
 22
149.5299240879
 32
0.0
 13
43.0614395004
 23
149.5299240879
 33
0.0
  0
SOLID
  5
4D
330
49
100
AcDbEntity
  8
0
  6
Continuous
 62
     7
370
     0
100
AcDbTrace
 10
42.7614395004
 20
52.0299240879
 30
0.0
 11
43.0614395004
 21
54.5299240879
 31
0.0
 12
42.4614395004
 22
54.5299240879
 32
0.0
 13
42.4614395004
 23
54.5299240879
 33
0.0
  0
LINE
  5
4E
330
49
100
AcDbEntity
  8
0
  6
Continuous
 62
     7
370
     0
100
AcDbLine
 10
56.6850079902
 20
152.0299240879
 30
0.0
 11
41.7614395004
 21
152.0299240879
 31
0.0
  0
LINE
  5
4F
330
49
100
AcDbEntity
  8
0
  6
Continuous
 62
     7
370
     0
100
AcDbLine
 10
56.6850079902
 20
52.0299240879
 30
0.0
 11
41.7614395004
 21
52.0299240879
 31
0.0
  0
LINE
  5
50
330
49
100
AcDbEntity
  8
0
  6
Continuous
 62
     7
370
     0
100
AcDbLine
 10
42.7614395004
 20
152.0299240879
 30
0.0
 11
42.7614395004
 21
52.0299240879
 31
0.0
  0
MTEXT
  5
51
330
49
100
AcDbEntity
  8
0
  6
Continuous
 62
     7
370
     0
100
AcDbMText
 10
35.0270329453
 20
91.6722208134
 30
0.1
 40
6.0
 41
0.0
 71
     1
 72
     1
  1
100
  7
SLDTEXTSTYLE0
 11
-7.044195017643634E-15
 21
1.0
 31
0.0
 73
     1
 44
1.0
  0
MTEXT
  5
52
330
49
100
AcDbEntity
  8
0
  6
Continuous
 62
     7
370
     0
100
AcDbMText
 10
35.0270329453
 20
108.4388881795
 30
0.1
 40
6.0
 41
0.0
 71
     1
 72
     1
  1
mm
  7
SLDTEXTSTYLE0
 11
-7.044195017643634E-15
 21
1.0
 31
0.0
 73
     1
 44
1.0
  0
ENDBLK
  5
4B
330
49
100
AcDbEntity
  8
0
100
AcDbBlockEnd
  0
BLOCK
  5
55
330
54
100
AcDbEntity
  8
0
100
AcDbBlockBegin
  2
*D2
 70
     1
 10
0.0
 20
0.0
 30
0.0
  3
*D2
  1

  0
SOLID
  5
57
330
54
100
AcDbEntity
  8
0
  6
Continuous
 62
     7
370
     0
100
AcDbTrace
 10
56.6850079902
 20
38.4602342313
 30
0.0
 11
59.1850079902
 21
38.1602342313
 31
0.0
 12
59.1850079902
 22
38.7602342313
 32
0.0
 13
59.1850079902
 23
38.7602342313
 33
0.0
  0
SOLID
  5
58
330
54
100
AcDbEntity
  8
0
  6
Continuous
 62
     7
370
     0
100
AcDbTrace
 10
156.6850079902
 20
38.4602342313
 30
0.0
 11
154.1850079902
 21
38.7602342313
 31
0.0
 12
154.1850079902
 22
38.1602342313
 32
0.0
 13
154.1850079902
 23
38.1602342313
 33
0.0
  0
LINE
  5
59
330
54
100
AcDbEntity
  8
0
  6
Continuous
 62
     7
370
     0
100
AcDbLine
 10
56.6850079902
 20
52.0299240879
 30
0.0
 11
56.6850079902
 21
37.4602342313
 31
0.0
  0
LINE
  5
5A
330
54
100
AcDbEntity
  8
0
  6
Continuous
 62
     7
370
     0
100
AcDbLine
 10
156.6850079902
 20
52.0299240879
 30
0.0
 11
156.6850079902
 21
37.4602342313
 31
0.0
  0
LINE
  5
5B
330
54
100
AcDbEntity
  8
0
  6
Continuous
 62
     7
370
     0
100
AcDbLine
 10
56.6850079902
 20
38.4602342313
 30
0.0
 11
156.6850079902
 21
38.4602342313
 31
0.0
  0
MTEXT
  5
5C
330
54
100
AcDbEntity
  8
0
  6
Continuous
 62
     7
370
     0
100
AcDbMText
 10
91.2668151533
 20
46.1946407863
 30
0.1
 40
6.0
 41
0.0
 71
     1
 72
     1
  1
100
  7
SLDTEXTSTYLE0
 73
     1
 44
1.0
  0
MTEXT
  5
5D
330
54
100
AcDbEntity
  8
0
  6
Continuous
 62
     7
370
     0
100
AcDbMText
 10
108.0334825193
 20
46.1946407863
 30
0.1
 40
6.0
 41
0.0
 71
     1
 72
     1
  1
mm
  7
SLDTEXTSTYLE0
 73
     1
 44
1.0
  0
ENDBLK
  5
56
330
54
100
AcDbEntity
  8
0
100
AcDbBlockEnd
  0
ENDSEC
  0
SECTION
  2
ENTITIES
  0
LINE
  5
44
330
1F
100
AcDbEntity
  8
0
  6
Continuous
 62
     7
370
     0
100
AcDbLine
 10
56.6850079902
 20
152.0299240879
 30
0.0
 11
56.6850079902
 21
52.0299240879
 31
0.0
  0
LINE
  5
45
330
1F
100
AcDbEntity
  8
0
  6
Continuous
 62
     7
370
     0
100
AcDbLine
 10
56.6850079902
 20
52.0299240879
 30
0.0
 11
156.6850079902
 21
52.0299240879
 31
0.0
  0
DIMENSION
  5
46
330
1F
100
AcDbEntity
  8
0
  6
Continuous
 62
     7
370
     0
100
AcDbDimension
  2
*D1
 10
42.7614395004
 20
52.0299240879
 30
0.0
 11
42.7614395004
 21
105.4472211621
 31
0.0
 70
   160
  1
<>mm
 71
     2
 42
-1.0
  3
SLDDIMSTYLE0
100
AcDbAlignedDimension
 13
56.6850079902
 23
152.0299240879
 33
0.0
 14
56.6850079902
 24
52.0299240879
 34
0.0
 50
90.0
100
AcDbRotatedDimension
  0
DIMENSION
  5
53
330
1F
100
AcDbEntity
  8
0
  6
Continuous
 62
     7
370
     0
100
AcDbDimension
  2
*D2
 10
156.6850079902
 20
38.4602342313
 30
0.0
 11
105.0418155019
 21
38.4602342313
 31
0.0
 70
   160
  1
<>mm
 71
     2
 42
-1.0
  3
SLDDIMSTYLE0
100
AcDbAlignedDimension
 13
56.6850079902
 23
52.0299240879
 33
0.0
 14
156.6850079902
 24
52.0299240879
 34
0.0
100
AcDbRotatedDimension
  0
MTEXT
  5
5F
330
1F
100
AcDbEntity
  8
0
  6
Continuous
 62
     7
370
     0
100
AcDbMText
 10
347.5532847896
 20
48.6198453877
 30
0.0
 40
10.0
 41
0.0
 71
     1
 72
     1
  1
53 710 05-75
  7
SLDTEXTSTYLE1
 73
     1
 44
1.0
  0
MTEXT
  5
60
330
1F
100
AcDbEntity
  8
0
  6
Continuous
 62
     7
370
     0
100
AcDbMText
 10
664.658399795
 20
48.4342449499
 30
0.0
 40
10.0
 41
0.0
 71
     1
 72
     1
  1
KLUDI GmbH & Co KG
  7
SLDTEXTSTYLE1
 73
     1
 44
1.0
  0
SPLINE
  5
61
330
1F
100
AcDbEntity
  8
0
  6
Continuous
 62
     7
370
    15
100
AcDbSpline
210
0.0
220
0.0
230
1.0
 70
     8
 71
     3
 72
    27
 73
    23
 74
     0
 42
0.00000001
 43
0.00000001
 40
0.0
 40
0.0
 40
0.0
 40
0.0
 40
0.0084459422775477
 40
0.0821257257690807
 40
0.1297228622603512
 40
0.1686251618160282
 40
0.2059137185162874
 40
0.2399235434458481
 40
0.2710221984465883
 40
0.2998547468837346
 40
0.327137274131959
 40
0.3536053535958198
 40
0.3809905386917445
 40
0.4087853934936528
 40
0.4459588562031847
 40
0.4862124077889602
 40
0.5322939968817907
 40
0.5893925601103056
 40
0.6898749051019415
 40
0.8120192865367695
 40
0.9604250110007263
 40
1.0
 40
1.0
 40
1.0
 40
1.0
 10
262.1105582187496
 20
406.8422647972122
 30
0.0
 10
262.2941516051196
 20
406.8387905340559
 30
0.0
 10
264.0793568085839
 20
406.805007875609
 30
0.0
 10
266.9013127224769
 20
406.8494806558967
 30
0.0
 10
270.3784535258912
 20
407.0439480213641
 30
0.0
 10
273.0557597241964
 20
407.3383218433914
 30
0.0
 10
275.398334679784
 20
407.8499818014944
 30
0.0
 10
277.5076157173706
 20
408.5568591911217
 30
0.0
 10
279.3449558413758
 20
409.4376412437295
 30
0.0
 10
280.9203314406977
 20
410.4773293335469
 30
0.0
 10
282.2448335720816
 20
411.6692246661877
 30
0.0
 10
283.343838507659
 20
413.0283644914022
 30
0.0
 10
284.1900700879021
 20
414.5550679064145
 30
0.0
 10
284.9824859134552
 20
416.3482815673914
 30
0.0
 10
285.6690202452417
 20
418.4714260169209
 30
0.0
 10
286.233829566425
 20
421.018516825769
 30
0.0
 10
286.6638747923248
 20
424.0090506657045
 30
0.0
 10
287.1254208702123
 20
428.2603241000073
 30
0.0
 10
287.6458628279289
 20
434.1141512952515
 30
0.0
 10
288.0770792538246
 20
441.8924403668433
 30
0.0
 10
288.3425622667182
 20
448.3947884315555
 30
0.0
 10
288.4702982372018
 20
452.3383827055755
 30
0.0
 10
288.4971900897412
 20
453.1686152179256
 30
0.0
  0
SPLINE
  5
62
330
1F
100
AcDbEntity
  8
0
  6
Continuous
 62
     7
370
    15
100
AcDbSpline
210
0.0
220
0.0
230
1.0
 70
     8
 71
     3
 72
    26
 73
    22
 74
     0
 42
0.00000001
 43
0.00000001
 40
0.0
 40
0.0
 40
0.0
 40
0.0
 40
0.0657531879609749
 40
0.2344396466644387
 40
0.3575301787103503
 40
0.4398095422071205
 40
0.5033751616809294
 40
0.5461596831031681
 40
0.5848168916967148
 40
0.6203740433585787
 40
0.6471582349817281
 40
0.673786265063379
 40
0.701171774360708
 40
0.729733381204098
 40
0.7602171455143669
 40
0.7932477458738677
 40
0.8292447704094834
 40
0.8679849283726292
 40
0.9098263448495489
 40
0.9766946049582298
 40
0.9999999999999999
 40
0.9999999999999999
 40
0.9999999999999999
 40
0.9999999999999999
 10
235.7224869596152
 20
453.1685183603778
 30
0.0
 10
235.7706149832914
 20
451.7893614342099
 30
0.0
 10
235.9422130033299
 20
446.8720475747279
 30
0.0
 10
236.2523100793119
 20
439.3752407598857
 30
0.0
 10
236.7747004151759
 20
431.5355489824175
 30
0.0
 10
237.3446743021487
 20
425.917777986358
 30
0.0
 10
237.8134869257854
 20
421.9775421935781
 30
0.0
 10
238.4192266758379
 20
418.9764776630446
 30
0.0
 10
239.1354181370386
 20
416.6028255890806
 30
0.0
 10
239.9837445201908
 20
414.6325298351255
 30
0.0
 10
240.9153790199421
 20
412.9739380562187
 30
0.0
 10
242.0174729882839
 20
411.6263242440069
 30
0.0
 10
243.3484911849642
 20
410.4417208451
 30
0.0
 10
244.9142258002821
 20
409.4182521518266
 30
0.0
 10
246.7164150400587
 20
408.5582279116354
 30
0.0
 10
248.765027609702
 20
407.8686265205853
 30
0.0
 10
251.0532654121133
 20
407.3584871810733
 30
0.0
 10
253.573289928895
 20
407.0682956320839
 30
0.0
 10
256.7729583990797
 20
406.8730559569289
 30
0.0
 10
259.6441893891401
 20
406.8078563439745
 30
0.0
 10
261.604422653582
 20
406.8411187133329
 30
0.0
 10
262.1110452422485
 20
406.8497153778091
 30
0.0
  0
SPLINE
  5
63
330
1F
100
AcDbEntity
  8
0
  6
Continuous
 62
     7
370
    15
100
AcDbSpline
210
0.0
220
0.0
230
1.0
 70
     8
 71
     3
 72
    28
 73
    24
 74
     0
 42
0.00000001
 43
0.00000001
 40
0.0
 40
0.0
 40
0.0
 40
0.0
 40
0.0169065257404503
 40
0.1088348207240672
 40
0.1892716341306797
 40
0.2633569270272762
 40
0.3323615617880142
 40
0.3973445472463765
 40
0.4520702586390123
 40
0.4964223521382146
 40
0.5359903852951823
 40
0.5724588245150021
 40
0.6027991998672023
 40
0.6360577093996426
 40
0.6670509759494876
 40
0.6996023624131558
 40
0.7341530145016825
 40
0.7709719326751092
 40
0.8093280437902628
 40
0.8516014381867416
 40
0.9088566298929485
 40
0.9762544584218681
 40
0.9999999999999999
 40
0.9999999999999999
 40
0.9999999999999999
 40
0.9999999999999999
 10
288.8816176968007
 20
467.6357838172927
 30
0.0
 10
288.8850615553182
 20
467.9690481847608
 30
0.0
 10
288.9072312033055
 20
470.1144190459259
 30
0.0
 10
288.8941415443784
 20
473.8773451059229
 30
0.0
 10
288.8490085851832
 20
478.7923563232874
 30
0.0
 10
288.6882974583881
 20
483.2599356903007
 30
0.0
 10
288.4012649705008
 20
487.4090263858459
 30
0.0
 10
287.9780519383332
 20
491.1448554199216
 30
0.0
 10
287.4864623153151
 20
494.3558229667398
 30
0.0
 10
286.8763311536833
 20
497.0177568933502
 30
0.0
 10
286.1210491583408
 20
499.2573054229957
 30
0.0
 10
285.2244903120334
 20
501.1359207856125
 30
0.0
 10
284.1787874782571
 20
502.7925288278743
 30
0.0
 10
282.9240205269725
 20
504.1714577754636
 30
0.0
 10
281.4309619053636
 20
505.359208411885
 30
0.0
 10
279.7571587555302
 20
506.3404393322911
 30
0.0
 10
277.8577781140707
 20
507.1434692909027
 30
0.0
 10
275.7581492886752
 20
507.752726657078
 30
0.0
 10
273.4458426152809
 20
508.1469912562516
 30
0.0
 10
270.7074455768667
 20
508.4444894800137
 30
0.0
 10
267.3731294674539
 20
508.6026653199002
 30
0.0
 10
264.4067625125931
 20
508.6240277373498
 30
0.0
 10
262.5849899224389
 20
508.6207652004052
 30
0.0
 10
262.1103643217552
 20
508.6199152131096
 30
0.0
  0
SPLINE
  5
64
330
1F
100
AcDbEntity
  8
0
  6
Continuous
 62
     7
370
    15
100
AcDbSpline
210
0.0
220
0.0
230
1.0
 70
     8
 71
     3
 72
     9
 73
     5
 74
     0
 42
0.00000001
 43
0.00000001
 40
0.0
 40
0.0
 40
0.0
 40
0.0
 40
0.1649339949610438
 40
1.0
 40
1.0
 40
1.0
 40
1.0
 10
288.8184796141772
 20
463.5209101099983
 30
0.0
 10
288.8291508845069
 20
463.7459022225818
 30
0.0
 10
288.8938511322168
 20
465.1100364790556
 30
0.0
 10
288.8871846497129
 20
466.4864160377754
 30
0.0
 10
288.8816176968007
 20
467.6357838172927
 30
0.0
  0
LINE
  5
65
330
1F
100
AcDbEntity
  8
0
  6
Continuous
 62
     7
370
    15
100
AcDbLine
 10
235.3384188431
 20
467.4598718841
 30
0.0
 11
235.3991392123
 21
463.5233837028
 31
0.0
  0
SPLINE
  5
66
330
1F
100
AcDbEntity
  8
0
  6
Continuous
 62
     7
370
    15
100
AcDbSpline
210
0.0
220
0.0
230
1.0
 70
     8
 71
     3
 72
    28
 73
    24
 74
     0
 42
0.00000001
 43
0.00000001
 40
0.0
 40
0.0
 40
0.0
 40
0.0
 40
0.0310259270237392
 40
0.1172159370275172
 40
0.1719400039615306
 40
0.2133954050122099
 40
0.2509775757507386
 40
0.2868249622037723
 40
0.3203755715334941
 40
0.3519738807470901
 40
0.3821742402452731
 40
0.4146515362929567
 40
0.4444647532653177
 40
0.4814539003615613
 40
0.5210884563827398
 40
0.5654122994814369
 40
0.6172788971073772
 40
0.6821582303057298
 40
0.7516386471899215
 40
0.8257080190165461
 40
0.9055145571927492
 40
0.9921743111956796
 40
1.0
 40
1.0
 40
1.0
 40
1.0
 10
262.1103694876851
 20
508.6163836379066
 30
0.0
 10
261.4884317966761
 20
508.6183518298002
 30
0.0
 10
259.1387515061059
 20
508.6257876578054
 30
0.0
 10
255.6899280127905
 20
508.5863680806279
 30
0.0
 10
252.0441159268135
 20
508.3084023678025
 30
0.0
 10
249.3893986590748
 20
507.9405622357911
 30
0.0
 10
247.1539928605613
 20
507.4049703767863
 30
0.0
 10
245.1537357439471
 20
506.6654385608608
 30
0.0
 10
243.3748919220931
 20
505.7383239489707
 30
0.0
 10
241.8391496934242
 20
504.6416238935157
 30
0.0
 10
240.4986274094574
 20
503.3491804355799
 30
0.0
 10
239.4279448865333
 20
501.8736327129803
 30
0.0
 10
238.504017023643
 20
500.1624091266955
 30
0.0
 10
237.7201104292289
 20
498.2219720941027
 30
0.0
 10
237.0691996114578
 20
495.9283202465124
 30
0.0
 10
236.5588979663749
 20
493.2891762489611
 30
0.0
 10
236.1129990461992
 20
490.1157128047077
 30
0.0
 10
235.7367511238418
 20
486.4094719265362
 30
0.0
 10
235.485593762368
 20
482.2372560257735
 30
0.0
 10
235.3528562819063
 20
477.7602089093658
 30
0.0
 10
235.3325613258909
 20
472.9535961938455
 30
0.0
 10
235.3059110900602
 20
469.4805544177034
 30
0.0
 10
235.3359323535275
 20
467.6144321204309
 30
0.0
 10
235.3384188430695
 20
467.4598718841091
 30
0.0
  0
SPLINE
  5
67
330
1F
100
AcDbEntity
  8
0
  6
Continuous
 62
     7
370
    15
100
AcDbSpline
210
0.0
220
0.0
230
1.0
 70
     8
 71
     3
 72
    10
 73
     6
 74
     0
 42
0.00000001
 43
0.00000001
 40
0.0
 40
0.0
 40
0.0
 40
0.0
 40
0.0072611298975355
 40
0.6815461950949622
 40
1.0
 40
1.0
 40
1.0
 40
1.0
 10
288.5185695307641
 20
453.1716103513256
 30
0.0
 10
288.5196268034352
 20
453.196442614401
 30
0.0
 10
288.6188648251158
 20
455.5272554015859
 30
0.0
 10
288.7438414272265
 20
458.967390342591
 30
0.0
 10
288.7966571084524
 20
462.4212034043227
 30
0.0
 10
288.8135994838862
 20
463.5291281003967
 30
0.0
  0
SPLINE
  5
68
330
1F
100
AcDbEntity
  8
0
  6
Continuous
 62
     7
370
    15
100
AcDbSpline
210
0.0
220
0.0
230
1.0
 70
     8
 71
     3
 72
    10
 73
     6
 74
     0
 42
0.00000001
 43
0.00000001
 40
0.0
 40
0.0
 40
0.0
 40
0.0
 40
0.4126452648390983
 40
0.9740987523101683
 40
1.0
 40
1.0
 40
1.0
 40
1.0
 10
235.4042950140623
 20
463.5285506804004
 30
0.0
 10
235.4300982852905
 20
462.0947447713087
 30
0.0
 10
235.4910100088715
 20
458.7100735631082
 30
0.0
 10
235.6164940475871
 20
455.2701207619084
 30
0.0
 10
235.6997316734547
 20
453.2606525574261
 30
0.0
 10
235.7034022974161
 20
453.1720387597099
 30
0.0
  0
SPLINE
  5
69
330
1F
100
AcDbEntity
  8
0
  6
Continuous
 62
     7
370
    15
100
AcDbSpline
210
0.0
220
0.0
230
1.0
 70
     8
 71
     3
 72
     9
 73
     5
 74
     0
 42
0.00000001
 43
0.00000001
 40
0.0
 40
0.0
 40
0.0
 40
0.0
 40
0.8181784819261134
 40
1.0
 40
1.0
 40
1.0
 40
1.0
 10
441.2284261601357
 20
495.6590274662241
 30
0.0
 10
441.2938597794575
 20
495.8121717156487
 30
0.0
 10
441.3738345291816
 20
495.9993487837427
 30
0.0
 10
441.4381487965824
 20
496.2031593740213
 30
0.0
 10
441.4498425143151
 20
496.2402165249452
 30
0.0
  0
SPLINE
  5
6A
330
1F
100
AcDbEntity
  8
0
  6
Continuous
 62
     7
370
    15
100
AcDbSpline
210
0.0
220
0.0
230
1.0
 70
     8
 71
     3
 72
    25
 73
    21
 74
     0
 42
0.00000001
 43
0.00000001
 40
0.0
 40
0.0
 40
0.0
 40
0.0
 40
0.0628745102064192
 40
0.1258490665906392
 40
0.1849039810409561
 40
0.244153533231745
 40
0.304262849913887
 40
0.3648285384372398
 40
0.4019842695129341
 40
0.476850472572694
 40
0.5149830231238185
 40
0.5522808171016915
 40
0.5895787224705974
 40
0.6272991547931716
 40
0.6656589046712119
 40
0.7201203108847363
 40
0.7751526548552489
 40
0.831246528613244
 40
0.8875031084890918
 40
1.0
 40
1.0
 40
1.0
 40
1.0
 10
165.99437511138
 20
496.9021722056434
 30
0.0
 10
166.3375187880845
 20
494.6594445314211
 30
0.0
 10
167.0243521531151
 20
490.1704205455285
 30
0.0
 10
168.362721188192
 20
483.6313915469785
 30
0.0
 10
169.9720481564221
 20
477.2890620579818
 30
0.0
 10
171.9267225278218
 20
471.1506320715638
 30
0.0
 10
174.3426207301945
 20
465.118076847245
 30
0.0
 10
176.9284806229948
 20
460.0324113259917
 30
0.0
 10
180.2209306383618
 20
454.7435042268705
 30
0.0
 10
183.5863829461263
 20
450.4638299507972
 30
0.0
 10
187.4525287751637
 20
446.6529615223092
 30
0.0
 10
190.5916272883663
 20
444.0583877926812
 30
0.0
 10
193.928629666844
 20
441.7504623071486
 30
0.0
 10
197.4844403980229
 20
439.7181188106957
 30
0.0
 10
201.7582805722466
 20
437.7257729687457
 30
0.0
 10
206.8090826377623
 20
435.9725018284195
 30
0.0
 10
212.6266236061635
 20
434.5810618022629
 30
0.0
 10
218.5899042486285
 20
433.6054750876503
 30
0.0
 10
226.6515105328426
 20
432.6715294239702
 30
0.0
 10
232.7323312712675
 20
432.3282437976702
 30
0.0
 10
236.7860163616328
 20
432.0993977446571
 30
0.0
  0
SPLINE
  5
6B
330
1F
100
AcDbEntity
  8
0
  6
Continuous
 62
     7
370
    15
100
AcDbSpline
210
0.0
220
0.0
230
1.0
 70
     8
 71
     3
 72
    17
 73
    13
 74
     0
 42
0.00000001
 43
0.00000001
 40
0.0
 40
0.0
 40
0.0
 40
0.0
 40
0.0758628253529683
 40
0.2689575650504385
 40
0.4621119474961931
 40
0.5756531999681631
 40
0.6892345636419324
 40
0.7462679630519643
 40
0.8033689038918214
 40
0.8607837747700922
 40
0.9183575459689384
 40
1.0
 40
1.0
 40
1.0
 40
1.0
 10
287.4086919294982
 20
431.7859220166221
 30
0.0
 10
290.1166266954998
 20
431.8437408237969
 30
0.0
 10
299.7171067407733
 20
432.0487266718653
 30
0.0
 10
316.2000637049968
 20
432.8093075846959
 30
0.0
 10
334.0146298957525
 20
433.8423166936333
 30
0.0
 10
348.9767032383533
 20
434.9790647341267
 30
0.0
 10
359.0806157472041
 20
435.911762451705
 30
0.0
 10
367.1477884825153
 20
436.9291547154648
 30
0.0
 10
373.1941452936552
 20
437.9208059815501
 30
0.0
 10
379.2014416942907
 20
439.2170662458494
 30
0.0
 10
385.9928871367919
 20
441.0222995808958
 30
0.0
 10
390.6517230467651
 20
442.7642354241655
 30
0.0
 10
393.3838672058968
 20
443.7857824225441
 30
0.0
  0
SPLINE
  5
6C
330
1F
100
AcDbEntity
  8
0
  6
Continuous
 62
     7
370
    15
100
AcDbSpline
210
0.0
220
0.0
230
1.0
 70
     8
 71
     3
 72
    22
 73
    18
 74
     0
 42
0.00000001
 43
0.00000001
 40
0.0
 40
0.0
 40
0.0
 40
0.0
 40
0.125
 40
0.125
 40
0.25
 40
0.25
 40
0.375
 40
0.375
 40
0.5
 40
0.5
 40
0.625
 40
0.625
 40
0.75
 40
0.75
 40
0.875
 40
0.875
 40
1.0
 40
1.0
 40
1.0
 40
1.0
 10
441.4882071192841
 20
496.2516630328058
 30
0.0
 10
441.5728981259728
 20
496.4507534364585
 30
0.0
 10
441.6316945009609
 20
496.6567082450013
 30
0.0
 10
441.6982470697396
 20
497.0821480976925
 30
0.0
 10
441.7048999566876
 20
497.2980725504916
 30
0.0
 10
441.665914412782
 20
497.7231791333341
 30
0.0
 10
441.6193232925431
 20
497.9366908112027
 30
0.0
 10
441.4775316066102
 20
498.3396071413312
 30
0.0
 10
441.3817934555284
 20
498.5325779914019
 30
0.0
 10
441.1438746497805
 20
498.891883089297
 30
0.0
 10
441.0050688145175
 20
499.0538685405442
 30
0.0
 10
440.6883337674818
 20
499.3430122000804
 30
0.0
 10
440.5108565113863
 20
499.4686097031404
 30
0.0
 10
440.1350775249334
 20
499.6705525454415
 30
0.0
 10
439.9316431195392
 20
499.7494640884848
 30
0.0
 10
439.5166947520177
 20
499.8537559594729
 30
0.0
 10
439.3048554176701
 20
499.8802702750971
 30
0.0
 10
439.0885006067467
 20
499.8802702750637
 30
0.0
  0
LINE
  5
6D
330
1F
100
AcDbEntity
  8
0
  6
Continuous
 62
     7
370
    15
100
AcDbLine
 10
441.434837045
 20
496.2462994583
 30
0.0
 11
441.4880937951
 21
496.2517369852
 31
0.0
  0
SPLINE
  5
6E
330
1F
100
AcDbEntity
  8
0
  6
Continuous
 62
     7
370
    15
100
AcDbSpline
210
0.0
220
0.0
230
1.0
 70
     8
 71
     3
 72
    22
 73
    18
 74
     0
 42
0.00000001
 43
0.00000001
 40
0.0
 40
0.0
 40
0.0
 40
0.0
 40
0.125
 40
0.125
 40
0.25
 40
0.25
 40
0.375
 40
0.375
 40
0.5
 40
0.5
 40
0.625
 40
0.625
 40
0.75
 40
0.75
 40
0.875
 40
0.875
 40
1.0
 40
1.0
 40
1.0
 40
1.0
 10
168.5757515951878
 20
499.8802702331165
 30
0.0
 10
168.3877414615301
 20
499.8802702330873
 30
0.0
 10
168.2034273050142
 20
499.8601760162504
 30
0.0
 10
167.8418417236965
 20
499.7816977954577
 30
0.0
 10
167.6624404739785
 20
499.7222072784701
 30
0.0
 10
167.3233820061956
 20
499.5674472095048
 30
0.0
 10
167.1639332518761
 20
499.4729600820994
 30
0.0
 10
166.8652294837478
 20
499.2497160097827
 30
0.0
 10
166.7269987798431
 20
499.1210080646953
 30
0.0
 10
166.484123774298
 20
498.8409319938522
 30
0.0
 10
166.3768675212873
 20
498.6868708808167
 30
0.0
 10
166.1974894881956
 20
498.3585134371361
 30
0.0
 10
166.1265751853677
 20
498.1871911158049
 30
0.0
 10
166.0215882569886
 20
497.8305285663466
 30
0.0
 10
165.9878882011556
 20
497.6439634175624
 30
0.0
 10
165.9613602214733
 20
497.2738482070063
 30
0.0
 10
165.9676789977509
 20
497.0882772872415
 30
0.0
 10
165.9943757509319
 20
496.9021722084772
 30
0.0
  0
SPLINE
  5
6F
330
1F
100
AcDbEntity
  8
0
  6
Continuous
 62
     7
370
    15
100
AcDbSpline
210
0.0
220
0.0
230
1.0
 70
     8
 71
     3
 72
    29
 73
    25
 74
     0
 42
0.00000001
 43
0.00000001
 40
0.0
 40
0.0
 40
0.0
 40
0.0
 40
0.0098818115493461
 40
0.0136555623302463
 40
0.0212030652145931
 40
0.0362980750089474
 40
0.0966787570361259
 40
0.17738314229865
 40
0.2580851354284469
 40
0.3386696644759847
 40
0.3811065657135651
 40
0.4234893075834704
 40
0.4527809548738423
 40
0.4819961583348047
 40
0.5116914424270076
 40
0.5414483693792582
 40
0.5805345875107734
 40
0.6197479047380483
 40
0.6748244013196014
 40
0.7300115455687536
 40
0.7851950602850906
 40
0.8690788623111577
 40
0.9529712427467059
 40
1.0
 40
1.0
 40
1.0
 40
1.0
 10
168.5757479684738
 20
499.8802702605255
 30
0.0
 10
168.5762732696583
 20
499.8802702605206
 30
0.0
 10
168.5769991773556
 20
499.8802702605138
 30
0.0
 10
168.5789985988515
 20
499.8802702605469
 30
0.0
 10
168.5821890805015
 20
499.8802702602627
 30
0.0
 10
168.5963561127753
 20
499.8802702653635
 30
0.0
 10
168.6635517956987
 20
499.880270168613
 30
0.0
 10
168.8401723130047
 20
499.8802702124403
 30
0.0
 10
169.3528066182942
 20
499.8802701995539
 30
0.0
 10
170.2919975353688
 20
499.8802702026813
 30
0.0
 10
171.5271411592058
 20
499.8802702022465
 30
0.0
 10
172.8045740417624
 20
499.8802702023305
 30
0.0
 10
174.3954993836568
 20
499.880270202315
 30
0.0
 10
176.2614645607117
 20
499.8802702023185
 30
0.0
 10
178.7988171353055
 20
499.8802702023181
 30
0.0
 10
182.1569678040007
 20
499.880270202316
 30
0.0
 10
186.2821165716201
 20
499.8802702023275
 30
0.0
 10
191.6314018693702
 20
499.8802702022759
 30
0.0
 10
197.7628677043912
 20
499.8802702025465
 30
0.0
 10
204.6252938520354
 20
499.8802702014725
 30
0.0
 10
212.7167170698272
 20
499.8802702061627
 30
0.0
 10
222.0224619323116
 20
499.8802701794535
 30
0.0
 10
230.9974666769501
 20
499.8802702708215
 30
0.0
 10
236.4705855792097
 20
499.8802702632465
 30
0.0
 10
238.4366086738495
 20
499.8802702605255
 30
0.0
  0
SPLINE
  5
70
330
1F
100
AcDbEntity
  8
0
  6
Continuous
 62
     7
370
    15
100
AcDbSpline
210
0.0
220
0.0
230
1.0
 70
    24
 71
     3
 72
    30
 73
    26
 74
     0
 42
0.00000001
 43
0.00000001
 40
0.0
 40
0.0
 40
0.0
 40
0.0
 40
0.0876195486259999
 40
0.2229881556341498
 40
0.3583550738401934
 40
0.4491642568186792
 40
0.5399754810809404
 40
0.6306999589525548
 40
0.6640791963055447
 40
0.6974227708324799
 40
0.7197651537273198
 40
0.7420172809476844
 40
0.7585299222064971
 40
0.7750530522269001
 40
0.7992359774463021
 40
0.8234987158214749
 40
0.8669116389975142
 40
0.9103921928866056
 40
0.9535438656844506
 40
0.9751150153258684
 40
0.9859002884111239
 40
0.9912928980734567
 40
0.9939892008210346
 40
0.9966855032999715
 40
1.0
 40
1.0
 40
1.0
 40
1.0
 10
285.7766143100648
 20
499.8802702605255
 30
0.0
 10
291.4831746802467
 20
499.8802702605255
 30
0.0
 10
306.0061366438311
 20
499.8802702605255
 30
0.0
 10
329.2860097385049
 20
499.8802702605255
 30
0.0
 10
352.6982741831057
 20
499.8802702605255
 30
0.0
 10
373.1640525703415
 20
499.8802702605255
 30
0.0
 10
390.6761154548405
 20
499.8802702605255
 30
0.0
 10
404.3684652419977
 20
499.8802702605255
 30
0.0
 10
414.2758875903057
 20
499.8802702605255
 30
0.0
 10
419.7355857552134
 20
499.8802702605255
 30
0.0
 10
424.3647260980119
 20
499.8802702605255
 30
0.0
 10
427.8115704324038
 20
499.8802702605255
 30
0.0
 10
430.4750625413536
 20
499.8802702605255
 30
0.0
 10
432.7142259103991
 20
499.8802702605255
 30
0.0
 10
434.5504669172764
 20
499.8802702605255
 30
0.0
 10
436.3405712915354
 20
499.8802702605255
 30
0.0
 10
437.7023855894453
 20
499.8802702605255
 30
0.0
 10
438.5362106431045
 20
499.8802702605255
 30
0.0
 10
438.9017246474737
 20
499.8802702605255
 30
0.0
 10
439.0279325517904
 20
499.8802702605255
 30
0.0
 10
439.063991466505
 20
499.8802702605255
 30
0.0
 10
439.0762339129309
 20
499.8802702605255
 30
0.0
 10
439.0817905236443
 20
499.8802702605255
 30
0.0
 10
439.0855334072047
 20
499.8802702605255
 30
0.0
 10
439.0874457128756
 20
499.8802702605255
 30
0.0
 10
439.0885002034096
 20
499.8802702605255
 30
0.0
  0
SPLINE
  5
71
330
1F
100
AcDbEntity
  8
0
  6
Continuous
 62
     7
370
    15
100
AcDbSpline
210
0.0
220
0.0
230
1.0
 70
     8
 71
     3
 72
    16
 73
    12
 74
     0
 42
0.00000001
 43
0.00000001
 40
0.0
 40
0.0
 40
0.0
 40
0.0
 40
0.1187506011623944
 40
0.2448448014943149
 40
0.3696172452374824
 40
0.4933434927224876
 40
0.5757943402840437
 40
0.6585393955779374
 40
0.7420277741594142
 40
0.8692153640808493
 40
1.0
 40
1.0
 40
1.0
 40
1.0
 10
441.219068230906
 20
495.6633068934545
 30
0.0
 10
440.056348939023
 20
493.0361966839614
 30
0.0
 10
437.6590071872506
 20
487.6195143981395
 30
0.0
 10
433.4327676193705
 20
479.7307854975335
 30
0.0
 10
428.5903869309769
 20
472.0631071435761
 30
0.0
 10
423.7065413257394
 20
465.7022412597133
 30
0.0
 10
418.9657396749622
 20
460.5604230445929
 30
0.0
 10
414.5580039294748
 20
456.456966450693
 30
0.0
 10
408.9749258522064
 20
452.0677746876158
 30
0.0
 10
401.98957779015
 20
447.6011197073141
 30
0.0
 10
396.2790288267645
 20
445.0692621477898
 30
0.0
 10
393.3839417117028
 20
443.785681839706
 30
0.0
  0
SPLINE
  5
72
330
1F
100
AcDbEntity
  8
0
  6
Continuous
 62
     8
370
     0
100
AcDbSpline
210
0.0
220
0.0
230
1.0
 70
     8
 71
     3
 72
   190
 73
   186
 74
     0
 42
0.00000001
 43
0.00000001
 40
0.0
 40
0.0
 40
0.0
 40
0.0
 40
0.0064173024215837
 40
0.0128347891771163
 40
0.0160434948823944
 40
0.0256696639510268
 40
0.0320868551667523
 40
0.0352952304789394
 40
0.0417127747713514
 40
0.0481305772141816
 40
0.0513394204470733
 40
0.0614045075529503
 40
0.0714693608949233
 40
0.0748244940728585
 40
0.081535056288905
 40
0.0882457012093458
 40
0.0916007936916382
 40
0.0983103178817701
 40
0.1050206587357721
 40
0.1103003230863338
 40
0.1208596857921445
 40
0.126139352576154
 40
0.128779184660087
 40
0.1340592502162311
 40
0.1393391953671526
 40
0.1419792070464908
 40
0.1472592902130492
 40
0.1538288919710564
 40
0.1560187811627316
 40
0.1603985476302108
 40
0.1691585227091192
 40
0.1713486586686352
 40
0.1779190538854863
 40
0.1822994295580481
 40
0.1841781528817544
 40
0.1879357121878144
 40
0.1935721674471313
 40
0.1954510650621524
 40
0.1992088705679094
 40
0.2029670896875908
 40
0.2048457381492239
 40
0.2086037564722693
 40
0.2157138131771966
 40
0.2173897064300858
 40
0.2207415658673239
 40
0.2240934658710995
 40
0.2257694349026065
 40
0.2291215988771543
 40
0.2324740626434114
 40
0.234150402580465
 40
0.2391799227739082
 40
0.2484352004855883
 40
0.2499778912631869
 40
0.2530637849754077
 40
0.2576933285488816
 40
0.2607801556880734
 40
0.2653573224239102
 40
0.2683377377941957
 40
0.2698280668416075
 40
0.2728088873965399
 40
0.2757898364864287
 40
0.2787714496175377
 40
0.2817535704835691
 40
0.2847360315599464
 40
0.2877187844458555
 40
0.289705030169675
 40
0.2916915614458445
 40
0.2936782692529246
 40
0.2966586378836443
 40
0.2986457118069042
 40
0.2996393012778739
 40
0.3036141913143449
 40
0.3098111059019494
 40
0.3118773237787298
 40
0.3139437216194383
 40
0.3160102092289321
 40
0.318076914688739
 40
0.3223608556569644
 40
0.3267956893030755
 40
0.327904576002562
 40
0.3301223826573144
 40
0.3334493820598231
 40
0.3378861916171146
 40
0.3428175514586373
 40
0.3452834688661928
 40
0.3465164168043244
 40
0.3502159923532667
 40
0.3526827333564354
 40
0.3539161379497308
 40
0.3576165070362152
 40
0.3604514113627187
 40
0.3618689946400723
 40
0.3661220167065459
 40
0.3717932865302087
 40
0.3732112348429956
 40
0.3760473018828471
 40
0.380301165353555
 40
0.3819724462023191
 40
0.3853151345306989
 40
0.3903291841363355
 40
0.3920005036111792
 40
0.3970145790733355
 40
0.4037010521380515
 40
0.4053728232651685
 40
0.4089283426120964
 40
0.4145796083508922
 40
0.4183471832747019
 40
0.4221143569229366
 40
0.4258804148424791
 40
0.4296485426071015
 40
0.4371850710784064
 40
0.440950932363743
 40
0.4428338558583517
 40
0.4484827134694679
 40
0.4522487259619064
 40
0.4541317514953747
 40
0.4578976840022199
 40
0.4635469219239539
 40
0.4654300729644286
 40
0.46856822956279
 40
0.4710780564309572
 40
0.4723329632618192
 40
0.4798626346304455
 40
0.4848826448559566
 40
0.48613763676307
 40
0.4907388668028386
 40
0.4957582876343242
 40
0.4974314423505423
 40
0.4999411960984562
 40
0.5016139620428712
 40
0.5024502774392104
 40
0.5041230672324588
 40
0.5108149190594352
 40
0.5141610223643936
 40
0.5191806463512265
 40
0.5292195001101755
 40
0.5304742539244761
 40
0.5329836275551725
 40
0.5417677282969311
 40
0.5455325892174125
 40
0.5530624400121691
 40
0.5605920096960648
 40
0.5624742548487374
 40
0.5671798379489021
 40
0.5756510359937143
 40
0.5869467389085906
 40
0.5982428001666851
 40
0.6095387555819916
 40
0.6180102030366047
 40
0.6264804729376853
 40
0.6434227689955078
 40
0.6476586514706938
 40
0.6561305730112215
 40
0.6646021853238245
 40
0.6688379559108637
 40
0.6773094506363712
 40
0.689517350145565
 40
0.6956213974201525
 40
0.7078314741945282
 40
0.7200419817600943
 40
0.7261469282087427
 40
0.7383565092091517
 40
0.7505656542930541
 40
0.7566701128884853
 40
0.7688796251547471
 40
0.7822247997852236
 40
0.7894652270091603
 40
0.8039454906215059
 40
0.8184247581330248
 40
0.8256651629070004
 40
0.8473856604940371
 40
0.8691047012152637
 40
0.8763433852645061
 40
0.8908246832985135
 40
0.9009584407967135
 40
0.9110918825723423
 40
0.926291207240915
 40
0.9364230731112058
 40
0.9414898416001644
 40
0.9516235123645539
 40
0.9668232278544565
 40
0.9718894546483726
 40
0.9824313955223005
 40
0.9929731637793165
 40
1.0
 40
1.0
 40
1.0
 40
1.0
 10
262.1108398684694
 20
408.9052532440324
 30
0.0
 10
262.2455615545238
 20
408.9052710864007
 30
0.0
 10
262.5150087964488
 20
408.9053067716497
 30
0.0
 10
262.85181775719
 20
408.9057726425134
 30
0.0
 10
263.25599118651
 20
408.9066780476471
 30
0.0
 10
263.6601570049694
 20
408.9081575294983
 30
0.0
 10
264.0643113876517
 20
408.9104805873827
 30
0.0
 10
264.4011029166606
 20
408.9129283114315
 30
0.0
 10
264.7379031562974
 20
408.9158803653698
 30
0.0
 10
265.0747051503715
 20
408.9196021826633
 30
0.0
 10
265.4880664487903
 20
408.9249496338643
 30
0.0
 10
265.9779665817761
 20
408.9326064638103
 30
0.0
 10
266.4708935910418
 20
408.9426477575066
 30
0.0
 10
266.8933690049175
 20
408.9529787463448
 30
0.0
 10
267.2454201422541
 20
408.9627148091033
 30
0.0
 10
267.5974164093771
 20
408.9741451485871
 30
0.0
 10
267.9493387055248
 20
408.986952605767
 30
0.0
 10
268.3011962862197
 20
409.0012233342182
 30
0.0
 10
268.6933125439853
 20
409.0194942329681
 30
0.0
 10
269.1660083301427
 20
409.0442918369611
 30
0.0
 10
269.6085067624921
 20
409.071113807915
 30
0.0
 10
269.9954313991522
 20
409.0981886753386
 30
0.0
 10
270.2717162495065
 20
409.1187644833925
 30
0.0
 10
270.5478985042266
 20
409.1406733706686
 30
0.0
 10
270.8239100122865
 20
409.1645441006983
 30
0.0
 10
271.0997692369794
 20
409.1899767859887
 30
0.0
 10
271.4023958627183
 20
409.2197239943428
 30
0.0
 10
271.6953113281397
 20
409.2513797286538
 30
0.0
 10
271.9691812686942
 20
409.283125959287
 30
0.0
 10
272.2884630604239
 20
409.3220853556442
 30
0.0
 10
272.6072158879138
 20
409.3650640229084
 30
0.0
 10
272.9708591761963
 20
409.418372545614
 30
0.0
 10
273.2431972147708
 20
409.4609270682683
 30
0.0
 10
273.5084862237394
 20
409.5058340815757
 30
0.0
 10
273.7153243889923
 20
409.5424192460005
 30
0.0
 10
273.9477941889643
 20
409.5851818253337
 30
0.0
 10
274.1796999169677
 20
409.6307668606416
 30
0.0
 10
274.4110749288429
 20
409.678774365884
 30
0.0
 10
274.6035503507051
 20
409.7203444989677
 30
0.0
 10
274.7955026416265
 20
409.7640953791866
 30
0.0
 10
274.9870322220117
 20
409.8095469661362
 30
0.0
 10
275.2462870524392
 20
409.8735724741756
 30
0.0
 10
275.5001836551911
 20
409.9411811216756
 30
0.0
 10
275.7446898850304
 20
410.0104460411736
 30
0.0
 10
275.9130161899756
 20
410.0598165360137
 30
0.0
 10
276.0806572044926
 20
410.1113180992868
 30
0.0
 10
276.2477468747416
 20
410.1644663501958
 30
0.0
 10
276.4142740677898
 20
410.219283525561
 30
0.0
 10
276.5799778172027
 20
410.2763994037663
 30
0.0
 10
276.7780365306816
 20
410.3470745063464
 30
0.0
 10
277.0905606298325
 20
410.4637827901162
 30
0.0
 10
277.3963751057474
 20
410.5895344687675
 30
0.0
 10
277.6612898135613
 20
410.7068381381949
 30
0.0
 10
277.8369773710271
 20
410.7870738155284
 30
0.0
 10
278.0399634222823
 20
410.8847083520465
 30
0.0
 10
278.2684715077726
 20
411.0004944456653
 30
0.0
 10
278.4640691319393
 20
411.1048320258132
 30
0.0
 10
278.6282593916062
 20
411.1970166268652
 30
0.0
 10
278.7624256100643
 20
411.2746504870369
 30
0.0
 10
278.8955225906419
 20
411.3540154946904
 30
0.0
 10
279.0534518610145
 20
411.4520212219498
 30
0.0
 10
279.2095114907817
 20
411.552827956419
 30
0.0
 10
279.3636038772406
 20
411.6564720991844
 30
0.0
 10
279.5156397457099
 20
411.7629492972239
 30
0.0
 10
279.6488398106137
 20
411.8600726937676
 30
0.0
 10
279.7639129711516
 20
411.9468358006681
 30
0.0
 10
279.8615028030992
 20
412.0223999462372
 30
0.0
 10
279.9741724366839
 20
412.1119922057992
 30
0.0
 10
280.0853245030639
 20
412.2033602811728
 30
0.0
 10
280.1792568574876
 20
412.2831721611156
 30
0.0
 10
280.2879068930571
 20
412.3773294864974
 30
0.0
 10
280.4597388238608
 20
412.5312357993619
 30
0.0
 10
280.6421048277728
 20
412.7060138458187
 30
0.0
 10
280.7917538197022
 20
412.8574888613877
 30
0.0
 10
280.880275546626
 20
412.9495663818084
 30
0.0
 10
280.9675115935759
 20
413.0427924198125
 30
0.0
 10
281.0841866698182
 20
413.1708808313216
 30
0.0
 10
281.2302050654044
 20
413.3379371145027
 30
0.0
 10
281.3588740275463
 20
413.4936295443424
 30
0.0
 10
281.4582895341413
 20
413.6182278133514
 30
0.0
 10
281.5423863457312
 20
413.7258765942516
 30
0.0
 10
281.6657573004074
 20
413.8893675783025
 30
0.0
 10
281.8177169182369
 20
414.1007139684256
 30
0.0
 10
281.9538785718699
 20
414.301305780622
 30
0.0
 10
282.0500735198586
 20
414.4494867261392
 30
0.0
 10
282.131238614103
 20
414.5772908854908
 30
0.0
 10
282.2106753318166
 20
414.7061342045095
 30
0.0
 10
282.287994782402
 20
414.8361735784948
 30
0.0
 10
282.3640677087415
 20
414.966910982056
 30
0.0
 10
282.442182883991
 20
415.1050940990048
 30
0.0
 10
282.519845086778
 20
415.2477387110718
 30
0.0
 10
282.6013370168112
 20
415.4010767575735
 30
0.0
 10
282.7072580486115
 20
415.6069016814076
 30
0.0
 10
282.8085341522542
 20
415.814914925881
 30
0.0
 10
282.894402058025
 20
415.9981437020322
 30
0.0
 10
282.9666034095711
 20
416.1558159498804
 30
0.0
 10
283.0386793020658
 20
416.3191381979577
 30
0.0
 10
283.1129385348481
 20
416.4926990026615
 30
0.0
 10
283.1915160783306
 20
416.681197223815
 30
0.0
 10
283.2672234889167
 20
416.8707949457184
 30
0.0
 10
283.3529997552662
 20
417.0929120231299
 30
0.0
 10
283.4481570467397
 20
417.3478132375827
 30
0.0
 10
283.5385741606561
 20
417.6043357781737
 30
0.0
 10
283.6163284185016
 20
417.8337616892434
 30
0.0
 10
283.6857619999155
 20
418.0437433396307
 30
0.0
 10
283.7654126693748
 20
418.2951372734098
 30
0.0
 10
283.8432612576174
 20
418.5515205339082
 30
0.0
 10
283.9079590758571
 20
418.7718098199617
 30
0.0
 10
283.9706155418376
 20
418.9926636835659
 30
0.0
 10
284.0516829791794
 20
419.2878223451543
 30
0.0
 10
284.1291385012107
 20
419.583888778692
 30
0.0
 10
284.1940070149237
 20
419.8435962131322
 30
0.0
 10
284.248406623712
 20
420.0663917585796
 30
0.0
 10
284.3012556969879
 20
420.2895400075789
 30
0.0
 10
284.3522718385537
 20
420.5130822378127
 30
0.0
 10
284.3939144451364
 20
420.6995494292241
 30
0.0
 10
284.4428068415121
 20
420.9235390812349
 30
0.0
 10
284.4899594058411
 20
421.1478832452429
 30
0.0
 10
284.5332665003269
 20
421.3599965212599
 30
0.0
 10
284.563266688614
 20
421.5098109195108
 30
0.0
 10
284.5902013794882
 20
421.6472319864769
 30
0.0
 10
284.6336667787956
 20
421.8721883090957
 30
0.0
 10
284.6850946861223
 20
422.1474496583565
 30
0.0
 10
284.7342818513014
 20
422.4230930345996
 30
0.0
 10
284.7722025057727
 20
422.6403995614633
 30
0.0
 10
284.8093605809103
 20
422.8578181878051
 30
0.0
 10
284.8467128051986
 20
423.0837904993095
 30
0.0
 10
284.8764827148981
 20
423.2680161812776
 30
0.0
 10
284.8951668106408
 20
423.385282612712
 30
0.0
 10
284.9109653189753
 20
423.4858220859715
 30
0.0
 10
284.9240365295578
 20
423.5696079266032
 30
0.0
 10
284.9525780048792
 20
423.753984469741
 30
0.0
 10
284.9879726725384
 20
423.9887871428591
 30
0.0
 10
285.0321035900729
 20
424.2908827362288
 30
0.0
 10
285.0846842138199
 20
424.6603110196836
 30
0.0
 10
285.1292054560434
 20
424.9880345100845
 30
0.0
 10
285.1656743226951
 20
425.2654746533447
 30
0.0
 10
285.1984612338323
 20
425.5177394603099
 30
0.0
 10
285.2365326855223
 20
425.8206211633601
 30
0.0
 10
285.2855801815642
 20
426.2246784487613
 30
0.0
 10
285.3301634279625
 20
426.603646890284
 30
0.0
 10
285.3687518561657
 20
426.9448772651174
 30
0.0
 10
285.4001746780824
 20
427.2292962017116
 30
0.0
 10
285.4331748556637
 20
427.5327366119895
 30
0.0
 10
285.4851351263138
 20
428.0260214474177
 30
0.0
 10
285.5480592585061
 20
428.6524368838913
 30
0.0
 10
285.6132725825041
 20
429.3361285132572
 30
0.0
 10
285.6701846165824
 20
429.9630952387078
 30
0.0
 10
285.7198393947266
 20
430.5332072398896
 30
0.0
 10
285.777435353645
 20
431.2174828403952
 30
0.0
 10
285.8256534756831
 20
431.8163871140543
 30
0.0
 10
285.8721239163497
 20
432.4154549794802
 30
0.0
 10
285.9046098592595
 20
432.8434275931062
 30
0.0
 10
285.9362019393552
 20
433.2714605062491
 30
0.0
 10
285.9671431707745
 20
433.6995295897196
 30
0.0
 10
286.0027958512544
 20
434.2031676811346
 30
0.0
 10
286.0398837006295
 20
434.7446528623026
 30
0.0
 10
286.0809730769357
 20
435.3617957260462
 30
0.0
 10
286.1209865104207
 20
435.9790555234501
 30
0.0
 10
286.1596405989325
 20
436.5964119551388
 30
0.0
 10
286.1973664181637
 20
437.2138087278616
 30
0.0
 10
286.2342179803289
 20
437.8312236727156
 30
0.0
 10
286.27001992083
 20
438.4486806429603
 30
0.0
 10
286.3051143425027
 20
439.0661696767586
 30
0.0
 10
286.3407556888534
 20
439.7066800670757
 30
0.0
 10
286.3766404021003
 20
440.3702276229217
 30
0.0
 10
286.4141712789435
 20
441.0797655251491
 30
0.0
 10
286.4520409802436
 20
441.8122998303024
 30
0.0
 10
286.4888279288301
 20
442.5448951027414
 30
0.0
 10
286.5320774290623
 20
443.4240638372438
 30
0.0
 10
286.5811513761365
 20
444.4498321273971
 30
0.0
 10
286.6285678520927
 20
445.4756259460728
 30
0.0
 10
286.6683612798117
 20
446.354883479568
 30
0.0
 10
286.6970906853135
 20
446.9996372667241
 30
0.0
 10
286.7278565947418
 20
447.7030254395592
 30
0.0
 10
286.7587493735854
 20
448.4209907722903
 30
0.0
 10
286.7889731820258
 20
449.1389711709035
 30
0.0
 10
286.8143138189902
 20
449.7544017237171
 30
0.0
 10
286.8351509747278
 20
450.2672776783354
 30
0.0
 10
286.8597731701966
 20
450.8827612355658
 30
0.0
 10
286.8838698494546
 20
451.4982190181197
 30
0.0
 10
286.9077353777235
 20
452.1219517381912
 30
0.0
 10
286.927673953582
 20
452.6513941541518
 30
0.0
 10
286.9486501843623
 20
453.2205799952457
 30
0.0
 10
286.9614315753259
 20
453.5764084962257
 30
0.0
 10
286.9665436911509
 20
453.7187276316022
 30
0.0
  0
LWPOLYLINE
  5
73
330
1F
100
AcDbEntity
  8
0
  6
Continuous
 62
     8
370
     0
100
AcDbPolyline
 90
        8
 70
   128
 43
0.0
 10
286.9665465372
 20
453.7187847157
 10
287.3453899341
 20
453.6749678512
 10
287.6917935031
 20
453.6125506122
 10
287.9910572486
 20
453.5341854055
 10
288.2304797935
 20
453.4431989152
 10
288.3999041336
 20
453.3434505422
 10
288.4921348708
 20
453.2391759415
 10
288.5086323189
 20
453.1681458313
  0
SPLINE
  5
74
330
1F
100
AcDbEntity
  8
0
  6
Continuous
 62
     8
370
     0
100
AcDbSpline
210
0.0
220
0.0
230
1.0
 70
     8
 71
     3
 72
    13
 73
     9
 74
     0
 42
0.00000001
 43
0.00000001
 40
0.0
 40
0.0
 40
0.0
 40
0.0
 40
0.1926227252266896
 40
0.3851945941063674
 40
0.5777201840455854
 40
0.7701994561408021
 40
0.9626339085875631
 40
1.0
 40
1.0
 40
1.0
 40
1.0
 10
262.1108398710689
 20
408.0084594745651
 30
0.0
 10
262.1108486598989
 20
407.881050002422
 30
0.0
 10
262.1108662352386
 20
407.6262646968474
 30
0.0
 10
262.1108822620574
 20
407.3119601089802
 30
0.0
 10
262.1108921164011
 20
407.0652982596023
 30
0.0
 10
262.110894826592
 20
406.9123873039079
 30
0.0
 10
262.1108939018056
 20
406.8450490911647
 30
0.0
 10
262.110889940729
 20
406.8590023901457
 30
0.0
 10
262.110889296649
 20
406.8612712283149
 30
0.0
  0
LWPOLYLINE
  5
75
330
1F
100
AcDbEntity
  8
0
  6
Continuous
 62
     8
370
     0
100
AcDbPolyline
 90
        9
 70
   128
 43
0.0
 10
262.1109113064
 20
408.9052262564
 10
262.1109016076
 20
408.7903979082
 10
262.1108920688
 20
408.6755397577
 10
262.1108827119
 20
408.5610615869
 10
262.1108735806
 20
408.4473657269
 10
262.1108646966
 20
408.3348619599
 10
262.1108560965
 20
408.2239526172
 10
262.1108478164
 20
408.1150176783
 10
262.1108398711
 20
408.008452024
  0
LWPOLYLINE
  5
76
330
1F
100
AcDbEntity
  8
0
  6
Continuous
 62
     8
370
     0
100
AcDbPolyline
 90
        8
 70
   128
 43
0.0
 10
237.2551328557
 20
453.7187847157
 10
236.8762894588
 20
453.6749678512
 10
236.5298877525
 20
453.6125506122
 10
236.2306240069
 20
453.5341854055
 10
235.9911995994
 20
453.4431989152
 10
235.8217771219
 20
453.3434505422
 10
235.7295445221
 20
453.2391759415
 10
235.7130452114
 20
453.1681979854
  0
SPLINE
  5
77
330
1F
100
AcDbEntity
  8
0
  6
Continuous
 62
     8
370
     0
100
AcDbSpline
210
0.0
220
0.0
230
1.0
 70
     8
 71
     3
 72
    29
 73
    25
 74
     0
 42
0.00000001
 43
0.00000001
 40
0.0
 40
0.0
 40
0.0
 40
0.0
 40
0.0272151476710409
 40
0.0778311941315686
 40
0.1518556588291702
 40
0.2493048391369676
 40
0.3145830823527304
 40
0.3781727541445252
 40
0.4401084480332424
 40
0.5004802142974815
 40
0.528610967429198
 40
0.5589170999716347
 40
0.5914959831379164
 40
0.6261669466235544
 40
0.6567675065434904
 40
0.6845856429116656
 40
0.7095974288625622
 40
0.7318103747931173
 40
0.7508613859957091
 40
0.7811733820080908
 40
0.821258982236573
 40
0.8711513675529773
 40
0.9307041632013572
 40
1.0
 40
1.0
 40
1.0
 40
1.0
 10
237.2551583247141
 20
453.7186997909675
 30
0.0
 10
237.2755290468122
 20
453.1677646232409
 30
0.0
 10
237.3337862220211
 20
451.5921736137214
 30
0.0
 10
237.4566585587686
 20
448.5184050413974
 30
0.0
 10
237.6560985359521
 20
444.0237403982262
 30
0.0
 10
237.8981200785922
 20
439.2335419845292
 30
0.0
 10
238.1800649304953
 20
434.6571405995064
 30
0.0
 10
238.4661329401414
 20
430.8018044799928
 30
0.0
 10
238.8208003836994
 20
427.0515494716342
 30
0.0
 10
239.2074315636552
 20
424.0259364102373
 30
0.0
 10
239.6185333048459
 20
421.651789237935
 30
0.0
 10
240.0078868440051
 20
419.8461450649289
 30
0.0
 10
240.5390825146742
 20
417.9361294083445
 30
0.0
 10
241.2458429635425
 20
416.0706316763383
 30
0.0
 10
242.1500899547665
 20
414.3916346115979
 30
0.0
 10
243.2003024514003
 20
413.0287960016576
 30
0.0
 10
244.3506413869921
 20
411.9797321710517
 30
0.0
 10
245.5025783499763
 20
411.2192801789391
 30
0.0
 10
246.8385872971899
 20
410.5509057236278
 30
0.0
 10
248.6067356163842
 20
409.9237731189544
 30
0.0
 10
251.0786290097897
 20
409.39796161736
 30
0.0
 10
254.2017256900716
 20
409.0623156694053
 30
0.0
 10
257.9518608680991
 20
408.913378372581
 30
0.0
 10
260.6563459333054
 20
408.9080883479364
 30
0.0
 10
262.1108398782058
 20
408.905243329891
 30
0.0
  0
SPLINE
  5
78
330
1F
100
AcDbEntity
  8
0
  6
Continuous
 62
     8
370
     0
100
AcDbSpline
210
0.0
220
0.0
230
1.0
 70
     8
 71
     3
 72
   164
 73
   160
 74
     0
 42
0.00000001
 43
0.00000001
 40
0.0
 40
0.0
 40
0.0
 40
0.0
 40
0.0113388839522663
 40
0.0170082446412605
 40
0.0198426243331815
 40
0.0283466029439635
 40
0.0340164274766504
 40
0.0368492129833412
 40
0.0453528400669582
 40
0.0602509209887009
 40
0.0677012098392615
 40
0.0826029085213916
 40
0.0975086913176511
 40
0.104963729326675
 40
0.1198788044337241
 40
0.1348000805519083
 40
0.1422645234102708
 40
0.1572014908712288
 40
0.1760554717867868
 40
0.1817487553154386
 40
0.1931407416752633
 40
0.2045425257955299
 40
0.2102472075852146
 40
0.2216648262943307
 40
0.2330937889030879
 40
0.2388125935925164
 40
0.2502558317258182
 40
0.2605790551496057
 40
0.2651762699453908
 40
0.2743777654724786
 40
0.2835892518580908
 40
0.2881988128608837
 40
0.3020448637704441
 40
0.3112907323216341
 40
0.31591832098085
 40
0.3298205273598918
 40
0.3412634716219948
 40
0.3450827527322822
 40
0.3527291658195308
 40
0.3680541789547283
 40
0.3718925244654239
 40
0.3795780229590739
 40
0.3872754303383
 40
0.3911292348018053
 40
0.3966962964374512
 40
0.4050596827250457
 40
0.4078509042621051
 40
0.413439032466488
 40
0.4190348830907202
 40
0.4218357195739152
 40
0.4274433376746892
 40
0.4330584451698123
 40
0.4358685666427163
 40
0.4396177415634495
 40
0.4433709378826828
 40
0.4471276417020169
 40
0.4508876564484434
 40
0.4546512051781638
 40
0.4565346811563291
 40
0.4621906984579275
 40
0.4659660702413342
 40
0.4672250616622105
 40
0.4697441834217083
 40
0.4760498283150374
 40
0.4785752621903216
 40
0.4836314341759171
 40
0.4861620069965146
 40
0.4895377491064075
 40
0.4962982916084022
 40
0.4988366304348725
 40
0.4996830862022584
 40
0.5013761912362642
 40
0.5047652684013012
 40
0.5064610128113987
 40
0.5081575155614471
 40
0.5132511983549617
 40
0.5145262239816443
 40
0.517077236832765
 40
0.5196302984574819
 40
0.5209073904985867
 40
0.5260194078912113
 40
0.5298571806974419
 40
0.531137106222107
 40
0.5336977353600986
 40
0.5414034323738657
 40
0.5452605786327017
 40
0.5568445185068491
 40
0.5607092972706594
 40
0.5626421020695133
 40
0.5675044220077679
 40
0.576293483639767
 40
0.5821532684203358
 40
0.5932986996808274
 40
0.5985830649067316
 40
0.6012236379185588
 40
0.6091360612444316
 40
0.6190169188024134
 40
0.6214823201369671
 40
0.6264060722647293
 40
0.633580400201442
 40
0.6359347155334536
 40
0.6394609956432381
 40
0.6418082528189423
 40
0.6429808206163927
 40
0.6511347940646778
 40
0.654599571108964
 40
0.6563294165329087
 40
0.6597832070120179
 40
0.6683886651883392
 40
0.6752445421185266
 40
0.6857663216884157
 40
0.6910074593791027
 40
0.6927516732107009
 40
0.7031881250447425
 40
0.7144927556708598
 40
0.7163724136499657
 40
0.7201280375998845
 40
0.7257529560481516
 40
0.7332379027521736
 40
0.7459816159110763
 40
0.7544574394637632
 40
0.7586902634841274
 40
0.7650338986861049
 40
0.7721298557931825
 40
0.7746201308862837
 40
0.7795985987143693
 40
0.7845743346947504
 40
0.7870613332053306
 40
0.7945190807932939
 40
0.799488482201305
 40
0.801972480475491
 40
0.8099311985499261
 40
0.8159131688878519
 40
0.8189036814859767
 40
0.8248837499569666
 40
0.8308623729590278
 40
0.8338510335074116
 40
0.8398272506744172
 40
0.8458021173697381
 40
0.8487892303737891
 40
0.8585879111181708
 40
0.8700611582548716
 40
0.8777088064770004
 40
0.8853551834918969
 40
0.8930019190162828
 40
0.896824956969298
 40
0.9044703281235442
 40
0.9121149323194877
 40
0.915937427689616
 40
0.9256603930117946
 40
0.9353825917947145
 40
0.940243149270294
 40
0.9499649884014393
 40
0.9596867507549134
 40
0.9645476101031204
 40
0.9742687276946428
 40
0.9839907940801335
 40
0.9888518068365106
 40
1.0
 40
1.0
 40
1.0
 40
1.0
 10
287.3378041502736
 20
467.9370972674155
 30
0.0
 10
287.3394761455424
 20
468.1489019306202
 30
0.0
 10
287.3419841264594
 20
468.4666074070243
 30
0.0
 10
287.3441222445843
 20
468.8375921077047
 30
0.0
 10
287.3457644806786
 20
469.1556646356284
 30
0.0
 10
287.3470052722081
 20
469.4738892272734
 30
0.0
 10
287.3478874083204
 20
469.7922501657507
 30
0.0
 10
287.348547148601
 20
470.1107040074652
 30
0.0
 10
287.3491362401334
 20
470.6021656475299
 30
0.0
 10
287.3488790236456
 20
471.1806085085777
 30
0.0
 10
287.3475054868805
 20
471.8795295985045
 30
0.0
 10
287.345043278329
 20
472.5791106230043
 30
0.0
 10
287.3409627875088
 20
473.2794291598613
 30
0.0
 10
287.3355901966281
 20
473.9804509536704
 30
0.0
 10
287.3288698425611
 20
474.6822060826624
 30
0.0
 10
287.3202454119249
 20
475.3846755417734
 30
0.0
 10
287.3100737501443
 20
476.0879174323632
 30
0.0
 10
287.2970470004457
 20
476.8656416962351
 30
0.0
 10
287.2817720596411
 20
477.610456922649
 30
0.0
 10
287.2658704114878
 20
478.2886393469797
 30
0.0
 10
287.2521096027127
 20
478.8263229555138
 30
0.0
 10
287.2367337855966
 20
479.3643529991939
 30
0.0
 10
287.2200931441484
 20
479.9029367205464
 30
0.0
 10
287.2021348525726
 20
480.4420929630204
 30
0.0
 10
287.1823863032116
 20
480.9815537435354
 30
0.0
 10
287.1612173419291
 20
481.5214927172304
 30
0.0
 10
287.1394415063135
 20
482.0405312699583
 30
0.0
 10
287.1169310539979
 20
482.5383312732826
 30
0.0
 10
287.0951641734464
 20
482.9937364635671
 30
0.0
 10
287.0732738656843
 20
483.4280834547592
 30
0.0
 10
287.0497322358006
 20
483.8625363964524
 30
0.0
 10
287.0198550243697
 20
484.3844870446254
 30
0.0
 10
286.9877387501035
 20
484.9068751661364
 30
0.0
 10
286.9525429200681
 20
485.4292364393769
 30
0.0
 10
286.9152945226092
 20
485.9523947787994
 30
0.0
 10
286.8721774995914
 20
486.5165408699443
 30
0.0
 10
286.8260071233645
 20
487.0648107708979
 30
0.0
 10
286.7876177290429
 20
487.4951088226694
 30
0.0
 10
286.7408424649385
 20
487.9979900163244
 30
0.0
 10
286.6900975443241
 20
488.5005028452804
 30
0.0
 10
286.6357034227605
 20
489.0029942322114
 30
0.0
 10
286.5952068266441
 20
489.3624010533266
 30
0.0
 10
286.5525710042551
 20
489.7216222747701
 30
0.0
 10
286.5130219283647
 20
490.040917922965
 30
0.0
 10
286.4705856756053
 20
490.3723190193285
 30
0.0
 10
286.4287198588111
 20
490.6834490173045
 30
0.0
 10
286.3851342808935
 20
490.9945506333136
 30
0.0
 10
286.3476885034117
 20
491.2539586695056
 30
0.0
 10
286.3087583122739
 20
491.5131640716392
 30
0.0
 10
286.2686343793435
 20
491.7724248871343
 30
0.0
 10
286.2273047047212
 20
492.031730266703
 30
0.0
 10
286.1843581153261
 20
492.2907646444935
 30
0.0
 10
286.1460264557569
 20
492.515187164638
 30
0.0
 10
286.1128468971804
 20
492.7050819568612
 30
0.0
 10
286.0756756948081
 20
492.9121324325304
 30
0.0
 10
286.0374903680832
 20
493.1190944368984
 30
0.0
 10
285.9982575322348
 20
493.3259446775832
 30
0.0
 10
285.9646502337743
 20
493.498177640925
 30
0.0
 10
285.9234385749438
 20
493.7048705278924
 30
0.0
 10
285.8810613694299
 20
493.911436255473
 30
0.0
 10
285.8396330339277
 20
494.1061634326404
 30
0.0
 10
285.8098184342908
 20
494.2435783202848
 30
0.0
 10
285.7694625423221
 20
494.4268472614334
 30
0.0
 10
285.7225592693862
 20
494.6326576391155
 30
0.0
 10
285.6632898113115
 20
494.8838415140024
 30
0.0
 10
285.6189288307621
 20
495.0663413424573
 30
0.0
 10
285.569483974088
 20
495.2637199471366
 30
0.0
 10
285.5111150010011
 20
495.4913551471157
 30
0.0
 10
285.4505283113027
 20
495.7183635002822
 30
0.0
 10
285.4003507170134
 20
495.8994559408893
 30
0.0
 10
285.3749174748199
 20
495.9899785727988
 30
0.0
 10
285.3449585336822
 20
496.0955686391658
 30
0.0
 10
285.3100773520437
 20
496.2160499279934
 30
0.0
 10
285.2745106254959
 20
496.3363389533163
 30
0.0
 10
285.2294374713531
 20
496.4866490975127
 30
0.0
 10
285.1854970097124
 20
496.6290873127685
 30
0.0
 10
285.1357051255033
 20
496.7861442861135
 30
0.0
 10
285.0995695882808
 20
496.89825909244
 30
0.0
 10
285.0627039374426
 20
497.0101226621293
 30
0.0
 10
285.0102702822998
 20
497.1665671864952
 30
0.0
 10
284.9488101840113
 20
497.3448809401993
 30
0.0
 10
284.8851475807984
 20
497.52232353486
 30
0.0
 10
284.836391708872
 20
497.6550921603234
 30
0.0
 10
284.7619626036441
 20
497.8542596664702
 30
0.0
 10
284.6672260186336
 20
498.0962747207096
 30
0.0
 10
284.5047823402994
 20
498.4895655830986
 30
0.0
 10
284.3610367870049
 20
498.8137539725133
 30
0.0
 10
284.2237013612048
 20
499.1015315665389
 30
0.0
 10
284.1376246432802
 20
499.2770518704217
 30
0.0
 10
284.0085584188238
 20
499.5319347718565
 30
0.0
 10
283.8385467682346
 20
499.8464388865156
 30
0.0
 10
283.6012490126294
 20
500.2547880923812
 30
0.0
 10
283.3831472031988
 20
500.5997122404957
 30
0.0
 10
283.1854081306086
 20
500.8872453354662
 30
0.0
 10
283.016645452986
 20
501.1228271166099
 30
0.0
 10
282.7910418899061
 20
501.4211498515184
 30
0.0
 10
282.5539891842942
 20
501.7066719622869
 30
0.0
 10
282.3439541861194
 20
501.9433181531398
 30
0.0
 10
282.1628014172351
 20
502.139423172277
 30
0.0
 10
281.9764328297737
 20
502.3281302870117
 30
0.0
 10
281.8035032052587
 20
502.4941415875904
 30
0.0
 10
281.6927348924845
 20
502.5970241478414
 30
0.0
 10
281.596384488327
 20
502.6836066354696
 30
0.0
 10
281.4352940302151
 20
502.8255265711492
 30
0.0
 10
281.2544931177361
 20
502.9765740141557
 30
0.0
 10
281.0605272301376
 20
503.1280623455844
 30
0.0
 10
280.9333513827157
 20
503.2244180874425
 30
0.0
 10
280.7282493976539
 20
503.3752191749127
 30
0.0
 10
280.4395932132885
 20
503.5729687236141
 30
0.0
 10
280.0313865715993
 20
503.8282851549134
 30
0.0
 10
279.6654107156623
 20
504.0347618972647
 30
0.0
 10
279.3757980212434
 20
504.1837435107053
 30
0.0
 10
279.0849865322027
 20
504.3273267904329
 30
0.0
 10
278.6869328130642
 20
504.5100109552833
 30
0.0
 10
278.2775493534172
 20
504.6752573434767
 30
0.0
 10
277.9807632949857
 20
504.7862733834083
 30
0.0
 10
277.7825912353117
 20
504.857973950374
 30
0.0
 10
277.4836916252967
 20
504.9602787451602
 30
0.0
 10
277.0214939594114
 20
505.1066594944887
 30
0.0
 10
276.5023511800895
 20
505.252388560482
 30
0.0
 10
276.0377847477511
 20
505.3675585808739
 30
0.0
 10
275.6884465280293
 20
505.4480305256877
 30
0.0
 10
275.3632795638815
 20
505.5184095222706
 30
0.0
 10
275.0690422179172
 20
505.5772168138723
 30
0.0
 10
274.7993849494443
 20
505.6281055866392
 30
0.0
 10
274.5685802101384
 20
505.6697314073137
 30
0.0
 10
274.3373575736267
 20
505.7089925704191
 30
0.0
 10
274.0596703879597
 20
505.7540562936035
 30
0.0
 10
273.7816078946192
 20
505.7964851543712
 30
0.0
 10
273.5030862561667
 20
505.8358748743338
 30
0.0
 10
273.2149226137597
 20
505.8748284823423
 30
0.0
 10
272.9074185485573
 20
505.913772841657
 30
0.0
 10
272.5899731059322
 20
505.950702278053
 30
0.0
 10
272.3094079870304
 20
505.9817010206395
 30
0.0
 10
272.0286913149507
 20
506.0110539369018
 30
0.0
 10
271.7477617246506
 20
506.0383617354043
 30
0.0
 10
271.466739044232
 20
506.0641881194219
 30
0.0
 10
271.1856307549094
 20
506.0885799596284
 30
0.0
 10
270.9043680164559
 20
506.1111456606886
 30
0.0
 10
270.550983318189
 20
506.1378533194035
 30
0.0
 10
270.0937657858269
 20
506.1694829540113
 30
0.0
 10
269.5483030155904
 20
506.2019831286177
 30
0.0
 10
269.0431788308144
 20
506.2281372897341
 30
0.0
 10
268.6101252063949
 20
506.248219292193
 30
0.0
 10
268.2491582375687
 20
506.2628168692228
 30
0.0
 10
267.8881477759438
 20
506.2760089479564
 30
0.0
 10
267.5271171831386
 20
506.2877708687406
 30
0.0
 10
267.1660360097123
 20
506.2978281255574
 30
0.0
 10
266.7656642372615
 20
506.3076524673335
 30
0.0
 10
266.3259913315937
 20
506.3167976049319
 30
0.0
 10
265.8666561134243
 20
506.3241770383238
 30
0.0
 10
265.4073190780563
 20
506.3301309594503
 30
0.0
 10
264.9479709260029
 20
506.3347515309157
 30
0.0
 10
264.488602490226
 20
506.3378955023403
 30
0.0
 10
264.029241763438
 20
506.3401279693265
 30
0.0
 10
263.5698707703074
 20
506.3415252007729
 30
0.0
 10
263.1104948087142
 20
506.3421305332323
 30
0.0
 10
262.6241450866658
 20
506.3423273121069
 30
0.0
 10
262.3215531745265
 20
506.3421913129749
 30
0.0
 10
262.1108398447633
 20
506.3420966084278
 30
0.0
  0
SPLINE
  5
79
330
1F
100
AcDbEntity
  8
0
  6
Continuous
 62
     8
370
     0
100
AcDbSpline
210
0.0
220
0.0
230
1.0
 70
     8
 71
     3
 72
    32
 73
    28
 74
     0
 42
0.00000001
 43
0.00000001
 40
0.0
 40
0.0
 40
0.0
 40
0.0
 40
0.1878372206702704
 40
0.3773077177484475
 40
0.6162016569912889
 40
0.6675357795501324
 40
0.7297325872677919
 40
0.7632139163542211
 40
0.7856876584576986
 40
0.8204309859456248
 40
0.8388865443271083
 40
0.8449774111856411
 40
0.85742655126229
 40
0.8823844498725713
 40
0.907133705255144
 40
0.9290567403677241
 40
0.9513609283662137
 40
0.9588745900664084
 40
0.9784084425068718
 40
0.9828531991647146
 40
0.9843445477848479
 40
0.9942025414269053
 40
0.9961521959987963
 40
0.9971487876579338
 40
0.9987460212034464
 40
0.999695370355812
 40
1.0
 40
1.0
 40
1.0
 40
1.0
 10
287.2649529867882
 20
463.9207261456465
 30
0.0
 10
287.2715576038019
 20
464.1714515135621
 30
0.0
 10
287.2848242660913
 20
464.6750823488794
 30
0.0
 10
287.303120384351
 20
465.4990116600375
 30
0.0
 10
287.3149248362802
 20
466.1412594589235
 30
0.0
 10
287.3222575865998
 20
466.6135344985582
 30
0.0
 10
287.3251081634011
 20
466.8106085977891
 30
0.0
 10
287.3272585750608
 20
466.9690396421954
 30
0.0
 10
287.3288375586707
 20
467.0906785774606
 30
0.0
 10
287.3300937969815
 20
467.1921834037823
 30
0.0
 10
287.3310327285341
 20
467.2717254958607
 30
0.0
 10
287.3316048665158
 20
467.3213617899252
 30
0.0
 10
287.3322660135518
 20
467.3797254090111
 30
0.0
 10
287.3331911963178
 20
467.463132827412
 30
0.0
 10
287.3342339265985
 20
467.5592664230313
 30
0.0
 10
287.335233678043
 20
467.6518497454523
 30
0.0
 10
287.3360192181574
 20
467.7213050532508
 30
0.0
 10
287.3367555841664
 20
467.7875588232608
 30
0.0
 10
287.3372256743115
 20
467.8298396435629
 30
0.0
 10
287.3375120832133
 20
467.8640409828117
 30
0.0
 10
287.3376664492098
 20
467.8852506894863
 30
0.0
 10
287.3377621644441
 20
467.9031116878569
 30
0.0
 10
287.3377818650832
 20
467.9203111089353
 30
0.0
 10
287.3377853731364
 20
467.926414339824
 30
0.0
 10
287.3377911998725
 20
467.9311737951053
 30
0.0
 10
287.3377943336691
 20
467.9350038409048
 30
0.0
 10
287.3378021298846
 20
467.9366881025594
 30
0.0
 10
287.3378040238227
 20
467.9370972610157
 30
0.0
  0
SPLINE
  5
7A
330
1F
100
AcDbEntity
  8
0
  6
Continuous
 62
     8
370
     0
100
AcDbSpline
210
0.0
220
0.0
230
1.0
 70
     8
 71
     3
 72
    34
 73
    30
 74
     0
 42
0.00000001
 43
0.00000001
 40
0.0
 40
0.0
 40
0.0
 40
0.0
 40
0.0463410832316869
 40
0.1659610323906874
 40
0.205874130869903
 40
0.2331315195857575
 40
0.273963753348656
 40
0.2875568646623938
 40
0.3389345122729279
 40
0.411446450358726
 40
0.4558154510997431
 40
0.5001411513935629
 40
0.5888498184729799
 40
0.6149005065171539
 40
0.6539642109080078
 40
0.6734844562553395
 40
0.6799908337759057
 40
0.6930172277536506
 40
0.7126150897929405
 40
0.7321846686166267
 40
0.7515899741563214
 40
0.7711070143695403
 40
0.8101980768520977
 40
0.8297543104141415
 40
0.8616780075548245
 40
0.8740392078431228
 40
0.8863485816281191
 40
0.948248521363732
 40
1.0
 40
1.0
 40
1.0
 40
1.0
 10
286.9665466228182
 20
453.7188018951475
 30
0.0
 10
286.9721737363157
 20
453.8749814504243
 30
0.0
 10
286.9923260827932
 20
454.4343063177882
 30
0.0
 10
287.0168839714433
 20
455.1290977936255
 30
0.0
 10
287.038657607741
 20
455.7605834549028
 30
0.0
 10
287.0511145639065
 20
456.1259530024665
 30
0.0
 10
287.0604306917014
 20
456.4024625480226
 30
0.0
 10
287.0723779234302
 20
456.7607932451314
 30
0.0
 10
287.0877135249289
 20
457.2266750740555
 30
0.0
 10
287.1060058932994
 20
457.7974026666265
 30
0.0
 10
287.1230494647183
 20
458.3448127327637
 30
0.0
 10
287.1413997215057
 20
458.9477531738382
 30
0.0
 10
287.157153358711
 20
459.4891172597031
 30
0.0
 10
287.1717612467133
 20
460.013109878637
 30
0.0
 10
287.1796092769393
 20
460.3015801771002
 30
0.0
 10
287.1855161375474
 20
460.5235474787509
 30
0.0
 10
287.1890269690174
 20
460.6567535547811
 30
0.0
 10
287.1925182062071
 20
460.7902468011436
 30
0.0
 10
287.1971390273777
 20
460.9683530925525
 30
0.0
 10
287.2022599965244
 20
461.1682927297479
 30
0.0
 10
287.2072084786805
 20
461.368028649762
 30
0.0
 10
287.2138262132498
 20
461.6345060022344
 30
0.0
 10
287.2202508297819
 20
461.9016358392715
 30
0.0
 10
287.2275676212131
 20
462.2113179856362
 30
0.0
 10
287.2326128980673
 20
462.4297021381734
 30
0.0
 10
287.2370255434515
 20
462.6233694640915
 30
0.0
 10
287.2436644097286
 20
462.9196848064522
 30
0.0
 10
287.2531514154849
 20
463.3510691370812
 30
0.0
 10
287.2612128738842
 20
463.7408067313743
 30
0.0
 10
287.2648836806204
 20
463.9182747918151
 30
0.0
  0
SPLINE
  5
7B
330
1F
100
AcDbEntity
  8
0
  6
Continuous
 62
     8
370
     0
100
AcDbSpline
210
0.0
220
0.0
230
1.0
 70
    24
 71
     3
 72
    38
 73
    34
 74
     0
 42
0.00000001
 43
0.00000001
 40
0.0
 40
0.0
 40
0.0
 40
0.0
 40
0.0312500000000001
 40
0.0312500000000001
 40
0.0625000000000001
 40
0.0625000000000001
 40
0.1250000000000002
 40
0.1250000000000002
 40
0.1875000000000002
 40
0.1875000000000002
 40
0.2500000000000003
 40
0.2500000000000003
 40
0.3125000000000003
 40
0.3125000000000003
 40
0.3750000000000003
 40
0.3750000000000003
 40
0.4375000000000003
 40
0.4375000000000003
 40
0.5000000000000003
 40
0.5000000000000003
 40
0.5625000000000003
 40
0.5625000000000003
 40
0.6250000000000003
 40
0.6250000000000003
 40
0.7500000000000004
 40
0.7500000000000004
 40
0.8125000000000003
 40
0.8125000000000003
 40
0.8750000000000002
 40
0.8750000000000002
 40
0.9375000000000001
 40
0.9375000000000001
 40
1.0
 40
1.0
 40
1.0
 40
1.0
 10
262.1108398746923
 20
506.3419159791229
 30
0.0
 10
262.1108398746923
 20
505.3266009171307
 30
0.0
 10
262.1108398746923
 20
504.3113751390683
 30
0.0
 10
262.1108398746923
 20
502.2803190029526
 30
0.0
 10
262.1108398746923
 20
501.2645634924094
 30
0.0
 10
262.1108398746923
 20
498.2166164248946
 30
0.0
 10
262.1108398746923
 20
496.1837377913051
 30
0.0
 10
262.1108398746923
 20
492.1159493281133
 30
0.0
 10
262.1108398746923
 20
490.0810434039732
 30
0.0
 10
262.1108398746923
 20
486.0086622675767
 30
0.0
 10
262.1108398746923
 20
483.9711800696708
 30
0.0
 10
262.1108398746923
 20
479.8934274116189
 30
0.0
 10
262.1108398746923
 20
477.8531610969042
 30
0.0
 10
262.1108398746923
 20
473.7699745452811
 30
0.0
 10
262.1108398746923
 20
471.7270554998275
 30
0.0
 10
262.1108398746923
 20
467.6388857185196
 30
0.0
 10
262.1108398746924
 20
465.5896465264237
 30
0.0
 10
262.1108398746924
 20
461.5156416517421
 30
0.0
 10
262.1108398746924
 20
459.4894646246109
 30
0.0
 10
262.1108398746924
 20
455.4511757845522
 30
0.0
 10
262.1108398746924
 20
453.4390316764624
 30
0.0
 10
262.1108398746924
 20
449.4211620806449
 30
0.0
 10
262.1108398746924
 20
447.4154034279331
 30
0.0
 10
262.1108398746924
 20
441.3993636101877
 30
0.0
 10
262.1108398746924
 20
437.3899151820472
 30
0.0
 10
262.1108398746924
 20
431.3594526301126
 30
0.0
 10
262.1108398746924
 20
429.3466686827974
 30
0.0
 10
262.1108398746924
 20
425.3094674577435
 30
0.0
 10
262.1108398746924
 20
423.2848733077871
 30
0.0
 10
262.1108398746924
 20
419.2154370792492
 30
0.0
 10
262.1108398746924
 20
417.1704173805642
 30
0.0
 10
262.1108398746924
 20
413.0560907507091
 30
0.0
 10
262.1108398746924
 20
410.9871773546132
 30
0.0
 10
262.1108398746924
 20
408.9055176556686
 30
0.0
  0
SPLINE
  5
7C
330
1F
100
AcDbEntity
  8
0
  6
Continuous
 62
     8
370
     0
100
AcDbSpline
210
0.0
220
0.0
230
1.0
 70
     8
 71
     3
 72
    19
 73
    15
 74
     0
 42
0.00000001
 43
0.00000001
 40
0.0
 40
0.0
 40
0.0
 40
0.0
 40
0.2499999999999998
 40
0.2499999999999998
 40
0.4999999999999996
 40
0.4999999999999996
 40
0.7499999999999993
 40
0.7499999999999993
 40
0.8749999999999988
 40
0.8749999999999988
 40
0.9374999999999986
 40
0.9687499999999992
 40
0.9687499999999992
 40
1.0
 40
1.0
 40
1.0
 40
1.0
 10
236.9568038358643
 20
463.9182677768023
 30
0.0
 10
236.975093030645
 20
463.0616685297518
 30
0.0
 10
236.9934353111178
 20
462.2077465121667
 30
0.0
 10
237.0360889931332
 20
460.4998566565744
 30
0.0
 10
237.0603232273136
 20
459.6487562669992
 30
0.0
 10
237.1112870817134
 20
457.9490090037434
 30
0.0
 10
237.1384611829466
 20
457.1008080339548
 30
0.0
 10
237.1810461506222
 20
455.8308027845817
 30
0.0
 10
237.1955527126075
 20
455.4078498831479
 30
0.0
 10
237.2176816112323
 20
454.7739994969485
 30
0.0
 10
237.2288374753871
 20
454.4572196714597
 30
0.0
 10
237.2400939005201
 20
454.1406654987163
 30
0.0
 10
237.2476142924294
 20
453.929680880686
 30
0.0
 10
237.2513749401096
 20
453.8255754522146
 30
0.0
 10
237.2551554100641
 20
453.7187740332515
 30
0.0
  0
SPLINE
  5
7D
330
1F
100
AcDbEntity
  8
0
  6
Continuous
 62
     8
370
     0
100
AcDbSpline
210
0.0
220
0.0
230
1.0
 70
     8
 71
     3
 72
     8
 73
     4
 74
     0
 42
0.00000001
 43
0.00000001
 40
0.0
 40
0.0
 40
0.0
 40
0.0
 40
1.0
 40
1.0
 40
1.0
 40
1.0
 10
236.9567592025396
 20
463.9206971130482
 30
0.0
 10
236.9212743736811
 20
465.254877571984
 30
0.0
 10
236.8960536646944
 20
466.5923100882089
 30
0.0
 10
236.8838959478218
 20
467.9370821667446
 30
0.0
  0
SPLINE
  5
7E
330
1F
100
AcDbEntity
  8
0
  6
Continuous
 62
     8
370
     0
100
AcDbSpline
210
0.0
220
0.0
230
1.0
 70
     8
 71
     3
 72
    38
 73
    34
 74
     0
 42
0.00000001
 43
0.00000001
 40
0.0
 40
0.0
 40
0.0
 40
0.0
 40
0.0559163241114803
 40
0.1058661331276768
 40
0.1498107602905626
 40
0.1877322787133372
 40
0.2195275468665998
 40
0.2452566105512704
 40
0.2702469852936219
 40
0.3076284564589481
 40
0.3459391383209314
 40
0.3724205500688866
 40
0.3923524222093127
 40
0.4211458541816879
 40
0.4581363799998333
 40
0.5035821414901024
 40
0.5262682748620234
 40
0.5497018484069986
 40
0.5739326463506434
 40
0.5990021864554265
 40
0.6248989649915938
 40
0.6516207379808774
 40
0.6791556108651935
 40
0.7075084474213291
 40
0.736696864791579
 40
0.7667205279702454
 40
0.7975377587763918
 40
0.8291627057682528
 40
0.8616150004321739
 40
0.8949075145567545
 40
0.9290554496472745
 40
0.9640775448051987
 40
1.0
 40
1.0
 40
1.0
 40
1.0
 10
262.1108397773433
 20
506.34225289891
 30
0.0
 10
261.0542002984365
 20
506.3419243174075
 30
0.0
 10
259.053669370851
 20
506.3413022154784
 30
0.0
 10
256.2229211145026
 20
506.2869048041139
 30
0.0
 10
253.7356118614356
 20
506.1553655711655
 30
0.0
 10
251.597439956223
 20
505.9625158801741
 30
0.0
 10
249.813646230467
 20
505.7123937448222
 30
0.0
 10
248.288979317494
 20
505.407978848785
 30
0.0
 10
246.6904006025186
 20
504.9755631229952
 30
0.0
 10
244.9279180922025
 20
504.2944547431939
 30
0.0
 10
243.299270824852
 20
503.302336763304
 30
0.0
 10
242.1378392073135
 20
502.2569457712467
 30
0.0
 10
241.2370404486854
 20
501.212373678807
 30
0.0
 10
240.3657998294732
 20
499.9032160695509
 30
0.0
 10
239.4857042025131
 20
498.0569503893063
 30
0.0
 10
238.8855074286578
 20
496.2077133158974
 30
0.0
 10
238.4741750133036
 20
494.5588047039079
 30
0.0
 10
238.2068580517588
 20
493.2756574618525
 30
0.0
 10
237.9730034986753
 20
491.936387285667
 30
0.0
 10
237.7686772768638
 20
490.5414857546427
 30
0.0
 10
237.5910304949365
 20
489.0921391355378
 30
0.0
 10
237.4384326357228
 20
487.590210530257
 30
0.0
 10
237.3091823242173
 20
486.0371964083099
 30
0.0
 10
237.2020478066784
 20
484.4341189882219
 30
0.0
 10
237.1133165777216
 20
482.7818721740605
 30
0.0
 10
237.0401123377956
 20
481.0820508165061
 30
0.0
 10
236.9815872333642
 20
479.336182868112
 30
0.0
 10
236.9361187936026
 20
477.5454195089569
 30
0.0
 10
236.903240699066
 20
475.7098335156982
 30
0.0
 10
236.8824167036871
 20
473.8294355268426
 30
0.0
 10
236.8724638886318
 20
471.9044077115933
 30
0.0
 10
236.8711316228725
 20
469.9340192452967
 30
0.0
 10
236.8796052364029
 20
468.608336607315
 30
0.0
 10
236.8838958126469
 20
467.9370831434667
 30
0.0
  0
SPLINE
  5
7F
330
1F
100
AcDbEntity
  8
0
  6
Continuous
 62
     8
370
     0
100
AcDbSpline
210
0.0
220
0.0
230
1.0
 70
     8
 71
     3
 72
    13
 73
     9
 74
     0
 42
0.00000001
 43
0.00000001
 40
0.0
 40
0.0
 40
0.0
 40
0.0
 40
0.1725252382720473
 40
0.3440949453589829
 40
0.5147093096416023
 40
0.6843702806628026
 40
0.8530734845679145
 40
1.0
 40
1.0
 40
1.0
 40
1.0
 10
262.1108398710689
 20
506.8315015953496
 30
0.0
 10
262.1107560228342
 20
506.996574820749
 30
0.0
 10
262.1105887907584
 20
507.3258070133424
 30
0.0
 10
262.1104341902191
 20
507.7737984666772
 30
0.0
 10
262.1103346857254
 20
508.150191116777
 30
0.0
 10
262.110293124681
 20
508.4270217421209
 30
0.0
 10
262.110297494424
 20
508.5960634006545
 30
0.0
 10
262.1103459941545
 20
508.6095872136571
 30
0.0
 10
262.1103685709144
 20
508.6158825863615
 30
0.0
  0
SPLINE
  5
80
330
1F
100
AcDbEntity
  8
0
  6
Continuous
 62
     8
370
     0
100
AcDbSpline
210
0.0
220
0.0
230
1.0
 70
     8
 71
     3
 72
    11
 73
     7
 74
     0
 42
0.00000001
 43
0.00000001
 40
0.0
 40
0.0
 40
0.0
 40
0.0
 40
0.2858633787393687
 40
0.5717281118589983
 40
0.8575920900401716
 40
1.0
 40
1.0
 40
1.0
 40
1.0
 10
287.2649124877839
 20
463.9198887009636
 30
0.0
 10
287.5068740774137
 20
463.8986472516132
 30
0.0
 10
287.9907984030531
 20
463.8561642522733
 30
0.0
 10
288.518039303088
 20
463.7359091345785
 30
0.0
 10
288.800174074178
 20
463.617206843348
 30
0.0
 10
288.7775957738372
 20
463.546525226255
 30
0.0
 10
288.7700880932002
 20
463.5230223495975
 30
0.0
  0
LWPOLYLINE
  5
81
330
1F
100
AcDbEntity
  8
0
  6
Continuous
 62
     8
370
     0
100
AcDbPolyline
 90
        9
 70
   128
 43
0.0
 10
262.1106957052
 20
506.341696236
 10
262.1107331692
 20
506.402320679
 10
262.1107703129
 20
506.4632412825
 10
262.1108070856
 20
506.5243961137
 10
262.1108434508
 20
506.5857227739
 10
262.1108793795
 20
506.6471588646
 10
262.110914828
 20
506.7086424526
 10
262.1109497671
 20
506.7701106739
 10
262.1109841606
 20
506.8315015953
  0
SPLINE
  5
82
330
1F
100
AcDbEntity
  8
0
  6
Continuous
 62
     8
370
     0
100
AcDbSpline
210
0.0
220
0.0
230
1.0
 70
     8
 71
     3
 72
    15
 73
    11
 74
     0
 42
0.00000001
 43
0.00000001
 40
0.0
 40
0.0
 40
0.0
 40
0.0
 40
0.0148568402063932
 40
0.1763905322072806
 40
0.337925052909231
 40
0.4994608130018457
 40
0.6609993882158874
 40
0.8225366245438948
 40
0.984074242604103
 40
1.0
 40
1.0
 40
1.0
 40
1.0
 10
236.956742690721
 20
463.9199110527053
 30
0.0
 10
236.9439521694338
 20
463.9191073991661
 30
0.0
 10
236.7920943836787
 20
463.9095658766402
 30
0.0
 10
236.5085006747706
 20
463.8844327996978
 30
0.0
 10
236.1428348921389
 20
463.8332494218884
 30
0.0
 10
235.8363975210477
 20
463.7690794048632
 30
0.0
 10
235.6010133794619
 20
463.6949503052684
 30
0.0
 10
235.4605215988777
 20
463.6147747350723
 30
0.0
 10
235.4011260356561
 20
463.5561471534379
 30
0.0
 10
235.4167338088824
 20
463.5266116693924
 30
0.0
 10
235.4181344675211
 20
463.5239611227527
 30
0.0
  0
LINE
  5
83
330
1F
100
AcDbEntity
  8
0
  6
Continuous
 62
     8
370
     0
100
AcDbLine
 10
289.6820186692
 20
440.0515290756
 30
0.0
 11
287.9145416485
 21
439.4021588225
 31
0.0
  0
SPLINE
  5
84
330
1F
100
AcDbEntity
  8
0
  6
Continuous
 62
     8
370
     0
100
AcDbSpline
210
0.0
220
0.0
230
1.0
 70
     8
 71
     3
 72
    29
 73
    25
 74
     0
 42
0.00000001
 43
0.00000001
 40
0.0
 40
0.0
 40
0.0
 40
0.0
 40
0.0136433129027219
 40
0.0273541155106211
 40
0.0411369941206414
 40
0.0549964531351471
 40
0.0689369125389068
 40
0.0829627057407752
 40
0.0970780777728938
 40
0.1112871838378217
 40
0.125594088191849
 40
0.1869753258597338
 40
0.2500721047135329
 40
0.3116488893088574
 40
0.3748013029345046
 40
0.4367565920415628
 40
0.5000244495799878
 40
0.6235745966393736
 40
0.7501043541222366
 40
0.8125525237359668
 40
0.8750275602509212
 40
0.9169207873349385
 40
0.9585734624010636
 40
1.0
 40
1.0
 40
1.0
 40
1.0
 10
312.5115277144208
 20
462.0646775612773
 30
0.0
 10
312.4765165986728
 20
461.9156107792258
 30
0.0
 10
312.4063211768457
 20
461.6167398228749
 30
0.0
 10
312.288422330318
 20
461.1720494610377
 30
0.0
 10
312.1610490915318
 20
460.7287000898565
 30
0.0
 10
312.0233307568341
 20
460.2870480081321
 30
0.0
 10
311.8755446932508
 20
459.8470243613826
 30
0.0
 10
311.7176584830253
 20
459.4086752412377
 30
0.0
 10
311.5497246633219
 20
458.9720171082678
 30
0.0
 10
311.3717706197462
 20
458.5370708716741
 30
0.0
 10
310.9781896955278
 20
457.6298206918555
 30
0.0
 10
310.2974890252728
 20
456.2698314124668
 30
0.0
 10
309.2430507236447
 20
454.539670472692
 30
0.0
 10
308.0537155903348
 20
452.8862924721212
 30
0.0
 10
306.7619527850804
 20
451.3340420584565
 30
0.0
 10
305.3615466015187
 20
449.8567709490935
 30
0.0
 10
303.397445960152
 20
448.0194540106944
 30
0.0
 10
300.7335160587699
 20
445.9075515313507
 30
0.0
 10
297.861478423936
 20
444.0504833063587
 30
0.0
 10
295.4382015362278
 20
442.6937432631786
 30
0.0
 10
293.7815099385356
 20
441.8515254930513
 30
0.0
 10
292.2958972344718
 20
441.155695439833
 30
0.0
 10
291.0019167490714
 20
440.5857263511615
 30
0.0
 10
290.1211893483326
 20
440.2292726475459
 30
0.0
 10
289.6820242959601
 20
440.0515309203266
 30
0.0
  0
SPLINE
  5
85
330
1F
100
AcDbEntity
  8
0
  6
Continuous
 62
     8
370
     0
100
AcDbSpline
210
0.0
220
0.0
230
1.0
 70
     8
 71
     3
 72
    36
 73
    32
 74
     0
 42
0.00000001
 43
0.00000001
 40
0.0
 40
0.0
 40
0.0
 40
0.0
 40
0.0187880485328382
 40
0.0374247741653015
 40
0.0559135158164838
 40
0.0742576791502014
 40
0.0924607380132747
 40
0.1105262358130485
 40
0.1284577868234998
 40
0.1462590774086323
 40
0.1639338671514347
 40
0.1814859898762331
 40
0.1989193562707356
 40
0.2162379538511885
 40
0.2334458396663656
 40
0.250547148242701
 40
0.3137079049201587
 40
0.3753913024903792
 40
0.4380608006672772
 40
0.4995540130715494
 40
0.5626083192681233
 40
0.6249687601288021
 40
0.6870780656777737
 40
0.7491612354820777
 40
0.8116116794686532
 40
0.8747155099123902
 40
0.8994226617393138
 40
0.9242789564806942
 40
0.9493104085599532
 40
0.974542475922126
 40
1.0
 40
1.0
 40
1.0
 40
1.0
 10
297.0148819612792
 20
489.2424233990743
 30
0.0
 10
297.2128539945204
 20
489.1266500926713
 30
0.0
 10
297.6072035525464
 20
488.8960359424615
 30
0.0
 10
298.1890161367363
 20
488.5416776688552
 30
0.0
 10
298.7605967701302
 20
488.1829943761347
 30
0.0
 10
299.3214275465535
 20
487.8193529890023
 30
0.0
 10
299.8716323550448
 20
487.4510017094672
 30
0.0
 10
300.4111652355798
 20
487.0779560672474
 30
0.0
 10
300.9400253235336
 20
486.7002938803748
 30
0.0
 10
301.4581999344416
 20
486.3180771465042
 30
0.0
 10
301.9656796942373
 20
485.9313726654782
 30
0.0
 10
302.4624544546327
 20
485.5402467934349
 30
0.0
 10
302.9485148364811
 20
485.1447659502612
 30
0.0
 10
303.4238503474409
 20
484.7449999333261
 30
0.0
 10
303.8884543639404
 20
484.3410081295348
 30
0.0
 10
304.7506342702316
 20
483.5657072267986
 30
0.0
 10
305.9538021087167
 20
482.3933071423771
 30
0.0
 10
307.4191803354209
 20
480.7587518342267
 30
0.0
 10
308.7344073763937
 20
479.058775545677
 30
0.0
 10
309.9050399848908
 20
477.2733239752975
 30
0.0
 10
310.9047505881903
 20
475.428246268846
 30
0.0
 10
311.7229646064424
 20
473.5276109367391
 30
0.0
 10
312.3450490949182
 20
471.6042893003842
 30
0.0
 10
312.7697475960273
 20
469.6651844301248
 30
0.0
 10
312.9974324101731
 20
467.7193871842666
 30
0.0
 10
313.0219932384236
 20
466.1779822165267
 30
0.0
 10
312.9617645225703
 20
465.0383300692447
 30
0.0
 10
312.8933455800088
 20
464.2903287814664
 30
0.0
 10
312.7956343176087
 20
463.544794542525
 30
0.0
 10
312.6711334661055
 20
462.8009751526844
 30
0.0
 10
312.564899235549
 20
462.3108897701197
 30
0.0
 10
312.5115458664361
 20
462.0647571801262
 30
0.0
  0
SPLINE
  5
86
330
1F
100
AcDbEntity
  8
0
  6
Continuous
 62
     8
370
     0
100
AcDbSpline
210
0.0
220
0.0
230
1.0
 70
     8
 71
     3
 72
     9
 73
     5
 74
     0
 42
0.00000001
 43
0.00000001
 40
0.0
 40
0.0
 40
0.0
 40
0.0
 40
0.4835573543568758
 40
1.0
 40
1.0
 40
1.0
 40
1.0
 10
287.5757749246745
 20
493.5343866084233
 30
0.0
 10
289.1571898807089
 20
492.9501324194151
 30
0.0
 10
292.4275671002586
 20
491.7418906591686
 30
0.0
 10
295.4526183482374
 20
490.093647060811
 30
0.0
 10
297.0148838179497
 20
489.2424237762108
 30
0.0
  0
SPLINE
  5
87
330
1F
100
AcDbEntity
  8
0
  6
Continuous
 62
     8
370
     0
100
AcDbSpline
210
0.0
220
0.0
230
1.0
 70
     8
 71
     3
 72
    14
 73
    10
 74
     0
 42
0.00000001
 43
0.00000001
 40
0.0
 40
0.0
 40
0.0
 40
0.0
 40
0.0292567603909594
 40
0.1339101660375476
 40
0.2387512470173029
 40
0.449046089503685
 40
0.6606431754928676
 40
0.872468728978812
 40
1.0
 40
1.0
 40
1.0
 40
1.0
 10
412.1572143452553
 20
496.4407610089049
 30
0.0
 10
410.9679753171057
 20
496.4447071066418
 30
0.0
 10
405.5247480564738
 20
496.4627686621967
 30
0.0
 10
395.6771082946142
 20
496.4765075041475
 30
0.0
 10
378.2804153701291
 20
496.4944559939418
 30
0.0
 10
356.3074579025538
 20
496.5020468801675
 30
0.0
 10
329.7614625800317
 20
496.5133188075319
 30
0.0
 10
306.614017799979
 20
496.5208719877148
 30
0.0
 10
292.3175451257416
 20
496.5275678374434
 30
0.0
 10
286.9448895620494
 20
496.5300841570362
 30
0.0
  0
SPLINE
  5
88
330
1F
100
AcDbEntity
  8
0
  6
Continuous
 62
     8
370
     0
100
AcDbSpline
210
0.0
220
0.0
230
1.0
 70
     8
 71
     3
 72
    35
 73
    31
 74
     0
 42
0.00000001
 43
0.00000001
 40
0.0
 40
0.0
 40
0.0
 40
0.0
 40
0.0120830937967205
 40
0.024216980949108
 40
0.0364002893680462
 40
0.0486316858678758
 40
0.060909878735986
 40
0.0732336204410095
 40
0.0856017104888763
 40
0.0980129984363574
 40
0.1104663870721417
 40
0.1229608358029077
 40
0.182411896162917
 40
0.2453997963717625
 40
0.3007212133842108
 40
0.3662091570634303
 40
0.4262787450898247
 40
0.4872202085574168
 40
0.5533479653998703
 40
0.6106037286757143
 40
0.6761869557782272
 40
0.7379745489868335
 40
0.8030053139812149
 40
0.8671327305192137
 40
0.8887907052008952
 40
0.9106244426737431
 40
0.9326482738324583
 40
0.9548762970138617
 40
0.9773223530914534
 40
1.0
 40
1.0
 40
1.0
 40
1.0
 10
412.1577478837877
 20
496.4408787006456
 30
0.0
 10
412.0957079926305
 20
496.1193219888044
 30
0.0
 10
411.9713674150009
 20
495.4748568463727
 30
0.0
 10
411.779398802922
 20
494.5103901590977
 30
0.0
 10
411.5829398443848
 20
493.5452820461466
 30
0.0
 10
411.381636353547
 20
492.5801154193769
 30
0.0
 10
411.1756087010738
 20
491.6151020446836
 30
0.0
 10
410.9648603906118
 20
490.6505576431348
 30
0.0
 10
410.7494375823009
 20
489.6867731692973
 30
0.0
 10
410.5293867189696
 20
488.7240521223791
 30
0.0
 10
410.3047646702079
 20
487.7626908196771
 30
0.0
 10
409.788849706776
 20
485.6018041077879
 30
0.0
 10
408.9258276061902
 20
482.1985248982022
 30
0.0
 10
407.7095289187106
 20
477.8549093941222
 30
0.0
 10
406.3890583168824
 20
473.5309639072076
 30
0.0
 10
405.0357681224769
 20
469.4696996146715
 30
0.0
 10
403.6092269211035
 20
465.5265733583901
 30
0.0
 10
402.1705761652694
 20
461.8370948136286
 30
0.0
 10
400.7706902672105
 20
458.5081775776382
 30
0.0
 10
399.3893775676111
 20
455.4244663207609
 30
0.0
 10
398.1113501793621
 20
452.7410618232895
 30
0.0
 10
396.888306631915
 20
450.3035929619058
 30
0.0
 10
395.7993650961848
 20
448.2278278973246
 30
0.0
 10
395.0537153514933
 20
446.8487226661775
 30
0.0
 10
394.5779359668024
 20
445.9779127250252
 30
0.0
 10
394.3058717298984
 20
445.4815633864143
 30
0.0
 10
394.0495118495535
 20
445.0139875869635
 30
0.0
 10
393.8097600828476
 20
444.5752987933762
 30
0.0
 10
393.5853152024312
 20
444.1622237180738
 30
0.0
 10
393.4511660016504
 20
443.9116914347382
 30
0.0
 10
393.3837471506463
 20
443.7857823828498
 30
0.0
  0
SPLINE
  5
89
330
1F
100
AcDbEntity
  8
0
  6
Continuous
 62
     8
370
     0
100
AcDbSpline
210
0.0
220
0.0
230
1.0
 70
     8
 71
     3
 72
    29
 73
    25
 74
     0
 42
0.00000001
 43
0.00000001
 40
0.0
 40
0.0
 40
0.0
 40
0.0
 40
0.0374999678383659
 40
0.11972764195769
 40
0.2019988486305838
 40
0.2846315408872405
 40
0.3261277024951853
 40
0.367746584831549
 40
0.4085133315081451
 40
0.4499958464679333
 40
0.482389512506614
 40
0.5160564809392834
 40
0.5472155149348715
 40
0.5791373971305467
 40
0.6222364574431964
 40
0.6657472278154529
 40
0.7253511438231456
 40
0.7851229246920784
 40
0.9051626389802728
 40
0.964410189226526
 40
0.9792085319788074
 40
0.9866061327424842
 40
0.9903046849806796
 40
1.0
 40
1.0
 40
1.0
 40
1.0
 10
237.2811074422983
 20
496.5489799935833
 30
0.0
 10
235.6780228030051
 20
496.5494245509194
 30
0.0
 10
230.5597905808216
 20
496.550843906845
 30
0.0
 10
221.9287954971699
 20
496.5548920235719
 30
0.0
 10
211.3798555703961
 20
496.5617299514719
 30
0.0
 10
202.5913823901742
 20
496.5715917395441
 30
0.0
 10
195.5844921315883
 20
496.5856205981773
 30
0.0
 10
190.3983119654885
 20
496.6021098080314
 30
0.0
 10
185.3197683579999
 20
496.6289895202333
 30
0.0
 10
180.8462821845125
 20
496.6719795027246
 30
0.0
 10
177.0790668118698
 20
496.7211035205601
 30
0.0
 10
174.2385258330918
 20
496.7748074494933
 30
0.0
 10
172.1225407551118
 20
496.8116692357766
 30
0.0
 10
170.3924027644298
 20
496.8371844270793
 30
0.0
 10
169.0375938368328
 20
496.8543144787317
 30
0.0
 10
167.89582910417
 20
496.8675529059982
 30
0.0
 10
167.0865772111985
 20
496.876921916298
 30
0.0
 10
166.3701628775709
 20
496.886685548543
 30
0.0
 10
166.09401926919
 20
496.8928204156601
 30
0.0
 10
166.0159420218502
 20
496.8981278914111
 30
0.0
 10
166.0010128865221
 20
496.9007872942638
 30
0.0
 10
165.9977362251195
 20
496.9014759312921
 30
0.0
 10
165.995661335296
 20
496.9018914107245
 30
0.0
 10
165.9949152061266
 20
496.9020542978213
 30
0.0
 10
165.99437511138
 20
496.9021722056434
 30
0.0
  0
SPLINE
  5
8A
330
1F
100
AcDbEntity
  8
0
  6
Continuous
 62
     8
370
     0
100
AcDbSpline
210
0.0
220
0.0
230
1.0
 70
     8
 71
     3
 72
    10
 73
     6
 74
     0
 42
0.00000001
 43
0.00000001
 40
0.0
 40
0.0
 40
0.0
 40
0.0
 40
0.3473953364606907
 40
0.7070406934602252
 40
1.0
 40
1.0
 40
1.0
 40
1.0
 10
227.3889957981495
 20
489.3291094188109
 30
0.0
 10
228.4154226328487
 20
489.8904683455092
 30
0.0
 10
230.504470656307
 20
491.0329811059181
 30
0.0
 10
233.6006194569387
 20
492.4246542544521
 30
0.0
 10
235.6888610623574
 20
493.1835074504893
 30
0.0
 10
236.6262889521508
 20
493.5241625491992
 30
0.0
  0
SPLINE
  5
8B
330
1F
100
AcDbEntity
  8
0
  6
Continuous
 62
     8
370
     0
100
AcDbSpline
210
0.0
220
0.0
230
1.0
 70
     8
 71
     3
 72
    34
 73
    30
 74
     0
 42
0.00000001
 43
0.00000001
 40
0.0
 40
0.0
 40
0.0
 40
0.0
 40
0.01592915549943
 40
0.0317903313538964
 40
0.0475892409666068
 40
0.0633317172014328
 40
0.0790237070217714
 40
0.0946712653983278
 40
0.1102805484970841
 40
0.1258578061671793
 40
0.141409373757045
 40
0.156941663295733
 40
0.1724611540847537
 40
0.1879743827537275
 40
0.2034879328405489
 40
0.2190084239633828
 40
0.2345425006574888
 40
0.2500968209544669
 40
0.3738793171453961
 40
0.4997372876642875
 40
0.6223097183171301
 40
0.749857226905213
 40
0.7842428438680178
 40
0.8190388847909478
 40
0.8542696701098483
 40
0.8899589534178646
 40
0.9261295655921362
 40
0.9628030810933126
 40
0.9999999999999999
 40
0.9999999999999999
 40
0.9999999999999999
 40
0.9999999999999999
 10
211.2736706638345
 20
465.0343371175081
 30
0.0
 10
211.2644979772029
 20
465.1771927885796
 30
0.0
 10
211.2461917495166
 20
465.4622944764444
 30
0.0
 10
211.2305846695775
 20
465.8918378634573
 30
0.0
 10
211.2238127125659
 20
466.3215189217668
 30
0.0
 10
211.2267535291903
 20
466.7515332443221
 30
0.0
 10
211.239230685736
 20
467.1818154284513
 30
0.0
 10
211.2613481609387
 20
467.6123706265709
 30
0.0
 10
211.2931346525457
 20
468.0431861090051
 30
0.0
 10
211.3346383337743
 20
468.4742547542205
 30
0.0
 10
211.3859015057711
 20
468.9055687023705
 30
0.0
 10
211.4469672525548
 20
469.3371209305511
 30
0.0
 10
211.5178777111189
 20
469.768904855373
 30
0.0
 10
211.5986739929803
 20
470.2009139304748
 30
0.0
 10
211.6893978626353
 20
470.6331432280599
 30
0.0
 10
211.7900847464551
 20
471.0655830889058
 30
0.0
 10
211.9007896906532
 20
471.498242534413
 30
0.0
 10
212.3013280001602
 20
472.9345311962575
 30
0.0
 10
213.2423220345541
 20
475.3840723590592
 30
0.0
 10
215.1725237201874
 20
478.6782030976019
 30
0.0
 10
217.6480293025502
 20
481.7836682607482
 30
0.0
 10
219.8553971117877
 20
483.9257642560009
 30
0.0
 10
221.4962939126124
 20
485.3056897806513
 30
0.0
 10
222.3920632607264
 20
486.0154677229775
 30
0.0
 10
223.3227003585227
 20
486.710599329419
 30
0.0
 10
224.2880056764033
 20
487.3908114544125
 30
0.0
 10
225.28824354978
 20
488.0550663210323
 30
0.0
 10
226.3216600051196
 20
488.7051856837061
 30
0.0
 10
227.0315412037548
 20
489.1201547411224
 30
0.0
 10
227.3889967079858
 20
489.329109385849
 30
0.0
  0
SPLINE
  5
8C
330
1F
100
AcDbEntity
  8
0
  6
Continuous
 62
     8
370
     0
100
AcDbSpline
210
0.0
220
0.0
230
1.0
 70
     8
 71
     3
 72
    30
 73
    26
 74
     0
 42
0.00000001
 43
0.00000001
 40
0.0
 40
0.0
 40
0.0
 40
0.0
 40
0.0177484019777315
 40
0.0355154957280877
 40
0.0533029378884434
 40
0.0711124242531715
 40
0.088945959571491
 40
0.1068056019238995
 40
0.1246933775235755
 40
0.1873938140356374
 40
0.2495265890856938
 40
0.312347859109684
 40
0.3742881352979449
 40
0.4374661638924903
 40
0.4992721038332111
 40
0.6279766879776459
 40
0.7493243924082189
 40
0.8127743013786688
 40
0.8746067423562037
 40
0.895898589481432
 40
0.9170066423255357
 40
0.9379501689350065
 40
0.9587493598557097
 40
0.9794253120231419
 40
1.0
 40
1.0
 40
1.0
 40
1.0
 10
234.5542507406664
 20
440.0498766273707
 30
0.0
 10
234.3466946018864
 20
440.1329288593145
 30
0.0
 10
233.931363736075
 20
440.2991207898618
 30
0.0
 10
233.3147831269886
 20
440.5559405614811
 30
0.0
 10
232.7024663532806
 20
440.8185451014741
 30
0.0
 10
232.0948604198946
 20
441.0875579977223
 30
0.0
 10
231.4917773710791
 20
441.3629367431346
 30
0.0
 10
230.8931893151893
 20
441.6448272090236
 30
0.0
 10
229.8032124943734
 20
442.1740571656164
 30
0.0
 10
228.2550623727306
 20
442.9786200723044
 30
0.0
 10
226.2878855040169
 20
444.1154266217142
 30
0.0
 10
224.4005205240825
 20
445.3289689352957
 30
0.0
 10
222.5804222893545
 20
446.6340027437543
 30
0.0
 10
220.8529175639545
 20
448.020493552942
 30
0.0
 10
218.6335692790893
 20
450.0280216683445
 30
0.0
 10
216.1609835481488
 20
452.7429202213464
 30
0.0
 10
214.1197001381005
 20
455.8211228055445
 30
0.0
 10
212.8481028831334
 20
458.4451746477759
 30
0.0
 10
212.2465019191628
 20
460.0853067489348
 30
0.0
 10
211.9006057067803
 20
461.2865573438434
 30
0.0
 10
211.7168244007667
 20
462.0272032213141
 30
0.0
 10
211.5613749898519
 20
462.7720353128151
 30
0.0
 10
211.4352264603758
 20
463.5212492877565
 30
0.0
 10
211.335928554027
 20
464.2741934980447
 30
0.0
 10
211.2943895436077
 20
464.7813675144624
 30
0.0
 10
211.2736710244465
 20
465.0343320042562
 30
0.0
  0
LINE
  5
8D
330
1F
100
AcDbEntity
  8
0
  6
Continuous
 62
     8
370
     0
100
AcDbLine
 10
236.2969285863
 20
439.4617820938
 30
0.0
 11
234.5542769002
 21
440.0498675962
 31
0.0
  0
SPLINE
  5
8E
330
1F
100
AcDbEntity
  8
0
  6
Continuous
 62
     8
370
     0
100
AcDbSpline
210
0.0
220
0.0
230
1.0
 70
     8
 71
     3
 72
    20
 73
    16
 74
     0
 42
0.00000001
 43
0.00000001
 40
0.0
 40
0.0
 40
0.0
 40
0.0
 40
0.0691538679404206
 40
0.1368508938112035
 40
0.2028901842185172
 40
0.2677096400765924
 40
0.3306377347670287
 40
0.3925021856253362
 40
0.4545521193402427
 40
0.5174603343417018
 40
0.6204483068582811
 40
0.7256501153665678
 40
0.8322465547409422
 40
0.9404771269671275
 40
1.0
 40
1.0
 40
1.0
 40
1.0
 10
412.157110037127
 20
496.4412152614906
 30
0.0
 10
413.6665940027447
 20
496.4348634547933
 30
0.0
 10
416.6537621256678
 20
496.4222936528466
 30
0.0
 10
420.973310281529
 20
496.3938147831142
 30
0.0
 10
425.0785213037714
 20
496.3702773767277
 30
0.0
 10
428.9348258549749
 20
496.3234291901148
 30
0.0
 10
432.2049591727446
 20
496.2648789485477
 30
0.0
 10
434.7037024798454
 20
496.2325657771706
 30
0.0
 10
436.5594575458333
 20
496.220858629594
 30
0.0
 10
438.2323068815288
 20
496.2182279855107
 30
0.0
 10
439.5563811139821
 20
496.220315744548
 30
0.0
 10
440.520938168624
 20
496.2244827181555
 30
0.0
 10
441.0916604311124
 20
496.2318896635084
 30
0.0
 10
441.3744590071988
 20
496.2375558931252
 30
0.0
 10
441.4190242480214
 20
496.2440095491853
 30
0.0
 10
441.4348370449929
 20
496.2462994583413
 30
0.0
  0
SPLINE
  5
8F
330
1F
100
AcDbEntity
  8
0
  6
Continuous
 62
     8
370
     0
100
AcDbSpline
210
0.0
220
0.0
230
1.0
 70
     8
 71
     3
 72
    15
 73
    11
 74
     0
 42
0.00000001
 43
0.00000001
 40
0.0
 40
0.0
 40
0.0
 40
0.0
 40
0.1515078263247741
 40
0.2968423008160466
 40
0.4404083050136537
 40
0.5769383755900043
 40
0.7106532981613155
 40
0.8445325616739449
 40
0.981658658561092
 40
1.0
 40
1.0
 40
1.0
 40
1.0
 10
312.5117487328438
 20
462.0648654956833
 30
0.0
 10
311.027757275673
 20
462.265394258061
 30
0.0
 10
308.1202412138053
 20
462.6582810194116
 30
0.0
 10
303.893398595818
 20
463.2299809708935
 30
0.0
 10
299.9353150888949
 20
463.7698487095934
 30
0.0
 10
296.3189940412031
 20
464.2757885728806
 30
0.0
 10
293.1796168274822
 20
464.7383448039455
 30
0.0
 10
290.7244446745144
 20
465.1440848171787
 30
0.0
 10
289.4211917478403
 20
465.3883655704733
 30
0.0
 10
288.9202531366886
 20
465.4946611056301
 30
0.0
 10
288.8611546771912
 20
465.5072013695255
 30
0.0
  0
SPLINE
  5
90
330
1F
100
AcDbEntity
  8
0
  6
Continuous
 62
     8
370
     0
100
AcDbSpline
210
0.0
220
0.0
230
1.0
 70
     8
 71
     3
 72
    15
 73
    11
 74
     0
 42
0.00000001
 43
0.00000001
 40
0.0
 40
0.0
 40
0.0
 40
0.0
 40
0.0508131382518998
 40
0.1173398975346805
 40
0.1815409871552224
 40
0.3098146757570535
 40
0.4412579170451584
 40
0.6212491275859188
 40
0.8063768249538974
 40
1.0
 40
1.0
 40
1.0
 40
1.0
 10
235.3629200773625
 20
467.1302880008236
 30
0.0
 10
235.1453464286439
 20
467.1023338328099
 30
0.0
 10
234.6429159446158
 20
467.0377808584564
 30
0.0
 10
233.7415092288953
 20
466.9309830568091
 30
0.0
 10
232.2715357710887
 20
466.7662126832475
 30
0.0
 10
230.0372776619456
 20
466.5421078334463
 30
0.0
 10
226.4591764238899
 20
466.2275446324414
 30
0.0
 10
222.0040343837807
 20
465.8660850533325
 30
0.0
 10
216.7672641611472
 20
465.4568114084132
 30
0.0
 10
213.1321976114804
 20
465.177430872766
 30
0.0
 10
211.2738966064839
 20
465.0346073169723
 30
0.0
  0
SPLINE
  5
91
330
1F
100
AcDbEntity
  8
0
  6
Continuous
 62
     8
370
     0
100
AcDbSpline
210
0.0
220
0.0
230
1.0
 70
     8
 71
     3
 72
    10
 73
     6
 74
     0
 42
0.00000001
 43
0.00000001
 40
0.0
 40
0.0
 40
0.0
 40
0.0
 40
0.1891686315834983
 40
0.5853486964682331
 40
1.0
 40
1.0
 40
1.0
 40
1.0
 10
235.6528221683888
 20
484.5923730019942
 30
0.0
 10
235.1382130670518
 20
484.8824597930022
 30
0.0
 10
233.5458466998757
 20
485.7800817906756
 30
0.0
 10
230.7473227026989
 20
487.3838093146278
 30
0.0
 10
228.5254712444225
 20
488.6711495560986
 30
0.0
 10
227.3892379420189
 20
489.3294828791633
 30
0.0
  0
SPLINE
  5
92
330
1F
100
AcDbEntity
  8
0
  6
Continuous
 62
     8
370
     0
100
AcDbSpline
210
0.0
220
0.0
230
1.0
 70
     8
 71
     3
 72
    10
 73
     6
 74
     0
 42
0.00000001
 43
0.00000001
 40
0.0
 40
0.0
 40
0.0
 40
0.0
 40
0.4342305336883885
 40
0.8360231094849656
 40
1.0
 40
1.0
 40
1.0
 40
1.0
 10
297.0145783441453
 20
489.2426193539515
 30
0.0
 10
295.7950323123065
 20
488.5426839093487
 30
0.0
 10
293.4470429688635
 20
487.1950997082442
 30
0.0
 10
290.5765760373422
 20
485.566588735959
 30
0.0
 10
289.0294642174673
 20
484.7058463946904
 30
0.0
 10
288.5810650008111
 20
484.4563775543585
 30
0.0
  0
SPLINE
  5
93
330
1F
100
AcDbEntity
  8
0
  6
Continuous
 62
     7
370
    15
100
AcDbSpline
210
0.0
220
0.0
230
1.0
 70
     8
 71
     3
 72
    38
 73
    34
 74
     0
 42
0.00000001
 43
0.00000001
 40
0.0
 40
0.0
 40
0.0
 40
0.0
 40
0.0147403671080198
 40
0.0782335127564046
 40
0.1455447487498518
 40
0.2124037662943012
 40
0.2824465834303058
 40
0.3491872175298134
 40
0.4198816338883894
 40
0.4874596026486311
 40
0.5523692903666626
 40
0.6019679625293605
 40
0.6332072175805564
 40
0.6599939684740949
 40
0.6839799628400488
 40
0.7058243308283283
 40
0.7215969683820326
 40
0.7357890264527814
 40
0.748711712062985
 40
0.7596145938112855
 40
0.7709903653887504
 40
0.782435092878744
 40
0.7944892525741222
 40
0.8073077181176458
 40
0.8209161730476309
 40
0.8360660050900375
 40
0.8547247434674622
 40
0.8747585552418
 40
0.8969230844843739
 40
0.9223252271857296
 40
0.953958470813845
 40
0.9929766148663427
 40
1.0
 40
1.0
 40
1.0
 40
1.0
 10
272.3407113047628
 20
234.2054628648473
 30
0.0
 10
273.3878391998035
 20
234.2201310191497
 30
0.0
 10
278.9454004826353
 20
234.2979812672689
 30
0.0
 10
289.2794005162716
 20
234.7027812720442
 30
0.0
 10
303.3000095500292
 20
235.4979735177121
 30
0.0
 10
317.7700345163577
 20
236.5598438281448
 30
0.0
 10
332.1803820670925
 20
237.8549096108358
 30
0.0
 10
346.8347122721777
 20
239.4518361912562
 30
0.0
 10
361.2793330213318
 20
241.3301049829574
 30
0.0
 10
375.5494514586234
 20
243.5145419701504
 30
0.0
 10
388.2861193789882
 20
245.7847860653335
 30
0.0
 10
398.4440944712841
 20
247.7951889890608
 30
0.0
 10
405.9147803538431
 20
249.4280282774106
 30
0.0
 10
411.5566080507664
 20
250.8913539487657
 30
0.0
 10
416.4833800215957
 20
252.4288816893772
 30
0.0
 10
420.594371344337
 20
253.9354877986197
 30
0.0
 10
423.9804642876182
 20
255.3846376048775
 30
0.0
 10
426.6820570861281
 20
256.8015585357974
 30
0.0
 10
428.9570186616577
 20
258.2646899599354
 30
0.0
 10
430.9167848705486
 20
259.8271267276817
 30
0.0
 10
432.5823004206106
 20
261.55876088356
 30
0.0
 10
434.0881454228577
 20
263.5321860871019
 30
0.0
 10
435.4273545282886
 20
265.7428526850522
 30
0.0
 10
436.6119282175943
 20
268.211456475378
 30
0.0
 10
437.6422834279636
 20
270.9827167283347
 30
0.0
 10
438.6245240729532
 20
274.2068918934539
 30
0.0
 10
439.4994618608225
 20
277.9337574574941
 30
0.0
 10
440.2280993367243
 20
282.1977424507666
 30
0.0
 10
440.7882476956743
 20
286.9694162825019
 30
0.0
 10
441.2154267903156
 20
292.5808075090269
 30
0.0
 10
441.5619319606846
 20
299.3967236274686
 30
0.0
 10
441.6794809682847
 20
304.9149748015103
 30
0.0
 10
441.689710646191
 20
308.1859470805445
 30
0.0
 10
441.6912711279778
 20
308.6849161305143
 30
0.0
  0
SPLINE
  5
94
330
1F
100
AcDbEntity
  8
0
  6
Continuous
 62
     7
370
    15
100
AcDbSpline
210
0.0
220
0.0
230
1.0
 70
     8
 71
     3
 72
    35
 73
    31
 74
     0
 42
0.00000001
 43
0.00000001
 40
0.0
 40
0.0
 40
0.0
 40
0.0
 40
0.0002645390623363
 40
0.0756383332888291
 40
0.1384037749438248
 40
0.1944339971354395
 40
0.2448583195965213
 40
0.2873965758681438
 40
0.3190429111459089
 40
0.3471473295916578
 40
0.3715384153327742
 40
0.3926193758439197
 40
0.4120733387637477
 40
0.4300264514176922
 40
0.4468003571145236
 40
0.4627132308098715
 40
0.4793535677613406
 40
0.4965809567096885
 40
0.5154719901762883
 40
0.5358589704721276
 40
0.5582335489670794
 40
0.5833993770867096
 40
0.6136759251629309
 40
0.6476836353148224
 40
0.6891758597924975
 40
0.7450834540195712
 40
0.8054827162461097
 40
0.8734067547819391
 40
0.9540119106339433
 40
1.0
 40
1.0
 40
1.0
 40
1.0
 10
165.9421986954598
 20
308.6888668008758
 30
0.0
 10
165.9421713848267
 20
308.6762528130436
 30
0.0
 10
165.9343625918696
 20
305.0695982519765
 30
0.0
 10
165.9164108595283
 20
298.4699538040099
 30
0.0
 10
166.0742710552207
 20
289.2118700495037
 30
0.0
 10
166.4337494306747
 20
281.1496159451057
 30
0.0
 10
166.9971466978513
 20
274.0660032900556
 30
0.0
 10
167.6785866113063
 20
268.1622196532671
 30
0.0
 10
168.4294157100458
 20
263.341051404165
 30
0.0
 10
169.2784443539465
 20
259.4170587864451
 30
0.0
 10
170.2420031236669
 20
256.0407019041199
 30
0.0
 10
171.3183224477372
 20
253.1341005905574
 30
0.0
 10
172.5244424629716
 20
250.614716108478
 30
0.0
 10
173.8683829777744
 20
248.4028701052132
 30
0.0
 10
175.341836901289
 20
246.4834256504397
 30
0.0
 10
176.9872963388222
 20
244.7944741756911
 30
0.0
 10
178.8482452588291
 20
243.3122296363557
 30
0.0
 10
180.9695813329717
 20
241.9527249090278
 30
0.0
 10
183.3740560690469
 20
240.7278631398685
 30
0.0
 10
186.1040626951688
 20
239.6283309042983
 30
0.0
 10
189.1957607250391
 20
238.6540834691666
 30
0.0
 10
192.7980972780771
 20
237.7566867728503
 30
0.0
 10
196.9894016780985
 20
236.9547346521349
 30
0.0
 10
201.9838392010378
 20
236.2433011441698
 30
0.0
 10
208.2103443598945
 20
235.5356608279848
 30
0.0
 10
215.7105048648895
 20
234.9158290534956
 30
0.0
 10
224.4841470283139
 20
234.4540519562603
 30
0.0
 10
234.4433826136281
 20
234.1811221901449
 30
0.0
 10
243.7181558842528
 20
234.0651933194833
 30
0.0
 10
249.7545160659054
 20
234.0582888998001
 30
0.0
 10
251.9473713876991
 20
234.0557807006551
 30
0.0
  0
SPLINE
  5
95
330
1F
100
AcDbEntity
  8
0
  6
Continuous
 62
     7
370
    15
100
AcDbSpline
210
0.0
220
0.0
230
1.0
 70
     8
 71
     3
 72
    17
 73
    13
 74
     0
 42
0.00000001
 43
0.00000001
 40
0.0
 40
0.0
 40
0.0
 40
0.0
 40
0.0430534519759139
 40
0.1553212004401091
 40
0.2431063027602759
 40
0.3304458022524157
 40
0.4587466775171585
 40
0.5945553553883272
 40
0.7094256003463845
 40
0.8318995287484683
 40
0.9733915967849559
 40
0.9999999999999999
 40
0.9999999999999999
 40
0.9999999999999999
 40
0.9999999999999999
 10
281.6983806955008
 20
197.5318350710584
 30
0.0
 10
281.9074649109433
 20
197.5891831710845
 30
0.0
 10
282.6617647369776
 20
197.7960742641377
 30
0.0
 10
283.6542309108679
 20
198.2058935889859
 30
0.0
 10
284.5898303294071
 20
198.6788805302411
 30
0.0
 10
285.4358057277152
 20
199.1701751177235
 30
0.0
 10
286.2184035674609
 20
199.7192749373935
 30
0.0
 10
286.8359895706235
 20
200.2524114953272
 30
0.0
 10
287.2314114069196
 20
200.6329284420993
 30
0.0
 10
287.4394302436351
 20
200.8202733776397
 30
0.0
 10
287.6022034561855
 20
200.9422770528228
 30
0.0
 10
287.5714168300109
 20
200.9233222107399
 30
0.0
 10
287.5665436553149
 20
200.9203218736364
 30
0.0
  0
SPLINE
  5
96
330
1F
100
AcDbEntity
  8
0
  6
Continuous
 62
     7
370
    15
100
AcDbSpline
210
0.0
220
0.0
230
1.0
 70
     8
 71
     3
 72
     9
 73
     5
 74
     0
 42
0.00000001
 43
0.00000001
 40
0.0
 40
0.0
 40
0.0
 40
0.0
 40
0.7828428821936031
 40
1.0
 40
1.0
 40
1.0
 40
1.0
 10
262.1109383584312
 20
195.9934466399862
 30
0.0
 10
262.7417728719333
 20
195.9903099768344
 30
0.0
 10
263.5475980609349
 20
195.9863032173387
 30
0.0
 10
264.3530989648065
 20
195.9950858953145
 30
0.0
 10
264.5280192194818
 20
195.9969931163503
 30
0.0
  0
SPLINE
  5
97
330
1F
100
AcDbEntity
  8
0
  6
Continuous
 62
     7
370
    15
100
AcDbSpline
210
0.0
220
0.0
230
1.0
 70
     8
 71
     3
 72
    10
 73
     6
 74
     0
 42
0.00000001
 43
0.00000001
 40
0.0
 40
0.0
 40
0.0
 40
0.0
 40
0.4047489904994934
 40
0.7751623183847368
 40
0.9999999999999999
 40
0.9999999999999999
 40
0.9999999999999999
 40
0.9999999999999999
 10
288.8913537429957
 20
201.6294904865934
 30
0.0
 10
288.8909884216712
 20
201.7694905853686
 30
0.0
 10
288.8902887699572
 20
202.0376142958362
 30
0.0
 10
288.9001421701165
 20
202.3755586102385
 30
0.0
 10
288.8429978006654
 20
202.7100455692412
 30
0.0
 10
288.8214132802872
 20
202.8363876857473
 30
0.0
  0
SPLINE
  5
98
330
1F
100
AcDbEntity
  8
0
  6
Continuous
 62
     7
370
    15
100
AcDbSpline
210
0.0
220
0.0
230
1.0
 70
     8
 71
     3
 72
    10
 73
     6
 74
     0
 42
0.00000001
 43
0.00000001
 40
0.0
 40
0.0
 40
0.0
 40
0.0
 40
0.4217354838265751
 40
0.9761525940385564
 40
1.0
 40
1.0
 40
1.0
 40
1.0
 10
288.7815787511258
 20
200.3916882791235
 30
0.0
 10
288.8179967735658
 20
200.6053734555663
 30
0.0
 10
288.9022902429037
 20
201.0999710108863
 30
0.0
 10
288.8908283905349
 20
201.4839370639959
 30
0.0
 10
288.8913329357455
 20
201.6237256587762
 30
0.0
 10
288.8913537429957
 20
201.6294904865934
 30
0.0
  0
SPLINE
  5
99
330
1F
100
AcDbEntity
  8
0
  6
Continuous
 62
     7
370
    15
100
AcDbSpline
210
0.0
220
0.0
230
1.0
 70
     8
 71
     3
 72
    13
 73
     9
 74
     0
 42
0.00000001
 43
0.00000001
 40
0.0
 40
0.0
 40
0.0
 40
0.0
 40
0.05646603673877
 40
0.2151087462427902
 40
0.4553512691000882
 40
0.7061448123428345
 40
0.9608904043429808
 40
1.0
 40
1.0
 40
1.0
 40
1.0
 10
235.4022069888501
 20
202.8457903184606
 30
0.0
 10
235.3887409584806
 20
202.7848403654148
 30
0.0
 10
235.3374417868555
 20
202.5526500304726
 30
0.0
 10
235.3342838014383
 20
202.2478407484358
 30
0.0
 10
235.3255233134685
 20
201.8538510568055
 30
0.0
 10
235.3394681872378
 20
201.4090991513984
 30
0.0
 10
235.3227792836936
 20
200.8420594311118
 30
0.0
 10
235.4200735596787
 20
200.4562794109065
 30
0.0
 10
235.4330225901989
 20
200.4049354114248
 30
0.0
  0
SPLINE
  5
9A
330
1F
100
AcDbEntity
  8
0
  6
Continuous
 62
     7
370
    15
100
AcDbSpline
210
0.0
220
0.0
230
1.0
 70
     8
 71
     3
 72
     9
 73
     5
 74
     0
 42
0.00000001
 43
0.00000001
 40
0.0
 40
0.0
 40
0.0
 40
0.0
 40
0.2124936931607152
 40
0.9999999999999999
 40
0.9999999999999999
 40
0.9999999999999999
 40
0.9999999999999999
 10
257.6094494255571
 20
196.0100539841367
 30
0.0
 10
257.928155100068
 20
196.0054263401418
 30
0.0
 10
259.4279910235267
 20
195.9836485455822
 30
0.0
 10
260.9289492555203
 20
195.9876669597198
 30
0.0
 10
262.1109633295177
 20
195.9908314861966
 30
0.0
  0
SPLINE
  5
9B
330
1F
100
AcDbEntity
  8
0
  6
Continuous
 62
     7
370
    15
100
AcDbSpline
210
0.0
220
0.0
230
1.0
 70
     8
 71
     3
 72
    17
 73
    13
 74
     0
 42
0.00000001
 43
0.00000001
 40
0.0
 40
0.0
 40
0.0
 40
0.0
 40
0.0091770949056942
 40
0.1266190553407573
 40
0.2745817005442414
 40
0.3924006341869046
 40
0.5151423960585364
 40
0.6548035873002077
 40
0.7750046902761334
 40
0.8709321465549339
 40
0.9663199099853359
 40
1.0
 40
1.0
 40
1.0
 40
1.0
 10
236.645276756802
 20
200.926632515402
 30
0.0
 10
236.6432004133612
 20
200.9278707868626
 30
0.0
 10
236.6145524972466
 20
200.9449555794055
 30
0.0
 10
236.7432662089955
 20
200.8540726956231
 30
0.0
 10
236.9395313362575
 20
200.681296843324
 30
0.0
 10
237.3197660878485
 20
200.3147634063665
 30
0.0
 10
237.9139355099932
 20
199.7907816723762
 30
0.0
 10
238.7382686205762
 20
199.1948912357655
 30
0.0
 10
239.7300057384705
 20
198.6189478306141
 30
0.0
 10
240.8290719163827
 20
198.0911020350575
 30
0.0
 10
241.7748783646342
 20
197.729315215796
 30
0.0
 10
242.4091460714399
 20
197.5580256264409
 30
0.0
 10
242.5746574120907
 20
197.5133278288557
 30
0.0
  0
SPLINE
  5
9C
330
1F
100
AcDbEntity
  8
0
  6
Continuous
 62
     7
370
    15
100
AcDbSpline
210
0.0
220
0.0
230
1.0
 70
     8
 71
     3
 72
    16
 73
    12
 74
     0
 42
0.00000001
 43
0.00000001
 40
0.0
 40
0.0
 40
0.0
 40
0.0
 40
0.0522384463259927
 40
0.2220084041149446
 40
0.3667228890953276
 40
0.4873966954273083
 40
0.5562097424261222
 40
0.6312182020993428
 40
0.7211515152855746
 40
0.8888942414766245
 40
1.0
 40
1.0
 40
1.0
 40
1.0
 10
288.7535925077586
 20
202.9770993509008
 30
0.0
 10
288.6548369305132
 20
203.3881444989068
 30
0.0
 10
288.2351351659382
 20
205.1350470916549
 30
0.0
 10
287.5839771528077
 20
207.9702758751946
 30
0.0
 10
287.1035073775108
 20
211.3514647870916
 30
0.0
 10
286.9604136619641
 20
213.9443441487319
 30
0.0
 10
287.0022953863072
 20
215.7573150397637
 30
0.0
 10
287.0121885769566
 20
217.5675262254889
 30
0.0
 10
287.0062535354073
 20
220.2856119562921
 30
0.0
 10
286.9814281187554
 20
223.3480802309747
 30
0.0
 10
286.9514841182067
 20
225.6375003809844
 30
0.0
 10
286.9395530836968
 20
226.5497081794454
 30
0.0
  0
SPLINE
  5
9D
330
1F
100
AcDbEntity
  8
0
  6
Continuous
 62
     7
370
    15
100
AcDbSpline
210
0.0
220
0.0
230
1.0
 70
     8
 71
     3
 72
    16
 73
    12
 74
     0
 42
0.00000001
 43
0.00000001
 40
0.0
 40
0.0
 40
0.0
 40
0.0
 40
0.1111057598191482
 40
0.2788484879665005
 40
0.3687818022015809
 40
0.4437902627495889
 40
0.512603310550936
 40
0.633277118290277
 40
0.7779915950921267
 40
0.9477615701852665
 40
1.0
 40
1.0
 40
1.0
 40
1.0
 10
237.282126309195
 20
226.5497081794454
 30
0.0
 10
237.2701952749321
 20
225.6375003809466
 30
0.0
 10
237.2402512750035
 20
223.3480802308419
 30
0.0
 10
237.2154258529976
 20
220.285611956979
 30
0.0
 10
237.2094908237297
 20
217.5675262242956
 30
0.0
 10
237.2193839832247
 20
215.75731504334
 30
0.0
 10
237.2612658358391
 20
213.9443441326708
 30
0.0
 10
237.1181712199118
 20
211.3514649860659
 30
0.0
 10
236.6377060975964
 20
207.9702753203604
 30
0.0
 10
235.9865423320529
 20
205.1350477816534
 30
0.0
 10
235.5668435837338
 20
203.3881445239753
 30
0.0
 10
235.4680887477784
 20
202.9770993509008
 30
0.0
  0
ARC
  5
9E
330
1F
100
AcDbEntity
  8
0
  6
Continuous
 62
     7
370
    15
100
AcDbCircle
 10
167.0712455493
 20
308.6899121061
 30
0.0
 40
1.103291394845794
100
AcDbArc
 50
89.9961708439
 51
180.0844401612
  0
ARC
  5
9F
330
1F
100
AcDbEntity
  8
0
  6
Continuous
 62
     7
370
    15
100
AcDbCircle
 10
440.5930175026
 20
308.6899132085
 30
0.0
 40
1.103290292007542
100
AcDbArc
 50
0.0210112161
 51
90.003441141
  0
SPLINE
  5
A0
330
1F
100
AcDbEntity
  8
0
  6
Continuous
 62
     7
370
    15
100
AcDbSpline
210
0.0
220
0.0
230
1.0
 70
     8
 71
     3
 72
     9
 73
     5
 74
     0
 42
0.00000001
 43
0.00000001
 40
0.0
 40
0.0
 40
0.0
 40
0.0
 40
0.9021770264185022
 40
1.0
 40
1.0
 40
1.0
 40
1.0
 10
251.8220079185752
 20
234.0293385901166
 30
0.0
 10
252.0436442255986
 20
234.0247007292529
 30
0.0
 10
252.2893125373968
 20
234.019559985554
 30
0.0
 10
252.4624481148191
 20
234.0321727855243
 30
0.0
 10
252.4793847518353
 20
234.0334066071226
 30
0.0
  0
LINE
  5
A1
330
1F
100
AcDbEntity
  8
0
  6
Continuous
 62
     7
370
    15
100
AcDbLine
 10
238.0493442582
 20
233.5042812743
 30
0.0
 11
238.0644763874
 21
232.6373093643
 31
0.0
  0
LINE
  5
A2
330
1F
100
AcDbEntity
  8
0
  6
Continuous
 62
     7
370
    15
100
AcDbLine
 10
286.1572030055
 20
232.6373093643
 30
0.0
 11
286.1723351347
 21
233.5042812743
 31
0.0
  0
ARC
  5
A3
330
1F
100
AcDbEntity
  8
0
  6
Continuous
 62
     7
370
    15
100
AcDbCircle
 10
262.1108398747
 20
236.6135780824
 30
0.0
 40
24.37290000000044
100
AcDbArc
 50
189.3893727434
 51
204.6689550381
  0
ARC
  5
A4
330
1F
100
AcDbEntity
  8
0
  6
Continuous
 62
     7
370
    15
100
AcDbCircle
 10
262.1108398747
 20
236.6135780824
 30
0.0
 40
24.3729000000005
100
AcDbArc
 50
335.461874424
 51
350.6106272566
  0
SPLINE
  5
A5
330
1F
100
AcDbEntity
  8
0
  6
Continuous
 62
     7
370
    15
100
AcDbSpline
210
0.0
220
0.0
230
1.0
 70
     8
 71
     3
 72
     9
 73
     5
 74
     0
 42
0.00000001
 43
0.00000001
 40
0.0
 40
0.0
 40
0.0
 40
0.0
 40
0.172892512449964
 40
1.0
 40
1.0
 40
1.0
 40
1.0
 10
287.7324792610793
 20
234.1206305541708
 30
0.0
 10
287.7485782810455
 20
234.159363949936
 30
0.0
 10
287.8416940541812
 20
234.3833956053061
 30
0.0
 10
287.9383438023758
 20
234.5543055060443
 30
0.0
 10
288.0182835327773
 20
234.6956663646413
 30
0.0
  0
LINE
  5
A6
330
1F
100
AcDbEntity
  8
0
  6
Continuous
 62
     7
370
    15
100
AcDbLine
 10
237.035839917
 20
227.876582078
 30
0.0
 11
237.035839917
 21
226.8741735139
 31
0.0
  0
LINE
  5
A7
330
1F
100
AcDbEntity
  8
0
  6
Continuous
 62
     7
370
    15
100
AcDbLine
 10
287.1858394759
 20
226.8741735139
 30
0.0
 11
287.1858394759
 21
227.876582078
 31
0.0
  0
SPLINE
  5
A8
330
1F
100
AcDbEntity
  8
0
  6
Continuous
 62
     7
370
    15
100
AcDbSpline
210
0.0
220
0.0
230
1.0
 70
     8
 71
     3
 72
    11
 73
     7
 74
     0
 42
0.00000001
 43
0.00000001
 40
0.0
 40
0.0
 40
0.0
 40
0.0
 40
0.2312109168899659
 40
0.491215898874937
 40
0.7474714810381775
 40
0.9999999999999999
 40
0.9999999999999999
 40
0.9999999999999999
 40
0.9999999999999999
 10
236.3741929697184
 20
234.1390483894064
 30
0.0
 10
236.4836564447942
 20
234.0370821128753
 30
0.0
 10
236.7162155299213
 20
233.8204510953832
 30
0.0
 10
237.6917919266005
 20
233.6262148442522
 30
0.0
 10
239.029243770836
 20
233.5190034191804
 30
0.0
 10
240.2173204254026
 20
233.5091646314644
 30
0.0
 10
240.8070071654705
 20
233.5042812742902
 30
0.0
  0
SPLINE
  5
A9
330
1F
100
AcDbEntity
  8
0
  6
Continuous
 62
     7
370
    15
100
AcDbSpline
210
0.0
220
0.0
230
1.0
 70
     8
 71
     3
 72
    11
 73
     7
 74
     0
 42
0.00000001
 43
0.00000001
 40
0.0
 40
0.0
 40
0.0
 40
0.0
 40
0.2444003813036251
 40
0.4911785458533637
 40
0.7438976318289051
 40
1.0
 40
1.0
 40
1.0
 40
1.0
 10
283.4583400802998
 20
233.5042812742902
 30
0.0
 10
284.0442777239622
 20
233.5097520944994
 30
0.0
 10
285.221853627239
 20
233.5207469607948
 30
0.0
 10
286.5538477640309
 20
233.6384030541129
 30
0.0
 10
287.5524752939436
 20
233.8579050054796
 30
0.0
 10
287.78540916723
 20
234.0987522477047
 30
0.0
 10
287.902650521913
 20
234.2199765958501
 30
0.0
  0
SPLINE
  5
AA
330
1F
100
AcDbEntity
  8
0
  6
Continuous
 62
     7
370
    15
100
AcDbSpline
210
0.0
220
0.0
230
1.0
 70
     8
 71
     3
 72
    11
 73
     7
 74
     0
 42
0.00000001
 43
0.00000001
 40
0.0
 40
0.0
 40
0.0
 40
0.0
 40
0.2084502703309852
 40
0.4466963223339053
 40
0.7066531324612927
 40
1.0
 40
1.0
 40
1.0
 40
1.0
 10
287.9549014436392
 20
207.2277151860906
 30
0.0
 10
287.8288313672479
 20
208.1679560519929
 30
0.0
 10
287.558670818207
 20
210.1828353622464
 30
0.0
 10
287.3220022028976
 20
213.691790264295
 30
0.0
 10
287.2114333093716
 20
217.5711716341883
 30
0.0
 10
287.1975020772533
 20
220.299171539362
 30
0.0
 10
287.1901161091714
 20
221.7454844035818
 30
0.0
  0
SPLINE
  5
AB
330
1F
100
AcDbEntity
  8
0
  6
Continuous
 62
     7
370
    15
100
AcDbSpline
210
0.0
220
0.0
230
1.0
 70
     8
 71
     3
 72
    12
 73
     8
 74
     0
 42
0.00000001
 43
0.00000001
 40
0.0
 40
0.0
 40
0.0
 40
0.0
 40
0.293203202333591
 40
0.5530326958946974
 40
0.715191073489197
 40
0.8634636211452071
 40
1.0
 40
1.0
 40
1.0
 40
1.0
 10
237.0315632837204
 20
221.7454844035818
 30
0.0
 10
237.0241007444949
 20
220.3004460711153
 30
0.0
 10
237.010025085862
 20
217.5748501761364
 30
0.0
 10
236.9109436193029
 20
214.0535019353946
 30
0.0
 10
236.7348180238386
 20
211.2600676813017
 30
0.0
 10
236.5265300413847
 20
209.091554420458
 30
0.0
 10
236.3509502649472
 20
207.8316897802948
 30
0.0
 10
236.2667779492525
 20
207.2277151860906
 30
0.0
  0
SPLINE
  5
AC
330
1F
100
AcDbEntity
  8
0
  6
Continuous
 62
     7
370
    15
100
AcDbSpline
210
0.0
220
0.0
230
1.0
 70
     8
 71
     3
 72
     9
 73
     5
 74
     0
 42
0.00000001
 43
0.00000001
 40
0.0
 40
0.0
 40
0.0
 40
0.0
 40
0.5628879419475908
 40
1.0
 40
1.0
 40
1.0
 40
1.0
 10
288.4927327798991
 20
198.0133660950376
 30
0.0
 10
288.5735040586409
 20
198.5274998941937
 30
0.0
 10
288.716998478618
 20
199.4408855982419
 30
0.0
 10
288.7736385263471
 20
200.2085340569892
 30
0.0
 10
288.7983965741782
 20
200.5440824546529
 30
0.0
  0
SPLINE
  5
AD
330
1F
100
AcDbEntity
  8
0
  6
Continuous
 62
     7
370
    15
100
AcDbSpline
210
0.0
220
0.0
230
1.0
 70
     8
 71
     3
 72
     9
 73
     5
 74
     0
 42
0.00000001
 43
0.00000001
 40
0.0
 40
0.0
 40
0.0
 40
0.0
 40
0.6221659754749684
 40
1.0
 40
1.0
 40
1.0
 40
1.0
 10
235.4126582907824
 20
200.5560555376722
 30
0.0
 10
235.4582830932951
 20
200.065712859347
 30
0.0
 10
235.5316152977408
 20
199.2775908828103
 30
0.0
 10
235.6749324787894
 20
198.3592401222984
 30
0.0
 10
235.7290825860886
 20
198.0122559585287
 30
0.0
  0
SPLINE
  5
AE
330
1F
100
AcDbEntity
  8
0
  6
Continuous
 62
     7
370
    15
100
AcDbSpline
210
0.0
220
0.0
230
1.0
 70
     8
 71
     3
 72
    19
 73
    15
 74
     0
 42
0.00000001
 43
0.00000001
 40
0.0
 40
0.0
 40
0.0
 40
0.0
 40
0.0082002010137668
 40
0.0492978693505894
 40
0.0885246914421563
 40
0.14796273842553
 40
0.209297963206712
 40
0.2724524205675524
 40
0.339281454372305
 40
0.4124090028677287
 40
0.5479791067360951
 40
0.7250206876670697
 40
0.9338397470872086
 40
1.0
 40
1.0
 40
1.0
 40
1.0
 10
281.859009625235
 20
185.738601616831
 30
0.0
 10
281.9440160909792
 20
185.7626345064471
 30
0.0
 10
282.4550569343898
 20
185.9071151417906
 30
0.0
 10
283.1741844761012
 20
186.2676595781011
 30
0.0
 10
284.1419803516731
 20
186.8163523252244
 30
0.0
 10
285.066457030913
 20
187.5503261022708
 30
0.0
 10
285.8550738294939
 20
188.4719489626567
 30
0.0
 10
286.4055131516886
 20
189.4444662909101
 30
0.0
 10
286.7558093556637
 20
190.2977195460508
 30
0.0
 10
287.1842382376578
 20
191.3974737335484
 30
0.0
 10
287.6569639937284
 20
192.9953565664128
 30
0.0
 10
288.0716524449485
 20
195.0796824900362
 30
0.0
 10
288.3223050110121
 20
196.7633495294852
 30
0.0
 10
288.4527887433501
 20
197.8366647160314
 30
0.0
 10
288.4841832386641
 20
198.0949052490903
 30
0.0
  0
SPLINE
  5
AF
330
1F
100
AcDbEntity
  8
0
  6
Continuous
 62
     7
370
    15
100
AcDbSpline
210
0.0
220
0.0
230
1.0
 70
     8
 71
     3
 72
    18
 73
    14
 74
     0
 42
0.00000001
 43
0.00000001
 40
0.0
 40
0.0
 40
0.0
 40
0.0
 40
0.0223435190310412
 40
0.232837801077337
 40
0.4213705061060222
 40
0.5860342757869619
 40
0.6759589834835837
 40
0.7441435494845376
 40
0.8073128485410297
 40
0.8672181298627781
 40
0.9307518836242648
 40
0.9723865715938574
 40
1.0
 40
1.0
 40
1.0
 40
1.0
 10
235.7407464700131
 20
198.0260842361166
 30
0.0
 10
235.7508083153227
 20
197.9381050575192
 30
0.0
 10
235.8556609991556
 20
197.0212898299478
 30
0.0
 10
236.0898037151837
 20
195.4984268545258
 30
0.0
 10
236.4908602199894
 20
193.2682136636631
 30
0.0
 10
237.0226494850932
 20
191.4257815133583
 30
0.0
 10
237.5082521610624
 20
190.1807965549268
 30
0.0
 10
237.9396612900797
 20
189.1858928199899
 30
0.0
 10
238.5600490190448
 20
188.210853063403
 30
0.0
 10
239.4300880946492
 20
187.2935891175638
 30
0.0
 10
240.4582413613147
 20
186.5845662693501
 30
0.0
 10
241.422440009866
 20
186.058529029667
 30
0.0
 10
242.0966664571242
 20
185.830494109546
 30
0.0
 10
242.3655214773802
 20
185.739562741728
 30
0.0
  0
LINE
  5
B0
330
1F
100
AcDbEntity
  8
0
  6
Continuous
 62
     7
370
    15
100
AcDbLine
 10
272.3413343596
 20
234.1654830494
 30
0.0
 11
273.1882697957
 21
234.2043676295
 31
0.0
  0
LINE
  5
B1
330
1F
100
AcDbEntity
  8
0
  6
Continuous
 62
     7
370
    15
100
AcDbLine
 10
288.7645746636
 20
202.8294288435
 30
0.0
 11
288.7355472016
 21
202.9727929153
 31
0.0
  0
SPLINE
  5
B2
330
1F
100
AcDbEntity
  8
0
  6
Continuous
 62
     7
370
    15
100
AcDbSpline
210
0.0
220
0.0
230
1.0
 70
     8
 71
     3
 72
    18
 73
    14
 74
     0
 42
0.00000001
 43
0.00000001
 40
0.0
 40
0.0
 40
0.0
 40
0.0
 40
0.0511537141762941
 40
0.1549407151145901
 40
0.254956670888029
 40
0.3538284402903393
 40
0.4511452909094472
 40
0.5497432269264005
 40
0.6477720239834776
 40
0.7462360178883967
 40
0.8440851535684111
 40
0.9404855307806553
 40
1.0
 40
1.0
 40
1.0
 40
1.0
 10
281.4993030445962
 20
197.4751436032964
 30
0.0
 10
281.2707813582277
 20
197.4069160777777
 30
0.0
 10
280.5786065264435
 20
197.2002600848633
 30
0.0
 10
279.2875531105658
 20
196.9099240566983
 30
0.0
 10
277.6406047908688
 20
196.6352160117546
 30
0.0
 10
275.9568234271657
 20
196.4362590638021
 30
0.0
 10
274.2459168490623
 20
196.2944944603521
 30
0.0
 10
272.5210817901824
 20
196.1910262975468
 30
0.0
 10
270.780502715996
 20
196.1186912324257
 30
0.0
 10
269.0395251586995
 20
196.0715450852141
 30
0.0
 10
267.30593325363
 20
196.0436494885652
 30
0.0
 10
265.8021670851354
 20
196.0302223328293
 30
0.0
 10
264.8780944462948
 20
196.027332338355
 30
0.0
 10
264.5253654158054
 20
196.0262291946126
 30
0.0
  0
LINE
  5
B3
330
1F
100
AcDbEntity
  8
0
  6
Continuous
 62
     7
370
    15
100
AcDbLine
 10
235.4580137002
 20
202.833914093
 30
0.0
 11
235.4861321913
 21
202.9727929153
 31
0.0
  0
SPLINE
  5
B4
330
1F
100
AcDbEntity
  8
0
  6
Continuous
 62
     7
370
    15
100
AcDbSpline
210
0.0
220
0.0
230
1.0
 70
     8
 71
     3
 72
    17
 73
    13
 74
     0
 42
0.00000001
 43
0.00000001
 40
0.0
 40
0.0
 40
0.0
 40
0.0
 40
0.0579308973287298
 40
0.1754682881561497
 40
0.2887350207569853
 40
0.4007060342813635
 40
0.5109160663846335
 40
0.6225768518999516
 40
0.733593212834935
 40
0.8451023397794745
 40
0.9559151775970417
 40
1.0
 40
1.0
 40
1.0
 40
1.0
 10
242.7223763482956
 20
197.4751436032964
 30
0.0
 10
242.9508980341624
 20
197.4069160721643
 30
0.0
 10
243.6430728644274
 20
197.2002600622472
 30
0.0
 10
244.9341263005221
 20
196.909924260335
 30
0.0
 10
246.5810748106855
 20
196.6352152532364
 30
0.0
 10
248.2648567739904
 20
196.4362616120824
 30
0.0
 10
249.9757626636048
 20
196.2944853105625
 30
0.0
 10
251.7006001313457
 20
196.1910609518422
 30
0.0
 10
253.4411699985981
 20
196.1185623438788
 30
0.0
 10
255.1821816145052
 20
196.0720274197165
 30
0.0
 10
256.5752900318194
 20
196.0477938993636
 30
0.0
 10
257.38580628335
 20
196.0412784964167
 30
0.0
 10
257.6164841706245
 20
196.0394241728498
 30
0.0
  0
SPLINE
  5
B5
330
1F
100
AcDbEntity
  8
0
  6
Continuous
 62
     7
370
    15
100
AcDbSpline
210
0.0
220
0.0
230
1.0
 70
     8
 71
     3
 72
     9
 73
     5
 74
     0
 42
0.00000001
 43
0.00000001
 40
0.0
 40
0.0
 40
0.0
 40
0.0
 40
0.4981987066118063
 40
1.0
 40
1.0
 40
1.0
 40
1.0
 10
287.1718733625798
 20
226.8741735138609
 30
0.0
 10
287.168012616867
 20
226.8281802027676
 30
0.0
 10
287.1602632075218
 20
226.7358609926154
 30
0.0
 10
286.9967655148574
 20
226.6118831621976
 30
0.0
 10
286.9147221612124
 20
226.5496709265424
 30
0.0
  0
SPLINE
  5
B6
330
1F
100
AcDbEntity
  8
0
  6
Continuous
 62
     7
370
    15
100
AcDbSpline
210
0.0
220
0.0
230
1.0
 70
     8
 71
     3
 72
    12
 73
     8
 74
     0
 42
0.00000001
 43
0.00000001
 40
0.0
 40
0.0
 40
0.0
 40
0.0
 40
0.1080845996110193
 40
0.3667411300605555
 40
0.6511490576132356
 40
0.985853467353235
 40
1.0
 40
1.0
 40
1.0
 40
1.0
 10
287.8551847355752
 20
208.1080906905843
 30
0.0
 10
287.7854912706281
 20
208.5853316410425
 30
0.0
 10
287.5490148421219
 20
210.2046547093805
 30
0.0
 10
287.350793674445
 20
213.1179015581728
 30
0.0
 10
287.2160369433924
 20
217.0610824094172
 30
0.0
 10
287.1936280346087
 20
219.9150189110195
 30
0.0
 10
287.19129836618
 20
221.4902382652505
 30
0.0
 10
287.1912038939385
 20
221.5541162409498
 30
0.0
  0
SPLINE
  5
B7
330
1F
100
AcDbEntity
  8
0
  6
Continuous
 62
     7
370
    15
100
AcDbSpline
210
0.0
220
0.0
230
1.0
 70
     8
 71
     3
 72
    18
 73
    14
 74
     0
 42
0.00000001
 43
0.00000001
 40
0.0
 40
0.0
 40
0.0
 40
0.0
 40
0.25
 40
0.25
 40
0.3750000000000001
 40
0.3750000000000001
 40
0.5000000000000002
 40
0.5000000000000002
 40
0.7500000000000002
 40
0.7500000000000002
 40
0.8750000000000001
 40
0.8750000000000001
 40
1.0
 40
1.0
 40
1.0
 40
1.0
 10
262.1108398588834
 20
220.2384706477922
 30
0.0
 10
263.5029344309133
 20
220.2412633437151
 30
0.0
 10
264.8759990372157
 20
220.3121572784157
 30
0.0
 10
266.9150595947159
 20
220.4919902207583
 30
0.0
 10
267.5916296363349
 20
220.5630884531232
 30
0.0
 10
268.9398251990294
 20
220.7229795358565
 30
0.0
 10
269.6018736878341
 20
220.8137732321997
 30
0.0
 10
271.5463793255218
 20
221.1233380051364
 30
0.0
 10
272.7904378302904
 20
221.376514330418
 30
0.0
 10
274.5813309468389
 20
221.8235930877755
 30
0.0
 10
275.1672266875542
 20
221.9844577942177
 30
0.0
 10
276.3052278778205
 20
222.3263461678982
 30
0.0
 10
276.8565989509385
 20
222.5069851238062
 30
0.0
 10
277.3906676839488
 20
222.6971389259777
 30
0.0
  0
SPLINE
  5
B8
330
1F
100
AcDbEntity
  8
0
  6
Continuous
 62
     7
370
    15
100
AcDbSpline
210
0.0
220
0.0
230
1.0
 70
     8
 71
     3
 72
     8
 73
     4
 74
     0
 42
0.00000001
 43
0.00000001
 40
0.0
 40
0.0
 40
0.0
 40
0.0
 40
1.0
 40
1.0
 40
1.0
 40
1.0
 10
277.3906676839488
 20
222.6971389259777
 30
0.0
 10
277.514002123486
 20
222.7410518367458
 30
0.0
 10
277.6362276029785
 20
222.7851061957857
 30
0.0
 10
277.7573580510863
 20
222.8292835144224
 30
0.0
  0
SPLINE
  5
B9
330
1F
100
AcDbEntity
  8
0
  6
Continuous
 62
     7
370
    15
100
AcDbSpline
210
0.0
220
0.0
230
1.0
 70
     8
 71
     3
 72
    20
 73
    16
 74
     0
 42
0.00000001
 43
0.00000001
 40
0.0
 40
0.0
 40
0.0
 40
0.0
 40
0.2499999999999999
 40
0.2499999999999999
 40
0.3749999999999998
 40
0.3749999999999998
 40
0.4999999999999997
 40
0.4999999999999997
 40
0.6249999999999998
 40
0.6249999999999998
 40
0.7499999999999998
 40
0.7499999999999998
 40
0.8749999999999999
 40
0.8749999999999999
 40
1.0
 40
1.0
 40
1.0
 40
1.0
 10
246.831012065436
 20
222.6971389259778
 30
0.0
 10
247.8992120346907
 20
222.3168090675187
 30
0.0
 10
249.027758406798
 20
221.9771369470561
 30
0.0
 10
250.8137084036974
 20
221.5303743949124
 30
0.0
 10
251.4246496446195
 20
221.3919804332648
 30
0.0
 10
252.6788575138825
 20
221.1369713910655
 30
0.0
 10
253.3245119418112
 20
221.0199258578456
 30
0.0
 10
254.6267288267629
 20
220.8127293335825
 30
0.0
 10
255.2856762144179
 20
220.7225798459336
 30
0.0
 10
256.6165981036607
 20
220.5646306528371
 30
0.0
 10
257.2869244888096
 20
220.4940033799299
 30
0.0
 10
258.6400362623663
 20
220.3741239453423
 30
0.0
 10
259.323417105567
 20
220.3258933671841
 30
0.0
 10
260.7074106211919
 20
220.258995752882
 30
0.0
 10
261.4103841139825
 20
220.2398758396907
 30
0.0
 10
262.1108398894713
 20
220.2384706477943
 30
0.0
  0
SPLINE
  5
BA
330
1F
100
AcDbEntity
  8
0
  6
Continuous
 62
     7
370
    15
100
AcDbSpline
210
0.0
220
0.0
230
1.0
 70
     8
 71
     3
 72
    12
 73
     8
 74
     0
 42
0.00000001
 43
0.00000001
 40
0.0
 40
0.0
 40
0.0
 40
0.0
 40
0.1202002104913636
 40
0.3753432083715521
 40
0.6558877854582306
 40
0.9860456312834933
 40
1.0
 40
1.0
 40
1.0
 40
1.0
 10
236.3412371890931
 20
207.9254397072507
 30
0.0
 10
236.4201473085776
 20
208.4634270848132
 30
0.0
 10
236.6665560070252
 20
210.1433734637108
 30
0.0
 10
236.8716211559818
 20
213.1177754254544
 30
0.0
 10
237.005383693118
 20
217.0611268082862
 30
0.0
 10
237.0280534067913
 20
219.9150185597001
 30
0.0
 10
237.0303811065451
 20
221.490238251559
 30
0.0
 10
237.0304754989533
 20
221.5541162409498
 30
0.0
  0
SPLINE
  5
BB
330
1F
100
AcDbEntity
  8
0
  6
Continuous
 62
     7
370
    15
100
AcDbSpline
210
0.0
220
0.0
230
1.0
 70
     8
 71
     3
 72
     9
 73
     5
 74
     0
 42
0.00000001
 43
0.00000001
 40
0.0
 40
0.0
 40
0.0
 40
0.0
 40
0.4981987066118063
 40
1.0
 40
1.0
 40
1.0
 40
1.0
 10
237.049806030312
 20
226.8741735138609
 30
0.0
 10
237.0536667760248
 20
226.8281802027676
 30
0.0
 10
237.06141618537
 20
226.7358609926154
 30
0.0
 10
237.2249138780344
 20
226.6118831621976
 30
0.0
 10
237.3069572316794
 20
226.5496709265424
 30
0.0
  0
SPLINE
  5
BC
330
1F
100
AcDbEntity
  8
0
  6
Continuous
 62
     7
370
    15
100
AcDbSpline
210
0.0
220
0.0
230
1.0
 70
     8
 71
     3
 72
     8
 73
     4
 74
     0
 42
0.00000001
 43
0.00000001
 40
0.0
 40
0.0
 40
0.0
 40
0.0
 40
1.0
 40
1.0
 40
1.0
 40
1.0
 10
246.4643216985455
 20
222.8292835143324
 30
0.0
 10
246.5854828378624
 20
222.7850950023479
 30
0.0
 10
246.707708954759
 20
222.7410406821856
 30
0.0
 10
246.8310120654359
 20
222.6971389259778
 30
0.0
  0
SPLINE
  5
BD
330
1F
100
AcDbEntity
  8
0
  6
Continuous
 62
     7
370
    15
100
AcDbSpline
210
0.0
220
0.0
230
1.0
 70
     8
 71
     3
 72
    25
 73
    21
 74
     0
 42
0.00000001
 43
0.00000001
 40
0.0
 40
0.0
 40
0.0
 40
0.0
 40
0.0955207203267528
 40
0.1897600329994074
 40
0.2852276991805636
 40
0.3784990004933066
 40
0.4257336653168115
 40
0.4728159822834232
 40
0.5196489048880159
 40
0.5672043347134934
 40
0.6145117688310348
 40
0.6621689193756954
 40
0.7094911164094617
 40
0.7562789953166503
 40
0.8036311607253784
 40
0.8509497238389857
 40
0.8981974799108139
 40
0.9459364844671854
 40
0.9934111759839752
 40
1.0
 40
1.0
 40
1.0
 40
1.0
 10
262.1108398710689
 20
184.3432121791555
 30
0.0
 10
262.7714793831082
 20
184.3435062046436
 30
0.0
 10
264.0838959475611
 20
184.3440903112766
 30
0.0
 10
266.0564904190888
 20
184.3504314403584
 30
0.0
 10
268.0130250089343
 20
184.3643207384492
 30
0.0
 10
269.6429323157052
 20
184.3871308677686
 30
0.0
 10
270.9359486399902
 20
184.4152424799438
 30
0.0
 10
271.9067435314415
 20
184.4425829875153
 30
0.0
 10
272.8763372639589
 20
184.4774070555216
 30
0.0
 10
273.8423797479682
 20
184.5210794365318
 30
0.0
 10
274.806532725315
 20
184.575375130349
 30
0.0
 10
275.7575847640647
 20
184.6417050597402
 30
0.0
 10
276.6885839569675
 20
184.7225904088655
 30
0.0
 10
277.5940584640279
 20
184.8202571360373
 30
0.0
 10
278.4675659087886
 20
184.9365675743389
 30
0.0
 10
279.3001403825536
 20
185.073456687572
 30
0.0
 10
280.0811077170459
 20
185.2311419703483
 30
0.0
 10
280.7892610743536
 20
185.4106851353422
 30
0.0
 10
281.260856035436
 20
185.5485400706928
 30
0.0
 10
281.4738398953
 20
185.6290024377818
 30
0.0
 10
281.4997966455607
 20
185.6388085403158
 30
0.0
  0
SPLINE
  5
BE
330
1F
100
AcDbEntity
  8
0
  6
Continuous
 62
     7
370
    15
100
AcDbSpline
210
0.0
220
0.0
230
1.0
 70
     8
 71
     3
 72
    25
 73
    21
 74
     0
 42
0.00000001
 43
0.00000001
 40
0.0
 40
0.0
 40
0.0
 40
0.0
 40
0.09585258409975
 40
0.1904193138853102
 40
0.2862186479081492
 40
0.3798140200700191
 40
0.4272127902039689
 40
0.4744586831855928
 40
0.5214543153453773
 40
0.5691749649009834
 40
0.6166467131206772
 40
0.6644694367992697
 40
0.7119560859666552
 40
0.7589064763138961
 40
0.8064231953871812
 40
0.8539061552953583
 40
0.9013180621599773
 40
0.9492229242320596
 40
0.9968624965442242
 40
1.0
 40
1.0
 40
1.0
 40
1.0
 10
262.1108398783448
 20
184.3432121791555
 30
0.0
 10
261.4502003639041
 20
184.3435062048327
 30
0.0
 10
260.1377837582712
 20
184.3440903118574
 30
0.0
 10
258.1651893227394
 20
184.3504314381512
 30
0.0
 10
256.2086546179189
 20
184.3643207442984
 30
0.0
 10
254.5787472314679
 20
184.3871308632413
 30
0.0
 10
253.2857307528679
 20
184.4152424803894
 30
0.0
 10
252.3149358617185
 20
184.4425829865094
 30
0.0
 10
251.3453421278929
 20
184.477407059105
 30
0.0
 10
250.3792999480013
 20
184.5210794094809
 30
0.0
 10
249.4151472453495
 20
184.5753751456293
 30
0.0
 10
248.4640955515266
 20
184.6417051597832
 30
0.0
 10
247.5330950535349
 20
184.7225901245609
 30
0.0
 10
246.6276245298612
 20
184.8202578793751
 30
0.0
 10
245.7541020871913
 20
184.9365651929455
 30
0.0
 10
244.9215820592026
 20
185.0734652623406
 30
0.0
 10
244.1404106545131
 20
185.231109922985
 30
0.0
 10
243.4330250931164
 20
185.4108057609166
 30
0.0
 10
242.9755009743326
 20
185.5435807114459
 30
0.0
 10
242.7754545898578
 20
185.618762712243
 30
0.0
 10
242.7630937712578
 20
185.6234081902219
 30
0.0
  0
SPLINE
  5
BF
330
1F
100
AcDbEntity
  8
0
  6
Continuous
 62
     7
370
    15
100
AcDbSpline
210
0.0
220
0.0
230
1.0
 70
    24
 71
     3
 72
    23
 73
    19
 74
     0
 42
0.00000001
 43
0.00000001
 40
0.0
 40
0.0
 40
0.0
 40
0.0
 40
0.01053281224799
 40
0.0826608634638507
 40
0.1550870836958364
 40
0.2164725003624356
 40
0.2782411417402219
 40
0.3415319810542586
 40
0.4054962104461614
 40
0.4617326738306476
 40
0.5184655735357623
 40
0.5765929103213955
 40
0.6351135632890561
 40
0.6840145106021505
 40
0.7330553143905179
 40
0.8318760194522348
 40
0.9317527813141132
 40
1.0
 40
1.0
 40
1.0
 40
1.0
 10
439.2129994051842
 20
309.793203498484
 30
0.0
 10
439.0404576928003
 20
309.793203498484
 30
0.0
 10
437.6863609337033
 20
309.793203498484
 30
0.0
 10
434.8707258358854
 20
309.793203498484
 30
0.0
 10
430.6986740619767
 20
309.793203498484
 30
0.0
 10
426.2142977438463
 20
309.793203498484
 30
0.0
 10
421.4450122102526
 20
309.793203498484
 30
0.0
 10
416.0551993459638
 20
309.793203498484
 30
0.0
 10
410.2878958603427
 20
309.793203498484
 30
0.0
 10
404.280633409181
 20
309.793203498484
 30
0.0
 10
398.1322352259737
 20
309.793203498484
 30
0.0
 10
391.6252186078536
 20
309.793203498484
 30
0.0
 10
385.2163670458196
 20
309.793203498484
 30
0.0
 10
379.042696938568
 20
309.793203498484
 30
0.0
 10
371.1795986572981
 20
309.793203498484
 30
0.0
 10
361.1416124798624
 20
309.793203498484
 30
0.0
 10
350.2796427927539
 20
309.793203498484
 30
0.0
 10
343.4273250133171
 20
309.793203498484
 30
0.0
 10
340.645737113276
 20
309.793203498484
 30
0.0
  0
SPLINE
  5
C0
330
1F
100
AcDbEntity
  8
0
  6
Continuous
 62
     7
370
    15
100
AcDbSpline
210
0.0
220
0.0
230
1.0
 70
    24
 71
     3
 72
    17
 73
    13
 74
     0
 42
0.00000001
 43
0.00000001
 40
0.0
 40
0.0
 40
0.0
 40
0.0
 40
0.150366305075203
 40
0.2606605381021833
 40
0.3711703229729086
 40
0.4830285031968352
 40
0.5959000383741926
 40
0.6698550460132114
 40
0.744316707416969
 40
0.8193139229467821
 40
0.8956167488465135
 40
0.9999999999999999
 40
0.9999999999999999
 40
0.9999999999999999
 40
0.9999999999999999
 10
232.7229390906481
 20
309.793203498484
 30
0.0
 10
230.061610701564
 20
309.793203498484
 30
0.0
 10
225.4481882355511
 20
309.793203498484
 30
0.0
 10
218.9120643148538
 20
309.793203498484
 30
0.0
 10
213.0877462667023
 20
309.793203498484
 30
0.0
 10
207.2969661440477
 20
309.793203498484
 30
0.0
 10
202.2795963019065
 20
309.793203498484
 30
0.0
 10
198.0760978862138
 20
309.793203498484
 30
0.0
 10
194.6275818414005
 20
309.793203498484
 30
0.0
 10
191.3309720380143
 20
309.793203498484
 30
0.0
 10
187.8085512240801
 20
309.793203498484
 30
0.0
 10
185.6343734124161
 20
309.793203498484
 30
0.0
 10
184.3783400075821
 20
309.793203498484
 30
0.0
  0
SPLINE
  5
C1
330
1F
100
AcDbEntity
  8
0
  6
Continuous
 62
     7
370
    15
100
AcDbSpline
210
0.0
220
0.0
230
1.0
 70
    24
 71
     3
 72
    12
 73
     8
 74
     0
 42
0.00000001
 43
0.00000001
 40
0.0
 40
0.0
 40
0.0
 40
0.0
 40
0.124311919321717
 40
0.3390720054347563
 40
0.5538339881320421
 40
0.7685945516421487
 40
1.0
 40
1.0
 40
1.0
 40
1.0
 10
167.0920691507248
 20
309.793203498484
 30
0.0
 10
167.0894463085576
 20
309.793203498484
 30
0.0
 10
167.0822922692794
 20
309.793203498484
 30
0.0
 10
167.2593896592161
 20
309.793203498484
 30
0.0
 10
167.5853366049323
 20
309.793203498484
 30
0.0
 10
168.0418550639732
 20
309.793203498484
 30
0.0
 10
168.3934118841
 20
309.793203498484
 30
0.0
 10
168.5757479684738
 20
309.793203498484
 30
0.0
  0
SPLINE
  5
C2
330
1F
100
AcDbEntity
  8
0
  6
Continuous
 62
     7
370
    15
100
AcDbSpline
210
0.0
220
0.0
230
1.0
 70
    24
 71
     3
 72
    17
 73
    13
 74
     0
 42
0.00000001
 43
0.00000001
 40
0.0
 40
0.0
 40
0.0
 40
0.0
 40
0.1058591363964652
 40
0.2147944173954372
 40
0.3206529989995793
 40
0.4295827698372777
 40
0.5354448333379133
 40
0.644376279852214
 40
0.7502364282690684
 40
0.8591660916249736
 40
0.9650243440136205
 40
1.0
 40
1.0
 40
1.0
 40
1.0
 10
439.0885002034096
 20
309.793203498484
 30
0.0
 10
439.1718810403627
 20
309.793203498484
 30
0.0
 10
439.3410656653743
 20
309.793203498484
 30
0.0
 10
439.5865988603496
 20
309.793203498484
 30
0.0
 10
439.8201694032084
 20
309.793203498484
 30
0.0
 10
440.0309365549754
 20
309.793203498484
 30
0.0
 10
440.2168152364216
 20
309.793203498484
 30
0.0
 10
440.3689091697427
 20
309.793203498484
 30
0.0
 10
440.4866967697678
 20
309.793203498484
 30
0.0
 10
440.5608337948728
 20
309.793203498484
 30
0.0
 10
440.5949824716422
 20
309.793203498484
 30
0.0
 10
440.5895594587207
 20
309.793203498484
 30
0.0
 10
440.5882126706032
 20
309.793203498484
 30
0.0
  0
LINE
  5
C3
330
1F
100
AcDbEntity
  8
0
  6
Continuous
 62
     7
370
    15
100
AcDbLine
 10
168.5757479685
 20
309.7932034985
 30
0.0
 11
439.0885002034
 21
309.7932034985
 31
0.0
  0
SPLINE
  5
C4
330
1F
100
AcDbEntity
  8
0
  6
Continuous
 62
     7
370
    15
100
AcDbSpline
210
0.0
220
0.0
230
1.0
 70
     8
 71
     3
 72
     9
 73
     5
 74
     0
 42
0.00000001
 43
0.00000001
 40
0.0
 40
0.0
 40
0.0
 40
0.0
 40
0.5332323261828252
 40
1.0
 40
1.0
 40
1.0
 40
1.0
 10
268.9795387963144
 20
233.9539238133146
 30
0.0
 10
269.6361405319783
 20
234.0116463335942
 30
0.0
 10
270.8675019919336
 20
234.1198965604566
 30
0.0
 10
272.1535081732544
 20
234.1672460485857
 30
0.0
 10
272.753774287024
 20
234.1893472590162
 30
0.0
  0
SPLINE
  5
C5
330
1F
100
AcDbEntity
  8
0
  6
Continuous
 62
     7
370
    15
100
AcDbSpline
210
0.0
220
0.0
230
1.0
 70
     8
 71
     3
 72
    10
 73
     6
 74
     0
 42
0.00000001
 43
0.00000001
 40
0.0
 40
0.0
 40
0.0
 40
0.0
 40
0.1725144661982661
 40
0.9813196503532928
 40
0.9999999999999999
 40
0.9999999999999999
 40
0.9999999999999999
 40
0.9999999999999999
 10
252.7397080378918
 20
234.0374746241285
 30
0.0
 10
252.9191215965743
 20
234.0330985399889
 30
0.0
 10
253.9396855791481
 20
234.0082059182145
 30
0.0
 10
255.037700031369
 20
233.9634424873323
 30
0.0
 10
255.7659427029453
 20
233.8676188227533
 30
0.0
 10
255.7823826613216
 20
233.8654556193067
 30
0.0
  0
SPLINE
  5
C6
330
1F
100
AcDbEntity
  8
0
  6
Continuous
 62
     7
370
    15
100
AcDbSpline
210
0.0
220
0.0
230
1.0
 70
     8
 71
     3
 72
     8
 73
     4
 74
     0
 42
0.00000001
 43
0.00000001
 40
0.0
 40
0.0
 40
0.0
 40
0.0
 40
1.0
 40
1.0
 40
1.0
 40
1.0
 10
253.7805860291217
 20
222.6971389259778
 30
0.0
 10
255.0756661979934
 20
222.529917562739
 30
0.0
 10
256.3938618758522
 20
222.4053961628433
 30
0.0
 10
257.7332897882785
 20
222.3200958607063
 30
0.0
  0
LINE
  5
C7
330
1F
100
AcDbEntity
  8
0
  6
Continuous
 62
     7
370
    15
100
AcDbLine
 10
266.4883836227
 20
222.320095531
 30
0.0
 11
257.7332897166
 21
222.320095531
 31
0.0
  0
SPLINE
  5
C8
330
1F
100
AcDbEntity
  8
0
  6
Continuous
 62
     7
370
    15
100
AcDbSpline
210
0.0
220
0.0
230
1.0
 70
     8
 71
     3
 72
     8
 73
     4
 74
     0
 42
0.00000001
 43
0.00000001
 40
0.0
 40
0.0
 40
0.0
 40
0.0
 40
1.0
 40
1.0
 40
1.0
 40
1.0
 10
266.4883858674784
 20
222.3200956087413
 30
0.0
 10
267.8278151881545
 20
222.4053959171202
 30
0.0
 10
269.1460122320079
 20
222.5299173923795
 30
0.0
 10
270.441093720263
 20
222.6971389259777
 30
0.0
  0
SPLINE
  5
C9
330
1F
100
AcDbEntity
  8
0
  6
Continuous
 62
     7
370
    15
100
AcDbSpline
210
0.0
220
0.0
230
1.0
 70
    24
 71
     3
 72
    19
 73
    15
 74
     0
 42
0.00000001
 43
0.00000001
 40
0.0
 40
0.0
 40
0.0
 40
0.0
 40
0.0468899409656035
 40
0.0953836489051161
 40
0.1455012297169137
 40
0.1972608969673056
 40
0.2506791845854552
 40
0.3815197901815006
 40
0.4986841971436619
 40
0.6163449366332078
 40
0.7482722268400307
 40
0.8388976279769734
 40
0.9227835337990935
 40
1.0
 40
1.0
 40
1.0
 40
1.0
 10
266.65844613788
 20
233.5042780823921
 30
0.0
 10
266.5178018681692
 20
233.5042780823921
 30
0.0
 10
266.2317029018161
 20
233.5042780823921
 30
0.0
 10
265.7930680433983
 20
233.5042780823921
 30
0.0
 10
265.3384763970631
 20
233.5042780823921
 30
0.0
 10
264.8677322253521
 20
233.5042780823921
 30
0.0
 10
264.1508073869605
 20
233.5042780823922
 30
0.0
 10
263.2324152225868
 20
233.5042780823921
 30
0.0
 10
262.114556806875
 20
233.5042780823921
 30
0.0
 10
260.99309053614
 20
233.5042780823922
 30
0.0
 10
259.9569390687154
 20
233.5042780823921
 30
0.0
 10
259.0273372767348
 20
233.5042780823922
 30
0.0
 10
258.2658863008884
 20
233.5042780823921
 30
0.0
 10
257.7820656188244
 20
233.5042780823921
 30
0.0
 10
257.5501700677239
 20
233.5042780823921
 30
0.0
  0
SPLINE
  5
CA
330
1F
100
AcDbEntity
  8
0
  6
Continuous
 62
     7
370
    15
100
AcDbSpline
210
0.0
220
0.0
230
1.0
 70
    24
 71
     3
 72
    34
 73
    30
 74
     0
 42
0.00000001
 43
0.00000001
 40
0.0
 40
0.0
 40
0.0
 40
0.0
 40
0.0243908698742406
 40
0.048665688849473
 40
0.0728338183607735
 40
0.0969047443214888
 40
0.1208880679834423
 40
0.1447934961510837
 40
0.1686308307885609
 40
0.1924099580664159
 40
0.216140836902024
 40
0.2398334870547751
 40
0.2634979768432235
 40
0.2871444105568093
 40
0.3107829156392168
 40
0.3344236297237675
 40
0.3580766876034685
 40
0.3817522082192872
 40
0.4054602817499663
 40
0.429210956885185
 40
0.4530142283611364
 40
0.4768800248337766
 40
0.5008181971601189
 40
0.6259336190786908
 40
0.7509075808570326
 40
0.8126353067601296
 40
0.8751040469472982
 40
0.9325610557366432
 40
1.0
 40
1.0
 40
1.0
 40
1.0
 10
283.4584749548058
 20
233.5042780823921
 30
0.0
 10
283.3705668796188
 20
233.5042780823921
 30
0.0
 10
283.1951689927677
 20
233.5042780823921
 30
0.0
 10
282.9217649613141
 20
233.5042780823921
 30
0.0
 10
282.641639878778
 20
233.5042780823922
 30
0.0
 10
282.3540152901189
 20
233.5042780823921
 30
0.0
 10
282.0590984495173
 20
233.5042780823921
 30
0.0
 10
281.756834177861
 20
233.5042780823921
 30
0.0
 10
281.4472372397283
 20
233.5042780823921
 30
0.0
 10
281.1303037821365
 20
233.5042780823921
 30
0.0
 10
280.8060349455131
 20
233.5042780823922
 30
0.0
 10
280.4744305647543
 20
233.5042780823921
 30
0.0
 10
280.1354908500895
 20
233.5042780823921
 30
0.0
 10
279.7892159364592
 20
233.5042780823921
 30
0.0
 10
279.4356060049995
 20
233.5042780823922
 30
0.0
 10
279.0746612398221
 20
233.5042780823921
 30
0.0
 10
278.7063818713207
 20
233.5042780823921
 30
0.0
 10
278.3307680363038
 20
233.5042780823921
 30
0.0
 10
277.9478202840327
 20
233.5042780823921
 30
0.0
 10
277.5575376760484
 20
233.5042780823921
 30
0.0
 10
277.1599248872297
 20
233.5042780823921
 30
0.0
 10
276.7549656017225
 20
233.5042780823922
 30
0.0
 10
275.7624756016897
 20
233.5042780823921
 30
0.0
 10
274.1175428626403
 20
233.5042780823922
 30
0.0
 10
272.1296165479545
 20
233.5042780823921
 30
0.0
 10
270.4865449422349
 20
233.5042780823921
 30
0.0
 10
269.2661625433817
 20
233.5042780823921
 30
0.0
 10
267.9862833115479
 20
233.5042780823921
 30
0.0
 10
267.1228049115075
 20
233.5042780823921
 30
0.0
 10
266.656560247292
 20
233.5042780823921
 30
0.0
  0
SPLINE
  5
CB
330
1F
100
AcDbEntity
  8
0
  6
Continuous
 62
     7
370
    15
100
AcDbSpline
210
0.0
220
0.0
230
1.0
 70
    24
 71
     3
 72
    32
 73
    28
 74
     0
 42
0.00000001
 43
0.00000001
 40
0.0
 40
0.0
 40
0.0
 40
0.0
 40
0.0263729604117085
 40
0.0524334544713091
 40
0.0781904056026517
 40
0.1036530563627968
 40
0.1288309734149047
 40
0.1537340515706556
 40
0.1783725167699927
 40
0.2027569278624381
 40
0.2268981770527913
 40
0.2508074888750712
 40
0.3131456953955164
 40
0.3752218535512805
 40
0.4372105556393648
 40
0.4992871318798705
 40
0.5449306566900176
 40
0.5903414332099005
 40
0.635588155328202
 40
0.6807402657111126
 40
0.7258676437966831
 40
0.7710402838013722
 40
0.8163279700789483
 40
0.8617999573131435
 40
0.9075246627681298
 40
0.953569377189346
 40
0.9999999999999999
 40
0.9999999999999999
 40
0.9999999999999999
 40
0.9999999999999999
 10
257.551771768373
 20
233.5042780823921
 30
0.0
 10
257.3700136134851
 20
233.5042780823921
 30
0.0
 10
257.0086507710008
 20
233.5042780823922
 30
0.0
 10
256.4724714045465
 20
233.5042780823921
 30
0.0
 10
255.9447838516619
 20
233.5042780823921
 30
0.0
 10
255.4257626422062
 20
233.5042780823921
 30
0.0
 10
254.9153617480711
 20
233.5042780823921
 30
0.0
 10
254.4135940725609
 20
233.5042780823921
 30
0.0
 10
253.9204540515142
 20
233.5042780823921
 30
0.0
 10
253.4359520045442
 20
233.5042780823922
 30
0.0
 10
252.9600537865113
 20
233.5042780823921
 30
0.0
 10
252.2412007366643
 20
233.5042780823922
 30
0.0
 10
251.2903057654775
 20
233.5042780823921
 30
0.0
 10
250.1255346117133
 20
233.5042780823922
 30
0.0
 10
248.9962439979317
 20
233.5042780823921
 30
0.0
 10
248.0004373074007
 20
233.5042780823922
 30
0.0
 10
247.1301849731537
 20
233.5042780823921
 30
0.0
 10
246.3780187282795
 20
233.5042780823921
 30
0.0
 10
245.652360444334
 20
233.5042780823922
 30
0.0
 10
244.9531890066274
 20
233.5042780823921
 30
0.0
 10
244.2805205911316
 20
233.5042780823922
 30
0.0
 10
243.6343441386246
 20
233.5042780823921
 30
0.0
 10
243.0147163300815
 20
233.5042780823921
 30
0.0
 10
242.4214438689959
 20
233.5042780823921
 30
0.0
 10
241.8552662290616
 20
233.5042780823921
 30
0.0
 10
241.3134049444199
 20
233.5042780823922
 30
0.0
 10
240.9769325745221
 20
233.5042780823921
 30
0.0
 10
240.8079943239509
 20
233.5042780823921
 30
0.0
  0
LINE
  5
CC
330
1F
100
AcDbEntity
  8
0
  6
Continuous
 62
     7
370
    15
100
AcDbLine
 10
238.0644763874
 20
232.6373093643
 30
0.0
 11
286.1572030055
 21
232.6373093643
 31
0.0
  0
SPLINE
  5
CD
330
1F
100
AcDbEntity
  8
0
  6
Continuous
 62
     7
370
    15
100
AcDbSpline
210
0.0
220
0.0
230
1.0
 70
     8
 71
     3
 72
    24
 73
    20
 74
     0
 42
0.00000001
 43
0.00000001
 40
0.0
 40
0.0
 40
0.0
 40
0.0
 40
0.0625000000000002
 40
0.0625000000000002
 40
0.1250000000000005
 40
0.1250000000000005
 40
0.2500000000000001
 40
0.2500000000000001
 40
0.3749999999999996
 40
0.3749999999999996
 40
0.4374999999999997
 40
0.4374999999999997
 40
0.4999999999999997
 40
0.4999999999999997
 40
0.6249999999999997
 40
0.6249999999999997
 40
0.7499999999999997
 40
0.7499999999999997
 40
1.0
 40
1.0
 40
1.0
 40
1.0
 10
239.2205456303834
 20
226.9894698030865
 30
0.0
 10
239.3582726759717
 20
226.9058799260276
 30
0.0
 10
239.508756447998
 20
226.8187678892234
 30
0.0
 10
239.8364673579601
 20
226.6379009372465
 30
0.0
 10
240.0129968279737
 20
226.5445621272671
 30
0.0
 10
240.5756385175592
 20
226.2597078163608
 30
0.0
 10
240.996552057727
 20
226.0623075839866
 30
0.0
 10
241.9289459960692
 20
225.6586469429481
 30
0.0
 10
242.4404538534841
 20
225.45237451094
 30
0.0
 10
243.2779221825784
 20
225.1410741411209
 30
0.0
 10
243.5699112102431
 20
225.0366228883696
 30
0.0
 10
244.1707139187846
 20
224.8303478734072
 30
0.0
 10
244.4796828143479
 20
224.7284308934866
 30
0.0
 10
245.4315692106519
 20
224.4273969878631
 30
0.0
 10
246.0994984919634
 20
224.233050249683
 30
0.0
 10
247.4992013966825
 20
223.8620312206232
 30
0.0
 10
248.2326095849592
 20
223.6849397702951
 30
0.0
 10
250.5151741298542
 20
223.1890886354616
 30
0.0
 10
252.1137183839675
 20
222.9123656637976
 30
0.0
 10
253.7805860291217
 20
222.6971389259778
 30
0.0
  0
SPLINE
  5
CE
330
1F
100
AcDbEntity
  8
0
  6
Continuous
 62
     7
370
    15
100
AcDbSpline
210
0.0
220
0.0
230
1.0
 70
     8
 71
     3
 72
    13
 73
     9
 74
     0
 42
0.00000001
 43
0.00000001
 40
0.0
 40
0.0
 40
0.0
 40
0.0
 40
0.0135850997288179
 40
0.237332376493725
 40
0.466830215541692
 40
0.7053455990970997
 40
0.9498422750489612
 40
1.0
 40
1.0
 40
1.0
 40
1.0
 10
239.2205457257418
 20
226.9894712485982
 30
0.0
 10
239.1991921520154
 20
227.0008851848559
 30
0.0
 10
238.8261441435148
 20
227.2002872261548
 30
0.0
 10
238.2828348843331
 20
227.5439441188457
 30
0.0
 10
237.9786227268625
 20
227.9030292654687
 30
0.0
 10
238.247058572681
 20
228.117340101945
 30
0.0
 10
238.7249535272584
 20
228.2027150282636
 30
0.0
 10
239.2795296352105
 20
228.2131322195436
 30
0.0
 10
239.3739326911358
 20
228.2149054922773
 30
0.0
  0
SPLINE
  5
CF
330
1F
100
AcDbEntity
  8
0
  6
Continuous
 62
     7
370
    15
100
AcDbSpline
210
0.0
220
0.0
230
1.0
 70
     8
 71
     3
 72
    13
 73
     9
 74
     0
 42
0.00000001
 43
0.00000001
 40
0.0
 40
0.0
 40
0.0
 40
0.0
 40
0.0202227154683619
 40
0.253989596158654
 40
0.5168791004099972
 40
0.7880203163956836
 40
0.8937140347572669
 40
0.9999999999999999
 40
0.9999999999999999
 40
0.9999999999999999
 40
0.9999999999999999
 10
284.9177877473025
 20
228.2159411229803
 30
0.0
 10
284.9554822379291
 20
228.2152232827028
 30
0.0
 10
285.428910668777
 20
228.2062074825026
 30
0.0
 10
285.9216440037417
 20
228.1305552064055
 30
0.0
 10
286.2725915762188
 20
227.9179497310184
 30
0.0
 10
285.9703234177285
 20
227.5825510479763
 30
0.0
 10
285.4698571424013
 20
227.2476230265417
 30
0.0
 10
285.1576655680305
 20
227.0756819690993
 30
0.0
 10
285.00113366715
 20
226.9894712485982
 30
0.0
  0
SPLINE
  5
D0
330
1F
100
AcDbEntity
  8
0
  6
Continuous
 62
     7
370
    15
100
AcDbSpline
210
0.0
220
0.0
230
1.0
 70
     8
 71
     3
 72
    22
 73
    18
 74
     0
 42
0.00000001
 43
0.00000001
 40
0.0
 40
0.0
 40
0.0
 40
0.0
 40
0.2499999999999998
 40
0.2499999999999998
 40
0.3124999999999996
 40
0.3124999999999996
 40
0.3749999999999994
 40
0.3749999999999994
 40
0.4999999999999993
 40
0.4999999999999993
 40
0.6249999999999992
 40
0.6249999999999992
 40
0.6874999999999993
 40
0.6874999999999993
 40
0.7499999999999993
 40
0.7499999999999993
 40
1.0
 40
1.0
 40
1.0
 40
1.0
 10
270.4410937202631
 20
222.6971389259778
 30
0.0
 10
272.1118717902238
 20
222.9128705796959
 30
0.0
 10
273.7088830269844
 20
223.1897199678241
 30
0.0
 10
275.6034060539477
 20
223.6011317832052
 30
0.0
 10
275.977163292525
 20
223.6866851443227
 30
0.0
 10
276.713883613104
 20
223.8640524916832
 30
0.0
 10
277.0763367520904
 20
223.9557787811721
 30
0.0
 10
278.1324859029095
 20
224.2358822517722
 30
0.0
 10
278.7998241742997
 20
224.4303733313182
 30
0.0
 10
280.0605118190233
 20
224.8292575942243
 30
0.0
 10
280.6539811414032
 20
225.0336190167531
 30
0.0
 10
281.487365841449
 20
225.3430169446729
 30
0.0
 10
281.7556666132012
 20
225.4466252921349
 30
0.0
 10
282.272813736972
 20
225.6539886231031
 30
0.0
 10
282.5225743418689
 20
225.7581501408467
 30
0.0
 10
283.7050449175264
 20
226.2700839026915
 30
0.0
 10
284.4478366453225
 20
226.6536601761222
 30
0.0
 10
285.0011341190067
 20
226.9894698030895
 30
0.0
  0
LINE
  5
D1
330
1F
100
AcDbEntity
  8
0
  6
Continuous
 62
     7
370
    15
100
AcDbLine
 10
285.0011336671
 20
226.9894712486
 30
0.0
 11
286.2135927247
 21
226.9894712486
 31
0.0
  0
SPLINE
  5
D2
330
1F
100
AcDbEntity
  8
0
  6
Continuous
 62
     7
370
    15
100
AcDbSpline
210
0.0
220
0.0
230
1.0
 70
     8
 71
     3
 72
    18
 73
    14
 74
     0
 42
0.00000001
 43
0.00000001
 40
0.0
 40
0.0
 40
0.0
 40
0.0
 40
0.1250000000000002
 40
0.1250000000000002
 40
0.2500000000000004
 40
0.2500000000000004
 40
0.5000000000000006
 40
0.5000000000000006
 40
0.6250000000000002
 40
0.6250000000000002
 40
0.7499999999999999
 40
0.7499999999999999
 40
1.0
 40
1.0
 40
1.0
 40
1.0
 10
286.2135925482056
 20
226.9894698030897
 30
0.0
 10
286.0338746104555
 20
226.858794858883
 30
0.0
 10
285.8300292972624
 20
226.719321445046
 30
0.0
 10
285.3739669717381
 20
226.4238559578255
 30
0.0
 10
285.1205454827747
 20
226.2671741976361
 30
0.0
 10
284.2979393311557
 20
225.7808404235082
 30
0.0
 10
283.6665666499778
 20
225.4344307324157
 30
0.0
 10
282.5994321500281
 20
224.8931727907303
 30
0.0
 10
282.2235956766181
 20
224.7091412986062
 30
0.0
 10
281.4310670776236
 20
224.3358520596329
 30
0.0
 10
281.0130685110897
 20
224.1460302894304
 30
0.0
 10
279.7059519527969
 20
223.5764579725156
 30
0.0
 10
278.7668519783239
 20
223.1975100324804
 30
0.0
 10
277.7573312297335
 20
222.8292961788649
 30
0.0
  0
SPLINE
  5
D3
330
1F
100
AcDbEntity
  8
0
  6
Continuous
 62
     7
370
    15
100
AcDbSpline
210
0.0
220
0.0
230
1.0
 70
     8
 71
     3
 72
     9
 73
     5
 74
     0
 42
0.00000001
 43
0.00000001
 40
0.0
 40
0.0
 40
0.0
 40
0.0
 40
0.1294363055582095
 40
1.0
 40
1.0
 40
1.0
 40
1.0
 10
287.8762400763421
 20
234.2169367589666
 30
0.0
 10
287.8828210416552
 20
234.213898085127
 30
0.0
 10
287.9336643138329
 20
234.1904218755235
 30
0.0
 10
287.7862346693792
 20
234.174297493741
 30
0.0
 10
287.6578877734332
 20
234.1602601923658
 30
0.0
  0
SPLINE
  5
D4
330
1F
100
AcDbEntity
  8
0
  6
Continuous
 62
     7
370
    15
100
AcDbSpline
210
0.0
220
0.0
230
1.0
 70
     8
 71
     3
 72
    16
 73
    12
 74
     0
 42
0.00000001
 43
0.00000001
 40
0.0
 40
0.0
 40
0.0
 40
0.0
 40
0.2499999999999998
 40
0.2499999999999998
 40
0.4999999999999997
 40
0.4999999999999997
 40
0.6249999999999996
 40
0.6249999999999996
 40
0.7499999999999996
 40
0.7499999999999996
 40
1.0
 40
1.0
 40
1.0
 40
1.0
 10
246.4643485198983
 20
222.8292961787749
 30
0.0
 10
245.451942757002
 20
223.198562316091
 30
0.0
 10
244.5159558004679
 20
223.5765191335844
 30
0.0
 10
242.786441524457
 20
224.3298302989882
 30
0.0
 10
241.9929487741068
 20
224.7052933852908
 30
0.0
 10
240.911821539254
 20
225.253435214517
 30
0.0
 10
240.57050848881
 20
225.4333154380593
 30
0.0
 10
239.9362379017559
 20
225.7799476166339
 30
0.0
 10
239.6417085120777
 20
225.9474871154062
 30
0.0
 10
238.8253092771693
 20
226.430435284794
 30
0.0
 10
238.3701459443798
 20
226.7262127979207
 30
0.0
 10
238.0080872011793
 20
226.9894698030899
 30
0.0
  0
LINE
  5
D5
330
1F
100
AcDbEntity
  8
0
  6
Continuous
 62
     7
370
    15
100
AcDbLine
 10
238.0080866682
 20
226.9894712486
 30
0.0
 11
239.2205457257
 21
226.9894712486
 31
0.0
  0
SPLINE
  5
D6
330
1F
100
AcDbEntity
  8
0
  6
Continuous
 62
     7
370
    15
100
AcDbSpline
210
0.0
220
0.0
230
1.0
 70
     8
 71
     3
 72
    18
 73
    14
 74
     0
 42
0.00000001
 43
0.00000001
 40
0.0
 40
0.0
 40
0.0
 40
0.0
 40
0.2500000000000006
 40
0.2500000000000006
 40
0.3750000000000007
 40
0.3750000000000007
 40
0.5000000000000008
 40
0.5000000000000008
 40
0.7500000000000009
 40
0.7500000000000009
 40
0.8750000000000004
 40
0.8750000000000004
 40
1.0
 40
1.0
 40
1.0
 40
1.0
 10
286.2135925482056
 20
226.9894698030897
 30
0.0
 10
286.6183088281679
 20
227.244690093269
 30
0.0
 10
286.8984303201191
 20
227.4563204387484
 30
0.0
 10
287.1277365705881
 20
227.7109580956672
 30
0.0
 10
287.1721817253623
 20
227.7854458048448
 30
0.0
 10
287.1941295468208
 20
227.9149917818178
 30
0.0
 10
287.1713530498826
 20
227.9692420686611
 30
0.0
 10
287.0045259671317
 20
228.1047354511971
 30
0.0
 10
286.7628183606088
 20
228.1593565205061
 30
0.0
 10
286.2027523784731
 20
228.2091002199679
 30
0.0
 10
285.9821015501551
 20
228.2203161951151
 30
0.0
 10
285.4764176641736
 20
228.2350875741155
 30
0.0
 10
285.1920751129364
 20
228.2386749563115
 30
0.0
 10
284.8761313781478
 20
228.240024501754
 30
0.0
  0
SPLINE
  5
D7
330
1F
100
AcDbEntity
  8
0
  6
Continuous
 62
     7
370
    15
100
AcDbSpline
210
0.0
220
0.0
230
1.0
 70
     8
 71
     3
 72
    18
 73
    14
 74
     0
 42
0.00000001
 43
0.00000001
 40
0.0
 40
0.0
 40
0.0
 40
0.0
 40
0.2500000000000008
 40
0.2500000000000008
 40
0.3750000000000007
 40
0.3750000000000007
 40
0.5000000000000007
 40
0.5000000000000007
 40
0.7500000000000003
 40
0.7500000000000003
 40
0.8750000000000001
 40
0.8750000000000001
 40
1.0
 40
1.0
 40
1.0
 40
1.0
 10
238.0080872011793
 20
226.9894698030899
 30
0.0
 10
237.6033709212169
 20
227.2446900932692
 30
0.0
 10
237.3232494292658
 20
227.4563204387486
 30
0.0
 10
237.0939431787968
 20
227.7109580956673
 30
0.0
 10
237.0494980240225
 20
227.785445804845
 30
0.0
 10
237.027550202564
 20
227.9149917818179
 30
0.0
 10
237.0503266995023
 20
227.9692420686613
 30
0.0
 10
237.2171537822532
 20
228.1047354511972
 30
0.0
 10
237.4588613887761
 20
228.1593565205062
 30
0.0
 10
238.0189273709118
 20
228.2091002199681
 30
0.0
 10
238.2395781992298
 20
228.2203161951153
 30
0.0
 10
238.7452620852114
 20
228.2350875741156
 30
0.0
 10
239.0296046364485
 20
228.2386749563117
 30
0.0
 10
239.3455483712371
 20
228.2400245017541
 30
0.0
  0
LWPOLYLINE
  5
D8
330
1F
100
AcDbEntity
  8
0
  6
Continuous
 62
     7
370
    15
100
AcDbPolyline
 90
        3
 70
   128
 43
0.0
 10
288.4836188572
 20
198.0130159177
 10
288.4921348708
 20
198.06873881
 10
288.4954522418
 20
198.094339005
  0
LWPOLYLINE
  5
D9
330
1F
100
AcDbEntity
  8
0
  6
Continuous
 62
     7
370
    15
100
AcDbPolyline
 90
        3
 70
   128
 43
0.0
 10
235.7382449376
 20
198.0119355836
 10
235.7295445221
 20
198.06873881
 10
235.7279612737
 20
198.0805926838
  0
LINE
  5
DA
330
1F
100
AcDbEntity
  8
0
  6
Continuous
 62
     8
370
     0
100
AcDbLine
 10
439.0885002034
 20
308.6899038286
 30
0.0
 11
168.5757479685
 21
308.6899038286
 31
0.0
  0
SPLINE
  5
DB
330
1F
100
AcDbEntity
  8
0
  6
Continuous
 62
     8
370
     0
100
AcDbSpline
210
0.0
220
0.0
230
1.0
 70
     8
 71
     3
 72
   108
 73
   104
 74
     0
 42
0.00000001
 43
0.00000001
 40
0.0
 40
0.0
 40
0.0
 40
0.0
 40
0.0312499999999993
 40
0.0312499999999993
 40
0.0624999999999986
 40
0.0624999999999986
 40
0.093749999999998
 40
0.093749999999998
 40
0.1093749999999976
 40
0.1093749999999976
 40
0.1249999999999973
 40
0.1249999999999973
 40
0.140624999999997
 40
0.140624999999997
 40
0.1484374999999968
 40
0.1484374999999968
 40
0.1562499999999967
 40
0.1562499999999967
 40
0.1601562499999966
 40
0.1601562499999966
 40
0.1640624999999965
 40
0.1640624999999965
 40
0.1718749999999963
 40
0.1718749999999963
 40
0.179687499999996
 40
0.179687499999996
 40
0.1835937499999959
 40
0.1835937499999959
 40
0.1874999999999959
 40
0.1874999999999959
 40
0.203124999999996
 40
0.203124999999996
 40
0.2109374999999961
 40
0.2109374999999961
 40
0.2187499999999961
 40
0.2187499999999961
 40
0.2343749999999962
 40
0.2343749999999962
 40
0.2499999999999962
 40
0.2499999999999962
 40
0.2812499999999963
 40
0.2812499999999963
 40
0.3124999999999963
 40
0.3124999999999963
 40
0.3437499999999963
 40
0.3437499999999963
 40
0.3749999999999964
 40
0.3749999999999964
 40
0.3906249999999964
 40
0.3906249999999964
 40
0.4062499999999965
 40
0.4062499999999965
 40
0.4374999999999965
 40
0.4374999999999965
 40
0.4999999999999966
 40
0.4999999999999966
 40
0.5312499999999966
 40
0.5312499999999966
 40
0.5624999999999966
 40
0.5624999999999966
 40
0.6249999999999964
 40
0.6249999999999964
 40
0.6874999999999964
 40
0.6874999999999964
 40
0.7187499999999964
 40
0.7187499999999964
 40
0.7499999999999964
 40
0.7499999999999964
 40
0.7812499999999966
 40
0.7812499999999966
 40
0.7968749999999967
 40
0.7968749999999967
 40
0.8124999999999968
 40
0.8124999999999968
 40
0.8281249999999969
 40
0.8281249999999969
 40
0.8359374999999969
 40
0.8359374999999969
 40
0.843749999999997
 40
0.843749999999997
 40
0.851562499999997
 40
0.851562499999997
 40
0.8593749999999971
 40
0.8593749999999971
 40
0.8671874999999971
 40
0.8671874999999971
 40
0.8749999999999971
 40
0.8749999999999971
 40
0.8789062499999973
 40
0.8789062499999973
 40
0.8828124999999974
 40
0.8828124999999974
 40
0.8906249999999976
 40
0.8906249999999976
 40
0.9062499999999979
 40
0.9062499999999979
 40
0.9218749999999982
 40
0.9218749999999982
 40
0.9374999999999986
 40
0.9374999999999986
 40
0.9687499999999992
 40
0.9687499999999992
 40
1.0
 40
1.0
 40
1.0
 40
1.0
 10
168.5757515951878
 20
308.6899037106749
 30
0.0
 10
168.5796416647237
 20
304.8212933960092
 30
0.0
 10
168.6004408512238
 20
300.9526920248861
 30
0.0
 10
168.7125973336349
 20
293.2162831715239
 30
0.0
 10
168.8031221960319
 20
289.3499557219186
 30
0.0
 10
169.117952430116
 20
281.6262755589931
 30
0.0
 10
169.3398421605268
 20
277.768599146275
 30
0.0
 10
169.8727672018
 20
271.995006052294
 30
0.0
 10
170.0843603858078
 20
270.0726675554689
 30
0.0
 10
170.6105872577359
 20
266.2346447548904
 30
0.0
 10
170.924741840849
 20
264.3183775566031
 30
0.0
 10
171.7092175774617
 20
260.5290746222032
 30
0.0
 10
172.178153437349
 20
258.6525725608094
 30
0.0
 10
173.079473847414
 20
255.8846534076831
 30
0.0
 10
173.4139111386795
 20
254.9701628105736
 30
0.0
 10
174.1637016970174
 20
253.1882003360588
 30
0.0
 10
174.5794195085004
 20
252.3177931948547
 30
0.0
 10
175.2855842156331
 20
251.053805898865
 30
0.0
 10
175.5348167800157
 20
250.6394541857714
 30
0.0
 10
176.0657232442777
 20
249.8271008269308
 30
0.0
 10
176.3491554511108
 20
249.427191847057
 30
0.0
 10
177.241757323154
 20
248.2735895450783
 30
0.0
 10
177.8930520330409
 20
247.5674279339459
 30
0.0
 10
179.3011269149828
 20
246.2731219437974
 30
0.0
 10
180.0564842325234
 20
245.6833856738417
 30
0.0
 10
181.2539456383073
 20
244.8708604986715
 30
0.0
 10
181.6650616637495
 20
244.6114670809261
 30
0.0
 10
182.50311171631
 20
244.1192772604192
 30
0.0
 10
182.9278785133441
 20
243.8878190699753
 30
0.0
 10
185.0768112428913
 20
242.7945089530687
 30
0.0
 10
186.8734351941715
 20
242.1173644564399
 30
0.0
 10
189.6330656849576
 20
241.266564815487
 30
0.0
 10
190.5657105610656
 20
241.0108344755421
 30
0.0
 10
192.4401778150309
 20
240.5448594037237
 30
0.0
 10
193.379635088453
 20
240.3350814277356
 30
0.0
 10
196.2030341111331
 20
239.7582194906531
 30
0.0
 10
198.0919314162368
 20
239.4428597013124
 30
0.0
 10
201.8779333678093
 20
238.8978051716435
 30
0.0
 10
203.7751002155518
 20
238.6687596641097
 30
0.0
 10
209.4749792072751
 20
238.0690741404574
 30
0.0
 10
213.2858689519391
 20
237.7837887516409
 30
0.0
 10
220.9190925760489
 20
237.3326674185245
 30
0.0
 10
224.7416182365393
 20
237.1688332104597
 30
0.0
 10
232.3937912081907
 20
236.9154978245554
 30
0.0
 10
236.2233832790646
 20
236.8263951960471
 30
0.0
 10
243.8789651724865
 20
236.6977273173412
 30
0.0
 10
247.7063286901087
 20
236.6583618392581
 30
0.0
 10
253.4469414150993
 20
236.6245813080062
 30
0.0
 10
255.3604056602801
 20
236.6176047249037
 30
0.0
 10
259.1872002167801
 20
236.6114753650859
 30
0.0
 10
261.1005566015041
 20
236.6107994987783
 30
0.0
 10
266.840035983529
 20
236.6432237034395
 30
0.0
 10
270.6656818088346
 20
236.7041979898132
 30
0.0
 10
282.1408043274158
 20
236.9931423929075
 30
0.0
 10
289.7884609112287
 20
237.3274350174584
 30
0.0
 10
301.2568336756894
 20
238.0106693245034
 30
0.0
 10
305.0798391777352
 20
238.2686144401046
 30
0.0
 10
312.7163812877338
 20
238.8383753349047
 30
0.0
 10
316.5309380875153
 20
239.1500144282415
 30
0.0
 10
327.9643107507843
 20
240.1591197910407
 30
0.0
 10
335.5724791471533
 20
240.9332937141333
 30
0.0
 10
350.7583645324771
 20
242.7010229386827
 30
0.0
 10
358.3360998514817
 20
243.6944461847771
 30
0.0
 10
369.6781295380135
 20
245.3616146665553
 30
0.0
 10
373.4548534206347
 20
245.9458138225914
 30
0.0
 10
380.9992615345235
 20
247.1793365851327
 30
0.0
 10
384.7666269687562
 20
247.8309569042994
 30
0.0
 10
392.2876244276023
 20
249.2331372826205
 30
0.0
 10
396.0412072675929
 20
249.9840516830446
 30
0.0
 10
401.6584160806262
 20
251.2052712445638
 30
0.0
 10
403.5288924987075
 20
251.6262236760939
 30
0.0
 10
407.2621826754155
 20
252.5233327131421
 30
0.0
 10
409.1262035231782
 20
253.0018384137248
 30
0.0
 10
412.8255513176182
 20
254.0376657173533
 30
0.0
 10
414.6625582971605
 20
254.5946193368582
 30
0.0
 10
417.3808706229799
 20
255.5446959931682
 30
0.0
 10
418.2804882673321
 20
255.8813797648439
 30
0.0
 10
420.0652846680665
 20
256.5992485621057
 30
0.0
 10
420.9509922595104
 20
256.9811368504174
 30
0.0
 10
422.6992396132866
 20
257.7826409679262
 30
0.0
 10
423.5647563922532
 20
258.1993267442479
 30
0.0
 10
425.2701714339322
 20
259.0801251638319
 30
0.0
 10
426.1072683419854
 20
259.5494238792832
 30
0.0
 10
427.715052683594
 20
260.6109633759686
 30
0.0
 10
428.4915505266653
 20
261.2049107501505
 30
0.0
 10
429.9148775902614
 20
262.4932062266331
 30
0.0
 10
430.564914037144
 20
263.1929828693764
 30
0.0
 10
431.4493356521045
 20
264.3244595496945
 30
0.0
 10
431.7296967845759
 20
264.7146584756047
 30
0.0
 10
432.2649332451927
 20
265.518061591701
 30
0.0
 10
432.5200396493551
 20
265.9323006900151
 30
0.0
 10
433.2381948884036
 20
267.1884861318034
 30
0.0
 10
433.6591795902948
 20
268.0494705086938
 30
0.0
 10
434.7991316873238
 20
270.6825040491357
 30
0.0
 10
435.3957414305989
 20
272.5043712718505
 30
0.0
 10
436.3940673425758
 20
276.2274568610852
 30
0.0
 10
436.7917381011291
 20
278.1051678895995
 30
0.0
 10
437.4547463186832
 20
281.8802067215368
 30
0.0
 10
437.7226565449855
 20
283.7774578102708
 30
0.0
 10
438.3922054308762
 20
289.4897447072231
 30
0.0
 10
438.6567019407127
 20
293.3278138244838
 30
0.0
 10
439.0011917009114
 20
301.0042404461941
 30
0.0
 10
439.0712568099131
 20
304.8473138327606
 30
0.0
 10
439.0885006067459
 20
308.689903710675
 30
0.0
  0
SPLINE
  5
DC
330
1F
100
AcDbEntity
  8
0
  6
Continuous
 62
     8
370
     0
100
AcDbSpline
210
0.0
220
0.0
230
1.0
 70
     8
 71
     3
 72
    12
 73
     8
 74
     0
 42
0.00000001
 43
0.00000001
 40
0.0
 40
0.0
 40
0.0
 40
0.0
 40
0.1409582836328368
 40
0.355716745429646
 40
0.5704784477658463
 40
0.7852377411866373
 40
1.0
 40
1.0
 40
1.0
 40
1.0
 10
441.6629291193871
 20
308.6850311488523
 30
0.0
 10
441.6637655621981
 20
308.6850294600334
 30
0.0
 10
441.6658763761695
 20
308.685025198197
 30
0.0
 10
441.3348423684293
 20
308.6856503275865
 30
0.0
 10
440.7507314534504
 20
308.6867540029104
 30
0.0
 10
439.9677504786796
 20
308.688235398647
 30
0.0
 10
439.3815849774508
 20
308.6893476826978
 30
0.0
 10
439.0885002034096
 20
308.6899038285626
 30
0.0
  0
SPLINE
  5
DD
330
1F
100
AcDbEntity
  8
0
  6
Continuous
 62
     8
370
     0
100
AcDbSpline
210
0.0
220
0.0
230
1.0
 70
     8
 71
     3
 72
    13
 73
     9
 74
     0
 42
0.00000001
 43
0.00000001
 40
0.0
 40
0.0
 40
0.0
 40
0.0
 40
0.0400620375120569
 40
0.2701389942289045
 40
0.5013841009898377
 40
0.7307029432220236
 40
0.9607009649741831
 40
1.0
 40
1.0
 40
1.0
 40
1.0
 10
251.9473527612476
 20
234.0482183613493
 30
0.0
 10
252.2159060009692
 20
234.0397778705031
 30
0.0
 10
254.0267650231414
 20
233.9828634984549
 30
0.0
 10
257.4455638065235
 20
234.1196713395871
 30
0.0
 10
262.1597317149993
 20
234.1549128212362
 30
0.0
 10
266.8728650345593
 20
234.1570266784226
 30
0.0
 10
270.2743753252727
 20
234.0626453076968
 30
0.0
 10
272.0781116628331
 20
234.1523868886574
 30
0.0
 10
272.3413343595652
 20
234.1654830493642
 30
0.0
  0
SPLINE
  5
DE
330
1F
100
AcDbEntity
  8
0
  6
Continuous
 62
     8
370
     0
100
AcDbSpline
210
0.0
220
0.0
230
1.0
 70
     8
 71
     3
 72
    17
 73
    13
 74
     0
 42
0.00000001
 43
0.00000001
 40
0.0
 40
0.0
 40
0.0
 40
0.0
 40
0.1139011073704669
 40
0.2316550753199268
 40
0.3375526400263318
 40
0.446522189465642
 40
0.5524197258207628
 40
0.6613890856697268
 40
0.7672868560130774
 40
0.8762556418225833
 40
0.9821536908436672
 40
1.0
 40
1.0
 40
1.0
 40
1.0
 10
168.5757479684738
 20
308.6899038285626
 30
0.0
 10
168.4202732880881
 20
308.6898376781171
 30
0.0
 10
168.1040647838287
 20
308.6897031395967
 30
0.0
 10
167.6581426856561
 20
308.6895131922246
 30
0.0
 10
167.2474007019845
 20
308.6893390429224
 30
0.0
 10
166.8886464331198
 20
308.6891865954095
 30
0.0
 10
166.5746163920905
 20
308.6890528307522
 30
0.0
 10
166.3204608498087
 20
308.6889454596587
 30
0.0
 10
166.1264427694273
 20
308.6888624088658
 30
0.0
 10
166.0103784450627
 20
308.6888137454702
 30
0.0
 10
165.960096372705
 20
308.6887920413403
 30
0.0
 10
165.9715228429043
 20
308.6887971467127
 30
0.0
 10
165.9731707590012
 20
308.6887978830053
 30
0.0
  0
SPLINE
  5
DF
330
1F
100
AcDbEntity
  8
0
  6
Continuous
 62
     8
370
     0
100
AcDbSpline
210
0.0
220
0.0
230
1.0
 70
     8
 71
     3
 72
    36
 73
    32
 74
     0
 42
0.00000001
 43
0.00000001
 40
0.0
 40
0.0
 40
0.0
 40
0.0
 40
0.0352384641324132
 40
0.0704229475682555
 40
0.1055534504944178
 40
0.1406299730986212
 40
0.175652515569454
 40
0.2106210780964381
 40
0.2455356608699239
 40
0.2803962640811763
 40
0.3152028879222911
 40
0.3499555325863279
 40
0.3846541982670941
 40
0.4192988851592988
 40
0.4538895934584621
 40
0.4884263233609155
 40
0.5229090750637386
 40
0.5573378487648083
 40
0.5917126446627484
 40
0.6260334629568365
 40
0.6603003038471211
 40
0.6945131675342603
 40
0.72867205421961
 40
0.7627769641051123
 40
0.796827897393376
 40
0.8308248542875625
 40
0.864767834991489
 40
0.898656839709465
 40
0.9324918686464374
 40
0.966272922007915
 40
1.0
 40
1.0
 40
1.0
 40
1.0
 10
262.1108398746923
 20
195.9955832101043
 30
0.0
 10
262.1108150210416
 20
195.9998176911248
 30
0.0
 10
262.1107653518129
 20
196.0082801664973
 30
0.0
 10
262.1106990378402
 20
196.0333493153879
 30
0.0
 10
262.1106383618805
 20
196.0672713406928
 30
0.0
 10
262.1105836138333
 20
196.1107229846973
 30
0.0
 10
262.1105343375651
 20
196.1632024625879
 30
0.0
 10
262.1104903068375
 20
196.2244667950582
 30
0.0
 10
262.1104512657647
 20
196.2941500845528
 30
0.0
 10
262.1104169993757
 20
196.3718683240152
 30
0.0
 10
262.1103873157519
 20
196.4571943631155
 30
0.0
 10
262.110362051623
 20
196.5496677888065
 30
0.0
 10
262.1103410715113
 20
196.6487956560401
 30
0.0
 10
262.1103242684203
 20
196.7540558279148
 30
0.0
 10
262.1103115639309
 20
196.8648997608828
 30
0.0
 10
262.1103029082789
 20
196.9807555598224
 30
0.0
 10
262.1102982802628
 20
197.1010310611069
 30
0.0
 10
262.1102976870246
 20
197.2251169870392
 30
0.0
 10
262.1103011636989
 20
197.3523901381107
 30
0.0
 10
262.1103087729321
 20
197.4822166127283
 30
0.0
 10
262.1103206042887
 20
197.6139550288129
 30
0.0
 10
262.1103367735048
 20
197.7469597606149
 30
0.0
 10
262.1103574217586
 20
197.8805840655691
 30
0.0
 10
262.1103827143554
 20
198.0141834921898
 30
0.0
 10
262.1104128410929
 20
198.1471180406577
 30
0.0
 10
262.1104480099089
 20
198.2787586962251
 30
0.0
 10
262.1104884651006
 20
198.4084773432283
 30
0.0
 10
262.1105344136599
 20
198.5356981528692
 30
0.0
 10
262.1105862933354
 20
198.6597196306148
 30
0.0
 10
262.1106437680688
 20
198.7803900079874
 30
0.0
 10
262.1106875985824
 20
198.8572614315903
 30
0.0
 10
262.1107094963172
 20
198.8956664125494
 30
0.0
  0
SPLINE
  5
E0
330
1F
100
AcDbEntity
  8
0
  6
Continuous
 62
     8
370
     0
100
AcDbSpline
210
0.0
220
0.0
230
1.0
 70
     8
 71
     3
 72
    19
 73
    15
 74
     0
 42
0.00000001
 43
0.00000001
 40
0.0
 40
0.0
 40
0.0
 40
0.0
 40
0.0243946865119527
 40
0.1733598389462049
 40
0.2670903018265185
 40
0.3572238050808831
 40
0.4419319645810292
 40
0.5027938771489171
 40
0.5630970938756644
 40
0.6254204305694454
 40
0.6924288608338375
 40
0.7899123751748874
 40
0.8934954138118908
 40
0.9999999999999999
 40
0.9999999999999999
 40
0.9999999999999999
 40
0.9999999999999999
 10
288.7355472015528
 20
202.9727929153158
 30
0.0
 10
288.7294513839454
 20
203.0085998354314
 30
0.0
 10
288.6861317061889
 20
203.2630602443145
 30
0.0
 10
288.4428707443416
 20
203.1961073483544
 30
0.0
 10
287.8767427644059
 20
202.8746249207348
 30
0.0
 10
287.1058996554281
 20
202.3461510454818
 30
0.0
 10
285.979510073099
 20
201.7117598920298
 30
0.0
 10
284.4272387639126
 20
201.0686371925737
 30
0.0
 10
282.5186547720512
 20
200.4645283536464
 30
0.0
 10
280.0106808090427
 20
199.8752919739
 30
0.0
 10
276.574955931306
 20
199.3449416456128
 30
0.0
 10
272.2592681959994
 20
199.0204411447955
 30
0.0
 10
267.262076349757
 20
198.8977689632728
 30
0.0
 10
263.844181061644
 20
198.8966390126973
 30
0.0
 10
262.1114682300444
 20
198.8960661806776
 30
0.0
  0
SPLINE
  5
E1
330
1F
100
AcDbEntity
  8
0
  6
Continuous
 62
     8
370
     0
100
AcDbSpline
210
0.0
220
0.0
230
1.0
 70
     8
 71
     3
 72
    11
 73
     7
 74
     0
 42
0.00000001
 43
0.00000001
 40
0.0
 40
0.0
 40
0.0
 40
0.0
 40
0.3288770566447529
 40
0.6577556714624895
 40
0.9866334177466679
 40
1.0
 40
1.0
 40
1.0
 40
1.0
 10
287.2649124877839
 20
198.8759794153883
 30
0.0
 10
287.5078311049612
 20
198.9520275795172
 30
0.0
 10
287.9936694902299
 20
199.1041242680805
 30
0.0
 10
288.5065549035381
 20
199.6576658658394
 30
0.0
 10
288.7741247300368
 20
200.1254093805335
 30
0.0
 10
288.7714068248076
 20
200.3817153308872
 30
0.0
 10
288.7713006751923
 20
200.3917255320264
 30
0.0
  0
SPLINE
  5
E2
330
1F
100
AcDbEntity
  8
0
  6
Continuous
 62
     8
370
     0
100
AcDbSpline
210
0.0
220
0.0
230
1.0
 70
     8
 71
     3
 72
    32
 73
    28
 74
     0
 42
0.00000001
 43
0.00000001
 40
0.0
 40
0.0
 40
0.0
 40
0.0
 40
0.1878372206702704
 40
0.3773077177484475
 40
0.6162016569912889
 40
0.6675357795501324
 40
0.7297325872677919
 40
0.7632139163542211
 40
0.7856876584576986
 40
0.8204309859456248
 40
0.8388865443271083
 40
0.8449774111856411
 40
0.85742655126229
 40
0.8823844498725713
 40
0.907133705255144
 40
0.9290567403677241
 40
0.9513609283662137
 40
0.9588745900664084
 40
0.9784084425068718
 40
0.9828531991647146
 40
0.9843445477848479
 40
0.9942025414269053
 40
0.9961521959987963
 40
0.9971487876579338
 40
0.9987460212034464
 40
0.999695370355812
 40
1.0
 40
1.0
 40
1.0
 40
1.0
 10
287.2649529867882
 20
198.8759713880479
 30
0.0
 10
287.2715576038019
 20
198.9236934939042
 30
0.0
 10
287.2848242660913
 20
199.0195526573999
 30
0.0
 10
287.303120384351
 20
199.1689289664266
 30
0.0
 10
287.3149248362802
 20
199.2807807897625
 30
0.0
 10
287.3222575865998
 20
199.360550756917
 30
0.0
 10
287.3251081634011
 20
199.3934471566099
 30
0.0
 10
287.3272585750608
 20
199.4196250016271
 30
0.0
 10
287.3288375586707
 20
199.4396012268075
 30
0.0
 10
287.3300937969815
 20
199.4561660440661
 30
0.0
 10
287.3310327285341
 20
199.4690696307068
 30
0.0
 10
287.3316048665158
 20
199.4770993684641
 30
0.0
 10
287.3322660135518
 20
199.4865211254685
 30
0.0
 10
287.3331911963178
 20
199.4999312809118
 30
0.0
 10
287.3342339265985
 20
199.5153048493376
 30
0.0
 10
287.335233678043
 20
199.5300387686543
 30
0.0
 10
287.3360192181574
 20
199.5410484924267
 30
0.0
 10
287.3367555841664
 20
199.5515150474851
 30
0.0
 10
287.3372256743115
 20
199.5581753023617
 30
0.0
 10
287.3375120832133
 20
199.5635296646929
 30
0.0
 10
287.3376664492098
 20
199.5668432157047
 30
0.0
 10
287.3377621644441
 20
199.5696231150194
 30
0.0
 10
287.3377818650832
 20
199.5722816747926
 30
0.0
 10
287.3377853731364
 20
199.5732240446838
 30
0.0
 10
287.3377911998725
 20
199.5739593526442
 30
0.0
 10
287.3377943336691
 20
199.5745505904462
 30
0.0
 10
287.3378021298846
 20
199.5748118670642
 30
0.0
 10
287.3378040238227
 20
199.5748753391128
 30
0.0
  0
SPLINE
  5
E3
330
1F
100
AcDbEntity
  8
0
  6
Continuous
 62
     8
370
     0
100
AcDbSpline
210
0.0
220
0.0
230
1.0
 70
     8
 71
     3
 72
    12
 73
     8
 74
     0
 42
0.00000001
 43
0.00000001
 40
0.0
 40
0.0
 40
0.0
 40
0.0
 40
0.1655591407666502
 40
0.3307376565370945
 40
0.6606093912815902
 40
0.9890984938078168
 40
1.0
 40
1.0
 40
1.0
 40
1.0
 10
287.3378033804087
 20
199.5748736777021
 30
0.0
 10
287.3416326213552
 20
199.6612128786267
 30
0.0
 10
287.3492822997185
 20
199.8336927842898
 30
0.0
 10
287.3501384451596
 20
200.1342077437349
 30
0.0
 10
287.3294197180767
 20
200.426903921618
 30
0.0
 10
287.3037927346991
 20
200.6228779604739
 30
0.0
 10
287.2647581510629
 20
200.6564250818795
 30
0.0
 10
287.2635043280511
 20
200.6575026430799
 30
0.0
  0
SPLINE
  5
E4
330
1F
100
AcDbEntity
  8
0
  6
Continuous
 62
     8
370
     0
100
AcDbSpline
210
0.0
220
0.0
230
1.0
 70
     8
 71
     3
 72
    19
 73
    15
 74
     0
 42
0.00000001
 43
0.00000001
 40
0.0
 40
0.0
 40
0.0
 40
0.0
 40
0.0243946865003536
 40
0.1733598388637763
 40
0.2670903016995231
 40
0.3572238049110313
 40
0.4419319643709005
 40
0.5027938948244061
 40
0.563097087142
 40
0.6254204238061477
 40
0.6924288540386787
 40
0.7899123870297283
 40
0.8934954160989298
 40
1.0
 40
1.0
 40
1.0
 40
1.0
 10
235.486132191339
 20
202.9727929153158
 30
0.0
 10
235.4922280087675
 20
203.0085998354066
 30
0.0
 10
235.5355476852528
 20
203.263060244113
 30
0.0
 10
235.7788086868972
 20
203.1961073536824
 30
0.0
 10
236.3449365468796
 20
202.8746249093963
 30
0.0
 10
237.1157800250394
 20
202.3461510854379
 30
0.0
 10
238.2421685203655
 20
201.711759720845
 30
0.0
 10
239.7944430184682
 20
201.0686374707583
 30
0.0
 10
241.7030243626731
 20
200.4645281718323
 30
0.0
 10
244.2109987538422
 20
199.8752920073094
 30
0.0
 10
247.6467236687693
 20
199.3449415758248
 30
0.0
 10
251.9624117120138
 20
199.0204412055122
 30
0.0
 10
256.9596036156554
 20
198.8977689474449
 30
0.0
 10
260.3774987202426
 20
198.896639007386
 30
0.0
 10
262.1102115193693
 20
198.8960661806776
 30
0.0
  0
SPLINE
  5
E5
330
1F
100
AcDbEntity
  8
0
  6
Continuous
 62
     8
370
     0
100
AcDbSpline
210
0.0
220
0.0
230
1.0
 70
     8
 71
     3
 72
    12
 73
     8
 74
     0
 42
0.00000001
 43
0.00000001
 40
0.0
 40
0.0
 40
0.0
 40
0.0
 40
0.1250215382660687
 40
0.2497556485936507
 40
0.4988573986829513
 40
0.7469150577846821
 40
1.0
 40
1.0
 40
1.0
 40
1.0
 10
236.8838760124831
 20
199.5748736777021
 30
0.0
 10
236.8800210970271
 20
199.6612778327035
 30
0.0
 10
236.8723201286712
 20
199.8338874971889
 30
0.0
 10
236.8719755051544
 20
200.1331083546239
 30
0.0
 10
236.88874404696
 20
200.4357981270414
 30
0.0
 10
236.9431935779692
 20
200.6852103367643
 30
0.0
 10
237.0269574271772
 20
200.7320724431318
 30
0.0
 10
237.0692594962506
 20
200.7557385482503
 30
0.0
  0
SPLINE
  5
E6
330
1F
100
AcDbEntity
  8
0
  6
Continuous
 62
     8
370
     0
100
AcDbSpline
210
0.0
220
0.0
230
1.0
 70
     8
 71
     3
 72
    10
 73
     6
 74
     0
 42
0.00000001
 43
0.00000001
 40
0.0
 40
0.0
 40
0.0
 40
0.0
 40
0.2273595122611408
 40
0.6140404675216005
 40
0.9999999999999999
 40
0.9999999999999999
 40
0.9999999999999999
 40
0.9999999999999999
 10
257.6164841706245
 20
196.0394241728498
 30
0.0
 10
257.9570259452916
 20
196.0360949587478
 30
0.0
 10
258.8767430420063
 20
196.0271035945277
 30
0.0
 10
260.3750185661668
 20
196.0229499698606
 30
0.0
 10
261.5325930736349
 20
196.0223742586381
 30
0.0
 10
262.1108399074487
 20
196.0220866718008
 30
0.0
  0
SPLINE
  5
E7
330
1F
100
AcDbEntity
  8
0
  6
Continuous
 62
     8
370
     0
100
AcDbSpline
210
0.0
220
0.0
230
1.0
 70
     8
 71
     3
 72
     8
 73
     4
 74
     0
 42
0.00000001
 43
0.00000001
 40
0.0
 40
0.0
 40
0.0
 40
0.0
 40
1.0
 40
1.0
 40
1.0
 40
1.0
 10
236.9567592025396
 20
198.876127544017
 30
0.0
 10
236.9212743736811
 20
199.1315507042679
 30
0.0
 10
236.8960536646944
 20
199.3651478283629
 30
0.0
 10
236.8838959478218
 20
199.5749732500833
 30
0.0
  0
SPLINE
  5
E8
330
1F
100
AcDbEntity
  8
0
  6
Continuous
 62
     8
370
     0
100
AcDbSpline
210
0.0
220
0.0
230
1.0
 70
     8
 71
     3
 72
    14
 73
    10
 74
     0
 42
0.00000001
 43
0.00000001
 40
0.0
 40
0.0
 40
0.0
 40
0.0
 40
0.0169746031848015
 40
0.2015340575909335
 40
0.3860944588250255
 40
0.570656276118281
 40
0.7552213098134415
 40
0.9397848137715362
 40
1.0
 40
1.0
 40
1.0
 40
1.0
 10
236.956742690721
 20
198.8758602060987
 30
0.0
 10
236.9439523205575
 20
198.8784525613674
 30
0.0
 10
236.7920963290461
 20
198.9092307698665
 30
0.0
 10
236.5083836250391
 20
199.0047733414359
 30
0.0
 10
236.1432494992253
 20
199.2250524552934
 30
0.0
 10
235.8348561192306
 20
199.5191530833871
 30
0.0
 10
235.6067644629921
 20
199.8734684726688
 30
0.0
 10
235.4767223505341
 20
200.177959164884
 30
0.0
 10
235.4566291832468
 20
200.3622221504611
 30
0.0
 10
235.4516862945942
 20
200.4075505652143
 30
0.0
  0
SPLINE
  5
E9
330
1F
100
AcDbEntity
  8
0
  6
Continuous
 62
     8
370
     0
100
AcDbSpline
210
0.0
220
0.0
230
1.0
 70
     8
 71
     3
 72
    20
 73
    16
 74
     0
 42
0.00000001
 43
0.00000001
 40
0.0
 40
0.0
 40
0.0
 40
0.0
 40
0.0192436028576875
 40
0.1319359738812443
 40
0.2465229660710543
 40
0.3154816682835255
 40
0.3906974768844125
 40
0.4721827194969699
 40
0.5445952793264071
 40
0.6103742899848933
 40
0.699264201090074
 40
0.7865285581964591
 40
0.8608926538857056
 40
0.9223559032927248
 40
1.0
 40
1.0
 40
1.0
 40
1.0
 10
286.9147221612124
 20
226.5496709265424
 30
0.0
 10
286.9012996566667
 20
226.5377236094934
 30
0.0
 10
286.8092736871923
 20
226.4558116659871
 30
0.0
 10
286.4580940740641
 20
226.2423095336963
 30
0.0
 10
285.9367141211138
 20
225.9448731391145
 30
0.0
 10
285.3630620801433
 20
225.6424425837276
 30
0.0
 10
284.7947422567099
 20
225.3592575141938
 30
0.0
 10
284.1417023654382
 20
225.0540361060224
 30
0.0
 10
283.4472189970231
 20
224.7490164319056
 30
0.0
 10
282.6675312538959
 20
224.4268927090442
 30
0.0
 10
281.7649684155971
 20
224.0797266590141
 30
0.0
 10
280.7493984572687
 20
223.7221715201988
 30
0.0
 10
279.7806123319156
 20
223.4087275869019
 30
0.0
 10
278.8080126740558
 20
223.1140766004926
 30
0.0
 10
278.1336978099288
 20
222.9313440740224
 30
0.0
 10
277.7573225142746
 20
222.8293501653387
 30
0.0
  0
SPLINE
  5
EA
330
1F
100
AcDbEntity
  8
0
  6
Continuous
 62
     8
370
     0
100
AcDbSpline
210
0.0
220
0.0
230
1.0
 70
     8
 71
     3
 72
    46
 73
    42
 74
     0
 42
0.00000001
 43
0.00000001
 40
0.0
 40
0.0
 40
0.0
 40
0.0
 40
0.0191599790050031
 40
0.0382375021324214
 40
0.0572346990928512
 40
0.0761503148575581
 40
0.0949861970165867
 40
0.1137483728146983
 40
0.1324431093585748
 40
0.1510768556399584
 40
0.16965649003256
 40
0.1881891733750132
 40
0.2066818813359272
 40
0.2251417443796888
 40
0.2435757103270143
 40
0.2619899707239428
 40
0.2803896593432976
 40
0.2987786785200627
 40
0.317160333106021
 40
0.3355390127472612
 40
0.3539189321412469
 40
0.3723036984042127
 40
0.3906962147303069
 40
0.4090986367958371
 40
0.4275123457107509
 40
0.4459379597080636
 40
0.4643754097358116
 40
0.4828240422797033
 40
0.5012827234816528
 40
0.5197499350091109
 40
0.5382238675038193
 40
0.5567025244966081
 40
0.5751838468149011
 40
0.628466607899398
 40
0.6816752068648029
 40
0.7347889227105799
 40
0.7878312414566282
 40
0.8408447695940087
 40
0.8938561394228706
 40
0.9469001566860963
 40
1.0
 40
1.0
 40
1.0
 40
1.0
 10
262.1102841593748
 20
220.2384689318922
 30
0.0
 10
262.1104101880882
 20
220.0770977504019
 30
0.0
 10
262.1106617031446
 20
219.7550498559477
 30
0.0
 10
262.1108247140926
 20
219.2757470166103
 30
0.0
 10
262.1106439891887
 20
218.8007818184117
 30
0.0
 10
262.1104849464643
 20
218.3306727145213
 30
0.0
 10
262.1105166759867
 20
217.8656544581299
 30
0.0
 10
262.1105799898868
 20
217.4058623468393
 30
0.0
 10
262.1106421064063
 20
216.9514128072973
 30
0.0
 10
262.1106921521886
 20
216.5024250595242
 30
0.0
 10
262.1107277533
 20
216.0590058136445
 30
0.0
 10
262.1107299548587
 20
215.6212371705768
 30
0.0
 10
262.1107576191801
 20
215.1892168198263
 30
0.0
 10
262.1108188701601
 20
214.7629995387186
 30
0.0
 10
262.1108779487031
 20
214.3425920102625
 30
0.0
 10
262.1109110508388
 20
213.9279825047898
 30
0.0
 10
262.1109199610971
 20
213.519151654564
 30
0.0
 10
262.1109217773405
 20
213.1160608959901
 30
0.0
 10
262.1109304849824
 20
212.7186213199076
 30
0.0
 10
262.1109454702885
 20
212.3266777310984
 30
0.0
 10
262.1109603638013
 20
211.940010833942
 30
0.0
 10
262.1109675549653
 20
211.5583546611037
 30
0.0
 10
262.1109628900741
 20
211.1814060128994
 30
0.0
 10
262.1109494327827
 20
210.8088318164578
 30
0.0
 10
262.1109274114003
 20
210.4402667992467
 30
0.0
 10
262.1108929169791
 20
210.0753167847934
 30
0.0
 10
262.1108463873537
 20
209.7135690340697
 30
0.0
 10
262.1107953685436
 20
209.3545986595663
 30
0.0
 10
262.1107529734255
 20
208.9979721559061
 30
0.0
 10
262.1107327165346
 20
208.643248289436
 30
0.0
 10
262.1107426768618
 20
208.2899790326624
 30
0.0
 10
262.110781012288
 20
207.9377093765356
 30
0.0
 10
262.1108708038458
 20
207.3652133722851
 30
0.0
 10
262.1109692516689
 20
206.5728122445508
 30
0.0
 10
262.1108300378627
 20
205.55089771927
 30
0.0
 10
262.110760411669
 20
204.5122619688065
 30
0.0
 10
262.110570433746
 20
203.4499757206177
 30
0.0
 10
262.1108354046473
 20
202.3598428073519
 30
0.0
 10
262.1120212363727
 20
201.2386115395936
 30
0.0
 10
262.1095080666977
 20
200.0851777878787
 30
0.0
 10
262.1108145741692
 20
199.2925787811157
 30
0.0
 10
262.1114681714817
 20
198.8960708451781
 30
0.0
  0
SPLINE
  5
EB
330
1F
100
AcDbEntity
  8
0
  6
Continuous
 62
     8
370
     0
100
AcDbSpline
210
0.0
220
0.0
230
1.0
 70
     8
 71
     3
 72
    20
 73
    16
 74
     0
 42
0.00000001
 43
0.00000001
 40
0.0
 40
0.0
 40
0.0
 40
0.0
 40
0.0192436026119147
 40
0.1319359721962025
 40
0.2465229899841977
 40
0.3154816913159516
 40
0.3906974989562076
 40
0.472182697684659
 40
0.5445953041335035
 40
0.6103742623105094
 40
0.6992641722804182
 40
0.7865285282722921
 40
0.8608926230117855
 40
0.9223559403415797
 40
1.0
 40
1.0
 40
1.0
 40
1.0
 10
237.3069572316794
 20
226.5496709265424
 30
0.0
 10
237.3203797391561
 20
226.5377236096476
 30
0.0
 10
237.4124057287258
 20
226.4558116671988
 30
0.0
 10
237.7635846456501
 20
226.2423094728058
 30
0.0
 10
238.2849675185343
 20
225.9448731967136
 30
0.0
 10
238.8586189280442
 20
225.6424425595612
 30
0.0
 10
239.4269396184748
 20
225.3592576571143
 30
0.0
 10
240.0799760469962
 20
225.0540358167703
 30
0.0
 10
240.7744630127856
 20
224.7490167316213
 30
0.0
 10
241.5541474634001
 20
224.4268925010334
 30
0.0
 10
242.4567111955852
 20
224.0797266864628
 30
0.0
 10
243.4722810190719
 20
223.7221715553715
 30
0.0
 10
244.4410669604536
 20
223.4087273639896
 30
0.0
 10
245.413668566319
 20
223.114076892212
 30
0.0
 10
246.0879830113398
 20
222.9313441327592
 30
0.0
 10
246.4643578099398
 20
222.8293501653387
 30
0.0
  0
SPLINE
  5
EC
330
1F
100
AcDbEntity
  8
0
  6
Continuous
 62
     8
370
     0
100
AcDbSpline
210
0.0
220
0.0
230
1.0
 70
     8
 71
     3
 72
    34
 73
    30
 74
     0
 42
0.00000001
 43
0.00000001
 40
0.0
 40
0.0
 40
0.0
 40
0.0
 40
0.0463410832316869
 40
0.1659610323906874
 40
0.205874130869903
 40
0.2331315195857575
 40
0.273963753348656
 40
0.2875568646623938
 40
0.3389345122729279
 40
0.411446450358726
 40
0.4558154510997431
 40
0.5001411513935629
 40
0.5888498184729799
 40
0.6149005065171539
 40
0.6539642109080078
 40
0.6734844562553395
 40
0.6799908337759057
 40
0.6930172277536506
 40
0.7126150897929405
 40
0.7321846686166267
 40
0.7515899741563214
 40
0.7711070143695403
 40
0.8101980768520977
 40
0.8297543104141415
 40
0.8616780075548245
 40
0.8740392078431228
 40
0.8863485816281191
 40
0.948248521363732
 40
1.0
 40
1.0
 40
1.0
 40
1.0
 10
286.9665466228182
 20
196.50202940408
 30
0.0
 10
286.9721737363157
 20
196.5441856780503
 30
0.0
 10
286.9923260827932
 20
196.6951596791299
 30
0.0
 10
287.0168839714433
 20
196.8789900926168
 30
0.0
 10
287.038657607741
 20
197.0416018856069
 30
0.0
 10
287.0511145639065
 20
197.1346927320338
 30
0.0
 10
287.0604306917014
 20
197.2044041943948
 30
0.0
 10
287.0723779234302
 20
197.2940370626019
 30
0.0
 10
287.0877135249289
 20
197.4094955129677
 30
0.0
 10
287.1060058932994
 20
197.5486045403317
 30
0.0
 10
287.1230494647183
 20
197.6794444824465
 30
0.0
 10
287.1413997215057
 20
197.8212414661235
 30
0.0
 10
287.157153358711
 20
197.9455736913283
 30
0.0
 10
287.1717612467133
 20
198.0634935007203
 30
0.0
 10
287.1796092769393
 20
198.1276598484641
 30
0.0
 10
287.1855161375474
 20
198.1765153915458
 30
0.0
 10
287.1890269690174
 20
198.2056963302332
 30
0.0
 10
287.1925182062071
 20
198.2348359799161
 30
0.0
 10
287.1971390273777
 20
198.2734863170029
 30
0.0
 10
287.2022599965244
 20
198.3165631829221
 30
0.0
 10
287.2072084786805
 20
198.359263719522
 30
0.0
 10
287.2138262132498
 20
198.4158364818013
 30
0.0
 10
287.2202508297819
 20
198.471896170127
 30
0.0
 10
287.2275676212131
 20
198.5361369348336
 30
0.0
 10
287.2326128980673
 20
198.5809610831037
 30
0.0
 10
287.2370255434515
 20
198.6203462144668
 30
0.0
 10
287.2436644097286
 20
198.6802667387234
 30
0.0
 10
287.2531514154849
 20
198.7662801719647
 30
0.0
 10
287.2612128738842
 20
198.8413264724988
 30
0.0
 10
287.2648836806204
 20
198.8754990070299
 30
0.0
  0
SPLINE
  5
ED
330
1F
100
AcDbEntity
  8
0
  6
Continuous
 62
     8
370
     0
100
AcDbSpline
210
0.0
220
0.0
230
1.0
 70
     8
 71
     3
 72
    32
 73
    28
 74
     0
 42
0.00000001
 43
0.00000001
 40
0.0
 40
0.0
 40
0.0
 40
0.0
 40
0.0196852061775457
 40
0.0312253668052688
 40
0.0429082273776412
 40
0.0662773161658255
 40
0.0897741342740488
 40
0.113068081352746
 40
0.136758648730282
 40
0.1597359608233105
 40
0.1831265936859299
 40
0.2065255640760618
 40
0.2303228523750029
 40
0.2537243572836827
 40
0.2771981879655984
 40
0.3007543301238699
 40
0.3474819864364478
 40
0.3946126635404949
 40
0.4412976247622596
 40
0.4878160008545696
 40
0.5343212497851645
 40
0.5812958184176602
 40
0.6282612557942557
 40
0.7209451728689844
 40
0.8131044901891225
 40
0.9057258643778161
 40
1.0
 40
1.0
 40
1.0
 40
1.0
 10
281.4997966455607
 20
185.6388085403158
 30
0.0
 10
281.6630511082145
 20
185.6974801740919
 30
0.0
 10
281.9220110821657
 20
185.7905471843737
 30
0.0
 10
282.2333537233987
 20
185.9262063830681
 30
0.0
 10
282.5520322020345
 20
186.0763376076511
 30
0.0
 10
282.910646860441
 20
186.2708138649337
 30
0.0
 10
283.2844919469267
 20
186.5103454320231
 30
0.0
 10
283.6112355797385
 20
186.755707047052
 30
0.0
 10
283.8950276370063
 20
187.0027237592284
 30
0.0
 10
284.144715940093
 20
187.2525295685063
 30
0.0
 10
284.3651705574339
 20
187.5032511671893
 30
0.0
 10
284.5633247363396
 20
187.758348317233
 30
0.0
 10
284.7395097157214
 20
188.0144547485917
 30
0.0
 10
284.8973511275633
 20
188.271554950058
 30
0.0
 10
285.03982618712
 20
188.5284549270245
 30
0.0
 10
285.2122196227999
 20
188.8710648700332
 30
0.0
 10
285.3998253736915
 20
189.3009629186627
 30
0.0
 10
285.5927853889739
 20
189.8168050683049
 30
0.0
 10
285.7601202308279
 20
190.3322424103287
 30
0.0
 10
285.9088878068559
 20
190.8456874041226
 30
0.0
 10
286.04334289404
 20
191.3604242406269
 30
0.0
 10
286.1658140677302
 20
191.8770011764686
 30
0.0
 10
286.315615472323
 20
192.563811384071
 30
0.0
 10
286.4827681084977
 20
193.4173803200156
 30
0.0
 10
286.659660987185
 20
194.4385526760126
 30
0.0
 10
286.8241568704263
 20
195.4665084230351
 30
0.0
 10
286.9188018420851
 20
196.1548127749092
 30
0.0
 10
286.9665428119092
 20
196.502008370371
 30
0.0
  0
SPLINE
  5
EE
330
1F
100
AcDbEntity
  8
0
  6
Continuous
 62
     8
370
     0
100
AcDbSpline
210
0.0
220
0.0
230
1.0
 70
    24
 71
     3
 72
    14
 73
    10
 74
     0
 42
0.00000001
 43
0.00000001
 40
0.0
 40
0.0
 40
0.0
 40
0.0
 40
0.0699154047748841
 40
0.2027838142709588
 40
0.4688438080834448
 40
0.6010946850101118
 40
0.7334128636912823
 40
0.8663962837525013
 40
1.0
 40
1.0
 40
1.0
 40
1.0
 10
262.1108398710689
 20
196.0220866718008
 30
0.0
 10
262.1108398710689
 20
195.7690364345735
 30
0.0
 10
262.1108398710689
 20
195.0350852764226
 30
0.0
 10
262.1108398710689
 20
192.8948004458277
 30
0.0
 10
262.1108398710689
 20
190.3567123432276
 30
0.0
 10
262.1108398710689
 20
187.9245455850242
 30
0.0
 10
262.1108398710689
 20
186.2781646038176
 30
0.0
 10
262.1108398710689
 20
184.9735138220293
 30
0.0
 10
262.1108398710689
 20
184.553648309229
 30
0.0
 10
262.1108398710689
 20
184.3432270803167
 30
0.0
  0
SPLINE
  5
EF
330
1F
100
AcDbEntity
  8
0
  6
Continuous
 62
     8
370
     0
100
AcDbSpline
210
0.0
220
0.0
230
1.0
 70
     8
 71
     3
 72
    32
 73
    28
 74
     0
 42
0.00000001
 43
0.00000001
 40
0.0
 40
0.0
 40
0.0
 40
0.0
 40
0.0213499954942334
 40
0.0328705810447889
 40
0.0445336013184192
 40
0.0678630037900532
 40
0.091319918666712
 40
0.1145742924752903
 40
0.1382246403220853
 40
0.161162931429338
 40
0.1845138413884025
 40
0.2078730747158586
 40
0.2316299495128001
 40
0.2549917130545837
 40
0.2784256732009215
 40
0.3019418171451951
 40
0.3485901186923013
 40
0.3956407566049304
 40
0.4422464355677256
 40
0.4886858123025623
 40
0.5351120841687521
 40
0.5820068787194486
 40
0.6288925575213069
 40
0.7214190750797136
 40
0.813421883779709
 40
0.9058859628386813
 40
1.0
 40
1.0
 40
1.0
 40
1.0
 10
242.7630937712578
 20
185.6234081902219
 30
0.0
 10
242.5856040150703
 20
185.687125629381
 30
0.0
 10
242.3123397224874
 20
185.7852253806625
 30
0.0
 10
241.9882617293156
 20
185.9261952444175
 30
0.0
 10
241.6696843550793
 20
186.0763440251295
 30
0.0
 10
241.3110200318459
 20
186.2708116892304
 30
0.0
 10
240.9371901216507
 20
186.5103458960229
 30
0.0
 10
240.6104458706089
 20
186.7557070894719
 30
0.0
 10
240.326651278449
 20
187.0027236927338
 30
0.0
 10
240.0769635900187
 20
187.2525295740314
 30
0.0
 10
239.8565088131213
 20
187.5032511662479
 30
0.0
 10
239.6583546075048
 20
187.7583483154269
 30
0.0
 10
239.482169898975
 20
188.0144547568826
 30
0.0
 10
239.3243274570525
 20
188.2715548961774
 30
0.0
 10
239.1818563079009
 20
188.5284550172699
 30
0.0
 10
239.0094580079136
 20
188.8710647863267
 30
0.0
 10
238.821854625536
 20
189.3009629400788
 30
0.0
 10
238.6288938425826
 20
189.8168050626058
 30
0.0
 10
238.4615592048555
 20
190.3322424118426
 30
0.0
 10
238.312791574939
 20
190.8456874037215
 30
0.0
 10
238.1783365005684
 20
191.3604242407216
 30
0.0
 10
238.0558653295726
 20
191.8770011764956
 30
0.0
 10
237.9060638935138
 20
192.5638113837936
 30
0.0
 10
237.7389115021882
 20
193.4173803223374
 30
0.0
 10
237.5620176141177
 20
194.4385526608161
 30
0.0
 10
237.3975255172026
 20
195.4665084475261
 30
0.0
 10
237.3028785555028
 20
196.1548127788837
 30
0.0
 10
237.2551365809826
 20
196.502008370371
 30
0.0
  0
SPLINE
  5
F0
330
1F
100
AcDbEntity
  8
0
  6
Continuous
 62
     8
370
     0
100
AcDbSpline
210
0.0
220
0.0
230
1.0
 70
     8
 71
     3
 72
    19
 73
    15
 74
     0
 42
0.00000001
 43
0.00000001
 40
0.0
 40
0.0
 40
0.0
 40
0.0
 40
0.2499999999999998
 40
0.2499999999999998
 40
0.4999999999999996
 40
0.4999999999999996
 40
0.7499999999999993
 40
0.7499999999999993
 40
0.8749999999999988
 40
0.8749999999999988
 40
0.9374999999999986
 40
0.9687499999999992
 40
0.9687499999999992
 40
1.0
 40
1.0
 40
1.0
 40
1.0
 10
236.9568038358643
 20
198.8755364402863
 30
0.0
 10
236.975093030645
 20
198.7112144106556
 30
0.0
 10
236.9934353111178
 20
198.5383039693196
 30
0.0
 10
237.0360889931332
 20
198.1742533565142
 30
0.0
 10
237.0603232273136
 20
197.9840209838439
 30
0.0
 10
237.1112870817134
 20
197.5872540664291
 30
0.0
 10
237.1384611829466
 20
197.3808211023815
 30
0.0
 10
237.1810461506222
 20
197.0597285818388
 30
0.0
 10
237.1955527126075
 20
196.9507904039174
 30
0.0
 10
237.2176816112323
 20
196.7846053534223
 30
0.0
 10
237.2288374753871
 20
196.7008184736687
 30
0.0
 10
237.2400939005201
 20
196.6160067316568
 30
0.0
 10
237.2476142924294
 20
196.5592397674144
 30
0.0
 10
237.2513749401096
 20
196.5311040294777
 30
0.0
 10
237.2551554100641
 20
196.5021350319016
 30
0.0
  0
LINE
  5
F1
330
1F
100
AcDbEntity
  8
0
  6
Continuous
 62
     8
370
     0
100
AcDbLine
 10
168.5757479685
 20
308.6899038286
 30
0.0
 11
168.5757479685
 21
309.7932034985
 31
0.0
  0
LINE
  5
F2
330
1F
100
AcDbEntity
  8
0
  6
Continuous
 62
     8
370
     0
100
AcDbLine
 10
439.0885002034
 20
308.6899038286
 30
0.0
 11
439.0885002034
 21
309.7932034985
 31
0.0
  0
SPLINE
  5
F3
330
1F
100
AcDbEntity
  8
0
  6
Continuous
 62
     8
370
     0
100
AcDbSpline
210
0.0
220
0.0
230
1.0
 70
     8
 71
     3
 72
    11
 73
     7
 74
     0
 42
0.00000001
 43
0.00000001
 40
0.0
 40
0.0
 40
0.0
 40
0.0
 40
0.1096329129597376
 40
0.3411240353871181
 40
0.802009766836697
 40
1.0
 40
1.0
 40
1.0
 40
1.0
 10
266.8810152503042
 20
233.5815586962415
 30
0.0
 10
266.9109837171897
 20
233.6007434783159
 30
0.0
 10
267.0042309372292
 20
233.6604371424042
 30
0.0
 10
267.4682405082251
 20
233.7882636547297
 30
0.0
 10
268.196416486488
 20
233.8980946040955
 30
0.0
 10
268.7985880608083
 20
233.9410237383912
 30
0.0
 10
268.9795387963144
 20
233.9539238133146
 30
0.0
  0
SPLINE
  5
F4
330
1F
100
AcDbEntity
  8
0
  6
Continuous
 62
     8
370
     0
100
AcDbSpline
210
0.0
220
0.0
230
1.0
 70
     8
 71
     3
 72
    19
 73
    15
 74
     0
 42
0.00000001
 43
0.00000001
 40
0.0
 40
0.0
 40
0.0
 40
0.0
 40
0.0451412773313389
 40
0.0927216092077822
 40
0.1427749482751816
 40
0.1953318357662399
 40
0.2504196726720432
 40
0.3837941513257098
 40
0.5031036665289768
 40
0.6204168589126358
 40
0.751480009699603
 40
0.8388639999351326
 40
0.9216549267696075
 40
1.0
 40
1.0
 40
1.0
 40
1.0
 10
257.3169128064363
 20
233.5782300875474
 30
0.0
 10
257.4594753564719
 20
233.5753356760857
 30
0.0
 10
257.7523033363945
 20
233.5693904635374
 30
0.0
 10
258.2049712592168
 20
233.5619456089848
 30
0.0
 10
258.6820824208681
 20
233.5553095482477
 30
0.0
 10
259.1839816169776
 20
233.5496993088925
 30
0.0
 10
259.9520306664056
 20
233.543275271065
 30
0.0
 10
260.9353998156424
 20
233.5391971730523
 30
0.0
 10
262.1219654412949
 20
233.5394077243848
 30
0.0
 10
263.3009133769726
 20
233.5426137938061
 30
0.0
 10
264.3744262598216
 20
233.5494181275199
 30
0.0
 10
265.3346906364355
 20
233.5589867657369
 30
0.0
 10
266.1246420887022
 20
233.5687433328773
 30
0.0
 10
266.6335400192125
 20
233.5773432674911
 30
0.0
 10
266.8809685616647
 20
233.5815245957284
 30
0.0
  0
SPLINE
  5
F5
330
1F
100
AcDbEntity
  8
0
  6
Continuous
 62
     8
370
     0
100
AcDbSpline
210
0.0
220
0.0
230
1.0
 70
     8
 71
     3
 72
    10
 73
     6
 74
     0
 42
0.00000001
 43
0.00000001
 40
0.0
 40
0.0
 40
0.0
 40
0.0
 40
0.5637250302891128
 40
0.8587843444306412
 40
1.0
 40
1.0
 40
1.0
 40
1.0
 10
255.7823826613216
 20
233.8654556193067
 30
0.0
 10
256.1498591675202
 20
233.8257337069479
 30
0.0
 10
256.7096765492454
 20
233.7652209487206
 30
0.0
 10
257.1687116302043
 20
233.6525791272535
 30
0.0
 10
257.2806166186801
 20
233.5964433108888
 30
0.0
 10
257.3168385828225
 20
233.5782729901983
 30
0.0
  0
SPLINE
  5
F6
330
1F
100
AcDbEntity
  8
0
  6
Continuous
 62
     8
370
     0
100
AcDbSpline
210
0.0
220
0.0
230
1.0
 70
     8
 71
     3
 72
    41
 73
    37
 74
     0
 42
0.00000001
 43
0.00000001
 40
0.0
 40
0.0
 40
0.0
 40
0.0
 40
0.0234344466118737
 40
0.0467806770499624
 40
0.0700361170652313
 40
0.0932052315085613
 40
0.1162939402400266
 40
0.1393063143308857
 40
0.1622464205464512
 40
0.1851306697715289
 40
0.2079593935116888
 40
0.230735617861856
 40
0.2534686769178557
 40
0.276168153890308
 40
0.2988438227364904
 40
0.3215054481248962
 40
0.3441627498996338
 40
0.3668253257620014
 40
0.3895024964695819
 40
0.412203129097672
 40
0.4349355189288304
 40
0.4577073949375471
 40
0.4805260789381103
 40
0.5033987903104031
 40
0.5445258359709948
 40
0.585525761320704
 40
0.6264686359380924
 40
0.6674120140730557
 40
0.7083785622102334
 40
0.7494426064826767
 40
0.7906554967256167
 40
0.8320518337101005
 40
0.8736589345359652
 40
0.9155026649762494
 40
0.9576085071849626
 40
1.0
 40
1.0
 40
1.0
 40
1.0
 10
239.8870267285854
 20
233.9224386707539
 30
0.0
 10
239.9751934185336
 20
233.920101671471
 30
0.0
 10
240.1511949054618
 20
233.9154364702597
 30
0.0
 10
240.4257211081884
 20
233.9059065978723
 30
0.0
 10
240.7075053109172
 20
233.8949663421268
 30
0.0
 10
240.997201359372
 20
233.8827938211766
 30
0.0
 10
241.2943424393784
 20
233.8699775770071
 30
0.0
 10
241.598613105385
 20
233.8570681276328
 30
0.0
 10
241.909538342198
 20
233.8445429730718
 30
0.0
 10
242.2270998585167
 20
233.8325180574397
 30
0.0
 10
242.5513292355587
 20
233.8211104404591
 30
0.0
 10
242.8821465421121
 20
233.8101966036883
 30
0.0
 10
243.2194528515512
 20
233.7997389881547
 30
0.0
 10
243.5632428604742
 20
233.7896724892642
 30
0.0
 10
243.9135104918439
 20
233.7799657517729
 30
0.0
 10
244.2702593397513
 20
233.7706066525943
 30
0.0
 10
244.6334934572721
 20
233.7616043758916
 30
0.0
 10
245.0032163031404
 20
233.7529844766361
 30
0.0
 10
245.3794297247553
 20
233.7447815400798
 30
0.0
 10
245.7621340373337
 20
233.7370280350407
 30
0.0
 10
246.1513295646515
 20
233.7297410686521
 30
0.0
 10
246.5470160680171
 20
233.7229123036787
 30
0.0
 10
246.9492040502572
 20
233.7164958586945
 30
0.0
 10
247.4662277841366
 20
233.7088205053128
 30
0.0
 10
248.1032277965152
 20
233.7000084773601
 30
0.0
 10
248.8669475928573
 20
233.6894540661521
 30
0.0
 10
249.6458252894585
 20
233.6783277210213
 30
0.0
 10
250.4399749525503
 20
233.6676225367256
 30
0.0
 10
251.2489008342132
 20
233.657119856167
 30
0.0
 10
252.072396124906
 20
233.6470094346754
 30
0.0
 10
252.9105662992569
 20
233.6378074002118
 30
0.0
 10
253.7634012964121
 20
233.6293472704941
 30
0.0
 10
254.6307409896944
 20
233.6207971790539
 30
0.0
 10
255.5125466194419
 20
233.6105948965787
 30
0.0
 10
256.4079526587806
 20
233.5976412113635
 30
0.0
 10
257.0130010176898
 20
233.5846766722572
 30
0.0
 10
257.3165479065028
 20
233.5781724888268
 30
0.0
  0
LINE
  5
F7
330
1F
100
AcDbEntity
  8
0
  6
Continuous
 62
     8
370
     0
100
AcDbLine
 10
284.9433544146
 20
234.5874392309
 30
0.0
 11
284.3986219781
 21
233.972386352
 31
0.0
  0
SPLINE
  5
F8
330
1F
100
AcDbEntity
  8
0
  6
Continuous
 62
     8
370
     0
100
AcDbSpline
210
0.0
220
0.0
230
1.0
 70
     8
 71
     3
 72
    27
 73
    23
 74
     0
 42
0.00000001
 43
0.00000001
 40
0.0
 40
0.0
 40
0.0
 40
0.0
 40
0.0273435424211492
 40
0.0532876593325153
 40
0.0778471374527372
 40
0.1009895903883971
 40
0.1227108672156234
 40
0.184891634091647
 40
0.2465460396632885
 40
0.3714709024388011
 40
0.4967953355774097
 40
0.5424320057006753
 40
0.5878883698249353
 40
0.6332297059422037
 40
0.6785277120033446
 40
0.7238529248655269
 40
0.7692733777556167
 40
0.8148612239439648
 40
0.8606742513148304
 40
0.9067750609534218
 40
0.9532052299480718
 40
0.9999999999999999
 40
0.9999999999999999
 40
0.9999999999999999
 40
0.9999999999999999
 10
266.8813068233773
 20
233.5814628797718
 30
0.0
 10
267.0780856280614
 20
233.5850579232213
 30
0.0
 10
267.4615722204849
 20
233.5920640180305
 30
0.0
 10
268.0196616623082
 20
233.6014223310573
 30
0.0
 10
268.5456709999154
 20
233.6103419391272
 30
0.0
 10
269.039186348736
 20
233.6189922085506
 30
0.0
 10
269.7955891304412
 20
233.6313288265927
 30
0.0
 10
270.8128354646617
 20
233.6462389354864
 30
0.0
 10
272.5197695438847
 20
233.6727850034131
 30
0.0
 10
274.591781215886
 20
233.7100887408567
 30
0.0
 10
276.4420033577271
 20
233.738307701182
 30
0.0
 10
277.7288592802782
 20
233.7614065134589
 30
0.0
 10
278.5170399388114
 20
233.7772804691529
 30
0.0
 10
279.2789006477669
 20
233.7946788998715
 30
0.0
 10
280.014560599919
 20
233.8137076976377
 30
0.0
 10
280.7239631745339
 20
233.8345191445823
 30
0.0
 10
281.4069894264538
 20
233.8570792881141
 30
0.0
 10
282.063220683199
 20
233.8811563139321
 30
0.0
 10
282.6923190673946
 20
233.9065110375327
 30
0.0
 10
283.2926290825718
 20
233.93178228669
 30
0.0
 10
283.8657833434946
 20
233.9550887522085
 30
0.0
 10
284.2194712459734
 20
233.9656313066649
 30
0.0
 10
284.3970068307205
 20
233.9709231997633
 30
0.0
  0
SPLINE
  5
F9
330
1F
100
AcDbEntity
  8
0
  6
Continuous
 62
     8
370
     0
100
AcDbSpline
210
0.0
220
0.0
230
1.0
 70
     8
 71
     3
 72
    15
 73
    11
 74
     0
 42
0.00000001
 43
0.00000001
 40
0.0
 40
0.0
 40
0.0
 40
0.0
 40
0.4999999999999987
 40
0.4999999999999987
 40
0.749999999999998
 40
0.8750000000000002
 40
0.9374999999999981
 40
0.9687499999999991
 40
0.9687499999999991
 40
1.0
 40
1.0
 40
1.0
 40
1.0
 10
266.6575608378267
 20
233.5042781203804
 30
0.0
 10
266.6934138500829
 20
233.5042961780279
 30
0.0
 10
266.7300687520982
 20
233.5107650993106
 30
0.0
 10
266.7858227394631
 20
233.5301330305302
 30
0.0
 10
266.813892207643
 20
233.5422294442485
 30
0.0
 10
266.8468792936689
 20
233.5605220181021
 30
0.0
 10
266.8634203915314
 20
233.5707052038506
 30
0.0
 10
266.8705183097325
 20
233.5752906810154
 30
0.0
 10
266.8752520815954
 20
233.5783967215074
 30
0.0
 10
266.8778453833112
 20
233.5801885219888
 30
0.0
 10
266.8799779759977
 20
233.5815662867481
 30
0.0
  0
SPLINE
  5
FA
330
1F
100
AcDbEntity
  8
0
  6
Continuous
 62
     8
370
     0
100
AcDbSpline
210
0.0
220
0.0
230
1.0
 70
     8
 71
     3
 72
    14
 73
    10
 74
     0
 42
0.00000001
 43
0.00000001
 40
0.0
 40
0.0
 40
0.0
 40
0.0
 40
0.0624999999999998
 40
0.0624999999999998
 40
0.1249999999999995
 40
0.2499999999999991
 40
0.4999999999999981
 40
0.4999999999999981
 40
1.0
 40
1.0
 40
1.0
 40
1.0
 10
257.5500246741969
 20
233.5042780823922
 30
0.0
 10
257.5457677168497
 20
233.5042780823922
 30
0.0
 10
257.5406065453341
 20
233.5043685972804
 30
0.0
 10
257.5311260367052
 20
233.5047485574721
 30
0.0
 10
257.5168645659772
 20
233.5056080881163
 30
0.0
 10
257.4833112677554
 20
233.5096420346666
 30
0.0
 10
257.4541064849968
 20
233.5165791143167
 30
0.0
 10
257.3951849982792
 20
233.5350760858131
 30
0.0
 10
257.3552205752279
 20
233.5535791151723
 30
0.0
 10
257.3148012609792
 20
233.5781122227238
 30
0.0
  0
SPLINE
  5
FB
330
1F
100
AcDbEntity
  8
0
  6
Continuous
 62
     8
370
     0
100
AcDbSpline
210
0.0
220
0.0
230
1.0
 70
     8
 71
     3
 72
    18
 73
    14
 74
     0
 42
0.00000001
 43
0.00000001
 40
0.0
 40
0.0
 40
0.0
 40
0.0
 40
0.5000000000000124
 40
0.5000000000000124
 40
0.7500000000000187
 40
0.7500000000000187
 40
0.8750000000000235
 40
0.8750000000000235
 40
0.9375000000000118
 40
0.9687500000000087
 40
0.9843750000000043
 40
0.9843750000000043
 40
1.0
 40
1.0
 40
1.0
 40
1.0
 10
283.4589675058286
 20
233.5042783659021
 30
0.0
 10
283.6289846793148
 20
233.5043995893049
 30
0.0
 10
283.8063548686791
 20
233.5450555061695
 30
0.0
 10
284.0508555400644
 20
233.6667964288705
 30
0.0
 10
284.1287073139898
 20
233.7171625615207
 30
0.0
 10
284.2365692598176
 20
233.8045968724784
 30
0.0
 10
284.271047975488
 20
233.8357051579282
 30
0.0
 10
284.3202413233552
 20
233.8848414897263
 30
0.0
 10
284.3442082265485
 20
233.9100271417746
 30
0.0
 10
284.3710147773401
 20
233.9403796164238
 30
0.0
 10
284.3822512049738
 20
233.953583212322
 30
0.0
 10
284.3896856496623
 20
233.9624276613334
 30
0.0
 10
284.3947030724406
 20
233.9685068947426
 30
0.0
 10
284.3968973696506
 20
233.9711650696576
 30
0.0
  0
SPLINE
  5
FC
330
1F
100
AcDbEntity
  8
0
  6
Continuous
 62
     8
370
     0
100
AcDbSpline
210
0.0
220
0.0
230
1.0
 70
     8
 71
     3
 72
    18
 73
    14
 74
     0
 42
0.00000001
 43
0.00000001
 40
0.0
 40
0.0
 40
0.0
 40
0.0
 40
0.0156249999999929
 40
0.0156249999999929
 40
0.0312499999999857
 40
0.062499999999983
 40
0.1249999999999805
 40
0.1249999999999805
 40
0.2499999999999832
 40
0.2499999999999832
 40
0.4999999999999831
 40
0.4999999999999831
 40
1.0
 40
1.0
 40
1.0
 40
1.0
 10
240.8075598087375
 20
233.5042780823922
 30
0.0
 10
240.8043904688704
 20
233.5042780823922
 30
0.0
 10
240.7976028608196
 20
233.504304522639
 30
0.0
 10
240.7872840079222
 20
233.5044330996636
 30
0.0
 10
240.7717900303306
 20
233.5047286574262
 30
0.0
 10
240.7355379263371
 20
233.5061414104971
 30
0.0
 10
240.7043302450762
 20
233.5086058987046
 30
0.0
 10
240.6418354571229
 20
233.5152343436515
 30
0.0
 10
240.6000657149141
 20
233.5219230151458
 30
0.0
 10
240.4752704391686
 20
233.5488927927571
 30
0.0
 10
240.3927684650902
 20
233.5761402196667
 30
0.0
 10
240.1540743795108
 20
233.6842363930972
 30
0.0
 10
240.007402753437
 20
233.7920626388608
 30
0.0
 10
239.88625159943
 20
233.9216918990425
 30
0.0
  0
SPLINE
  5
FD
330
1F
100
AcDbEntity
  8
0
  6
Continuous
 62
     8
370
     0
100
AcDbSpline
210
0.0
220
0.0
230
1.0
 70
     8
 71
     3
 72
    11
 73
     7
 74
     0
 42
0.00000001
 43
0.00000001
 40
0.0
 40
0.0
 40
0.0
 40
0.0
 40
0.3015711018988262
 40
0.6037085030839807
 40
0.9064284517670915
 40
1.0
 40
1.0
 40
1.0
 40
1.0
 10
239.8860613869814
 20
233.9221470870687
 30
0.0
 10
239.2738350743617
 20
233.937138985186
 30
0.0
 10
238.0482327921368
 20
233.9671509336579
 30
0.0
 10
236.9251938967544
 20
234.04881422764
 30
0.0
 10
236.3570200652144
 20
234.1118094354844
 30
0.0
 10
236.3834481651178
 20
234.1590579452912
 30
0.0
 10
236.3896883147148
 20
234.1702141680433
 30
0.0
  0
SPLINE
  5
FE
330
1F
100
AcDbEntity
  8
0
  6
Continuous
 62
     8
370
     0
100
AcDbSpline
210
0.0
220
0.0
230
1.0
 70
     8
 71
     3
 72
    10
 73
     6
 74
     0
 42
0.00000001
 43
0.00000001
 40
0.0
 40
0.0
 40
0.0
 40
0.0
 40
0.208287372317335
 40
0.6044775318856509
 40
1.0
 40
1.0
 40
1.0
 40
1.0
 10
287.6578877734332
 20
234.1602601923658
 30
0.0
 10
287.5902816092265
 20
234.1427047137022
 30
0.0
 10
287.3940795695863
 20
234.0917563902607
 30
0.0
 10
286.3420760910754
 20
234.0194896618217
 30
0.0
 10
285.045632253899
 20
233.9870104082763
 30
0.0
 10
284.3979570137648
 20
233.9707844772054
 30
0.0
  0
SPLINE
  5
FF
330
1F
100
AcDbEntity
  8
0
  6
Continuous
 62
     8
370
     0
100
AcDbSpline
210
0.0
220
0.0
230
1.0
 70
    24
 71
     3
 72
    30
 73
    26
 74
     0
 42
0.00000001
 43
0.00000001
 40
0.0
 40
0.0
 40
0.0
 40
0.0
 40
0.0334818152749831
 40
0.066876149525968
 40
0.1001964695751329
 40
0.1334563321491869
 40
0.1666693680065888
 40
0.1998492656170259
 40
0.2330097544880749
 40
0.266164588238959
 40
0.2993275275249226
 40
0.3325123229179052
 40
0.3657326978498294
 40
0.3990023317239053
 40
0.4323348432969386
 40
0.4657437744317657
 40
0.4992425743137131
 40
0.5622046888429694
 40
0.6248795391247761
 40
0.6873575926996245
 40
0.7497301734379554
 40
0.8120890686031257
 40
0.8745261258150486
 40
0.9371328486900913
 40
1.0
 40
1.0
 40
1.0
 40
1.0
 10
240.8074418066551
 20
233.5042780823921
 30
0.0
 10
240.7241897655296
 20
233.5042780823921
 30
0.0
 10
240.5579032035578
 20
233.5042780823921
 30
0.0
 10
240.3197725510598
 20
233.5042780823921
 30
0.0
 10
240.0903909734488
 20
233.5042780823921
 30
0.0
 10
239.8705354244194
 20
233.5042780823922
 30
0.0
 10
239.659998579808
 20
233.5042780823921
 30
0.0
 10
239.4588360419453
 20
233.5042780823921
 30
0.0
 10
239.2670331099373
 20
233.5042780823921
 30
0.0
 10
239.0845938643661
 20
233.5042780823921
 30
0.0
 10
238.9115173360857
 20
233.5042780823921
 30
0.0
 10
238.7478038807793
 20
233.5042780823921
 30
0.0
 10
238.5934534834846
 20
233.5042780823921
 30
0.0
 10
238.4484661654815
 20
233.5042780823921
 30
0.0
 10
238.3128420513343
 20
233.5042780823921
 30
0.0
 10
238.1865806914699
 20
233.5042780823922
 30
0.0
 10
238.0355367022284
 20
233.5042780823921
 30
0.0
 10
237.8725062727264
 20
233.5042780823922
 30
0.0
 10
237.7145879856016
 20
233.5042780823921
 30
0.0
 10
237.5923309126387
 20
233.5042780823922
 30
0.0
 10
237.5057996605948
 20
233.5042780823921
 30
0.0
 10
237.4547682897976
 20
233.5042780823922
 30
0.0
 10
237.4400830287175
 20
233.5042780823921
 30
0.0
 10
237.4585750777902
 20
233.5042780823922
 30
0.0
 10
237.5008378768195
 20
233.5042780823921
 30
0.0
 10
237.5220131358016
 20
233.5042780823921
 30
0.0
  0
ARC
  5
100
330
1F
100
AcDbEntity
  8
0
  6
Continuous
 62
     8
370
     0
100
AcDbCircle
 10
286.6432464055
 20
198.3438541001
 30
0.0
 40
1.869872900414415
100
AcDbArc
 50
279.9564464138
 51
349.8089593305
  0
ARC
  5
101
330
1F
100
AcDbEntity
  8
0
  6
Continuous
 62
     8
370
     0
100
AcDbCircle
 10
237.5784499874
 20
198.3438835316
 30
0.0
 40
1.869904827962258
100
AcDbArc
 50
190.2254160815
 51
260.0431964548
  0
ARC
  5
102
330
1F
100
AcDbEntity
  8
0
  6
Continuous
 62
     7
370
    15
100
AcDbCircle
 10
665.808777978
 20
497.2724837311
 30
0.0
 40
2.607786520203839
100
AcDbArc
 50
11.5446890896
 51
90.1573011518
  0
SPLINE
  5
103
330
1F
100
AcDbEntity
  8
0
  6
Continuous
 62
     7
370
    15
100
AcDbSpline
210
0.0
220
0.0
230
1.0
 70
     8
 71
     3
 72
    10
 73
     6
 74
     0
 42
0.00000001
 43
0.00000001
 40
0.0
 40
0.0
 40
0.0
 40
0.0
 40
0.4875013473586841
 40
0.9603404795992321
 40
1.0
 40
1.0
 40
1.0
 40
1.0
 10
593.9410652787527
 20
431.4337107200637
 30
0.0
 10
596.3311295868227
 20
431.8974601729615
 30
0.0
 10
601.0393740179838
 20
432.8110112316871
 30
0.0
 10
605.904135056855
 20
434.0073224426334
 30
0.0
 10
608.345642412374
 20
434.7988191418364
 30
0.0
 10
608.5345775642535
 20
434.8600688238159
 30
0.0
  0
ARC
  5
104
330
1F
100
AcDbEntity
  8
0
  6
Continuous
 62
     7
370
    15
100
AcDbCircle
 10
593.7358217356
 20
432.5023010405
 30
0.0
 40
1.103299411953256
100
AcDbArc
 50
180.1128893045
 51
280.7785663375
  0
LINE
  5
105
330
1F
100
AcDbEntity
  8
0
  6
Continuous
 62
     7
370
    15
100
AcDbLine
 10
682.8941295677
 20
494.5084028725
 30
0.0
 11
681.8897987538
 21
494.2564070072
 31
0.0
  0
SPLINE
  5
106
330
1F
100
AcDbEntity
  8
0
  6
Continuous
 62
     7
370
    15
100
AcDbSpline
210
0.0
220
0.0
230
1.0
 70
     8
 71
     3
 72
    12
 73
     8
 74
     0
 42
0.00000001
 43
0.00000001
 40
0.0
 40
0.0
 40
0.0
 40
0.0
 40
0.2397611215973413
 40
0.4910453988740143
 40
0.6999397381658817
 40
0.8725874668267445
 40
0.9999999999999999
 40
0.9999999999999999
 40
0.9999999999999999
 40
0.9999999999999999
 10
703.1781787806293
 20
508.1250960786357
 30
0.0
 10
702.3036051461091
 20
507.6037006600611
 30
0.0
 10
700.5124250066999
 20
506.5358510454973
 30
0.0
 10
698.1033211208822
 20
504.6252848046024
 30
0.0
 10
696.0212303195383
 20
502.7876982211832
 30
0.0
 10
694.4313989694836
 20
501.3054698183527
 30
0.0
 10
693.4687798999634
 20
500.4570375698746
 30
0.0
 10
693.0600295596859
 20
500.0967735970855
 30
0.0
  0
ARC
  5
107
330
1F
100
AcDbEntity
  8
0
  6
Continuous
 62
     7
370
    15
100
AcDbCircle
 10
716.1568307541
 20
408.7847982951
 30
0.0
 40
1.928856185756143
100
AcDbArc
 50
234.1821464102
 51
3.6871394686
  0
SPLINE
  5
108
330
1F
100
AcDbEntity
  8
0
  6
Continuous
 62
     7
370
    15
100
AcDbSpline
210
0.0
220
0.0
230
1.0
 70
     8
 71
     3
 72
    12
 73
     8
 74
     0
 42
0.00000001
 43
0.00000001
 40
0.0
 40
0.0
 40
0.0
 40
0.0
 40
0.142271729600766
 40
0.4142021767762438
 40
0.6142856967854805
 40
0.8302947649376218
 40
1.0
 40
1.0
 40
1.0
 40
1.0
 10
704.372417443349
 20
419.8353099484459
 30
0.0
 10
704.7157171824501
 20
419.1249918815666
 30
0.0
 10
705.7151813741168
 20
417.0570104889841
 30
0.0
 10
707.6101177715893
 20
414.228975607872
 30
0.0
 10
710.0900737746173
 20
411.3111771852055
 30
0.0
 10
712.4916915961852
 20
409.0594763997034
 30
0.0
 10
714.2568791887401
 20
407.7967112077797
 30
0.0
 10
715.0335202747127
 20
407.2411241788879
 30
0.0
  0
LINE
  5
109
330
1F
100
AcDbEntity
  8
0
  6
Continuous
 62
     7
370
    15
100
AcDbLine
 10
674.2314512664
 20
444.0280380507
 30
0.0
 11
675.2344484263
 21
444.0311896462
 31
0.0
  0
SPLINE
  5
10A
330
1F
100
AcDbEntity
  8
0
  6
Continuous
 62
     7
370
    15
100
AcDbSpline
210
0.0
220
0.0
230
1.0
 70
     8
 71
     3
 72
     9
 73
     5
 74
     0
 42
0.00000001
 43
0.00000001
 40
0.0
 40
0.0
 40
0.0
 40
0.0
 40
0.7964345236856134
 40
1.0
 40
1.0
 40
1.0
 40
1.0
 10
718.0537323289653
 20
408.9055093784347
 30
0.0
 10
717.8269243980561
 20
412.0089364611772
 30
0.0
 10
717.5421452678653
 20
415.9055870839816
 30
0.0
 10
716.7373347636634
 20
419.7317053764623
 30
0.0
 10
716.5735031300327
 20
420.5105709691063
 30
0.0
  0
LINE
  5
10B
330
1F
100
AcDbEntity
  8
0
  6
Continuous
 62
     7
370
    15
100
AcDbLine
 10
668.9214448267
 20
445.126976337
 30
0.0
 11
669.7884167367
 21
445.1421084661
 31
0.0
  0
LINE
  5
10C
330
1F
100
AcDbEntity
  8
0
  6
Continuous
 62
     7
370
    15
100
AcDbLine
 10
669.7884167367
 20
493.2348327559
 30
0.0
 11
668.9214448267
 21
493.2499658164
 31
0.0
  0
ARC
  5
10D
330
1F
100
AcDbEntity
  8
0
  6
Continuous
 62
     7
370
    15
100
AcDbCircle
 10
665.8121480186
 20
469.1884702836
 30
0.0
 40
24.37290000000035
100
AcDbArc
 50
279.3893727434
 51
290.19050052
  0
ARC
  5
10E
330
1F
100
AcDbEntity
  8
0
  6
Continuous
 62
     7
370
    15
100
AcDbCircle
 10
665.8121480186
 20
469.1884702836
 30
0.0
 40
24.37290000000045
100
AcDbArc
 50
54.9809666448
 51
80.6106272566
  0
ARC
  5
10F
330
1F
100
AcDbEntity
  8
0
  6
Continuous
 62
     7
370
    15
100
AcDbCircle
 10
667.8231883475
 20
444.6099299547
 30
0.0
 40
1.098259671071105
100
AcDbArc
 50
270.0182591035
 51
0.0
  0
LINE
  5
110
330
1F
100
AcDbEntity
  8
0
  6
Continuous
 62
     7
370
    15
100
AcDbLine
 10
682.8980634743
 20
494.5093896088
 30
0.0
 11
681.8897987538
 21
494.2564065416
 31
0.0
  0
LINE
  5
111
330
1F
100
AcDbEntity
  8
0
  6
Continuous
 62
     7
370
    15
100
AcDbLine
 10
693.5919414097
 20
500.5693406413
 30
0.0
 11
693.0596942836
 21
500.096475341
 31
0.0
  0
SPLINE
  5
112
330
1F
100
AcDbEntity
  8
0
  6
Continuous
 62
     7
370
    15
100
AcDbSpline
210
0.0
220
0.0
230
1.0
 70
     8
 71
     3
 72
     9
 73
     5
 74
     0
 42
0.00000001
 43
0.00000001
 40
0.0
 40
0.0
 40
0.0
 40
0.0
 40
0.5658091390291978
 40
1.0
 40
1.0
 40
1.0
 40
1.0
 10
668.8579509788295
 20
494.5812215876296
 30
0.0
 10
668.8226946896281
 20
494.8566253602197
 30
0.0
 10
668.7603834140239
 20
495.3433685985181
 30
0.0
 10
668.620458399892
 20
495.5911621646635
 30
0.0
 10
668.5597042375347
 20
495.6987518664911
 30
0.0
  0
LINE
  5
113
330
1F
100
AcDbEntity
  8
0
  6
Continuous
 62
     7
370
    15
100
AcDbLine
 10
608.530072757
 20
434.8442288895
 30
0.0
 11
608.530072757
 21
431.074473526
 31
0.0
  0
LINE
  5
114
330
1F
100
AcDbEntity
  8
0
  6
Continuous
 62
     7
370
    15
100
AcDbLine
 10
632.1005712086
 20
431.074473526
 30
0.0
 11
632.1005712086
 21
440.6835245748
 31
0.0
  0
LINE
  5
115
330
1F
100
AcDbEntity
  8
0
  6
Continuous
 62
     7
370
    15
100
AcDbLine
 10
609.7863300526
 20
428.266066577
 30
0.0
 11
609.7863300526
 21
421.8468698521
 31
0.0
  0
LINE
  5
116
330
1F
100
AcDbEntity
  8
0
  6
Continuous
 62
     7
370
    15
100
AcDbLine
 10
630.8443139129
 20
421.8468698521
 30
0.0
 11
630.8443139129
 21
428.266066577
 31
0.0
  0
LINE
  5
117
330
1F
100
AcDbEntity
  8
0
  6
Continuous
 62
     7
370
    15
100
AcDbLine
 10
630.8443139129
 20
428.266066577
 30
0.0
 11
630.041916185
 21
429.0684717555
 31
0.0
  0
LINE
  5
118
330
1F
100
AcDbEntity
  8
0
  6
Continuous
 62
     7
370
    15
100
AcDbLine
 10
610.5887296432
 20
429.0684717555
 30
0.0
 11
609.7863300526
 21
428.266066577
 31
0.0
  0
ARC
  5
119
330
1F
100
AcDbEntity
  8
0
  6
Continuous
 62
     7
370
    15
100
AcDbCircle
 10
610.2351725203
 20
430.2720702836
 30
0.0
 40
0.8024000000000342
100
AcDbArc
 50
360.0
 51
90.0
  0
ARC
  5
11A
330
1F
100
AcDbEntity
  8
0
  6
Continuous
 62
     7
370
    15
100
AcDbCircle
 10
630.3954725203
 20
430.2720702836
 30
0.0
 40
0.8024000000000342
100
AcDbArc
 50
90.0
 51
180.0
  0
LINE
  5
11B
330
1F
100
AcDbEntity
  8
0
  6
Continuous
 62
     7
370
    15
100
AcDbLine
 10
611.0375721761
 20
430.2720683475
 30
0.0
 11
611.0375721761
 21
429.0684717555
 31
0.0
  0
LINE
  5
11C
330
1F
100
AcDbEntity
  8
0
  6
Continuous
 62
     7
370
    15
100
AcDbLine
 10
629.5930727207
 20
429.0684717555
 30
0.0
 11
629.5930727207
 21
430.2720683475
 31
0.0
  0
LINE
  5
11D
330
1F
100
AcDbEntity
  8
0
  6
Continuous
 62
     7
370
    15
100
AcDbLine
 10
609.7863300526
 20
421.8468698521
 30
0.0
 11
610.5887296432
 21
421.0444721241
 31
0.0
  0
LINE
  5
11E
330
1F
100
AcDbEntity
  8
0
  6
Continuous
 62
     7
370
    15
100
AcDbLine
 10
630.041916185
 20
421.0444721241
 30
0.0
 11
630.8443139129
 21
421.8468698521
 31
0.0
  0
SPLINE
  5
11F
330
1F
100
AcDbEntity
  8
0
  6
Continuous
 62
     7
370
    15
100
AcDbSpline
210
0.0
220
0.0
230
1.0
 70
     8
 71
     3
 72
     9
 73
     5
 74
     0
 42
0.00000001
 43
0.00000001
 40
0.0
 40
0.0
 40
0.0
 40
0.0
 40
0.5647491010892112
 40
1.0
 40
1.0
 40
1.0
 40
1.0
 10
668.9168180161258
 20
493.6763970029071
 30
0.0
 10
668.91894224311
 20
493.8278309287305
 30
0.0
 10
668.922703607192
 20
494.0959746504845
 30
0.0
 10
668.8971634811003
 20
494.5345018655244
 30
0.0
 10
668.8860471182605
 20
494.7253712300673
 30
0.0
  0
SPLINE
  5
120
330
1F
100
AcDbEntity
  8
0
  6
Continuous
 62
     7
370
    15
100
AcDbSpline
210
0.0
220
0.0
230
1.0
 70
     8
 71
     3
 72
     9
 73
     5
 74
     0
 42
0.00000001
 43
0.00000001
 40
0.0
 40
0.0
 40
0.0
 40
0.0
 40
0.5860311537130317
 40
1.0
 40
1.0
 40
1.0
 40
1.0
 10
668.2704056435367
 20
496.5475664787456
 30
0.0
 10
668.3329285264505
 20
496.8740042908766
 30
0.0
 10
668.4396171939685
 20
497.431035790077
 30
0.0
 10
668.377370332365
 20
497.6861451212858
 30
0.0
 10
668.351602070882
 20
497.7917524368033
 30
0.0
  0
SPLINE
  5
121
330
1F
100
AcDbEntity
  8
0
  6
Continuous
 62
     7
370
    15
100
AcDbSpline
210
0.0
220
0.0
230
1.0
 70
     8
 71
     3
 72
    30
 73
    26
 74
     0
 42
0.00000001
 43
0.00000001
 40
0.0
 40
0.0
 40
0.0
 40
0.0
 40
0.0086626819457057
 40
0.0119708610780492
 40
0.0185872205021184
 40
0.0318199428792677
 40
0.0847513959285671
 40
0.1554991953236292
 40
0.2262448977059236
 40
0.2968876276747517
 40
0.3340890432600157
 40
0.371242981176412
 40
0.396920886778556
 40
0.4225317795078497
 40
0.4485635248101723
 40
0.4746493080273197
 40
0.5089134178459487
 40
0.543288946409679
 40
0.5915705970146548
 40
0.6399492445667649
 40
0.6883247103653848
 40
0.7618596784954388
 40
0.8354021667074699
 40
0.9993899607102313
 40
1.0
 40
1.0
 40
1.0
 40
1.0
 10
593.7358222724041
 20
499.8802702605255
 30
0.0
 10
594.148938357307
 20
499.8802702605206
 30
0.0
 10
594.7198187489081
 20
499.8802702605138
 30
0.0
 10
595.60622627499
 20
499.8802702605469
 30
0.0
 10
596.7105727960175
 20
499.8802702602627
 30
0.0
 10
600.1813954589562
 20
499.8802702653635
 30
0.0
 10
606.7102951628673
 20
499.880270168613
 30
0.0
 10
615.9811042458753
 20
499.8802702124403
 30
0.0
 10
626.0876002119675
 20
499.8802701995539
 30
0.0
 10
634.5612328046831
 20
499.8802702026813
 30
0.0
 10
641.3689909582282
 20
499.8802702022465
 30
0.0
 10
645.9771678651375
 20
499.8802702023305
 30
0.0
 10
649.8915221932197
 20
499.880270202315
 30
0.0
 10
653.0968889520111
 20
499.8802702023185
 30
0.0
 10
655.8406589598333
 20
499.8802702023181
 30
0.0
 10
658.2652599161933
 20
499.8802702023163
 30
0.0
 10
660.1713486677814
 20
499.8802702023262
 30
0.0
 10
661.7733719757774
 20
499.8802702022816
 30
0.0
 10
663.0213465015117
 20
499.8802702025155
 30
0.0
 10
663.9126772552481
 20
499.880270201587
 30
0.0
 10
664.6150737933092
 20
499.8802702056422
 30
0.0
 10
665.1813088811177
 20
499.8802701825491
 30
0.0
 10
665.6402984153852
 20
499.8802703130481
 30
0.0
 10
665.9397209308404
 20
499.8802702604804
 30
0.0
 10
665.8146734472018
 20
499.8802702605253
 30
0.0
 10
665.8142099910518
 20
499.8802702605255
 30
0.0
  0
LINE
  5
122
330
1F
100
AcDbEntity
  8
0
  6
Continuous
 62
     7
370
    15
100
AcDbLine
 10
593.930077535
 20
431.4878987927
 30
0.0
 11
593.9303099
 21
431.4880031009
 31
0.0
  0
SPLINE
  5
123
330
1F
100
AcDbEntity
  8
0
  6
Continuous
 62
     7
370
    15
100
AcDbSpline
210
0.0
220
0.0
230
1.0
 70
     8
 71
     3
 72
    11
 73
     7
 74
     0
 42
0.00000001
 43
0.00000001
 40
0.0
 40
0.0
 40
0.0
 40
0.0
 40
0.3296365317254174
 40
0.6668596540205943
 40
0.850545897764721
 40
1.0
 40
1.0
 40
1.0
 40
1.0
 10
609.7440265872618
 20
435.2254005928054
 30
0.0
 10
609.5166534903567
 20
435.15283033901
 30
0.0
 10
609.0566743007258
 20
435.0060196257528
 30
0.0
 10
608.721877961004
 20
434.9018666527882
 30
0.0
 10
608.5659908245207
 20
434.8536940683355
 30
0.0
 10
608.5474696222316
 20
434.8482762280346
 30
0.0
 10
608.5391606026432
 20
434.8458456654564
 30
0.0
  0
SPLINE
  5
124
330
1F
100
AcDbEntity
  8
0
  6
Continuous
 62
     7
370
    15
100
AcDbSpline
210
0.0
220
0.0
230
1.0
 70
    24
 71
     3
 72
    27
 73
    23
 74
     0
 42
0.00000001
 43
0.00000001
 40
0.0
 40
0.0
 40
0.0
 40
0.0
 40
0.0761286582325481
 40
0.1859980692290007
 40
0.2960215538258084
 40
0.3396611297091868
 40
0.3833859919287928
 40
0.4276443670957388
 40
0.4723036914254231
 40
0.5015651050029517
 40
0.5310269837798486
 40
0.5607007626197155
 40
0.5908911258833414
 40
0.6347192115146908
 40
0.679215518905321
 40
0.7092855249689275
 40
0.7560129307633918
 40
0.8031294795906535
 40
0.85112767155269
 40
0.8993171726317037
 40
0.9496122492240204
 40
1.0
 40
1.0
 40
1.0
 40
1.0
 10
592.6325226024827
 20
432.574260499002
 30
0.0
 10
592.6325226024827
 20
432.5573271133445
 30
0.0
 10
592.6325226024827
 20
432.515955347298
 30
0.0
 10
592.6325226024827
 20
432.9221789656455
 30
0.0
 10
592.6325226024827
 20
433.6658650419252
 30
0.0
 10
592.6325226024827
 20
434.6623235432352
 30
0.0
 10
592.6325226024827
 20
435.604796648176
 30
0.0
 10
592.6325226024827
 20
436.9658002031263
 30
0.0
 10
592.6325226024827
 20
438.6949716608329
 30
0.0
 10
592.6325226024827
 20
440.6496835912772
 30
0.0
 10
592.6325226024827
 20
442.6079190667605
 30
0.0
 10
592.6325226024827
 20
444.8773584800991
 30
0.0
 10
592.6325226024827
 20
447.8375522887262
 30
0.0
 10
592.6325226024827
 20
451.6528932521744
 30
0.0
 10
592.6325226024827
 20
455.8857386603822
 30
0.0
 10
592.6325226024827
 20
460.4997046921987
 30
0.0
 10
592.6325226024827
 20
465.4531462210006
 30
0.0
 10
592.6325226024827
 20
471.3515529252723
 30
0.0
 10
592.6325226024827
 20
477.4695052039268
 30
0.0
 10
592.6325226024827
 20
483.8318186480142
 30
0.0
 10
592.6325226024827
 20
490.3684107707538
 30
0.0
 10
592.6325226024827
 20
494.8273266625781
 30
0.0
 10
592.6325226024827
 20
497.0588367280081
 30
0.0
  0
ARC
  5
125
330
1F
100
AcDbEntity
  8
0
  6
Continuous
 62
     7
370
    15
100
AcDbCircle
 10
593.7358223901
 20
498.7769702331
 30
0.0
 40
1.103300000000047
100
AcDbArc
 50
89.9999999909
 51
180.0000001407
  0
SPLINE
  5
126
330
1F
100
AcDbEntity
  8
0
  6
Continuous
 62
     7
370
    15
100
AcDbSpline
210
0.0
220
0.0
230
1.0
 70
    24
 71
     3
 72
    20
 73
    16
 74
     0
 42
0.00000001
 43
0.00000001
 40
0.0
 40
0.0
 40
0.0
 40
0.0
 40
0.1249999999999991
 40
0.1249999999999991
 40
0.2499999999999981
 40
0.2499999999999981
 40
0.4999999999999917
 40
0.4999999999999917
 40
0.6249999999999938
 40
0.6249999999999938
 40
0.7499999999999958
 40
0.7499999999999958
 40
0.8749999999999978
 40
0.8749999999999978
 40
1.0
 40
1.0
 40
1.0
 40
1.0
 10
592.632522394336
 20
497.0588367546532
 30
0.0
 10
592.6325223940722
 20
497.1662050857015
 30
0.0
 10
592.6325223938093
 20
497.2732652477953
 30
0.0
 10
592.6325223932848
 20
497.4867932854624
 30
0.0
 10
592.6325223930204
 20
497.5944270411173
 30
0.0
 10
592.6325223922623
 20
497.9030773559205
 30
0.0
 10
592.6325223917871
 20
498.0965609592283
 30
0.0
 10
592.6325223911917
 20
498.3389344649289
 30
0.0
 10
592.6325223910094
 20
498.4131890398246
 30
0.0
 10
592.632522390693
 20
498.5419836725768
 30
0.0
 10
592.6325223905591
 20
498.5964954640991
 30
0.0
 10
592.6325223903398
 20
498.6857800953703
 30
0.0
 10
592.6325223902555
 20
498.7201015357942
 30
0.0
 10
592.6325223901443
 20
498.7653774172796
 30
0.0
 10
592.6325223901159
 20
498.7769702303897
 30
0.0
 10
592.6325223901159
 20
498.7769702304065
 30
0.0
  0
SPLINE
  5
127
330
1F
100
AcDbEntity
  8
0
  6
Continuous
 62
     7
370
    15
100
AcDbSpline
210
0.0
220
0.0
230
1.0
 70
     8
 71
     3
 72
     8
 73
     4
 74
     0
 42
0.00000001
 43
0.00000001
 40
0.0
 40
0.0
 40
0.0
 40
0.0
 40
1.0
 40
1.0
 40
1.0
 40
1.0
 10
667.3169879797088
 20
443.5116330354763
 30
0.0
 10
667.4856335928785
 20
443.5117213223907
 30
0.0
 10
667.6544032471322
 20
443.5117503105408
 30
0.0
 10
667.8232408050167
 20
443.5117866139928
 30
0.0
  0
SPLINE
  5
128
330
1F
100
AcDbEntity
  8
0
  6
Continuous
 62
     7
370
    15
100
AcDbSpline
210
0.0
220
0.0
230
1.0
 70
     8
 71
     3
 72
    35
 73
    31
 74
     0
 42
0.00000001
 43
0.00000001
 40
0.0
 40
0.0
 40
0.0
 40
0.0
 40
0.0437012720809082
 40
0.0872696821632142
 40
0.150867604691758
 40
0.1720099098202405
 40
0.2153132390096713
 40
0.2584878733313744
 40
0.3015335600930164
 40
0.3731491511352203
 40
0.4017906492722907
 40
0.4160885237359105
 40
0.4588885259722718
 40
0.4873459101207466
 40
0.5015515254632338
 40
0.5299061949615211
 40
0.5723370787837759
 40
0.5920511478559289
 40
0.6215661189806267
 40
0.6510119636622905
 40
0.6706045166504878
 40
0.7292014617612508
 40
0.7939903359748995
 40
0.8069090505053462
 40
0.8327071489630811
 40
0.8584589653194911
 40
0.8841610454313443
 40
0.9354193807522705
 40
0.9688399832082034
 40
1.0
 40
1.0
 40
1.0
 40
1.0
 10
667.3169879811161
 20
443.5116330333115
 30
0.0
 10
666.8016411222629
 20
443.5108912364557
 30
0.0
 10
665.7725141784829
 20
443.5094098979783
 30
0.0
 10
663.9934615258067
 20
443.4945498035938
 30
0.0
 10
662.4805400460342
 20
443.4715951957392
 30
0.0
 10
660.9709185502677
 20
443.4400318000511
 30
0.0
 10
659.7022124007649
 20
443.4076980186786
 30
0.0
 10
658.1755706469389
 20
443.3590994312976
 30
0.0
 10
656.3156547760827
 20
443.2876796561131
 30
0.0
 10
654.6276154795131
 20
443.207561492164
 30
0.0
 10
653.2788266101155
 20
443.1322372980072
 30
0.0
 10
652.2695322621491
 20
443.0721755328915
 30
0.0
 10
651.2627011051801
 20
443.0072992462293
 30
0.0
 10
650.257392404329
 20
442.9361362426961
 30
0.0
 10
649.4222426584092
 20
442.8737755831376
 30
0.0
 10
648.4230627839817
 20
442.7952566854194
 30
0.0
 10
647.3596895988958
 20
442.7046347646608
 30
0.0
 10
646.2832586745179
 20
442.6064559128732
 30
0.0
 10
645.3597275817924
 20
442.5177981322476
 30
0.0
 10
644.4381489046202
 20
442.42395712981
 30
0.0
 10
643.1760303230814
 20
442.2892309968319
 30
0.0
 10
641.5008982893386
 20
442.0971399209676
 30
0.0
 10
639.9063865470999
 20
441.8938158385367
 30
0.0
 10
638.696896851313
 20
441.7295887567934
 30
0.0
 10
637.9439817875137
 20
441.6242455136447
 30
0.0
 10
637.0424736085505
 20
441.4931059360169
 30
0.0
 10
635.8448148367057
 20
441.3122533802991
 30
0.0
 10
634.5593800536775
 20
441.1071708028315
 30
0.0
 10
633.2122783507325
 20
440.8804763906073
 30
0.0
 10
632.4623869723199
 20
440.7476271166892
 30
0.0
 10
632.1005659149263
 20
440.6835276135521
 30
0.0
  0
SPLINE
  5
129
330
1F
100
AcDbEntity
  8
0
  6
Continuous
 62
     7
370
    15
100
AcDbSpline
210
0.0
220
0.0
230
1.0
 70
     8
 71
     3
 72
    46
 73
    42
 74
     0
 42
0.00000001
 43
0.00000001
 40
0.0
 40
0.0
 40
0.0
 40
0.0
 40
0.0624999999999993
 40
0.0624999999999993
 40
0.1249999999999986
 40
0.1249999999999986
 40
0.187499999999998
 40
0.187499999999998
 40
0.2499999999999973
 40
0.2499999999999973
 40
0.3124999999999971
 40
0.3124999999999971
 40
0.3749999999999968
 40
0.3749999999999968
 40
0.4062499999999967
 40
0.4062499999999967
 40
0.4374999999999966
 40
0.4374999999999966
 40
0.4999999999999964
 40
0.4999999999999964
 40
0.5312499999999963
 40
0.5312499999999963
 40
0.5624999999999962
 40
0.5624999999999962
 40
0.6249999999999962
 40
0.6249999999999962
 40
0.6562499999999966
 40
0.6562499999999966
 40
0.6874999999999969
 40
0.6874999999999969
 40
0.7499999999999974
 40
0.7499999999999974
 40
0.812499999999998
 40
0.812499999999998
 40
0.8749999999999986
 40
0.8749999999999986
 40
0.9374999999999991
 40
0.9374999999999991
 40
0.9687499999999996
 40
0.9687499999999996
 40
1.0
 40
1.0
 40
1.0
 40
1.0
 10
632.1005724994682
 20
440.6834535567159
 30
0.0
 10
632.1006123169606
 20
440.6829699841015
 30
0.0
 10
632.0440052755563
 20
440.6843875419506
 30
0.0
 10
631.8131985492164
 20
440.6880062761566
 30
0.0
 10
631.6411702236242
 20
440.6900979203546
 30
0.0
 10
631.1915035226926
 20
440.6868303755232
 30
0.0
 10
630.9134828464846
 20
440.681475907121
 30
0.0
 10
630.2467944323132
 20
440.6515897429147
 30
0.0
 10
629.8666262260555
 20
440.6272353123154
 30
0.0
 10
629.0214431854348
 20
440.5497726405414
 30
0.0
 10
628.5557541598146
 20
440.4966373420742
 30
0.0
 10
627.535879458372
 20
440.3519419513449
 30
0.0
 10
626.9973254146655
 20
440.2625423379347
 30
0.0
 10
626.1496530665231
 20
440.1014844568185
 30
0.0
 10
625.8604117420825
 20
440.0433204519409
 30
0.0
 10
625.268584199187
 20
439.9179331474802
 30
0.0
 10
624.964906221579
 20
439.8504554978138
 30
0.0
 10
624.0410336692601
 20
439.6361143398825
 30
0.0
 10
623.4156040252315
 20
439.4792166374023
 30
0.0
 10
622.4635337924158
 20
439.2261881150172
 30
0.0
 10
622.143838876398
 20
439.1388934312641
 30
0.0
 10
621.4996386773329
 20
438.9588831648689
 30
0.0
 10
621.173732455807
 20
438.8657552270897
 30
0.0
 10
620.2007431987031
 20
438.5824959316972
 30
0.0
 10
619.558702763551
 20
438.3887213982647
 30
0.0
 10
618.6042304377124
 20
438.0940812481107
 30
0.0
 10
618.2875144287358
 20
437.9951951329259
 30
0.0
 10
617.6568535556465
 20
437.7965535241993
 30
0.0
 10
617.3416461535494
 20
437.6963927473303
 30
0.0
 10
616.409919047774
 20
437.3983938644163
 30
0.0
 10
615.8102394517846
 20
437.2040626640851
 30
0.0
 10
614.6520673561951
 20
436.826745368195
 30
0.0
 10
614.0935710910742
 20
436.643739123851
 30
0.0
 10
613.0198871444381
 20
436.2917521534201
 30
0.0
 10
612.5187366306762
 20
436.1273799364767
 30
0.0
 10
611.5900559927803
 20
435.8236439331724
 30
0.0
 10
611.1618321068516
 20
435.684041945325
 30
0.0
 10
610.5770629703185
 20
435.4942755571066
 30
0.0
 10
610.3920931591799
 20
435.4344053974128
 30
0.0
 10
610.0493031846751
 20
435.3237253998535
 30
0.0
 10
609.8904414365285
 20
435.2725766876771
 30
0.0
 10
609.7440171475597
 20
435.2255459926046
 30
0.0
  0
SPLINE
  5
12A
330
1F
100
AcDbEntity
  8
0
  6
Continuous
 62
     7
370
    15
100
AcDbSpline
210
0.0
220
0.0
230
1.0
 70
     8
 71
     3
 72
    10
 73
     6
 74
     0
 42
0.00000001
 43
0.00000001
 40
0.0
 40
0.0
 40
0.0
 40
0.0
 40
0.6704813366363548
 40
0.9982279637880207
 40
1.0
 40
1.0
 40
1.0
 40
1.0
 10
668.2703981929561
 20
496.547552508907
 30
0.0
 10
668.3082887280146
 20
496.5126121624589
 30
0.0
 10
668.3647010240644
 20
496.4605921747527
 30
0.0
 10
668.4609569194246
 20
496.1471591014821
 30
0.0
 10
668.5548185411446
 20
495.7006385422869
 30
0.0
 10
668.5553232961437
 20
495.6982373107687
 30
0.0
  0
SPLINE
  5
12B
330
1F
100
AcDbEntity
  8
0
  6
Continuous
 62
     7
370
    15
100
AcDbSpline
210
0.0
220
0.0
230
1.0
 70
     8
 71
     3
 72
    36
 73
    32
 74
     0
 42
0.00000001
 43
0.00000001
 40
0.0
 40
0.0
 40
0.0
 40
0.0
 40
0.0352384641324132
 40
0.0704229475682555
 40
0.1055534504944178
 40
0.1406299730986212
 40
0.175652515569454
 40
0.2106210780964381
 40
0.2455356608699239
 40
0.2803962640811763
 40
0.3152028879222911
 40
0.3499555325863279
 40
0.3846541982670941
 40
0.4192988851592988
 40
0.4538895934584621
 40
0.4884263233609155
 40
0.5229090750637386
 40
0.5573378487648083
 40
0.5917126446627484
 40
0.6260334629568365
 40
0.6603003038471211
 40
0.6945131675342603
 40
0.72867205421961
 40
0.7627769641051123
 40
0.796827897393376
 40
0.8308248542875625
 40
0.864767834991489
 40
0.898656839709465
 40
0.9324918686464374
 40
0.966272922007915
 40
1.0
 40
1.0
 40
1.0
 40
1.0
 10
706.4301428908624
 20
506.8315015860746
 30
0.0
 10
706.4259084098419
 20
506.8773072408168
 30
0.0
 10
706.4174459344695
 20
506.9688483820573
 30
0.0
 10
706.3923767855788
 20
507.1044614504364
 30
0.0
 10
706.358454760274
 20
507.2378265749247
 30
0.0
 10
706.3150031162694
 20
507.3682130256468
 30
0.0
 10
706.2625236383789
 20
507.4949914206894
 30
0.0
 10
706.2012593059085
 20
507.6175339411502
 30
0.0
 10
706.131576016414
 20
507.7352447539452
 30
0.0
 10
706.0538577769515
 20
507.8475554086866
 30
0.0
 10
705.9685317378512
 20
507.9539293661692
 30
0.0
 10
705.8760583121601
 20
508.0538638406524
 30
0.0
 10
705.7769304449266
 20
508.1468921035711
 30
0.0
 10
705.6716702730519
 20
508.2325853971701
 30
0.0
 10
705.5608263400838
 20
508.3105546772094
 30
0.0
 10
705.4449705411444
 20
508.3804521192818
 30
0.0
 10
705.3246950398599
 20
508.4419724008799
 30
0.0
 10
705.2006091139276
 20
508.4948537524844
 30
0.0
 10
705.073335962856
 20
508.5388787764197
 30
0.0
 10
704.9435094882384
 20
508.5738750365439
 30
0.0
 10
704.8117710721538
 20
508.5997154063888
 30
0.0
 10
704.6787663403518
 20
508.616318227809
 30
0.0
 10
704.5451420353976
 20
508.6236470973254
 30
0.0
 10
704.4115426087769
 20
508.621710977155
 30
0.0
 10
704.2786080603089
 20
508.6105620572351
 30
0.0
 10
704.1469674047416
 20
508.5903009767534
 30
0.0
 10
704.0172487577385
 20
508.561053661679
 30
0.0
 10
703.8900279480976
 20
508.5230528924592
 30
0.0
 10
703.766006470352
 20
508.476329036157
 30
0.0
 10
703.6453360929793
 20
508.4218550473911
 30
0.0
 10
703.5684646693763
 20
508.3787680494656
 30
0.0
 10
703.5300596884173
 20
508.3572417753658
 30
0.0
  0
ARC
  5
12C
330
1F
100
AcDbEntity
  8
0
  6
Continuous
 62
     7
370
    15
100
AcDbCircle
 10
704.5064737207
 20
506.6936292089
 30
0.0
 40
1.928601864520299
100
AcDbArc
 50
349.4857022548
 51
4.099472274
  0
SPLINE
  5
12D
330
1F
100
AcDbEntity
  8
0
  6
Continuous
 62
     7
370
    15
100
AcDbSpline
210
0.0
220
0.0
230
1.0
 70
     8
 71
     3
 72
    12
 73
     8
 74
     0
 42
0.00000001
 43
0.00000001
 40
0.0
 40
0.0
 40
0.0
 40
0.0
 40
0.2191776376394395
 40
0.4431902743203252
 40
0.6914672437828087
 40
0.9464606885946217
 40
1.0
 40
1.0
 40
1.0
 40
1.0
 10
679.7285864883205
 20
489.0023111213461
 30
0.0
 10
680.0402372941533
 20
489.6761697999027
 30
0.0
 10
680.6704138377859
 20
491.0387522960875
 30
0.0
 10
681.4106876527288
 20
492.6393809368682
 30
0.0
 10
681.9289979373629
 20
493.7600805331551
 30
0.0
 10
682.1639565603726
 20
494.268090780444
 30
0.0
 10
682.1816963297637
 20
494.3064670309306
 30
0.0
 10
682.1847746902248
 20
494.3131264146879
 30
0.0
  0
SPLINE
  5
12E
330
1F
100
AcDbEntity
  8
0
  6
Continuous
 62
     7
370
    15
100
AcDbSpline
210
0.0
220
0.0
230
1.0
 70
     8
 71
     3
 72
    11
 73
     7
 74
     0
 42
0.00000001
 43
0.00000001
 40
0.0
 40
0.0
 40
0.0
 40
0.0
 40
0.2003707438323218
 40
0.4575267939793671
 40
0.7372931941998366
 40
1.0
 40
1.0
 40
1.0
 40
1.0
 10
682.8922743731281
 20
494.5150469277516
 30
0.0
 10
683.6536552507416
 20
494.7053955843569
 30
0.0
 10
685.3921932491994
 20
495.1400379324823
 30
0.0
 10
688.0294508547775
 20
496.3473541151773
 30
0.0
 10
690.673690847079
 20
498.0371879247683
 30
0.0
 10
692.2829074483077
 20
499.422995843491
 30
0.0
 10
693.0622125798008
 20
500.0941094906531
 30
0.0
  0
LINE
  5
12F
330
1F
100
AcDbEntity
  8
0
  6
Continuous
 62
     7
370
    15
100
AcDbLine
 10
703.1832079225
 20
508.1178354878
 30
0.0
 11
703.5296524697
 21
508.3578289334
 31
0.0
  0
SPLINE
  5
130
330
1F
100
AcDbEntity
  8
0
  6
Continuous
 62
     7
370
    15
100
AcDbSpline
210
0.0
220
0.0
230
1.0
 70
     8
 71
     3
 72
     8
 73
     4
 74
     0
 42
0.00000001
 43
0.00000001
 40
0.0
 40
0.0
 40
0.0
 40
0.0
 40
1.0
 40
1.0
 40
1.0
 40
1.0
 10
679.5964425866343
 20
488.714601829333
 30
0.0
 10
679.6406310986189
 20
488.8114814547238
 30
0.0
 10
679.6846854187811
 20
488.9073858800114
 30
0.0
 10
679.7285871749889
 20
489.0023109500813
 30
0.0
  0
LINE
  5
131
330
1F
100
AcDbEntity
  8
0
  6
Continuous
 62
     7
370
    15
100
AcDbLine
 10
715.0294895106
 20
407.235722508
 30
0.0
 11
715.0316650801
 21
407.2254630585
 31
0.0
  0
ARC
  5
132
330
1F
100
AcDbEntity
  8
0
  6
Continuous
 62
     7
370
    15
100
AcDbCircle
 10
716.1574127874
 20
408.7826689419
 30
0.0
 40
1.928846154772207
100
AcDbArc
 50
336.3350972079
 51
3.6430409016
  0
LINE
  5
133
330
1F
100
AcDbEntity
  8
0
  6
Continuous
 62
     7
370
    15
100
AcDbLine
 10
715.0340418154
 20
407.2142275829
 30
0.0
 11
713.84926539
 21
408.1234144826
 31
0.0
  0
SPLINE
  5
134
330
1F
100
AcDbEntity
  8
0
  6
Continuous
 62
     7
370
    15
100
AcDbSpline
210
0.0
220
0.0
230
1.0
 70
     8
 71
     3
 72
    17
 73
    13
 74
     0
 42
0.00000001
 43
0.00000001
 40
0.0
 40
0.0
 40
0.0
 40
0.0
 40
0.0268219603188459
 40
0.1595627315964049
 40
0.2935414887424379
 40
0.3813528609032555
 40
0.4662529293264659
 40
0.5488786630610958
 40
0.633180661323687
 40
0.7502505466461956
 40
0.8731759207781923
 40
1.0
 40
1.0
 40
1.0
 40
1.0
 10
704.3888161712429
 20
419.8442059416786
 30
0.0
 10
704.2042362032923
 20
420.1769057495194
 30
0.0
 10
703.1061776149544
 20
422.1561231336929
 30
0.0
 10
701.7199758933798
 20
426.1034733252639
 30
0.0
 10
700.035726227046
 20
430.8321339086836
 30
0.0
 10
698.3395337907996
 20
434.8424060747833
 30
0.0
 10
696.4617874917916
 20
437.9630283548393
 30
0.0
 10
693.8842506382604
 20
440.5103696035263
 30
0.0
 10
690.2520456377499
 20
442.3567223419867
 30
0.0
 10
685.7588468064783
 20
443.4561073049447
 30
0.0
 10
680.5750963305845
 20
443.9819428861695
 30
0.0
 10
677.0330506840727
 20
444.0145522231851
 30
0.0
 10
675.2343813710949
 20
444.0311114151493
 30
0.0
  0
LWPOLYLINE
  5
135
330
1F
100
AcDbEntity
  8
0
  6
Continuous
 62
     7
370
    15
100
AcDbPolyline
 90
       11
 70
   128
 43
0.0
 10
674.1857047015
 20
458.5912036557
 10
674.1940120989
 20
455.9455322881
 10
674.2017309004
 20
453.4885058959
 10
674.2087493473
 20
451.2553582747
 10
674.2149631315
 20
449.2781082947
 10
674.2202753955
 20
447.5851016898
 10
674.2246265345
 20
446.2006161768
 10
674.2279494935
 20
445.1444963772
 10
674.2301846677
 20
444.4318930466
 10
674.2313097053
 20
444.0730172057
 10
674.2314512664
 20
444.0280380507
  0
SPLINE
  5
136
330
1F
100
AcDbEntity
  8
0
  6
Continuous
 62
     7
370
    15
100
AcDbSpline
210
0.0
220
0.0
230
1.0
 70
     8
 71
     3
 72
    16
 73
    12
 74
     0
 42
0.00000001
 43
0.00000001
 40
0.0
 40
0.0
 40
0.0
 40
0.0
 40
0.2499999999999998
 40
0.2499999999999998
 40
0.4999999999999997
 40
0.4999999999999997
 40
0.6249999999999996
 40
0.6249999999999996
 40
0.7499999999999996
 40
0.7499999999999996
 40
1.0
 40
1.0
 40
1.0
 40
1.0
 10
679.5964299221919
 20
488.7145740635808
 30
0.0
 10
679.2271637848756
 20
487.9049877821205
 30
0.0
 10
678.8492069673823
 20
487.0288783599774
 30
0.0
 10
678.0958958019786
 20
485.1452234184786
 30
0.0
 10
677.720432715676
 20
484.1376891857051
 30
0.0
 10
677.1722908864497
 20
482.5205629510295
 30
0.0
 10
676.9924106629073
 20
481.9644667372247
 30
0.0
 10
676.6457784843328
 20
480.8351979476242
 30
0.0
 10
676.4782389855604
 20
480.2597601604526
 30
0.0
 10
675.9952908161727
 20
478.5007009975806
 30
0.0
 10
675.6995133030462
 20
477.2845429805002
 30
0.0
 10
675.4362562978769
 20
476.0216701593626
 30
0.0
  0
SPLINE
  5
137
330
1F
100
AcDbEntity
  8
0
  6
Continuous
 62
     7
370
    15
100
AcDbSpline
210
0.0
220
0.0
230
1.0
 70
     8
 71
     3
 72
    18
 73
    14
 74
     0
 42
0.00000001
 43
0.00000001
 40
0.0
 40
0.0
 40
0.0
 40
0.0
 40
0.2500000000000008
 40
0.2500000000000008
 40
0.3750000000000007
 40
0.3750000000000007
 40
0.5000000000000007
 40
0.5000000000000007
 40
0.7500000000000003
 40
0.7500000000000003
 40
0.8750000000000001
 40
0.8750000000000001
 40
1.0
 40
1.0
 40
1.0
 40
1.0
 10
675.4362562978769
 20
476.0216701593626
 30
0.0
 10
675.1810360076976
 20
474.6101291355886
 30
0.0
 10
674.9694056622182
 20
473.1693174835543
 30
0.0
 10
674.7147680052994
 20
470.9638316784817
 30
0.0
 10
674.6402802961217
 20
470.2212699850989
 30
0.0
 10
674.5107343191488
 20
468.7209964093301
 30
0.0
 10
674.4564840323054
 20
467.9724091759566
 30
0.0
 10
674.3209906497694
 20
465.7455181104015
 30
0.0
 10
674.2663695804605
 20
464.2797934253971
 30
0.0
 10
674.2166258809987
 20
462.1107334798277
 30
0.0
 10
674.2054099058513
 20
461.3903748016074
 30
0.0
 10
674.1906385268511
 20
459.9721536635357
 30
0.0
 10
674.187051144655
 20
459.2754499417356
 30
0.0
 10
674.1857015992126
 20
458.5912038874523
 30
0.0
  0
SPLINE
  5
138
330
1F
100
AcDbEntity
  8
0
  6
Continuous
 62
     7
370
    15
100
AcDbSpline
210
0.0
220
0.0
230
1.0
 70
    24
 71
     3
 72
    30
 73
    26
 74
     0
 42
0.00000001
 43
0.00000001
 40
0.0
 40
0.0
 40
0.0
 40
0.0
 40
0.0334818152749831
 40
0.066876149525968
 40
0.1001964695751329
 40
0.1334563321491869
 40
0.1666693680065888
 40
0.1998492656170259
 40
0.2330097544880749
 40
0.266164588238959
 40
0.2993275275249226
 40
0.3325123229179052
 40
0.3657326978498294
 40
0.3990023317239053
 40
0.4323348432969386
 40
0.4657437744317657
 40
0.4992425743137131
 40
0.5622046888429694
 40
0.6248795391247761
 40
0.6873575926996245
 40
0.7497301734379554
 40
0.8120890686031257
 40
0.8745261258150486
 40
0.9371328486900913
 40
1.0
 40
1.0
 40
1.0
 40
1.0
 10
668.9214480185746
 20
481.6823910942963
 30
0.0
 10
668.9214480185746
 20
481.5382150935146
 30
0.0
 10
668.9214480185746
 20
481.250239793874
 30
0.0
 10
668.9214480185746
 20
480.8125742016024
 30
0.0
 10
668.9214480185746
 20
480.3715315041171
 30
0.0
 10
668.9214480185746
 20
479.926657318277
 30
0.0
 10
668.9214480185746
 20
479.4780732561208
 30
0.0
 10
668.9214480185746
 20
479.025747072664
 30
0.0
 10
668.9214480185746
 20
478.5696876661844
 30
0.0
 10
668.9214480185746
 20
478.1098929428662
 30
0.0
 10
668.9214480185746
 20
477.6463637659482
 30
0.0
 10
668.9214480185746
 20
477.1791002011435
 30
0.0
 10
668.9214480185746
 20
476.7081025880576
 30
0.0
 10
668.9214480185746
 20
476.233370994769
 30
0.0
 10
668.9214480185746
 20
475.7549063177452
 30
0.0
 10
668.9214480185746
 20
475.2727064044373
 30
0.0
 10
668.9214480185746
 20
474.6448356957099
 30
0.0
 10
668.9214480185746
 20
473.8703403316447
 30
0.0
 10
668.9214480185746
 20
472.9481861930126
 30
0.0
 10
668.9214480185746
 20
472.0235760841547
 30
0.0
 10
668.9214480185746
 20
471.096527990392
 30
0.0
 10
668.9214480185746
 20
470.1670279996604
 30
0.0
 10
668.9214480185746
 20
469.2351494999747
 30
0.0
 10
668.9214480185746
 20
468.3006481786182
 30
0.0
 10
668.9214480185746
 20
467.6781169724944
 30
0.0
 10
668.9214480185746
 20
467.3662053192936
 30
0.0
  0
SPLINE
  5
139
330
1F
100
AcDbEntity
  8
0
  6
Continuous
 62
     7
370
    15
100
AcDbSpline
210
0.0
220
0.0
230
1.0
 70
    24
 71
     3
 72
    29
 73
    25
 74
     0
 42
0.00000001
 43
0.00000001
 40
0.0
 40
0.0
 40
0.0
 40
0.0
 40
0.0360256054893981
 40
0.0719284980750711
 40
0.1077238293133042
 40
0.1434268877003269
 40
0.1790530805254819
 40
0.2146179149766495
 40
0.2501369786067436
 40
0.2856259192794945
 40
0.3211004247205197
 40
0.3565762018056288
 40
0.3920689557223808
 40
0.4275943691428294
 40
0.4631680815452228
 40
0.498805668820155
 40
0.5611737679964427
 40
0.6234570219692949
 40
0.6857383398336196
 40
0.7481006384063478
 40
0.8106265123348082
 40
0.8733979105719681
 40
0.9364958254477002
 40
1.0
 40
1.0
 40
1.0
 40
1.0
 10
668.9214480185746
 20
467.3680895143249
 30
0.0
 10
668.9214480185746
 20
467.1949649936893
 30
0.0
 10
668.9214480185746
 20
466.8493056611086
 30
0.0
 10
668.9214480185746
 20
466.3329368048595
 30
0.0
 10
668.9214480185746
 20
465.8193540074938
 30
0.0
 10
668.9214480185746
 20
465.3086351372494
 30
0.0
 10
668.9214480185746
 20
464.8007597827961
 30
0.0
 10
668.9214480185746
 20
464.2957337660094
 30
0.0
 10
668.9214480185746
 20
463.7935559083925
 30
0.0
 10
668.9214480185746
 20
463.2942269081653
 30
0.0
 10
668.9214480185746
 20
462.7977469439737
 30
0.0
 10
668.9214480185746
 20
462.3041163901113
 30
0.0
 10
668.9214480185746
 20
461.8133353312556
 30
0.0
 10
668.9214480185746
 20
461.325404774586
 30
0.0
 10
668.9214480185746
 20
460.840322264927
 30
0.0
 10
668.9214480185746
 20
460.2379071507312
 30
0.0
 10
668.9214480185746
 20
459.5230371128773
 30
0.0
 10
668.9214480185746
 20
458.7024572835205
 30
0.0
 10
668.9214480185746
 20
457.8961061152387
 30
0.0
 10
668.9214480185746
 20
457.1040262094718
 30
0.0
 10
668.9214480185746
 20
456.3260948187989
 30
0.0
 10
668.9214480185746
 20
455.5627851450532
 30
0.0
 10
668.9214480185746
 20
454.8123346976084
 30
0.0
 10
668.9214480185746
 20
454.3267980996141
 30
0.0
 10
668.9214480185746
 20
454.0832507694724
 30
0.0
  0
SPLINE
  5
13A
330
1F
100
AcDbEntity
  8
0
  6
Continuous
 62
     7
370
    15
100
AcDbSpline
210
0.0
220
0.0
230
1.0
 70
     8
 71
     3
 72
    38
 73
    34
 74
     0
 42
0.00000001
 43
0.00000001
 40
0.0
 40
0.0
 40
0.0
 40
0.0
 40
0.0312500000000001
 40
0.0312500000000001
 40
0.0625000000000001
 40
0.0625000000000001
 40
0.1250000000000002
 40
0.1250000000000002
 40
0.1875000000000002
 40
0.1875000000000002
 40
0.2500000000000003
 40
0.2500000000000003
 40
0.3125000000000003
 40
0.3125000000000003
 40
0.3750000000000003
 40
0.3750000000000003
 40
0.4375000000000003
 40
0.4375000000000003
 40
0.5000000000000003
 40
0.5000000000000003
 40
0.5625000000000003
 40
0.5625000000000003
 40
0.6250000000000003
 40
0.6250000000000003
 40
0.7500000000000004
 40
0.7500000000000004
 40
0.8125000000000003
 40
0.8125000000000003
 40
0.8750000000000002
 40
0.8750000000000002
 40
0.9375000000000001
 40
0.9375000000000001
 40
1.0
 40
1.0
 40
1.0
 40
1.0
 10
706.4036066638589
 20
506.3419159791229
 30
0.0
 10
706.2153958599401
 20
505.3266009171307
 30
0.0
 10
706.0226760963185
 20
504.3113751390683
 30
0.0
 10
705.6677686796619
 20
502.2803190029526
 30
0.0
 10
705.5018011257166
 20
501.2645634924094
 30
0.0
 10
705.0382664502989
 20
498.2166164248946
 30
0.0
 10
704.7753976311106
 20
496.1837377913051
 30
0.0
 10
704.3522381498536
 20
492.1159493281133
 30
0.0
 10
704.191750256636
 20
490.0810434039732
 30
0.0
 10
704.0005270093003
 20
486.0086622675767
 30
0.0
 10
703.9701444399712
 20
483.9711800696708
 30
0.0
 10
704.0501903310358
 20
479.8934274116189
 30
0.0
 10
704.1604094415206
 20
477.8531610969042
 30
0.0
 10
704.5148743374381
 20
473.7699745452811
 30
0.0
 10
704.7590599527865
 20
471.7270554998275
 30
0.0
 10
705.365184715266
 20
467.6388857185196
 30
0.0
 10
705.7279268421681
 20
465.5896465264237
 30
0.0
 10
706.5415132496356
 20
461.5156416517421
 30
0.0
 10
706.9922778876884
 20
459.4894646246109
 30
0.0
 10
707.9509382683486
 20
455.4511757845522
 30
0.0
 10
708.4587028321303
 20
453.4390316764624
 30
0.0
 10
709.500303576214
 20
449.4211620806449
 30
0.0
 10
710.0340050445851
 20
447.4154034279331
 30
0.0
 10
711.6401304941587
 20
441.3993636101877
 30
0.0
 10
712.7197339944889
 20
437.3899151820472
 30
0.0
 10
714.256687280775
 20
431.3594526301126
 30
0.0
 10
714.7550994373662
 20
429.3466686827974
 30
0.0
 10
715.6904092783933
 20
425.3094674577435
 30
0.0
 10
716.1263717017547
 20
423.2848733077871
 30
0.0
 10
716.8912299908982
 20
419.2154370792492
 30
0.0
 10
717.219186640952
 20
417.1704173805642
 30
0.0
 10
717.7466744401889
 20
413.0560907507091
 30
0.0
 10
717.9482865155966
 20
410.9871773546132
 30
0.0
 10
718.0824989674123
 20
408.9055176556686
 30
0.0
  0
LINE
  5
13B
330
1F
100
AcDbEntity
  8
0
  6
Continuous
 62
     7
370
    15
100
AcDbLine
 10
669.7884167367
 20
445.1421084661
 30
0.0
 11
669.7884167367
 21
493.2348327559
 31
0.0
  0
SPLINE
  5
13C
330
1F
100
AcDbEntity
  8
0
  6
Continuous
 62
     7
370
    15
100
AcDbSpline
210
0.0
220
0.0
230
1.0
 70
    24
 71
     3
 72
    32
 73
    28
 74
     0
 42
0.00000001
 43
0.00000001
 40
0.0
 40
0.0
 40
0.0
 40
0.0
 40
0.0263729604117085
 40
0.0524334544713091
 40
0.0781904056026517
 40
0.1036530563627968
 40
0.1288309734149047
 40
0.1537340515706556
 40
0.1783725167699927
 40
0.2027569278624381
 40
0.2268981770527913
 40
0.2508074888750712
 40
0.3131456953955164
 40
0.3752218535512805
 40
0.4372105556393648
 40
0.4992871318798705
 40
0.5449306566900176
 40
0.5903414332099005
 40
0.635588155328202
 40
0.6807402657111126
 40
0.7258676437966831
 40
0.7710402838013722
 40
0.8163279700789483
 40
0.8617999573131435
 40
0.9075246627681298
 40
0.953569377189346
 40
0.9999999999999999
 40
0.9999999999999999
 40
0.9999999999999999
 40
0.9999999999999999
 10
668.9214480185746
 20
493.482462336981
 30
0.0
 10
668.9214480185746
 20
493.4446277768359
 30
0.0
 10
668.9214480185746
 20
493.3694069197216
 30
0.0
 10
668.9214480185746
 20
493.2448441188221
 30
0.0
 10
668.9214480185746
 20
493.1125046259007
 30
0.0
 10
668.9214480185746
 20
492.9715271655971
 30
0.0
 10
668.9214480185746
 20
492.8221384402588
 30
0.0
 10
668.9214480185746
 20
492.6642769893083
 30
0.0
 10
668.9214480185746
 20
492.4979633505578
 30
0.0
 10
668.9214480185746
 20
492.3231740502653
 30
0.0
 10
668.9214480185746
 20
492.1399795520902
 30
0.0
 10
668.9214480185746
 20
491.844760943758
 30
0.0
 10
668.9214480185746
 20
491.4122221873862
 30
0.0
 10
668.9214480185746
 20
490.8067259085164
 30
0.0
 10
668.9214480185746
 20
490.1409386476539
 30
0.0
 10
668.9214480185746
 20
489.4799298995815
 30
0.0
 10
668.9214480185746
 20
488.8434060482024
 30
0.0
 10
668.9214480185746
 20
488.2473291844809
 30
0.0
 10
668.9214480185746
 20
487.6245525481224
 30
0.0
 10
668.9214480185746
 20
486.9751038058442
 30
0.0
 10
668.9214480185746
 20
486.2989785304139
 30
0.0
 10
668.9214480185746
 20
485.5961916051167
 30
0.0
 10
668.9214480185746
 20
484.8667174153933
 30
0.0
 10
668.9214480185746
 20
484.1106776803923
 30
0.0
 10
668.9214480185746
 20
483.327644441547
 30
0.0
 10
668.9214480185746
 20
482.5192609343597
 30
0.0
 10
668.9214480185746
 20
481.9619059268284
 30
0.0
 10
668.9214480185746
 20
481.6820654752988
 30
0.0
  0
LINE
  5
13D
330
1F
100
AcDbEntity
  8
0
  6
Continuous
 62
     7
370
    15
100
AcDbLine
 10
668.9214448267
 20
454.0825146098
 30
0.0
 11
668.9214448267
 21
444.6099283953
 31
0.0
  0
LINE
  5
13E
330
1F
100
AcDbEntity
  8
0
  6
Continuous
 62
     7
370
    15
100
AcDbLine
 10
668.8741634422
 20
494.582949191
 30
0.0
 11
668.8834841185
 21
494.697361238
 31
0.0
  0
LINE
  5
13F
330
1F
100
AcDbEntity
  8
0
  6
Continuous
 62
     7
370
    15
100
AcDbLine
 10
608.530072757
 20
431.074473526
 30
0.0
 11
632.1005712086
 21
431.074473526
 31
0.0
  0
LINE
  5
140
330
1F
100
AcDbEntity
  8
0
  6
Continuous
 62
     7
370
    15
100
AcDbLine
 10
609.7863300526
 20
428.266066577
 30
0.0
 11
630.8443139129
 21
428.266066577
 31
0.0
  0
LINE
  5
141
330
1F
100
AcDbEntity
  8
0
  6
Continuous
 62
     7
370
    15
100
AcDbLine
 10
625.7350037628
 20
421.8468698521
 30
0.0
 11
630.8443139129
 21
421.8468698521
 31
0.0
  0
LINE
  5
142
330
1F
100
AcDbEntity
  8
0
  6
Continuous
 62
     7
370
    15
100
AcDbLine
 10
625.7350037628
 20
426.560971405
 30
0.0
 11
625.7350037628
 21
421.8468698521
 31
0.0
  0
LINE
  5
143
330
1F
100
AcDbEntity
  8
0
  6
Continuous
 62
     7
370
    15
100
AcDbLine
 10
614.8956402027
 20
426.560971405
 30
0.0
 11
625.7350037628
 21
426.560971405
 31
0.0
  0
LINE
  5
144
330
1F
100
AcDbEntity
  8
0
  6
Continuous
 62
     7
370
    15
100
AcDbLine
 10
614.8956402027
 20
421.8468698521
 30
0.0
 11
614.8956402027
 21
426.560971405
 31
0.0
  0
LINE
  5
145
330
1F
100
AcDbEntity
  8
0
  6
Continuous
 62
     7
370
    15
100
AcDbLine
 10
609.7863300526
 20
421.8468698521
 30
0.0
 11
614.8956402027
 21
421.8468698521
 31
0.0
  0
LINE
  5
146
330
1F
100
AcDbEntity
  8
0
  6
Continuous
 62
     7
370
    15
100
AcDbLine
 10
610.5887296432
 20
429.0684717555
 30
0.0
 11
630.041916185
 21
429.0684717555
 31
0.0
  0
SPLINE
  5
147
330
1F
100
AcDbEntity
  8
0
  6
Continuous
 62
     7
370
    15
100
AcDbSpline
210
0.0
220
0.0
230
1.0
 70
     8
 71
     3
 72
     8
 73
     4
 74
     0
 42
0.00000001
 43
0.00000001
 40
0.0
 40
0.0
 40
0.0
 40
0.0
 40
1.0
 40
1.0
 40
1.0
 40
1.0
 10
616.693186042882
 20
421.0444702836037
 30
0.0
 10
616.0725442939387
 20
421.2755942993633
 30
0.0
 10
615.475929834141
 20
421.5481727444991
 30
0.0
 10
614.8956404203022
 20
421.8468702836037
 30
0.0
  0
LINE
  5
148
330
1F
100
AcDbEntity
  8
0
  6
Continuous
 62
     7
370
    15
100
AcDbLine
 10
610.5887296432
 20
421.0444721241
 30
0.0
 11
616.693185904
 21
421.0444721241
 31
0.0
  0
SPLINE
  5
149
330
1F
100
AcDbEntity
  8
0
  6
Continuous
 62
     7
370
    15
100
AcDbSpline
210
0.0
220
0.0
230
1.0
 70
     8
 71
     3
 72
     8
 73
     4
 74
     0
 42
0.00000001
 43
0.00000001
 40
0.0
 40
0.0
 40
0.0
 40
0.0
 40
1.0
 40
1.0
 40
1.0
 40
1.0
 10
625.7350046203015
 20
421.8468702836037
 30
0.0
 10
625.1506399930412
 20
421.5460750735933
 30
0.0
 10
624.5535513350309
 20
421.2739001202527
 30
0.0
 10
623.9374589977218
 20
421.0444702836037
 30
0.0
  0
LINE
  5
14A
330
1F
100
AcDbEntity
  8
0
  6
Continuous
 62
     7
370
    15
100
AcDbLine
 10
623.9374599242
 20
421.0444721241
 30
0.0
 11
616.693185904
 21
421.0444721241
 31
0.0
  0
LINE
  5
14B
330
1F
100
AcDbEntity
  8
0
  6
Continuous
 62
     7
370
    15
100
AcDbLine
 10
623.9374599242
 20
421.0444721241
 30
0.0
 11
630.041916185
 21
421.0444721241
 31
0.0
  0
SPLINE
  5
14C
330
1F
100
AcDbEntity
  8
0
  6
Continuous
 62
     8
370
     0
100
AcDbSpline
210
0.0
220
0.0
230
1.0
 70
     8
 71
     3
 72
    54
 73
    50
 74
     0
 42
0.00000001
 43
0.00000001
 40
0.0
 40
0.0
 40
0.0
 40
0.0
 40
0.1249999999999987
 40
0.1249999999999987
 40
0.1874999999999981
 40
0.1874999999999981
 40
0.2499999999999976
 40
0.2499999999999976
 40
0.3124999999999969
 40
0.3124999999999969
 40
0.3749999999999964
 40
0.3749999999999964
 40
0.4062499999999961
 40
0.4062499999999961
 40
0.4374999999999957
 40
0.4374999999999957
 40
0.4687499999999954
 40
0.4687499999999954
 40
0.4843749999999953
 40
0.4843749999999953
 40
0.4999999999999951
 40
0.4999999999999951
 40
0.5312499999999951
 40
0.5312499999999951
 40
0.5468749999999953
 40
0.5468749999999953
 40
0.5624999999999954
 40
0.5624999999999954
 40
0.5937499999999958
 40
0.5937499999999958
 40
0.609374999999996
 40
0.609374999999996
 40
0.6249999999999961
 40
0.6249999999999961
 40
0.6562499999999967
 40
0.6562499999999967
 40
0.687499999999997
 40
0.687499999999997
 40
0.7187499999999973
 40
0.7187499999999973
 40
0.7499999999999977
 40
0.7499999999999977
 40
0.8124999999999982
 40
0.8124999999999982
 40
0.8749999999999988
 40
0.8749999999999988
 40
0.9374999999999994
 40
0.9374999999999994
 40
1.0
 40
1.0
 40
1.0
 40
1.0
 10
668.2695305545869
 20
496.5457629994118
 30
0.0
 10
668.2197744454841
 20
496.5470724938677
 30
0.0
 10
668.1281035730398
 20
496.5487715535791
 30
0.0
 10
667.876244018372
 20
496.5521922210177
 30
0.0
 10
667.7725948309743
 20
496.5535082425524
 30
0.0
 10
667.5102382926863
 20
496.5566577135082
 30
0.0
 10
667.3515326660278
 20
496.5584838497498
 30
0.0
 10
666.9512753058051
 20
496.5630406361361
 30
0.0
 10
666.7103987633266
 20
496.5657730967524
 30
0.0
 10
666.0949245488695
 20
496.5732257278416
 30
0.0
 10
665.7222774421691
 20
496.5778471837073
 30
0.0
 10
664.9819445624917
 20
496.588124518795
 30
0.0
 10
664.7043344674094
 20
496.5921441418492
 30
0.0
 10
664.0604186216738
 20
496.6022840058982
 30
0.0
 10
663.6929056146785
 20
496.6083696714359
 30
0.0
 10
662.8383773652426
 20
496.6237198887382
 30
0.0
 10
662.3505021295199
 20
496.6329475506831
 30
0.0
 10
661.4860677857979
 20
496.6501056075442
 30
0.0
 10
661.1758703334862
 20
496.6564479572849
 30
0.0
 10
660.5013783111093
 20
496.6699612767746
 30
0.0
 10
660.1345401575263
 20
496.6771408608266
 30
0.0
 10
658.9593759513006
 20
496.6993679066602
 30
0.0
 10
658.0805851187938
 20
496.7153689529521
 30
0.0
 10
656.58913946769
 20
496.7414693345999
 30
0.0
 10
656.0625939334551
 20
496.7503808673069
 30
0.0
 10
654.9472208214637
 20
496.7674427371258
 30
0.0
 10
654.3550369321135
 20
496.7756511924313
 30
0.0
 10
652.5322649544767
 20
496.7975473015244
 30
0.0
 10
651.2504204348002
 20
496.8088032151261
 30
0.0
 10
649.2594387721136
 20
496.8224964562128
 30
0.0
 10
648.5842331093203
 20
496.8265698146119
 30
0.0
 10
647.2143072278044
 20
496.8338598057015
 30
0.0
 10
646.5201830172497
 20
496.8370876209749
 30
0.0
 10
644.4302430833143
 20
496.8457105284013
 30
0.0
 10
643.0208975951708
 20
496.8503495590764
 30
0.0
 10
640.1797332016124
 20
496.8580895937976
 30
0.0
 10
638.7480578030273
 20
496.8612574147758
 30
0.0
 10
635.86842329371
 20
496.8667945916396
 30
0.0
 10
634.4227591270692
 20
496.8691255398804
 30
0.0
 10
631.531127270615
 20
496.873314643857
 30
0.0
 10
630.0836573800437
 20
496.8751049261116
 30
0.0
 10
625.7375192272447
 20
496.8800631718642
 30
0.0
 10
622.8352042452065
 20
496.8826978596813
 30
0.0
 10
617.0248522722248
 20
496.8874005290238
 30
0.0
 10
614.1167588127372
 20
496.8893547461906
 30
0.0
 10
608.2970283796463
 20
496.8930514256866
 30
0.0
 10
605.3850430764572
 20
496.8948051049286
 30
0.0
 10
599.5611683275002
 20
496.8985686245046
 30
0.0
 10
596.6490415768444
 20
496.901222646658
 30
0.0
 10
593.7369194130946
 20
496.9021722084771
 30
0.0
  0
SPLINE
  5
14D
330
1F
100
AcDbEntity
  8
0
  6
Continuous
 62
     8
370
     0
100
AcDbSpline
210
0.0
220
0.0
230
1.0
 70
     8
 71
     3
 72
    22
 73
    18
 74
     0
 42
0.00000001
 43
0.00000001
 40
0.0
 40
0.0
 40
0.0
 40
0.0
 40
0.125
 40
0.125
 40
0.25
 40
0.25
 40
0.375
 40
0.375
 40
0.5
 40
0.5
 40
0.625
 40
0.625
 40
0.75
 40
0.75
 40
0.875
 40
0.875
 40
1.0
 40
1.0
 40
1.0
 40
1.0
 10
593.7358223902919
 20
499.8802702331165
 30
0.0
 10
593.7359023742184
 20
499.8802702330873
 30
0.0
 10
593.7359807673611
 20
499.8601760162504
 30
0.0
 10
593.7361345248142
 20
499.7816977954577
 30
0.0
 10
593.7362107942641
 20
499.7222072784701
 30
0.0
 10
593.7363549101055
 20
499.5674472095048
 30
0.0
 10
593.7364226684366
 20
499.4729600820994
 30
0.0
 10
593.7365495820766
 20
499.2497160097827
 30
0.0
 10
593.7366083019436
 20
499.1210080646953
 30
0.0
 10
593.736711460614
 20
498.8409319938522
 30
0.0
 10
593.7367570089665
 20
498.6868708808167
 30
0.0
 10
593.7368331782872
 20
498.3585134371361
 30
0.0
 10
593.7368632866969
 20
498.1871911158049
 30
0.0
 10
593.7369078597713
 20
497.8305285663466
 30
0.0
 10
593.7369221662501
 20
497.6439634175624
 30
0.0
 10
593.7369334283876
 20
497.2738482070063
 30
0.0
 10
593.7369307463115
 20
497.0882772872415
 30
0.0
 10
593.7369194130946
 20
496.9021722084772
 30
0.0
  0
SPLINE
  5
14E
330
1F
100
AcDbEntity
  8
0
  6
Continuous
 62
     8
370
     0
100
AcDbSpline
210
0.0
220
0.0
230
1.0
 70
     8
 71
     3
 72
    10
 73
     6
 74
     0
 42
0.00000001
 43
0.00000001
 40
0.0
 40
0.0
 40
0.0
 40
0.0
 40
0.419274815441995
 40
0.8264556488961456
 40
1.0
 40
1.0
 40
1.0
 40
1.0
 10
621.2045534336111
 20
440.051529075624
 30
0.0
 10
620.4290022002896
 20
439.6737995709157
 30
0.0
 10
618.9002705088543
 20
438.929236169005
 30
0.0
 10
617.1323832763045
 20
438.135158842798
 30
0.0
 10
616.2023644010753
 20
437.7465904362227
 30
0.0
 10
615.924436860635
 20
437.6304703612342
 30
0.0
  0
SPLINE
  5
14F
330
1F
100
AcDbEntity
  8
0
  6
Continuous
 62
     8
370
     0
100
AcDbSpline
210
0.0
220
0.0
230
1.0
 70
     8
 71
     3
 72
    27
 73
    23
 74
     0
 42
0.00000001
 43
0.00000001
 40
0.0
 40
0.0
 40
0.0
 40
0.0
 40
0.0503597286643632
 40
0.1007995899349514
 40
0.1480999897034973
 40
0.1955562857766956
 40
0.243701215548314
 40
0.2922116791748758
 40
0.3518474779360423
 40
0.3819435191719286
 40
0.4124860218925094
 40
0.4422496292786502
 40
0.472237695287761
 40
0.5024466080681648
 40
0.5331710874978864
 40
0.576792288372271
 40
0.6208707853819538
 40
0.6657995212545917
 40
0.7108585776008235
 40
0.8204242301050262
 40
0.9302130929108388
 40
1.0
 40
1.0
 40
1.0
 40
1.0
 10
593.736919370397
 20
496.9021722056434
 30
0.0
 10
593.7375844316482
 20
494.6594437134553
 30
0.0
 10
593.7389156123991
 20
490.1704180903294
 30
0.0
 10
593.7428487795515
 20
483.6314011308028
 30
0.0
 10
593.7482597982066
 20
477.2890285622503
 30
0.0
 10
593.7557894668216
 20
471.1507586220555
 30
0.0
 10
593.7660455594321
 20
465.1175953429064
 30
0.0
 10
593.7807278013594
 20
458.8325067029385
 30
0.0
 10
593.7975411883077
 20
453.6379269635158
 30
0.0
 10
593.814162270176
 20
449.5190967896687
 30
0.0
 10
593.8274573821382
 20
446.6563959672676
 30
0.0
 10
593.8407070067503
 20
444.0607459320586
 30
0.0
 10
593.8536547360785
 20
441.7530120850757
 30
0.0
 10
593.8657827528194
 20
439.718001923682
 30
0.0
 10
593.8787042291438
 20
437.7258240239483
 30
0.0
 10
593.8910254024262
 20
435.9723078150552
 30
0.0
 10
593.900577433426
 20
434.5817735041364
 30
0.0
 10
593.9075117217329
 20
433.6027668974007
 30
0.0
 10
593.9148927904847
 20
432.5868725115052
 30
0.0
 10
593.9216048293106
 20
431.8371882089909
 30
0.0
 10
593.9271145593669
 20
431.4346206674014
 30
0.0
 10
593.9292483134637
 20
431.4729883192605
 30
0.0
 10
593.9300775350174
 20
431.4878987927452
 30
0.0
  0
SPLINE
  5
150
330
1F
100
AcDbEntity
  8
0
  6
Continuous
 62
     8
370
     0
100
AcDbSpline
210
0.0
220
0.0
230
1.0
 70
     8
 71
     3
 72
    29
 73
    25
 74
     0
 42
0.00000001
 43
0.00000001
 40
0.0
 40
0.0
 40
0.0
 40
0.0
 40
0.0317585987507414
 40
0.0637262076484131
 40
0.0959074271795085
 40
0.1283067830815776
 40
0.1609287248217886
 40
0.1937776285099137
 40
0.2268577996897561
 40
0.2601734844573292
 40
0.2937290685887241
 40
0.3275287143664499
 40
0.3615764267870613
 40
0.3958761655285336
 40
0.4304318473365461
 40
0.4652473481061365
 40
0.5003265046494041
 40
0.5695329743894652
 40
0.6394157048373009
 40
0.7100031544237281
 40
0.7813249113016029
 40
0.8534115195955576
 40
0.9262932388109424
 40
1.0
 40
1.0
 40
1.0
 40
1.0
 10
665.531456106443
 20
489.329109385849
 30
0.0
 10
665.5789316185493
 20
489.4431902772868
 30
0.0
 10
665.6741950892851
 20
489.6721028509662
 30
0.0
 10
665.8118641441156
 20
490.0066218711275
 30
0.0
 10
665.9463520542203
 20
490.3359904792039
 30
0.0
 10
666.0772761861713
 20
490.6594089035152
 30
0.0
 10
666.2047855530873
 20
490.9769959821315
 30
0.0
 10
666.3288850608707
 20
491.2886232927338
 30
0.0
 10
666.4496182700259
 20
491.5942305594018
 30
0.0
 10
666.5670192536836
 20
491.8937418600607
 30
0.0
 10
666.6811216315018
 20
492.1870841070177
 30
0.0
 10
666.7919501436083
 20
492.4741879537425
 30
0.0
 10
666.899530164922
 20
492.7549852396006
 30
0.0
 10
667.0038861187127
 20
493.0294085915644
 30
0.0
 10
667.1050419651788
 20
493.2973914237716
 30
0.0
 10
667.2030220063183
 20
493.5588704749731
 30
0.0
 10
667.3283564768744
 20
493.8957883400025
 30
0.0
 10
667.4759334863526
 20
494.2968342387025
 30
0.0
 10
667.6391702110775
 20
494.7465099669163
 30
0.0
 10
667.7899072590254
 20
495.1672042400197
 30
0.0
 10
667.9284427969218
 20
495.558689261745
 30
0.0
 10
668.054659117598
 20
495.9197719982762
 30
0.0
 10
668.1698455456881
 20
496.2530818945846
 30
0.0
 10
668.2361744426306
 20
496.4478373391242
 30
0.0
 10
668.2695255501214
 20
496.5457631311193
 30
0.0
  0
SPLINE
  5
151
330
1F
100
AcDbEntity
  8
0
  6
Continuous
 62
     8
370
     0
100
AcDbSpline
210
0.0
220
0.0
230
1.0
 70
     8
 71
     3
 72
    34
 73
    30
 74
     0
 42
0.00000001
 43
0.00000001
 40
0.0
 40
0.0
 40
0.0
 40
0.0
 40
0.01592915549943
 40
0.0317903313538964
 40
0.0475892409666068
 40
0.0633317172014328
 40
0.0790237070217714
 40
0.0946712653983278
 40
0.1102805484970841
 40
0.1258578061671793
 40
0.141409373757045
 40
0.156941663295733
 40
0.1724611540847537
 40
0.1879743827537275
 40
0.2034879328405489
 40
0.2190084239633828
 40
0.2345425006574888
 40
0.2500968209544669
 40
0.3738793171453961
 40
0.4997372876642875
 40
0.6223097183171301
 40
0.749857226905213
 40
0.7842428438680178
 40
0.8190388847909478
 40
0.8542696701098483
 40
0.8899589534178646
 40
0.9261295655921362
 40
0.9628030810933126
 40
0.9999999999999999
 40
0.9999999999999999
 40
0.9999999999999999
 40
0.9999999999999999
 10
651.4979827417578
 20
465.0343371175081
 30
0.0
 10
651.6091205577584
 20
465.1771927885796
 30
0.0
 10
651.8309218953581
 20
465.4622944764444
 30
0.0
 10
652.1602032386088
 20
465.8918378634573
 30
0.0
 10
652.486067213852
 20
466.3215189217668
 30
0.0
 10
652.8083651574792
 20
466.7515332443221
 30
0.0
 10
653.1271875571642
 20
467.1818154284513
 30
0.0
 10
653.442560017191
 20
467.6123706265709
 30
0.0
 10
653.7545242834622
 20
468.0431861090051
 30
0.0
 10
654.0631166461462
 20
468.4742547542205
 30
0.0
 10
654.3683737138361
 20
468.9055687023705
 30
0.0
 10
654.6703308670187
 20
469.3371209305511
 30
0.0
 10
654.9690227389182
 20
469.768904855373
 30
0.0
 10
655.2644828895045
 20
470.2009139304748
 30
0.0
 10
655.556744691731
 20
470.6331432280599
 30
0.0
 10
655.8458381813539
 20
471.0655830889058
 30
0.0
 10
656.1318018583398
 20
471.498242534413
 30
0.0
 10
657.0703821688155
 20
472.9345311962575
 30
0.0
 10
658.5891299699558
 20
475.3840723590592
 30
0.0
 10
660.4590000099846
 20
478.6782030976019
 30
0.0
 10
662.0834291271852
 20
481.7836682607482
 30
0.0
 10
663.1229176967692
 20
483.9257642560009
 30
0.0
 10
663.7656064527428
 20
485.3056897806513
 30
0.0
 10
664.090294438934
 20
486.0154677229775
 30
0.0
 10
664.4027564136422
 20
486.710599329419
 30
0.0
 10
664.7033403944802
 20
487.3908114544125
 30
0.0
 10
664.9919061816736
 20
488.0550663210323
 30
0.0
 10
665.2699602136652
 20
488.7051856837061
 30
0.0
 10
665.4438800435603
 20
489.1201547411224
 30
0.0
 10
665.531456106443
 20
489.329109385849
 30
0.0
  0
SPLINE
  5
152
330
1F
100
AcDbEntity
  8
0
  6
Continuous
 62
     8
370
     0
100
AcDbSpline
210
0.0
220
0.0
230
1.0
 70
     8
 71
     3
 72
    30
 73
    26
 74
     0
 42
0.00000001
 43
0.00000001
 40
0.0
 40
0.0
 40
0.0
 40
0.0
 40
0.0177484019777315
 40
0.0355154957280877
 40
0.0533029378884434
 40
0.0711124242531715
 40
0.088945959571491
 40
0.1068056019238995
 40
0.1246933775235755
 40
0.1873938140356374
 40
0.2495265890856938
 40
0.312347859109684
 40
0.3742881352979449
 40
0.4374661638924903
 40
0.4992721038332111
 40
0.6279766879776459
 40
0.7493243924082189
 40
0.8127743013786688
 40
0.8746067423562037
 40
0.895898589481432
 40
0.9170066423255357
 40
0.9379501689350065
 40
0.9587493598557097
 40
0.9794253120231419
 40
1.0
 40
1.0
 40
1.0
 40
1.0
 10
621.2606781490634
 20
440.0498766273707
 30
0.0
 10
621.4259401399851
 20
440.1329288593145
 30
0.0
 10
621.7566381678954
 20
440.2991207898618
 30
0.0
 10
622.2576428934661
 20
440.5559405614811
 30
0.0
 10
622.7624402090706
 20
440.8185451014741
 30
0.0
 10
623.2712716718195
 20
441.0875579977223
 30
0.0
 10
623.7839215181971
 20
441.3629367431346
 30
0.0
 10
624.3002978177739
 20
441.6448272090236
 30
0.0
 10
625.2541617702218
 20
442.1740571656164
 30
0.0
 10
626.6527494430065
 20
442.9786200723044
 30
0.0
 10
628.5186414589909
 20
444.1154266217142
 30
0.0
 10
630.4000319327441
 20
445.3289689352957
 30
0.0
 10
632.3117770660772
 20
446.6340027437543
 30
0.0
 10
634.2280463548564
 20
448.020493552942
 30
0.0
 10
636.8438618064315
 20
450.0280216683445
 30
0.0
 10
640.0800062767682
 20
452.7429202213464
 30
0.0
 10
643.3363152111849
 20
455.8211228055445
 30
0.0
 10
645.874954314926
 20
458.4451746477759
 30
0.0
 10
647.3688345201198
 20
460.0853067489348
 30
0.0
 10
648.4192994412933
 20
461.2865573438434
 30
0.0
 10
649.0536568903779
 20
462.0272032213141
 30
0.0
 10
649.678611187616
 20
462.7720353128151
 30
0.0
 10
650.2941647398291
 20
463.5212492877565
 30
0.0
 10
650.9010723379466
 20
464.2741934980447
 30
0.0
 10
651.2993358388169
 20
464.7813675144624
 30
0.0
 10
651.4979787504013
 20
465.0343320042562
 30
0.0
  0
SPLINE
  5
153
330
1F
100
AcDbEntity
  8
0
  6
Continuous
 62
     8
370
     0
100
AcDbSpline
210
0.0
220
0.0
230
1.0
 70
     8
 71
     3
 72
    35
 73
    31
 74
     0
 42
0.00000001
 43
0.00000001
 40
0.0
 40
0.0
 40
0.0
 40
0.0
 40
0.0208306475610719
 40
0.041774309130512
 40
0.0628377533296902
 40
0.0840275918126262
 40
0.1053502731515463
 40
0.1268120775758061
 40
0.1484191125462847
 40
0.1701773091413338
 40
0.1920924192252479
 40
0.2141700133659957
 40
0.2364154794653361
 40
0.2588340220618472
 40
0.2814306622653195
 40
0.3042102382797193
 40
0.3271774060825388
 40
0.3503366344105833
 40
0.3736922406540171
 40
0.3972483773918965
 40
0.4533780576808312
 40
0.5103298877875534
 40
0.5681465349458481
 40
0.6268672605299157
 40
0.6865281311539111
 40
0.7471629451342905
 40
0.8088022258909995
 40
0.8714722971153221
 40
0.9351973943632172
 40
1.0
 40
1.0
 40
1.0
 40
1.0
 10
609.7440255505724
 20
435.2254003775915
 30
0.0
 10
609.7776107887365
 20
435.2369313616428
 30
0.0
 10
609.8449634774696
 20
435.2600558896212
 30
0.0
 10
609.9577743813811
 20
435.2990081043797
 30
0.0
 10
610.0794809381609
 20
435.3412250453366
 30
0.0
 10
610.2108960842621
 20
435.3870419652667
 30
0.0
 10
610.3517592376022
 20
435.4364114946285
 30
0.0
 10
610.5020968414809
 20
435.4893923566302
 30
0.0
 10
610.6618545997558
 20
435.5460172526213
 30
0.0
 10
610.8309969735272
 20
435.6063285928274
 30
0.0
 10
611.0094803005063
 20
435.6703688302537
 30
0.0
 10
611.1972601113126
 20
435.73818307771
 30
0.0
 10
611.3942891834051
 20
435.8098183975005
 30
0.0
 10
611.600518133037
 20
435.8853239999398
 30
0.0
 10
611.8158952119418
 20
435.9647511632074
 30
0.0
 10
612.0403667316538
 20
436.0481533481374
 30
0.0
 10
612.2738757391963
 20
436.1355857954681
 30
0.0
 10
612.5163671437159
 20
436.2271070145363
 30
0.0
 10
612.7677594965407
 20
436.3227692310077
 30
0.0
 10
613.1472499398943
 20
436.4683960791558
 30
0.0
 10
613.6709700700512
 20
436.6723036496263
 30
0.0
 10
614.3588888986458
 20
436.9460301956561
 30
0.0
 10
615.0883346391795
 20
437.2429443080397
 30
0.0
 10
615.8582564628791
 20
437.5638549408475
 30
0.0
 10
616.6675965415028
 20
437.9096354137699
 30
0.0
 10
617.5152345702041
 20
438.281234539103
 30
0.0
 10
618.3998797520662
 20
438.6796355248781
 30
0.0
 10
619.3206353971989
 20
439.1065648795347
 30
0.0
 10
620.2749052532797
 20
439.5612179397639
 30
0.0
 10
620.9302416275486
 20
439.8860754701903
 30
0.0
 10
621.2606568117311
 20
440.0498659523968
 30
0.0
  0
ARC
  5
154
330
1F
100
AcDbEntity
  8
0
  6
Continuous
 62
     8
370
     0
100
AcDbCircle
 10
593.4661881836
 20
498.9646898978
 30
0.0
 40
2.080210231209958
100
AcDbArc
 50
246.3742857529
 51
277.478033233
  0
SPLINE
  5
155
330
1F
100
AcDbEntity
  8
0
  6
Continuous
 62
     8
370
     0
100
AcDbSpline
210
0.0
220
0.0
230
1.0
 70
     8
 71
     3
 72
    78
 73
    74
 74
     0
 42
0.00000001
 43
0.00000001
 40
0.0
 40
0.0
 40
0.0
 40
0.0
 40
0.0000829461119338
 40
0.0003304097065186
 40
0.0004921945896854
 40
0.0021404731005199
 40
0.0075768301071383
 40
0.0116868245155167
 40
0.0178480104371401
 40
0.0256567445536809
 40
0.0314078480272255
 40
0.0428939694856654
 40
0.054357634829479
 40
0.0657945701543767
 40
0.0772021048251452
 40
0.0885784744306898
 40
0.0999197795692449
 40
0.1316725890766484
 40
0.1418487701481582
 40
0.146924955896891
 40
0.172194123775714
 40
0.1822547548205276
 40
0.1872762565585298
 40
0.2120446883344476
 40
0.231733363224271
 40
0.2513688499712841
 40
0.2843090544953936
 40
0.3109960267864217
 40
0.3243515286199651
 40
0.3383380896687699
 40
0.3523451070479484
 40
0.359358191331004
 40
0.3804418258930594
 40
0.3955985032251053
 40
0.4031934743113491
 40
0.4184174383996928
 40
0.4413460983469462
 40
0.4511662725430938
 40
0.4659380420562159
 40
0.4807608326250462
 40
0.5006060591408646
 40
0.5155523148248377
 40
0.5255449787488714
 40
0.5305495789676208
 40
0.5607014759224292
 40
0.5809220992993914
 40
0.5910681131067795
 40
0.613416073321637
 40
0.631745257771522
 40
0.6378711289054013
 40
0.6501455266565322
 40
0.6747877913962789
 40
0.687155151311354
 40
0.6995524090171689
 40
0.7107347127638183
 40
0.7219412905527035
 40
0.7331713155473055
 40
0.7444236475157587
 40
0.7500583656558483
 40
0.7613435320970002
 40
0.778309992370687
 40
0.7839764699116778
 40
0.7961529407948325
 40
0.8157062610980249
 40
0.8222372318711569
 40
0.8353175943206341
 40
0.8681285109602586
 40
0.8812960697423785
 40
0.8944874848584886
 40
0.9192660553932959
 40
0.9441237459233829
 40
0.9720156469617581
 40
1.0
 40
1.0
 40
1.0
 40
1.0
 10
668.177662437963
 20
467.2611923134285
 30
0.0
 10
668.1768546110884
 20
467.2611515646523
 30
0.0
 10
668.1736366924381
 20
467.260989244914
 30
0.0
 10
668.168843304981
 20
467.2607469882269
 30
0.0
 10
668.148806235624
 20
467.2597331769525
 30
0.0
 10
668.0782503717484
 20
467.2561421255139
 30
0.0
 10
667.9693294141508
 20
467.2504745976451
 30
0.0
 10
667.8166451583799
 20
467.2423095826883
 30
0.0
 10
667.64108194954
 20
467.2326427485874
 30
0.0
 10
667.4498554542299
 20
467.2217510236837
 30
0.0
 10
667.2073421636618
 20
467.2076088574722
 30
0.0
 10
666.9299598344683
 20
467.1910467333799
 30
0.0
 10
666.5985341746793
 20
467.1708599079005
 30
0.0
 10
666.2688748700016
 20
467.1504553479807
 30
0.0
 10
665.9411933426201
 20
467.1299910953622
 30
0.0
 10
665.6157185744391
 20
467.1095232488976
 30
0.0
 10
665.098555016925
 20
467.0767411322878
 30
0.0
 10
664.5976837705642
 20
467.0444545942856
 30
0.0
 10
664.1616345954952
 20
467.0151756255727
 30
0.0
 10
663.7877556965459
 20
466.9896843516348
 30
0.0
 10
663.4190804060801
 20
466.9636464668311
 30
0.0
 10
663.0567866554458
 20
466.9370965901501
 30
0.0
 10
662.7016067282299
 20
466.9107044253568
 30
0.0
 10
662.2671523841343
 20
466.8773292732745
 30
0.0
 10
661.7185785834592
 20
466.8327841894556
 30
0.0
 10
661.1153248431153
 20
466.7815716220475
 30
0.0
 10
660.4776478666244
 20
466.7239923244869
 30
0.0
 10
659.9179870281065
 20
466.6701049317358
 30
0.0
 10
659.5178683563366
 20
466.6297623924972
 30
0.0
 10
659.2191409130847
 20
466.5986817080211
 30
0.0
 10
658.9727806882703
 20
466.5722113127258
 30
0.0
 10
658.6824122090217
 20
466.5402533130771
 30
0.0
 10
658.3922198623883
 20
466.5072504756378
 30
0.0
 10
658.108666815557
 20
466.4736247786524
 30
0.0
 10
657.8686689391595
 20
466.4444209738229
 30
0.0
 10
657.5863147524835
 20
466.4091592958716
 30
0.0
 10
657.301858567831
 20
466.3720677633065
 30
0.0
 10
657.0296643615715
 20
466.3352206017239
 30
0.0
 10
656.8097368869438
 20
466.3045708070657
 30
0.0
 10
656.5424614366489
 20
466.2659979820013
 30
0.0
 10
656.2840661169548
 20
466.2271922085807
 30
0.0
 10
656.0594010894431
 20
466.1921239673945
 30
0.0
 10
655.9131596631543
 20
466.1686529484924
 30
0.0
 10
655.6961931432835
 20
466.1332640520016
 30
0.0
 10
655.4400849097854
 20
466.0898195775908
 30
0.0
 10
655.1748623888966
 20
466.0422946340318
 30
0.0
 10
654.9511189113674
 20
466.0007907598965
 30
0.0
 10
654.7426960158164
 20
465.9606270420146
 30
0.0
 10
654.5587871009462
 20
465.9235893233946
 30
0.0
 10
654.4181148124331
 20
465.8945543736762
 30
0.0
 10
654.2564195266995
 20
465.8605297817215
 30
0.0
 10
654.0782801690304
 20
465.8215356788971
 30
0.0
 10
653.9063302874937
 20
465.782422687654
 30
0.0
 10
653.784343278899
 20
465.7539373594503
 30
0.0
 10
653.6691143727116
 20
465.7263959238089
 30
0.0
 10
653.5602323832235
 20
465.6997456387911
 30
0.0
 10
653.4535179103932
 20
465.672965580649
 30
0.0
 10
653.3664768391227
 20
465.6506673536605
 30
0.0
 10
653.2806828692783
 20
465.6282682783897
 30
0.0
 10
653.1791777028096
 20
465.6012667753445
 30
0.0
 10
653.0804378200047
 20
465.5743074149077
 30
0.0
 10
652.9813267443915
 20
465.5466395543119
 30
0.0
 10
652.8766952508029
 20
465.5168973600842
 30
0.0
 10
652.7729084345594
 20
465.4864388148337
 30
0.0
 10
652.6693143150235
 20
465.4552642585248
 30
0.0
 10
652.5332794552414
 20
465.413546592044
 30
0.0
 10
652.3867285796518
 20
465.3665537575679
 30
0.0
 10
652.2461208954768
 20
465.3194069715584
 30
0.0
 10
652.1276089252219
 20
465.2786348939248
 30
0.0
 10
651.9871403027583
 20
465.2284892047943
 30
0.0
 10
651.8218969377624
 20
465.1665324742679
 30
0.0
 10
651.6576358646138
 20
465.1019287726772
 30
0.0
 10
651.5513017899124
 20
465.0570713597588
 30
0.0
 10
651.4980467831907
 20
465.0346055431031
 30
0.0
  0
SPLINE
  5
156
330
1F
100
AcDbEntity
  8
0
  6
Continuous
 62
     8
370
     0
100
AcDbSpline
210
0.0
220
0.0
230
1.0
 70
     8
 71
     3
 72
    12
 73
     8
 74
     0
 42
0.00000001
 43
0.00000001
 40
0.0
 40
0.0
 40
0.0
 40
0.0
 40
0.5000000000000001
 40
0.5000000000000001
 40
0.75
 40
0.75
 40
1.0
 40
1.0
 40
1.0
 40
1.0
 10
668.1805214418907
 20
467.2620830933254
 30
0.0
 10
668.104870954673
 20
464.7715445195811
 30
0.0
 10
668.0187656819942
 20
462.2975725819686
 30
0.0
 10
667.9180365757242
 20
458.7595309909819
 30
0.0
 10
667.8846211139894
 20
457.6265364420971
 30
0.0
 10
667.8397946608392
 20
455.449850607848
 30
0.0
 10
667.8274649474322
 20
454.4065494079027
 30
0.0
 10
667.8220331004611
 20
453.4073032050384
 30
0.0
  0
SPLINE
  5
157
330
1F
100
AcDbEntity
  8
0
  6
Continuous
 62
     8
370
     0
100
AcDbSpline
210
0.0
220
0.0
230
1.0
 70
    24
 71
     3
 72
    14
 73
    10
 74
     0
 42
0.00000001
 43
0.00000001
 40
0.0
 40
0.0
 40
0.0
 40
0.0
 40
0.25
 40
0.25
 40
0.5
 40
0.5
 40
0.75
 40
0.75
 40
1.0
 40
1.0
 40
1.0
 40
1.0
 10
667.8231883475034
 20
453.407523247921
 30
0.0
 10
667.8231883475034
 20
451.873354832696
 30
0.0
 10
667.8231883475034
 20
450.4756393949662
 30
0.0
 10
667.8231883475034
 20
448.0247284698873
 30
0.0
 10
667.8231883475034
 20
446.9716416169977
 30
0.0
 10
667.8231883475036
 20
445.2641615761524
 30
0.0
 10
667.8231883475034
 20
444.6098440707398
 30
0.0
 10
667.8231883475036
 20
443.7335790046283
 30
0.0
 10
667.8231883475034
 20
443.5116702836038
 30
0.0
 10
667.8231883475034
 20
443.5116702836038
 30
0.0
  0
SPLINE
  5
158
330
1F
100
AcDbEntity
  8
0
  6
Continuous
 62
     8
370
     0
100
AcDbSpline
210
0.0
220
0.0
230
1.0
 70
     8
 71
     3
 72
    39
 73
    35
 74
     0
 42
0.00000001
 43
0.00000001
 40
0.0
 40
0.0
 40
0.0
 40
0.0
 40
0.0203073728802342
 40
0.0404617630868367
 40
0.0609982012657684
 40
0.067791583048688
 40
0.0813074084377864
 40
0.094711418981495
 40
0.1211554468586755
 40
0.1342060733379211
 40
0.1471440483434981
 40
0.1599784129486518
 40
0.1979220590768677
 40
0.2228414684284983
 40
0.2469690526840462
 40
0.2709511743355595
 40
0.3186938416501532
 40
0.3414406527042341
 40
0.3756446450988317
 40
0.3985345821504405
 40
0.4100134498243719
 40
0.4800053141401412
 40
0.5035980441876495
 40
0.5273110395932734
 40
0.5992707751939378
 40
0.6714575548203767
 40
0.695774436771294
 40
0.7478504208487762
 40
0.7740636250636526
 40
0.800403487591925
 40
0.8478930235745564
 40
0.8973021044490497
 40
0.9484662988239045
 40
1.0
 40
1.0
 40
1.0
 40
1.0
 10
668.4964136098374
 20
482.2165839010525
 30
0.0
 10
668.4257155198806
 20
482.2541977576666
 30
0.0
 10
668.2848519338617
 20
482.3291421123145
 30
0.0
 10
668.0758488565675
 20
482.4429696319525
 30
0.0
 10
667.9154046826436
 20
482.5323408679967
 30
0.0
 10
667.7790806359707
 20
482.6098692892842
 30
0.0
 10
667.6676389263613
 20
482.6743149799489
 30
0.0
 10
667.4938135310374
 20
482.7773561642796
 30
0.0
 10
667.3257376764268
 20
482.8811818518993
 30
0.0
 10
667.1643365152797
 20
482.9860586485401
 30
0.0
 10
667.0475963230543
 20
483.064685683258
 30
0.0
 10
666.8608239151021
 20
483.1953126848883
 30
0.0
 10
666.6508752035919
 20
483.3543313519936
 30
0.0
 10
666.4290444652672
 20
483.5424197902278
 30
0.0
 10
666.2561160572702
 20
483.7037100928671
 30
0.0
 10
666.046728115369
 20
483.9195184020265
 30
0.0
 10
665.8663355333922
 20
484.1381028344496
 30
0.0
 10
665.6939552027761
 20
484.3853516108571
 30
0.0
 10
665.578789504079
 20
484.5767756272938
 30
0.0
 10
665.4930973202953
 20
484.7432169679316
 30
0.0
 10
665.3741761535537
 20
484.99814907397
 30
0.0
 10
665.2810598657045
 20
485.2585471444977
 30
0.0
 10
665.2055671831536
 20
485.5517909796354
 30
0.0
 10
665.1424768122108
 20
485.8511492712395
 30
0.0
 10
665.0899559152988
 20
486.2752475875432
 30
0.0
 10
665.081936852887
 20
486.7028719266633
 30
0.0
 10
665.096581686052
 20
487.0805001521433
 30
0.0
 10
665.1178718728664
 20
487.3415182846636
 30
0.0
 10
665.1498272983029
 20
487.6077429194461
 30
0.0
 10
665.1865682640397
 20
487.8622787084719
 30
0.0
 10
665.2418303159699
 20
488.1757512902631
 30
0.0
 10
665.3226633348095
 20
488.5520802948629
 30
0.0
 10
665.418536103016
 20
488.9383155854035
 30
0.0
 10
665.4937983779621
 20
489.1987813331663
 30
0.0
 10
665.5315649121846
 20
489.32948278464
 30
0.0
  0
SPLINE
  5
159
330
1F
100
AcDbEntity
  8
0
  6
Continuous
 62
     8
370
     0
100
AcDbSpline
210
0.0
220
0.0
230
1.0
 70
     8
 71
     3
 72
    14
 73
    10
 74
     0
 42
0.00000001
 43
0.00000001
 40
0.0
 40
0.0
 40
0.0
 40
0.0
 40
0.25
 40
0.25
 40
0.5
 40
0.5
 40
0.75
 40
0.75
 40
1.0
 40
1.0
 40
1.0
 40
1.0
 10
668.5035822961507
 20
482.2129089482705
 30
0.0
 10
668.4909374157706
 20
481.0973664568577
 30
0.0
 10
668.4740069955442
 20
479.9323639145219
 30
0.0
 10
668.4310283570571
 20
477.5278008816807
 30
0.0
 10
668.4047453262425
 20
476.2879318297972
 30
0.0
 10
668.349145298408
 20
473.757419462283
 30
0.0
 10
668.3203966690699
 20
472.4694345017995
 30
0.0
 10
668.2562765535965
 20
469.8743356770158
 30
0.0
 10
668.2203096085207
 20
468.5670959888124
 30
0.0
 10
668.1818227904257
 20
467.2633381449156
 30
0.0
  0
SPLINE
  5
15A
330
1F
100
AcDbEntity
  8
0
  6
Continuous
 62
     8
370
     0
100
AcDbSpline
210
0.0
220
0.0
230
1.0
 70
     8
 71
     3
 72
    10
 73
     6
 74
     0
 42
0.00000001
 43
0.00000001
 40
0.0
 40
0.0
 40
0.0
 40
0.0
 40
0.5725690486430355
 40
0.8616470203493267
 40
1.0
 40
1.0
 40
1.0
 40
1.0
 10
668.5553232961437
 20
495.6982373107687
 30
0.0
 10
668.5964448564941
 20
495.5088118180081
 30
0.0
 10
668.6583278207098
 20
495.2237494105968
 30
0.0
 10
668.7731357092769
 20
494.6392807456582
 30
0.0
 10
668.8292800355489
 20
494.3494698494683
 30
0.0
 10
668.8474531107685
 20
494.2556624148503
 30
0.0
  0
SPLINE
  5
15B
330
1F
100
AcDbEntity
  8
0
  6
Continuous
 62
     8
370
     0
100
AcDbSpline
210
0.0
220
0.0
230
1.0
 70
     8
 71
     3
 72
    41
 73
    37
 74
     0
 42
0.00000001
 43
0.00000001
 40
0.0
 40
0.0
 40
0.0
 40
0.0
 40
0.0234344466118737
 40
0.0467806770499624
 40
0.0700361170652313
 40
0.0932052315085613
 40
0.1162939402400266
 40
0.1393063143308857
 40
0.1622464205464512
 40
0.1851306697715289
 40
0.2079593935116888
 40
0.230735617861856
 40
0.2534686769178557
 40
0.276168153890308
 40
0.2988438227364904
 40
0.3215054481248962
 40
0.3441627498996338
 40
0.3668253257620014
 40
0.3895024964695819
 40
0.412203129097672
 40
0.4349355189288304
 40
0.4577073949375471
 40
0.4805260789381103
 40
0.5033987903104031
 40
0.5445258359709948
 40
0.585525761320704
 40
0.6264686359380924
 40
0.6674120140730557
 40
0.7083785622102334
 40
0.7494426064826767
 40
0.7906554967256167
 40
0.8320518337101005
 40
0.8736589345359652
 40
0.9155026649762494
 40
0.9576085071849626
 40
1.0
 40
1.0
 40
1.0
 40
1.0
 10
668.5032874302128
 20
482.2135589836021
 30
0.0
 10
668.5056244294958
 20
482.3596526914815
 30
0.0
 10
668.510289630707
 20
482.6512901549356
 30
0.0
 10
668.5198195030944
 20
483.0810507740424
 30
0.0
 10
668.5307597588401
 20
483.5037032733992
 30
0.0
 10
668.5429322797901
 20
483.9186647321324
 30
0.0
 10
668.5557485239597
 20
484.3261117504728
 30
0.0
 10
668.568657973334
 20
484.7261630363053
 30
0.0
 10
668.581183127895
 20
485.1191767953113
 30
0.0
 10
668.593208043527
 20
485.5051347414753
 30
0.0
 10
668.6046156605076
 20
485.8839581616596
 30
0.0
 10
668.6155294972784
 20
486.2555835561842
 30
0.0
 10
668.625987112812
 20
486.6200606404673
 30
0.0
 10
668.6360536117026
 20
486.9774241274383
 30
0.0
 10
668.6457603491939
 20
487.3277155719852
 30
0.0
 10
668.6551194483724
 20
487.670970711476
 30
0.0
 10
668.6641217250751
 20
488.0072248194237
 30
0.0
 10
668.6727416243307
 20
488.3365112443568
 30
0.0
 10
668.6809445608869
 20
488.658858018352
 30
0.0
 10
668.688698065926
 20
488.9742822690426
 30
0.0
 10
668.6959850323146
 20
489.2827843132354
 30
0.0
 10
668.7028137972881
 20
489.5843462847499
 30
0.0
 10
668.7092302422723
 20
489.8789258691489
 30
0.0
 10
668.7169055956539
 20
490.2427183166883
 30
0.0
 10
668.7257176236067
 20
490.6658188967761
 30
0.0
 10
668.7362720348145
 20
491.1349542766526
 30
0.0
 10
668.7473983799455
 20
491.5757680506173
 30
0.0
 10
668.7581035642411
 20
491.9879065371396
 30
0.0
 10
668.7686062447997
 20
492.3722676316314
 30
0.0
 10
668.7787166662914
 20
492.7292973640612
 30
0.0
 10
668.787918700755
 20
493.0590533120184
 30
0.0
 10
668.7963788304727
 20
493.3608628608127
 30
0.0
 10
668.8049289219127
 20
493.6338824396414
 30
0.0
 10
668.815131204388
 20
493.875778679592
 30
0.0
 10
668.8280848896034
 20
494.0882576441068
 30
0.0
 10
668.8410494287095
 20
494.199815867549
 30
0.0
 10
668.84755361214
 20
494.2557835454192
 30
0.0
  0
SPLINE
  5
15C
330
1F
100
AcDbEntity
  8
0
  6
Continuous
 62
     8
370
     0
100
AcDbSpline
210
0.0
220
0.0
230
1.0
 70
     8
 71
     3
 72
    37
 73
    33
 74
     0
 42
0.00000001
 43
0.00000001
 40
0.0
 40
0.0
 40
0.0
 40
0.0
 40
0.0183836091696114
 40
0.0366471539812349
 40
0.0547460287405169
 40
0.0726612962340122
 40
0.0904429546814991
 40
0.1081535217743007
 40
0.1258100392922785
 40
0.1759606382880033
 40
0.2255277128038534
 40
0.251486853875457
 40
0.2770979531269853
 40
0.3497203987364441
 40
0.4201299416589763
 40
0.456314531057778
 40
0.4915922546087215
 40
0.5373970333194907
 40
0.5681070734339839
 40
0.6137111403740486
 40
0.6298703129523785
 40
0.6462626530351545
 40
0.681424252736803
 40
0.7183671880645603
 40
0.7297523516415717
 40
0.8020778218499542
 40
0.8297962303927576
 40
0.857952035231257
 40
0.8916074494366251
 40
0.9274898485471004
 40
0.9636854550027663
 40
0.9999999999999999
 40
0.9999999999999999
 40
0.9999999999999999
 40
0.9999999999999999
 10
700.002421370703
 20
471.8626620486831
 30
0.0
 10
699.9618718895719
 20
472.1989086642007
 30
0.0
 10
699.8810377581908
 20
472.8692058501805
 30
0.0
 10
699.772475647867
 20
473.8719243596258
 30
0.0
 10
699.6738294116689
 20
474.866952611898
 30
0.0
 10
699.5859684055903
 20
475.8540391637487
 30
0.0
 10
699.5084841881977
 20
476.8347586183397
 30
0.0
 10
699.4411858742199
 20
477.8113782873839
 30
0.0
 10
699.3486607238518
 20
479.3836143364513
 30
0.0
 10
699.2646348533879
 20
481.5434434933325
 30
0.0
 10
699.2449726313534
 20
483.8562899172962
 30
0.0
 10
699.2741869335778
 20
485.7153226575872
 30
0.0
 10
699.3488408052998
 20
487.9949625388808
 30
0.0
 10
699.5525440881802
 20
491.0792895414772
 30
0.0
 10
699.9305647946416
 20
494.3165858831259
 30
0.0
 10
700.3168842773115
 20
496.8236972072085
 30
0.0
 10
700.6759716209092
 20
498.8473586959642
 30
0.0
 10
701.0561598599585
 20
500.6965110865009
 30
0.0
 10
701.4973084991196
 20
502.5654873559723
 30
0.0
 10
701.8410096785135
 20
503.829041698329
 30
0.0
 10
702.1212035638661
 20
504.7451939915675
 30
0.0
 10
702.3561892300891
 20
505.4676882820084
 30
0.0
 10
702.6396225616511
 20
506.2586363075831
 30
0.0
 10
702.8578404712022
 20
506.8108027773783
 30
0.0
 10
703.1220132868464
 20
507.4531303858533
 30
0.0
 10
703.2873044720724
 20
507.8210350081956
 30
0.0
 10
703.402176476378
 20
508.0745771269848
 30
0.0
 10
703.4598971015604
 20
508.2009098702914
 30
0.0
 10
703.5002540148326
 20
508.290636401751
 30
0.0
 10
703.520078914248
 20
508.33864995981
 30
0.0
 10
703.530729371683
 20
508.355826335794
 30
0.0
 10
703.5300162080257
 20
508.3571624275105
 30
0.0
 10
703.5296590412952
 20
508.3578315691657
 30
0.0
  0
SPLINE
  5
15D
330
1F
100
AcDbEntity
  8
0
  6
Continuous
 62
     8
370
     0
100
AcDbSpline
210
0.0
220
0.0
230
1.0
 70
     8
 71
     3
 72
    38
 73
    34
 74
     0
 42
0.00000001
 43
0.00000001
 40
0.0
 40
0.0
 40
0.0
 40
0.0
 40
0.0559163241114803
 40
0.1058661331276768
 40
0.1498107602905626
 40
0.1877322787133372
 40
0.2195275468665998
 40
0.2452566105512704
 40
0.2702469852936219
 40
0.3076284564589481
 40
0.3459391383209314
 40
0.3724205500688866
 40
0.3923524222093127
 40
0.4211458541816879
 40
0.4581363799998333
 40
0.5035821414901024
 40
0.5262682748620234
 40
0.5497018484069986
 40
0.5739326463506434
 40
0.5990021864554265
 40
0.6248989649915938
 40
0.6516207379808774
 40
0.6791556108651935
 40
0.7075084474213291
 40
0.736696864791579
 40
0.7667205279702454
 40
0.7975377587763918
 40
0.8291627057682528
 40
0.8616150004321739
 40
0.8949075145567545
 40
0.9290554496472745
 40
0.9640775448051987
 40
1.0
 40
1.0
 40
1.0
 40
1.0
 10
706.4027966108287
 20
506.34225289891
 30
0.0
 10
706.4026413671444
 20
506.3419243174075
 30
0.0
 10
706.4023474449525
 20
506.3413022154784
 30
0.0
 10
706.3775906194886
 20
506.2869048041139
 30
0.0
 10
706.317896299698
 20
506.1553655711655
 30
0.0
 10
706.2311624927795
 20
505.9625158801741
 30
0.0
 10
706.1203392837549
 20
505.7123937448222
 30
0.0
 10
705.9879699129074
 20
505.407978848785
 30
0.0
 10
705.8043494601964
 20
504.9755631229952
 30
0.0
 10
705.5241757227674
 20
504.2944547431939
 30
0.0
 10
705.1400247018099
 20
503.302336763304
 30
0.0
 10
704.7655958151739
 20
502.2569457712467
 30
0.0
 10
704.4141629082199
 20
501.212373678807
 30
0.0
 10
704.0054291693924
 20
499.9032160695509
 30
0.0
 10
703.4933103419764
 20
498.0569503893063
 30
0.0
 10
703.0615924456185
 20
496.2077133158974
 30
0.0
 10
702.734834545062
 20
494.5588047039079
 30
0.0
 10
702.5100668482056
 20
493.2756574618525
 30
0.0
 10
702.3063288031184
 20
491.936387285667
 30
0.0
 10
702.1262150872452
 20
490.5414857546427
 30
0.0
 10
701.9722758442454
 20
489.0921391355378
 30
0.0
 10
701.8469263375512
 20
487.590210530257
 30
0.0
 10
701.7523003278513
 20
486.0371964083099
 30
0.0
 10
701.6903302346802
 20
484.4341189882219
 30
0.0
 10
701.6627818177424
 20
482.7818721740605
 30
0.0
 10
701.6712704287389
 20
481.0820508165061
 30
0.0
 10
701.7172424760345
 20
479.336182868112
 30
0.0
 10
701.8019319675105
 20
477.5454195089569
 30
0.0
 10
701.9266005404022
 20
475.7098335156982
 30
0.0
 10
702.0922211524332
 20
473.8294355268426
 30
0.0
 10
702.3007047392582
 20
471.9044077115933
 30
0.0
 10
702.5499811472206
 20
469.9340192452967
 30
0.0
 10
702.7496508254599
 20
468.608336607315
 30
0.0
 10
702.8507526723902
 20
467.9370831434667
 30
0.0
  0
SPLINE
  5
15E
330
1F
100
AcDbEntity
  8
0
  6
Continuous
 62
     8
370
     0
100
AcDbSpline
210
0.0
220
0.0
230
1.0
 70
     8
 71
     3
 72
     8
 73
     4
 74
     0
 42
0.00000001
 43
0.00000001
 40
0.0
 40
0.0
 40
0.0
 40
0.0
 40
1.0
 40
1.0
 40
1.0
 40
1.0
 10
703.5495985569497
 20
463.9206971130482
 30
0.0
 10
703.2941753966988
 20
465.254877571984
 30
0.0
 10
703.0605782726038
 20
466.5923100882089
 30
0.0
 10
702.8507528508835
 20
467.9370821667446
 30
0.0
  0
SPLINE
  5
15F
330
1F
100
AcDbEntity
  8
0
  6
Continuous
 62
     8
370
     0
100
AcDbSpline
210
0.0
220
0.0
230
1.0
 70
     8
 71
     3
 72
    14
 73
    10
 74
     0
 42
0.00000001
 43
0.00000001
 40
0.0
 40
0.0
 40
0.0
 40
0.0
 40
0.25
 40
0.25
 40
0.5
 40
0.5
 40
0.75
 40
0.75
 40
1.0
 40
1.0
 40
1.0
 40
1.0
 10
703.5498688320364
 20
463.9199124336539
 30
0.0
 10
703.5013815763031
 20
463.904689773257
 30
0.0
 10
703.4045298445993
 20
463.880403797562
 30
0.0
 10
703.1287308163269
 20
463.8172246935299
 30
0.0
 10
702.9498923002243
 20
463.7783556918702
 30
0.0
 10
702.5373379696379
 20
463.6917793659134
 30
0.0
 10
702.3037848397009
 20
463.6441054069326
 30
0.0
 10
701.8173816582911
 20
463.547036503941
 30
0.0
 10
701.5647234139195
 20
463.4976790824875
 30
0.0
 10
701.321677682194
 20
463.4511519916476
 30
0.0
  0
SPLINE
  5
160
330
1F
100
AcDbEntity
  8
0
  6
Continuous
 62
     8
370
     0
100
AcDbSpline
210
0.0
220
0.0
230
1.0
 70
     8
 71
     3
 72
    11
 73
     7
 74
     0
 42
0.00000001
 43
0.00000001
 40
0.0
 40
0.0
 40
0.0
 40
0.0
 40
0.1875
 40
0.5
 40
0.8125
 40
1.0
 40
1.0
 40
1.0
 40
1.0
 10
701.3257866270229
 20
463.4519487911143
 30
0.0
 10
701.2293620177575
 20
463.9755140922775
 30
0.0
 10
700.977049089177
 20
465.372867999705
 30
0.0
 10
700.5928851836056
 20
467.6483785858551
 30
0.0
 10
700.2513618196037
 20
469.9292734169268
 30
0.0
 10
700.0672737575345
 20
471.3352421162287
 30
0.0
 10
700.0023375481973
 20
471.8627834751801
 30
0.0
  0
LINE
  5
161
330
1F
100
AcDbEntity
  8
0
  6
Continuous
 62
     8
370
     0
100
AcDbLine
 10
682.1872557336
 20
494.3184847791
 30
0.0
 11
682.8922743731
 21
494.5150469278
 31
0.0
  0
SPLINE
  5
162
330
1F
100
AcDbEntity
  8
0
  6
Continuous
 62
     8
370
     0
100
AcDbSpline
210
0.0
220
0.0
230
1.0
 70
     8
 71
     3
 72
     9
 73
     5
 74
     0
 42
0.00000001
 43
0.00000001
 40
0.0
 40
0.0
 40
0.0
 40
0.0
 40
0.0311386502676364
 40
1.0
 40
1.0
 40
1.0
 40
1.0
 10
693.0622125798008
 20
500.0941094906531
 30
0.0
 10
693.1155383433984
 20
500.1378802069312
 30
0.0
 10
694.828064838261
 20
501.5435518048268
 30
0.0
 10
696.4500078192416
 20
503.0548468081686
 30
0.0
 10
698.0214456849834
 20
504.51908212495
 30
0.0
  0
LINE
  5
163
330
1F
100
AcDbEntity
  8
0
  6
Continuous
 62
     8
370
     0
100
AcDbLine
 10
698.3080322676
 20
504.7406335209
 30
0.0
 11
703.1832079225
 21
508.1178354878
 31
0.0
  0
SPLINE
  5
164
330
1F
100
AcDbEntity
  8
0
  6
Continuous
 62
     8
370
     0
100
AcDbSpline
210
0.0
220
0.0
230
1.0
 70
     8
 71
     3
 72
     8
 73
     4
 74
     0
 42
0.00000001
 43
0.00000001
 40
0.0
 40
0.0
 40
0.0
 40
0.0
 40
1.0
 40
1.0
 40
1.0
 40
1.0
 10
675.5198357520753
 20
468.7167422122359
 30
0.0
 10
687.8409463062837
 20
469.5685847829271
 30
0.0
 10
692.1070849793167
 20
470.4114038639187
 30
0.0
 10
700.0023375481973
 20
471.8627834751801
 30
0.0
  0
SPLINE
  5
165
330
1F
100
AcDbEntity
  8
0
  6
Continuous
 62
     8
370
     0
100
AcDbSpline
210
0.0
220
0.0
230
1.0
 70
     8
 71
     3
 72
    22
 73
    18
 74
     0
 42
0.00000001
 43
0.00000001
 40
0.0
 40
0.0
 40
0.0
 40
0.0
 40
0.0203364290964974
 40
0.0410233940172491
 40
0.0620610750874062
 40
0.1431057372069914
 40
0.2489662123715773
 40
0.342761227136767
 40
0.4369463459808512
 40
0.5361775825359393
 40
0.6237462197522758
 40
0.7186169908333632
 40
0.8119191071900107
 40
0.8570205151011845
 40
0.9057944424341774
 40
0.9447520690981925
 40
1.0
 40
1.0
 40
1.0
 40
1.0
 10
679.5963737182836
 20
488.7145808797226
 30
0.0
 10
679.5643853548148
 20
488.6174570469589
 30
0.0
 10
679.4998572494958
 20
488.4215352732285
 30
0.0
 10
679.4004440583583
 20
488.1168000704876
 30
0.0
 10
679.2013887796364
 20
487.50189645595
 30
0.0
 10
678.8525815193157
 20
486.4069480429027
 30
0.0
 10
678.3695789388638
 20
484.8060292320912
 30
0.0
 10
677.8596247914938
 20
483.0063515706975
 30
0.0
 10
677.3729689233694
 20
481.1427925512047
 30
0.0
 10
676.925576183276
 20
479.2242046962394
 30
0.0
 10
676.5188592447621
 20
477.2207450071454
 30
0.0
 10
676.1800345564952
 20
475.1922168598916
 30
0.0
 10
675.9488837259843
 20
473.4306143246405
 30
0.0
 10
675.7975318157637
 20
471.9994514961285
 30
0.0
 10
675.7023493353003
 20
470.977336522723
 30
0.0
 10
675.610845028967
 20
469.873057198596
 30
0.0
 10
675.5534788225227
 20
469.1441929938948
 30
0.0
 10
675.5198357520753
 20
468.7167422122359
 30
0.0
  0
SPLINE
  5
166
330
1F
100
AcDbEntity
  8
0
  6
Continuous
 62
     8
370
     0
100
AcDbSpline
210
0.0
220
0.0
230
1.0
 70
     8
 71
     3
 72
    19
 73
    15
 74
     0
 42
0.00000001
 43
0.00000001
 40
0.0
 40
0.0
 40
0.0
 40
0.0
 40
0.132743036303712
 40
0.2625814346933065
 40
0.3910151057931909
 40
0.516955106159914
 40
0.5784268053057898
 40
0.6386847771908198
 40
0.6972830409226807
 40
0.7568393082698422
 40
0.8207687096692119
 40
0.8903002504700752
 40
0.9633283344051343
 40
0.9999999999999999
 40
0.9999999999999999
 40
0.9999999999999999
 40
0.9999999999999999
 10
703.5961116486332
 20
453.0334579606071
 30
0.0
 10
704.2627370515619
 20
450.3750425788039
 30
0.0
 10
705.5814009873746
 20
445.1163823552457
 30
0.0
 10
707.4983864791292
 20
437.2800055535275
 30
0.0
 10
709.3929488406548
 20
429.5955217917964
 30
0.0
 10
711.0008817938625
 20
423.3025348152019
 30
0.0
 10
712.2265531900953
 20
418.4352596335541
 30
0.0
 10
713.0675258823725
 20
414.987055046969
 30
0.0
 10
713.7986369475299
 20
411.864195489058
 30
0.0
 10
714.4056895475295
 20
409.4631031779651
 30
0.0
 10
714.8150746792993
 20
408.0463893159696
 30
0.0
 10
714.9900853098062
 20
407.4227998863237
 30
0.0
 10
715.0266400778347
 20
407.2490534808653
 30
0.0
 10
715.0287756181755
 20
407.2390624290743
 30
0.0
 10
715.0294895106098
 20
407.2357225079551
 30
0.0
  0
ARC
  5
167
330
1F
100
AcDbEntity
  8
0
  6
Continuous
 62
     8
370
     0
100
AcDbCircle
 10
697.2259130754
 20
479.0152335087
 30
0.0
 40
26.7499494288081
100
AcDbArc
 50
283.7758245133
 51
288.9744919055
  0
SPLINE
  5
168
330
1F
100
AcDbEntity
  8
0
  6
Continuous
 62
     8
370
     0
100
AcDbSpline
210
0.0
220
0.0
230
1.0
 70
     8
 71
     3
 72
    49
 73
    45
 74
     0
 42
0.00000001
 43
0.00000001
 40
0.0
 40
0.0
 40
0.0
 40
0.0
 40
0.0122300724326367
 40
0.0438951377503342
 40
0.0759729327222432
 40
0.1073127451452839
 40
0.1231839205118579
 40
0.1390039059406499
 40
0.1547400931320705
 40
0.1707190477666205
 40
0.1866146593789767
 40
0.2026277928814959
 40
0.2185283939809901
 40
0.2342494322405132
 40
0.2501601020558927
 40
0.2660594678305103
 40
0.2819350419474234
 40
0.2979756789662515
 40
0.313927485403807
 40
0.3296032737582058
 40
0.3374951276405151
 40
0.3454845524333777
 40
0.3614657050110646
 40
0.3775342063840208
 40
0.393463962681265
 40
0.4096649698829951
 40
0.4253782025944683
 40
0.441374088272954
 40
0.4573756756414161
 40
0.4736496561413691
 40
0.4896529767621625
 40
0.5057057536411851
 40
0.5218148282250384
 40
0.55376993832358
 40
0.5860006576604119
 40
0.6179265703534923
 40
0.6497385623714829
 40
0.6815415772669083
 40
0.7136655404813623
 40
0.7457832592078479
 40
0.8091659539159889
 40
0.8721898965651034
 40
0.9355298195311306
 40
1.0
 40
1.0
 40
1.0
 40
1.0
 10
718.0813963347217
 20
408.9086535234466
 30
0.0
 10
718.0812348294662
 20
408.9091029736567
 30
0.0
 10
718.0806551685133
 20
408.910716102196
 30
0.0
 10
718.0751718958485
 20
408.9301240784422
 30
0.0
 10
718.0614383011845
 20
408.9807790353062
 30
0.0
 10
718.0385911343583
 20
409.0674276183347
 30
0.0
 10
718.0104843961144
 20
409.171180957769
 30
0.0
 10
717.9831429099066
 20
409.2713382604626
 30
0.0
 10
717.9483190913676
 20
409.3991206391077
 30
0.0
 10
717.904646701488
 20
409.5593725766482
 30
0.0
 10
717.8503508662246
 20
409.7586534610411
 30
0.0
 10
717.7840212896815
 20
410.0045976726834
 30
0.0
 10
717.7031346887194
 20
410.30358428827
 30
0.0
 10
717.6054729931028
 20
410.6634195501803
 30
0.0
 10
717.4891428591859
 20
411.0913207083412
 30
0.0
 10
717.3523280770795
 20
411.5950666353689
 30
0.0
 10
717.1943645586499
 20
412.1776999086894
 30
0.0
 10
717.0158680939712
 20
412.8358069275193
 30
0.0
 10
716.8198892984036
 20
413.5585313430933
 30
0.0
 10
716.6450032207711
 20
414.2032446994886
 30
0.0
 10
716.4995969998275
 20
414.7391061395812
 30
0.0
 10
716.3493437007573
 20
415.2928208502256
 30
0.0
 10
716.1549275309984
 20
416.0095889269516
 30
0.0
 10
715.9153767171289
 20
416.8923433872178
 30
0.0
 10
715.6700199612111
 20
417.7967963607015
 30
0.0
 10
715.4230021606656
 20
418.7071679055479
 30
0.0
 10
715.1731965937224
 20
419.6280834639861
 30
0.0
 10
714.9224749166908
 20
420.5517709072022
 30
0.0
 10
714.6673777904654
 20
421.4914891611784
 30
0.0
 10
714.4112713427799
 20
422.4354381283973
 30
0.0
 10
714.1541712051369
 20
423.3834349250275
 30
0.0
 10
713.8972710836052
 20
424.330349963334
 30
0.0
 10
713.5546613146925
 20
425.5931681972577
 30
0.0
 10
713.12476316087
 20
427.178076408195
 30
0.0
 10
712.6089210383657
 20
429.0782354125147
 30
0.0
 10
712.0934836891229
 20
430.9778493583534
 30
0.0
 10
711.5800386972455
 20
432.8703781140357
 30
0.0
 10
711.065301860245
 20
434.7678567533309
 30
0.0
 10
710.5487249244712
 20
436.6721748396321
 30
0.0
 10
709.8619147171732
 20
439.2033247780502
 30
0.0
 10
709.0083457786294
 20
442.3482649313382
 30
0.0
 10
707.9871734401506
 20
446.1138885971069
 30
0.0
 10
706.9592176534408
 20
449.9014572953172
 30
0.0
 10
706.2709133220831
 20
452.4388254569755
 30
0.0
 10
705.9237177305957
 20
453.7187288362995
 30
0.0
  0
SPLINE
  5
169
330
1F
100
AcDbEntity
  8
0
  6
Continuous
 62
     8
370
     0
100
AcDbSpline
210
0.0
220
0.0
230
1.0
 70
    24
 71
     3
 72
    14
 73
    10
 74
     0
 42
0.00000001
 43
0.00000001
 40
0.0
 40
0.0
 40
0.0
 40
0.0
 40
0.25
 40
0.25
 40
0.5
 40
0.5
 40
0.75
 40
0.75
 40
1.0
 40
1.0
 40
1.0
 40
1.0
 10
675.2107713369095
 20
451.5677868144823
 30
0.0
 10
675.2145068062217
 20
450.3787539146084
 30
0.0
 10
675.2178771517837
 20
449.3059431317891
 30
0.0
 10
675.223754852188
 20
447.4350191402128
 30
0.0
 10
675.2262620535477
 20
446.6369547863197
 30
0.0
 10
675.2303144108503
 20
445.3470536381637
 30
0.0
 10
675.2318594609753
 20
444.8552505266935
 30
0.0
 10
675.2339264513838
 20
444.1973092095761
 30
0.0
 10
675.2344483376926
 20
444.0311881845487
 30
0.0
 10
675.2344483376926
 20
444.0311881845487
 30
0.0
  0
SPLINE
  5
16A
330
1F
100
AcDbEntity
  8
0
  6
Continuous
 62
     8
370
     0
100
AcDbSpline
210
0.0
220
0.0
230
1.0
 70
    24
 71
     3
 72
     8
 73
     4
 74
     0
 42
0.00000001
 43
0.00000001
 40
0.0
 40
0.0
 40
0.0
 40
0.0
 40
1.0
 40
1.0
 40
1.0
 40
1.0
 10
675.18869664961
 20
458.5943548996997
 30
0.0
 10
675.196850555761
 20
455.9988944995995
 30
0.0
 10
675.2043525321071
 20
453.6109491187896
 30
0.0
 10
675.2107713369095
 20
451.5677868144823
 30
0.0
  0
SPLINE
  5
16B
330
1F
100
AcDbEntity
  8
0
  6
Continuous
 62
     8
370
     0
100
AcDbSpline
210
0.0
220
0.0
230
1.0
 70
     8
 71
     3
 72
     8
 73
     4
 74
     0
 42
0.00000001
 43
0.00000001
 40
0.0
 40
0.0
 40
0.0
 40
0.0
 40
1.0
 40
1.0
 40
1.0
 40
1.0
 10
675.1894378226764
 20
458.8928356057247
 30
0.0
 10
675.1891916876908
 20
458.79304833245
 30
0.0
 10
675.1889446389038
 20
458.6935519302984
 30
0.0
 10
675.1886966496102
 20
458.5943548996997
 30
0.0
  0
SPLINE
  5
16C
330
1F
100
AcDbEntity
  8
0
  6
Continuous
 62
     8
370
     0
100
AcDbSpline
210
0.0
220
0.0
230
1.0
 70
     8
 71
     3
 72
    13
 73
     9
 74
     0
 42
0.00000001
 43
0.00000001
 40
0.0
 40
0.0
 40
0.0
 40
0.0
 40
0.1527545740141523
 40
0.3110729795158156
 40
0.4749560294523582
 40
0.6444044543635669
 40
0.8194189127762532
 40
1.0
 40
1.0
 40
1.0
 40
1.0
 10
675.2141288136905
 20
461.6785205967464
 30
0.0
 10
675.2119499971423
 20
461.5339185045728
 30
0.0
 10
675.207513004274
 20
461.2394474293401
 30
0.0
 10
675.2021725761557
 20
460.7932359153537
 30
0.0
 10
675.1976160885777
 20
460.3342131677936
 30
0.0
 10
675.1939760652522
 20
459.8632226258275
 30
0.0
 10
675.1911427674629
 20
459.3803467531465
 30
0.0
 10
675.1900120378964
 20
459.0570264481445
 30
0.0
 10
675.1894378226764
 20
458.8928356057247
 30
0.0
  0
SPLINE
  5
16D
330
1F
100
AcDbEntity
  8
0
  6
Continuous
 62
     8
370
     0
100
AcDbSpline
210
0.0
220
0.0
230
1.0
 70
     8
 71
     3
 72
     8
 73
     4
 74
     0
 42
0.00000001
 43
0.00000001
 40
0.0
 40
0.0
 40
0.0
 40
0.0
 40
1.0
 40
1.0
 40
1.0
 40
1.0
 10
701.3257866270229
 20
463.4519487911143
 30
0.0
 10
692.9129657989882
 20
461.8836118659559
 30
0.0
 10
688.3309541026351
 20
461.719728454281
 30
0.0
 10
675.2141288136905
 20
461.6785205967464
 30
0.0
  0
SPLINE
  5
16E
330
1F
100
AcDbEntity
  8
0
  6
Continuous
 62
     8
370
     0
100
AcDbSpline
210
0.0
220
0.0
230
1.0
 70
     8
 71
     3
 72
    17
 73
    13
 74
     0
 42
0.00000001
 43
0.00000001
 40
0.0
 40
0.0
 40
0.0
 40
0.0
 40
0.1204612293685
 40
0.244233594564913
 40
0.3627097018794601
 40
0.4810854912760738
 40
0.5998868968142963
 40
0.7501433798470195
 40
0.8003086628352188
 40
0.8766041287847737
 40
0.9503106922820678
 40
1.0
 40
1.0
 40
1.0
 40
1.0
 10
703.5957686086354
 20
453.0348152601055
 30
0.0
 10
703.4916859083822
 20
453.4500505478948
 30
0.0
 10
703.2806595711278
 20
454.2919347579316
 30
0.0
 10
702.9785974832804
 20
455.5451096260637
 30
0.0
 10
702.6875705129926
 20
456.7933700235138
 30
0.0
 10
702.4107151018864
 20
458.0268324430048
 30
0.0
 10
702.1202974991062
 20
459.3730647453939
 30
0.0
 10
701.8910211641997
 20
460.484502921842
 30
0.0
 10
701.6962286514479
 20
461.4488436849858
 30
0.0
 10
701.5645136291848
 20
462.1482132240612
 30
0.0
 10
701.435501575663
 20
462.8463793563459
 30
0.0
 10
701.3543711305505
 20
463.2775528107676
 30
0.0
 10
701.3217013530872
 20
463.451178639943
 30
0.0
  0
SPLINE
  5
16F
330
1F
100
AcDbEntity
  8
0
  6
Continuous
 62
     8
370
     0
100
AcDbSpline
210
0.0
220
0.0
230
1.0
 70
     8
 71
     3
 72
    19
 73
    15
 74
     0
 42
0.00000001
 43
0.00000001
 40
0.0
 40
0.0
 40
0.0
 40
0.0
 40
0.2499999999999998
 40
0.2499999999999998
 40
0.4999999999999996
 40
0.4999999999999996
 40
0.7499999999999993
 40
0.7499999999999993
 40
0.8749999999999988
 40
0.8749999999999988
 40
0.9374999999999986
 40
0.9687499999999992
 40
0.9687499999999992
 40
1.0
 40
1.0
 40
1.0
 40
1.0
 10
703.5501896606805
 20
463.9182677768023
 30
0.0
 10
703.7145116903112
 20
463.0616685297518
 30
0.0
 10
703.8874221316471
 20
462.2077465121667
 30
0.0
 10
704.2514727444526
 20
460.4998566565744
 30
0.0
 10
704.4417051171228
 20
459.6487562669992
 30
0.0
 10
704.8384720345376
 20
457.9490090037434
 30
0.0
 10
705.0449049985853
 20
457.1008080339548
 30
0.0
 10
705.365997519128
 20
455.8308027845817
 30
0.0
 10
705.4749356970493
 20
455.4078498831479
 30
0.0
 10
705.6411207475445
 20
454.7739994969485
 30
0.0
 10
705.724907627298
 20
454.4572196714597
 30
0.0
 10
705.80971936931
 20
454.1406654987163
 30
0.0
 10
705.8664863335523
 20
453.929680880686
 30
0.0
 10
705.894622071489
 20
453.8255754522146
 30
0.0
 10
705.9235910690652
 20
453.7187740332515
 30
0.0
  0
SPLINE
  5
170
330
1F
100
AcDbEntity
  8
0
  6
Continuous
 62
     8
370
     0
100
AcDbSpline
210
0.0
220
0.0
230
1.0
 70
     8
 71
     3
 72
    18
 73
    14
 74
     0
 42
0.00000001
 43
0.00000001
 40
0.0
 40
0.0
 40
0.0
 40
0.0
 40
0.0687955241377168
 40
0.1385497862118357
 40
0.2092650034232681
 40
0.2809433037219323
 40
0.3535867303463845
 40
0.4271972460905121
 40
0.5017767373158033
 40
0.6189912053246781
 40
0.7410964646094845
 40
0.8680978260580912
 40
1.0
 40
1.0
 40
1.0
 40
1.0
 10
675.5198357520753
 20
468.7167422122359
 30
0.0
 10
675.5073127674694
 20
468.5530869161867
 30
0.0
 10
675.4820922773048
 20
468.2234956155278
 30
0.0
 10
675.447634723667
 20
467.7258003262189
 30
0.0
 10
675.4152938474734
 20
467.2216230456155
 30
0.0
 10
675.3853409417394
 20
466.7111885196043
 30
0.0
 10
675.3577009028884
 20
466.1947494937102
 30
0.0
 10
675.3323929874879
 20
465.6725694679749
 30
0.0
 10
675.3051322038409
 20
465.0466970999117
 30
0.0
 10
675.277530609707
 20
464.3094348909509
 30
0.0
 10
675.251409483001
 20
463.4547355354391
 30
0.0
 10
675.2296530338663
 20
462.5721663763488
 30
0.0
 10
675.2193684464315
 20
461.9801380456443
 30
0.0
 10
675.2141288136905
 20
461.6785205967464
 30
0.0
  0
SPLINE
  5
171
330
1F
100
AcDbEntity
  8
0
  6
Continuous
 62
     8
370
     0
100
AcDbSpline
210
0.0
220
0.0
230
1.0
 70
     8
 71
     3
 72
    18
 73
    14
 74
     0
 42
0.00000001
 43
0.00000001
 40
0.0
 40
0.0
 40
0.0
 40
0.0
 40
0.0156249999999929
 40
0.0156249999999929
 40
0.0312499999999857
 40
0.062499999999983
 40
0.1249999999999805
 40
0.1249999999999805
 40
0.2499999999999832
 40
0.2499999999999832
 40
0.4999999999999831
 40
0.4999999999999831
 40
1.0
 40
1.0
 40
1.0
 40
1.0
 10
668.9214480185746
 20
481.6813278713831
 30
0.0
 10
668.9214480185746
 20
481.6831543142893
 30
0.0
 10
668.9214215783278
 20
481.6870978482771
 30
0.0
 10
668.9212930013032
 20
481.6930787071668
 30
0.0
 10
668.9209974435405
 20
481.7020582842856
 30
0.0
 10
668.9195846904696
 20
481.7230626077721
 30
0.0
 10
668.9171202022621
 20
481.7411344354251
 30
0.0
 10
668.9104917573153
 20
481.7773109736816
 30
0.0
 10
668.9038030858209
 20
481.8014728600756
 30
0.0
 10
668.8768333082097
 20
481.8736082584037
 30
0.0
 10
668.8495858813001
 20
481.9212255507172
 30
0.0
 10
668.7414897078695
 20
482.058776585838
 30
0.0
 10
668.6336634621059
 20
482.1429957633938
 30
0.0
 10
668.5040342019242
 20
482.2122658723829
 30
0.0
  0
SPLINE
  5
172
330
1F
100
AcDbEntity
  8
0
  6
Continuous
 62
     8
370
     0
100
AcDbSpline
210
0.0
220
0.0
230
1.0
 70
     8
 71
     3
 72
    21
 73
    17
 74
     0
 42
0.00000001
 43
0.00000001
 40
0.0
 40
0.0
 40
0.0
 40
0.0
 40
0.0078125000000031
 40
0.0078125000000031
 40
0.0156250000000062
 40
0.0312500000000061
 40
0.0625000000000048
 40
0.1250000000000044
 40
0.1250000000000044
 40
0.2500000000000097
 40
0.2500000000000097
 40
0.5000000000000064
 40
0.5000000000000064
 40
0.7500000000000032
 40
0.7500000000000032
 40
1.0
 40
1.0
 40
1.0
 40
1.0
 10
668.9214480185746
 20
467.3660741731387
 30
0.0
 10
668.9214480185746
 20
467.3659038708102
 30
0.0
 10
668.921434127428
 20
467.3654638728269
 30
0.0
 10
668.9213748333711
 20
467.3648437830219
 30
0.0
 10
668.9212403599741
 20
467.3639120997678
 30
0.0
 10
668.9206055422111
 20
467.3617276433655
 30
0.0
 10
668.9180339187564
 20
467.3573191737912
 30
0.0
 10
668.9135385673103
 20
467.3534817201912
 30
0.0
 10
668.9013699703768
 20
467.3457552400624
 30
0.0
 10
668.8890036739734
 20
467.3405348683979
 30
0.0
 10
668.838701888561
 20
467.3249087587953
 30
0.0
 10
668.7872666834703
 20
467.3145424725822
 30
0.0
 10
668.6530157694267
 20
467.2952962526087
 30
0.0
 10
668.5703242284769
 20
467.2864343369362
 30
0.0
 10
668.3859692475074
 20
467.2712401588122
 30
0.0
 10
668.2845184288394
 20
467.2649120108183
 30
0.0
 10
668.1810477412164
 20
467.2599938610686
 30
0.0
  0
SPLINE
  5
173
330
1F
100
AcDbEntity
  8
0
  6
Continuous
 62
     8
370
     0
100
AcDbSpline
210
0.0
220
0.0
230
1.0
 70
     8
 71
     3
 72
    14
 73
    10
 74
     0
 42
0.00000001
 43
0.00000001
 40
0.0
 40
0.0
 40
0.0
 40
0.0
 40
0.25
 40
0.25
 40
0.5
 40
0.5
 40
0.75
 40
0.75
 40
1.0
 40
1.0
 40
1.0
 40
1.0
 10
668.921447902805
 20
454.08342058868
 30
0.0
 10
668.9215139597113
 20
453.9949600249079
 30
0.0
 10
668.8929532428432
 20
453.9065254793613
 30
0.0
 10
668.782889221379
 20
453.7430502203531
 30
0.0
 10
668.7014293475872
 20
453.6680739811655
 30
0.0
 10
668.4979494421143
 20
453.5429548933167
 30
0.0
 10
668.3760097027557
 20
453.4928613857533
 30
0.0
 10
668.1101362573278
 20
453.4251614125494
 30
0.0
 10
667.9663074638119
 20
453.4075816320054
 30
0.0
 10
667.8224413716769
 20
453.4075957723466
 30
0.0
  0
SPLINE
  5
174
330
1F
100
AcDbEntity
  8
0
  6
Continuous
 62
     8
370
     0
100
AcDbSpline
210
0.0
220
0.0
230
1.0
 70
     8
 71
     3
 72
    14
 73
    10
 74
     0
 42
0.00000001
 43
0.00000001
 40
0.0
 40
0.0
 40
0.0
 40
0.0
 40
0.0624999999999998
 40
0.0624999999999998
 40
0.1249999999999995
 40
0.2499999999999991
 40
0.4999999999999981
 40
0.4999999999999981
 40
1.0
 40
1.0
 40
1.0
 40
1.0
 10
668.9214480185746
 20
493.4814146872543
 30
0.0
 10
668.9214480185746
 20
493.4954125520383
 30
0.0
 10
668.9213575036863
 20
493.5138042333059
 30
0.0
 10
668.9209775434947
 20
493.5462966358805
 30
0.0
 10
668.9201180128504
 20
493.5950315590799
 30
0.0
 10
668.9160840663001
 20
493.7086869798559
 30
0.0
 10
668.9091469866501
 20
493.80588856754
 30
0.0
 10
668.8906500151536
 20
493.9996952994725
 30
0.0
 10
668.8721469857944
 20
494.1281025438432
 30
0.0
 10
668.8476138782429
 20
494.2549107112003
 30
0.0
  0
LINE
  5
175
330
1F
100
AcDbEntity
  8
0
  6
Continuous
 62
     8
370
     0
100
AcDbLine
 10
718.0825139218
 20
408.9052560587
 30
0.0
 11
718.0813963347
 21
408.9086535234
 31
0.0
  0
LINE
  5
176
330
1F
100
AcDbEntity
  8
0
  6
Continuous
 62
     8
370
     0
100
AcDbLine
 10
668.8474978143
 20
494.2554342408
 30
0.0
 11
668.8741634422
 21
494.582949191
 31
0.0
  0
LINE
  5
177
330
1F
100
AcDbEntity
  8
0
  6
Continuous
 62
     8
370
     0
100
AcDbLine
 10
611.0375721761
 20
430.2720683475
 30
0.0
 11
629.5930727207
 21
430.2720683475
 31
0.0
  0
ENDSEC
  0
SECTION
  2
OBJECTS
  0
DICTIONARY
  5
C
330
0
100
AcDbDictionary
281
     1
  3
ACAD_GROUP
350
D
  3
ACAD_LAYOUT
350
1A
  3
ACAD_MLINESTYLE
350
17
  3
ACAD_PLOTSETTINGS
350
19
  3
ACAD_PLOTSTYLENAME
350
E
  0
DICTIONARY
  5
D
102
{ACAD_REACTORS
330
C
102
}
330
C
100
AcDbDictionary
281
     1
  0
DICTIONARY
  5
1A
102
{ACAD_REACTORS
330
C
102
}
330
C
100
AcDbDictionary
281
     1
  3
Layout1
350
1E
  3
Layout2
350
26
  3
Model
350
22
  0
DICTIONARY
  5
17
102
{ACAD_REACTORS
330
C
102
}
330
C
100
AcDbDictionary
281
     1
  3
Standard
350
18
  0
DICTIONARY
  5
19
102
{ACAD_REACTORS
330
C
102
}
330
C
100
AcDbDictionary
281
     1
  0
ACDBDICTIONARYWDFLT
  5
E
102
{ACAD_REACTORS
330
C
102
}
330
C
100
AcDbDictionary
281
     1
  3
Normal
350
F
100
AcDbDictionaryWithDefault
340
F
  0
LAYOUT
  5
1E
102
{ACAD_REACTORS
330
1A
102
}
330
1A
100
AcDbPlotSettings
  1

  2
none_device
  4

  6

 40
0.0
 41
0.0
 42
0.0
 43
0.0
 44
0.0
 45
0.0
 46
0.0
 47
0.0
 48
0.0
 49
0.0
140
0.0
141
0.0
142
1.0
143
1.0
 70
   688
 72
     0
 73
     0
 74
     5
  7

 75
    16
147
1.0
148
0.0
149
0.0
100
AcDbLayout
  1
Layout1
 70
     1
 71
     1
 10
0.0
 20
0.0
 11
420.0
 21
297.0
 12
0.0
 22
0.0
 32
0.0
 14
1.0000000000E+20
 24
1.0000000000E+20
 34
1.0000000000E+20
 15
-1.0000000000E+20
 25
-1.0000000000E+20
 35
-1.0000000000E+20
146
0.0
 13
0.0
 23
0.0
 33
0.0
 16
1.0
 26
0.0
 36
0.0
 17
0.0
 27
1.0
 37
0.0
 76
     0
330
1B
  0
LAYOUT
  5
26
102
{ACAD_REACTORS
330
1A
102
}
330
1A
100
AcDbPlotSettings
  1

  2
none_device
  4

  6

 40
0.0
 41
0.0
 42
0.0
 43
0.0
 44
0.0
 45
0.0
 46
0.0
 47
0.0
 48
0.0
 49
0.0
140
0.0
141
0.0
142
1.0
143
1.0
 70
   688
 72
     0
 73
     0
 74
     5
  7

 75
    16
147
1.0
148
0.0
149
0.0
100
AcDbLayout
  1
Layout2
 70
     1
 71
     2
 10
0.0
 20
0.0
 11
0.0
 21
0.0
 12
0.0
 22
0.0
 32
0.0
 14
0.0
 24
0.0
 34
0.0
 15
0.0
 25
0.0
 35
0.0
146
0.0
 13
0.0
 23
0.0
 33
0.0
 16
1.0
 26
0.0
 36
0.0
 17
0.0
 27
1.0
 37
0.0
 76
     0
330
23
  0
LAYOUT
  5
22
102
{ACAD_REACTORS
330
1A
102
}
330
1A
100
AcDbPlotSettings
  1

  2
none_device
  4

  6

 40
0.0
 41
0.0
 42
0.0
 43
0.0
 44
0.0
 45
0.0
 46
0.0
 47
0.0
 48
0.0
 49
0.0
140
0.0
141
0.0
142
1.0
143
1.0
 70
  1712
 72
     0
 73
     0
 74
     0
  7

 75
     0
147
1.0
148
0.0
149
0.0
100
AcDbLayout
  1
Model
 70
     1
 71
     0
 10
0.0
 20
0.0
 11
841.0
 21
594.0
 12
0.0
 22
0.0
 32
0.0
 14
0.0
 24
0.0
 34
0.0
 15
841.0
 25
594.0
 35
0.0
146
0.0
 13
0.0
 23
0.0
 33
0.0
 16
1.0
 26
0.0
 36
0.0
 17
0.0
 27
1.0
 37
0.0
 76
     0
330
1F
331
29
  0
MLINESTYLE
  5
18
102
{ACAD_REACTORS
330
17
102
}
330
17
100
AcDbMlineStyle
  2
Standard
 70
     0
  3

 62
   256
 51
90.0
 52
90.0
 71
     2
 49
0.5
 62
   256
  6
BYLAYER
 49
-0.5
 62
   256
  6
BYLAYER
  0
ACDBPLACEHOLDER
  5
F
102
{ACAD_REACTORS
330
E
102
}
330
E
  0
ENDSEC
  0
EOF
