  0
SECTION
  2
HEADER
  9
$ACADVER
  1
AC1015
  9
$ACADMAINTVER
 70
     6
  9
$DWGCODEPAGE
  3
ANSI_1252
  9
$INSBASE
 10
0.0
 20
0.0
 30
0.0
  9
$EXTMIN
 10
0.0
 20
0.0
 30
0.0
  9
$EXTMAX
 10
841.0
 20
1189.0
 30
0.0
  9
$LIMMIN
 10
0.0
 20
0.0
  9
$LIMMAX
 10
841.0
 20
1189.0
  9
$ORTHOMODE
 70
     0
  9
$REGENMODE
 70
     1
  9
$FILLMODE
 70
     1
  9
$QTEXTMODE
 70
     0
  9
$MIRRTEXT
 70
     1
  9
$LTSCALE
 40
1.0
  9
$ATTMODE
 70
     1
  9
$TEXTSIZE
 40
10.0
  9
$TRACEWID
 40
1.0
  9
$TEXTSTYLE
  7
Standard
  9
$CLAYER
  8
0
  9
$CELTYPE
  6
ByLayer
  9
$CECOLOR
 62
   256
  9
$CELTSCALE
 40
1.0
  9
$DISPSILH
 70
     0
  9
$DIMSCALE
 40
1.0
  9
$DIMASZ
 40
2.5
  9
$DIMEXO
 40
0.0
  9
$DIMDLI
 40
3.75
  9
$DIMRND
 40
0.0
  9
$DIMDLE
 40
0.0
  9
$DIMEXE
 40
1.0
  9
$DIMTP
 40
0.0
  9
$DIMTM
 40
0.0
  9
$DIMTXT
 40
3.5
  9
$DIMCEN
 40
2.5
  9
$DIMTSZ
 40
0.0
  9
$DIMTOL
 70
     0
  9
$DIMLIM
 70
     0
  9
$DIMTIH
 70
     1
  9
$DIMTOH
 70
     1
  9
$DIMSE1
 70
     0
  9
$DIMSE2
 70
     0
  9
$DIMTAD
 70
     1
  9
$DIMZIN
 70
     0
  9
$DIMBLK
  1

  9
$DIMASO
 70
     1
  9
$DIMSHO
 70
     1
  9
$DIMPOST
  1

  9
$DIMAPOST
  1

  9
$DIMALT
 70
     0
  9
$DIMALTD
 70
     3
  9
$DIMALTF
 40
0.0393700787
  9
$DIMLFAC
 40
0.5
  9
$DIMTOFL
 70
     1
  9
$DIMTVP
 40
0.0
  9
$DIMTIX
 70
     0
  9
$DIMSOXD
 70
     0
  9
$DIMSAH
 70
     0
  9
$DIMBLK1
  1

  9
$DIMBLK2
  1

  9
$DIMSTYLE
  2
ISO-25
  9
$DIMCLRD
 70
     0
  9
$DIMCLRE
 70
     0
  9
$DIMCLRT
 70
     0
  9
$DIMTFAC
 40
1.0
  9
$DIMGAP
 40
1.5
  9
$DIMJUST
 70
     0
  9
$DIMSD1
 70
     0
  9
$DIMSD2
 70
     0
  9
$DIMTOLJ
 70
     0
  9
$DIMTZIN
 70
     0
  9
$DIMALTZ
 70
     0
  9
$DIMALTTZ
 70
     0
  9
$DIMUPT
 70
     0
  9
$DIMDEC
 70
     2
  9
$DIMTDEC
 70
     2
  9
$DIMALTU
 70
     2
  9
$DIMALTTD
 70
     3
  9
$DIMTXSTY
  7
Standard
  9
$DIMAUNIT
 70
     0
  9
$DIMADEC
 70
     2
  9
$DIMALTRND
 40
0.0
  9
$DIMAZIN
 70
     0
  9
$DIMDSEP
 70
    44
  9
$DIMATFIT
 70
     3
  9
$DIMFRAC
 70
     0
  9
$DIMLDRBLK
  1

  9
$DIMLUNIT
 70
     2
  9
$DIMLWD
 70
    -2
  9
$DIMLWE
 70
    -2
  9
$DIMTMOVE
 70
     0
  9
$LUNITS
 70
     2
  9
$LUPREC
 70
     2
  9
$SKETCHINC
 40
1.0
  9
$FILLETRAD
 40
10.0
  9
$AUNITS
 70
     0
  9
$AUPREC
 70
     2
  9
$MENU
  1
.
  9
$ELEVATION
 40
0.0
  9
$PELEVATION
 40
0.0
  9
$THICKNESS
 40
0.0
  9
$LIMCHECK
 70
     0
  9
$CHAMFERA
 40
0.0
  9
$CHAMFERB
 40
0.0
  9
$CHAMFERC
 40
0.0
  9
$CHAMFERD
 40
0.0
  9
$SKPOLY
 70
     0
  9
$TDCREATE
 40
2459822.331959479
  9
$TDUCREATE
 40
2459822.248626146
  9
$TDUPDATE
 40
2459822.331960023
  9
$TDUUPDATE
 40
2459822.24862669
  9
$TDINDWG
 40
0.0000000116
  9
$TDUSRTIMER
 40
0.0000000116
  9
$USRTIMER
 70
     1
  9
$ANGBASE
 50
0.0
  9
$ANGDIR
 70
     0
  9
$PDMODE
 70
     0
  9
$PDSIZE
 40
-1.0
  9
$PLINEWID
 40
0.0
  9
$SPLFRAME
 70
     0
  9
$SPLINETYPE
 70
     6
  9
$SPLINESEGS
 70
     8
  9
$HANDSEED
  5
12D
  9
$SURFTAB1
 70
     6
  9
$SURFTAB2
 70
     6
  9
$SURFTYPE
 70
     6
  9
$SURFU
 70
     6
  9
$SURFV
 70
     6
  9
$UCSBASE
  2

  9
$UCSNAME
  2

  9
$UCSORG
 10
0.0
 20
0.0
 30
0.0
  9
$UCSXDIR
 10
1.0
 20
0.0
 30
0.0
  9
$UCSYDIR
 10
0.0
 20
1.0
 30
0.0
  9
$UCSORTHOREF
  2

  9
$UCSORTHOVIEW
 70
     0
  9
$UCSORGTOP
 10
0.0
 20
0.0
 30
0.0
  9
$UCSORGBOTTOM
 10
0.0
 20
0.0
 30
0.0
  9
$UCSORGLEFT
 10
0.0
 20
0.0
 30
0.0
  9
$UCSORGRIGHT
 10
0.0
 20
0.0
 30
0.0
  9
$UCSORGFRONT
 10
0.0
 20
0.0
 30
0.0
  9
$UCSORGBACK
 10
0.0
 20
0.0
 30
0.0
  9
$PUCSBASE
  2

  9
$PUCSNAME
  2

  9
$PUCSORG
 10
0.0
 20
0.0
 30
0.0
  9
$PUCSXDIR
 10
1.0
 20
0.0
 30
0.0
  9
$PUCSYDIR
 10
0.0
 20
1.0
 30
0.0
  9
$PUCSORTHOREF
  2

  9
$PUCSORTHOVIEW
 70
     0
  9
$PUCSORGTOP
 10
0.0
 20
0.0
 30
0.0
  9
$PUCSORGBOTTOM
 10
0.0
 20
0.0
 30
0.0
  9
$PUCSORGLEFT
 10
0.0
 20
0.0
 30
0.0
  9
$PUCSORGRIGHT
 10
0.0
 20
0.0
 30
0.0
  9
$PUCSORGFRONT
 10
0.0
 20
0.0
 30
0.0
  9
$PUCSORGBACK
 10
0.0
 20
0.0
 30
0.0
  9
$USERI1
 70
     0
  9
$USERI2
 70
     0
  9
$USERI3
 70
     0
  9
$USERI4
 70
     0
  9
$USERI5
 70
     0
  9
$USERR1
 40
0.0
  9
$USERR2
 40
0.0
  9
$USERR3
 40
0.0
  9
$USERR4
 40
0.0
  9
$USERR5
 40
0.0
  9
$WORLDVIEW
 70
     1
  9
$SHADEDGE
 70
     3
  9
$SHADEDIF
 70
    70
  9
$TILEMODE
 70
     1
  9
$MAXACTVP
 70
    64
  9
$PINSBASE
 10
0.0
 20
0.0
 30
0.0
  9
$PLIMCHECK
 70
     0
  9
$PEXTMIN
 10
1.0000000000E+20
 20
1.0000000000E+20
 30
1.0000000000E+20
  9
$PEXTMAX
 10
-1.0000000000E+20
 20
-1.0000000000E+20
 30
-1.0000000000E+20
  9
$PLIMMIN
 10
0.0
 20
0.0
  9
$PLIMMAX
 10
420.0
 20
297.0
  9
$UNITMODE
 70
     0
  9
$VISRETAIN
 70
     1
  9
$PLINEGEN
 70
     0
  9
$PSLTSCALE
 70
     1
  9
$TREEDEPTH
 70
  3020
  9
$CMLSTYLE
  2
Standard
  9
$CMLJUST
 70
     0
  9
$CMLSCALE
 40
20.0
  9
$PROXYGRAPHICS
 70
     1
  9
$MEASUREMENT
 70
     1
  9
$CELWEIGHT
370
    -1
  9
$ENDCAPS
280
     0
  9
$JOINSTYLE
280
     0
  9
$LWDISPLAY
290
     1
  9
$INSUNITS
 70
     4
  9
$HYPERLINKBASE
  1

  9
$STYLESHEET
  1

  9
$XEDIT
290
     1
  9
$CEPSNTYPE
380
     0
  9
$PSTYLEMODE
290
     1
  9
$FINGERPRINTGUID
  2
{b44e16bc-07ef-4968-8163-f37c8fd85546}
  9
$VERSIONGUID
  2
{FAEB1C32-E019-11D5-929B-00C0DF256EC4}
  9
$EXTNAMES
290
     1
  9
$PSVPSCALE
 40
0.0
  9
$OLESTARTUP
290
     0
  0
ENDSEC
  0
SECTION
  2
CLASSES
  0
CLASS
  1
ACDBDICTIONARYWDFLT
  2
AcDbDictionaryWithDefault
  3
ObjectDBX Classes
 90
        0
280
     0
281
     0
  0
CLASS
  1
VISUALSTYLE
  2
AcDbVisualStyle
  3
ObjectDBX Classes
 90
     4095
280
     0
281
     0
  0
CLASS
  1
MATERIAL
  2
AcDbMaterial
  3
ObjectDBX Classes
 90
     1153
280
     0
281
     0
  0
CLASS
  1
SCALE
  2
AcDbScale
  3
ObjectDBX Classes
 90
     1153
280
     0
281
     0
  0
CLASS
  1
TABLESTYLE
  2
AcDbTableStyle
  3
ObjectDBX Classes
 90
     4095
280
     0
281
     0
  0
CLASS
  1
MLEADERSTYLE
  2
AcDbMLeaderStyle
  3
ACDB_MLEADERSTYLE_CLASS
 90
     4095
280
     0
281
     0
  0
CLASS
  1
SUN
  2
AcDbSun
  3
SCENEOE
 90
     1153
280
     0
281
     0
  0
CLASS
  1
ACDBPLACEHOLDER
  2
AcDbPlaceHolder
  3
ObjectDBX Classes
 90
        0
280
     0
281
     0
  0
CLASS
  1
LAYOUT
  2
AcDbLayout
  3
ObjectDBX Classes
 90
        0
280
     0
281
     0
  0
ENDSEC
  0
SECTION
  2
TABLES
  0
TABLE
  2
VPORT
  5
8
330
0
100
AcDbSymbolTable
 70
     1
  0
VPORT
  5
29
330
8
100
AcDbSymbolTableRecord
100
AcDbViewportTableRecord
  2
*Active
 70
     0
 10
0.0
 20
0.0
 11
1.0
 21
1.0
 12
420.5
 22
594.5
 13
0.0
 23
0.0
 14
10.0
 24
10.0
 15
10.0
 25
10.0
 16
0.0
 26
0.0
 36
1.0
 17
0.0
 27
0.0
 37
0.0
 40
1189.0
 41
0.7073170732
 42
50.0
 43
0.0
 44
0.0
 50
0.0
 51
0.0
 71
     0
 72
  2000
 73
     1
 74
     3
 75
     0
 76
     0
 77
     0
 78
     0
281
     0
 65
     1
110
0.0
120
0.0
130
0.0
111
1.0
121
0.0
131
0.0
112
0.0
122
1.0
132
0.0
 79
     0
146
0.0
  0
ENDTAB
  0
TABLE
  2
LTYPE
  5
5
330
0
100
AcDbSymbolTable
 70
     6
  0
LTYPE
  5
14
330
5
100
AcDbSymbolTableRecord
100
AcDbLinetypeTableRecord
  2
ByBlock
 70
     0
  3

 72
    65
 73
     0
 40
0.0
  0
LTYPE
  5
15
330
5
100
AcDbSymbolTableRecord
100
AcDbLinetypeTableRecord
  2
ByLayer
 70
     0
  3

 72
    65
 73
     0
 40
0.0
  0
LTYPE
  5
16
330
5
100
AcDbSymbolTableRecord
100
AcDbLinetypeTableRecord
  2
Continuous
 70
     0
  3
Solid line
 72
    65
 73
     0
 40
0.0
  0
LTYPE
  5
6E
330
5
100
AcDbSymbolTableRecord
100
AcDbLinetypeTableRecord
  2
HIDDEN
 70
     0
  3
Hidden __ __ __ __ __ __ __ __ __ __ __ __ __ __
 72
    65
 73
     2
 40
1.905
 49
1.27
 74
     0
 49
-0.635
 74
     0
  0
LTYPE
  5
6F
330
5
100
AcDbSymbolTableRecord
100
AcDbLinetypeTableRecord
  2
PHANTOM
 70
     0
  3
Phantom ______  __  __  ______  __  __  ______
 72
    65
 73
     6
 40
12.7
 49
6.35
 74
     0
 49
-1.27
 74
     0
 49
1.27
 74
     0
 49
-1.27
 74
     0
 49
1.27
 74
     0
 49
-1.27
 74
     0
  0
LTYPE
  5
70
330
5
100
AcDbSymbolTableRecord
100
AcDbLinetypeTableRecord
  2
CENTER
 70
     0
  3
Center ____ _ ____ _ ____ _ ____ _ ____ _ ____
 72
    65
 73
     4
 40
10.16
 49
6.35
 74
     0
 49
-1.27
 74
     0
 49
1.27
 74
     0
 49
-1.27
 74
     0
  0
LTYPE
  5
71
330
5
100
AcDbSymbolTableRecord
100
AcDbLinetypeTableRecord
  2
CENTERX2
 70
     0
  3
Center (2x) ________  __  ________  __  _____
 72
    65
 73
     4
 40
20.32
 49
12.7
 74
     0
 49
-2.54
 74
     0
 49
2.54
 74
     0
 49
-2.54
 74
     0
  0
LTYPE
  5
72
330
5
100
AcDbSymbolTableRecord
100
AcDbLinetypeTableRecord
  2
DOT2
 70
     0
  3
Dot (.5x) ........................................
 72
    65
 73
     2
 40
0.635
 49
0.0
 74
     0
 49
-0.635
 74
     0
  0
ENDTAB
  0
TABLE
  2
LAYER
  5
2
330
0
100
AcDbSymbolTable
 70
     1
  0
LAYER
  5
10
330
2
100
AcDbSymbolTableRecord
100
AcDbLayerTableRecord
  2
0
 70
     0
 62
     7
  6
Continuous
370
    -3
390
F
  0
ENDTAB
  0
TABLE
  2
STYLE
  5
3
330
0
100
AcDbSymbolTable
 70
     3
  0
STYLE
  5
11
330
3
100
AcDbSymbolTableRecord
100
AcDbTextStyleTableRecord
  2
Standard
 70
     0
 40
0.0
 41
1.0
 50
0.0
 71
     0
 42
10.0
  3
txt
  4

  0
STYLE
  5
76
330
3
100
AcDbSymbolTableRecord
100
AcDbTextStyleTableRecord
  2
SLDTEXTSTYLE0
 70
     0
 40
0.0
 41
0.96
 50
0.0
 71
     0
 42
10.0
  3
ISOCP3
  4

  0
STYLE
  5
8D
330
3
100
AcDbSymbolTableRecord
100
AcDbTextStyleTableRecord
  2
SLDTEXTSTYLE1
 70
     0
 40
0.0
 41
0.605
 50
0.0
 71
     0
 42
10.0
  3
TXT
  4

  0
ENDTAB
  0
TABLE
  2
VIEW
  5
6
330
0
100
AcDbSymbolTable
 70
     0
  0
ENDTAB
  0
TABLE
  2
UCS
  5
7
330
0
100
AcDbSymbolTable
 70
     0
  0
ENDTAB
  0
TABLE
  2
APPID
  5
9
330
0
100
AcDbSymbolTable
 70
     1
  0
APPID
  5
12
330
9
100
AcDbSymbolTableRecord
100
AcDbRegAppTableRecord
  2
ACAD
 70
     0
  0
ENDTAB
  0
TABLE
  2
DIMSTYLE
  5
A
330
0
100
AcDbSymbolTable
 70
     2
100
AcDbDimStyleTable
  0
DIMSTYLE
105
27
330
A
100
AcDbSymbolTableRecord
100
AcDbDimStyleTableRecord
  2
ISO-25
 70
     0
 41
2.5
 42
0.625
 43
3.75
 44
1.25
 73
     0
 74
     0
 77
     1
 78
     8
140
2.5
141
2.5
143
0.0393700787
147
0.625
171
     3
172
     1
178
     0
271
     2
272
     2
274
     3
278
    44
283
     0
284
     8
340
11
  0
DIMSTYLE
105
77
102
{ACAD_REACTORS
330
75
330
82
102
}
330
A
100
AcDbSymbolTableRecord
100
AcDbDimStyleTableRecord
  2
SLDDIMSTYLE0
 70
     0
 41
2.5
 44
0.0
 45
0.000000001
 73
     0
 74
     0
 77
     1
 78
    12
 79
     3
140
6.0
144
0.5
147
1.5
173
     1
178
     0
271
     2
272
     2
276
     2
284
    12
340
76
  0
ENDTAB
  0
TABLE
  2
BLOCK_RECORD
  5
1
330
0
100
AcDbSymbolTable
 70
     3
  0
BLOCK_RECORD
  5
1F
330
1
100
AcDbSymbolTableRecord
100
AcDbBlockTableRecord
  2
*Model_Space
340
22
  0
BLOCK_RECORD
  5
1B
330
1
100
AcDbSymbolTableRecord
100
AcDbBlockTableRecord
  2
*Paper_Space
340
1E
  0
BLOCK_RECORD
  5
23
330
1
100
AcDbSymbolTableRecord
100
AcDbBlockTableRecord
  2
*Paper_Space0
340
26
  0
BLOCK_RECORD
  5
78
330
1
100
AcDbSymbolTableRecord
100
AcDbBlockTableRecord
  2
_D
340
0
  0
BLOCK_RECORD
  5
83
330
1
100
AcDbSymbolTableRecord
100
AcDbBlockTableRecord
  2
_D_1
340
0
  0
ENDTAB
  0
ENDSEC
  0
SECTION
  2
BLOCKS
  0
BLOCK
  5
20
330
1F
100
AcDbEntity
  8
0
100
AcDbBlockBegin
  2
*Model_Space
 70
     0
 10
0.0
 20
0.0
 30
0.0
  3
*Model_Space
  1

  0
ENDBLK
  5
21
330
1F
100
AcDbEntity
  8
0
100
AcDbBlockEnd
  0
BLOCK
  5
1C
330
1B
100
AcDbEntity
 67
     1
  8
0
100
AcDbBlockBegin
  2
*Paper_Space
 70
     0
 10
0.0
 20
0.0
 30
0.0
  3
*Paper_Space
  1

  0
ENDBLK
  5
1D
330
1B
100
AcDbEntity
 67
     1
  8
0
100
AcDbBlockEnd
  0
BLOCK
  5
24
330
23
100
AcDbEntity
  8
0
100
AcDbBlockBegin
  2
*Paper_Space0
 70
     0
 10
0.0
 20
0.0
 30
0.0
  3
*Paper_Space0
  1

  0
ENDBLK
  5
25
330
23
100
AcDbEntity
  8
0
100
AcDbBlockEnd
  0
BLOCK
  5
79
330
78
100
AcDbEntity
  8
0
100
AcDbBlockBegin
  2
_D
 70
     0
 10
0.0
 20
0.0
 30
0.0
  3
_D
  1

  0
SOLID
  5
7B
330
78
100
AcDbEntity
  8
0
  6
Continuous
 62
     7
370
    18
100
AcDbTrace
 10
42.7614395004
 20
152.0299240879
 30
0.0
 11
42.4614395004
 21
149.5299240879
 31
0.0
 12
43.0614395004
 22
149.5299240879
 32
0.0
 13
43.0614395004
 23
149.5299240879
 33
0.0
  0
SOLID
  5
7C
330
78
100
AcDbEntity
  8
0
  6
Continuous
 62
     7
370
    18
100
AcDbTrace
 10
42.7614395004
 20
52.0299240879
 30
0.0
 11
43.0614395004
 21
54.5299240879
 31
0.0
 12
42.4614395004
 22
54.5299240879
 32
0.0
 13
42.4614395004
 23
54.5299240879
 33
0.0
  0
LINE
  5
7D
330
78
100
AcDbEntity
  8
0
  6
Continuous
 62
     7
370
     0
100
AcDbLine
 10
56.6850079902
 20
152.0299240879
 30
0.0
 11
41.7614395004
 21
152.0299240879
 31
0.0
  0
LINE
  5
7E
330
78
100
AcDbEntity
  8
0
  6
Continuous
 62
     7
370
     0
100
AcDbLine
 10
56.6850079902
 20
52.0299240879
 30
0.0
 11
41.7614395004
 21
52.0299240879
 31
0.0
  0
LINE
  5
7F
330
78
100
AcDbEntity
  8
0
  6
Continuous
 62
     7
370
     0
100
AcDbLine
 10
42.7614395004
 20
152.0299240879
 30
0.0
 11
42.7614395004
 21
52.0299240879
 31
0.0
  0
MTEXT
  5
80
330
78
100
AcDbEntity
  8
0
  6
Continuous
 62
     7
370
    18
100
AcDbMText
 10
35.0270332946
 20
94.3680541463
 30
0.0
 40
6.0
 41
0.0
 71
     1
 72
     1
  1
100
  7
SLDTEXTSTYLE0
 11
-7.044195017643634E-15
 21
1.0
 31
0.0
 73
     1
 44
1.0
  0
MTEXT
  5
81
330
78
100
AcDbEntity
  8
0
  6
Continuous
 62
     7
370
    18
100
AcDbMText
 10
35.0270332946
 20
105.7430548466
 30
0.0
 40
6.0
 41
0.0
 71
     1
 72
     1
  1
mm
  7
SLDTEXTSTYLE0
 11
-7.044195017643634E-15
 21
1.0
 31
0.0
 73
     1
 44
1.0
  0
ENDBLK
  5
7A
330
78
100
AcDbEntity
  8
0
100
AcDbBlockEnd
  0
BLOCK
  5
84
330
83
100
AcDbEntity
  8
0
100
AcDbBlockBegin
  2
_D_1
 70
     0
 10
0.0
 20
0.0
 30
0.0
  3
_D_1
  1

  0
SOLID
  5
86
330
83
100
AcDbEntity
  8
0
  6
Continuous
 62
     7
370
    18
100
AcDbTrace
 10
56.6850079902
 20
38.4602342313
 30
0.0
 11
59.1850079902
 21
38.1602342313
 31
0.0
 12
59.1850079902
 22
38.7602342313
 32
0.0
 13
59.1850079902
 23
38.7602342313
 33
0.0
  0
SOLID
  5
87
330
83
100
AcDbEntity
  8
0
  6
Continuous
 62
     7
370
    18
100
AcDbTrace
 10
156.6850079902
 20
38.4602342313
 30
0.0
 11
154.1850079902
 21
38.7602342313
 31
0.0
 12
154.1850079902
 22
38.1602342313
 32
0.0
 13
154.1850079902
 23
38.1602342313
 33
0.0
  0
LINE
  5
88
330
83
100
AcDbEntity
  8
0
  6
Continuous
 62
     7
370
     0
100
AcDbLine
 10
56.6850079902
 20
52.0299240879
 30
0.0
 11
56.6850079902
 21
37.4602342313
 31
0.0
  0
LINE
  5
89
330
83
100
AcDbEntity
  8
0
  6
Continuous
 62
     7
370
     0
100
AcDbLine
 10
156.6850079902
 20
52.0299240879
 30
0.0
 11
156.6850079902
 21
37.4602342313
 31
0.0
  0
LINE
  5
8A
330
83
100
AcDbEntity
  8
0
  6
Continuous
 62
     7
370
     0
100
AcDbLine
 10
56.6850079902
 20
38.4602342313
 30
0.0
 11
156.6850079902
 21
38.4602342313
 31
0.0
  0
MTEXT
  5
8B
330
83
100
AcDbEntity
  8
0
  6
Continuous
 62
     7
370
    18
100
AcDbMText
 10
93.9626484861
 20
46.1946404371
 30
0.0
 40
6.0
 41
0.0
 71
     1
 72
     1
  1
100
  7
SLDTEXTSTYLE0
 73
     1
 44
1.0
  0
MTEXT
  5
8C
330
83
100
AcDbEntity
  8
0
  6
Continuous
 62
     7
370
    18
100
AcDbMText
 10
105.3376491864
 20
46.1946404371
 30
0.0
 40
6.0
 41
0.0
 71
     1
 72
     1
  1
mm
  7
SLDTEXTSTYLE0
 73
     1
 44
1.0
  0
ENDBLK
  5
85
330
83
100
AcDbEntity
  8
0
100
AcDbBlockEnd
  0
ENDSEC
  0
SECTION
  2
ENTITIES
  0
LINE
  5
73
330
1F
100
AcDbEntity
  8
0
  6
Continuous
 62
     7
370
    18
100
AcDbLine
 10
56.6850079902
 20
152.0299240879
 30
0.0
 11
56.6850079902
 21
52.0299240879
 31
0.0
  0
LINE
  5
74
330
1F
100
AcDbEntity
  8
0
  6
Continuous
 62
     7
370
    18
100
AcDbLine
 10
56.6850079902
 20
52.0299240879
 30
0.0
 11
156.6850079902
 21
52.0299240879
 31
0.0
  0
DIMENSION
  5
75
330
1F
100
AcDbEntity
  8
0
  6
Continuous
 62
     7
370
    18
100
AcDbDimension
  2
_D
 10
42.7614395004
 20
52.0299240879
 30
0.0
 11
42.7614395004
 21
105.4472211621
 31
0.0
 70
   160
  1
<>mm
 71
     2
 42
-1.0
  3
SLDDIMSTYLE0
100
AcDbAlignedDimension
 13
56.6850079902
 23
152.0299240879
 33
0.0
 14
56.6850079902
 24
52.0299240879
 34
0.0
 50
90.0
100
AcDbRotatedDimension
  0
DIMENSION
  5
82
330
1F
100
AcDbEntity
  8
0
  6
Continuous
 62
     7
370
    18
100
AcDbDimension
  2
_D_1
 10
156.6850079902
 20
38.4602342313
 30
0.0
 11
105.0418155019
 21
38.4602342313
 31
0.0
 70
   160
  1
<>mm
 71
     2
 42
-1.0
  3
SLDDIMSTYLE0
100
AcDbAlignedDimension
 13
56.6850079902
 23
52.0299240879
 33
0.0
 14
156.6850079902
 24
52.0299240879
 34
0.0
100
AcDbRotatedDimension
  0
MTEXT
  5
8E
330
1F
100
AcDbEntity
  8
0
  6
Continuous
 62
     7
370
     0
100
AcDbMText
 10
658.0168509251
 20
48.4342449499
 30
0.0
 40
10.0
 41
0.0
 71
     1
 72
     1
  1
KLUDI GmbH & Co KG
  7
SLDTEXTSTYLE1
 73
     1
 44
1.0
  0
MTEXT
  5
8F
330
1F
100
AcDbEntity
  8
0
  6
Continuous
 62
     7
370
     0
100
AcDbMText
 10
362.6071641649
 20
48.4342449499
 30
0.0
 40
10.0
 41
0.0
 71
     1
 72
     1
  1
61 071 05
  7
SLDTEXTSTYLE1
 73
     1
 44
1.0
  0
ARC
  5
90
330
1F
100
AcDbEntity
  8
0
  6
Continuous
 62
     7
370
    25
100
AcDbCircle
 10
236.5923720546
 20
441.4387076044
 30
0.0
 40
86.00000000000009
100
AcDbArc
 50
179.2841916867
 51
269.2853085744
  0
ARC
  5
91
330
1F
100
AcDbEntity
  8
0
  6
Continuous
 62
     7
370
    25
100
AcDbCircle
 10
236.5923720546
 20
441.4387076044
 30
0.0
 40
114.0
100
AcDbArc
 50
179.2841916867
 51
269.284080618
  0
LINE
  5
92
330
1F
100
AcDbEntity
  8
0
  6
Continuous
 62
     7
370
    25
100
AcDbLine
 10
150.599083422
 20
442.5130958772
 30
0.0
 11
152.0432611468
 21
558.1040745507
 31
0.0
  0
LINE
  5
93
330
1F
100
AcDbEntity
  8
0
  6
Continuous
 62
     7
370
    25
100
AcDbLine
 10
124.0454462432
 20
558.4538753837
 30
0.0
 11
122.6012685184
 21
442.8628967102
 31
0.0
  0
LINE
  5
94
330
1F
100
AcDbEntity
  8
0
  6
Continuous
 62
     7
370
    25
100
AcDbLine
 10
235.5179837818
 20
355.4454189719
 30
0.0
 11
230.6183007307
 21
355.8165541569
 31
0.0
  0
ARC
  5
95
330
1F
100
AcDbEntity
  8
0
  6
Continuous
 62
     7
370
    25
100
AcDbCircle
 10
236.6443585097
 20
441.4165947544
 30
0.0
 40
85.97855421816081
100
AcDbArc
 50
269.2493667191
 51
183.3201815779
  0
SPLINE
  5
96
330
1F
100
AcDbEntity
  8
0
  6
Continuous
 62
     7
370
    25
100
AcDbSpline
210
0.0
220
0.0
230
1.0
 70
     8
 71
     3
 72
    50
 73
    46
 74
     0
 42
0.00000001
 43
0.00000001
 40
0.0
 40
0.0
 40
0.0
 40
0.0
 40
0.0237882604035854
 40
0.0469222757308378
 40
0.0693223034052765
 40
0.0910798761733122
 40
0.1190047842432738
 40
0.1456995447934361
 40
0.1712098982736971
 40
0.1954555197236655
 40
0.2185360884097373
 40
0.2403729521160306
 40
0.2609832894171629
 40
0.28041401278003
 40
0.2986044815634137
 40
0.3188069830108229
 40
0.3372982575873108
 40
0.3541010856062256
 40
0.3705192691232886
 40
0.3871012776823506
 40
0.415033608219485
 40
0.4432897503300373
 40
0.4719629676566004
 40
0.5009506573121145
 40
0.5303609387245906
 40
0.5600484664404703
 40
0.5824808490388944
 40
0.6049665017922444
 40
0.6275430212175463
 40
0.650236685198001
 40
0.6729679665132826
 40
0.6958272163818932
 40
0.7187707271095394
 40
0.7417464677136634
 40
0.7642317693926484
 40
0.7858560270555284
 40
0.8066522740360325
 40
0.8266535293477221
 40
0.8519780531618385
 40
0.8760582650210619
 40
0.9008319253650738
 40
0.9267766102117773
 40
0.9539728240829911
 40
0.9818672050299329
 40
1.0
 40
1.0
 40
1.0
 40
1.0
 10
235.168182948808
 20
327.4476040682915
 30
0.0
 10
238.7831294908904
 20
327.5015365747844
 30
0.0
 10
245.9136012245134
 20
327.6079182898648
 30
0.0
 10
256.3687149966262
 20
329.018623683522
 30
0.0
 10
266.3557738349446
 20
331.2363222044471
 30
0.0
 10
276.7989070453196
 20
334.5638656785385
 30
0.0
 10
287.4713875365699
 20
339.1686552311336
 30
0.0
 10
298.0719131428726
 20
345.1915214064923
 30
0.0
 10
307.5301670215709
 20
351.9581463687687
 30
0.0
 10
315.8560983735655
 20
359.2675652009195
 30
0.0
 10
323.0691929569402
 20
366.9220452562029
 30
0.0
 10
329.2249308672671
 20
374.757068301168
 30
0.0
 10
334.3892769166408
 20
382.6207733582033
 30
0.0
 10
338.6412545270462
 20
390.3843660554917
 30
0.0
 10
342.2720930143968
 20
398.3880924741243
 30
0.0
 10
345.2307136989907
 20
406.5149917252781
 30
0.0
 10
347.4952046555948
 20
414.6404568451803
 30
0.0
 10
349.0662704021487
 20
422.3406238670655
 30
0.0
 10
350.0840020143652
 20
429.8412060859644
 30
0.0
 10
350.7217021324462
 20
439.0783535182777
 30
0.0
 10
350.4997474784742
 20
450.1514384924627
 30
0.0
 10
348.7946589616818
 20
462.9532844697494
 30
0.0
 10
345.6077735264168
 20
475.6344242074331
 30
0.0
 10
340.9203394068534
 20
488.0311651866422
 30
0.0
 10
334.7504039431829
 20
499.9334670121048
 30
0.0
 10
327.7783645710832
 20
510.2030134978912
 30
0.0
 10
320.4653239968145
 20
518.8743880023183
 30
0.0
 10
313.1713793019929
 20
526.0959972454347
 30
0.0
 10
305.2268541696735
 20
532.6572576614301
 30
0.0
 10
296.6916003604419
 20
538.494606692061
 30
0.0
 10
287.6235433530352
 20
543.5555423532013
 30
0.0
 10
278.0985564108569
 20
547.7852862620866
 30
0.0
 10
268.1913994745066
 20
551.1385386932998
 30
0.0
 10
258.0729527001767
 20
553.5565378907905
 30
0.0
 10
247.9772075611245
 20
555.0173365843643
 30
0.0
 10
238.123200462983
 20
555.5651630685517
 30
0.0
 10
228.6364252158395
 20
555.2874423348479
 30
0.0
 10
218.6470409872419
 20
554.1761941757848
 30
0.0
 10
208.3009791864043
 20
552.0637796009969
 30
0.0
 10
197.5232575330686
 20
548.7284531865743
 30
0.0
 10
187.0362829449099
 20
544.318987332829
 30
0.0
 10
176.6207210217104
 20
538.6514128936977
 30
0.0
 10
166.5148825470446
 20
531.6051659479707
 30
0.0
 10
157.9945205100973
 20
524.3934870215438
 30
0.0
 10
153.3576194165062
 20
519.1561720540376
 30
0.0
 10
151.5308730400139
 20
517.0928875572723
 30
0.0
  0
LINE
  5
97
330
1F
100
AcDbEntity
  8
0
  6
Continuous
 62
     7
370
    25
100
AcDbLine
 10
350.5834755907
 20
440.0145184987
 30
0.0
 11
351.9826789227
 21
552.0057781132
 31
0.0
  0
LINE
  5
98
330
1F
100
AcDbEntity
  8
0
  6
Continuous
 62
     7
370
    25
100
AcDbLine
 10
323.9848640191
 20
552.3555789462
 30
0.0
 11
323.5183643324
 21
515.0172691192
 31
0.0
  0
LINE
  5
99
330
1F
100
AcDbEntity
  8
0
  6
Continuous
 62
     7
370
    25
100
AcDbLine
 10
315.735139585
 20
612.4633325788
 30
0.0
 11
317.3356281317
 21
572.3385687719
 31
0.0
  0
LINE
  5
9A
330
1F
100
AcDbEntity
  8
0
  6
Continuous
 62
     7
370
    25
100
AcDbLine
 10
359.1290907871
 20
571.8164070211
 30
0.0
 11
361.7315497838
 21
611.8886597818
 31
0.0
  0
ARC
  5
9B
330
1F
100
AcDbEntity
  8
0
  6
Continuous
 62
     7
370
    25
100
AcDbCircle
 10
321.0139379285
 20
555.3929314222
 30
0.0
 40
3.000000000000011
100
AcDbArc
 50
227.6863536571
 51
269.2841916867
  0
ARC
  5
9C
330
1F
100
AcDbEntity
  8
0
  6
Continuous
 62
     7
370
    25
100
AcDbCircle
 10
355.0285623345
 20
554.9679574022
 30
0.0
 40
3.000000000000011
100
AcDbArc
 50
269.2841916867
 51
310.9045711385
  0
LINE
  5
9D
330
1F
100
AcDbEntity
  8
0
  6
Continuous
 62
     7
370
    25
100
AcDbLine
 10
122.2180041606
 20
572.2777842171
 30
0.0
 11
122.0456023215
 21
558.4788611575
 31
0.0
  0
LINE
  5
9E
330
1F
100
AcDbEntity
  8
0
  6
Continuous
 62
     7
370
    25
100
AcDbLine
 10
154.0431050685
 20
558.0790887769
 30
0.0
 11
154.2155069076
 21
571.8780118366
 31
0.0
  0
LINE
  5
9F
330
1F
100
AcDbEntity
  8
0
  6
Continuous
 62
     7
370
    25
100
AcDbLine
 10
161.964533847
 20
631.7858792789
 30
0.0
 11
161.453663057
 21
633.7924181185
 31
0.0
  0
LINE
  5
A0
330
1F
100
AcDbEntity
  8
0
  6
Continuous
 62
     7
370
    25
100
AcDbLine
 10
116.5289659858
 20
634.3537010798
 30
0.0
 11
115.9681236482
 21
632.360552076
 31
0.0
  0
LINE
  5
A1
330
1F
100
AcDbEntity
  8
0
  6
Continuous
 62
     7
370
    25
100
AcDbLine
 10
115.9681236482
 20
632.360552076
 30
0.0
 11
117.5686121949
 21
592.2357882691
 31
0.0
  0
LINE
  5
A2
330
1F
100
AcDbEntity
  8
0
  6
Continuous
 62
     7
370
    25
100
AcDbLine
 10
159.3620748503
 20
591.7136265183
 30
0.0
 11
161.964533847
 21
631.7858792789
 31
0.0
  0
LINE
  5
A3
330
1F
100
AcDbEntity
  8
0
  6
Continuous
 62
     7
370
    25
100
AcDbLine
 10
359.1290907871
 20
571.8164070211
 30
0.0
 11
357.207160691
 21
569.9419089739
 31
0.0
  0
LINE
  5
A4
330
1F
100
AcDbEntity
  8
0
  6
Continuous
 62
     7
370
    25
100
AcDbLine
 10
357.207160691
 20
569.9419089739
 30
0.0
 11
357.017805906
 21
554.7860839453
 31
0.0
  0
LINE
  5
A5
330
1F
100
AcDbEntity
  8
0
  6
Continuous
 62
     7
370
    25
100
AcDbLine
 10
319.020771394
 20
555.2608136472
 30
0.0
 11
319.2101261789
 21
570.4166386758
 31
0.0
  0
LINE
  5
A6
330
1F
100
AcDbEntity
  8
0
  6
Continuous
 62
     7
370
    25
100
AcDbLine
 10
319.2101261789
 20
570.4166386758
 30
0.0
 11
317.3356281317
 21
572.3385687719
 31
0.0
  0
LINE
  5
A7
330
1F
100
AcDbEntity
  8
0
  6
Continuous
 62
     7
370
    25
100
AcDbLine
 10
338.7333446844
 20
612.1759961803
 30
0.0
 11
361.7315497838
 21
611.8886597818
 31
0.0
  0
LINE
  5
A8
330
1F
100
AcDbEntity
  8
0
  6
Continuous
 62
     7
370
    25
100
AcDbLine
 10
315.735139585
 20
612.4633325788
 30
0.0
 11
338.7333446844
 21
612.1759961803
 31
0.0
  0
SPLINE
  5
A9
330
1F
100
AcDbEntity
  8
0
  6
Continuous
 62
     7
370
    25
100
AcDbSpline
210
0.0
220
0.0
230
1.0
 70
    24
 71
     3
 72
    14
 73
    10
 74
     0
 42
0.00000001
 43
0.00000001
 40
0.0
 40
0.0
 40
0.0
 40
0.0
 40
0.0262957185824958
 40
0.0863458063321172
 40
0.1815332852009052
 40
0.370833745816281
 40
0.680918512314746
 40
0.9996886871799345
 40
0.9999999999999999
 40
0.9999999999999999
 40
0.9999999999999999
 40
0.9999999999999999
 10
357.0178059060205
 20
554.7860839452766
 30
0.0
 10
357.017062088623
 20
554.7265493191329
 30
0.0
 10
357.0146196563028
 20
554.5310587383022
 30
0.0
 10
357.0100368239836
 20
554.164252033163
 30
0.0
 10
357.0035242418272
 20
553.6429894958426
 30
0.0
 10
356.9967663773695
 20
553.1020947340671
 30
0.0
 10
356.9929427760531
 20
552.7960563491894
 30
0.0
 10
356.991077488957
 20
552.6467600702136
 30
0.0
 10
356.9917375656921
 20
552.6995921518825
 30
0.0
 10
356.991738209698
 20
552.6996436976629
 30
0.0
  0
SPLINE
  5
AA
330
1F
100
AcDbEntity
  8
0
  6
Continuous
 62
     7
370
    25
100
AcDbSpline
210
0.0
220
0.0
230
1.0
 70
    24
 71
     3
 72
    13
 73
     9
 74
     0
 42
0.00000001
 43
0.00000001
 40
0.0
 40
0.0
 40
0.0
 40
0.0
 40
0.4046122258326814
 40
0.7243065115819506
 40
0.8850402439490982
 40
0.9420691435274677
 40
0.9995668932218288
 40
1.0
 40
1.0
 40
1.0
 40
1.0
 10
318.9947021394311
 20
553.1742486811886
 30
0.0
 10
318.9951104037632
 20
553.2069258738139
 30
0.0
 10
318.995841248002
 20
553.2654221373662
 30
0.0
 10
319.0017524200422
 20
553.73854822816
 30
0.0
 10
319.0097238324423
 20
554.3765745214447
 30
0.0
 10
319.0159372294934
 20
554.8738904915623
 30
0.0
 10
319.0191081596877
 20
555.1276895343253
 30
0.0
 10
319.0207590514536
 20
555.2598257609616
 30
0.0
 10
319.0207713939678
 20
555.2608136471915
 30
0.0
  0
LINE
  5
AB
330
1F
100
AcDbEntity
  8
0
  6
Continuous
 62
     7
370
    25
100
AcDbLine
 10
337.9837714709
 20
552.1806785297
 30
0.0
 11
354.9910836739
 21
551.9681915197
 31
0.0
  0
LINE
  5
AC
330
1F
100
AcDbEntity
  8
0
  6
Continuous
 62
     7
370
    25
100
AcDbLine
 10
320.9764592679
 20
552.3931655397
 30
0.0
 11
337.9837714709
 21
552.1806785297
 31
0.0
  0
LINE
  5
AD
330
1F
100
AcDbEntity
  8
0
  6
Continuous
 62
     7
370
    25
100
AcDbLine
 10
122.0456023215
 20
558.4788611575
 30
0.0
 11
154.0431050685
 21
558.0790887769
 31
0.0
  0
LINE
  5
AE
330
1F
100
AcDbEntity
  8
0
  6
Continuous
 62
     7
370
    25
100
AcDbLine
 10
115.9681236482
 20
632.360552076
 30
0.0
 11
161.964533847
 21
631.7858792789
 31
0.0
  0
LINE
  5
AF
330
1F
100
AcDbEntity
  8
0
  6
Continuous
 62
     7
370
    25
100
AcDbLine
 10
116.5289659858
 20
634.3537010798
 30
0.0
 11
161.453663057
 21
633.7924181185
 31
0.0
  0
LINE
  5
B0
330
1F
100
AcDbEntity
  8
0
  6
Continuous
 62
     7
370
    25
100
AcDbLine
 10
157.2271118498
 20
572.7881232647
 30
0.0
 11
157.4401447542
 21
589.8391284711
 31
0.0
  0
LINE
  5
B1
330
1F
100
AcDbEntity
  8
0
  6
Continuous
 62
     7
370
    25
100
AcDbLine
 10
119.2300773378
 20
573.2628529667
 30
0.0
 11
157.2271118498
 21
572.7881232647
 31
0.0
  0
SPLINE
  5
B2
330
1F
100
AcDbEntity
  8
0
  6
Continuous
 62
     7
370
    25
100
AcDbSpline
210
0.0
220
0.0
230
1.0
 70
    24
 71
     3
 72
     9
 73
     5
 74
     0
 42
0.00000001
 43
0.00000001
 40
0.0
 40
0.0
 40
0.0
 40
0.0
 40
0.7456629823534464
 40
1.0
 40
1.0
 40
1.0
 40
1.0
 10
119.4431102421318
 20
590.3138581729875
 30
0.0
 10
119.3900362040225
 20
586.0658491489086
 30
0.0
 10
119.3188592254607
 20
580.3688933865732
 30
0.0
 10
119.2480792943623
 20
574.7037170265168
 30
0.0
 10
119.2300773377775
 20
573.2628529666583
 30
0.0
  0
LINE
  5
B3
330
1F
100
AcDbEntity
  8
0
  6
Continuous
 62
     7
370
    25
100
AcDbLine
 10
117.5686121949
 20
592.2357882691
 30
0.0
 11
119.4431102421
 21
590.313858173
 31
0.0
  0
LINE
  5
B4
330
1F
100
AcDbEntity
  8
0
  6
Continuous
 62
     7
370
    25
100
AcDbLine
 10
157.4401447542
 20
589.8391284711
 30
0.0
 11
159.3620748503
 21
591.7136265183
 31
0.0
  0
LINE
  5
B5
330
1F
100
AcDbEntity
  8
0
  6
Continuous
 62
     7
370
    25
100
AcDbLine
 10
119.3116623105
 20
572.3140956508
 30
0.0
 11
157.1218487577
 21
571.8417004028
 31
0.0
  0
LINE
  5
B6
330
1F
100
AcDbEntity
  8
0
  6
Continuous
 62
     7
370
    18
100
AcDbLine
 10
319.020771394
 20
555.2608136472
 30
0.0
 11
357.017805906
 21
554.7860839453
 31
0.0
  0
SPLINE
  5
B7
330
1F
100
AcDbEntity
  8
0
  6
Continuous
 62
     7
370
    25
100
AcDbSpline
210
0.0
220
0.0
230
1.0
 70
     8
 71
     3
 72
    55
 73
    51
 74
     0
 42
0.00000001
 43
0.00000001
 40
0.0
 40
0.0
 40
0.0
 40
0.0
 40
0.0146435292261886
 40
0.0275312080937574
 40
0.0386817001821934
 40
0.0481444920107511
 40
0.058299940007976
 40
0.0665792115852051
 40
0.0756934122846146
 40
0.0918457812447191
 40
0.1089899604218134
 40
0.1271270381749876
 40
0.1464358414838112
 40
0.1760253560987312
 40
0.2024246784964792
 40
0.2258292702652965
 40
0.2476567224506369
 40
0.272427611405555
 40
0.2955811311098301
 40
0.3210925530625032
 40
0.3486215022931254
 40
0.3904866611455639
 40
0.4327281259666623
 40
0.4539273494076998
 40
0.4750926954775184
 40
0.4939343934338166
 40
0.5096718096265018
 40
0.5223048415303652
 40
0.5318500590776893
 40
0.5396711852385288
 40
0.54985215592065
 40
0.567534585331603
 40
0.5898817748223036
 40
0.6168190377287671
 40
0.640088618823906
 40
0.6655052826423558
 40
0.690037696181733
 40
0.713210672624119
 40
0.7420586948753278
 40
0.7684770189869009
 40
0.7924890810228125
 40
0.8141723297383756
 40
0.8335869452399819
 40
0.8529184451092149
 40
0.8834892530344113
 40
0.9157939480243519
 40
0.9469848359416144
 40
0.9760578133944583
 40
0.9907037653381435
 40
1.0
 40
1.0
 40
1.0
 40
1.0
 10
481.466016584585
 20
327.5354117562614
 30
0.0
 10
482.0191698557576
 20
327.6204498951826
 30
0.0
 10
483.0591498756805
 20
327.7803295705246
 30
0.0
 10
484.7166709607394
 20
328.3216202930003
 30
0.0
 10
486.3026616439961
 20
329.0197110919351
 30
0.0
 10
487.925370027238
 20
329.9239611630121
 30
0.0
 10
489.5898917915098
 20
331.040042379358
 30
0.0
 10
491.4742438392081
 20
332.6608428413116
 30
0.0
 10
493.0305331318789
 20
334.4595362799529
 30
0.0
 10
494.3677569067069
 20
336.4343322466942
 30
0.0
 10
495.6303157002528
 20
338.7849863895939
 30
0.0
 10
496.6730683857177
 20
341.1634536889545
 30
0.0
 10
497.7262801741034
 20
343.9714146389232
 30
0.0
 10
498.8387071200641
 20
347.4759716990873
 30
0.0
 10
499.9559584690616
 20
351.6568138176484
 30
0.0
 10
500.9298271619814
 20
355.7687161784422
 30
0.0
 10
501.8537968354207
 20
360.0583101799828
 30
0.0
 10
502.7531592219313
 20
364.6208209798024
 30
0.0
 10
503.684545471055
 20
369.7464193760765
 30
0.0
 10
504.6508100901069
 20
375.3928383731734
 30
0.0
 10
505.8465762936656
 20
382.8494256313354
 30
0.0
 10
507.2420827771163
 20
392.2463295497517
 30
0.0
 10
508.5688320378928
 20
401.6908834606332
 30
0.0
 10
509.6215381648948
 20
409.5450891281755
 30
0.0
 10
510.3877866204298
 20
415.3362589683235
 30
0.0
 10
511.086620894449
 20
420.6865770092915
 30
0.0
 10
511.6777125232232
 20
425.2612956006408
 30
0.0
 10
512.1510739847182
 20
428.9568266944496
 30
0.0
 10
512.5240820552725
 20
431.8906755301501
 30
0.0
 10
512.8677247655231
 20
434.5896535533429
 30
0.0
 10
513.3138322983144
 20
438.0910525538421
 30
0.0
 10
513.9428806824878
 20
443.0228894221806
 30
0.0
 10
514.7826158148238
 20
449.5895120420382
 30
0.0
 10
515.6853183466793
 20
456.6565135313573
 30
0.0
 10
516.6311076127204
 20
463.9242426291677
 30
0.0
 10
517.5496027285132
 20
470.835959237656
 30
0.0
 10
518.4612905757018
 20
477.5692029064916
 30
0.0
 10
519.4142414789036
 20
484.4101442994863
 30
0.0
 10
520.3966233725029
 20
491.1487060940557
 30
0.0
 10
521.3827577309856
 20
497.6141023991128
 30
0.0
 10
522.2743286985427
 20
503.1696229215553
 30
0.0
 10
523.0816925591239
 20
507.8874527987347
 30
0.0
 10
523.8273751307814
 20
511.9982712780354
 30
0.0
 10
524.6668644290498
 20
516.3724158336511
 30
0.0
 10
525.6429629373197
 20
521.004294535828
 30
0.0
 10
526.7298385643135
 20
525.473678802001
 30
0.0
 10
527.709860422908
 20
528.8872210775532
 30
0.0
 10
528.3822375256642
 20
530.7897579528393
 30
0.0
 10
528.7665115060629
 20
531.6406687624271
 30
0.0
 10
528.7329484682645
 20
531.6069182376068
 30
0.0
 10
528.7199166645918
 20
531.5938136367672
 30
0.0
  0
SPLINE
  5
B8
330
1F
100
AcDbEntity
  8
0
  6
Continuous
 62
     7
370
    25
100
AcDbSpline
210
0.0
220
0.0
230
1.0
 70
     8
 71
     3
 72
    41
 73
    37
 74
     0
 42
0.00000001
 43
0.00000001
 40
0.0
 40
0.0
 40
0.0
 40
0.0
 40
0.0270846856802831
 40
0.059621879114857
 40
0.092360652407557
 40
0.1222325556549128
 40
0.1467814545274297
 40
0.1623114988469027
 40
0.1745335875739496
 40
0.1839058580918368
 40
0.1948940021748139
 40
0.2168653590205698
 40
0.2452546872443677
 40
0.280018481692217
 40
0.3102963102636822
 40
0.3442791879704714
 40
0.3790863118589995
 40
0.4120177554232617
 40
0.4610412472129349
 40
0.505387829672467
 40
0.5450188354723541
 40
0.5800326506685491
 40
0.611572719758438
 40
0.6663747036896562
 40
0.7250131357507364
 40
0.7865355623829009
 40
0.8184852461326835
 40
0.8498565359395921
 40
0.8782111035909683
 40
0.8916626990387689
 40
0.9060873843476137
 40
0.9255067185911463
 40
0.9437388297039767
 40
0.9652199100525922
 40
0.989932729819405
 40
0.9999999999999999
 40
0.9999999999999999
 40
0.9999999999999999
 40
0.9999999999999999
 10
519.7375170720153
 20
486.5665178711274
 30
0.0
 10
519.982806909923
 20
484.8945796448884
 30
0.0
 10
520.5227666951861
 20
481.2141197721384
 30
0.0
 10
521.3556806400202
 20
475.1124507394534
 30
0.0
 10
522.2154403925301
 20
468.718747302266
 30
0.0
 10
523.0071615107487
 20
462.7239097074349
 30
0.0
 10
523.6416099934178
 20
457.8494956340688
 30
0.0
 10
524.1147761968654
 20
454.1760368338686
 30
0.0
 10
524.4493003689329
 20
451.5570509202972
 30
0.0
 10
524.7436044094134
 20
449.2519713762085
 30
0.0
 10
525.1267237195169
 20
446.2511780342697
 30
0.0
 10
525.6832459137524
 20
441.8909785367544
 30
0.0
 10
526.4565786249419
 20
435.832501497065
 30
0.0
 10
527.3021160290134
 20
429.1966521636789
 30
0.0
 10
528.1956110091344
 20
422.2164683449386
 30
0.0
 10
529.0957870849056
 20
415.315807641492
 30
0.0
 10
530.0195159338894
 20
408.3570581168879
 30
0.0
 10
531.0720957173993
 20
400.5527686750145
 30
0.0
 10
532.222095512817
 20
392.3981727695851
 30
0.0
 10
533.4310805066332
 20
384.2421992217304
 30
0.0
 10
534.5105519886332
 20
377.3442550188394
 30
0.0
 10
535.4843973178017
 20
371.5405121284023
 30
0.0
 10
536.5995737080332
 20
365.2860138146838
 30
0.0
 10
537.9505244394386
 20
358.3713621263796
 30
0.0
 10
539.6328773593416
 20
351.0742528016409
 30
0.0
 10
541.1890787600827
 20
345.5918607435966
 30
0.0
 10
542.5846118232524
 20
341.706112913961
 30
0.0
 10
543.6958333025009
 20
339.0850930038114
 30
0.0
 10
544.9921946601926
 20
336.6072828280201
 30
0.0
 10
546.4272903145122
 20
334.504817558105
 30
0.0
 10
547.9501731440712
 20
332.6962011627426
 30
0.0
 10
549.7599871385154
 20
331.0294883992314
 30
0.0
 10
552.0304707827933
 20
329.463038794931
 30
0.0
 10
554.6905326830359
 20
328.2472934502157
 30
0.0
 10
557.1446951373392
 20
327.5235267205688
 30
0.0
 10
558.681194749126
 20
327.552663284062
 30
0.0
 10
559.1259422108958
 20
327.5610970074152
 30
0.0
  0
LINE
  5
B9
330
1F
100
AcDbEntity
  8
0
  6
Continuous
 62
     7
370
    25
100
AcDbLine
 10
560.9496577393
 20
327.5410794422
 30
0.0
 11
561.4660165846
 21
327.5354117563
 31
0.0
  0
SPLINE
  5
BA
330
1F
100
AcDbEntity
  8
0
  6
Continuous
 62
     7
370
    25
100
AcDbSpline
210
0.0
220
0.0
230
1.0
 70
     8
 71
     3
 72
    69
 73
    65
 74
     0
 42
0.00000001
 43
0.00000001
 40
0.0
 40
0.0
 40
0.0
 40
0.0
 40
0.0113281555024838
 40
0.0325756985633775
 40
0.0527839907036977
 40
0.0719573896272255
 40
0.0901557660740068
 40
0.1155197433581294
 40
0.1382294735696654
 40
0.1578577198537213
 40
0.1743216494309789
 40
0.1822380575335309
 40
0.1923855812395575
 40
0.2050462127965871
 40
0.218430965685483
 40
0.2305991076702389
 40
0.2421398911977044
 40
0.25555327882285
 40
0.2630741659525886
 40
0.2703702846870937
 40
0.2832463619717095
 40
0.2934752264049704
 40
0.3010696000702144
 40
0.306663419158943
 40
0.3164214193181864
 40
0.3297721473923034
 40
0.3459177616307401
 40
0.3668147695487526
 40
0.3893559110179902
 40
0.4104997112829153
 40
0.4290077698832036
 40
0.4449580317821835
 40
0.4610860950507267
 40
0.4795226052111862
 40
0.5003313924195594
 40
0.5231028483385824
 40
0.5465304221277457
 40
0.5766671458055487
 40
0.6076399660838278
 40
0.6279567276084467
 40
0.6461203755777146
 40
0.662105239240156
 40
0.6759703879879538
 40
0.688222880997791
 40
0.7007712645692457
 40
0.7137754849713965
 40
0.7277377309927161
 40
0.7439706358963664
 40
0.7625099269574744
 40
0.7833196784246359
 40
0.8064653327549032
 40
0.8251831721223815
 40
0.8429938166854957
 40
0.8592176397919753
 40
0.8738227691432849
 40
0.8907526151697492
 40
0.9048466674403465
 40
0.9161454937389657
 40
0.9277949656604817
 40
0.9420472103057441
 40
0.9588484836969837
 40
0.9729695660127321
 40
0.9868151574155055
 40
1.0
 40
1.0
 40
1.0
 40
1.0
 10
545.9004190140752
 20
499.505216804383
 30
0.0
 10
545.7062774224237
 20
500.7832267544337
 30
0.0
 10
545.1479960705421
 20
504.4583234535143
 30
0.0
 10
544.2311766382026
 20
509.9792161662489
 30
0.0
 10
543.1758791092044
 20
515.9868165755441
 30
0.0
 10
542.1666756250763
 20
521.2846888000053
 30
0.0
 10
541.0440439433493
 20
526.6366385933542
 30
0.0
 10
539.8344784081437
 20
531.7573304235499
 30
0.0
 10
538.5540336190268
 20
536.3719180661718
 30
0.0
 10
537.3622023076393
 20
539.9472990268887
 30
0.0
 10
536.410044426842
 20
542.3440545130696
 30
0.0
 10
535.5454943313271
 20
544.2351927090781
 30
0.0
 10
534.5796030006535
 20
546.0890622684258
 30
0.0
 10
533.2357855232186
 20
548.1977753259848
 30
0.0
 10
531.4898288666733
 20
550.3222948206294
 30
0.0
 10
529.2795226152696
 20
552.308994514386
 30
0.0
 10
526.359026134714
 20
554.1041702854789
 30
0.0
 10
523.2830400790484
 20
555.1447308110038
 30
0.0
 10
520.3825944264728
 20
555.482318359383
 30
0.0
 10
517.5457118281956
 20
555.3874300436175
 30
0.0
 10
514.5757170234328
 20
554.6799843349984
 30
0.0
 10
511.8923137088284
 20
553.38982747388
 30
0.0
 10
510.0887316837182
 20
552.1450538328529
 30
0.0
 10
508.6481288806746
 20
550.9162417557956
 30
0.0
 10
507.2749871861269
 20
549.4866745615791
 30
0.0
 10
505.6790395203209
 20
547.3879564405094
 30
0.0
 10
504.0072864608521
 20
544.486016652726
 30
0.0
 10
502.5101208689108
 20
541.0454562342949
 30
0.0
 10
501.1693452804863
 20
537.1657485195727
 30
0.0
 10
499.9607343114631
 20
532.9230220012274
 30
0.0
 10
498.9196238787607
 20
528.7125644312594
 30
0.0
 10
498.0032375220371
 20
524.6021131338797
 30
0.0
 10
497.112198804347
 20
520.2430358551956
 30
0.0
 10
496.1519178774687
 20
515.1246467843691
 30
0.0
 10
495.0770640568634
 20
508.9787641918424
 30
0.0
 10
493.9241681900505
 20
501.86243736607
 30
0.0
 10
492.6204686862409
 20
493.2221800656571
 30
0.0
 10
491.165784149371
 20
483.0608691437422
 30
0.0
 10
489.7810604388823
 20
472.7529616928525
 30
0.0
 10
488.5900811642167
 20
463.7034466924359
 30
0.0
 10
487.659999006013
 20
456.4928330630986
 30
0.0
 10
486.8438781686645
 20
450.0795950708066
 30
0.0
 10
486.1232220747484
 20
444.4345753608139
 30
0.0
 10
485.461406214079
 20
439.2474863524318
 30
0.0
 10
484.8148753961527
 20
434.1853357077974
 30
0.0
 10
484.1434571331042
 20
428.9178506133996
 30
0.0
 10
483.4059032471091
 20
423.2040622685044
 30
0.0
 10
482.571557007265
 20
416.8403307008217
 30
0.0
 10
481.6218996362801
 20
409.7233283373692
 30
0.0
 10
480.5620863496533
 20
401.9494150789236
 30
0.0
 10
479.490397007567
 20
394.4698290286981
 30
0.0
 10
478.4758570762556
 20
387.6941879579439
 30
0.0
 10
477.5849536162811
 20
382.0089368395491
 30
0.0
 10
476.7597015796325
 20
377.0601373028621
 30
0.0
 10
475.9527072071885
 20
372.4864656437383
 30
0.0
 10
475.1912077159902
 20
368.4178846285549
 30
0.0
 10
474.4903211805513
 20
364.9503377125903
 30
0.0
 10
473.8830327528192
 20
362.1571590827228
 30
0.0
 10
473.2939952464542
 20
359.6277401696113
 30
0.0
 10
472.6437957540049
 20
357.0537836738166
 30
0.0
 10
471.9948133988913
 20
354.750924869398
 30
0.0
 10
471.3708572356838
 20
352.8411229759818
 30
0.0
 10
470.9104600557674
 20
351.670906850808
 30
0.0
 10
470.857691020509
 20
351.5081158593656
 30
0.0
 10
470.8319514625151
 20
351.4287100460016
 30
0.0
  0
LINE
  5
BB
330
1F
100
AcDbEntity
  8
0
  6
Continuous
 62
     7
370
    25
100
AcDbLine
 10
545.9004190141
 20
442.6879962937
 30
0.0
 11
545.9004190141
 21
341.4588540362
 31
0.0
  0
LINE
  5
BC
330
1F
100
AcDbEntity
  8
0
  6
Continuous
 62
     7
370
    25
100
AcDbLine
 10
573.9004190141
 20
341.4589117656
 30
0.0
 11
573.9004190141
 21
442.6879962937
 31
0.0
  0
LINE
  5
BD
330
1F
100
AcDbEntity
  8
0
  6
Continuous
 62
     7
370
    25
100
AcDbLine
 10
573.9004190141
 20
442.6879962937
 30
0.0
 11
573.9004190141
 21
558.346251222
 31
0.0
  0
LINE
  5
BE
330
1F
100
AcDbEntity
  8
0
  6
Continuous
 62
     7
370
    25
100
AcDbLine
 10
545.9004190141
 20
558.346251222
 30
0.0
 11
545.9004190141
 21
442.6879962937
 31
0.0
  0
ARC
  5
BF
330
1F
100
AcDbEntity
  8
0
  6
Continuous
 62
     7
370
    25
100
AcDbCircle
 10
479.9004190141
 20
341.4387076044
 30
0.0
 40
14.00000000000007
100
AcDbArc
 50
259.2121802579
 51
274.607422132
  0
LINE
  5
C0
330
1F
100
AcDbEntity
  8
0
  6
Continuous
 62
     7
370
    25
100
AcDbLine
 10
465.9004190141
 20
341.4399163411
 30
0.0
 11
465.9004190141
 21
341.4387076044
 31
0.0
  0
LINE
  5
C1
330
1F
100
AcDbEntity
  8
0
  6
Continuous
 62
     7
370
    25
100
AcDbLine
 10
465.9004190141
 20
440.1894189152
 30
0.0
 11
465.9004190141
 21
341.4399163411
 31
0.0
  0
LINE
  5
C2
330
1F
100
AcDbEntity
  8
0
  6
Continuous
 62
     7
370
    25
100
AcDbLine
 10
493.9004190141
 20
501.612958612
 30
0.0
 11
493.9004190141
 21
552.2897679746
 31
0.0
  0
LINE
  5
C3
330
1F
100
AcDbEntity
  8
0
  6
Continuous
 62
     7
370
    25
100
AcDbLine
 10
465.9004190141
 20
552.2897679746
 30
0.0
 11
465.9004190141
 21
440.1894189152
 31
0.0
  0
LINE
  5
C4
330
1F
100
AcDbEntity
  8
0
  6
Continuous
 62
     7
370
    25
100
AcDbLine
 10
456.9004239445
 20
612.1758080394
 30
0.0
 11
459.8958951552
 21
555.0232851585
 31
0.0
  0
LINE
  5
C5
330
1F
100
AcDbEntity
  8
0
  6
Continuous
 62
     7
370
    25
100
AcDbLine
 10
499.9049428729
 20
555.0232851585
 30
0.0
 11
502.9004140837
 21
612.1758080394
 31
0.0
  0
SPLINE
  5
C6
330
1F
100
AcDbEntity
  8
0
  6
Continuous
 62
     7
370
    25
100
AcDbSpline
210
0.0
220
0.0
230
1.0
 70
     8
 71
     3
 72
    15
 73
    11
 74
     0
 42
0.00000001
 43
0.00000001
 40
0.0
 40
0.0
 40
0.0
 40
0.0
 40
0.1256499580542025
 40
0.2810458228883068
 40
0.355971354351357
 40
0.4337045132707197
 40
0.5508374048369541
 40
0.7133391887274712
 40
0.8608355720084616
 40
0.9999999999999999
 40
0.9999999999999999
 40
0.9999999999999999
 40
0.9999999999999999
 10
496.8702335145742
 20
552.1558750725508
 30
0.0
 10
496.9390138515016
 20
552.1596631940514
 30
0.0
 10
497.0928573281701
 20
552.1681362229389
 30
0.0
 10
497.2903531534359
 20
552.1903634108484
 30
0.0
 10
497.6496396940136
 20
552.261570578775
 30
0.0
 10
498.1141687874117
 20
552.4103412134848
 30
0.0
 10
498.7667480178597
 20
552.7671573714575
 30
0.0
 10
499.3999267522856
 20
553.4182785792136
 30
0.0
 10
499.8320752752292
 20
554.2820056053614
 30
0.0
 10
499.8838995635915
 20
554.8868246097294
 30
0.0
 10
499.9090585569468
 20
555.1804444121977
 30
0.0
  0
SPLINE
  5
C7
330
1F
100
AcDbEntity
  8
0
  6
Continuous
 62
     7
370
    25
100
AcDbSpline
210
0.0
220
0.0
230
1.0
 70
     8
 71
     3
 72
    18
 73
    14
 74
     0
 42
0.00000001
 43
0.00000001
 40
0.0
 40
0.0
 40
0.0
 40
0.0
 40
0.0160378705302249
 40
0.1744117309649711
 40
0.3037926227280383
 40
0.4148769897534323
 40
0.5106105759373375
 40
0.5905568254280209
 40
0.6512581572736104
 40
0.7141087436208338
 40
0.8144163339683808
 40
0.99460355533317
 40
1.0
 40
1.0
 40
1.0
 40
1.0
 10
459.9105437632365
 20
555.0376829914727
 30
0.0
 10
459.9071200244316
 20
555.0039613756155
 30
0.0
 10
459.8698868886354
 20
554.6372390366657
 30
0.0
 10
460.099636626911
 20
554.0012010138689
 30
0.0
 10
460.5255769236994
 20
553.278636875358
 30
0.0
 10
461.0437851734576
 20
552.78648015588
 30
0.0
 10
461.5511773614043
 20
552.476126059965
 30
0.0
 10
461.9803379925426
 20
552.3106235980264
 30
0.0
 10
462.2775320401703
 20
552.2350948358012
 30
0.0
 10
462.5004966490516
 20
552.1946886179288
 30
0.0
 10
462.7255685966041
 20
552.1678534123245
 30
0.0
 10
462.843061603209
 20
552.1553865038238
 30
0.0
 10
462.9560790276835
 20
552.1499284007796
 30
0.0
 10
462.9593653744328
 20
552.1497696887998
 30
0.0
  0
LINE
  5
C8
330
1F
100
AcDbEntity
  8
0
  6
Continuous
 62
     7
370
    25
100
AcDbLine
 10
543.9004190141
 20
572.1167868407
 30
0.0
 11
543.9004190141
 21
558.2789749672
 31
0.0
  0
LINE
  5
C9
330
1F
100
AcDbEntity
  8
0
  6
Continuous
 62
     7
370
    25
100
AcDbLine
 10
575.9004190141
 20
558.2789749672
 30
0.0
 11
575.9004190141
 21
572.1167868407
 31
0.0
  0
LINE
  5
CA
330
1F
100
AcDbEntity
  8
0
  6
Continuous
 62
     7
370
    25
100
AcDbLine
 10
536.9004239445
 20
632.0730275366
 30
0.0
 11
539.99522507
 21
573.0253252904
 31
0.0
  0
LINE
  5
CB
330
1F
100
AcDbEntity
  8
0
  6
Continuous
 62
     7
370
    25
100
AcDbLine
 10
579.8056129581
 20
573.0253252904
 30
0.0
 11
582.9004140837
 21
632.0730275366
 31
0.0
  0
LINE
  5
CC
330
1F
100
AcDbEntity
  8
0
  6
Continuous
 62
     7
370
    25
100
AcDbLine
 10
582.9002901306
 20
632.0741775993
 30
0.0
 11
582.3643947487
 21
634.0739991083
 31
0.0
  0
LINE
  5
CD
330
1F
100
AcDbEntity
  8
0
  6
Continuous
 62
     7
370
    25
100
AcDbLine
 10
537.4364432795
 20
634.0739991083
 30
0.0
 11
536.9005478976
 21
632.0741775993
 31
0.0
  0
SPLINE
  5
CE
330
1F
100
AcDbEntity
  8
0
  6
Continuous
 62
     7
370
    25
100
AcDbSpline
210
0.0
220
0.0
230
1.0
 70
     8
 71
     3
 72
    13
 73
     9
 74
     0
 42
0.00000001
 43
0.00000001
 40
0.0
 40
0.0
 40
0.0
 40
0.0
 40
0.1704887900811199
 40
0.3416317744219106
 40
0.5139597386213841
 40
0.7200488118319429
 40
0.9446483275941555
 40
1.0
 40
1.0
 40
1.0
 40
1.0
 10
579.0448762073556
 20
572.102582377114
 30
0.0
 10
579.0728086265927
 20
572.1095612689547
 30
0.0
 10
579.1287806464733
 20
572.123545831822
 30
0.0
 10
579.293064284459
 20
572.1928437433497
 30
0.0
 10
579.510133707137
 20
572.3443820614899
 30
0.0
 10
579.7025572358397
 20
572.5994838350834
 30
0.0
 10
579.8095907474626
 20
572.855532567212
 30
0.0
 10
579.7960791725128
 20
573.0073589567266
 30
0.0
 10
579.7934076772598
 20
573.0373779204966
 30
0.0
  0
SPLINE
  5
CF
330
1F
100
AcDbEntity
  8
0
  6
Continuous
 62
     7
370
    25
100
AcDbSpline
210
0.0
220
0.0
230
1.0
 70
     8
 71
     3
 72
    12
 73
     8
 74
     0
 42
0.00000001
 43
0.00000001
 40
0.0
 40
0.0
 40
0.0
 40
0.0
 40
0.2910676108900171
 40
0.5295498979446243
 40
0.7340045494563453
 40
0.9150905877483552
 40
0.9999999999999999
 40
0.9999999999999999
 40
0.9999999999999999
 40
0.9999999999999999
 10
539.9938503377708
 20
573.0778199876911
 30
0.0
 10
540.0075195974415
 20
572.9520919584927
 30
0.0
 10
540.0323885790554
 20
572.7233503790804
 30
0.0
 10
540.1986359453791
 20
572.4509191059127
 30
0.0
 10
540.3791306566008
 20
572.2770554187406
 30
0.0
 10
540.525295059359
 20
572.1876383944386
 30
0.0
 10
540.5840226667201
 20
572.1638462183674
 30
0.0
 10
540.60276932804
 20
572.156251427997
 30
0.0
  0
SPLINE
  5
D0
330
1F
100
AcDbEntity
  8
0
  6
Continuous
 62
     7
370
    25
100
AcDbSpline
210
0.0
220
0.0
230
1.0
 70
     8
 71
     3
 72
     9
 73
     5
 74
     0
 42
0.00000001
 43
0.00000001
 40
0.0
 40
0.0
 40
0.0
 40
0.0
 40
0.8328764695750414
 40
1.0
 40
1.0
 40
1.0
 40
1.0
 10
561.3921051618113
 20
327.5899098438858
 30
0.0
 10
560.9795146197954
 20
327.5251650820206
 30
0.0
 10
560.4841343838448
 20
327.4474287498871
 30
0.0
 10
559.9840027743327
 20
327.4475789639817
 30
0.0
 10
559.9004190140739
 20
327.4476040682915
 30
0.0
  0
SPLINE
  5
D1
330
1F
100
AcDbEntity
  8
0
  6
Continuous
 62
     7
370
    25
100
AcDbSpline
210
0.0
220
0.0
230
1.0
 70
     8
 71
     3
 72
     9
 73
     5
 74
     0
 42
0.00000001
 43
0.00000001
 40
0.0
 40
0.0
 40
0.0
 40
0.0
 40
0.0917471963165697
 40
1.0
 40
1.0
 40
1.0
 40
1.0
 10
479.9004190140738
 20
327.4476040682915
 30
0.0
 10
479.9490035885597
 20
327.4475029129403
 30
0.0
 10
480.4785519174077
 20
327.4464003686077
 30
0.0
 10
480.9959250696238
 20
327.5797788330745
 30
0.0
 10
481.4658306856746
 20
327.7009201973774
 30
0.0
  0
SPLINE
  5
D2
330
1F
100
AcDbEntity
  8
0
  6
Continuous
 62
     7
370
    25
100
AcDbSpline
210
0.0
220
0.0
230
1.0
 70
     8
 71
     3
 72
    19
 73
    15
 74
     0
 42
0.00000001
 43
0.00000001
 40
0.0
 40
0.0
 40
0.0
 40
0.0
 40
0.0048657721104688
 40
0.1190128625072322
 40
0.2370683853142362
 40
0.3484484174577295
 40
0.4634542583769771
 40
0.5741102291868657
 40
0.6883277352827004
 40
0.7961837530048241
 40
0.9073361122835683
 40
0.9932402459612147
 40
0.9947682154440423
 40
1.0
 40
1.0
 40
1.0
 40
1.0
 10
559.9004190140739
 20
327.4476040682915
 30
0.0
 10
559.9361920804351
 20
327.4477185165431
 30
0.0
 10
560.8111724394922
 20
327.450517828496
 30
0.0
 10
562.5567491244401
 20
327.6241848115677
 30
0.0
 10
564.9977206415917
 20
328.3298673865864
 30
0.0
 10
567.2769000655965
 20
329.4663594358248
 30
0.0
 10
569.2757346853525
 20
330.9577997462453
 30
0.0
 10
570.9925779516427
 20
332.7942910766157
 30
0.0
 10
572.3315319634861
 20
334.8621159744981
 30
0.0
 10
573.2872761638212
 20
337.1332061287023
 30
0.0
 10
573.8022034582187
 20
339.3332226089261
 30
0.0
 10
573.8883777120545
 20
340.7952569482876
 30
0.0
 10
573.9015427588754
 20
341.4784547328167
 30
0.0
 10
573.8907663221755
 20
341.5273731675924
 30
0.0
 10
573.882425782746
 20
341.5652341178715
 30
0.0
  0
SPLINE
  5
D3
330
1F
100
AcDbEntity
  8
0
  6
Continuous
 62
     7
370
    25
100
AcDbSpline
210
0.0
220
0.0
230
1.0
 70
     8
 71
     3
 72
    15
 73
    11
 74
     0
 42
0.00000001
 43
0.00000001
 40
0.0
 40
0.0
 40
0.0
 40
0.0
 40
0.0011863886458328
 40
0.0015147304941433
 40
0.1385326582349812
 40
0.3529466948231304
 40
0.5674099222666851
 40
0.7818916346970899
 40
0.9933554828314237
 40
0.9999999999999999
 40
0.9999999999999999
 40
0.9999999999999999
 40
0.9999999999999999
 10
545.9047838897494
 20
341.4866051133976
 30
0.0
 10
545.9027590626458
 20
341.4780995581218
 30
0.0
 10
545.9001738496383
 20
341.4672400274013
 30
0.0
 10
545.918637887101
 20
340.4525060425462
 30
0.0
 10
546.1648360453847
 20
337.8766302463353
 30
0.0
 10
547.7622368740025
 20
333.961351675523
 30
0.0
 10
550.9232530686309
 20
330.3626057148878
 30
0.0
 10
555.0791008222186
 20
328.0254929342979
 30
0.0
 10
558.258298609894
 20
327.4540821481291
 30
0.0
 10
559.8518719293893
 20
327.447795584023
 30
0.0
 10
559.9004190140739
 20
327.4476040682915
 30
0.0
  0
SPLINE
  5
D4
330
1F
100
AcDbEntity
  8
0
  6
Continuous
 62
     7
370
    25
100
AcDbSpline
210
0.0
220
0.0
230
1.0
 70
     8
 71
     3
 72
    23
 73
    19
 74
     0
 42
0.00000001
 43
0.00000001
 40
0.0
 40
0.0
 40
0.0
 40
0.0
 40
0.0024803991809255
 40
0.0606685639978131
 40
0.1208491099474359
 40
0.1776267259615278
 40
0.2362526515374755
 40
0.2926611665952906
 40
0.3508852268544683
 40
0.4058664244819254
 40
0.4625279808913943
 40
0.5063188814871832
 40
0.507097786492929
 40
0.608046258693769
 40
0.7090286965771873
 40
0.8080807020865429
 40
0.9089054652021891
 40
1.0
 40
1.0
 40
1.0
 40
1.0
 10
479.9004190140738
 20
327.4476040682915
 30
0.0
 10
479.8646459479428
 20
327.4476699038798
 30
0.0
 10
478.9896655945153
 20
327.4492801892872
 30
0.0
 10
477.2440880979025
 20
327.6205750557674
 30
0.0
 10
474.8031202564519
 20
328.3229463787052
 30
0.0
 10
472.523927839295
 20
329.4563587277441
 30
0.0
 10
470.5251419284817
 20
330.9451049935075
 30
0.0
 10
468.8081203825892
 20
332.7793093637763
 30
0.0
 10
467.469834031726
 20
334.8452901667309
 30
0.0
 10
466.5116912159942
 20
337.1152893538612
 30
0.0
 10
466.00517129759
 20
339.3139297032619
 30
0.0
 10
465.901563369446
 20
340.7772204022389
 30
0.0
 10
465.8978539300697
 20
342.8788538205449
 30
0.0
 10
466.3612057420857
 20
345.8261902762243
 30
0.0
 10
468.3629493697258
 20
349.769313756143
 30
0.0
 10
471.4697986600052
 20
352.8811329027923
 30
0.0
 10
475.2512957652174
 20
354.9384360628405
 30
0.0
 10
478.0222122547978
 20
355.2469534775605
 30
0.0
 10
479.3374283447177
 20
355.3933913328283
 30
0.0
  0
SPLINE
  5
D5
330
1F
100
AcDbEntity
  8
0
  6
Continuous
 62
     7
370
    25
100
AcDbSpline
210
0.0
220
0.0
230
1.0
 70
     8
 71
     3
 72
     9
 73
     5
 74
     0
 42
0.00000001
 43
0.00000001
 40
0.0
 40
0.0
 40
0.0
 40
0.0
 40
0.8205365186272952
 40
1.0
 40
1.0
 40
1.0
 40
1.0
 10
480.7016411517683
 20
327.5650181304819
 30
0.0
 10
480.4845343169324
 20
327.5105672704281
 30
0.0
 10
480.2199430039228
 20
327.4442072013542
 30
0.0
 10
479.9490367869053
 20
327.4470872116224
 30
0.0
 10
479.9004190140738
 20
327.4476040682915
 30
0.0
  0
LINE
  5
D6
330
1F
100
AcDbEntity
  8
0
  6
Continuous
 62
     7
370
    25
100
AcDbLine
 10
486.1599035288
 20
555.2608136472
 30
0.0
 11
488.361691336
 21
570.4166386758
 31
0.0
  0
ELLIPSE
  5
D7
330
1F
100
AcDbEntity
  8
0
  6
Continuous
 62
     7
370
    25
100
AcDbEllipse
 10
479.9004190141
 20
552.2343728323
 30
0.0
 11
5.627498467219993E-12
 21
20.10419593964855
 31
0.0
210
0.0
220
0.0
230
1.0
 40
0.9863800104
 41
5.842364029933087
 42
6.724006584426651
  0
LINE
  5
D8
330
1F
100
AcDbEntity
  8
0
  6
Continuous
 62
     7
370
    25
100
AcDbLine
 10
471.4391466921
 20
570.4166386758
 30
0.0
 11
473.6409344994
 21
555.2608136472
 31
0.0
  0
LWPOLYLINE
  5
D9
330
1F
100
AcDbEntity
  8
0
  6
Continuous
 62
     7
370
    25
100
AcDbPolyline
 90
       25
 70
   128
 43
0.0
 10
456.9004239445
 20
612.1758080394
 10
456.9004190141
 20
612.1759961803
 10
457.1146422552
 20
612.2151218148
 10
457.7533214051
 20
612.2535186128
 10
458.8045590794
 20
612.2904713146
 10
460.2487727095
 20
612.3252915612
 10
462.0590593279
 20
612.3573307174
 10
464.20169672
 20
612.3859919542
 10
466.6367716054
 20
612.410741367
 10
469.3189231463
 20
612.4311179212
 10
472.1981879341
 20
612.4467420401
 10
475.2209307139
 20
612.4573226759
 10
478.3308435067
 20
612.4626627313
 10
481.4699945215
 20
612.4626627313
 10
484.5799073143
 20
612.4573226759
 10
487.602650094
 20
612.4467420401
 10
490.4819148819
 20
612.4311179212
 10
493.1640664227
 20
612.410741367
 10
495.5991413081
 20
612.3859919542
 10
497.7417787003
 20
612.3573307174
 10
499.5520653186
 20
612.3252915612
 10
500.9962789487
 20
612.2904713146
 10
502.0475166231
 20
612.2535186128
 10
502.6861957729
 20
612.2151218148
 10
502.9004190141
 20
612.1759961803
  0
LINE
  5
DA
330
1F
100
AcDbEntity
  8
0
  6
Continuous
 62
     7
370
    25
100
AcDbLine
 10
488.361691336
 20
570.4166386758
 30
0.0
 11
471.4391466921
 21
570.4166386758
 31
0.0
  0
SPLINE
  5
DB
330
1F
100
AcDbEntity
  8
0
  6
Continuous
 62
     7
370
    25
100
AcDbSpline
210
0.0
220
0.0
230
1.0
 70
     8
 71
     3
 72
    19
 73
    15
 74
     0
 42
0.00000001
 43
0.00000001
 40
0.0
 40
0.0
 40
0.0
 40
0.0
 40
0.0131566083030201
 40
0.0432016318153521
 40
0.0908270416668118
 40
0.1855402553060048
 40
0.3406858087831826
 40
0.5001769562198738
 40
0.7024293539554771
 40
0.8622103223843283
 40
0.9425439178272846
 40
0.9710465630394365
 40
0.9997835362609409
 40
1.0
 40
1.0
 40
1.0
 40
1.0
 10
473.6409344993891
 20
555.2608136471915
 30
0.0
 10
473.6544841854666
 20
555.2012782494353
 30
0.0
 10
473.6989765451733
 20
555.0057851349026
 30
0.0
 10
473.9252784710632
 20
554.6390255773783
 30
0.0
 10
474.5418970709098
 20
554.1173376003037
 30
0.0
 10
475.8315341138066
 20
553.5806630011525
 30
0.0
 10
477.7048287306665
 20
553.2464403916811
 30
0.0
 10
480.098285016579
 20
553.1281798020842
 30
0.0
 10
482.5142444831034
 20
553.2777504630267
 30
0.0
 10
484.5268357345266
 20
553.7371042929905
 30
0.0
 10
485.6296248752455
 20
554.3766596345733
 30
0.0
 10
486.0365915413844
 20
554.8738767127546
 30
0.0
 10
486.1374666653538
 20
555.1276895518231
 30
0.0
 10
486.1597370294831
 20
555.2598257610914
 30
0.0
 10
486.1599035287591
 20
555.2608136471915
 30
0.0
  0
ARC
  5
DC
330
1F
100
AcDbEntity
  8
0
  6
Continuous
 62
     7
370
    25
100
AcDbCircle
 10
493.1722143933
 20
620.9315507923
 30
0.0
 40
68.87538914772999
100
AcDbArc
 50
270.6057871945
 51
272.9056678297
  0
ARC
  5
DD
330
1F
100
AcDbEntity
  8
0
  6
Continuous
 62
     7
370
    25
100
AcDbCircle
 10
466.6717376347
 20
622.8180074462
 30
0.0
 40
70.76219998822029
100
AcDbArc
 50
267.1591755329
 51
269.3754550198
  0
LWPOLYLINE
  5
DE
330
1F
100
AcDbEntity
  8
0
  6
Continuous
 62
     7
370
    25
100
AcDbPolyline
 90
       21
 70
   128
 43
0.0
 10
462.9312489515
 20
552.1951459534
 10
463.1011840482
 20
552.2139188214
 10
463.7242415435
 20
552.2463406268
 10
464.7456102138
 20
552.2771456135
 10
466.1401405727
 20
552.3055752605
 10
467.8734946546
 20
552.3309295354
 10
469.9029915292
 20
552.3525841318
 10
472.1786582481
 20
552.3700058419
 10
474.6444603441
 20
552.3827656852
 10
477.2396815861
 20
552.390549472
 10
479.9004190141
 20
552.3931655397
 10
482.561156442
 20
552.390549472
 10
485.156377684
 20
552.3827656852
 10
487.62217978
 20
552.3700058419
 10
489.8978464989
 20
552.3525841318
 10
491.9273433736
 20
552.3309295354
 10
493.6606974555
 20
552.3055752605
 10
495.0552278143
 20
552.2771456135
 10
496.0765964846
 20
552.2463406268
 10
496.69965398
 20
552.2139188214
 10
496.8587999862
 20
552.1970014027
  0
ARC
  5
DF
330
1F
100
AcDbEntity
  8
0
  6
Continuous
 62
     7
370
    25
100
AcDbCircle
 10
494.0080391095
 20
578.3060246584
 30
0.0
 40
26.23465631471887
100
AcDbArc
 50
269.7649599645
 51
275.2321618301
  0
LWPOLYLINE
  5
E0
330
1F
100
AcDbEntity
  8
0
  6
Continuous
 62
     7
370
    25
100
AcDbPolyline
 90
       25
 70
   128
 43
0.0
 10
465.9004190141
 20
552.0715890847
 10
464.7207581937
 20
552.09988142
 10
463.8798790265
 20
552.1313477615
 10
463.4539234299
 20
552.1640917439
 10
463.4539234299
 20
552.1972653154
 10
463.8798790265
 20
552.2300092978
 10
464.7207581937
 20
552.2614756393
 10
465.9547826026
 20
552.290849378
 10
467.5499916693
 20
552.3173697497
 10
469.4650703168
 20
552.3403498905
 10
471.6504190141
 20
552.359194627
 10
474.0494383779
 20
552.3734158904
 10
476.5999950668
 20
552.3826453573
 10
479.2360310023
 20
552.3866439895
 10
481.8892742383
 20
552.3853082244
 10
484.4910071687
 20
552.3786726578
 10
486.9738462772
 20
552.3669091472
 10
489.2734873351
 20
552.3503223615
 10
491.330370847
 20
552.3293418896
 10
493.0912246102
 20
552.3045111148
 10
494.5104434374
 20
552.2764731411
 10
495.5512703062
 20
552.2459541372
 10
496.1867483476
 20
552.2137445295
 10
496.4004190141
 20
552.1806785297
 10
496.4004190141
 20
552.1806785297
  0
LWPOLYLINE
  5
E1
330
1F
100
AcDbEntity
  8
0
  6
Continuous
 62
     7
370
    25
100
AcDbPolyline
 90
       24
 70
   128
 43
0.0
 10
543.9004190141
 20
558.2789749672
 10
544.1186381596
 20
558.3118751528
 10
544.7673431469
 20
558.3438779071
 10
545.8288389948
 20
558.3741102784
 10
547.2741708637
 20
558.4017476064
 10
549.0639138681
 20
558.4260360168
 10
551.1492484841
 20
558.4463129852
 10
553.4732922196
 20
558.4620254086
 10
555.9726512198
 20
558.4727446932
 10
558.5791494865
 20
558.4781784448
 10
561.2216885416
 20
558.4781784448
 10
563.8281868083
 20
558.4727446932
 10
566.3275458085
 20
558.4620254086
 10
568.651589544
 20
558.4463129852
 10
570.7369241601
 20
558.4260360168
 10
572.5266671644
 20
558.4017476064
 10
573.9719990334
 20
558.3741102784
 10
575.0334948813
 20
558.3438779071
 10
575.6821998685
 20
558.3118751528
 10
575.9004190141
 20
558.2789749672
 10
575.6821998685
 20
558.2460747816
 10
575.0334948813
 20
558.2140720273
 10
573.9719990334
 20
558.183839656
 10
573.9004190141
 20
558.1822054814
  0
ARC
  5
E2
330
1F
100
AcDbEntity
  8
0
  6
Continuous
 62
     7
370
    25
100
AcDbCircle
 10
545.996519303
 20
580.8844315733
 30
0.0
 40
22.70242949094971
100
AcDbArc
 50
264.7023735546
 51
269.7574639573
  0
LWPOLYLINE
  5
E3
330
1F
100
AcDbEntity
  8
0
  6
Continuous
 62
     7
370
    25
100
AcDbPolyline
 90
       22
 70
   128
 43
0.0
 10
544.9004190141
 20
558.2789749672
 10
545.1161803589
 20
558.3106445892
 10
545.7572573322
 20
558.3414031338
 10
546.8052073167
 20
558.3703657338
 10
548.2298826993
 20
558.3966991878
 10
549.9902981632
 20
558.4196459302
 10
552.0358097607
 20
558.4385458253
 10
554.3075718474
 20
558.4528551572
 10
556.7402299641
 20
558.4621622727
 10
559.2638009661
 20
558.4661994229
 10
561.8056863103
 20
558.4648504664
 10
564.2927605832
 20
558.4581542102
 10
566.6534751863
 20
558.4463032934
 10
568.8199166586
 20
558.4296386454
 10
570.7297604234
 20
558.4086396776
 10
572.3280637527
 20
558.3839104922
 10
573.5688463699
 20
558.3561625028
 10
574.4164132181
 20
558.3261939685
 10
574.8463813422
 20
558.2948670295
 10
574.8463813422
 20
558.2630829049
 10
574.4164132181
 20
558.2317559659
 10
573.9004190141
 20
558.2116987124
  0
ARC
  5
E4
330
1F
100
AcDbEntity
  8
0
  6
Continuous
 62
     7
370
    25
100
AcDbCircle
 10
545.9998141823
 20
567.154797833
 30
0.0
 40
8.94365145118509
100
AcDbArc
 50
262.9390776814
 51
269.3632309008
  0
SPLINE
  5
E5
330
1F
100
AcDbEntity
  8
0
  6
Continuous
 62
     7
370
    25
100
AcDbSpline
210
0.0
220
0.0
230
1.0
 70
     8
 71
     3
 72
     9
 73
     5
 74
     0
 42
0.00000001
 43
0.00000001
 40
0.0
 40
0.0
 40
0.0
 40
0.0
 40
0.7456629823534464
 40
1.0
 40
1.0
 40
1.0
 40
1.0
 10
568.3616913360243
 20
590.3138581729875
 30
0.0
 10
567.7978551804028
 20
586.0658491489086
 30
0.0
 10
567.0417010344082
 20
580.3688933865732
 30
0.0
 10
566.0795211701914
 20
574.7037170265168
 30
0.0
 10
565.8348032130868
 20
573.2628529666583
 30
0.0
  0
ELLIPSE
  5
E6
330
1F
100
AcDbEntity
  8
0
  6
Continuous
 62
     7
370
    25
100
AcDbEllipse
 10
559.9004190141
 20
572.1315923295
 30
0.0
 11
0.0
 21
20.10419593964889
 31
0.0
210
0.0
220
0.0
230
1.0
 40
0.9863800104
 41
5.842364029932776
 42
6.724006584426405
  0
LINE
  5
E7
330
1F
100
AcDbEntity
  8
0
  6
Continuous
 62
     7
370
    25
100
AcDbLine
 10
553.9660348151
 20
573.2628529667
 30
0.0
 11
551.4391466921
 21
590.313858173
 31
0.0
  0
LWPOLYLINE
  5
E8
330
1F
100
AcDbEntity
  8
0
  6
Continuous
 62
     7
370
    25
100
AcDbPolyline
 90
       25
 70
   128
 43
0.0
 10
536.9004190141
 20
632.0732156775
 10
537.1146422552
 20
632.112341312
 10
537.7533214051
 20
632.15073811
 10
538.8045590794
 20
632.1876908118
 10
540.2487727095
 20
632.2225110584
 10
542.0590593279
 20
632.2545502145
 10
544.20169672
 20
632.2832114513
 10
546.6367716054
 20
632.3079608642
 10
549.3189231463
 20
632.3283374184
 10
552.1981879341
 20
632.3439615373
 10
555.2209307139
 20
632.3545421731
 10
558.3308435067
 20
632.3598822285
 10
561.4699945215
 20
632.3598822285
 10
564.5799073143
 20
632.3545421731
 10
567.602650094
 20
632.3439615373
 10
570.4819148819
 20
632.3283374184
 10
573.1640664227
 20
632.3079608642
 10
575.5991413081
 20
632.2832114513
 10
577.7417787003
 20
632.2545502145
 10
579.5520653186
 20
632.2225110584
 10
580.9962789487
 20
632.1876908118
 10
582.0475166231
 20
632.15073811
 10
582.6861957729
 20
632.112341312
 10
582.9004190141
 20
632.0732156775
 10
582.9004140837
 20
632.0730275366
  0
LWPOLYLINE
  5
E9
330
1F
100
AcDbEntity
  8
0
  6
Continuous
 62
     7
370
    25
100
AcDbPolyline
 90
       24
 70
   128
 43
0.0
 10
537.4363173989
 20
634.0730595991
 10
537.6455492536
 20
634.1112736092
 10
538.2693472241
 20
634.1487757645
 10
539.2960911345
 20
634.1848674709
 10
540.7066546884
 20
634.2188764082
 10
542.4747617557
 20
634.2501690542
 10
544.5674758471
 20
634.2781624862
 10
546.9458136586
 20
634.3023352395
 10
549.5654712569
 20
634.3222370215
 10
552.3776493774
 20
634.3374970995
 10
555.3299624626
 20
634.3478312072
 10
558.3674145058
 20
634.3530468397
 10
561.4334235224
 20
634.3530468397
 10
564.4708755655
 20
634.3478312072
 10
567.4231886507
 20
634.3374970995
 10
570.2353667712
 20
634.3222370215
 10
572.8550243695
 20
634.3023352395
 10
575.2333621811
 20
634.2781624862
 10
577.3260762725
 20
634.2501690542
 10
579.0941833398
 20
634.2188764082
 10
580.5047468936
 20
634.1848674709
 10
581.531490804
 20
634.1487757645
 10
582.1552887745
 20
634.1112736092
 10
582.3643947487
 20
634.0739991083
  0
LINE
  5
EA
330
1F
100
AcDbEntity
  8
0
  6
Continuous
 62
     7
370
    25
100
AcDbLine
 10
568.361691336
 20
590.313858173
 30
0.0
 11
551.4391466921
 21
590.313858173
 31
0.0
  0
LWPOLYLINE
  5
EB
330
1F
100
AcDbEntity
  8
0
  6
Continuous
 62
     7
370
    25
100
AcDbPolyline
 90
       22
 70
   128
 43
0.0
 10
541.0006728721
 20
572.0842428255
 10
541.2050210888
 20
572.113101456
 10
541.8338161363
 20
572.1475184987
 10
542.8661892379
 20
572.1803803351
 10
544.2790788844
 20
572.2109528861
 10
546.040923456
 20
572.2385532114
 10
548.1123662563
 20
572.2625647654
 10
550.4471346759
 20
572.2824511695
 10
552.9930738466
 20
572.2977681945
 10
555.6933116943
 20
572.3081736833
 10
558.4875293675
 20
572.3134351944
 10
561.3133086607
 20
572.3134351944
 10
564.1075263338
 20
572.3081736833
 10
566.8077641815
 20
572.2977681945
 10
569.3537033522
 20
572.2824511695
 10
571.6884717719
 20
572.2625647654
 10
573.7599145721
 20
572.2385532114
 10
575.5217591437
 20
572.2109528861
 10
576.9346487903
 20
572.1803803351
 10
577.9670218919
 20
572.1475184987
 10
578.5958169393
 20
572.113101456
 10
578.8037694077
 20
572.082255932
  0
ARC
  5
EC
330
1F
100
AcDbEntity
  8
0
  6
Continuous
 62
     7
370
    25
100
AcDbCircle
 10
575.980180948
 20
606.3982257439
 30
0.0
 40
34.44625657845493
100
AcDbArc
 50
269.867328798
 51
274.669018832
  0
ARC
  5
ED
330
1F
100
AcDbEntity
  8
0
  6
Continuous
 62
     7
370
    25
100
AcDbCircle
 10
543.7439213878
 20
603.522353481
 30
0.0
 40
31.57067985536106
100
AcDbArc
 50
265.01755061
 51
270.2840195477
  0
SPLINE
  5
EE
330
1F
100
AcDbEntity
  8
0
  6
Continuous
 62
     7
370
    25
100
AcDbSpline
210
0.0
220
0.0
230
1.0
 70
     8
 71
     3
 72
    21
 73
    17
 74
     0
 42
0.00000001
 43
0.00000001
 40
0.0
 40
0.0
 40
0.0
 40
0.0
 40
0.0056880450766202
 40
0.0173252778016451
 40
0.03759935423362
 40
0.0959910236449102
 40
0.3193587565270811
 40
0.4997609455571947
 40
0.6614430295600882
 40
0.8232409301108287
 40
0.8830528216017822
 40
0.9381317523158065
 40
0.9617692707406116
 40
0.9856283412978102
 40
0.9951332708650813
 40
1.0
 40
1.0
 40
1.0
 40
1.0
 10
565.8348032130868
 20
573.2628529666583
 30
0.0
 10
565.8291213112398
 20
573.2400058123909
 30
0.0
 10
565.8118147451669
 20
573.1704154189728
 30
0.0
 10
565.7221821318778
 20
573.0390819472983
 30
0.0
 10
565.425900646853
 20
572.8070259744879
 30
0.0
 10
564.2258405573594
 20
572.4005392952882
 30
0.0
 10
562.305733971984
 20
572.3324430022458
 30
0.0
 10
559.9781179776268
 20
572.3157818752467
 30
0.0
 10
557.9005578630865
 20
572.3242735095295
 30
0.0
 10
556.3172809898493
 20
572.3822871645713
 30
0.0
 10
555.1895815814736
 20
572.5577955218843
 30
0.0
 10
554.6349029190176
 20
572.7108489246757
 30
0.0
 10
554.2548551748599
 20
572.8978762114234
 30
0.0
 10
554.0668337951778
 20
573.0475411294902
 30
0.0
 10
553.9844101578092
 20
573.1854528985481
 30
0.0
 10
553.9706832199417
 20
573.2432730949093
 30
0.0
 10
553.9660348150611
 20
573.2628529666589
 30
0.0
  0
LWPOLYLINE
  5
EF
330
1F
100
AcDbEntity
  8
0
  6
Continuous
 62
     7
370
    25
100
AcDbPolyline
 90
        3
 70
   128
 43
0.0
 10
576.2004190141
 20
572.0778980268
 10
576.1475631367
 20
572.0615122931
 10
575.9004190141
 20
572.039009213
  0
LWPOLYLINE
  5
F0
330
1F
100
AcDbEntity
  8
0
  6
Continuous
 62
     7
370
    25
100
AcDbPolyline
 90
        3
 70
   128
 43
0.0
 10
543.9004190141
 20
572.039009213
 10
543.8114997331
 20
572.045232827
 10
543.6004190141
 20
572.0778980268
  0
SPLINE
  5
F1
330
1F
100
AcDbEntity
  8
0
  6
Continuous
 62
     7
370
    18
100
AcDbSpline
210
0.0
220
0.0
230
1.0
 70
     8
 71
     3
 72
    14
 73
    10
 74
     0
 42
0.00000001
 43
0.00000001
 40
0.0
 40
0.0
 40
0.0
 40
0.0
 40
0.0064652236016071
 40
0.2127197951555446
 40
0.4219943042713638
 40
0.6313818648767813
 40
0.8408167540662149
 40
0.9746638014920989
 40
1.0
 40
1.0
 40
1.0
 40
1.0
 10
559.9004190140739
 20
327.4476040682915
 30
0.0
 10
559.8518718601928
 20
327.4477419299824
 30
0.0
 10
558.254565832539
 20
327.4522778768318
 30
0.0
 10
555.0648282141977
 20
328.0176181601162
 30
0.0
 10
550.9015824235612
 20
330.3406247233884
 30
0.0
 10
547.6690078772115
 20
333.9352527525274
 30
0.0
 10
546.1902413144184
 20
337.8424995386007
 30
0.0
 10
545.640573704737
 20
340.6387442883455
 30
0.0
 10
545.8647398889898
 20
341.8167057160218
 30
0.0
 10
545.9004190140739
 20
342.0041944457005
 30
0.0
  0
ARC
  5
F2
330
1F
100
AcDbEntity
  8
0
  6
Continuous
 62
     7
370
    18
100
AcDbCircle
 10
470.8303220861
 20
320.0920333738
 30
0.0
 40
235.1855751473971
100
AcDbArc
 50
89.3152638618
 51
92.6647996476
  0
ARC
  5
F3
330
1F
100
AcDbEntity
  8
0
  6
Continuous
 62
     7
370
    18
100
AcDbCircle
 10
489.3433951059
 20
341.6693978665
 30
0.0
 40
213.6151387749329
100
AcDbArc
 50
87.1660298575
 51
90.8539066332
  0
LWPOLYLINE
  5
F4
330
1F
100
AcDbEntity
  8
0
  6
Continuous
 62
     7
370
    18
100
AcDbPolyline
 90
        3
 70
   128
 43
0.0
 10
496.9090585569
 20
552.1806785297
 10
496.69965398
 20
552.1474382379
 10
496.6636273979
 20
552.1447114589
  0
LWPOLYLINE
  5
F5
330
1F
100
AcDbEntity
  8
0
  6
Continuous
 62
     7
370
    18
100
AcDbPolyline
 90
        4
 70
   128
 43
0.0
 10
463.1646619514
 20
552.1427687319
 10
463.1011840482
 20
552.1474382379
 10
462.8917794712
 20
552.1806785297
 10
462.9312489515
 20
552.1951459534
  0
LINE
  5
F6
330
1F
100
AcDbEntity
  8
0
  6
Continuous
 62
     7
370
    18
100
AcDbLine
 10
496.8587999862
 20
552.1970014027
 30
0.0
 11
496.9090585569
 21
552.1806785297
 31
0.0
  0
ARC
  5
F7
330
1F
100
AcDbEntity
  8
0
  6
Continuous
 62
     7
370
    18
100
AcDbCircle
 10
569.098837889
 20
354.2619957377
 30
0.0
 40
219.0251798067563
100
AcDbArc
 50
87.19804998
 51
90.853885084
  0
ARC
  5
F8
330
1F
100
AcDbEntity
  8
0
  6
Continuous
 62
     7
370
    18
100
AcDbCircle
 10
551.0775420295
 20
332.1735200504
 30
0.0
 40
241.1066358202766
100
AcDbArc
 50
89.3135717551
 51
92.6344931808
  0
LINE
  5
F9
330
1F
100
AcDbEntity
  8
0
  6
Continuous
 62
     7
370
    18
100
AcDbLine
 10
540.9938503378
 20
572.0778980268
 30
0.0
 11
541.0006728721
 21
572.0842428255
 31
0.0
  0
LWPOLYLINE
  5
FA
330
1F
100
AcDbEntity
  8
0
  6
Continuous
 62
     7
370
    18
100
AcDbPolyline
 90
        3
 70
   128
 43
0.0
 10
578.8037694077
 20
572.082255932
 10
578.8069876904
 20
572.0778980268
 10
578.7840921634
 20
572.0662774425
  0
LINE
  5
FB
330
1F
100
AcDbEntity
  8
0
  6
Continuous
 62
     7
370
    18
100
AcDbLine
 10
541.0019892675
 20
572.070968221
 30
0.0
 11
540.9938503378
 21
572.0778980268
 31
0.0
  0
SPLINE
  5
FC
330
1F
100
AcDbEntity
  8
0
  6
Continuous
 62
     7
370
    25
100
AcDbSpline
210
0.0
220
0.0
230
1.0
 70
     8
 71
     3
 72
    78
 73
    74
 74
     0
 42
0.00000001
 43
0.00000001
 40
0.0
 40
0.0
 40
0.0
 40
0.0
 40
0.0235538051734695
 40
0.0469168573615772
 40
0.0684212054534966
 40
0.0881200792261369
 40
0.1059278698082055
 40
0.1218899087230984
 40
0.1360016590263684
 40
0.1482240668844923
 40
0.1652670855992028
 40
0.1808218554800786
 40
0.194861264936229
 40
0.2075978357199556
 40
0.2216816316741639
 40
0.2350555140891838
 40
0.2499335425344188
 40
0.2656810768135893
 40
0.2805537956512177
 40
0.2945428050453475
 40
0.3071944778173668
 40
0.3148775969483985
 40
0.3209217472317642
 40
0.3255479050577564
 40
0.3314180398940042
 40
0.339404469735052
 40
0.3496031659848796
 40
0.3616757913025547
 40
0.3736074238424046
 40
0.3836891330688432
 40
0.3933923010376746
 40
0.4040507093841463
 40
0.4154084508155015
 40
0.4253129199092045
 40
0.4335145260754225
 40
0.44066385069693
 40
0.448929895542547
 40
0.4599960565400434
 40
0.4728035884472286
 40
0.4873530379594598
 40
0.5026706436119841
 40
0.5165231243358351
 40
0.5288892297156637
 40
0.5397868010293287
 40
0.5506451051609191
 40
0.5610260392626581
 40
0.5732584098741278
 40
0.5874045397727918
 40
0.6034411745520394
 40
0.6211880834244748
 40
0.6417840880082111
 40
0.6605536736191958
 40
0.6774554175846882
 40
0.6925991593459492
 40
0.7064933386433291
 40
0.7172407960222327
 40
0.727544551203664
 40
0.7392911956689835
 40
0.7527766709255929
 40
0.7679686326033093
 40
0.7848130050932329
 40
0.8103975521610344
 40
0.8348486492673373
 40
0.8582536195661227
 40
0.8803908570347566
 40
0.9006536606910284
 40
0.9189685206450878
 40
0.9307105868863436
 40
0.9437039247613235
 40
0.9579885224951449
 40
0.9734811167589188
 40
0.9886549190165927
 40
1.0
 40
1.0
 40
1.0
 40
1.0
 10
234.590779884487
 20
198.1171933828964
 30
0.0
 10
230.9454354319606
 20
197.6534340648529
 30
0.0
 10
223.6842687349701
 20
196.7296712327114
 30
0.0
 10
213.2261240630162
 20
195.3786571929911
 30
0.0
 10
203.5789598918896
 20
194.1114830738237
 30
0.0
 10
195.0324053709996
 20
192.9422648201551
 30
0.0
 10
187.5673584816181
 20
191.8916261838373
 30
0.0
 10
181.1491316468421
 20
190.9465255332095
 30
0.0
 10
175.7154702582924
 20
190.1078328044162
 30
0.0
 10
170.373706467429
 20
189.2480141024217
 30
0.0
 10
165.128990857179
 20
188.3620204015301
 30
0.0
 10
160.0107515052871
 20
187.4266122802735
 30
0.0
 10
155.6522466580969
 20
186.5686838781964
 30
0.0
 10
151.6973282377443
 20
185.7324739637788
 30
0.0
 10
148.0198749630877
 20
184.8854349164496
 30
0.0
 10
144.4184161450353
 20
183.9599977070848
 30
0.0
 10
140.9885092752812
 20
182.9631553350364
 30
0.0
 10
137.8010693530024
 20
181.8933391981979
 30
0.0
 10
134.7842619910117
 20
180.6724846602202
 30
0.0
 10
132.0386388675179
 20
179.2857341493197
 30
0.0
 10
129.8025628191126
 20
177.8249816332884
 30
0.0
 10
128.213156759813
 20
176.5172122326732
 30
0.0
 10
127.1419574047701
 20
175.4754507752005
 30
0.0
 10
126.1323653348346
 20
174.3310362808242
 30
0.0
 10
124.9718434848333
 20
172.7461608507838
 30
0.0
 10
123.7114060099744
 20
170.4073133806106
 30
0.0
 10
122.6764147965876
 20
167.131067056455
 30
0.0
 10
122.4485862589772
 20
163.0537697476476
 30
0.0
 10
123.3473824193858
 20
159.1279328728731
 30
0.0
 10
124.9228929545784
 20
155.9922387447933
 30
0.0
 10
126.7427628310844
 20
153.6162104219303
 30
0.0
 10
128.7521965273542
 20
151.7108959191254
 30
0.0
 10
130.8398271149743
 20
150.2035574731138
 30
0.0
 10
132.858589569061
 20
149.0374154960757
 30
0.0
 10
134.5732634044513
 20
148.2017870235278
 30
0.0
 10
136.0322434902103
 20
147.567212072553
 30
0.0
 10
137.7313035066628
 20
146.8974482258516
 30
0.0
 10
139.9084087662147
 20
146.1361369234139
 30
0.0
 10
142.7251594968362
 20
145.26447054741
 30
0.0
 10
146.1444560952414
 20
144.3278636497049
 30
0.0
 10
149.9880102396121
 20
143.3928104500609
 30
0.0
 10
153.955968955715
 20
142.5263470481486
 30
0.0
 10
157.7343431695375
 20
141.7616100308899
 30
0.0
 10
161.3855895440512
 20
141.0659593455507
 30
0.0
 10
164.9616846911348
 20
140.419681836424
 30
0.0
 10
168.817010886822
 20
139.7557599316202
 30
0.0
 10
173.243521771934
 20
139.0304332810109
 30
0.0
 10
178.5821960448984
 20
138.1898266264826
 30
0.0
 10
184.8961232010617
 20
137.2393896292847
 30
0.0
 10
192.3792461239477
 20
136.1700309773292
 30
0.0
 10
200.5647780488
 20
135.0430206689211
 30
0.0
 10
208.8891511083882
 20
133.9300277125798
 30
0.0
 10
216.5697117632533
 20
132.9344049249268
 30
0.0
 10
223.6041007796438
 20
132.0284240341299
 30
0.0
 10
229.7420688296017
 20
131.2428810257641
 30
0.0
 10
235.1475340406664
 20
130.5543845460816
 30
0.0
 10
240.2206771595577
 20
129.9119633883667
 30
0.0
 10
245.7024483064043
 20
129.2119273587873
 30
0.0
 10
251.8989261968459
 20
128.4137269659907
 30
0.0
 10
258.7973471115597
 20
127.5157974036604
 30
0.0
 10
267.3701625313781
 20
126.3876197211138
 30
0.0
 10
276.9977827337181
 20
125.0632667397994
 30
0.0
 10
286.9878731620306
 20
123.6276492490254
 30
0.0
 10
295.84758143001
 20
122.2499302153885
 30
0.0
 10
303.4839305842689
 20
120.9676144541882
 30
0.0
 10
309.8034405899753
 20
119.7956067256735
 30
0.0
 10
314.4283910086085
 20
118.8368322021539
 30
0.0
 10
317.9054357320437
 20
118.0486219956732
 30
0.0
 10
320.6468956106611
 20
117.366216839284
 30
0.0
 10
323.1678387201695
 20
116.6593587634283
 30
0.0
 10
325.2688101366327
 20
115.9830688219488
 30
0.0
 10
326.6215327628253
 20
115.4380246166103
 30
0.0
 10
326.7152450386454
 20
115.408506993053
 30
0.0
 10
326.755336220037
 20
115.3958790167294
 30
0.0
  0
SPLINE
  5
FD
330
1F
100
AcDbEntity
  8
0
  6
Continuous
 62
     7
370
    25
100
AcDbSpline
210
0.0
220
0.0
230
1.0
 70
     8
 71
     3
 72
    13
 73
     9
 74
     0
 42
0.00000001
 43
0.00000001
 40
0.0
 40
0.0
 40
0.0
 40
0.0
 40
0.0075371329017762
 40
0.1837454281515593
 40
0.3728739073441943
 40
0.5742690338616497
 40
0.7887511101749354
 40
1.0
 40
1.0
 40
1.0
 40
1.0
 10
281.7418205252753
 20
124.3671509810683
 30
0.0
 10
281.6388763656723
 20
124.3519932005278
 30
0.0
 10
279.1292325888604
 20
123.9824663643245
 30
0.0
 10
273.7145437064733
 20
123.23190997798
 30
0.0
 10
265.3213390987584
 20
122.0823346642198
 30
0.0
 10
256.0327759456046
 20
120.8666467052622
 30
0.0
 10
246.2047472654705
 20
119.5949667148656
 30
0.0
 10
239.4478015501863
 20
118.7355163041048
 30
0.0
 10
236.0949862877463
 20
118.3090546192061
 30
0.0
  0
SPLINE
  5
FE
330
1F
100
AcDbEntity
  8
0
  6
Continuous
 62
     7
370
    25
100
AcDbSpline
210
0.0
220
0.0
230
1.0
 70
     8
 71
     3
 72
    78
 73
    74
 74
     0
 42
0.00000001
 43
0.00000001
 40
0.0
 40
0.0
 40
0.0
 40
0.0
 40
0.0198168882239024
 40
0.0429160948265228
 40
0.0676309331312499
 40
0.0928318016860378
 40
0.1168546098743909
 40
0.1397876274726547
 40
0.161537717625436
 40
0.1825255142114319
 40
0.1998648478201851
 40
0.217821530716776
 40
0.2365046060363347
 40
0.255908377022913
 40
0.275018156640588
 40
0.2891974762063715
 40
0.3017644940771815
 40
0.3127030258846805
 40
0.3195698458007977
 40
0.3252290678772163
 40
0.3299495860527422
 40
0.3359910451176776
 40
0.3439805806242579
 40
0.3540092715814817
 40
0.3617154460274156
 40
0.3698608863967055
 40
0.3767619275827772
 40
0.382168311321918
 40
0.3864064108798932
 40
0.3913476339557939
 40
0.4007116708291564
 40
0.4121304520003337
 40
0.42966684129682
 40
0.4456117854332533
 40
0.4606535788202192
 40
0.4757826132345955
 40
0.4910658596646171
 40
0.5102252473516953
 40
0.5286393635115959
 40
0.5462213022993497
 40
0.5635533592939179
 40
0.576538133645132
 40
0.5908860474545778
 40
0.606563805711461
 40
0.6235335029508919
 40
0.6418600797594104
 40
0.6615052035170743
 40
0.6766057264936698
 40
0.690348789283888
 40
0.7025697724085349
 40
0.7132537078927952
 40
0.7251099177213068
 40
0.7342866623910853
 40
0.7407828337052933
 40
0.7476057185187793
 40
0.7575025063107745
 40
0.7704460634082314
 40
0.7821473213148044
 40
0.7955581730876599
 40
0.8092000993280588
 40
0.8222249372223976
 40
0.8386605230849621
 40
0.8540750979036154
 40
0.8684285827789183
 40
0.8817083223599668
 40
0.8944674095201334
 40
0.9073472829019278
 40
0.926823793450482
 40
0.9464065873996881
 40
0.9655503809352293
 40
0.9841014283211532
 40
0.993672204393252
 40
1.0
 40
1.0
 40
1.0
 40
1.0
 10
236.0960395363125
 20
90.30897564752956
 30
0.0
 10
239.1737263887754
 20
90.70013781641875
 30
0.0
 10
245.8388646947646
 20
91.5472512755515
 30
0.0
 10
256.2742043548799
 20
92.8886643635628
 30
0.0
 10
267.3208779105084
 20
94.3252148275458
 30
0.0
 10
278.129593507465
 20
95.79503502416159
 30
0.0
 10
288.191538012351
 20
97.21680095448048
 30
0.0
 10
297.2207509632613
 20
98.58922825536165
 30
0.0
 10
305.2730442135408
 20
99.89411015626185
 30
0.0
 10
312.0666148481751
 20
101.1029607020093
 30
0.0
 10
317.9779200285461
 20
102.2595138411587
 30
0.0
 10
323.213190134679
 20
103.3879684959989
 30
0.0
 10
328.1526687015423
 20
104.6086287126305
 30
0.0
 10
332.6348982309589
 20
105.9082731824865
 30
0.0
 10
336.2499421576476
 20
107.1712034118993
 30
0.0
 10
339.219289571602
 20
108.4640531340665
 30
0.0
 10
341.5898016345694
 20
109.7321083859434
 30
0.0
 10
343.5520478024078
 20
111.0528879027653
 30
0.0
 10
344.9969603597638
 20
112.251096343182
 30
0.0
 10
346.0370091332188
 20
113.2614857963234
 30
0.0
 10
347.0607732299043
 20
114.4205018505108
 30
0.0
 10
348.2363512384171
 20
116.0333545031056
 30
0.0
 10
349.4935174902888
 20
118.3856879750682
 30
0.0
 10
350.3666452054146
 20
121.1954752375042
 30
0.0
 10
350.6777324525406
 20
124.2145517338673
 30
0.0
 10
350.4570865839892
 20
126.9340494599164
 30
0.0
 10
349.8507163545206
 20
129.2627845227787
 30
0.0
 10
349.1258792462442
 20
131.0236309562253
 30
0.0
 10
348.3668466419002
 20
132.4352391187633
 30
0.0
 10
347.3843570207724
 20
133.9299592838164
 30
0.0
 10
345.9212162091184
 20
135.6642015969071
 30
0.0
 10
343.5188507676967
 20
137.7922135170313
 30
0.0
 10
340.4634691207736
 20
139.6966194674207
 30
0.0
 10
337.1738082572869
 20
141.2028015029486
 30
0.0
 10
334.1125840182235
 20
142.3381330037566
 30
0.0
 10
330.7202000961194
 20
143.4115261911438
 30
0.0
 10
326.7085043142058
 20
144.5107483759191
 30
0.0
 10
322.0224241972716
 20
145.6262004895981
 30
0.0
 10
316.6119550018503
 20
146.7626183048239
 30
0.0
 10
310.9369451950769
 20
147.8477920836593
 30
0.0
 10
305.4791797435001
 20
148.8036747759461
 30
0.0
 10
300.0896579260296
 20
149.690675819601
 30
0.0
 10
294.6557890118861
 20
150.5474094822767
 30
0.0
 10
288.4461644756622
 20
151.4815760148041
 30
0.0
 10
281.4209194653594
 20
152.4856327859439
 30
0.0
 10
273.5581791390594
 20
153.5749917720746
 30
0.0
 10
265.7119153406487
 20
154.6271338445606
 30
0.0
 10
258.3850632740811
 20
155.5801782116123
 30
0.0
 10
252.0967505817319
 20
156.3932238264254
 30
0.0
 10
246.4390759082201
 20
157.1191641544399
 30
0.0
 10
241.0504436612969
 20
157.8067684053854
 30
0.0
 10
236.1254170324541
 20
158.4301500131662
 30
0.0
 10
231.8568222478082
 20
158.9738526271884
 30
0.0
 10
228.3774124191591
 20
159.4190764800032
 30
0.0
 10
224.7978185578436
 20
159.8789049904358
 30
0.0
 10
220.2481107602681
 20
160.4663911195364
 30
0.0
 10
215.0004183655925
 20
161.1480031641907
 30
0.0
 10
209.3003696978618
 20
161.8964764434027
 30
0.0
 10
203.5984348395448
 20
162.6637677257295
 30
0.0
 10
197.841663641209
 20
163.4573119161296
 30
0.0
 10
191.8258813667844
 20
164.3061712727521
 30
0.0
 10
185.7918056122815
 20
165.1875283271402
 30
0.0
 10
179.8759761782729
 20
166.0992921842154
 30
0.0
 10
174.6547365440715
 20
166.944770617782
 30
0.0
 10
170.0325476629298
 20
167.7297531979102
 30
0.0
 10
165.8619660789329
 20
168.4861301255187
 30
0.0
 10
161.3907520607769
 20
169.3540334852521
 30
0.0
 10
156.8009782768252
 20
170.3269081763958
 30
0.0
 10
152.4636243713512
 20
171.3833948117561
 30
0.0
 10
149.1770750007891
 20
172.3355319434656
 30
0.0
 10
147.2463886842027
 20
173.011830081385
 30
0.0
 10
146.4647246484719
 20
173.3577809956612
 30
0.0
 10
146.4735274055235
 20
173.3348670793208
 30
0.0
 10
146.4770309936774
 20
173.325747104138
 30
0.0
  0
SPLINE
  5
FF
330
1F
100
AcDbEntity
  8
0
  6
Continuous
 62
     7
370
    25
100
AcDbSpline
210
0.0
220
0.0
230
1.0
 70
     8
 71
     3
 72
    13
 73
     9
 74
     0
 42
0.00000001
 43
0.00000001
 40
0.0
 40
0.0
 40
0.0
 40
0.0
 40
0.0207596692119773
 40
0.1952271598931933
 40
0.3820953634133835
 40
0.5809396716682624
 40
0.7926625827272993
 40
0.9999999999999999
 40
0.9999999999999999
 40
0.9999999999999999
 40
0.9999999999999999
 10
191.4180070376258
 20
164.3724235593123
 30
0.0
 10
191.6876604069888
 20
164.4119158310507
 30
0.0
 10
194.2235226559883
 20
164.7833073002731
 30
0.0
 10
199.4744248985265
 20
165.515583383074
 30
0.0
 10
207.3359014888169
 20
166.5905685724297
 30
0.0
 10
216.010232143365
 20
167.7283886443177
 30
0.0
 10
225.1689369840153
 20
168.9176328885962
 30
0.0
 10
231.4737902144988
 20
169.7202392723206
 30
0.0
 10
234.5932264787138
 20
170.1173427999928
 30
0.0
  0
LINE
  5
100
330
1F
100
AcDbEntity
  8
0
  6
Continuous
 62
     7
370
    25
100
AcDbLine
 10
234.5808397832
 20
118.2131282508
 30
0.0
 11
157.2131922576
 21
118.2131282508
 31
0.0
  0
LINE
  5
101
330
1F
100
AcDbEntity
  8
0
  6
Continuous
 62
     7
370
    25
100
AcDbLine
 10
157.2131922576
 20
90.2131282508
 30
0.0
 11
234.5864070042
 21
90.2131282508
 31
0.0
  0
LINE
  5
102
330
1F
100
AcDbEntity
  8
0
  6
Continuous
 62
     7
370
    25
100
AcDbLine
 10
236.1050239126
 20
170.2131282508
 30
0.0
 11
320.4864811745
 21
170.2131282508
 31
0.0
  0
LINE
  5
103
330
1F
100
AcDbEntity
  8
0
  6
Continuous
 62
     7
370
    25
100
AcDbLine
 10
320.4864811745
 20
198.2131282508
 30
0.0
 11
236.0975549832
 21
198.2131282508
 31
0.0
  0
SPLINE
  5
104
330
1F
100
AcDbEntity
  8
0
  6
Continuous
 62
     7
370
    25
100
AcDbSpline
210
0.0
220
0.0
230
1.0
 70
     8
 71
     3
 72
     9
 73
     5
 74
     0
 42
0.00000001
 43
0.00000001
 40
0.0
 40
0.0
 40
0.0
 40
0.0
 40
0.3911952397752879
 40
1.0
 40
1.0
 40
1.0
 40
1.0
 10
236.099834284343
 20
198.1789624813004
 30
0.0
 10
235.9023504344518
 20
198.1916038990257
 30
0.0
 10
235.3975287244415
 20
198.2239187547293
 30
0.0
 10
234.8983244308033
 20
198.1360509264949
 30
0.0
 10
234.5944064805117
 20
198.0825565743952
 30
0.0
  0
LINE
  5
105
330
1F
100
AcDbEntity
  8
0
  6
Continuous
 62
     7
370
    25
100
AcDbLine
 10
234.5844803298
 20
90.2318127689
 30
0.0
 11
236.0951114701
 21
90.3171599753
 31
0.0
  0
SPLINE
  5
106
330
1F
100
AcDbEntity
  8
0
  6
Continuous
 62
     7
370
    25
100
AcDbSpline
210
0.0
220
0.0
230
1.0
 70
     8
 71
     3
 72
     9
 73
     5
 74
     0
 42
0.00000001
 43
0.00000001
 40
0.0
 40
0.0
 40
0.0
 40
0.0
 40
0.7640087131316632
 40
1.0
 40
1.0
 40
1.0
 40
1.0
 10
234.5966284834215
 20
170.077039250594
 30
0.0
 10
234.9781345435857
 20
170.1458245723749
 30
0.0
 10
235.4774823306031
 20
170.2358566892849
 30
0.0
 10
235.9804047100762
 20
170.1963843129398
 30
0.0
 10
236.0990900096029
 20
170.1870691760504
 30
0.0
  0
SPLINE
  5
107
330
1F
100
AcDbEntity
  8
0
  6
Continuous
 62
     7
370
    25
100
AcDbSpline
210
0.0
220
0.0
230
1.0
 70
     8
 71
     3
 72
     9
 73
     5
 74
     0
 42
0.00000001
 43
0.00000001
 40
0.0
 40
0.0
 40
0.0
 40
0.0
 40
0.8627051325951912
 40
0.9999999999999999
 40
0.9999999999999999
 40
0.9999999999999999
 40
0.9999999999999999
 10
236.0910606401889
 20
118.3464730312258
 30
0.0
 10
235.6591173545874
 20
118.2703651156755
 30
0.0
 10
235.1584326254935
 20
118.1821450359811
 30
0.0
 10
234.655808427623
 20
118.2239668339566
 30
0.0
 10
234.5868007050219
 20
118.2297087521642
 30
0.0
  0
CIRCLE
  5
108
330
1F
100
AcDbEntity
  8
0
  6
Continuous
 62
     7
370
    25
100
AcDbCircle
 10
338.7335016572
 20
184.2120309535
 30
0.0
 40
21.19890270322441
  0
CIRCLE
  5
109
330
1F
100
AcDbEntity
  8
0
  6
Continuous
 62
     7
370
    25
100
AcDbCircle
 10
338.733502068
 20
184.2118559941
 30
0.0
 40
22.9987277437726
  0
ARC
  5
10A
330
1F
100
AcDbEntity
  8
0
  6
Continuous
 62
     7
370
    25
100
AcDbCircle
 10
338.6945922164
 20
184.2131282508
 30
0.0
 40
21.20000003826851
100
AcDbArc
 50
270.0034426312
 51
89.9965573688
  0
CIRCLE
  5
10B
330
1F
100
AcDbEntity
  8
0
  6
Continuous
 62
     7
370
    25
100
AcDbCircle
 10
338.6774682671
 20
184.2120924304
 30
0.0
 40
18.62896418008811
  0
ARC
  5
10C
330
1F
100
AcDbEntity
  8
0
  6
Continuous
 62
     7
370
    25
100
AcDbCircle
 10
338.5448088135
 20
184.2131282508
 30
0.0
 40
18.63000003503651
100
AcDbArc
 50
270.0035139184
 51
89.9964860816
  0
CIRCLE
  5
10D
330
1F
100
AcDbEntity
  8
0
  6
Continuous
 62
     7
370
    25
100
AcDbCircle
 10
338.5085574893
 20
184.2127622748
 30
0.0
 40
6.74963402452161
  0
CIRCLE
  5
10E
330
1F
100
AcDbEntity
  8
0
  6
Continuous
 62
     7
370
    25
100
AcDbCircle
 10
138.7913258121
 20
104.2125599085
 30
0.0
 40
9.999431658237702
  0
ARC
  5
10F
330
1F
100
AcDbEntity
  8
0
  6
Continuous
 62
     7
370
    25
100
AcDbCircle
 10
138.7533447258
 20
104.2131282508
 30
0.0
 40
10.0000000182979
100
AcDbArc
 50
270.0034660775
 51
89.9965339225
  0
CIRCLE
  5
110
330
1F
100
AcDbEntity
  8
0
  6
Continuous
 62
     7
370
    25
100
AcDbCircle
 10
338.5460539
 20
184.2136965931
 30
0.0
 40
9.999431658237759
  0
ARC
  5
111
330
1F
100
AcDbEntity
  8
0
  6
Continuous
 62
     7
370
    25
100
AcDbCircle
 10
338.5078677757
 20
184.2131282508
 30
0.0
 40
10.00000001829793
100
AcDbArc
 50
270.0034660774
 51
89.9965339225
  0
LINE
  5
112
330
1F
100
AcDbEntity
  8
0
  6
Continuous
 62
     7
370
    25
100
AcDbLine
 10
132.7294321316
 20
107.677229866
 30
0.0
 11
132.7294321316
 21
100.7490266357
 31
0.0
  0
LINE
  5
113
330
1F
100
AcDbEntity
  8
0
  6
Continuous
 62
     7
370
    25
100
AcDbLine
 10
132.7294321316
 20
100.7490266357
 30
0.0
 11
138.7289638967
 21
97.2849250206
 31
0.0
  0
LINE
  5
114
330
1F
100
AcDbEntity
  8
0
  6
Continuous
 62
     7
370
    25
100
AcDbLine
 10
138.7289638967
 20
97.2849250206
 30
0.0
 11
144.7284956617
 21
100.7490266357
 31
0.0
  0
LINE
  5
115
330
1F
100
AcDbEntity
  8
0
  6
Continuous
 62
     7
370
    25
100
AcDbLine
 10
144.7284956617
 20
100.7490266357
 30
0.0
 11
144.7284956617
 21
107.677229866
 31
0.0
  0
LINE
  5
116
330
1F
100
AcDbEntity
  8
0
  6
Continuous
 62
     7
370
    25
100
AcDbLine
 10
144.7284956617
 20
107.677229866
 30
0.0
 11
138.7289638967
 21
111.1413314811
 31
0.0
  0
LINE
  5
117
330
1F
100
AcDbEntity
  8
0
  6
Continuous
 62
     7
370
    25
100
AcDbLine
 10
138.7289638967
 20
111.1413314811
 30
0.0
 11
132.7294321316
 21
107.677229866
 31
0.0
  0
LINE
  5
118
330
1F
100
AcDbEntity
  8
0
  6
Continuous
 62
     7
370
    25
100
AcDbLine
 10
144.5286094715
 20
107.677229866
 30
0.0
 11
144.7284956617
 21
107.677229866
 31
0.0
  0
LINE
  5
119
330
1F
100
AcDbEntity
  8
0
  6
Continuous
 62
     7
370
    25
100
AcDbLine
 10
144.5286094715
 20
107.677229866
 30
0.0
 11
141.5288435889
 21
109.4092806735
 31
0.0
  0
LINE
  5
11A
330
1F
100
AcDbEntity
  8
0
  6
Continuous
 62
     7
370
    25
100
AcDbLine
 10
141.5288435889
 20
109.4092806735
 30
0.0
 11
138.6290208015
 21
111.0836248048
 31
0.0
  0
LINE
  5
11B
330
1F
100
AcDbEntity
  8
0
  6
Continuous
 62
     7
370
    25
100
AcDbLine
 10
138.6290208015
 20
97.3426316968
 30
0.0
 11
141.5288435889
 21
99.0169758281
 31
0.0
  0
LINE
  5
11C
330
1F
100
AcDbEntity
  8
0
  6
Continuous
 62
     7
370
    25
100
AcDbLine
 10
141.5288435889
 20
99.0169758281
 30
0.0
 11
144.5286094715
 21
100.7490266357
 31
0.0
  0
LINE
  5
11D
330
1F
100
AcDbEntity
  8
0
  6
Continuous
 62
     7
370
    25
100
AcDbLine
 10
144.5286094715
 20
100.7490266357
 30
0.0
 11
144.7284956617
 21
100.7490266357
 31
0.0
  0
LINE
  5
11E
330
1F
100
AcDbEntity
  8
0
  6
Continuous
 62
     7
370
    25
100
AcDbLine
 10
144.5286094715
 20
100.7490266357
 30
0.0
 11
144.5286094715
 21
104.2131282508
 31
0.0
  0
LINE
  5
11F
330
1F
100
AcDbEntity
  8
0
  6
Continuous
 62
     7
370
    25
100
AcDbLine
 10
144.5286094715
 20
104.2131282508
 30
0.0
 11
144.5286094715
 21
107.677229866
 31
0.0
  0
ARC
  5
120
330
1F
100
AcDbEntity
  8
0
  6
Continuous
 62
     7
370
    25
100
AcDbCircle
 10
138.5296367651
 20
104.2132525333
 30
0.0
 40
6.000071066620524
100
AcDbArc
 50
130.4753580793
 51
165.1699591152
  0
ARC
  5
121
330
1F
100
AcDbEntity
  8
0
  6
Continuous
 62
     7
370
    25
100
AcDbCircle
 10
138.5290796378
 20
104.2139960967
 30
0.0
 40
5.99913040339356
100
AcDbArc
 50
59.9978081317
 51
109.5286446641
  0
ARC
  5
122
330
1F
100
AcDbEntity
  8
0
  6
Continuous
 62
     7
370
    25
100
AcDbCircle
 10
138.5285283628
 20
104.2132165994
 30
0.0
 40
6.000081109297065
100
AcDbArc
 50
359.9991563443
 51
59.9969713084
  0
ARC
  5
123
330
1F
100
AcDbEntity
  8
0
  6
Continuous
 62
     7
370
    25
100
AcDbCircle
 10
138.5285283628
 20
104.2130399022
 30
0.0
 40
6.000081109297104
100
AcDbArc
 50
300.0030286916
 51
0.0008436557
  0
ARC
  5
124
330
1F
100
AcDbEntity
  8
0
  6
Continuous
 62
     7
370
    25
100
AcDbCircle
 10
138.5290804911
 20
104.2122510947
 30
0.0
 40
5.999121914007433
100
AcDbArc
 50
250.4713179312
 51
300.002229273
  0
ARC
  5
125
330
1F
100
AcDbEntity
  8
0
  6
Continuous
 62
     7
370
    25
100
AcDbCircle
 10
138.5296367651
 20
104.2130039684
 30
0.0
 40
6.000071066619124
100
AcDbArc
 50
194.8300408848
 51
229.5246419207
  0
CIRCLE
  5
126
330
1F
100
AcDbEntity
  8
0
  6
Continuous
 62
     7
370
    25
100
AcDbCircle
 10
138.966171364
 20
104.2144005076
 30
0.0
 40
22.99872774377252
  0
CIRCLE
  5
127
330
1F
100
AcDbEntity
  8
0
  6
Continuous
 62
     7
370
    25
100
AcDbCircle
 10
138.9911608049
 20
104.2143708641
 30
0.0
 40
22.46285900239098
  0
CIRCLE
  5
128
330
1F
100
AcDbEntity
  8
0
  6
Continuous
 62
     7
370
    25
100
AcDbCircle
 10
138.9911575487
 20
104.2142255482
 30
0.0
 40
21.19890270322467
  0
ARC
  5
129
330
1F
100
AcDbEntity
  8
0
  6
Continuous
 62
     7
370
    25
100
AcDbCircle
 10
138.9525620535
 20
104.2131282508
 30
0.0
 40
21.20000003826852
100
AcDbArc
 50
270.0034426312
 51
89.9965573688
  0
CIRCLE
  5
12A
330
1F
100
AcDbEntity
  8
0
  6
Continuous
 62
     7
370
    25
100
AcDbCircle
 10
138.9351599713
 20
104.2141640713
 30
0.0
 40
18.62896418008807
  0
ARC
  5
12B
330
1F
100
AcDbEntity
  8
0
  6
Continuous
 62
     7
370
    25
100
AcDbCircle
 10
138.8152715374
 20
104.2131282508
 30
0.0
 40
18.63000003503654
100
AcDbArc
 50
270.0035139184
 51
89.9964860816
  0
ENDSEC
  0
SECTION
  2
OBJECTS
  0
DICTIONARY
  5
C
330
0
100
AcDbDictionary
281
     1
  3
ACAD_GROUP
350
D
  3
ACAD_LAYOUT
350
1A
  3
ACAD_MLINESTYLE
350
17
  3
ACAD_PLOTSETTINGS
350
19
  3
ACAD_PLOTSTYLENAME
350
E
  3
ACAD_SCALELIST
350
47
  3
DWGPROPS
350
12C
  0
DICTIONARY
  5
D
102
{ACAD_REACTORS
330
C
102
}
330
C
100
AcDbDictionary
281
     1
  0
DICTIONARY
  5
1A
102
{ACAD_REACTORS
330
C
102
}
330
C
100
AcDbDictionary
281
     1
  3
Layout1
350
1E
  3
Layout2
350
26
  3
Model
350
22
  0
DICTIONARY
  5
17
102
{ACAD_REACTORS
330
C
102
}
330
C
100
AcDbDictionary
281
     1
  3
Standard
350
18
  0
DICTIONARY
  5
19
102
{ACAD_REACTORS
330
C
102
}
330
C
100
AcDbDictionary
281
     1
  0
ACDBDICTIONARYWDFLT
  5
E
102
{ACAD_REACTORS
330
C
102
}
330
C
100
AcDbDictionary
281
     1
  3
Normal
350
F
100
AcDbDictionaryWithDefault
340
F
  0
DICTIONARY
  5
47
102
{ACAD_REACTORS
330
C
102
}
330
C
100
AcDbDictionary
281
     1
  3
A0
350
48
  3
A1
350
49
  3
A2
350
4A
  3
A3
350
4B
  3
A4
350
4C
  3
A5
350
4D
  3
A6
350
4E
  3
A7
350
4F
  3
A8
350
50
  3
A9
350
51
  3
B0
350
52
  3
B1
350
53
  3
B2
350
54
  3
B3
350
55
  3
B4
350
56
  3
B5
350
57
  3
B6
350
58
  3
B7
350
59
  3
B8
350
5A
  3
B9
350
5B
  3
C0
350
5C
  3
C1
350
5D
  3
C2
350
5E
  3
C3
350
5F
  3
C4
350
60
  3
C5
350
61
  3
C6
350
62
  3
C7
350
63
  3
C8
350
64
  3
C9
350
65
  3
D0
350
66
  3
D1
350
67
  3
D2
350
68
  0
XRECORD
  5
12C
102
{ACAD_REACTORS
330
C
102
}
330
C
100
AcDbXrecord
280
     1
  1
DWGPROPS COOKIE
  2

  3

  4

  6

  7

  8
mwolf
  9

300
=
301
=
302
=
303
=
304
=
305
=
306
=
307
=
308
=
309
=
 40
0.0
 41
2459822.248626146
 42
2459822.24862669
  1

 90
        0
  0
LAYOUT
  5
1E
102
{ACAD_REACTORS
330
1A
102
}
330
1A
100
AcDbPlotSettings
  1

  2
none_device
  4

  6

 40
0.0
 41
0.0
 42
0.0
 43
0.0
 44
0.0
 45
0.0
 46
0.0
 47
0.0
 48
0.0
 49
0.0
140
0.0
141
0.0
142
1.0
143
1.0
 70
   688
 72
     1
 73
     0
 74
     5
  7

 75
    16
147
1.0
148
0.0
149
0.0
100
AcDbLayout
  1
Layout1
 70
     1
 71
     1
 10
0.0
 20
0.0
 11
420.0
 21
297.0
 12
0.0
 22
0.0
 32
0.0
 14
1.0000000000E+20
 24
1.0000000000E+20
 34
1.0000000000E+20
 15
-1.0000000000E+20
 25
-1.0000000000E+20
 35
-1.0000000000E+20
146
0.0
 13
0.0
 23
0.0
 33
0.0
 16
1.0
 26
0.0
 36
0.0
 17
0.0
 27
1.0
 37
0.0
 76
     0
330
1B
  0
LAYOUT
  5
26
102
{ACAD_REACTORS
330
1A
102
}
330
1A
100
AcDbPlotSettings
  1

  2
none_device
  4

  6

 40
0.0
 41
0.0
 42
0.0
 43
0.0
 44
0.0
 45
0.0
 46
0.0
 47
0.0
 48
0.0
 49
0.0
140
0.0
141
0.0
142
1.0
143
1.0
 70
   688
 72
     1
 73
     0
 74
     5
  7

 75
    16
147
1.0
148
0.0
149
0.0
100
AcDbLayout
  1
Layout2
 70
     1
 71
     2
 10
0.0
 20
0.0
 11
0.0
 21
0.0
 12
0.0
 22
0.0
 32
0.0
 14
0.0
 24
0.0
 34
0.0
 15
0.0
 25
0.0
 35
0.0
146
0.0
 13
0.0
 23
0.0
 33
0.0
 16
1.0
 26
0.0
 36
0.0
 17
0.0
 27
1.0
 37
0.0
 76
     0
330
23
  0
LAYOUT
  5
22
102
{ACAD_REACTORS
330
1A
102
}
330
1A
100
AcDbPlotSettings
  1

  2
none_device
  4
Letter_(8.50_x_11.00_Inches)
  6

 40
6.35
 41
6.35
 42
6.35000508
 43
6.35000508
 44
215.9
 45
279.4
 46
0.0
 47
0.0
 48
0.0
 49
0.0
140
0.0
141
0.0
142
1.0
143
1.0
 70
  1712
 72
     1
 73
     0
 74
     0
  7

 75
     0
147
1.0
148
0.0
149
0.0
100
AcDbLayout
  1
Model
 70
     1
 71
     0
 10
0.0
 20
0.0
 11
841.0
 21
1189.0
 12
0.0
 22
0.0
 32
0.0
 14
0.0
 24
0.0
 34
0.0
 15
841.0
 25
1189.0
 35
0.0
146
0.0
 13
0.0
 23
0.0
 33
0.0
 16
1.0
 26
0.0
 36
0.0
 17
0.0
 27
1.0
 37
0.0
 76
     0
330
1F
331
29
  0
MLINESTYLE
  5
18
102
{ACAD_REACTORS
330
17
102
}
330
17
100
AcDbMlineStyle
  2
Standard
 70
     0
  3

 62
   256
 51
90.0
 52
90.0
 71
     2
 49
0.5
 62
   256
  6
BYLAYER
 49
-0.5
 62
   256
  6
BYLAYER
  0
ACDBPLACEHOLDER
  5
F
102
{ACAD_REACTORS
330
E
102
}
330
E
  0
SCALE
  5
48
102
{ACAD_REACTORS
330
47
102
}
330
47
100
AcDbScale
 70
     0
300
1:1
140
1.0
141
1.0
290
     1
  0
SCALE
  5
49
102
{ACAD_REACTORS
330
47
102
}
330
47
100
AcDbScale
 70
     0
300
1:2
140
1.0
141
2.0
290
     0
  0
SCALE
  5
4A
102
{ACAD_REACTORS
330
47
102
}
330
47
100
AcDbScale
 70
     0
300
1:4
140
1.0
141
4.0
290
     0
  0
SCALE
  5
4B
102
{ACAD_REACTORS
330
47
102
}
330
47
100
AcDbScale
 70
     0
300
1:5
140
1.0
141
5.0
290
     0
  0
SCALE
  5
4C
102
{ACAD_REACTORS
330
47
102
}
330
47
100
AcDbScale
 70
     0
300
1:8
140
1.0
141
8.0
290
     0
  0
SCALE
  5
4D
102
{ACAD_REACTORS
330
47
102
}
330
47
100
AcDbScale
 70
     0
300
1:10
140
1.0
141
10.0
290
     0
  0
SCALE
  5
4E
102
{ACAD_REACTORS
330
47
102
}
330
47
100
AcDbScale
 70
     0
300
1:16
140
1.0
141
16.0
290
     0
  0
SCALE
  5
4F
102
{ACAD_REACTORS
330
47
102
}
330
47
100
AcDbScale
 70
     0
300
1:20
140
1.0
141
20.0
290
     0
  0
SCALE
  5
50
102
{ACAD_REACTORS
330
47
102
}
330
47
100
AcDbScale
 70
     0
300
1:30
140
1.0
141
30.0
290
     0
  0
SCALE
  5
51
102
{ACAD_REACTORS
330
47
102
}
330
47
100
AcDbScale
 70
     0
300
1:40
140
1.0
141
40.0
290
     0
  0
SCALE
  5
52
102
{ACAD_REACTORS
330
47
102
}
330
47
100
AcDbScale
 70
     0
300
1:50
140
1.0
141
50.0
290
     0
  0
SCALE
  5
53
102
{ACAD_REACTORS
330
47
102
}
330
47
100
AcDbScale
 70
     0
300
1:100
140
1.0
141
100.0
290
     0
  0
SCALE
  5
54
102
{ACAD_REACTORS
330
47
102
}
330
47
100
AcDbScale
 70
     0
300
2:1
140
2.0
141
1.0
290
     0
  0
SCALE
  5
55
102
{ACAD_REACTORS
330
47
102
}
330
47
100
AcDbScale
 70
     0
300
4:1
140
4.0
141
1.0
290
     0
  0
SCALE
  5
56
102
{ACAD_REACTORS
330
47
102
}
330
47
100
AcDbScale
 70
     0
300
8:1
140
8.0
141
1.0
290
     0
  0
SCALE
  5
57
102
{ACAD_REACTORS
330
47
102
}
330
47
100
AcDbScale
 70
     0
300
10:1
140
10.0
141
1.0
290
     0
  0
SCALE
  5
58
102
{ACAD_REACTORS
330
47
102
}
330
47
100
AcDbScale
 70
     0
300
100:1
140
100.0
141
1.0
290
     0
  0
SCALE
  5
59
102
{ACAD_REACTORS
330
47
102
}
330
47
100
AcDbScale
 70
     0
300
1/128" = 1'-0"
140
0.0078125
141
12.0
290
     0
  0
SCALE
  5
5A
102
{ACAD_REACTORS
330
47
102
}
330
47
100
AcDbScale
 70
     0
300
1/64" = 1'-0"
140
0.015625
141
12.0
290
     0
  0
SCALE
  5
5B
102
{ACAD_REACTORS
330
47
102
}
330
47
100
AcDbScale
 70
     0
300
1/32" = 1'-0"
140
0.03125
141
12.0
290
     0
  0
SCALE
  5
5C
102
{ACAD_REACTORS
330
47
102
}
330
47
100
AcDbScale
 70
     0
300
1/16" = 1'-0"
140
0.0625
141
12.0
290
     0
  0
SCALE
  5
5D
102
{ACAD_REACTORS
330
47
102
}
330
47
100
AcDbScale
 70
     0
300
3/32" = 1'-0"
140
0.09375
141
12.0
290
     0
  0
SCALE
  5
5E
102
{ACAD_REACTORS
330
47
102
}
330
47
100
AcDbScale
 70
     0
300
1/8" = 1'-0"
140
0.125
141
12.0
290
     0
  0
SCALE
  5
5F
102
{ACAD_REACTORS
330
47
102
}
330
47
100
AcDbScale
 70
     0
300
3/16" = 1'-0"
140
0.1875
141
12.0
290
     0
  0
SCALE
  5
60
102
{ACAD_REACTORS
330
47
102
}
330
47
100
AcDbScale
 70
     0
300
1/4" = 1'-0"
140
0.25
141
12.0
290
     0
  0
SCALE
  5
61
102
{ACAD_REACTORS
330
47
102
}
330
47
100
AcDbScale
 70
     0
300
3/8" = 1'-0"
140
0.375
141
12.0
290
     0
  0
SCALE
  5
62
102
{ACAD_REACTORS
330
47
102
}
330
47
100
AcDbScale
 70
     0
300
1/2" = 1'-0"
140
0.5
141
12.0
290
     0
  0
SCALE
  5
63
102
{ACAD_REACTORS
330
47
102
}
330
47
100
AcDbScale
 70
     0
300
3/4" = 1'-0"
140
0.75
141
12.0
290
     0
  0
SCALE
  5
64
102
{ACAD_REACTORS
330
47
102
}
330
47
100
AcDbScale
 70
     0
300
1" = 1'-0"
140
1.0
141
12.0
290
     0
  0
SCALE
  5
65
102
{ACAD_REACTORS
330
47
102
}
330
47
100
AcDbScale
 70
     0
300
1-1/2" = 1'-0"
140
1.5
141
12.0
290
     0
  0
SCALE
  5
66
102
{ACAD_REACTORS
330
47
102
}
330
47
100
AcDbScale
 70
     0
300
3" = 1'-0"
140
3.0
141
12.0
290
     0
  0
SCALE
  5
67
102
{ACAD_REACTORS
330
47
102
}
330
47
100
AcDbScale
 70
     0
300
6" = 1'-0"
140
6.0
141
12.0
290
     0
  0
SCALE
  5
68
102
{ACAD_REACTORS
330
47
102
}
330
47
100
AcDbScale
 70
     0
300
1'-0" = 1'-0"
140
12.0
141
12.0
290
     0
  0
ENDSEC
  0
EOF
