  0
SECTION
  2
HEADER
  9
$ACADVER
  1
AC1015
  9
$ACADMAINTVER
 70
     6
  9
$DWGCODEPAGE
  3
ANSI_1252
  9
$INSBASE
 10
0.0
 20
0.0
 30
0.0
  9
$EXTMIN
 10
0.0
 20
0.0
 30
0.0
  9
$EXTMAX
 10
594.0
 20
841.0
 30
0.0
  9
$LIMMIN
 10
0.0
 20
0.0
  9
$LIMMAX
 10
594.0
 20
841.0
  9
$ORTHOMODE
 70
     0
  9
$REGENMODE
 70
     1
  9
$FILLMODE
 70
     1
  9
$QTEXTMODE
 70
     0
  9
$MIRRTEXT
 70
     1
  9
$LTSCALE
 40
1.0
  9
$ATTMODE
 70
     1
  9
$TEXTSIZE
 40
10.0
  9
$TRACEWID
 40
1.0
  9
$TEXTSTYLE
  7
Standard
  9
$CLAYER
  8
0
  9
$CELTYPE
  6
ByLayer
  9
$CECOLOR
 62
   256
  9
$CELTSCALE
 40
1.0
  9
$DISPSILH
 70
     0
  9
$DIMSCALE
 40
1.0
  9
$DIMASZ
 40
2.5
  9
$DIMEXO
 40
0.0
  9
$DIMDLI
 40
3.75
  9
$DIMRND
 40
0.0
  9
$DIMDLE
 40
0.0
  9
$DIMEXE
 40
1.0
  9
$DIMTP
 40
0.0
  9
$DIMTM
 40
0.0
  9
$DIMTXT
 40
3.5
  9
$DIMCEN
 40
2.5
  9
$DIMTSZ
 40
0.0
  9
$DIMTOL
 70
     0
  9
$DIMLIM
 70
     0
  9
$DIMTIH
 70
     1
  9
$DIMTOH
 70
     1
  9
$DIMSE1
 70
     0
  9
$DIMSE2
 70
     0
  9
$DIMTAD
 70
     1
  9
$DIMZIN
 70
     0
  9
$DIMBLK
  1

  9
$DIMASO
 70
     1
  9
$DIMSHO
 70
     1
  9
$DIMPOST
  1

  9
$DIMAPOST
  1

  9
$DIMALT
 70
     0
  9
$DIMALTD
 70
     3
  9
$DIMALTF
 40
0.0393700787
  9
$DIMLFAC
 40
1.0
  9
$DIMTOFL
 70
     1
  9
$DIMTVP
 40
0.0
  9
$DIMTIX
 70
     0
  9
$DIMSOXD
 70
     0
  9
$DIMSAH
 70
     0
  9
$DIMBLK1
  1

  9
$DIMBLK2
  1

  9
$DIMSTYLE
  2
ISO-25
  9
$DIMCLRD
 70
     0
  9
$DIMCLRE
 70
     0
  9
$DIMCLRT
 70
     0
  9
$DIMTFAC
 40
1.0
  9
$DIMGAP
 40
1.5
  9
$DIMJUST
 70
     0
  9
$DIMSD1
 70
     0
  9
$DIMSD2
 70
     0
  9
$DIMTOLJ
 70
     0
  9
$DIMTZIN
 70
     0
  9
$DIMALTZ
 70
     0
  9
$DIMALTTZ
 70
     0
  9
$DIMUPT
 70
     0
  9
$DIMDEC
 70
     2
  9
$DIMTDEC
 70
     2
  9
$DIMALTU
 70
     2
  9
$DIMALTTD
 70
     3
  9
$DIMTXSTY
  7
Standard
  9
$DIMAUNIT
 70
     0
  9
$DIMADEC
 70
     2
  9
$DIMALTRND
 40
0.0
  9
$DIMAZIN
 70
     0
  9
$DIMDSEP
 70
    44
  9
$DIMATFIT
 70
     3
  9
$DIMFRAC
 70
     0
  9
$DIMLDRBLK
  1

  9
$DIMLUNIT
 70
     2
  9
$DIMLWD
 70
    -2
  9
$DIMLWE
 70
    -2
  9
$DIMTMOVE
 70
     0
  9
$LUNITS
 70
     2
  9
$LUPREC
 70
     2
  9
$SKETCHINC
 40
1.0
  9
$FILLETRAD
 40
0.0
  9
$AUNITS
 70
     0
  9
$AUPREC
 70
     2
  9
$MENU
  1
.
  9
$ELEVATION
 40
0.0
  9
$PELEVATION
 40
0.0
  9
$THICKNESS
 40
0.0
  9
$LIMCHECK
 70
     0
  9
$CHAMFERA
 40
0.0
  9
$CHAMFERB
 40
0.0
  9
$CHAMFERC
 40
0.0
  9
$CHAMFERD
 40
0.0
  9
$SKPOLY
 70
     0
  9
$TDCREATE
 40
2460384.468389491
  9
$TDUCREATE
 40
2460384.426722824
  9
$TDUPDATE
 40
2460384.468390394
  9
$TDUUPDATE
 40
2460384.426723727
  9
$TDINDWG
 40
0.0000000116
  9
$TDUSRTIMER
 40
0.0000000116
  9
$USRTIMER
 70
     1
  9
$ANGBASE
 50
0.0
  9
$ANGDIR
 70
     0
  9
$PDMODE
 70
     0
  9
$PDSIZE
 40
-1.0
  9
$PLINEWID
 40
0.0
  9
$SPLFRAME
 70
     0
  9
$SPLINETYPE
 70
     6
  9
$SPLINESEGS
 70
     8
  9
$HANDSEED
  5
176
  9
$SURFTAB1
 70
     6
  9
$SURFTAB2
 70
     6
  9
$SURFTYPE
 70
     6
  9
$SURFU
 70
     6
  9
$SURFV
 70
     6
  9
$UCSBASE
  2

  9
$UCSNAME
  2

  9
$UCSORG
 10
0.0
 20
0.0
 30
0.0
  9
$UCSXDIR
 10
1.0
 20
0.0
 30
0.0
  9
$UCSYDIR
 10
0.0
 20
1.0
 30
0.0
  9
$UCSORTHOREF
  2

  9
$UCSORTHOVIEW
 70
     0
  9
$UCSORGTOP
 10
0.0
 20
0.0
 30
0.0
  9
$UCSORGBOTTOM
 10
0.0
 20
0.0
 30
0.0
  9
$UCSORGLEFT
 10
0.0
 20
0.0
 30
0.0
  9
$UCSORGRIGHT
 10
0.0
 20
0.0
 30
0.0
  9
$UCSORGFRONT
 10
0.0
 20
0.0
 30
0.0
  9
$UCSORGBACK
 10
0.0
 20
0.0
 30
0.0
  9
$PUCSBASE
  2

  9
$PUCSNAME
  2

  9
$PUCSORG
 10
0.0
 20
0.0
 30
0.0
  9
$PUCSXDIR
 10
1.0
 20
0.0
 30
0.0
  9
$PUCSYDIR
 10
0.0
 20
1.0
 30
0.0
  9
$PUCSORTHOREF
  2

  9
$PUCSORTHOVIEW
 70
     0
  9
$PUCSORGTOP
 10
0.0
 20
0.0
 30
0.0
  9
$PUCSORGBOTTOM
 10
0.0
 20
0.0
 30
0.0
  9
$PUCSORGLEFT
 10
0.0
 20
0.0
 30
0.0
  9
$PUCSORGRIGHT
 10
0.0
 20
0.0
 30
0.0
  9
$PUCSORGFRONT
 10
0.0
 20
0.0
 30
0.0
  9
$PUCSORGBACK
 10
0.0
 20
0.0
 30
0.0
  9
$USERI1
 70
     0
  9
$USERI2
 70
     0
  9
$USERI3
 70
     0
  9
$USERI4
 70
     0
  9
$USERI5
 70
     0
  9
$USERR1
 40
0.0
  9
$USERR2
 40
0.0
  9
$USERR3
 40
0.0
  9
$USERR4
 40
0.0
  9
$USERR5
 40
0.0
  9
$WORLDVIEW
 70
     1
  9
$SHADEDGE
 70
     3
  9
$SHADEDIF
 70
    70
  9
$TILEMODE
 70
     1
  9
$MAXACTVP
 70
    64
  9
$PINSBASE
 10
0.0
 20
0.0
 30
0.0
  9
$PLIMCHECK
 70
     0
  9
$PEXTMIN
 10
1.0000000000E+20
 20
1.0000000000E+20
 30
1.0000000000E+20
  9
$PEXTMAX
 10
-1.0000000000E+20
 20
-1.0000000000E+20
 30
-1.0000000000E+20
  9
$PLIMMIN
 10
0.0
 20
0.0
  9
$PLIMMAX
 10
420.0
 20
297.0
  9
$UNITMODE
 70
     0
  9
$VISRETAIN
 70
     1
  9
$PLINEGEN
 70
     0
  9
$PSLTSCALE
 70
     1
  9
$TREEDEPTH
 70
  3020
  9
$CMLSTYLE
  2
Standard
  9
$CMLJUST
 70
     0
  9
$CMLSCALE
 40
20.0
  9
$PROXYGRAPHICS
 70
     1
  9
$MEASUREMENT
 70
     1
  9
$CELWEIGHT
370
    -1
  9
$ENDCAPS
280
     0
  9
$JOINSTYLE
280
     0
  9
$LWDISPLAY
290
     1
  9
$INSUNITS
 70
     4
  9
$HYPERLINKBASE
  1

  9
$STYLESHEET
  1

  9
$XEDIT
290
     1
  9
$CEPSNTYPE
380
     0
  9
$PSTYLEMODE
290
     1
  9
$FINGERPRINTGUID
  2
{6992a55e-7d97-4082-9fde-c1aece33b0d5}
  9
$VERSIONGUID
  2
{FAEB1C32-E019-11D5-929B-00C0DF256EC4}
  9
$EXTNAMES
290
     1
  9
$PSVPSCALE
 40
0.0
  9
$OLESTARTUP
290
     0
  0
ENDSEC
  0
SECTION
  2
CLASSES
  0
CLASS
  1
ACDBDICTIONARYWDFLT
  2
AcDbDictionaryWithDefault
  3
ObjectDBX Classes
 90
        0
280
     0
281
     0
  0
CLASS
  1
VISUALSTYLE
  2
AcDbVisualStyle
  3
ObjectDBX Classes
 90
     4095
280
     0
281
     0
  0
CLASS
  1
MATERIAL
  2
AcDbMaterial
  3
ObjectDBX Classes
 90
     1153
280
     0
281
     0
  0
CLASS
  1
SCALE
  2
AcDbScale
  3
ObjectDBX Classes
 90
     1153
280
     0
281
     0
  0
CLASS
  1
TABLESTYLE
  2
AcDbTableStyle
  3
ObjectDBX Classes
 90
     4095
280
     0
281
     0
  0
CLASS
  1
MLEADERSTYLE
  2
AcDbMLeaderStyle
  3
ACDB_MLEADERSTYLE_CLASS
 90
     4095
280
     0
281
     0
  0
CLASS
  1
SUN
  2
AcDbSun
  3
SCENEOE
 90
     1153
280
     0
281
     0
  0
CLASS
  1
ACDBPLACEHOLDER
  2
AcDbPlaceHolder
  3
ObjectDBX Classes
 90
        0
280
     0
281
     0
  0
CLASS
  1
LAYOUT
  2
AcDbLayout
  3
ObjectDBX Classes
 90
        0
280
     0
281
     0
  0
ENDSEC
  0
SECTION
  2
TABLES
  0
TABLE
  2
VPORT
  5
8
330
0
100
AcDbSymbolTable
 70
     1
  0
VPORT
  5
29
330
8
100
AcDbSymbolTableRecord
100
AcDbViewportTableRecord
  2
*Active
 70
     0
 10
0.0
 20
0.0
 11
1.0
 21
1.0
 12
297.0
 22
420.5
 13
0.0
 23
0.0
 14
10.0
 24
10.0
 15
10.0
 25
10.0
 16
0.0
 26
0.0
 36
1.0
 17
0.0
 27
0.0
 37
0.0
 40
841.0
 41
0.7063020214
 42
50.0
 43
0.0
 44
0.0
 50
0.0
 51
0.0
 71
     0
 72
  2000
 73
     1
 74
     3
 75
     0
 76
     0
 77
     0
 78
     0
281
     0
 65
     1
110
0.0
120
0.0
130
0.0
111
1.0
121
0.0
131
0.0
112
0.0
122
1.0
132
0.0
 79
     0
146
0.0
  0
ENDTAB
  0
TABLE
  2
LTYPE
  5
5
330
0
100
AcDbSymbolTable
 70
     6
  0
LTYPE
  5
14
330
5
100
AcDbSymbolTableRecord
100
AcDbLinetypeTableRecord
  2
ByBlock
 70
     0
  3

 72
    65
 73
     0
 40
0.0
  0
LTYPE
  5
15
330
5
100
AcDbSymbolTableRecord
100
AcDbLinetypeTableRecord
  2
ByLayer
 70
     0
  3

 72
    65
 73
     0
 40
0.0
  0
LTYPE
  5
16
330
5
100
AcDbSymbolTableRecord
100
AcDbLinetypeTableRecord
  2
Continuous
 70
     0
  3
Solid line
 72
    65
 73
     0
 40
0.0
  0
LTYPE
  5
5E
330
5
100
AcDbSymbolTableRecord
100
AcDbLinetypeTableRecord
  2
HIDDEN
 70
     0
  3
Hidden __ __ __ __ __ __ __ __ __ __ __ __ __ __
 72
    65
 73
     2
 40
1.905
 49
1.27
 74
     0
 49
-0.635
 74
     0
  0
LTYPE
  5
5F
330
5
100
AcDbSymbolTableRecord
100
AcDbLinetypeTableRecord
  2
PHANTOM
 70
     0
  3
Phantom ______  __  __  ______  __  __  ______
 72
    65
 73
     6
 40
12.7
 49
6.35
 74
     0
 49
-1.27
 74
     0
 49
1.27
 74
     0
 49
-1.27
 74
     0
 49
1.27
 74
     0
 49
-1.27
 74
     0
  0
LTYPE
  5
60
330
5
100
AcDbSymbolTableRecord
100
AcDbLinetypeTableRecord
  2
CENTER
 70
     0
  3
Center ____ _ ____ _ ____ _ ____ _ ____ _ ____
 72
    65
 73
     4
 40
10.16
 49
6.35
 74
     0
 49
-1.27
 74
     0
 49
1.27
 74
     0
 49
-1.27
 74
     0
  0
LTYPE
  5
61
330
5
100
AcDbSymbolTableRecord
100
AcDbLinetypeTableRecord
  2
CENTERX2
 70
     0
  3
Center (2x) ________  __  ________  __  _____
 72
    65
 73
     4
 40
20.32
 49
12.7
 74
     0
 49
-2.54
 74
     0
 49
2.54
 74
     0
 49
-2.54
 74
     0
  0
LTYPE
  5
62
330
5
100
AcDbSymbolTableRecord
100
AcDbLinetypeTableRecord
  2
DOT2
 70
     0
  3
Dot (.5x) ........................................
 72
    65
 73
     2
 40
0.635
 49
0.0
 74
     0
 49
-0.635
 74
     0
  0
ENDTAB
  0
TABLE
  2
LAYER
  5
2
330
0
100
AcDbSymbolTable
 70
     1
  0
LAYER
  5
10
330
2
100
AcDbSymbolTableRecord
100
AcDbLayerTableRecord
  2
0
 70
     0
 62
     7
  6
Continuous
370
    -3
390
F
  0
ENDTAB
  0
TABLE
  2
STYLE
  5
3
330
0
100
AcDbSymbolTable
 70
     3
  0
STYLE
  5
11
330
3
100
AcDbSymbolTableRecord
100
AcDbTextStyleTableRecord
  2
Standard
 70
     0
 40
0.0
 41
1.0
 50
0.0
 71
     0
 42
10.0
  3
txt
  4

  0
STYLE
  5
66
330
3
100
AcDbSymbolTableRecord
100
AcDbTextStyleTableRecord
  2
SLDTEXTSTYLE0
 70
     0
 40
0.0
 41
0.96
 50
0.0
 71
     0
 42
10.0
  3
ISOCP3
  4

  0
STYLE
  5
7D
330
3
100
AcDbSymbolTableRecord
100
AcDbTextStyleTableRecord
  2
SLDTEXTSTYLE1
 70
     0
 40
0.0
 41
0.605
 50
0.0
 71
     0
 42
10.0
  3
TXT
  4

  0
ENDTAB
  0
TABLE
  2
VIEW
  5
6
330
0
100
AcDbSymbolTable
 70
     0
  0
ENDTAB
  0
TABLE
  2
UCS
  5
7
330
0
100
AcDbSymbolTable
 70
     0
  0
ENDTAB
  0
TABLE
  2
APPID
  5
9
330
0
100
AcDbSymbolTable
 70
     1
  0
APPID
  5
12
330
9
100
AcDbSymbolTableRecord
100
AcDbRegAppTableRecord
  2
ACAD
 70
     0
  0
ENDTAB
  0
TABLE
  2
DIMSTYLE
  5
A
330
0
100
AcDbSymbolTable
 70
     2
100
AcDbDimStyleTable
  0
DIMSTYLE
105
27
330
A
100
AcDbSymbolTableRecord
100
AcDbDimStyleTableRecord
  2
ISO-25
 70
     0
 41
2.5
 42
0.625
 43
3.75
 44
1.25
 73
     0
 74
     0
 77
     1
 78
     8
140
2.5
141
2.5
143
0.0393700787
147
0.625
171
     3
172
     1
178
     0
271
     2
272
     2
274
     3
278
    44
283
     0
284
     8
340
11
  0
DIMSTYLE
105
67
102
{ACAD_REACTORS
330
65
330
72
102
}
330
A
100
AcDbSymbolTableRecord
100
AcDbDimStyleTableRecord
  2
SLDDIMSTYLE0
 70
     0
 41
2.5
 44
0.0
 45
0.000000001
 73
     0
 74
     0
 77
     1
 78
    12
 79
     3
140
6.0
147
1.5
173
     1
178
     0
271
     2
272
     2
276
     2
284
    12
340
66
  0
ENDTAB
  0
TABLE
  2
BLOCK_RECORD
  5
1
330
0
100
AcDbSymbolTable
 70
     3
  0
BLOCK_RECORD
  5
1F
330
1
100
AcDbSymbolTableRecord
100
AcDbBlockTableRecord
  2
*Model_Space
340
22
  0
BLOCK_RECORD
  5
1B
330
1
100
AcDbSymbolTableRecord
100
AcDbBlockTableRecord
  2
*Paper_Space
340
1E
  0
BLOCK_RECORD
  5
23
330
1
100
AcDbSymbolTableRecord
100
AcDbBlockTableRecord
  2
*Paper_Space0
340
26
  0
BLOCK_RECORD
  5
68
330
1
100
AcDbSymbolTableRecord
100
AcDbBlockTableRecord
  2
_D
340
0
  0
BLOCK_RECORD
  5
73
330
1
100
AcDbSymbolTableRecord
100
AcDbBlockTableRecord
  2
_D_1
340
0
  0
ENDTAB
  0
ENDSEC
  0
SECTION
  2
BLOCKS
  0
BLOCK
  5
20
330
1F
100
AcDbEntity
  8
0
100
AcDbBlockBegin
  2
*Model_Space
 70
     0
 10
0.0
 20
0.0
 30
0.0
  3
*Model_Space
  1

  0
ENDBLK
  5
21
330
1F
100
AcDbEntity
  8
0
100
AcDbBlockEnd
  0
BLOCK
  5
1C
330
1B
100
AcDbEntity
 67
     1
  8
0
100
AcDbBlockBegin
  2
*Paper_Space
 70
     0
 10
0.0
 20
0.0
 30
0.0
  3
*Paper_Space
  1

  0
ENDBLK
  5
1D
330
1B
100
AcDbEntity
 67
     1
  8
0
100
AcDbBlockEnd
  0
BLOCK
  5
24
330
23
100
AcDbEntity
  8
0
100
AcDbBlockBegin
  2
*Paper_Space0
 70
     0
 10
0.0
 20
0.0
 30
0.0
  3
*Paper_Space0
  1

  0
ENDBLK
  5
25
330
23
100
AcDbEntity
  8
0
100
AcDbBlockEnd
  0
BLOCK
  5
69
330
68
100
AcDbEntity
  8
0
100
AcDbBlockBegin
  2
_D
 70
     0
 10
0.0
 20
0.0
 30
0.0
  3
_D
  1

  0
SOLID
  5
6B
330
68
100
AcDbEntity
  8
0
  6
Continuous
 62
     7
370
    18
100
AcDbTrace
 10
42.7614395004
 20
152.0299240879
 30
0.0
 11
42.4614395004
 21
149.5299240879
 31
0.0
 12
43.0614395004
 22
149.5299240879
 32
0.0
 13
43.0614395004
 23
149.5299240879
 33
0.0
  0
SOLID
  5
6C
330
68
100
AcDbEntity
  8
0
  6
Continuous
 62
     7
370
    18
100
AcDbTrace
 10
42.7614395004
 20
52.0299240879
 30
0.0
 11
43.0614395004
 21
54.5299240879
 31
0.0
 12
42.4614395004
 22
54.5299240879
 32
0.0
 13
42.4614395004
 23
54.5299240879
 33
0.0
  0
LINE
  5
6D
330
68
100
AcDbEntity
  8
0
  6
Continuous
 62
     7
370
     0
100
AcDbLine
 10
56.6850079902
 20
152.0299240879
 30
0.0
 11
41.7614395004
 21
152.0299240879
 31
0.0
  0
LINE
  5
6E
330
68
100
AcDbEntity
  8
0
  6
Continuous
 62
     7
370
     0
100
AcDbLine
 10
56.6850079902
 20
52.0299240879
 30
0.0
 11
41.7614395004
 21
52.0299240879
 31
0.0
  0
LINE
  5
6F
330
68
100
AcDbEntity
  8
0
  6
Continuous
 62
     7
370
     0
100
AcDbLine
 10
42.7614395004
 20
152.0299240879
 30
0.0
 11
42.7614395004
 21
52.0299240879
 31
0.0
  0
MTEXT
  5
70
330
68
100
AcDbEntity
  8
0
  6
Continuous
 62
     7
370
    18
100
AcDbMText
 10
35.0270332946
 20
94.3680541463
 30
0.0
 40
6.0
 41
0.0
 71
     1
 72
     1
  1
100
  7
SLDTEXTSTYLE0
 11
-7.044195017643634E-15
 21
1.0
 31
0.0
 73
     1
 44
1.0
  0
MTEXT
  5
71
330
68
100
AcDbEntity
  8
0
  6
Continuous
 62
     7
370
    18
100
AcDbMText
 10
35.0270332946
 20
105.7430548466
 30
0.0
 40
6.0
 41
0.0
 71
     1
 72
     1
  1
mm
  7
SLDTEXTSTYLE0
 11
-7.044195017643634E-15
 21
1.0
 31
0.0
 73
     1
 44
1.0
  0
ENDBLK
  5
6A
330
68
100
AcDbEntity
  8
0
100
AcDbBlockEnd
  0
BLOCK
  5
74
330
73
100
AcDbEntity
  8
0
100
AcDbBlockBegin
  2
_D_1
 70
     0
 10
0.0
 20
0.0
 30
0.0
  3
_D_1
  1

  0
SOLID
  5
76
330
73
100
AcDbEntity
  8
0
  6
Continuous
 62
     7
370
    18
100
AcDbTrace
 10
56.6850079902
 20
38.4602342313
 30
0.0
 11
59.1850079902
 21
38.1602342313
 31
0.0
 12
59.1850079902
 22
38.7602342313
 32
0.0
 13
59.1850079902
 23
38.7602342313
 33
0.0
  0
SOLID
  5
77
330
73
100
AcDbEntity
  8
0
  6
Continuous
 62
     7
370
    18
100
AcDbTrace
 10
156.6850079902
 20
38.4602342313
 30
0.0
 11
154.1850079902
 21
38.7602342313
 31
0.0
 12
154.1850079902
 22
38.1602342313
 32
0.0
 13
154.1850079902
 23
38.1602342313
 33
0.0
  0
LINE
  5
78
330
73
100
AcDbEntity
  8
0
  6
Continuous
 62
     7
370
     0
100
AcDbLine
 10
56.6850079902
 20
52.0299240879
 30
0.0
 11
56.6850079902
 21
37.4602342313
 31
0.0
  0
LINE
  5
79
330
73
100
AcDbEntity
  8
0
  6
Continuous
 62
     7
370
     0
100
AcDbLine
 10
156.6850079902
 20
52.0299240879
 30
0.0
 11
156.6850079902
 21
37.4602342313
 31
0.0
  0
LINE
  5
7A
330
73
100
AcDbEntity
  8
0
  6
Continuous
 62
     7
370
     0
100
AcDbLine
 10
56.6850079902
 20
38.4602342313
 30
0.0
 11
156.6850079902
 21
38.4602342313
 31
0.0
  0
MTEXT
  5
7B
330
73
100
AcDbEntity
  8
0
  6
Continuous
 62
     7
370
    18
100
AcDbMText
 10
93.9626484861
 20
46.1946404371
 30
0.0
 40
6.0
 41
0.0
 71
     1
 72
     1
  1
100
  7
SLDTEXTSTYLE0
 73
     1
 44
1.0
  0
MTEXT
  5
7C
330
73
100
AcDbEntity
  8
0
  6
Continuous
 62
     7
370
    18
100
AcDbMText
 10
105.3376491864
 20
46.1946404371
 30
0.0
 40
6.0
 41
0.0
 71
     1
 72
     1
  1
mm
  7
SLDTEXTSTYLE0
 73
     1
 44
1.0
  0
ENDBLK
  5
75
330
73
100
AcDbEntity
  8
0
100
AcDbBlockEnd
  0
ENDSEC
  0
SECTION
  2
ENTITIES
  0
LINE
  5
63
330
1F
100
AcDbEntity
  8
0
  6
Continuous
 62
     7
370
    18
100
AcDbLine
 10
56.6850079902
 20
152.0299240879
 30
0.0
 11
56.6850079902
 21
52.0299240879
 31
0.0
  0
LINE
  5
64
330
1F
100
AcDbEntity
  8
0
  6
Continuous
 62
     7
370
    18
100
AcDbLine
 10
56.6850079902
 20
52.0299240879
 30
0.0
 11
156.6850079902
 21
52.0299240879
 31
0.0
  0
DIMENSION
  5
65
330
1F
100
AcDbEntity
  8
0
  6
Continuous
 62
     7
370
    18
100
AcDbDimension
  2
_D
 10
42.7614395004
 20
52.0299240879
 30
0.0
 11
42.7614395004
 21
105.4472211621
 31
0.0
 70
   160
  1
<>mm
 71
     2
 42
-1.0
  3
SLDDIMSTYLE0
100
AcDbAlignedDimension
 13
56.6850079902
 23
152.0299240879
 33
0.0
 14
56.6850079902
 24
52.0299240879
 34
0.0
 50
90.0
100
AcDbRotatedDimension
  0
DIMENSION
  5
72
330
1F
100
AcDbEntity
  8
0
  6
Continuous
 62
     7
370
    18
100
AcDbDimension
  2
_D_1
 10
156.6850079902
 20
38.4602342313
 30
0.0
 11
105.0418155019
 21
38.4602342313
 31
0.0
 70
   160
  1
<>mm
 71
     2
 42
-1.0
  3
SLDDIMSTYLE0
100
AcDbAlignedDimension
 13
56.6850079902
 23
52.0299240879
 33
0.0
 14
156.6850079902
 24
52.0299240879
 34
0.0
100
AcDbRotatedDimension
  0
MTEXT
  5
7E
330
1F
100
AcDbEntity
  8
0
  6
Continuous
 62
     7
370
     0
100
AcDbMText
 10
412.8252631579
 20
48.4342449499
 30
0.0
 40
10.0
 41
0.0
 71
     1
 72
     1
  1
KLUDI GmbH & Co KG
  7
SLDTEXTSTYLE1
 73
     1
 44
1.0
  0
MTEXT
  5
7F
330
1F
100
AcDbEntity
  8
0
  6
Continuous
 62
     7
370
     0
100
AcDbMText
 10
210.0873490389
 20
48.4342449499
 30
0.0
 40
10.0
 41
0.0
 71
     1
 72
     1
  1
54 847..75
  7
SLDTEXTSTYLE1
 73
     1
 44
1.0
  0
SPLINE
  5
80
330
1F
100
AcDbEntity
  8
0
  6
Continuous
 62
     7
370
    25
100
AcDbSpline
210
0.0
220
0.0
230
1.0
 70
     8
 71
     3
 72
    16
 73
    12
 74
     0
 42
0.00000001
 43
0.00000001
 40
0.0
 40
0.0
 40
0.0
 40
0.0
 40
0.1057030580189527
 40
0.2127580367761575
 40
0.3211649804301464
 40
0.4309239300103874
 40
0.5420349235510591
 40
0.65449799621671
 40
0.7683131804205288
 40
0.8834805059356465
 40
1.0
 40
1.0
 40
1.0
 40
1.0
 10
187.5997125215953
 20
314.8310391743294
 30
0.0
 10
187.5710674752376
 20
314.8009852059754
 30
0.0
 10
187.5134110181717
 20
314.7404928850892
 30
0.0
 10
187.4364077458655
 20
314.6403812340873
 30
0.0
 10
187.3667007448209
 20
314.533279510715
 30
0.0
 10
187.3058133249551
 20
314.4190596506806
 30
0.0
 10
187.2543953419882
 20
314.2985622112478
 30
0.0
 10
187.2131953458683
 20
314.1724896396304
 30
0.0
 10
187.1832159054869
 20
314.0417076689574
 30
0.0
 10
187.1640005511866
 20
313.9071608831156
 30
0.0
 10
187.1615961203502
 20
313.8161785729245
 30
0.0
 10
187.160386888573
 20
313.7704219227554
 30
0.0
  0
SPLINE
  5
81
330
1F
100
AcDbEntity
  8
0
  6
Continuous
 62
     7
370
    25
100
AcDbSpline
210
0.0
220
0.0
230
1.0
 70
     8
 71
     3
 72
    17
 73
    13
 74
     0
 42
0.00000001
 43
0.00000001
 40
0.0
 40
0.0
 40
0.0
 40
0.0
 40
0.1049290128402316
 40
0.2087626174290065
 40
0.3115008378520629
 40
0.413143699797613
 40
0.5136912306173694
 40
0.613143459390861
 40
0.7115004169933861
 40
0.8087621361677378
 40
0.9049286516000604
 40
1.0
 40
1.0
 40
1.0
 40
1.0
 10
188.6603297731693
 20
315.2703648073516
 30
0.0
 10
188.6191248756543
 20
315.2693841842014
 30
0.0
 10
188.5371452398673
 20
315.2674331751333
 30
0.0
 10
188.4156480486112
 20
315.2518199022718
 30
0.0
 10
188.2970365681268
 20
315.2273927768748
 30
0.0
 10
188.1820201105997
 20
315.1937085572864
 30
0.0
 10
188.0712413883485
 20
315.1515207941212
 30
0.0
 10
187.96529313394
 20
315.1013039732599
 30
0.0
 10
187.8646509855004
 20
315.0436951414831
 30
0.0
 10
187.769916585859
 20
314.9791430156035
 30
0.0
 10
187.6809254806482
 20
314.9088204487354
 30
0.0
 10
187.6266799581807
 20
314.8568670915675
 30
0.0
 10
187.5997125215953
 20
314.8310391743294
 30
0.0
  0
SPLINE
  5
82
330
1F
100
AcDbEntity
  8
0
  6
Continuous
 62
     7
370
    25
100
AcDbSpline
210
0.0
220
0.0
230
1.0
 70
     8
 71
     3
 72
    16
 73
    12
 74
     0
 42
0.00000001
 43
0.00000001
 40
0.0
 40
0.0
 40
0.0
 40
0.0
 40
0.1057030580188662
 40
0.2127580367760147
 40
0.3211649804299606
 40
0.4309239300101836
 40
0.5420349235508543
 40
0.654497996216526
 40
0.7683131804203852
 40
0.8834805059355682
 40
1.0
 40
1.0
 40
1.0
 40
1.0
 10
228.2157794416834
 20
314.8310391743294
 30
0.0
 10
228.1857254733294
 20
314.859684220687
 30
0.0
 10
228.1252331524432
 20
314.9173406777529
 30
0.0
 10
228.0251215014415
 20
314.994343950059
 30
0.0
 10
227.9180197780692
 20
315.0640509511036
 30
0.0
 10
227.8037999180349
 20
315.1249383709694
 30
0.0
 10
227.6833024786019
 20
315.1763563539364
 30
0.0
 10
227.5572299069846
 20
315.2175563500563
 30
0.0
 10
227.4264479363116
 20
315.2475357904377
 30
0.0
 10
227.2919011504698
 20
315.266751144738
 30
0.0
 10
227.2009188402785
 20
315.2691555755745
 30
0.0
 10
227.1551621901094
 20
315.2703648073516
 30
0.0
  0
SPLINE
  5
83
330
1F
100
AcDbEntity
  8
0
  6
Continuous
 62
     7
370
    25
100
AcDbSpline
210
0.0
220
0.0
230
1.0
 70
     8
 71
     3
 72
    17
 73
    13
 74
     0
 42
0.00000001
 43
0.00000001
 40
0.0
 40
0.0
 40
0.0
 40
0.0
 40
0.1049290128402693
 40
0.2087626174290738
 40
0.3115008378521471
 40
0.4131436997977131
 40
0.513691230617471
 40
0.6131434593909578
 40
0.7115004169934668
 40
0.8087621361678041
 40
0.9049286516000967
 40
1.0
 40
1.0
 40
1.0
 40
1.0
 10
228.6551050747056
 20
313.7704219227554
 30
0.0
 10
228.6541244515554
 20
313.8116268202704
 30
0.0
 10
228.6521734424873
 20
313.8936064560574
 30
0.0
 10
228.6365601696258
 20
314.0151036473135
 30
0.0
 10
228.6121330442287
 20
314.1337151277979
 30
0.0
 10
228.5784488246403
 20
314.2487315853251
 30
0.0
 10
228.5362610614752
 20
314.3595103075763
 30
0.0
 10
228.4860442406138
 20
314.4654585619848
 30
0.0
 10
228.4284354088371
 20
314.5661007104243
 30
0.0
 10
228.3638832829575
 20
314.6608351100658
 30
0.0
 10
228.2935607160894
 20
314.7498262152765
 30
0.0
 10
228.2416073589215
 20
314.8040717377439
 30
0.0
 10
228.2157794416834
 20
314.8310391743294
 30
0.0
  0
SPLINE
  5
84
330
1F
100
AcDbEntity
  8
0
  6
Continuous
 62
     7
370
    25
100
AcDbSpline
210
0.0
220
0.0
230
1.0
 70
     8
 71
     3
 72
    16
 73
    12
 74
     0
 42
0.00000001
 43
0.00000001
 40
0.0
 40
0.0
 40
0.0
 40
0.0
 40
0.1057030580186641
 40
0.2127580367756609
 40
0.3211649804295023
 40
0.4309239300096809
 40
0.5420349235503481
 40
0.6544979962160723
 40
0.7683131804200338
 40
0.8834805059353668
 40
1.0
 40
1.0
 40
1.0
 40
1.0
 10
187.5997125215953
 20
274.2149722542412
 30
0.0
 10
187.6297664899492
 20
274.1863272078837
 30
0.0
 10
187.6902588108353
 20
274.1286707508179
 30
0.0
 10
187.7903704618369
 20
274.0516674785118
 30
0.0
 10
187.897472185209
 20
273.9819604774673
 30
0.0
 10
188.0116920452433
 20
273.9210730576015
 30
0.0
 10
188.1321894846762
 20
273.8696550746345
 30
0.0
 10
188.2582620562935
 20
273.8284550785144
 30
0.0
 10
188.3890440269667
 20
273.798475638133
 30
0.0
 10
188.5235908128087
 20
273.7792602838326
 30
0.0
 10
188.6145731230001
 20
273.7768558529962
 30
0.0
 10
188.6603297731693
 20
273.775646621219
 30
0.0
  0
SPLINE
  5
85
330
1F
100
AcDbEntity
  8
0
  6
Continuous
 62
     7
370
    25
100
AcDbSpline
210
0.0
220
0.0
230
1.0
 70
     8
 71
     3
 72
    17
 73
    13
 74
     0
 42
0.00000001
 43
0.00000001
 40
0.0
 40
0.0
 40
0.0
 40
0.0
 40
0.1049290128405677
 40
0.2087626174296021
 40
0.3115008378528416
 40
0.413143699798508
 40
0.5136912306183006
 40
0.613143459391753
 40
0.7115004169941636
 40
0.8087621361683323
 40
0.9049286516003953
 40
1.0
 40
1.0
 40
1.0
 40
1.0
 10
187.160386888573
 20
275.2755895058153
 30
0.0
 10
187.1613675117233
 20
275.2343846083001
 30
0.0
 10
187.1633185207913
 20
275.1524049725129
 30
0.0
 10
187.1789317936529
 20
275.0309077812565
 30
0.0
 10
187.2033589190501
 20
274.9122963007719
 30
0.0
 10
187.2370431386386
 20
274.7972798432447
 30
0.0
 10
187.2792309018039
 20
274.6865011209935
 30
0.0
 10
187.3294477226653
 20
274.580552866585
 30
0.0
 10
187.387056554442
 20
274.4799107181457
 30
0.0
 10
187.4516086803216
 20
274.3851763185044
 30
0.0
 10
187.5219312471895
 20
274.2961852132938
 30
0.0
 10
187.5738846043572
 20
274.2419396908266
 30
0.0
 10
187.5997125215953
 20
274.2149722542412
 30
0.0
  0
SPLINE
  5
86
330
1F
100
AcDbEntity
  8
0
  6
Continuous
 62
     7
370
    25
100
AcDbSpline
210
0.0
220
0.0
230
1.0
 70
     8
 71
     3
 72
    14
 73
    10
 74
     0
 42
0.00000001
 43
0.00000001
 40
0.0
 40
0.0
 40
0.0
 40
0.0
 40
0.25
 40
0.25
 40
0.5
 40
0.5
 40
0.75
 40
0.75
 40
1.0
 40
1.0
 40
1.0
 40
1.0
 10
227.1551621901094
 20
273.775646621219
 30
0.0
 10
227.3515420840619
 20
273.7756496119977
 30
0.0
 10
227.5477716091372
 20
273.8146906542159
 30
0.0
 10
227.9105626164747
 20
273.9649648353277
 30
0.0
 10
228.0769460969213
 20
274.0761389094792
 30
0.0
 10
228.3546127864454
 20
274.3538055990033
 30
0.0
 10
228.465786860597
 20
274.5201890794499
 30
0.0
 10
228.6160610417087
 20
274.8829800867873
 30
0.0
 10
228.6551020839269
 20
275.0792096118628
 30
0.0
 10
228.6551050747056
 20
275.2755895058153
 30
0.0
  0
LINE
  5
87
330
1F
100
AcDbEntity
  8
0
  6
Continuous
 62
     7
370
    25
100
AcDbLine
 10
228.6551050747
 20
313.7704219228
 30
0.0
 11
228.6551050747
 21
275.2755895058
 31
0.0
  0
LINE
  5
88
330
1F
100
AcDbEntity
  8
0
  6
Continuous
 62
     7
370
    25
100
AcDbLine
 10
187.1603868886
 20
275.2755895058
 30
0.0
 11
187.1603868886
 21
313.7704219228
 31
0.0
  0
LINE
  5
89
330
1F
100
AcDbEntity
  8
0
  6
Continuous
 62
     7
370
    25
100
AcDbLine
 10
188.6603297732
 20
315.2703648074
 30
0.0
 11
227.1551621901
 21
315.2703648074
 31
0.0
  0
LINE
  5
8A
330
1F
100
AcDbEntity
  8
0
  6
Continuous
 62
     7
370
    25
100
AcDbLine
 10
227.1551621901
 20
273.7756466212
 30
0.0
 11
188.6603297732
 21
273.7756466212
 31
0.0
  0
SPLINE
  5
8B
330
1F
100
AcDbEntity
  8
0
  6
Continuous
 62
     7
370
    25
100
AcDbSpline
210
0.0
220
0.0
230
1.0
 70
     8
 71
     3
 72
    18
 73
    14
 74
     0
 42
0.00000001
 43
0.00000001
 40
0.0
 40
0.0
 40
0.0
 40
0.0
 40
0.0863807640641049
 40
0.1736665713609804
 40
0.2618576428871709
 40
0.350954192452779
 40
0.4409564269645012
 40
0.5318645466947644
 40
0.6236787455377022
 40
0.7163992112527642
 40
0.8100261256967128
 40
0.9045596650445242
 40
1.0
 40
1.0
 40
1.0
 40
1.0
 10
247.459937641787
 20
334.075197374433
 30
0.0
 10
247.4273342510561
 20
334.1065466063112
 30
0.0
 10
247.3617858718038
 20
334.1695735275717
 30
0.0
 10
247.2550367296661
 20
334.2557966953394
 30
0.0
 10
247.1418884563585
 20
334.3357862136226
 30
0.0
 10
247.0221083094689
 20
334.4083126867694
 30
0.0
 10
246.8962923754244
 20
334.472929324084
 30
0.0
 10
246.7648863478893
 20
334.5290054147515
 30
0.0
 10
246.6284522211481
 20
334.5759689558262
 30
0.0
 10
246.4875953833862
 20
334.6133517207945
 30
0.0
 10
246.3429833938937
 20
334.6403914980485
 30
0.0
 10
246.1953392509303
 20
334.657636265467
 30
0.0
 10
246.0958814238058
 20
334.6597888395067
 30
0.0
 10
246.0459151409707
 20
334.6608702639295
 30
0.0
  0
SPLINE
  5
8C
330
1F
100
AcDbEntity
  8
0
  6
Continuous
 62
     7
370
    25
100
AcDbSpline
210
0.0
220
0.0
230
1.0
 70
     8
 71
     3
 72
    19
 73
    15
 74
     0
 42
0.00000001
 43
0.00000001
 40
0.0
 40
0.0
 40
0.0
 40
0.0
 40
0.0875219065052871
 40
0.174281782429396
 40
0.2602797601982956
 40
0.3455159760638839
 40
0.4299905702389538
 40
0.5137036870381267
 40
0.5966554750252983
 40
0.6788460871677462
 40
0.7602756809974137
 40
0.8409444187797279
 40
0.9208524676902834
 40
0.9999999999999999
 40
0.9999999999999999
 40
0.9999999999999999
 40
0.9999999999999999
 10
248.0456105312835
 20
332.6611748736167
 30
0.0
 10
248.0447010698371
 20
332.7069954360836
 30
0.0
 10
248.0428900653898
 20
332.7982376132426
 30
0.0
 10
248.0283694349384
 20
332.9338612187216
 30
0.0
 10
248.0055605312725
 20
333.0670428943407
 30
0.0
 10
247.9739613115773
 20
333.1972166580799
 30
0.0
 10
247.9341699853721
 20
333.3238564176652
 30
0.0
 10
247.8865286313452
 20
333.4464757409293
 30
0.0
 10
247.8314810537518
 20
333.5646330806023
 30
0.0
 10
247.7694580743727
 20
333.6779157105426
 30
0.0
 10
247.7009594032368
 20
333.786000426151
 30
0.0
 10
247.6263204887326
 20
333.8884303493235
 30
0.0
 10
247.5465314088829
 20
333.9854351296734
 30
0.0
 10
247.4887100741767
 20
334.0453721548461
 30
0.0
 10
247.459937641787
 20
334.075197374433
 30
0.0
  0
SPLINE
  5
8D
330
1F
100
AcDbEntity
  8
0
  6
Continuous
 62
     7
370
    25
100
AcDbSpline
210
0.0
220
0.0
230
1.0
 70
     8
 71
     3
 72
    18
 73
    14
 74
     0
 42
0.00000001
 43
0.00000001
 40
0.0
 40
0.0
 40
0.0
 40
0.0
 40
0.0863807640641111
 40
0.1736665713609928
 40
0.2618576428871833
 40
0.350954192452795
 40
0.440956426964521
 40
0.5318645466947841
 40
0.6236787455377204
 40
0.7163992112527824
 40
0.8100261256967258
 40
0.9045596650445287
 40
0.9999999999999999
 40
0.9999999999999999
 40
0.9999999999999999
 40
0.9999999999999999
 10
168.3555543214917
 20
254.9708140541376
 30
0.0
 10
168.3881577122226
 20
254.9394648222594
 30
0.0
 10
168.453706091475
 20
254.8764379009989
 30
0.0
 10
168.5604552336127
 20
254.7902147332311
 30
0.0
 10
168.6736035069203
 20
254.710225214948
 30
0.0
 10
168.7933836538098
 20
254.6376987418012
 30
0.0
 10
168.9191995878543
 20
254.5730821044866
 30
0.0
 10
169.0506056153895
 20
254.5170060138192
 30
0.0
 10
169.1870397421306
 20
254.4700424727445
 30
0.0
 10
169.3278965798926
 20
254.4326597077761
 30
0.0
 10
169.472508569385
 20
254.4056199305221
 30
0.0
 10
169.6201527123484
 20
254.3883751631036
 30
0.0
 10
169.7196105394729
 20
254.3862225890639
 30
0.0
 10
169.769576822308
 20
254.3851411646411
 30
0.0
  0
SPLINE
  5
8E
330
1F
100
AcDbEntity
  8
0
  6
Continuous
 62
     7
370
    25
100
AcDbSpline
210
0.0
220
0.0
230
1.0
 70
     8
 71
     3
 72
    19
 73
    15
 74
     0
 42
0.00000001
 43
0.00000001
 40
0.0
 40
0.0
 40
0.0
 40
0.0
 40
0.0875219065052787
 40
0.1742817824293792
 40
0.2602797601982698
 40
0.3455159760638584
 40
0.4299905702389231
 40
0.5137036870380964
 40
0.5966554750252664
 40
0.6788460871677127
 40
0.7602756809973905
 40
0.8409444187797085
 40
0.9208524676902706
 40
1.0
 40
1.0
 40
1.0
 40
1.0
 10
167.7698814319952
 20
256.3848365549539
 30
0.0
 10
167.7707908934416
 20
256.339015992487
 30
0.0
 10
167.772601897889
 20
256.247773815328
 30
0.0
 10
167.7871225283403
 20
256.112150209849
 30
0.0
 10
167.8099314320063
 20
255.97896853423
 30
0.0
 10
167.8415306517014
 20
255.8487947704908
 30
0.0
 10
167.8813219779066
 20
255.7221550109053
 30
0.0
 10
167.9289633319335
 20
255.5995356876413
 30
0.0
 10
167.9840109095269
 20
255.4813783479684
 30
0.0
 10
168.046033888906
 20
255.368095718028
 30
0.0
 10
168.1145325600419
 20
255.2600110024197
 30
0.0
 10
168.1891714745461
 20
255.1575810792471
 30
0.0
 10
168.2689605543958
 20
255.0605762988972
 30
0.0
 10
168.3267818891021
 20
255.0006392737245
 30
0.0
 10
168.3555543214917
 20
254.9708140541376
 30
0.0
  0
SPLINE
  5
8F
330
1F
100
AcDbEntity
  8
0
  6
Continuous
 62
     7
370
    25
100
AcDbSpline
210
0.0
220
0.0
230
1.0
 70
     8
 71
     3
 72
    18
 73
    14
 74
     0
 42
0.00000001
 43
0.00000001
 40
0.0
 40
0.0
 40
0.0
 40
0.0
 40
0.0863807640641049
 40
0.1736665713609832
 40
0.2618576428871712
 40
0.3509541924527791
 40
0.4409564269645013
 40
0.5318645466947645
 40
0.6236787455377022
 40
0.7163992112527643
 40
0.8100261256967128
 40
0.9045596650445242
 40
1.0
 40
1.0
 40
1.0
 40
1.0
 10
247.459937641787
 20
254.9708140541376
 30
0.0
 10
247.4912868736652
 20
255.0034174448685
 30
0.0
 10
247.5543137949258
 20
255.0689658241209
 30
0.0
 10
247.6405369626935
 20
255.1757149662586
 30
0.0
 10
247.7205264809766
 20
255.2888632395662
 30
0.0
 10
247.7930529541235
 20
255.4086433864557
 30
0.0
 10
247.857669591438
 20
255.5344593205002
 30
0.0
 10
247.9137456821055
 20
255.6658653480354
 30
0.0
 10
247.9607092231802
 20
255.8022994747766
 30
0.0
 10
247.9980919881486
 20
255.9431563125385
 30
0.0
 10
248.0251317654025
 20
256.087768302031
 30
0.0
 10
248.042376532821
 20
256.2354124449944
 30
0.0
 10
248.0445291068607
 20
256.3348702721188
 30
0.0
 10
248.0456105312835
 20
256.3848365549539
 30
0.0
  0
SPLINE
  5
90
330
1F
100
AcDbEntity
  8
0
  6
Continuous
 62
     7
370
    25
100
AcDbSpline
210
0.0
220
0.0
230
1.0
 70
     8
 71
     3
 72
    19
 73
    15
 74
     0
 42
0.00000001
 43
0.00000001
 40
0.0
 40
0.0
 40
0.0
 40
0.0
 40
0.0875219065052826
 40
0.1742817824293914
 40
0.2602797601982816
 40
0.3455159760638741
 40
0.4299905702389397
 40
0.5137036870381125
 40
0.5966554750252822
 40
0.6788460871677301
 40
0.7602756809974076
 40
0.840944418779719
 40
0.9208524676902774
 40
1.0
 40
1.0
 40
1.0
 40
1.0
 10
246.0459151409707
 20
254.3851411646412
 30
0.0
 10
246.0917357034376
 20
254.3860506260876
 30
0.0
 10
246.1829778805967
 20
254.3878616305349
 30
0.0
 10
246.3186014860756
 20
254.4023822609863
 30
0.0
 10
246.4517831616946
 20
254.4251911646522
 30
0.0
 10
246.5819569254339
 20
254.4567903843474
 30
0.0
 10
246.7085966850193
 20
254.4965817105526
 30
0.0
 10
246.8312160082833
 20
254.5442230645795
 30
0.0
 10
246.9493733479563
 20
254.5992706421728
 30
0.0
 10
247.0626559778967
 20
254.6612936215519
 30
0.0
 10
247.170740693505
 20
254.7297922926878
 30
0.0
 10
247.2731706166775
 20
254.804431207192
 30
0.0
 10
247.3701753970274
 20
254.8842202870418
 30
0.0
 10
247.4301124222002
 20
254.942041621748
 30
0.0
 10
247.4599376417871
 20
254.9708140541376
 30
0.0
  0
SPLINE
  5
91
330
1F
100
AcDbEntity
  8
0
  6
Continuous
 62
     7
370
    25
100
AcDbSpline
210
0.0
220
0.0
230
1.0
 70
     8
 71
     3
 72
    18
 73
    14
 74
     0
 42
0.00000001
 43
0.00000001
 40
0.0
 40
0.0
 40
0.0
 40
0.0
 40
0.0863807640641111
 40
0.1736665713609928
 40
0.2618576428871833
 40
0.350954192452795
 40
0.4409564269645191
 40
0.531864546694784
 40
0.6236787455377202
 40
0.716399211252778
 40
0.8100261256967214
 40
0.9045596650445288
 40
1.0
 40
1.0
 40
1.0
 40
1.0
 10
168.3555543214917
 20
334.075197374433
 30
0.0
 10
168.3242050896134
 20
334.0425939837021
 30
0.0
 10
168.2611781683529
 20
333.9770456044497
 30
0.0
 10
168.1749550005852
 20
333.870296462312
 30
0.0
 10
168.0949654823021
 20
333.7571481890044
 30
0.0
 10
168.0224390091552
 20
333.6373680421149
 30
0.0
 10
167.9578223718407
 20
333.5115521080704
 30
0.0
 10
167.9017462811732
 20
333.3801460805352
 30
0.0
 10
167.8547827400985
 20
333.243711953794
 30
0.0
 10
167.8173999751301
 20
333.1028551160321
 30
0.0
 10
167.7903601978762
 20
332.9582431265396
 30
0.0
 10
167.7731154304576
 20
332.8105989835763
 30
0.0
 10
167.770962856418
 20
332.7111411564517
 30
0.0
 10
167.7698814319952
 20
332.6611748736167
 30
0.0
  0
SPLINE
  5
92
330
1F
100
AcDbEntity
  8
0
  6
Continuous
 62
     7
370
    25
100
AcDbSpline
210
0.0
220
0.0
230
1.0
 70
     8
 71
     3
 72
    19
 73
    15
 74
     0
 42
0.00000001
 43
0.00000001
 40
0.0
 40
0.0
 40
0.0
 40
0.0
 40
0.0875219065052871
 40
0.1742817824294003
 40
0.2602797601982955
 40
0.3455159760638881
 40
0.4299905702389579
 40
0.5137036870381324
 40
0.5966554750253019
 40
0.6788460871677461
 40
0.7602756809974174
 40
0.8409444187797314
 40
0.9208524676902834
 40
1.0
 40
1.0
 40
1.0
 40
1.0
 10
169.769576822308
 20
334.6608702639294
 30
0.0
 10
169.7237562598411
 20
334.6599608024831
 30
0.0
 10
169.632514082682
 20
334.6581497980357
 30
0.0
 10
169.496890477203
 20
334.6436291675843
 30
0.0
 10
169.363708801584
 20
334.6208202639183
 30
0.0
 10
169.2335350378448
 20
334.5892210442232
 30
0.0
 10
169.1068952782594
 20
334.549429718018
 30
0.0
 10
168.9842759549953
 20
334.5017883639911
 30
0.0
 10
168.8661186153224
 20
334.4467407863978
 30
0.0
 10
168.752835985382
 20
334.3847178070186
 30
0.0
 10
168.6447512697737
 20
334.3162191358828
 30
0.0
 10
168.5423213466012
 20
334.2415802213785
 30
0.0
 10
168.4453165662513
 20
334.1617911415289
 30
0.0
 10
168.3853795410785
 20
334.1039698068226
 30
0.0
 10
168.3555543214917
 20
334.075197374433
 30
0.0
  0
LINE
  5
93
330
1F
100
AcDbEntity
  8
0
  6
Continuous
 62
     7
370
    25
100
AcDbLine
 10
248.0456105313
 20
332.6611748736
 30
0.0
 11
248.0456105313
 21
256.384836555
 31
0.0
  0
LINE
  5
94
330
1F
100
AcDbEntity
  8
0
  6
Continuous
 62
     7
370
    25
100
AcDbLine
 10
169.7695768223
 20
334.6608702639
 30
0.0
 11
246.045915141
 21
334.6608702639
 31
0.0
  0
LINE
  5
95
330
1F
100
AcDbEntity
  8
0
  6
Continuous
 62
     7
370
    25
100
AcDbLine
 10
167.769881432
 20
256.384836555
 30
0.0
 11
167.769881432
 21
332.6611748736
 31
0.0
  0
LINE
  5
96
330
1F
100
AcDbEntity
  8
0
  6
Continuous
 62
     7
370
    25
100
AcDbLine
 10
246.045915141
 20
254.3851411646
 30
0.0
 11
169.7695768223
 21
254.3851411646
 31
0.0
  0
LINE
  5
97
330
1F
100
AcDbEntity
  8
0
  6
Continuous
 62
     8
370
    18
100
AcDbLine
 10
188.9449170495
 20
275.5601767822
 30
0.0
 11
188.9449170495
 21
313.4858346464
 31
0.0
  0
LINE
  5
98
330
1F
100
AcDbEntity
  8
0
  6
Continuous
 62
     8
370
    18
100
AcDbLine
 10
187.4449741649
 20
275.5601767822
 30
0.0
 11
188.9449170495
 21
275.5601767822
 31
0.0
  0
LINE
  5
99
330
1F
100
AcDbEntity
  8
0
  6
Continuous
 62
     8
370
    18
100
AcDbLine
 10
187.4449741649
 20
275.5601767822
 30
0.0
 11
187.4449741649
 21
313.4858346464
 31
0.0
  0
LINE
  5
9A
330
1F
100
AcDbEntity
  8
0
  6
Continuous
 62
     8
370
    18
100
AcDbLine
 10
188.9449170495
 20
313.4858346464
 30
0.0
 11
187.4449741649
 21
313.4858346464
 31
0.0
  0
LINE
  5
9B
330
1F
100
AcDbEntity
  8
0
  6
Continuous
 62
     8
370
    18
100
AcDbLine
 10
188.9449170495
 20
313.4858346464
 30
0.0
 11
226.8705749137
 21
313.4858346464
 31
0.0
  0
LINE
  5
9C
330
1F
100
AcDbEntity
  8
0
  6
Continuous
 62
     8
370
    18
100
AcDbLine
 10
226.8705749137
 20
313.4858346464
 30
0.0
 11
226.8705749137
 21
275.5601767822
 31
0.0
  0
LINE
  5
9D
330
1F
100
AcDbEntity
  8
0
  6
Continuous
 62
     8
370
    18
100
AcDbLine
 10
226.8705749137
 20
275.5601767822
 30
0.0
 11
188.9449170495
 21
275.5601767822
 31
0.0
  0
LINE
  5
9E
330
1F
100
AcDbEntity
  8
0
  6
Continuous
 62
     8
370
    18
100
AcDbLine
 10
188.9449170495
 20
314.985777531
 30
0.0
 11
188.9449170495
 21
313.4858346464
 31
0.0
  0
LINE
  5
9F
330
1F
100
AcDbEntity
  8
0
  6
Continuous
 62
     8
370
    18
100
AcDbLine
 10
188.9449170495
 20
314.985777531
 30
0.0
 11
226.8705749137
 21
314.985777531
 31
0.0
  0
LINE
  5
A0
330
1F
100
AcDbEntity
  8
0
  6
Continuous
 62
     8
370
    18
100
AcDbLine
 10
226.8705749137
 20
313.4858346464
 30
0.0
 11
226.8705749137
 21
314.985777531
 31
0.0
  0
LINE
  5
A1
330
1F
100
AcDbEntity
  8
0
  6
Continuous
 62
     8
370
    18
100
AcDbLine
 10
228.3705177983
 20
313.4858346464
 30
0.0
 11
228.3705177983
 21
275.5601767822
 31
0.0
  0
LINE
  5
A2
330
1F
100
AcDbEntity
  8
0
  6
Continuous
 62
     8
370
    18
100
AcDbLine
 10
226.8705749137
 20
275.5601767822
 30
0.0
 11
228.3705177983
 21
275.5601767822
 31
0.0
  0
LINE
  5
A3
330
1F
100
AcDbEntity
  8
0
  6
Continuous
 62
     8
370
    18
100
AcDbLine
 10
228.3705177983
 20
313.4858346464
 30
0.0
 11
226.8705749137
 21
313.4858346464
 31
0.0
  0
LINE
  5
A4
330
1F
100
AcDbEntity
  8
0
  6
Continuous
 62
     8
370
    18
100
AcDbLine
 10
226.8705749137
 20
274.0602338976
 30
0.0
 11
188.9449170495
 21
274.0602338976
 31
0.0
  0
LINE
  5
A5
330
1F
100
AcDbEntity
  8
0
  6
Continuous
 62
     8
370
    18
100
AcDbLine
 10
188.9449170495
 20
275.5601767822
 30
0.0
 11
188.9449170495
 21
274.0602338976
 31
0.0
  0
LINE
  5
A6
330
1F
100
AcDbEntity
  8
0
  6
Continuous
 62
     8
370
    18
100
AcDbLine
 10
226.8705749137
 20
274.0602338976
 30
0.0
 11
226.8705749137
 21
275.5601767822
 31
0.0
  0
ARC
  5
A7
330
1F
100
AcDbEntity
  8
0
  6
Continuous
 62
     8
370
    18
100
AcDbCircle
 10
188.9450508393
 20
313.4857008566
 30
0.0
 40
1.500076680360146
100
AcDbArc
 50
90.0051101326
 51
179.9948898674
  0
ARC
  5
A8
330
1F
100
AcDbEntity
  8
0
  6
Continuous
 62
     8
370
    18
100
AcDbCircle
 10
188.9450508393
 20
275.560310572
 30
0.0
 40
1.50007668036026
100
AcDbArc
 50
180.0051101326
 51
269.9948898674
  0
ARC
  5
A9
330
1F
100
AcDbEntity
  8
0
  6
Continuous
 62
     8
370
    18
100
AcDbCircle
 10
226.8704411239
 20
313.4857008566
 30
0.0
 40
1.500076680360175
100
AcDbArc
 50
0.0051101326
 51
89.9948898674
  0
ARC
  5
AA
330
1F
100
AcDbEntity
  8
0
  6
Continuous
 62
     8
370
    18
100
AcDbCircle
 10
226.8704411239
 20
275.560310572
 30
0.0
 40
1.500076680360288
100
AcDbArc
 50
270.0051101326
 51
359.9948898674
  0
LINE
  5
AB
330
1F
100
AcDbEntity
  8
0
  6
Continuous
 62
     8
370
    18
100
AcDbLine
 10
188.6603297732
 20
315.2703648074
 30
0.0
 11
188.9449170495
 21
314.985777531
 31
0.0
  0
LINE
  5
AC
330
1F
100
AcDbEntity
  8
0
  6
Continuous
 62
     8
370
    18
100
AcDbLine
 10
187.4449741649
 20
313.4858346464
 30
0.0
 11
187.1603868886
 21
313.7704219228
 31
0.0
  0
LINE
  5
AD
330
1F
100
AcDbEntity
  8
0
  6
Continuous
 62
     8
370
    18
100
AcDbLine
 10
228.6551050747
 20
313.7704219228
 30
0.0
 11
228.3705177983
 21
313.4858346464
 31
0.0
  0
LINE
  5
AE
330
1F
100
AcDbEntity
  8
0
  6
Continuous
 62
     8
370
    18
100
AcDbLine
 10
226.8705749137
 20
314.985777531
 30
0.0
 11
227.1551621901
 21
315.2703648074
 31
0.0
  0
LINE
  5
AF
330
1F
100
AcDbEntity
  8
0
  6
Continuous
 62
     8
370
    18
100
AcDbLine
 10
187.1603868886
 20
275.2755895058
 30
0.0
 11
187.4449741649
 21
275.5601767822
 31
0.0
  0
LINE
  5
B0
330
1F
100
AcDbEntity
  8
0
  6
Continuous
 62
     8
370
    18
100
AcDbLine
 10
188.9449170495
 20
274.0602338976
 30
0.0
 11
188.6603297732
 21
273.7756466212
 31
0.0
  0
LINE
  5
B1
330
1F
100
AcDbEntity
  8
0
  6
Continuous
 62
     8
370
    18
100
AcDbLine
 10
227.1551621901
 20
273.7756466212
 30
0.0
 11
226.8705749137
 21
274.0602338976
 31
0.0
  0
LINE
  5
B2
330
1F
100
AcDbEntity
  8
0
  6
Continuous
 62
     8
370
    18
100
AcDbLine
 10
228.3705177983
 20
275.5601767822
 30
0.0
 11
228.6551050747
 21
275.2755895058
 31
0.0
  0
LINE
  5
B3
330
1F
100
AcDbEntity
  8
0
  6
Continuous
 62
     8
370
    18
100
AcDbLine
 10
245.9337762394
 20
255.997051609
 30
0.0
 11
169.8817157239
 21
255.997051609
 31
0.0
  0
LINE
  5
B4
330
1F
100
AcDbEntity
  8
0
  6
Continuous
 62
     8
370
    18
100
AcDbLine
 10
245.9337762394
 20
254.4972800662
 30
0.0
 11
245.9337762394
 21
255.997051609
 31
0.0
  0
LINE
  5
B5
330
1F
100
AcDbEntity
  8
0
  6
Continuous
 62
     8
370
    18
100
AcDbLine
 10
245.9337762394
 20
254.4972800662
 30
0.0
 11
169.8817157239
 21
254.4972800662
 31
0.0
  0
LINE
  5
B6
330
1F
100
AcDbEntity
  8
0
  6
Continuous
 62
     8
370
    18
100
AcDbLine
 10
169.8817157239
 20
255.997051609
 30
0.0
 11
169.8817157239
 21
254.4972800662
 31
0.0
  0
LINE
  5
B7
330
1F
100
AcDbEntity
  8
0
  6
Continuous
 62
     8
370
    18
100
AcDbLine
 10
169.8817157239
 20
333.0489598196
 30
0.0
 11
245.9337762394
 21
333.0489598196
 31
0.0
  0
LINE
  5
B8
330
1F
100
AcDbEntity
  8
0
  6
Continuous
 62
     8
370
    18
100
AcDbLine
 10
169.8817157239
 20
334.5487313623
 30
0.0
 11
169.8817157239
 21
333.0489598196
 31
0.0
  0
LINE
  5
B9
330
1F
100
AcDbEntity
  8
0
  6
Continuous
 62
     8
370
    18
100
AcDbLine
 10
169.8817157239
 20
334.5487313623
 30
0.0
 11
245.9337762394
 21
334.5487313623
 31
0.0
  0
LINE
  5
BA
330
1F
100
AcDbEntity
  8
0
  6
Continuous
 62
     8
370
    18
100
AcDbLine
 10
245.9337762394
 20
333.0489598196
 30
0.0
 11
245.9337762394
 21
334.5487313623
 31
0.0
  0
SPLINE
  5
BB
330
1F
100
AcDbEntity
  8
0
  6
Continuous
 62
     8
370
    18
100
AcDbSpline
210
0.0
220
0.0
230
1.0
 70
     8
 71
     3
 72
    12
 73
     8
 74
     0
 42
0.00000001
 43
0.00000001
 40
0.0
 40
0.0
 40
0.0
 40
0.0
 40
0.1665688703924325
 40
0.3323505923067357
 40
0.5002129602155954
 40
0.7493803296395605
 40
1.0
 40
1.0
 40
1.0
 40
1.0
 10
245.9337762393876
 20
255.9970516089589
 30
0.0
 10
245.95556850281
 20
255.9978572335607
 30
0.0
 10
245.9990500467448
 20
255.9994646756535
 30
0.0
 10
246.0634071961839
 20
256.0127357052988
 30
0.0
 10
246.1356108524554
 20
256.0372746518851
 30
0.0
 10
246.2139992461296
 20
256.0777541090139
 30
0.0
 10
246.2628091491471
 20
256.12152009629
 30
0.0
 10
246.2872850175286
 20
256.143466678396
 30
0.0
  0
SPLINE
  5
BC
330
1F
100
AcDbEntity
  8
0
  6
Continuous
 62
     8
370
    18
100
AcDbSpline
210
0.0
220
0.0
230
1.0
 70
     8
 71
     3
 72
     8
 73
     4
 74
     0
 42
0.00000001
 43
0.00000001
 40
0.0
 40
0.0
 40
0.0
 40
0.0
 40
1.0
 40
1.0
 40
1.0
 40
1.0
 10
169.5282069457501
 20
256.143466678396
 30
0.0
 10
169.6207656886193
 20
256.050907935896
 30
0.0
 10
169.7507979243624
 20
255.9970516092209
 30
0.0
 10
169.8817157238911
 20
255.9970516089589
 30
0.0
  0
SPLINE
  5
BD
330
1F
100
AcDbEntity
  8
0
  6
Continuous
 62
     8
370
    18
100
AcDbSpline
210
0.0
220
0.0
230
1.0
 70
     8
 71
     3
 72
    12
 73
     8
 74
     0
 42
0.00000001
 43
0.00000001
 40
0.0
 40
0.0
 40
0.0
 40
0.0
 40
0.1665688703924325
 40
0.3323505923067357
 40
0.5002129602155954
 40
0.7493803296395605
 40
1.0
 40
1.0
 40
1.0
 40
1.0
 10
169.3817918763129
 20
256.496975456537
 30
0.0
 10
169.3825975009148
 20
256.4751831931146
 30
0.0
 10
169.3842049430076
 20
256.4317016491798
 30
0.0
 10
169.3974759726529
 20
256.3673444997407
 30
0.0
 10
169.4220149192391
 20
256.2951408434692
 30
0.0
 10
169.462494376368
 20
256.2167524497951
 30
0.0
 10
169.5062603636441
 20
256.1679425467776
 30
0.0
 10
169.5282069457501
 20
256.143466678396
 30
0.0
  0
LINE
  5
BE
330
1F
100
AcDbEntity
  8
0
  6
Continuous
 62
     8
370
    18
100
AcDbLine
 10
169.3817918763
 20
256.4969754565
 30
0.0
 11
169.3817918763
 21
332.549035972
 31
0.0
  0
SPLINE
  5
BF
330
1F
100
AcDbEntity
  8
0
  6
Continuous
 62
     8
370
    18
100
AcDbSpline
210
0.0
220
0.0
230
1.0
 70
     8
 71
     3
 72
    12
 73
     8
 74
     0
 42
0.00000001
 43
0.00000001
 40
0.0
 40
0.0
 40
0.0
 40
0.0
 40
0.166546981377348
 40
0.3323150261576683
 40
0.5001726347380334
 40
0.7493502562372268
 40
1.0
 40
1.0
 40
1.0
 40
1.0
 10
169.5282069457501
 20
332.9025447501746
 30
0.0
 10
169.5133692849193
 20
332.8865675333668
 30
0.0
 10
169.4837633586737
 20
332.8546878248453
 30
0.0
 10
169.4476457702176
 20
332.7997988372288
 30
0.0
 10
169.413946507126
 20
332.7313902567047
 30
0.0
 10
169.3871455191082
 20
332.647331823461
 30
0.0
 10
169.3835799244475
 20
332.5818655276282
 30
0.0
 10
169.3817918763129
 20
332.5490359720336
 30
0.0
  0
SPLINE
  5
C0
330
1F
100
AcDbEntity
  8
0
  6
Continuous
 62
     8
370
    18
100
AcDbSpline
210
0.0
220
0.0
230
1.0
 70
     8
 71
     3
 72
    12
 73
     8
 74
     0
 42
0.00000001
 43
0.00000001
 40
0.0
 40
0.0
 40
0.0
 40
0.0
 40
0.1665688703932625
 40
0.3323505923075694
 40
0.5002129602156419
 40
0.7493803296404926
 40
1.0
 40
1.0
 40
1.0
 40
1.0
 10
169.8817157238911
 20
333.0489598196118
 30
0.0
 10
169.8599234604686
 20
333.0481541950099
 30
0.0
 10
169.8164419165337
 20
333.0465467529171
 30
0.0
 10
169.7520847670945
 20
333.0332757232718
 30
0.0
 10
169.6798811108231
 20
333.0087367766854
 30
0.0
 10
169.6014927171491
 20
332.9682573195565
 30
0.0
 10
169.5526828141315
 20
332.9244913322805
 30
0.0
 10
169.5282069457501
 20
332.9025447501746
 30
0.0
  0
SPLINE
  5
C1
330
1F
100
AcDbEntity
  8
0
  6
Continuous
 62
     8
370
    18
100
AcDbSpline
210
0.0
220
0.0
230
1.0
 70
     8
 71
     3
 72
    12
 73
     8
 74
     0
 42
0.00000001
 43
0.00000001
 40
0.0
 40
0.0
 40
0.0
 40
0.0
 40
0.166546981377348
 40
0.3323150261576683
 40
0.5001726347380334
 40
0.7493502562372268
 40
1.0
 40
1.0
 40
1.0
 40
1.0
 10
246.2872850175286
 20
332.9025447501746
 30
0.0
 10
246.2713078007208
 20
332.9173824110053
 30
0.0
 10
246.2394280921994
 20
332.946988337251
 30
0.0
 10
246.1845391045828
 20
332.9831059257072
 30
0.0
 10
246.1161305240588
 20
333.0168051887987
 30
0.0
 10
246.0320720908151
 20
333.0436061768165
 30
0.0
 10
245.9666057949823
 20
333.0471717714772
 30
0.0
 10
245.9337762393876
 20
333.0489598196118
 30
0.0
  0
SPLINE
  5
C2
330
1F
100
AcDbEntity
  8
0
  6
Continuous
 62
     8
370
    18
100
AcDbSpline
210
0.0
220
0.0
230
1.0
 70
     8
 71
     3
 72
    12
 73
     8
 74
     0
 42
0.00000001
 43
0.00000001
 40
0.0
 40
0.0
 40
0.0
 40
0.0
 40
0.1665688703924325
 40
0.3323505923067357
 40
0.5002129602155954
 40
0.7493803296395605
 40
1.0
 40
1.0
 40
1.0
 40
1.0
 10
246.4337000869658
 20
332.5490359720336
 30
0.0
 10
246.4328944623639
 20
332.570828235456
 30
0.0
 10
246.4312870202711
 20
332.6143097793908
 30
0.0
 10
246.4180159906259
 20
332.6786669288298
 30
0.0
 10
246.3934770440396
 20
332.7508705851014
 30
0.0
 10
246.3529975869107
 20
332.8292589787755
 30
0.0
 10
246.3092315996346
 20
332.8780688817931
 30
0.0
 10
246.2872850175286
 20
332.9025447501746
 30
0.0
  0
LINE
  5
C3
330
1F
100
AcDbEntity
  8
0
  6
Continuous
 62
     8
370
    18
100
AcDbLine
 10
246.433700087
 20
332.549035972
 30
0.0
 11
246.433700087
 21
256.4969754565
 31
0.0
  0
SPLINE
  5
C4
330
1F
100
AcDbEntity
  8
0
  6
Continuous
 62
     8
370
    18
100
AcDbSpline
210
0.0
220
0.0
230
1.0
 70
     8
 71
     3
 72
    12
 73
     8
 74
     0
 42
0.00000001
 43
0.00000001
 40
0.0
 40
0.0
 40
0.0
 40
0.0
 40
0.1665469813777081
 40
0.3323150261580273
 40
0.5001726347380518
 40
0.7493502562376159
 40
0.9999999999999999
 40
0.9999999999999999
 40
0.9999999999999999
 40
0.9999999999999999
 10
246.2872850175286
 20
256.143466678396
 30
0.0
 10
246.3021226783594
 20
256.1594438952039
 30
0.0
 10
246.331728604605
 20
256.1913236037253
 30
0.0
 10
246.3678461930612
 20
256.2462125913419
 30
0.0
 10
246.4015454561528
 20
256.314621171866
 30
0.0
 10
246.4283464441704
 20
256.3986796051096
 30
0.0
 10
246.4319120388312
 20
256.4641459009425
 30
0.0
 10
246.4337000869658
 20
256.496975456537
 30
0.0
  0
LINE
  5
C5
330
1F
100
AcDbEntity
  8
0
  6
Continuous
 62
     8
370
    18
100
AcDbLine
 10
247.9334716297
 20
332.549035972
 30
0.0
 11
246.433700087
 21
332.549035972
 31
0.0
  0
LINE
  5
C6
330
1F
100
AcDbEntity
  8
0
  6
Continuous
 62
     8
370
    18
100
AcDbLine
 10
247.9334716297
 20
332.549035972
 30
0.0
 11
247.9334716297
 21
256.4969754565
 31
0.0
  0
LINE
  5
C7
330
1F
100
AcDbEntity
  8
0
  6
Continuous
 62
     8
370
    18
100
AcDbLine
 10
246.433700087
 20
256.4969754565
 30
0.0
 11
247.9334716297
 21
256.4969754565
 31
0.0
  0
LINE
  5
C8
330
1F
100
AcDbEntity
  8
0
  6
Continuous
 62
     8
370
    18
100
AcDbLine
 10
167.8820203336
 20
256.4969754565
 30
0.0
 11
169.3817918763
 21
256.4969754565
 31
0.0
  0
LINE
  5
C9
330
1F
100
AcDbEntity
  8
0
  6
Continuous
 62
     8
370
    18
100
AcDbLine
 10
167.8820203336
 20
256.4969754565
 30
0.0
 11
167.8820203336
 21
332.549035972
 31
0.0
  0
LINE
  5
CA
330
1F
100
AcDbEntity
  8
0
  6
Continuous
 62
     8
370
    18
100
AcDbLine
 10
169.3817918763
 20
332.549035972
 30
0.0
 11
167.8820203336
 21
332.549035972
 31
0.0
  0
LINE
  5
CB
330
1F
100
AcDbEntity
  8
0
  6
Continuous
 62
     8
370
    18
100
AcDbLine
 10
169.5282069458
 20
332.9025447502
 30
0.0
 11
168.4678697875
 21
333.9628819084
 31
0.0
  0
SPLINE
  5
CC
330
1F
100
AcDbEntity
  8
0
  6
Continuous
 62
     8
370
    18
100
AcDbSpline
210
0.0
220
0.0
230
1.0
 70
     8
 71
     3
 72
    10
 73
     6
 74
     0
 42
0.00000001
 43
0.00000001
 40
0.0
 40
0.0
 40
0.0
 40
0.0
 40
0.5
 40
0.5
 40
1.0
 40
1.0
 40
1.0
 40
1.0
 10
168.4678697875442
 20
333.9628819083804
 30
0.0
 10
168.6529872729139
 20
334.14799939375
 30
0.0
 10
168.8747537785113
 20
334.2961895186752
 30
0.0
 10
169.3583650286873
 20
334.4965814988505
 30
0.0
 10
169.6199399896124
 20
334.5486715668853
 30
0.0
 10
169.8817157238911
 20
334.5487313623463
 30
0.0
  0
LINE
  5
CD
330
1F
100
AcDbEntity
  8
0
  6
Continuous
 62
     8
370
    18
100
AcDbLine
 10
169.5282069458
 20
256.1434666784
 30
0.0
 11
168.4678697875
 21
255.0831295202
 31
0.0
  0
SPLINE
  5
CE
330
1F
100
AcDbEntity
  8
0
  6
Continuous
 62
     8
370
    18
100
AcDbSpline
210
0.0
220
0.0
230
1.0
 70
     8
 71
     3
 72
    10
 73
     6
 74
     0
 42
0.00000001
 43
0.00000001
 40
0.0
 40
0.0
 40
0.0
 40
0.0
 40
0.5
 40
0.5
 40
1.0
 40
1.0
 40
1.0
 40
1.0
 10
168.4678697875442
 20
255.0831295201902
 30
0.0
 10
168.2827523021747
 20
255.2682470055598
 30
0.0
 10
168.1345621772495
 20
255.4900135111572
 30
0.0
 10
167.9341701970742
 20
255.9736247613332
 30
0.0
 10
167.8820801290393
 20
256.2351997222584
 30
0.0
 10
167.8820203335783
 20
256.496975456537
 30
0.0
  0
SPLINE
  5
CF
330
1F
100
AcDbEntity
  8
0
  6
Continuous
 62
     8
370
    18
100
AcDbSpline
210
0.0
220
0.0
230
1.0
 70
     8
 71
     3
 72
    19
 73
    15
 74
     0
 42
0.00000001
 43
0.00000001
 40
0.0
 40
0.0
 40
0.0
 40
0.0
 40
0.0875155696262819
 40
0.174270723500849
 40
0.2602654635968123
 40
0.3454997922149388
 40
0.4299737119930206
 40
0.5136872259156225
 40
0.5966403373243552
 40
0.6788330499285561
 40
0.7602653678165033
 40
0.8409372954671456
 40
0.9208488377623941
 40
1.0
 40
1.0
 40
1.0
 40
1.0
 10
169.8817157238911
 20
254.4972800662242
 30
0.0
 10
169.8359045421155
 20
254.4981991028569
 30
0.0
 10
169.7446802282414
 20
254.5000291906867
 30
0.0
 10
169.6090825063453
 20
254.5145755517731
 30
0.0
 10
169.475924237574
 20
254.5374078411661
 30
0.0
 10
169.3457714422563
 20
254.5690279515765
 30
0.0
 10
169.2191502007985
 20
254.6088377070858
 30
0.0
 10
169.0965469462602
 20
254.6564950205472
 30
0.0
 10
168.978403225055
 20
254.7115560905185
 30
0.0
 10
168.8651317570004
 20
254.7735900896812
 30
0.0
 10
168.7570557629905
 20
254.84209732594
 30
0.0
 10
168.6546320551806
 20
254.9167422864338
 30
0.0
 10
168.5576312158687
 20
254.9965351270738
 30
0.0
 10
168.4976947573174
 20
255.054356859088
 30
0.0
 10
168.4678697875442
 20
255.0831295201902
 30
0.0
  0
LINE
  5
D0
330
1F
100
AcDbEntity
  8
0
  6
Continuous
 62
     8
370
    18
100
AcDbLine
 10
246.2872850175
 20
332.9025447502
 30
0.0
 11
247.3476221757
 21
333.9628819084
 31
0.0
  0
SPLINE
  5
D1
330
1F
100
AcDbEntity
  8
0
  6
Continuous
 62
     8
370
    18
100
AcDbSpline
210
0.0
220
0.0
230
1.0
 70
     8
 71
     3
 72
    10
 73
     6
 74
     0
 42
0.00000001
 43
0.00000001
 40
0.0
 40
0.0
 40
0.0
 40
0.0
 40
0.5
 40
0.5
 40
1.0
 40
1.0
 40
1.0
 40
1.0
 10
247.3476221757345
 20
333.9628819083804
 30
0.0
 10
247.532739661104
 20
333.7777644230108
 30
0.0
 10
247.6809297860292
 20
333.5559979174133
 30
0.0
 10
247.8813217662045
 20
333.0723866672374
 30
0.0
 10
247.9334118342394
 20
332.8108117063122
 30
0.0
 10
247.9334716297004
 20
332.5490359720336
 30
0.0
  0
SPLINE
  5
D2
330
1F
100
AcDbEntity
  8
0
  6
Continuous
 62
     8
370
    18
100
AcDbSpline
210
0.0
220
0.0
230
1.0
 70
     8
 71
     3
 72
    19
 73
    15
 74
     0
 42
0.00000001
 43
0.00000001
 40
0.0
 40
0.0
 40
0.0
 40
0.0
 40
0.0875155696262907
 40
0.1742707235008578
 40
0.2602654635968253
 40
0.3454997922149572
 40
0.4299737119930389
 40
0.5136872259156424
 40
0.596640337324375
 40
0.678833049928578
 40
0.7602653678165191
 40
0.8409372954671578
 40
0.9208488377623972
 40
1.0
 40
1.0
 40
1.0
 40
1.0
 10
167.8820203335783
 20
332.5490359720336
 30
0.0
 10
167.8829393702109
 20
332.5948471538092
 30
0.0
 10
167.8847694580407
 20
332.6860714676833
 30
0.0
 10
167.8993158191271
 20
332.8216691895794
 30
0.0
 10
167.9221481085202
 20
332.9548274583507
 30
0.0
 10
167.9537682189306
 20
333.0849802536684
 30
0.0
 10
167.9935779744399
 20
333.2116014951261
 30
0.0
 10
168.0412352879013
 20
333.3342047496645
 30
0.0
 10
168.0962963578726
 20
333.4523484708697
 30
0.0
 10
168.1583303570353
 20
333.5656199389243
 30
0.0
 10
168.2268375932941
 20
333.6736959329342
 30
0.0
 10
168.3014825537879
 20
333.7761196407441
 30
0.0
 10
168.3812753944278
 20
333.8731204800559
 30
0.0
 10
168.4390971264421
 20
333.9330569386072
 30
0.0
 10
168.4678697875442
 20
333.9628819083804
 30
0.0
  0
SPLINE
  5
D3
330
1F
100
AcDbEntity
  8
0
  6
Continuous
 62
     8
370
    18
100
AcDbSpline
210
0.0
220
0.0
230
1.0
 70
     8
 71
     3
 72
    19
 73
    15
 74
     0
 42
0.00000001
 43
0.00000001
 40
0.0
 40
0.0
 40
0.0
 40
0.0
 40
0.0875155696262907
 40
0.1742707235008578
 40
0.2602654635968253
 40
0.3454997922149572
 40
0.4299737119930389
 40
0.5136872259156424
 40
0.596640337324375
 40
0.6788330499285719
 40
0.7602653678165191
 40
0.8409372954671578
 40
0.9208488377623972
 40
1.0
 40
1.0
 40
1.0
 40
1.0
 10
245.9337762393876
 20
334.5487313623464
 30
0.0
 10
245.9795874211632
 20
334.5478123257137
 30
0.0
 10
246.0708117350374
 20
334.5459822378839
 30
0.0
 10
246.2064094569334
 20
334.5314358767975
 30
0.0
 10
246.3395677257047
 20
334.5086035874045
 30
0.0
 10
246.4697205210225
 20
334.4769834769941
 30
0.0
 10
246.5963417624802
 20
334.4371737214848
 30
0.0
 10
246.7189450170185
 20
334.3895164080233
 30
0.0
 10
246.8370887382237
 20
334.3344553380521
 30
0.0
 10
246.9503602062783
 20
334.2724213388893
 30
0.0
 10
247.0584362002882
 20
334.2039141026306
 30
0.0
 10
247.1608599080981
 20
334.1292691421368
 30
0.0
 10
247.25786074741
 20
334.0494763014968
 30
0.0
 10
247.3177972059613
 20
333.9916545694826
 30
0.0
 10
247.3476221757345
 20
333.9628819083804
 30
0.0
  0
LINE
  5
D4
330
1F
100
AcDbEntity
  8
0
  6
Continuous
 62
     8
370
    18
100
AcDbLine
 10
247.3476221757
 20
255.0831295202
 30
0.0
 11
246.2872850175
 21
256.1434666784
 31
0.0
  0
SPLINE
  5
D5
330
1F
100
AcDbEntity
  8
0
  6
Continuous
 62
     8
370
    18
100
AcDbSpline
210
0.0
220
0.0
230
1.0
 70
     8
 71
     3
 72
    18
 73
    14
 74
     0
 42
0.00000001
 43
0.00000001
 40
0.0
 40
0.0
 40
0.0
 40
0.0
 40
0.0863847203144899
 40
0.1736743030824768
 40
0.2618687533476214
 40
0.3509680755497302
 40
0.440972273544462
 40
0.5318813506220404
 40
0.6236953095250282
 40
0.7164141524652772
 40
0.8100378811400022
 40
0.9045664967471578
 40
1.0
 40
1.0
 40
1.0
 40
1.0
 10
247.3476221757345
 20
255.0831295201902
 30
0.0
 10
247.3150190838732
 20
255.0517800167872
 30
0.0
 10
247.2494713893652
 20
254.9887526302808
 30
0.0
 10
247.1427269519941
 20
254.902524989955
 30
0.0
 10
247.0295860898107
 20
254.8225282768982
 30
0.0
 10
246.9098163374042
 20
254.7499916067545
 30
0.0
 10
246.7840137013615
 20
254.6853618476284
 30
0.0
 10
246.6526238947939
 20
254.6292696892662
 30
0.0
 10
246.5162089027021
 20
254.582287139175
 30
0.0
 10
246.3753741159551
 20
254.5448824312477
 30
0.0
 10
246.2307870785668
 20
254.5178177396558
 30
0.0
 10
246.0831708341047
 20
254.5005452602573
 30
0.0
 10
245.9837323299378
 20
254.4983719151568
 30
0.0
 10
245.9337762393876
 20
254.4972800662242
 30
0.0
  0
SPLINE
  5
D6
330
1F
100
AcDbEntity
  8
0
  6
Continuous
 62
     8
370
    18
100
AcDbSpline
210
0.0
220
0.0
230
1.0
 70
     8
 71
     3
 72
    10
 73
     6
 74
     0
 42
0.00000001
 43
0.00000001
 40
0.0
 40
0.0
 40
0.0
 40
0.0
 40
0.5
 40
0.5
 40
1.0
 40
1.0
 40
1.0
 40
1.0
 10
247.9334716297004
 20
256.496975456537
 30
0.0
 10
247.9334118342395
 20
256.2351997222585
 30
0.0
 10
247.8813217662045
 20
255.9736247613332
 30
0.0
 10
247.6809297860293
 20
255.4900135111573
 30
0.0
 10
247.532739661104
 20
255.2682470055598
 30
0.0
 10
247.3476221757345
 20
255.0831295201902
 30
0.0
  0
LINE
  5
D7
330
1F
100
AcDbEntity
  8
0
  6
Continuous
 62
     8
370
    18
100
AcDbLine
 10
245.9337762394
 20
334.5487313623
 30
0.0
 11
246.045915141
 21
334.6608702639
 31
0.0
  0
LINE
  5
D8
330
1F
100
AcDbEntity
  8
0
  6
Continuous
 62
     8
370
    18
100
AcDbLine
 10
248.0456105313
 20
332.6611748736
 30
0.0
 11
247.9334716297
 21
332.549035972
 31
0.0
  0
LINE
  5
D9
330
1F
100
AcDbEntity
  8
0
  6
Continuous
 62
     8
370
    18
100
AcDbLine
 10
169.8817157239
 20
254.4972800662
 30
0.0
 11
169.7695768223
 21
254.3851411646
 31
0.0
  0
LINE
  5
DA
330
1F
100
AcDbEntity
  8
0
  6
Continuous
 62
     8
370
    18
100
AcDbLine
 10
167.769881432
 20
256.384836555
 30
0.0
 11
167.8820203336
 21
256.4969754565
 31
0.0
  0
LINE
  5
DB
330
1F
100
AcDbEntity
  8
0
  6
Continuous
 62
     8
370
    18
100
AcDbLine
 10
247.9334716297
 20
256.4969754565
 30
0.0
 11
248.0456105313
 21
256.384836555
 31
0.0
  0
LINE
  5
DC
330
1F
100
AcDbEntity
  8
0
  6
Continuous
 62
     8
370
    18
100
AcDbLine
 10
246.045915141
 20
254.3851411646
 30
0.0
 11
245.9337762394
 21
254.4972800662
 31
0.0
  0
LINE
  5
DD
330
1F
100
AcDbEntity
  8
0
  6
Continuous
 62
     8
370
    18
100
AcDbLine
 10
167.8820203336
 20
332.549035972
 30
0.0
 11
167.769881432
 21
332.6611748736
 31
0.0
  0
LINE
  5
DE
330
1F
100
AcDbEntity
  8
0
  6
Continuous
 62
     8
370
    18
100
AcDbLine
 10
169.7695768223
 20
334.6608702639
 30
0.0
 11
169.8817157239
 21
334.5487313623
 31
0.0
  0
SPLINE
  5
DF
330
1F
100
AcDbEntity
  8
0
  6
Continuous
 62
     7
370
    25
100
AcDbSpline
210
0.0
220
0.0
230
1.0
 70
     8
 71
     3
 72
    10
 73
     6
 74
     0
 42
0.00000001
 43
0.00000001
 40
0.0
 40
0.0
 40
0.0
 40
0.0
 40
0.3409562511006778
 40
0.6821582142588395
 40
1.0
 40
1.0
 40
1.0
 40
1.0
 10
247.3788878586535
 20
165.3589342626192
 30
0.0
 10
247.4855215189296
 20
165.4619489487172
 30
0.0
 10
247.6988656856343
 20
165.6680525590315
 30
0.0
 10
247.8855418876013
 20
166.0708865420216
 30
0.0
 10
247.9113066614976
 20
166.3550438519837
 30
0.0
 10
247.923732424974
 20
166.4920864488987
 30
0.0
  0
SPLINE
  5
E0
330
1F
100
AcDbEntity
  8
0
  6
Continuous
 62
     7
370
    25
100
AcDbSpline
210
0.0
220
0.0
230
1.0
 70
     8
 71
     3
 72
     9
 73
     5
 74
     0
 42
0.00000001
 43
0.00000001
 40
0.0
 40
0.0
 40
0.0
 40
0.0
 40
0.9707950476571076
 40
1.0
 40
1.0
 40
1.0
 40
1.0
 10
246.9804837298886
 20
165.1239110181175
 30
0.0
 10
247.1242769184151
 20
165.1818298714261
 30
0.0
 10
247.2723959151834
 20
165.2414911289165
 30
0.0
 10
247.3758660191969
 20
165.3556016697134
 30
0.0
 10
247.3788878586535
 20
165.3589342626192
 30
0.0
  0
SPLINE
  5
E1
330
1F
100
AcDbEntity
  8
0
  6
Continuous
 62
     7
370
    25
100
AcDbSpline
210
0.0
220
0.0
230
1.0
 70
     8
 71
     3
 72
     9
 73
     5
 74
     0
 42
0.00000001
 43
0.00000001
 40
0.0
 40
0.0
 40
0.0
 40
0.0
 40
0.0634861971618598
 40
0.9999999999999999
 40
0.9999999999999999
 40
0.9999999999999999
 40
0.9999999999999999
 10
168.4251937511017
 20
165.3714071599415
 30
0.0
 10
168.4319695543154
 20
165.3638565847319
 30
0.0
 10
168.5386983161036
 20
165.2449240364437
 30
0.0
 10
168.6917103508539
 20
165.18243389661
 30
0.0
 10
168.835008233398
 20
165.1239110181144
 30
0.0
  0
SPLINE
  5
E2
330
1F
100
AcDbEntity
  8
0
  6
Continuous
 62
     7
370
    25
100
AcDbSpline
210
0.0
220
0.0
230
1.0
 70
     8
 71
     3
 72
    10
 73
     6
 74
     0
 42
0.00000001
 43
0.00000001
 40
0.0
 40
0.0
 40
0.0
 40
0.0
 40
0.3220402029859357
 40
0.6677491512868828
 40
1.0
 40
1.0
 40
1.0
 40
1.0
 10
167.8917595383048
 20
166.4920864488988
 30
0.0
 10
167.9042189086003
 20
166.3550706951299
 30
0.0
 10
167.9300533661101
 20
166.0709690443303
 30
0.0
 10
168.1137510933505
 20
165.672951636354
 30
0.0
 10
168.3227625524196
 20
165.4705829196076
 30
0.0
 10
168.4251937511017
 20
165.3714071599415
 30
0.0
  0
SPLINE
  5
E3
330
1F
100
AcDbEntity
  8
0
  6
Continuous
 62
     7
370
    25
100
AcDbSpline
210
0.0
220
0.0
230
1.0
 70
     8
 71
     3
 72
    11
 73
     7
 74
     0
 42
0.00000001
 43
0.00000001
 40
0.0
 40
0.0
 40
0.0
 40
0.0
 40
0.2527843079683231
 40
0.5106963432290211
 40
0.7628028463833416
 40
1.0
 40
1.0
 40
1.0
 40
1.0
 10
187.3494145815505
 20
148.449428042132
 30
0.0
 10
187.3219598224514
 20
148.4355144268951
 30
0.0
 10
187.2664933847249
 20
148.407404958868
 30
0.0
 10
187.2066990948879
 20
148.3361477432451
 30
0.0
 10
187.1703172271116
 20
148.2536075706571
 30
0.0
 10
187.1686279233292
 20
148.1958427873058
 30
0.0
 10
187.1678090084422
 20
148.1678404578716
 30
0.0
  0
SPLINE
  5
E4
330
1F
100
AcDbEntity
  8
0
  6
Continuous
 62
     7
370
    25
100
AcDbSpline
210
0.0
220
0.0
230
1.0
 70
     8
 71
     3
 72
    11
 73
     7
 74
     0
 42
0.00000001
 43
0.00000001
 40
0.0
 40
0.0
 40
0.0
 40
0.0
 40
0.2371971536167053
 40
0.4893036567710161
 40
0.7472156920317515
 40
0.9999999999999999
 40
0.9999999999999999
 40
0.9999999999999999
 40
0.9999999999999999
 10
228.6476829548365
 20
148.1678404578716
 30
0.0
 10
228.6468640399495
 20
148.1958427873058
 30
0.0
 10
228.6451747361671
 20
148.2536075706571
 30
0.0
 10
228.6087928683908
 20
148.3361477432451
 30
0.0
 10
228.5489985785537
 20
148.407404958868
 30
0.0
 10
228.4935321408273
 20
148.4355144268951
 30
0.0
 10
228.4660773817282
 20
148.449428042132
 30
0.0
  0
LINE
  5
E5
330
1F
100
AcDbEntity
  8
0
  6
Continuous
 62
     7
370
    25
100
AcDbLine
 10
189.0577459816
 20
165.020702931
 30
0.0
 11
189.0577459816
 21
148.4707029406
 31
0.0
  0
LINE
  5
E6
330
1F
100
AcDbEntity
  8
0
  6
Continuous
 62
     7
370
    25
100
AcDbLine
 10
226.7577459816
 20
148.4707029406
 30
0.0
 11
226.7577459816
 21
165.020702931
 31
0.0
  0
LINE
  5
E7
330
1F
100
AcDbEntity
  8
0
  6
Continuous
 62
     7
370
    25
100
AcDbLine
 10
248.0456105313
 20
172.9189576903
 30
0.0
 11
247.9334716297
 21
166.4945243213
 31
0.0
  0
LINE
  5
E8
330
1F
100
AcDbEntity
  8
0
  6
Continuous
 62
     7
370
    25
100
AcDbLine
 10
167.8820203336
 20
166.4945243213
 30
0.0
 11
167.769881432
 21
172.9189576903
 31
0.0
  0
LINE
  5
E9
330
1F
100
AcDbEntity
  8
0
  6
Continuous
 62
     7
370
    25
100
AcDbLine
 10
246.045915141
 20
173.020702931
 30
0.0
 11
169.7695768223
 21
173.020702931
 31
0.0
  0
SPLINE
  5
EA
330
1F
100
AcDbEntity
  8
0
  6
Continuous
 62
     7
370
    25
100
AcDbSpline
210
0.0
220
0.0
230
1.0
 70
    24
 71
     3
 72
    10
 73
     6
 74
     0
 42
0.00000001
 43
0.00000001
 40
0.0
 40
0.0
 40
0.0
 40
0.0
 40
0.5
 40
0.5
 40
1.0
 40
1.0
 40
1.0
 40
1.0
 10
246.0459151409707
 20
173.0207029309779
 30
0.0
 10
246.2946590671339
 20
173.0207029309779
 30
0.0
 10
246.5432004334485
 20
173.0207029309779
 30
0.0
 10
247.0026928792105
 20
173.0207029309779
 30
0.0
 10
247.2133868111005
 20
173.0207029309779
 30
0.0
 10
247.3892484979067
 20
173.0207029309779
 30
0.0
  0
SPLINE
  5
EB
330
1F
100
AcDbEntity
  8
0
  6
Continuous
 62
     7
370
    25
100
AcDbSpline
210
0.0
220
0.0
230
1.0
 70
    24
 71
     3
 72
    10
 73
     6
 74
     0
 42
0.00000001
 43
0.00000001
 40
0.0
 40
0.0
 40
0.0
 40
0.0
 40
0.5
 40
0.5
 40
1.0
 40
1.0
 40
1.0
 40
1.0
 10
168.426243465372
 20
173.0207029309779
 30
0.0
 10
168.602105152178
 20
173.0207029309779
 30
0.0
 10
168.812799084068
 20
173.0207029309779
 30
0.0
 10
169.2722915298303
 20
173.0207029309779
 30
0.0
 10
169.5208328961446
 20
173.0207029309779
 30
0.0
 10
169.769576822308
 20
173.0207029309779
 30
0.0
  0
LINE
  5
EC
330
1F
100
AcDbEntity
  8
0
  6
Continuous
 62
     7
370
    25
100
AcDbLine
 10
169.8817157239
 20
165.020702931
 30
0.0
 11
245.9337762394
 21
165.020702931
 31
0.0
  0
SPLINE
  5
ED
330
1F
100
AcDbEntity
  8
0
  6
Continuous
 62
     7
370
    25
100
AcDbSpline
210
0.0
220
0.0
230
1.0
 70
    24
 71
     3
 72
    12
 73
     8
 74
     0
 42
0.00000001
 43
0.00000001
 40
0.0
 40
0.0
 40
0.0
 40
0.0
 40
0.166546981377348
 40
0.3323150261576683
 40
0.5001726347380334
 40
0.7493502562372268
 40
1.0
 40
1.0
 40
1.0
 40
1.0
 10
246.2872850175286
 20
165.0207029309779
 30
0.0
 10
246.2713078007208
 20
165.0207029309779
 30
0.0
 10
246.2394280921994
 20
165.0207029309779
 30
0.0
 10
246.1845391045828
 20
165.0207029309779
 30
0.0
 10
246.1161305240588
 20
165.0207029309779
 30
0.0
 10
246.0320720908151
 20
165.0207029309779
 30
0.0
 10
245.9666057949823
 20
165.0207029309779
 30
0.0
 10
245.9337762393876
 20
165.0207029309779
 30
0.0
  0
SPLINE
  5
EE
330
1F
100
AcDbEntity
  8
0
  6
Continuous
 62
     7
370
    25
100
AcDbSpline
210
0.0
220
0.0
230
1.0
 70
    24
 71
     3
 72
    12
 73
     8
 74
     0
 42
0.00000001
 43
0.00000001
 40
0.0
 40
0.0
 40
0.0
 40
0.0
 40
0.1665688703932625
 40
0.3323505923075694
 40
0.5002129602156419
 40
0.7493803296404926
 40
1.0
 40
1.0
 40
1.0
 40
1.0
 10
169.8817157238911
 20
165.0207029309779
 30
0.0
 10
169.8599234604686
 20
165.0207029309779
 30
0.0
 10
169.8164419165337
 20
165.0207029309779
 30
0.0
 10
169.7520847670945
 20
165.0207029309779
 30
0.0
 10
169.6798811108231
 20
165.0207029309779
 30
0.0
 10
169.6014927171491
 20
165.0207029309779
 30
0.0
 10
169.5526828141315
 20
165.0207029309779
 30
0.0
 10
169.5282069457501
 20
165.0207029309779
 30
0.0
  0
ARC
  5
EF
330
1F
100
AcDbEntity
  8
0
  6
Continuous
 62
     7
370
    25
100
AcDbCircle
 10
247.9456257618
 20
172.920702931
 30
0.0
 40
0.1000000000000227
100
AcDbArc
 50
359.0
 51
90.0
  0
SPLINE
  5
F0
330
1F
100
AcDbEntity
  8
0
  6
Continuous
 62
     7
370
    25
100
AcDbSpline
210
0.0
220
0.0
230
1.0
 70
    24
 71
     3
 72
    10
 73
     6
 74
     0
 42
0.00000001
 43
0.00000001
 40
0.0
 40
0.0
 40
0.0
 40
0.0
 40
0.5
 40
0.5
 40
1.0
 40
1.0
 40
1.0
 40
1.0
 10
247.3892484979067
 20
173.0207029309779
 30
0.0
 10
247.5651101847023
 20
173.0207029309779
 30
0.0
 10
247.7058746988264
 20
173.0207029309779
 30
0.0
 10
247.8961857250638
 20
173.0207029309779
 30
0.0
 10
247.9456257617584
 20
173.0207029309779
 30
0.0
 10
247.9456257617679
 20
173.0207029309779
 30
0.0
  0
ARC
  5
F1
330
1F
100
AcDbEntity
  8
0
  6
Continuous
 62
     7
370
    25
100
AcDbCircle
 10
167.8698662015
 20
172.920702931
 30
0.0
 40
0.1000000000000227
100
AcDbArc
 50
90.0
 51
181.0
  0
SPLINE
  5
F2
330
1F
100
AcDbEntity
  8
0
  6
Continuous
 62
     7
370
    25
100
AcDbSpline
210
0.0
220
0.0
230
1.0
 70
    24
 71
     3
 72
    10
 73
     6
 74
     0
 42
0.00000001
 43
0.00000001
 40
0.0
 40
0.0
 40
0.0
 40
0.0
 40
0.5
 40
0.5
 40
1.0
 40
1.0
 40
1.0
 40
1.0
 10
167.8698662015108
 20
173.0207029309779
 30
0.0
 10
167.8698662015203
 20
173.0207029309779
 30
0.0
 10
167.9193062382141
 20
173.0207029309779
 30
0.0
 10
168.109617264453
 20
173.0207029309779
 30
0.0
 10
168.2503817785762
 20
173.0207029309779
 30
0.0
 10
168.426243465372
 20
173.0207029309779
 30
0.0
  0
ARC
  5
F3
330
1F
100
AcDbEntity
  8
0
  6
Continuous
 62
     7
370
    25
100
AcDbCircle
 10
246.433700087
 20
166.520702931
 30
0.0
 40
1.5
100
AcDbArc
 50
270.0
 51
359.0
  0
SPLINE
  5
F4
330
1F
100
AcDbEntity
  8
0
  6
Continuous
 62
     7
370
    25
100
AcDbSpline
210
0.0
220
0.0
230
1.0
 70
    24
 71
     3
 72
    12
 73
     8
 74
     0
 42
0.00000001
 43
0.00000001
 40
0.0
 40
0.0
 40
0.0
 40
0.0
 40
0.1665688703924325
 40
0.3323505923067357
 40
0.5002129602155954
 40
0.7493803296395605
 40
1.0
 40
1.0
 40
1.0
 40
1.0
 10
246.4337000869658
 20
165.0207029309779
 30
0.0
 10
246.4328944623639
 20
165.0207029309779
 30
0.0
 10
246.4312870202711
 20
165.0207029309779
 30
0.0
 10
246.4180159906259
 20
165.0207029309779
 30
0.0
 10
246.3934770440396
 20
165.0207029309779
 30
0.0
 10
246.3529975869107
 20
165.0207029309779
 30
0.0
 10
246.3092315996346
 20
165.0207029309779
 30
0.0
 10
246.2872850175286
 20
165.0207029309779
 30
0.0
  0
SPLINE
  5
F5
330
1F
100
AcDbEntity
  8
0
  6
Continuous
 62
     7
370
    25
100
AcDbSpline
210
0.0
220
0.0
230
1.0
 70
    24
 71
     3
 72
    12
 73
     8
 74
     0
 42
0.00000001
 43
0.00000001
 40
0.0
 40
0.0
 40
0.0
 40
0.0
 40
0.166546981377348
 40
0.3323150261576683
 40
0.5001726347380334
 40
0.7493502562372268
 40
1.0
 40
1.0
 40
1.0
 40
1.0
 10
169.5282069457501
 20
165.0207029309779
 30
0.0
 10
169.5133692849193
 20
165.0207029309779
 30
0.0
 10
169.4837633586737
 20
165.0207029309779
 30
0.0
 10
169.4476457702176
 20
165.0207029309779
 30
0.0
 10
169.413946507126
 20
165.0207029309779
 30
0.0
 10
169.3871455191082
 20
165.0207029309779
 30
0.0
 10
169.3835799244475
 20
165.0207029309779
 30
0.0
 10
169.3817918763129
 20
165.0207029309779
 30
0.0
  0
ARC
  5
F6
330
1F
100
AcDbEntity
  8
0
  6
Continuous
 62
     7
370
    25
100
AcDbCircle
 10
169.3817918763
 20
166.520702931
 30
0.0
 40
1.50000000000002
100
AcDbArc
 50
181.0
 51
270.0
  0
LINE
  5
F7
330
1F
100
AcDbEntity
  8
0
  6
Continuous
 62
     7
370
    25
100
AcDbLine
 10
228.6551050747
 20
148.1680849799
 30
0.0
 11
228.6400987546
 21
148.1678510451
 31
0.0
  0
LINE
  5
F8
330
1F
100
AcDbEntity
  8
0
  6
Continuous
 62
     7
370
    25
100
AcDbLine
 10
228.6551050747
 20
148.1680849799
 30
0.0
 11
228.3705177983
 21
115.5576131373
 31
0.0
  0
LINE
  5
F9
330
1F
100
AcDbEntity
  8
0
  6
Continuous
 62
     7
370
    25
100
AcDbLine
 10
227.1551621901
 20
148.4707029406
 30
0.0
 11
188.6603297732
 21
148.4707029406
 31
0.0
  0
LINE
  5
FA
330
1F
100
AcDbEntity
  8
0
  6
Continuous
 62
     7
370
    25
100
AcDbLine
 10
187.4449741649
 20
115.5576131373
 30
0.0
 11
187.1603868886
 21
148.1680849799
 31
0.0
  0
SPLINE
  5
FB
330
1F
100
AcDbEntity
  8
0
  6
Continuous
 62
     7
370
    25
100
AcDbSpline
210
0.0
220
0.0
230
1.0
 70
    24
 71
     3
 72
     8
 73
     4
 74
     0
 42
0.00000001
 43
0.00000001
 40
0.0
 40
0.0
 40
0.0
 40
0.0
 40
1.0
 40
1.0
 40
1.0
 40
1.0
 10
187.8118284021981
 20
148.4707029405805
 30
0.0
 10
188.0352921506529
 20
148.4707029405805
 30
0.0
 10
188.3442922176971
 20
148.4707029405805
 30
0.0
 10
188.6603297731693
 20
148.4707029405805
 30
0.0
  0
SPLINE
  5
FC
330
1F
100
AcDbEntity
  8
0
  6
Continuous
 62
     7
370
    25
100
AcDbSpline
210
0.0
220
0.0
230
1.0
 70
    24
 71
     3
 72
     8
 73
     4
 74
     0
 42
0.00000001
 43
0.00000001
 40
0.0
 40
0.0
 40
0.0
 40
0.0
 40
1.0
 40
1.0
 40
1.0
 40
1.0
 10
227.1551621901094
 20
148.4707029405805
 30
0.0
 10
227.4711997455827
 20
148.4707029405805
 30
0.0
 10
227.7801998126243
 20
148.4707029405805
 30
0.0
 10
228.0036635610805
 20
148.4707029405805
 30
0.0
  0
ARC
  5
FD
330
1F
100
AcDbEntity
  8
0
  6
Continuous
 62
     7
370
    25
100
AcDbCircle
 10
188.9449170495
 20
115.5707029406
 30
0.0
 40
1.500000000000009
100
AcDbArc
 50
180.5
 51
270.0
  0
ARC
  5
FE
330
1F
100
AcDbEntity
  8
0
  6
Continuous
 62
     7
370
    25
100
AcDbCircle
 10
226.8705749137
 20
115.5707029406
 30
0.0
 40
1.500000000000012
100
AcDbArc
 50
270.0
 51
359.5
  0
LINE
  5
FF
330
1F
100
AcDbEntity
  8
0
  6
Continuous
 62
     7
370
    25
100
AcDbLine
 10
188.9449170495
 20
114.0707029406
 30
0.0
 11
226.8705749137
 21
114.0707029406
 31
0.0
  0
LWPOLYLINE
  5
100
330
1F
100
AcDbEntity
  8
0
  6
Continuous
 62
     7
370
    25
100
AcDbPolyline
 90
        3
 70
   128
 43
0.0
 10
187.1603868886
 20
148.1680849799
 10
187.1657015614
 20
148.2269816242
 10
187.1690518337
 20
148.2423307394
  0
ARC
  5
101
330
1F
100
AcDbEntity
  8
0
  6
Continuous
 62
     7
370
    25
100
AcDbCircle
 10
187.4603754655
 20
148.1707029406
 30
0.0
 40
0.2999999999999963
100
AcDbArc
 50
90.0
 51
131.9896015709
  0
SPLINE
  5
102
330
1F
100
AcDbEntity
  8
0
  6
Continuous
 62
     7
370
    25
100
AcDbSpline
210
0.0
220
0.0
230
1.0
 70
    24
 71
     3
 72
     8
 73
     4
 74
     0
 42
0.00000001
 43
0.00000001
 40
0.0
 40
0.0
 40
0.0
 40
0.0
 40
1.0
 40
1.0
 40
1.0
 40
1.0
 10
187.4603754654923
 20
148.4707029405805
 30
0.0
 10
187.4603754655383
 20
148.4707029405805
 30
0.0
 10
187.5883646538076
 20
148.4707029405805
 30
0.0
 10
187.8118284021981
 20
148.4707029405805
 30
0.0
  0
LWPOLYLINE
  5
103
330
1F
100
AcDbEntity
  8
0
  6
Continuous
 62
     7
370
    25
100
AcDbPolyline
 90
        3
 70
   128
 43
0.0
 10
228.6551050747
 20
148.1680849799
 10
228.6497904019
 20
148.2269816242
 10
228.6464401296
 20
148.2423307394
  0
ARC
  5
104
330
1F
100
AcDbEntity
  8
0
  6
Continuous
 62
     7
370
    25
100
AcDbCircle
 10
228.3551164978
 20
148.1707029406
 30
0.0
 40
0.3000000000000153
100
AcDbArc
 50
48.0103984291
 51
90.0
  0
SPLINE
  5
105
330
1F
100
AcDbEntity
  8
0
  6
Continuous
 62
     7
370
    25
100
AcDbSpline
210
0.0
220
0.0
230
1.0
 70
    24
 71
     3
 72
     8
 73
     4
 74
     0
 42
0.00000001
 43
0.00000001
 40
0.0
 40
0.0
 40
0.0
 40
0.0
 40
1.0
 40
1.0
 40
1.0
 40
1.0
 10
228.0036635610805
 20
148.4707029405805
 30
0.0
 10
228.2271273094716
 20
148.4707029405805
 30
0.0
 10
228.3551164977403
 20
148.4707029405805
 30
0.0
 10
228.3551164977864
 20
148.4707029405805
 30
0.0
  0
LINE
  5
106
330
1F
100
AcDbEntity
  8
0
  6
Continuous
 62
     8
370
    18
100
AcDbLine
 10
245.9337762394
 20
166.4945243213
 30
0.0
 11
246.045915141
 21
172.9189576903
 31
0.0
  0
SPLINE
  5
107
330
1F
100
AcDbEntity
  8
0
  6
Continuous
 62
     8
370
    18
100
AcDbSpline
210
0.0
220
0.0
230
1.0
 70
     8
 71
     3
 72
    18
 73
    14
 74
     0
 42
0.00000001
 43
0.00000001
 40
0.0
 40
0.0
 40
0.0
 40
0.0
 40
0.0863807640641049
 40
0.1736665713609804
 40
0.2618576428871709
 40
0.350954192452779
 40
0.4409564269645012
 40
0.5318645466947644
 40
0.6236787455377022
 40
0.7163992112527642
 40
0.8100261256967128
 40
0.9045596650445242
 40
1.0
 40
1.0
 40
1.0
 40
1.0
 10
247.459937641787
 20
172.9182351637856
 30
0.0
 10
247.4273342510561
 20
172.9182349620814
 30
0.0
 10
247.3617858718038
 20
172.9182345565598
 30
0.0
 10
247.2550367296661
 20
172.9182379281421
 30
0.0
 10
247.1418884563585
 20
172.918251547503
 30
0.0
 10
247.0221083094689
 20
172.9182796117273
 30
0.0
 10
246.8962923754244
 20
172.9183252952573
 30
0.0
 10
246.7648863478893
 20
172.9183903352679
 30
0.0
 10
246.6284522211481
 20
172.9184750042269
 30
0.0
 10
246.4875953833862
 20
172.9185780450404
 30
0.0
 10
246.3429833938937
 20
172.9186963901914
 30
0.0
 10
246.1953392509303
 20
172.918825835329
 30
0.0
 10
246.0958814238058
 20
172.918913599026
 30
0.0
 10
246.0459151409707
 20
172.9189576903341
 30
0.0
  0
SPLINE
  5
108
330
1F
100
AcDbEntity
  8
0
  6
Continuous
 62
     8
370
    18
100
AcDbSpline
210
0.0
220
0.0
230
1.0
 70
     8
 71
     3
 72
    19
 73
    15
 74
     0
 42
0.00000001
 43
0.00000001
 40
0.0
 40
0.0
 40
0.0
 40
0.0
 40
0.0875219065052871
 40
0.174281782429396
 40
0.2602797601982956
 40
0.3455159760638839
 40
0.4299905702389538
 40
0.5137036870381267
 40
0.5966554750252983
 40
0.6788460871677462
 40
0.7602756809974137
 40
0.8409444187797279
 40
0.9208524676902834
 40
0.9999999999999999
 40
0.9999999999999999
 40
0.9999999999999999
 40
0.9999999999999999
 10
248.0456105312835
 20
172.9189576903341
 30
0.0
 10
248.0447010698371
 20
172.9189172944886
 30
0.0
 10
248.0428900653898
 20
172.9188368545138
 30
0.0
 10
248.0283694349384
 20
172.9187174986406
 30
0.0
 10
248.0055605312725
 20
172.9186066542806
 30
0.0
 10
247.9739613115773
 20
172.9185078090664
 30
0.0
 10
247.9341699853721
 20
172.9184237184583
 30
0.0
 10
247.8865286313452
 20
172.9183558167399
 30
0.0
 10
247.8314810537518
 20
172.9183044423721
 30
0.0
 10
247.7694580743727
 20
172.9182688471759
 30
0.0
 10
247.7009594032368
 20
172.9182472903897
 30
0.0
 10
247.6263204887326
 20
172.9182370284626
 30
0.0
 10
247.5465314088829
 20
172.9182346495805
 30
0.0
 10
247.4887100741767
 20
172.9182349929311
 30
0.0
 10
247.459937641787
 20
172.9182351637856
 30
0.0
  0
SPLINE
  5
109
330
1F
100
AcDbEntity
  8
0
  6
Continuous
 62
     8
370
    18
100
AcDbSpline
210
0.0
220
0.0
230
1.0
 70
     8
 71
     3
 72
    10
 73
     6
 74
     0
 42
0.00000001
 43
0.00000001
 40
0.0
 40
0.0
 40
0.0
 40
0.0
 40
0.5
 40
0.5
 40
1.0
 40
1.0
 40
1.0
 40
1.0
 10
247.3476221757345
 20
166.4836864230933
 30
0.0
 10
247.532739661104
 20
166.48368642309
 30
0.0
 10
247.6809297860292
 20
166.4846494867569
 30
0.0
 10
247.8813217662045
 20
166.4883566300721
 30
0.0
 10
247.9334118342394
 20
166.4910986416578
 30
0.0
 10
247.9334716297004
 20
166.4945243213219
 30
0.0
  0
SPLINE
  5
10A
330
1F
100
AcDbEntity
  8
0
  6
Continuous
 62
     8
370
    18
100
AcDbSpline
210
0.0
220
0.0
230
1.0
 70
     8
 71
     3
 72
    19
 73
    15
 74
     0
 42
0.00000001
 43
0.00000001
 40
0.0
 40
0.0
 40
0.0
 40
0.0
 40
0.0875155696262907
 40
0.1742707235008578
 40
0.2602654635968253
 40
0.3454997922149572
 40
0.4299737119930389
 40
0.5136872259156424
 40
0.596640337324375
 40
0.6788330499285719
 40
0.7602653678165191
 40
0.8409372954671578
 40
0.9208488377623972
 40
1.0
 40
1.0
 40
1.0
 40
1.0
 10
245.9337762393876
 20
166.4945243213219
 30
0.0
 10
245.9795874211632
 20
166.4939363925794
 30
0.0
 10
246.0708117350374
 20
166.4927656435598
 30
0.0
 10
246.2064094569334
 20
166.4911775522812
 30
0.0
 10
246.3395677257047
 20
166.4897296255848
 30
0.0
 10
246.4697205210225
 20
166.4884365146223
 30
0.0
 10
246.5963417624802
 20
166.4872980177067
 30
0.0
 10
246.7189450170185
 20
166.486316368676
 30
0.0
 10
246.8370887382237
 20
166.4854916276369
 30
0.0
 10
246.9503602062783
 20
166.4848233647559
 30
0.0
 10
247.0584362002882
 20
166.4843088523888
 30
0.0
 10
247.1608599080981
 20
166.4839489280811
 30
0.0
 10
247.25786074741
 20
166.4837270144096
 30
0.0
 10
247.3177972059613
 20
166.4836999103428
 30
0.0
 10
247.3476221757345
 20
166.4836864230933
 30
0.0
  0
SPLINE
  5
10B
330
1F
100
AcDbEntity
  8
0
  6
Continuous
 62
     8
370
    18
100
AcDbSpline
210
0.0
220
0.0
230
1.0
 70
     8
 71
     3
 72
    18
 73
    14
 74
     0
 42
0.00000001
 43
0.00000001
 40
0.0
 40
0.0
 40
0.0
 40
0.0
 40
0.0863807640641111
 40
0.1736665713609928
 40
0.2618576428871833
 40
0.350954192452795
 40
0.4409564269645191
 40
0.531864546694784
 40
0.6236787455377202
 40
0.716399211252778
 40
0.8100261256967214
 40
0.9045596650445288
 40
1.0
 40
1.0
 40
1.0
 40
1.0
 10
168.3555543214917
 20
172.9182351637856
 30
0.0
 10
168.3242050896134
 20
172.9182349620814
 30
0.0
 10
168.2611781683529
 20
172.9182345565598
 30
0.0
 10
168.1749550005852
 20
172.9182379281421
 30
0.0
 10
168.0949654823021
 20
172.918251547503
 30
0.0
 10
168.0224390091552
 20
172.9182796117273
 30
0.0
 10
167.9578223718407
 20
172.9183252952573
 30
0.0
 10
167.9017462811732
 20
172.9183903352679
 30
0.0
 10
167.8547827400985
 20
172.9184750042269
 30
0.0
 10
167.8173999751301
 20
172.9185780450404
 30
0.0
 10
167.7903601978762
 20
172.9186963901914
 30
0.0
 10
167.7731154304576
 20
172.918825835329
 30
0.0
 10
167.770962856418
 20
172.918913599026
 30
0.0
 10
167.7698814319952
 20
172.9189576903341
 30
0.0
  0
SPLINE
  5
10C
330
1F
100
AcDbEntity
  8
0
  6
Continuous
 62
     8
370
    18
100
AcDbSpline
210
0.0
220
0.0
230
1.0
 70
     8
 71
     3
 72
    19
 73
    15
 74
     0
 42
0.00000001
 43
0.00000001
 40
0.0
 40
0.0
 40
0.0
 40
0.0
 40
0.0875219065052871
 40
0.1742817824294003
 40
0.2602797601982955
 40
0.3455159760638881
 40
0.4299905702389579
 40
0.5137036870381324
 40
0.5966554750253019
 40
0.6788460871677461
 40
0.7602756809974174
 40
0.8409444187797314
 40
0.9208524676902834
 40
1.0
 40
1.0
 40
1.0
 40
1.0
 10
169.769576822308
 20
172.9189576903341
 30
0.0
 10
169.7237562598411
 20
172.9189172944886
 30
0.0
 10
169.632514082682
 20
172.9188368545138
 30
0.0
 10
169.496890477203
 20
172.9187174986406
 30
0.0
 10
169.363708801584
 20
172.9186066542806
 30
0.0
 10
169.2335350378448
 20
172.9185078090664
 30
0.0
 10
169.1068952782594
 20
172.9184237184583
 30
0.0
 10
168.9842759549953
 20
172.9183558167399
 30
0.0
 10
168.8661186153224
 20
172.9183044423721
 30
0.0
 10
168.752835985382
 20
172.9182688471759
 30
0.0
 10
168.6447512697737
 20
172.9182472903897
 30
0.0
 10
168.5423213466012
 20
172.9182370284626
 30
0.0
 10
168.4453165662513
 20
172.9182346495805
 30
0.0
 10
168.3853795410785
 20
172.9182349929311
 30
0.0
 10
168.3555543214917
 20
172.9182351637856
 30
0.0
  0
LINE
  5
10D
330
1F
100
AcDbEntity
  8
0
  6
Continuous
 62
     8
370
    18
100
AcDbLine
 10
169.7695768223
 20
172.9189576903
 30
0.0
 11
169.8817157239
 21
166.4945243213
 31
0.0
  0
SPLINE
  5
10E
330
1F
100
AcDbEntity
  8
0
  6
Continuous
 62
     8
370
    18
100
AcDbSpline
210
0.0
220
0.0
230
1.0
 70
     8
 71
     3
 72
    10
 73
     6
 74
     0
 42
0.00000001
 43
0.00000001
 40
0.0
 40
0.0
 40
0.0
 40
0.0
 40
0.5
 40
0.5
 40
1.0
 40
1.0
 40
1.0
 40
1.0
 10
168.4678697875442
 20
166.4836864230933
 30
0.0
 10
168.6529872729139
 20
166.48368642309
 30
0.0
 10
168.8747537785113
 20
166.4846494867569
 30
0.0
 10
169.3583650286873
 20
166.4883566300721
 30
0.0
 10
169.6199399896124
 20
166.4910986416578
 30
0.0
 10
169.8817157238911
 20
166.4945243213219
 30
0.0
  0
SPLINE
  5
10F
330
1F
100
AcDbEntity
  8
0
  6
Continuous
 62
     8
370
    18
100
AcDbSpline
210
0.0
220
0.0
230
1.0
 70
     8
 71
     3
 72
    19
 73
    15
 74
     0
 42
0.00000001
 43
0.00000001
 40
0.0
 40
0.0
 40
0.0
 40
0.0
 40
0.0875155696262907
 40
0.1742707235008578
 40
0.2602654635968253
 40
0.3454997922149572
 40
0.4299737119930389
 40
0.5136872259156424
 40
0.596640337324375
 40
0.678833049928578
 40
0.7602653678165191
 40
0.8409372954671578
 40
0.9208488377623972
 40
1.0
 40
1.0
 40
1.0
 40
1.0
 10
167.8820203335783
 20
166.4945243213219
 30
0.0
 10
167.8829393702109
 20
166.4939363925794
 30
0.0
 10
167.8847694580407
 20
166.4927656435598
 30
0.0
 10
167.8993158191271
 20
166.4911775522812
 30
0.0
 10
167.9221481085202
 20
166.4897296255848
 30
0.0
 10
167.9537682189306
 20
166.4884365146223
 30
0.0
 10
167.9935779744399
 20
166.4872980177067
 30
0.0
 10
168.0412352879013
 20
166.486316368676
 30
0.0
 10
168.0962963578726
 20
166.4854916276369
 30
0.0
 10
168.1583303570353
 20
166.4848233647559
 30
0.0
 10
168.2268375932941
 20
166.4843088523888
 30
0.0
 10
168.3014825537879
 20
166.4839489280811
 30
0.0
 10
168.3812753944278
 20
166.4837270144096
 30
0.0
 10
168.4390971264421
 20
166.4836999103428
 30
0.0
 10
168.4678697875442
 20
166.4836864230933
 30
0.0
  0
LINE
  5
110
330
1F
100
AcDbEntity
  8
0
  6
Continuous
 62
     8
370
    18
100
AcDbLine
 10
169.7695768223
 20
172.9189576903
 30
0.0
 11
246.045915141
 21
172.9189576903
 31
0.0
  0
LINE
  5
111
330
1F
100
AcDbEntity
  8
0
  6
Continuous
 62
     8
370
    18
100
AcDbLine
 10
169.8817157239
 20
166.4945243213
 30
0.0
 11
245.9337762394
 21
166.4945243213
 31
0.0
  0
LINE
  5
112
330
1F
100
AcDbEntity
  8
0
  6
Continuous
 62
     8
370
    18
100
AcDbLine
 10
246.045915141
 20
172.9189576903
 30
0.0
 11
246.045915141
 21
173.020702931
 31
0.0
  0
LINE
  5
113
330
1F
100
AcDbEntity
  8
0
  6
Continuous
 62
     8
370
    18
100
AcDbLine
 10
169.7695768223
 20
172.9189576903
 30
0.0
 11
169.7695768223
 21
173.020702931
 31
0.0
  0
ARC
  5
114
330
1F
100
AcDbEntity
  8
0
  6
Continuous
 62
     8
370
    18
100
AcDbCircle
 10
247.3709843864
 20
172.9324861791
 30
0.0
 40
0.0900875855839325
100
AcDbArc
 50
350.8981083054
 51
78.3029268393
  0
ARC
  5
115
330
1F
100
AcDbEntity
  8
0
  6
Continuous
 62
     8
370
    18
100
AcDbCircle
 10
168.4445075768
 20
172.9324861791
 30
0.0
 40
0.0900875855839209
100
AcDbArc
 50
101.6970731607
 51
189.1018916946
  0
LINE
  5
116
330
1F
100
AcDbEntity
  8
0
  6
Continuous
 62
     8
370
    18
100
AcDbLine
 10
169.8817157239
 20
166.4945243213
 30
0.0
 11
169.8817157239
 21
165.020702931
 31
0.0
  0
LINE
  5
117
330
1F
100
AcDbEntity
  8
0
  6
Continuous
 62
     8
370
    18
100
AcDbLine
 10
245.9337762394
 20
165.020702931
 30
0.0
 11
245.9337762394
 21
166.4945243213
 31
0.0
  0
ARC
  5
118
330
1F
100
AcDbEntity
  8
0
  6
Continuous
 62
     8
370
    18
100
AcDbCircle
 10
246.0308904472
 20
166.3222777566
 30
0.0
 40
1.326587804262657
100
AcDbArc
 50
281.1438971937
 51
6.9886115513
  0
ARC
  5
119
330
1F
100
AcDbEntity
  8
0
  6
Continuous
 62
     8
370
    18
100
AcDbCircle
 10
169.784601516
 20
166.3222777566
 30
0.0
 40
1.326587804262684
100
AcDbArc
 50
173.0113884487
 51
258.8561028063
  0
SPLINE
  5
11A
330
1F
100
AcDbEntity
  8
0
  6
Continuous
 62
     8
370
    18
100
AcDbSpline
210
0.0
220
0.0
230
1.0
 70
     8
 71
     3
 72
    16
 73
    12
 74
     0
 42
0.00000001
 43
0.00000001
 40
0.0
 40
0.0
 40
0.0
 40
0.0
 40
0.1057030580188662
 40
0.2127580367760147
 40
0.3211649804299606
 40
0.4309239300101836
 40
0.5420349235508543
 40
0.654497996216526
 40
0.7683131804203852
 40
0.8834805059355682
 40
1.0
 40
1.0
 40
1.0
 40
1.0
 10
228.2157794416834
 20
148.1670007260878
 30
0.0
 10
228.1857254733294
 20
148.1670025742426
 30
0.0
 10
228.1252331524432
 20
148.1670062941895
 30
0.0
 10
228.0251215014415
 20
148.1670403901581
 30
0.0
 10
227.9180197780692
 20
148.1671000244685
 30
0.0
 10
227.8037999180349
 20
148.1671895169708
 30
0.0
 10
227.6833024786019
 20
148.1673098151527
 30
0.0
 10
227.5572299069846
 20
148.1674611500077
 30
0.0
 10
227.4264479363116
 20
148.1676427013635
 30
0.0
 10
227.2919011504698
 20
148.1678506190352
 30
0.0
 10
227.2009188402785
 20
148.1680065562726
 30
0.0
 10
227.1551621901094
 20
148.168084979931
 30
0.0
  0
SPLINE
  5
11B
330
1F
100
AcDbEntity
  8
0
  6
Continuous
 62
     8
370
    18
100
AcDbSpline
210
0.0
220
0.0
230
1.0
 70
     8
 71
     3
 72
    10
 73
     6
 74
     0
 42
0.00000001
 43
0.00000001
 40
0.0
 40
0.0
 40
0.0
 40
0.0
 40
0.1549179056682013
 40
0.44528090419894
 40
1.0
 40
1.0
 40
1.0
 40
1.0
 10
228.6400987546126
 20
148.1678510451488
 30
0.0
 10
228.6361789236468
 20
148.1677638109242
 30
0.0
 10
228.6249121441921
 20
148.167513073385
 30
0.0
 10
228.5167254254253
 20
148.1671121815638
 30
0.0
 10
228.335039580311
 20
148.167044894132
 30
0.0
 10
228.2157794416834
 20
148.1670007260878
 30
0.0
  0
ARC
  5
11C
330
1F
100
AcDbEntity
  8
0
  6
Continuous
 62
     8
370
    18
100
AcDbCircle
 10
227.6205463561
 20
158.5321451509
 30
0.0
 40
42.98107559083935
100
AcDbArc
 50
269.0002023313
 51
270.9997976686
  0
LINE
  5
11D
330
1F
100
AcDbEntity
  8
0
  6
Continuous
 62
     8
370
    18
100
AcDbLine
 10
226.8705749137
 20
115.5576131373
 30
0.0
 11
227.1551621901
 21
148.1680849799
 31
0.0
  0
LINE
  5
11E
330
1F
100
AcDbEntity
  8
0
  6
Continuous
 62
     8
370
    18
100
AcDbLine
 10
188.6603297732
 20
148.1680849799
 30
0.0
 11
227.1551621901
 21
148.1680849799
 31
0.0
  0
LINE
  5
11F
330
1F
100
AcDbEntity
  8
0
  6
Continuous
 62
     8
370
    18
100
AcDbLine
 10
188.9449170495
 20
115.5576131373
 30
0.0
 11
226.8705749137
 21
115.5576131373
 31
0.0
  0
LINE
  5
120
330
1F
100
AcDbEntity
  8
0
  6
Continuous
 62
     8
370
    18
100
AcDbLine
 10
188.6603297732
 20
148.1680849799
 30
0.0
 11
188.9449170495
 21
115.5576131373
 31
0.0
  0
LINE
  5
121
330
1F
100
AcDbEntity
  8
0
  6
Continuous
 62
     8
370
    18
100
AcDbLine
 10
227.1551621901
 20
148.1680849799
 30
0.0
 11
227.1551621901
 21
148.4707029406
 31
0.0
  0
LINE
  5
122
330
1F
100
AcDbEntity
  8
0
  6
Continuous
 62
     8
370
    18
100
AcDbLine
 10
188.6603297732
 20
148.1680849799
 30
0.0
 11
188.6603297732
 21
148.4707029406
 31
0.0
  0
SPLINE
  5
123
330
1F
100
AcDbEntity
  8
0
  6
Continuous
 62
     8
370
    18
100
AcDbSpline
210
0.0
220
0.0
230
1.0
 70
     8
 71
     3
 72
    16
 73
    12
 74
     0
 42
0.00000001
 43
0.00000001
 40
0.0
 40
0.0
 40
0.0
 40
0.0
 40
0.1057030580189527
 40
0.2127580367761575
 40
0.3211649804301464
 40
0.4309239300103874
 40
0.5420349235510591
 40
0.65449799621671
 40
0.7683131804205288
 40
0.8834805059356465
 40
1.0
 40
1.0
 40
1.0
 40
1.0
 10
187.5997125215953
 20
148.1670007260878
 30
0.0
 10
187.5710674752376
 20
148.1670025742426
 30
0.0
 10
187.5134110181717
 20
148.1670062941895
 30
0.0
 10
187.4364077458655
 20
148.1670403901581
 30
0.0
 10
187.3667007448209
 20
148.1671000244685
 30
0.0
 10
187.3058133249551
 20
148.1671895169708
 30
0.0
 10
187.2543953419882
 20
148.1673098151527
 30
0.0
 10
187.2131953458683
 20
148.1674611500076
 30
0.0
 10
187.1832159054869
 20
148.1676427013635
 30
0.0
 10
187.1640005511866
 20
148.1678506190352
 30
0.0
 10
187.1615961203502
 20
148.1680065562726
 30
0.0
 10
187.160386888573
 20
148.168084979931
 30
0.0
  0
SPLINE
  5
124
330
1F
100
AcDbEntity
  8
0
  6
Continuous
 62
     8
370
    18
100
AcDbSpline
210
0.0
220
0.0
230
1.0
 70
     8
 71
     3
 72
    17
 73
    13
 74
     0
 42
0.00000001
 43
0.00000001
 40
0.0
 40
0.0
 40
0.0
 40
0.0
 40
0.1049290128402316
 40
0.2087626174290065
 40
0.3115008378520629
 40
0.413143699797613
 40
0.5136912306173694
 40
0.613143459390861
 40
0.7115004169933861
 40
0.8087621361677378
 40
0.9049286516000604
 40
1.0
 40
1.0
 40
1.0
 40
1.0
 10
188.6603297731693
 20
148.168084979931
 30
0.0
 10
188.6191248756543
 20
148.168014228436
 30
0.0
 10
188.5371452398673
 20
148.1678734640575
 30
0.0
 10
188.4156480486112
 20
148.1676829573409
 30
0.0
 10
188.2970365681268
 20
148.1675132339738
 30
0.0
 10
188.1820201105997
 20
148.1673674848004
 30
0.0
 10
188.0712413883485
 20
148.1672465956601
 30
0.0
 10
187.96529313394
 20
148.1671509567923
 30
0.0
 10
187.8646509855004
 20
148.1670798926138
 30
0.0
 10
187.769916585859
 20
148.1670324769809
 30
0.0
 10
187.6809254806482
 20
148.1670052238576
 30
0.0
 10
187.6266799581807
 20
148.1670022196096
 30
0.0
 10
187.5997125215953
 20
148.1670007260878
 30
0.0
  0
ARC
  5
125
330
1F
100
AcDbEntity
  8
0
  6
Continuous
 62
     8
370
    18
100
AcDbCircle
 10
188.1949456072
 20
158.5321451487
 30
0.0
 40
42.98107558865653
100
AcDbArc
 50
269.0002023313
 51
270.9997976687
  0
ARC
  5
126
330
1F
100
AcDbEntity
  8
0
  6
Continuous
 62
     8
370
    18
100
AcDbCircle
 10
187.8657406258
 20
148.2071232698
 30
0.0
 40
0.2690367460257004
100
AcDbArc
 50
101.5597552262
 51
188.5767477284
  0
ARC
  5
127
330
1F
100
AcDbEntity
  8
0
  6
Continuous
 62
     8
370
    18
100
AcDbCircle
 10
227.9497513375
 20
148.2071232698
 30
0.0
 40
0.2690367460257024
100
AcDbArc
 50
351.4232522716
 51
78.4402447738
  0
LINE
  5
128
330
1F
100
AcDbEntity
  8
0
  6
Continuous
 62
     8
370
    18
100
AcDbLine
 10
188.9449170495
 20
115.5576131373
 30
0.0
 11
188.9449170495
 21
114.0707029406
 31
0.0
  0
LINE
  5
129
330
1F
100
AcDbEntity
  8
0
  6
Continuous
 62
     8
370
    18
100
AcDbLine
 10
226.8705749137
 20
114.0707029406
 30
0.0
 11
226.8705749137
 21
115.5576131373
 31
0.0
  0
SPLINE
  5
12A
330
1F
100
AcDbEntity
  8
0
  6
Continuous
 62
     7
370
    25
100
AcDbSpline
210
0.0
220
0.0
230
1.0
 70
     8
 71
     3
 72
    10
 73
     6
 74
     0
 42
0.00000001
 43
0.00000001
 40
0.0
 40
0.0
 40
0.0
 40
0.0
 40
0.3409562511006531
 40
0.682158214258828
 40
1.0
 40
1.0
 40
1.0
 40
1.0
 10
360.6005945761629
 20
333.9941475912993
 30
0.0
 10
360.4975798900649
 20
334.1007812515754
 30
0.0
 10
360.2914762797506
 20
334.3141254182801
 30
0.0
 10
359.8886422967606
 20
334.5008016202472
 30
0.0
 10
359.6044849867984
 20
334.5265663941435
 30
0.0
 10
359.4674423898833
 20
334.5389921576199
 30
0.0
  0
SPLINE
  5
12B
330
1F
100
AcDbEntity
  8
0
  6
Continuous
 62
     7
370
    25
100
AcDbSpline
210
0.0
220
0.0
230
1.0
 70
     8
 71
     3
 72
     9
 73
     5
 74
     0
 42
0.00000001
 43
0.00000001
 40
0.0
 40
0.0
 40
0.0
 40
0.0
 40
0.9707950476570065
 40
1.0
 40
1.0
 40
1.0
 40
1.0
 10
360.8356178206647
 20
333.5957434625342
 30
0.0
 10
360.777698967356
 20
333.7395366510607
 30
0.0
 10
360.7180377098657
 20
333.887655647829
 30
0.0
 10
360.6039271690688
 20
333.9911257518427
 30
0.0
 10
360.6005945761629
 20
333.9941475912993
 30
0.0
  0
SPLINE
  5
12C
330
1F
100
AcDbEntity
  8
0
  6
Continuous
 62
     7
370
    25
100
AcDbSpline
210
0.0
220
0.0
230
1.0
 70
     8
 71
     3
 72
     9
 73
     5
 74
     0
 42
0.00000001
 43
0.00000001
 40
0.0
 40
0.0
 40
0.0
 40
0.0
 40
0.0634861971617419
 40
0.9999999999999999
 40
0.9999999999999999
 40
0.9999999999999999
 40
0.9999999999999999
 10
360.5881216788406
 20
255.0404534837477
 30
0.0
 10
360.5956722540502
 20
255.0472292869615
 30
0.0
 10
360.7146048023383
 20
255.1539580487496
 30
0.0
 10
360.777094942172
 20
255.3069700834999
 30
0.0
 10
360.8356178206676
 20
255.4502679660439
 30
0.0
  0
SPLINE
  5
12D
330
1F
100
AcDbEntity
  8
0
  6
Continuous
 62
     7
370
    25
100
AcDbSpline
210
0.0
220
0.0
230
1.0
 70
     8
 71
     3
 72
    10
 73
     6
 74
     0
 42
0.00000001
 43
0.00000001
 40
0.0
 40
0.0
 40
0.0
 40
0.0
 40
0.32204020298592
 40
0.6677491512868511
 40
1.0
 40
1.0
 40
1.0
 40
1.0
 10
359.4674423898833
 20
254.5070192709507
 30
0.0
 10
359.6044581436522
 20
254.5194786412463
 30
0.0
 10
359.8885597944517
 20
254.5453130987561
 30
0.0
 10
360.2865772024281
 20
254.7290108259965
 30
0.0
 10
360.4889459191745
 20
254.9380222850656
 30
0.0
 10
360.5881216788406
 20
255.0404534837477
 30
0.0
  0
SPLINE
  5
12E
330
1F
100
AcDbEntity
  8
0
  6
Continuous
 62
     7
370
    25
100
AcDbSpline
210
0.0
220
0.0
230
1.0
 70
     8
 71
     3
 72
    11
 73
     7
 74
     0
 42
0.00000001
 43
0.00000001
 40
0.0
 40
0.0
 40
0.0
 40
0.0
 40
0.2371971536167179
 40
0.4893036567710413
 40
0.7472156920317495
 40
1.0
 40
1.0
 40
1.0
 40
1.0
 10
377.7916883809104
 20
315.2629426874825
 30
0.0
 10
377.7636860514763
 20
315.2621237725955
 30
0.0
 10
377.7059212681249
 20
315.2604344688131
 30
0.0
 10
377.623381095537
 20
315.2240526010368
 30
0.0
 10
377.5521238799141
 20
315.1642583111998
 30
0.0
 10
377.524014411887
 20
315.1087918734733
 30
0.0
 10
377.5101007966501
 20
315.0813371143742
 30
0.0
  0
SPLINE
  5
12F
330
1F
100
AcDbEntity
  8
0
  6
Continuous
 62
     7
370
    25
100
AcDbSpline
210
0.0
220
0.0
230
1.0
 70
     8
 71
     3
 72
    11
 73
     7
 74
     0
 42
0.00000001
 43
0.00000001
 40
0.0
 40
0.0
 40
0.0
 40
0.0
 40
0.2527843079682917
 40
0.5106963432289666
 40
0.762802846383311
 40
1.0
 40
1.0
 40
1.0
 40
1.0
 10
377.51010079665
 20
273.9646743141965
 30
0.0
 10
377.524014411887
 20
273.9372195550974
 30
0.0
 10
377.5521238799141
 20
273.8817531173709
 30
0.0
 10
377.6233810955369
 20
273.8219588275339
 30
0.0
 10
377.7059212681249
 20
273.7855769597576
 30
0.0
 10
377.7636860514763
 20
273.7838876559751
 30
0.0
 10
377.7916883809104
 20
273.7830687410881
 30
0.0
  0
LINE
  5
130
330
1F
100
AcDbEntity
  8
0
  6
Continuous
 62
     7
370
    25
100
AcDbLine
 10
360.9388259078
 20
275.6730057143
 30
0.0
 11
377.4888258982
 21
275.6730057143
 31
0.0
  0
LINE
  5
131
330
1F
100
AcDbEntity
  8
0
  6
Continuous
 62
     7
370
    25
100
AcDbLine
 10
377.4888258982
 20
313.3730057143
 30
0.0
 11
360.9388259078
 21
313.3730057143
 31
0.0
  0
LINE
  5
132
330
1F
100
AcDbEntity
  8
0
  6
Continuous
 62
     7
370
    25
100
AcDbLine
 10
359.4650045175
 20
254.4972800662
 30
0.0
 11
353.0405711484
 21
254.3851411646
 31
0.0
  0
LINE
  5
133
330
1F
100
AcDbEntity
  8
0
  6
Continuous
 62
     7
370
    25
100
AcDbLine
 10
353.0405711484
 20
334.6608702639
 30
0.0
 11
359.4650045175
 21
334.5487313623
 31
0.0
  0
LINE
  5
134
330
1F
100
AcDbEntity
  8
0
  6
Continuous
 62
     7
370
    25
100
AcDbLine
 10
352.9388259078
 20
332.6611748736
 30
0.0
 11
352.9388259078
 21
256.384836555
 31
0.0
  0
SPLINE
  5
135
330
1F
100
AcDbEntity
  8
0
  6
Continuous
 62
     7
370
    25
100
AcDbSpline
210
0.0
220
0.0
230
1.0
 70
    24
 71
     3
 72
    10
 73
     6
 74
     0
 42
0.00000001
 43
0.00000001
 40
0.0
 40
0.0
 40
0.0
 40
0.0
 40
0.5
 40
0.5
 40
1.0
 40
1.0
 40
1.0
 40
1.0
 10
352.9388259078042
 20
332.6611748736167
 30
0.0
 10
352.9388259078042
 20
332.9099187997799
 30
0.0
 10
352.9388259078042
 20
333.1584601660945
 30
0.0
 10
352.9388259078042
 20
333.6179526118565
 30
0.0
 10
352.9388259078042
 20
333.8286465437464
 30
0.0
 10
352.9388259078042
 20
334.0045082305526
 30
0.0
  0
SPLINE
  5
136
330
1F
100
AcDbEntity
  8
0
  6
Continuous
 62
     7
370
    25
100
AcDbSpline
210
0.0
220
0.0
230
1.0
 70
    24
 71
     3
 72
    10
 73
     6
 74
     0
 42
0.00000001
 43
0.00000001
 40
0.0
 40
0.0
 40
0.0
 40
0.0
 40
0.5
 40
0.5
 40
1.0
 40
1.0
 40
1.0
 40
1.0
 10
352.9388259078042
 20
255.041503198018
 30
0.0
 10
352.9388259078042
 20
255.217364884824
 30
0.0
 10
352.9388259078042
 20
255.4280588167139
 30
0.0
 10
352.9388259078042
 20
255.8875512624763
 30
0.0
 10
352.9388259078042
 20
256.1360926287905
 30
0.0
 10
352.9388259078042
 20
256.3848365549539
 30
0.0
  0
LINE
  5
137
330
1F
100
AcDbEntity
  8
0
  6
Continuous
 62
     7
370
    25
100
AcDbLine
 10
360.9388259078
 20
256.4969754565
 30
0.0
 11
360.9388259078
 21
332.549035972
 31
0.0
  0
SPLINE
  5
138
330
1F
100
AcDbEntity
  8
0
  6
Continuous
 62
     7
370
    25
100
AcDbSpline
210
0.0
220
0.0
230
1.0
 70
    24
 71
     3
 72
    12
 73
     8
 74
     0
 42
0.00000001
 43
0.00000001
 40
0.0
 40
0.0
 40
0.0
 40
0.0
 40
0.1665688703924325
 40
0.3323505923067357
 40
0.5002129602155954
 40
0.7493803296395605
 40
1.0
 40
1.0
 40
1.0
 40
1.0
 10
360.9388259078042
 20
256.496975456537
 30
0.0
 10
360.9388259078042
 20
256.4751831931146
 30
0.0
 10
360.9388259078041
 20
256.4317016491798
 30
0.0
 10
360.9388259078042
 20
256.3673444997407
 30
0.0
 10
360.9388259078041
 20
256.2951408434692
 30
0.0
 10
360.9388259078042
 20
256.2167524497951
 30
0.0
 10
360.9388259078042
 20
256.1679425467776
 30
0.0
 10
360.9388259078042
 20
256.143466678396
 30
0.0
  0
SPLINE
  5
139
330
1F
100
AcDbEntity
  8
0
  6
Continuous
 62
     7
370
    25
100
AcDbSpline
210
0.0
220
0.0
230
1.0
 70
    24
 71
     3
 72
    12
 73
     8
 74
     0
 42
0.00000001
 43
0.00000001
 40
0.0
 40
0.0
 40
0.0
 40
0.0
 40
0.166546981377348
 40
0.3323150261576683
 40
0.5001726347380334
 40
0.7493502562372268
 40
1.0
 40
1.0
 40
1.0
 40
1.0
 10
360.9388259078042
 20
332.9025447501746
 30
0.0
 10
360.9388259078042
 20
332.8865675333668
 30
0.0
 10
360.9388259078042
 20
332.8546878248453
 30
0.0
 10
360.9388259078042
 20
332.7997988372288
 30
0.0
 10
360.9388259078041
 20
332.7313902567047
 30
0.0
 10
360.9388259078042
 20
332.647331823461
 30
0.0
 10
360.9388259078042
 20
332.5818655276282
 30
0.0
 10
360.9388259078042
 20
332.5490359720336
 30
0.0
  0
ARC
  5
13A
330
1F
100
AcDbEntity
  8
0
  6
Continuous
 62
     7
370
    25
100
AcDbCircle
 10
353.0388259078
 20
254.4851259342
 30
0.0
 40
0.100000000000047
100
AcDbArc
 50
180.0
 51
271.0
  0
SPLINE
  5
13B
330
1F
100
AcDbEntity
  8
0
  6
Continuous
 62
     7
370
    25
100
AcDbSpline
210
0.0
220
0.0
230
1.0
 70
    24
 71
     3
 72
    10
 73
     6
 74
     0
 42
0.00000001
 43
0.00000001
 40
0.0
 40
0.0
 40
0.0
 40
0.0
 40
0.5
 40
0.5
 40
1.0
 40
1.0
 40
1.0
 40
1.0
 10
352.9388259078042
 20
254.4851259341568
 30
0.0
 10
352.9388259078042
 20
254.4851259341663
 30
0.0
 10
352.9388259078042
 20
254.5345659708601
 30
0.0
 10
352.9388259078042
 20
254.724876997099
 30
0.0
 10
352.9388259078042
 20
254.8656415112222
 30
0.0
 10
352.9388259078042
 20
255.041503198018
 30
0.0
  0
ARC
  5
13C
330
1F
100
AcDbEntity
  8
0
  6
Continuous
 62
     7
370
    25
100
AcDbCircle
 10
353.0388259078
 20
334.5608854944
 30
0.0
 40
0.0999999999999902
100
AcDbArc
 50
89.0
 51
180.0
  0
SPLINE
  5
13D
330
1F
100
AcDbEntity
  8
0
  6
Continuous
 62
     7
370
    25
100
AcDbSpline
210
0.0
220
0.0
230
1.0
 70
    24
 71
     3
 72
    10
 73
     6
 74
     0
 42
0.00000001
 43
0.00000001
 40
0.0
 40
0.0
 40
0.0
 40
0.0
 40
0.5
 40
0.5
 40
1.0
 40
1.0
 40
1.0
 40
1.0
 10
352.9388259078042
 20
334.0045082305526
 30
0.0
 10
352.9388259078042
 20
334.1803699173482
 30
0.0
 10
352.9388259078042
 20
334.3211344314724
 30
0.0
 10
352.9388259078042
 20
334.5114454577098
 30
0.0
 10
352.9388259078042
 20
334.5608854944043
 30
0.0
 10
352.9388259078042
 20
334.5608854944138
 30
0.0
  0
ARC
  5
13E
330
1F
100
AcDbEntity
  8
0
  6
Continuous
 62
     7
370
    25
100
AcDbCircle
 10
359.4388259078
 20
333.0489598196
 30
0.0
 40
1.50000000000002
100
AcDbArc
 50
0.0
 51
89.0
  0
SPLINE
  5
13F
330
1F
100
AcDbEntity
  8
0
  6
Continuous
 62
     7
370
    25
100
AcDbSpline
210
0.0
220
0.0
230
1.0
 70
    24
 71
     3
 72
    12
 73
     8
 74
     0
 42
0.00000001
 43
0.00000001
 40
0.0
 40
0.0
 40
0.0
 40
0.0
 40
0.1665688703932625
 40
0.3323505923075694
 40
0.5002129602156419
 40
0.7493803296404926
 40
1.0
 40
1.0
 40
1.0
 40
1.0
 10
360.9388259078042
 20
333.0489598196118
 30
0.0
 10
360.9388259078041
 20
333.0481541950099
 30
0.0
 10
360.9388259078041
 20
333.0465467529171
 30
0.0
 10
360.9388259078042
 20
333.0332757232718
 30
0.0
 10
360.9388259078042
 20
333.0087367766854
 30
0.0
 10
360.9388259078042
 20
332.9682573195565
 30
0.0
 10
360.9388259078042
 20
332.9244913322805
 30
0.0
 10
360.9388259078042
 20
332.9025447501746
 30
0.0
  0
SPLINE
  5
140
330
1F
100
AcDbEntity
  8
0
  6
Continuous
 62
     7
370
    25
100
AcDbSpline
210
0.0
220
0.0
230
1.0
 70
    24
 71
     3
 72
     8
 73
     4
 74
     0
 42
0.00000001
 43
0.00000001
 40
0.0
 40
0.0
 40
0.0
 40
0.0
 40
1.0
 40
1.0
 40
1.0
 40
1.0
 10
360.9388259078042
 20
256.143466678396
 30
0.0
 10
360.9388259078042
 20
256.050907935896
 30
0.0
 10
360.9388259078042
 20
255.9970516092209
 30
0.0
 10
360.9388259078042
 20
255.9970516089589
 30
0.0
  0
ARC
  5
141
330
1F
100
AcDbEntity
  8
0
  6
Continuous
 62
     7
370
    25
100
AcDbCircle
 10
359.4388259078
 20
255.997051609
 30
0.0
 40
1.5
100
AcDbArc
 50
271.0
 51
0.0
  0
LINE
  5
142
330
1F
100
AcDbEntity
  8
0
  6
Continuous
 62
     7
370
    25
100
AcDbLine
 10
377.7914438589
 20
315.2703648074
 30
0.0
 11
377.7916777936
 21
315.2553584873
 31
0.0
  0
LINE
  5
143
330
1F
100
AcDbEntity
  8
0
  6
Continuous
 62
     7
370
    25
100
AcDbLine
 10
377.7914438589
 20
315.2703648074
 30
0.0
 11
410.4019157014
 21
314.985777531
 31
0.0
  0
LINE
  5
144
330
1F
100
AcDbEntity
  8
0
  6
Continuous
 62
     7
370
    25
100
AcDbLine
 10
377.4888258982
 20
313.7704219228
 30
0.0
 11
377.4888258982
 21
275.2755895058
 31
0.0
  0
LINE
  5
145
330
1F
100
AcDbEntity
  8
0
  6
Continuous
 62
     7
370
    25
100
AcDbLine
 10
410.4019157014
 20
274.0602338976
 30
0.0
 11
377.7914438589
 21
273.7756466212
 31
0.0
  0
SPLINE
  5
146
330
1F
100
AcDbEntity
  8
0
  6
Continuous
 62
     7
370
    25
100
AcDbSpline
210
0.0
220
0.0
230
1.0
 70
    24
 71
     3
 72
     8
 73
     4
 74
     0
 42
0.00000001
 43
0.00000001
 40
0.0
 40
0.0
 40
0.0
 40
0.0
 40
1.0
 40
1.0
 40
1.0
 40
1.0
 10
377.4888258982015
 20
313.7704219227554
 30
0.0
 10
377.4888258982015
 20
314.0864594782287
 30
0.0
 10
377.4888258982015
 20
314.3954595452703
 30
0.0
 10
377.4888258982015
 20
314.6189232937265
 30
0.0
  0
SPLINE
  5
147
330
1F
100
AcDbEntity
  8
0
  6
Continuous
 62
     7
370
    25
100
AcDbSpline
210
0.0
220
0.0
230
1.0
 70
    24
 71
     3
 72
     8
 73
     4
 74
     0
 42
0.00000001
 43
0.00000001
 40
0.0
 40
0.0
 40
0.0
 40
0.0
 40
1.0
 40
1.0
 40
1.0
 40
1.0
 10
377.4888258982015
 20
274.427088134844
 30
0.0
 10
377.4888258982015
 20
274.6505518832992
 30
0.0
 10
377.4888258982015
 20
274.9595519503428
 30
0.0
 10
377.4888258982015
 20
275.2755895058153
 30
0.0
  0
ARC
  5
148
330
1F
100
AcDbEntity
  8
0
  6
Continuous
 62
     7
370
    25
100
AcDbCircle
 10
410.3888258982
 20
313.4858346464
 30
0.0
 40
1.5
100
AcDbArc
 50
0.0
 51
89.5
  0
ARC
  5
149
330
1F
100
AcDbEntity
  8
0
  6
Continuous
 62
     7
370
    25
100
AcDbCircle
 10
410.3888258982
 20
275.5601767822
 30
0.0
 40
1.500000000000038
100
AcDbArc
 50
270.5
 51
0.0
  0
LINE
  5
14A
330
1F
100
AcDbEntity
  8
0
  6
Continuous
 62
     7
370
    25
100
AcDbLine
 10
411.8888258982
 20
275.5601767822
 30
0.0
 11
411.8888258982
 21
313.4858346464
 31
0.0
  0
LWPOLYLINE
  5
14B
330
1F
100
AcDbEntity
  8
0
  6
Continuous
 62
     7
370
    25
100
AcDbPolyline
 90
        3
 70
   128
 43
0.0
 10
377.7914438589
 20
315.2703648074
 10
377.7325472146
 20
315.2650501346
 10
377.7171980994
 20
315.2616998622
  0
ARC
  5
14C
330
1F
100
AcDbEntity
  8
0
  6
Continuous
 62
     7
370
    25
100
AcDbCircle
 10
377.7888258982
 20
314.9703762304
 30
0.0
 40
0.3000000000000114
100
AcDbArc
 50
138.0103984291
 51
180.0
  0
SPLINE
  5
14D
330
1F
100
AcDbEntity
  8
0
  6
Continuous
 62
     7
370
    25
100
AcDbSpline
210
0.0
220
0.0
230
1.0
 70
    24
 71
     3
 72
     8
 73
     4
 74
     0
 42
0.00000001
 43
0.00000001
 40
0.0
 40
0.0
 40
0.0
 40
0.0
 40
1.0
 40
1.0
 40
1.0
 40
1.0
 10
377.4888258982015
 20
314.6189232937265
 30
0.0
 10
377.4888258982015
 20
314.8423870421178
 30
0.0
 10
377.4888258982015
 20
314.9703762303863
 30
0.0
 10
377.4888258982015
 20
314.9703762304324
 30
0.0
  0
LWPOLYLINE
  5
14E
330
1F
100
AcDbEntity
  8
0
  6
Continuous
 62
     7
370
    25
100
AcDbPolyline
 90
        3
 70
   128
 43
0.0
 10
377.7914438589
 20
273.7756466212
 10
377.7325472146
 20
273.780961294
 10
377.7171980994
 20
273.7843115663
  0
ARC
  5
14F
330
1F
100
AcDbEntity
  8
0
  6
Continuous
 62
     7
370
    25
100
AcDbCircle
 10
377.7888258982
 20
274.0756351981
 30
0.0
 40
0.3000000000000364
100
AcDbArc
 50
180.0
 51
221.9896015709
  0
SPLINE
  5
150
330
1F
100
AcDbEntity
  8
0
  6
Continuous
 62
     7
370
    25
100
AcDbSpline
210
0.0
220
0.0
230
1.0
 70
    24
 71
     3
 72
     8
 73
     4
 74
     0
 42
0.00000001
 43
0.00000001
 40
0.0
 40
0.0
 40
0.0
 40
0.0
 40
1.0
 40
1.0
 40
1.0
 40
1.0
 10
377.4888258982015
 20
274.0756351981383
 30
0.0
 10
377.4888258982015
 20
274.0756351981843
 30
0.0
 10
377.4888258982015
 20
274.2036243864536
 30
0.0
 10
377.4888258982015
 20
274.427088134844
 30
0.0
  0
SPLINE
  5
151
330
1F
100
AcDbEntity
  8
0
  6
Continuous
 62
     8
370
    18
100
AcDbSpline
210
0.0
220
0.0
230
1.0
 70
     8
 71
     3
 72
    18
 73
    14
 74
     0
 42
0.00000001
 43
0.00000001
 40
0.0
 40
0.0
 40
0.0
 40
0.0
 40
0.0863807640641111
 40
0.1736665713609928
 40
0.2618576428871833
 40
0.350954192452795
 40
0.440956426964521
 40
0.5318645466947841
 40
0.6236787455377204
 40
0.7163992112527824
 40
0.8100261256967258
 40
0.9045596650445287
 40
0.9999999999999999
 40
0.9999999999999999
 40
0.9999999999999999
 40
0.9999999999999999
 10
353.0412936749965
 20
254.9708140541376
 30
0.0
 10
353.0412938767006
 20
254.9394648222594
 30
0.0
 10
353.0412942822222
 20
254.8764379009989
 30
0.0
 10
353.04129091064
 20
254.7902147332311
 30
0.0
 10
353.041277291279
 20
254.710225214948
 30
0.0
 10
353.0412492270547
 20
254.6376987418012
 30
0.0
 10
353.0412035435247
 20
254.5730821044866
 30
0.0
 10
353.0411385035142
 20
254.5170060138192
 30
0.0
 10
353.0410538345551
 20
254.4700424727445
 30
0.0
 10
353.0409507937416
 20
254.4326597077761
 30
0.0
 10
353.0408324485907
 20
254.4056199305221
 30
0.0
 10
353.040703003453
 20
254.3883751631036
 30
0.0
 10
353.0406152397561
 20
254.3862225890639
 30
0.0
 10
353.0405711484479
 20
254.3851411646411
 30
0.0
  0
SPLINE
  5
152
330
1F
100
AcDbEntity
  8
0
  6
Continuous
 62
     8
370
    18
100
AcDbSpline
210
0.0
220
0.0
230
1.0
 70
     8
 71
     3
 72
    19
 73
    15
 74
     0
 42
0.00000001
 43
0.00000001
 40
0.0
 40
0.0
 40
0.0
 40
0.0
 40
0.0875219065052787
 40
0.1742817824293792
 40
0.2602797601982698
 40
0.3455159760638584
 40
0.4299905702389231
 40
0.5137036870380964
 40
0.5966554750252664
 40
0.6788460871677127
 40
0.7602756809973905
 40
0.8409444187797085
 40
0.9208524676902706
 40
1.0
 40
1.0
 40
1.0
 40
1.0
 10
353.0405711484479
 20
256.3848365549539
 30
0.0
 10
353.0406115442934
 20
256.339015992487
 30
0.0
 10
353.0406919842682
 20
256.247773815328
 30
0.0
 10
353.0408113401414
 20
256.112150209849
 30
0.0
 10
353.0409221845014
 20
255.97896853423
 30
0.0
 10
353.0410210297156
 20
255.8487947704908
 30
0.0
 10
353.0411051203237
 20
255.7221550109053
 30
0.0
 10
353.0411730220421
 20
255.5995356876413
 30
0.0
 10
353.0412243964099
 20
255.4813783479684
 30
0.0
 10
353.0412599916062
 20
255.368095718028
 30
0.0
 10
353.0412815483923
 20
255.2600110024197
 30
0.0
 10
353.0412918103194
 20
255.1575810792471
 30
0.0
 10
353.0412941892016
 20
255.0605762988972
 30
0.0
 10
353.0412938458509
 20
255.0006392737245
 30
0.0
 10
353.0412936749965
 20
254.9708140541376
 30
0.0
  0
LINE
  5
153
330
1F
100
AcDbEntity
  8
0
  6
Continuous
 62
     8
370
    18
100
AcDbLine
 10
353.0405711484
 20
256.384836555
 30
0.0
 11
359.4650045175
 21
256.4969754565
 31
0.0
  0
SPLINE
  5
154
330
1F
100
AcDbEntity
  8
0
  6
Continuous
 62
     8
370
    18
100
AcDbSpline
210
0.0
220
0.0
230
1.0
 70
     8
 71
     3
 72
    10
 73
     6
 74
     0
 42
0.00000001
 43
0.00000001
 40
0.0
 40
0.0
 40
0.0
 40
0.0
 40
0.5
 40
0.5
 40
1.0
 40
1.0
 40
1.0
 40
1.0
 10
359.4758424156888
 20
255.0831295201902
 30
0.0
 10
359.475842415692
 20
255.2682470055598
 30
0.0
 10
359.4748793520251
 20
255.4900135111572
 30
0.0
 10
359.47117220871
 20
255.9736247613332
 30
0.0
 10
359.4684301971242
 20
256.2351997222584
 30
0.0
 10
359.4650045174601
 20
256.496975456537
 30
0.0
  0
SPLINE
  5
155
330
1F
100
AcDbEntity
  8
0
  6
Continuous
 62
     8
370
    18
100
AcDbSpline
210
0.0
220
0.0
230
1.0
 70
     8
 71
     3
 72
    19
 73
    15
 74
     0
 42
0.00000001
 43
0.00000001
 40
0.0
 40
0.0
 40
0.0
 40
0.0
 40
0.0875155696262819
 40
0.174270723500849
 40
0.2602654635968123
 40
0.3454997922149388
 40
0.4299737119930206
 40
0.5136872259156225
 40
0.5966403373243552
 40
0.6788330499285561
 40
0.7602653678165033
 40
0.8409372954671456
 40
0.9208488377623941
 40
1.0
 40
1.0
 40
1.0
 40
1.0
 10
359.4650045174601
 20
254.4972800662242
 30
0.0
 10
359.4655924462027
 20
254.4981991028569
 30
0.0
 10
359.4667631952222
 20
254.5000291906867
 30
0.0
 10
359.4683512865008
 20
254.5145755517731
 30
0.0
 10
359.4697992131972
 20
254.5374078411661
 30
0.0
 10
359.4710923241598
 20
254.5690279515765
 30
0.0
 10
359.4722308210753
 20
254.6088377070858
 30
0.0
 10
359.473212470106
 20
254.6564950205472
 30
0.0
 10
359.4740372111451
 20
254.7115560905185
 30
0.0
 10
359.4747054740261
 20
254.7735900896812
 30
0.0
 10
359.4752199863933
 20
254.84209732594
 30
0.0
 10
359.475579910701
 20
254.9167422864338
 30
0.0
 10
359.4758018243725
 20
254.9965351270738
 30
0.0
 10
359.4758289284392
 20
255.054356859088
 30
0.0
 10
359.4758424156888
 20
255.0831295201902
 30
0.0
  0
LINE
  5
156
330
1F
100
AcDbEntity
  8
0
  6
Continuous
 62
     8
370
    18
100
AcDbLine
 10
359.4650045175
 20
332.549035972
 30
0.0
 11
353.0405711484
 21
332.6611748736
 31
0.0
  0
SPLINE
  5
157
330
1F
100
AcDbEntity
  8
0
  6
Continuous
 62
     8
370
    18
100
AcDbSpline
210
0.0
220
0.0
230
1.0
 70
     8
 71
     3
 72
    18
 73
    14
 74
     0
 42
0.00000001
 43
0.00000001
 40
0.0
 40
0.0
 40
0.0
 40
0.0
 40
0.0863807640641111
 40
0.1736665713609928
 40
0.2618576428871833
 40
0.350954192452795
 40
0.4409564269645191
 40
0.531864546694784
 40
0.6236787455377202
 40
0.716399211252778
 40
0.8100261256967214
 40
0.9045596650445288
 40
1.0
 40
1.0
 40
1.0
 40
1.0
 10
353.0412936749965
 20
334.075197374433
 30
0.0
 10
353.0412938767006
 20
334.0425939837021
 30
0.0
 10
353.0412942822222
 20
333.9770456044497
 30
0.0
 10
353.04129091064
 20
333.870296462312
 30
0.0
 10
353.041277291279
 20
333.7571481890044
 30
0.0
 10
353.0412492270547
 20
333.6373680421149
 30
0.0
 10
353.0412035435247
 20
333.5115521080704
 30
0.0
 10
353.0411385035142
 20
333.3801460805352
 30
0.0
 10
353.0410538345551
 20
333.243711953794
 30
0.0
 10
353.0409507937416
 20
333.1028551160321
 30
0.0
 10
353.0408324485907
 20
332.9582431265396
 30
0.0
 10
353.040703003453
 20
332.8105989835763
 30
0.0
 10
353.0406152397561
 20
332.7111411564517
 30
0.0
 10
353.0405711484479
 20
332.6611748736167
 30
0.0
  0
SPLINE
  5
158
330
1F
100
AcDbEntity
  8
0
  6
Continuous
 62
     8
370
    18
100
AcDbSpline
210
0.0
220
0.0
230
1.0
 70
     8
 71
     3
 72
    19
 73
    15
 74
     0
 42
0.00000001
 43
0.00000001
 40
0.0
 40
0.0
 40
0.0
 40
0.0
 40
0.0875219065052871
 40
0.1742817824294003
 40
0.2602797601982955
 40
0.3455159760638881
 40
0.4299905702389579
 40
0.5137036870381324
 40
0.5966554750253019
 40
0.6788460871677461
 40
0.7602756809974174
 40
0.8409444187797314
 40
0.9208524676902834
 40
1.0
 40
1.0
 40
1.0
 40
1.0
 10
353.0405711484479
 20
334.6608702639294
 30
0.0
 10
353.0406115442934
 20
334.6599608024831
 30
0.0
 10
353.0406919842682
 20
334.6581497980357
 30
0.0
 10
353.0408113401414
 20
334.6436291675843
 30
0.0
 10
353.0409221845014
 20
334.6208202639183
 30
0.0
 10
353.0410210297156
 20
334.5892210442232
 30
0.0
 10
353.0411051203237
 20
334.549429718018
 30
0.0
 10
353.0411730220421
 20
334.5017883639911
 30
0.0
 10
353.0412243964099
 20
334.4467407863978
 30
0.0
 10
353.0412599916062
 20
334.3847178070186
 30
0.0
 10
353.0412815483923
 20
334.3162191358828
 30
0.0
 10
353.0412918103194
 20
334.2415802213785
 30
0.0
 10
353.0412941892016
 20
334.1617911415289
 30
0.0
 10
353.0412938458509
 20
334.1039698068226
 30
0.0
 10
353.0412936749965
 20
334.075197374433
 30
0.0
  0
SPLINE
  5
159
330
1F
100
AcDbEntity
  8
0
  6
Continuous
 62
     8
370
    18
100
AcDbSpline
210
0.0
220
0.0
230
1.0
 70
     8
 71
     3
 72
    10
 73
     6
 74
     0
 42
0.00000001
 43
0.00000001
 40
0.0
 40
0.0
 40
0.0
 40
0.0
 40
0.5
 40
0.5
 40
1.0
 40
1.0
 40
1.0
 40
1.0
 10
359.4758424156888
 20
333.9628819083804
 30
0.0
 10
359.475842415692
 20
334.14799939375
 30
0.0
 10
359.4748793520251
 20
334.2961895186752
 30
0.0
 10
359.47117220871
 20
334.4965814988505
 30
0.0
 10
359.4684301971242
 20
334.5486715668853
 30
0.0
 10
359.4650045174601
 20
334.5487313623463
 30
0.0
  0
SPLINE
  5
15A
330
1F
100
AcDbEntity
  8
0
  6
Continuous
 62
     8
370
    18
100
AcDbSpline
210
0.0
220
0.0
230
1.0
 70
     8
 71
     3
 72
    19
 73
    15
 74
     0
 42
0.00000001
 43
0.00000001
 40
0.0
 40
0.0
 40
0.0
 40
0.0
 40
0.0875155696262907
 40
0.1742707235008578
 40
0.2602654635968253
 40
0.3454997922149572
 40
0.4299737119930389
 40
0.5136872259156424
 40
0.596640337324375
 40
0.678833049928578
 40
0.7602653678165191
 40
0.8409372954671578
 40
0.9208488377623972
 40
1.0
 40
1.0
 40
1.0
 40
1.0
 10
359.4650045174601
 20
332.5490359720336
 30
0.0
 10
359.4655924462027
 20
332.5948471538092
 30
0.0
 10
359.4667631952222
 20
332.6860714676833
 30
0.0
 10
359.4683512865008
 20
332.8216691895794
 30
0.0
 10
359.4697992131972
 20
332.9548274583507
 30
0.0
 10
359.4710923241598
 20
333.0849802536684
 30
0.0
 10
359.4722308210753
 20
333.2116014951261
 30
0.0
 10
359.473212470106
 20
333.3342047496645
 30
0.0
 10
359.4740372111451
 20
333.4523484708697
 30
0.0
 10
359.4747054740261
 20
333.5656199389243
 30
0.0
 10
359.4752199863933
 20
333.6736959329342
 30
0.0
 10
359.475579910701
 20
333.7761196407441
 30
0.0
 10
359.4758018243725
 20
333.8731204800559
 30
0.0
 10
359.4758289284392
 20
333.9330569386072
 30
0.0
 10
359.4758424156888
 20
333.9628819083804
 30
0.0
  0
LINE
  5
15B
330
1F
100
AcDbEntity
  8
0
  6
Continuous
 62
     8
370
    18
100
AcDbLine
 10
353.0405711484
 20
256.384836555
 30
0.0
 11
353.0405711484
 21
332.6611748736
 31
0.0
  0
LINE
  5
15C
330
1F
100
AcDbEntity
  8
0
  6
Continuous
 62
     8
370
    18
100
AcDbLine
 10
359.4650045175
 20
256.4969754565
 30
0.0
 11
359.4650045175
 21
332.549035972
 31
0.0
  0
LINE
  5
15D
330
1F
100
AcDbEntity
  8
0
  6
Continuous
 62
     8
370
    18
100
AcDbLine
 10
353.0405711484
 20
256.384836555
 30
0.0
 11
352.9388259078
 21
256.384836555
 31
0.0
  0
LINE
  5
15E
330
1F
100
AcDbEntity
  8
0
  6
Continuous
 62
     8
370
    18
100
AcDbLine
 10
353.0405711484
 20
332.6611748736
 30
0.0
 11
352.9388259078
 21
332.6611748736
 31
0.0
  0
ARC
  5
15F
330
1F
100
AcDbEntity
  8
0
  6
Continuous
 62
     8
370
    18
100
AcDbCircle
 10
353.0270426597
 20
333.9862441191
 30
0.0
 40
0.0900875855840477
100
AcDbArc
 50
80.8981083054
 51
168.3029268393
  0
ARC
  5
160
330
1F
100
AcDbEntity
  8
0
  6
Continuous
 62
     8
370
    18
100
AcDbCircle
 10
353.0270426597
 20
255.0597673095
 30
0.0
 40
0.0900875855838502
100
AcDbArc
 50
191.6970731606
 51
279.1018916947
  0
LINE
  5
161
330
1F
100
AcDbEntity
  8
0
  6
Continuous
 62
     8
370
    18
100
AcDbLine
 10
359.4650045175
 20
256.4969754565
 30
0.0
 11
360.9388259078
 21
256.4969754565
 31
0.0
  0
LINE
  5
162
330
1F
100
AcDbEntity
  8
0
  6
Continuous
 62
     8
370
    18
100
AcDbLine
 10
360.9388259078
 20
332.549035972
 30
0.0
 11
359.4650045175
 21
332.549035972
 31
0.0
  0
ARC
  5
163
330
1F
100
AcDbEntity
  8
0
  6
Continuous
 62
     8
370
    18
100
AcDbCircle
 10
359.6372510822
 20
256.3998612487
 30
0.0
 40
1.326587804262693
100
AcDbArc
 50
263.0113884487
 51
348.8561028063
  0
ARC
  5
164
330
1F
100
AcDbEntity
  8
0
  6
Continuous
 62
     8
370
    18
100
AcDbCircle
 10
359.6372510822
 20
332.6461501799
 30
0.0
 40
1.326587804262693
100
AcDbArc
 50
11.1438971937
 51
96.9886115513
  0
SPLINE
  5
165
330
1F
100
AcDbEntity
  8
0
  6
Continuous
 62
     8
370
    18
100
AcDbSpline
210
0.0
220
0.0
230
1.0
 70
     8
 71
     3
 72
    16
 73
    12
 74
     0
 42
0.00000001
 43
0.00000001
 40
0.0
 40
0.0
 40
0.0
 40
0.0
 40
0.1057030580189527
 40
0.2127580367761575
 40
0.3211649804301464
 40
0.4309239300103874
 40
0.5420349235510591
 40
0.65449799621671
 40
0.7683131804205288
 40
0.8834805059356465
 40
1.0
 40
1.0
 40
1.0
 40
1.0
 10
377.7925281126942
 20
314.8310391743294
 30
0.0
 10
377.7925262645394
 20
314.8009852059754
 30
0.0
 10
377.7925225445925
 20
314.7404928850892
 30
0.0
 10
377.7924884486239
 20
314.6403812340873
 30
0.0
 10
377.7924288143135
 20
314.533279510715
 30
0.0
 10
377.7923393218112
 20
314.4190596506806
 30
0.0
 10
377.7922190236293
 20
314.2985622112478
 30
0.0
 10
377.7920676887744
 20
314.1724896396304
 30
0.0
 10
377.7918861374186
 20
314.0417076689574
 30
0.0
 10
377.7916782197468
 20
313.9071608831156
 30
0.0
 10
377.7915222825094
 20
313.8161785729245
 30
0.0
 10
377.791443858851
 20
313.7704219227554
 30
0.0
  0
SPLINE
  5
166
330
1F
100
AcDbEntity
  8
0
  6
Continuous
 62
     8
370
    18
100
AcDbSpline
210
0.0
220
0.0
230
1.0
 70
     8
 71
     3
 72
    10
 73
     6
 74
     0
 42
0.00000001
 43
0.00000001
 40
0.0
 40
0.0
 40
0.0
 40
0.0
 40
0.1549179056680682
 40
0.4452809041987946
 40
1.0
 40
1.0
 40
1.0
 40
1.0
 10
377.7916777936332
 20
315.2553584872586
 30
0.0
 10
377.7917650278579
 20
315.2514386562929
 30
0.0
 10
377.7920157653971
 20
315.2401718768381
 30
0.0
 10
377.7924166572182
 20
315.1319851580714
 30
0.0
 10
377.79248394465
 20
314.950299312957
 30
0.0
 10
377.7925281126942
 20
314.8310391743294
 30
0.0
  0
ARC
  5
167
330
1F
100
AcDbEntity
  8
0
  6
Continuous
 62
     8
370
    18
100
AcDbCircle
 10
367.4273836901
 20
314.2358060887
 30
0.0
 40
42.98107558862976
100
AcDbArc
 50
359.0002023313
 51
0.9997976687
  0
LINE
  5
168
330
1F
100
AcDbEntity
  8
0
  6
Continuous
 62
     8
370
    18
100
AcDbLine
 10
410.4019157014
 20
313.4858346464
 30
0.0
 11
377.7914438589
 21
313.7704219228
 31
0.0
  0
LINE
  5
169
330
1F
100
AcDbEntity
  8
0
  6
Continuous
 62
     8
370
    18
100
AcDbLine
 10
377.7914438589
 20
275.2755895058
 30
0.0
 11
377.7914438589
 21
313.7704219228
 31
0.0
  0
LINE
  5
16A
330
1F
100
AcDbEntity
  8
0
  6
Continuous
 62
     8
370
    18
100
AcDbLine
 10
410.4019157014
 20
275.5601767822
 30
0.0
 11
410.4019157014
 21
313.4858346464
 31
0.0
  0
LINE
  5
16B
330
1F
100
AcDbEntity
  8
0
  6
Continuous
 62
     8
370
    18
100
AcDbLine
 10
377.7914438589
 20
275.2755895058
 30
0.0
 11
410.4019157014
 21
275.5601767822
 31
0.0
  0
LINE
  5
16C
330
1F
100
AcDbEntity
  8
0
  6
Continuous
 62
     8
370
    18
100
AcDbLine
 10
377.7914438589
 20
313.7704219228
 30
0.0
 11
377.4888258982
 21
313.7704219228
 31
0.0
  0
LINE
  5
16D
330
1F
100
AcDbEntity
  8
0
  6
Continuous
 62
     8
370
    18
100
AcDbLine
 10
377.7914438589
 20
275.2755895058
 30
0.0
 11
377.4888258982
 21
275.2755895058
 31
0.0
  0
SPLINE
  5
16E
330
1F
100
AcDbEntity
  8
0
  6
Continuous
 62
     8
370
    18
100
AcDbSpline
210
0.0
220
0.0
230
1.0
 70
     8
 71
     3
 72
    16
 73
    12
 74
     0
 42
0.00000001
 43
0.00000001
 40
0.0
 40
0.0
 40
0.0
 40
0.0
 40
0.1057030580186641
 40
0.2127580367756609
 40
0.3211649804295023
 40
0.4309239300096809
 40
0.5420349235503481
 40
0.6544979962160723
 40
0.7683131804200338
 40
0.8834805059353668
 40
1.0
 40
1.0
 40
1.0
 40
1.0
 10
377.7925281126941
 20
274.2149722542412
 30
0.0
 10
377.7925262645394
 20
274.1863272078837
 30
0.0
 10
377.7925225445925
 20
274.1286707508179
 30
0.0
 10
377.7924884486239
 20
274.0516674785118
 30
0.0
 10
377.7924288143135
 20
273.9819604774673
 30
0.0
 10
377.7923393218112
 20
273.9210730576015
 30
0.0
 10
377.7922190236293
 20
273.8696550746345
 30
0.0
 10
377.7920676887744
 20
273.8284550785144
 30
0.0
 10
377.7918861374185
 20
273.798475638133
 30
0.0
 10
377.7916782197468
 20
273.7792602838326
 30
0.0
 10
377.7915222825094
 20
273.7768558529962
 30
0.0
 10
377.791443858851
 20
273.775646621219
 30
0.0
  0
SPLINE
  5
16F
330
1F
100
AcDbEntity
  8
0
  6
Continuous
 62
     8
370
    18
100
AcDbSpline
210
0.0
220
0.0
230
1.0
 70
     8
 71
     3
 72
    17
 73
    13
 74
     0
 42
0.00000001
 43
0.00000001
 40
0.0
 40
0.0
 40
0.0
 40
0.0
 40
0.1049290128405677
 40
0.2087626174296021
 40
0.3115008378528416
 40
0.413143699798508
 40
0.5136912306183006
 40
0.613143459391753
 40
0.7115004169941636
 40
0.8087621361683323
 40
0.9049286516003953
 40
1.0
 40
1.0
 40
1.0
 40
1.0
 10
377.791443858851
 20
275.2755895058153
 30
0.0
 10
377.791514610346
 20
275.2343846083001
 30
0.0
 10
377.7916553747245
 20
275.1524049725129
 30
0.0
 10
377.7918458814411
 20
275.0309077812565
 30
0.0
 10
377.7920156048082
 20
274.9122963007719
 30
0.0
 10
377.7921613539816
 20
274.7972798432447
 30
0.0
 10
377.792282243122
 20
274.6865011209935
 30
0.0
 10
377.7923778819896
 20
274.580552866585
 30
0.0
 10
377.7924489461682
 20
274.4799107181457
 30
0.0
 10
377.7924963618011
 20
274.3851763185044
 30
0.0
 10
377.7925236149244
 20
274.2961852132938
 30
0.0
 10
377.7925266191724
 20
274.2419396908266
 30
0.0
 10
377.7925281126941
 20
274.2149722542412
 30
0.0
  0
ARC
  5
170
330
1F
100
AcDbEntity
  8
0
  6
Continuous
 62
     8
370
    18
100
AcDbCircle
 10
367.4273836884
 20
274.8102053399
 30
0.0
 40
42.98107559034501
100
AcDbArc
 50
359.0002023313
 51
0.9997976687
  0
ARC
  5
171
330
1F
100
AcDbEntity
  8
0
  6
Continuous
 62
     8
370
    18
100
AcDbCircle
 10
377.752405569
 20
314.5650110702
 30
0.0
 40
0.2690367460258758
100
AcDbArc
 50
81.4232522716
 51
168.4402447738
  0
ARC
  5
172
330
1F
100
AcDbEntity
  8
0
  6
Continuous
 62
     8
370
    18
100
AcDbCircle
 10
377.752405569
 20
274.4810003584
 30
0.0
 40
0.2690367460258128
100
AcDbArc
 50
191.5597552262
 51
278.5767477284
  0
LINE
  5
173
330
1F
100
AcDbEntity
  8
0
  6
Continuous
 62
     8
370
    18
100
AcDbLine
 10
411.8888258982
 20
313.4858346464
 30
0.0
 11
410.4019157014
 21
313.4858346464
 31
0.0
  0
LINE
  5
174
330
1F
100
AcDbEntity
  8
0
  6
Continuous
 62
     8
370
    18
100
AcDbLine
 10
410.4019157014
 20
275.5601767822
 30
0.0
 11
411.8888258982
 21
275.5601767822
 31
0.0
  0
ENDSEC
  0
SECTION
  2
OBJECTS
  0
DICTIONARY
  5
C
330
0
100
AcDbDictionary
281
     1
  3
ACAD_GROUP
350
D
  3
ACAD_LAYOUT
350
1A
  3
ACAD_MLINESTYLE
350
17
  3
ACAD_PLOTSETTINGS
350
19
  3
ACAD_PLOTSTYLENAME
350
E
  3
ACAD_SCALELIST
350
47
  3
DWGPROPS
350
175
  0
DICTIONARY
  5
D
102
{ACAD_REACTORS
330
C
102
}
330
C
100
AcDbDictionary
281
     1
  0
DICTIONARY
  5
1A
102
{ACAD_REACTORS
330
C
102
}
330
C
100
AcDbDictionary
281
     1
  3
Layout1
350
1E
  3
Layout2
350
26
  3
Model
350
22
  0
DICTIONARY
  5
17
102
{ACAD_REACTORS
330
C
102
}
330
C
100
AcDbDictionary
281
     1
  3
Standard
350
18
  0
DICTIONARY
  5
19
102
{ACAD_REACTORS
330
C
102
}
330
C
100
AcDbDictionary
281
     1
  0
ACDBDICTIONARYWDFLT
  5
E
102
{ACAD_REACTORS
330
C
102
}
330
C
100
AcDbDictionary
281
     1
  3
Normal
350
F
100
AcDbDictionaryWithDefault
340
F
  0
DICTIONARY
  5
47
102
{ACAD_REACTORS
330
C
102
}
330
C
100
AcDbDictionary
281
     1
  3
A0
350
48
  3
A1
350
49
  3
A2
350
4A
  3
A3
350
4B
  3
A4
350
4C
  3
A5
350
4D
  3
A6
350
4E
  3
A7
350
4F
  3
A8
350
50
  3
A9
350
51
  3
B0
350
52
  3
B1
350
53
  3
B2
350
54
  3
B3
350
55
  3
B4
350
56
  3
B5
350
57
  3
B6
350
58
  0
XRECORD
  5
175
102
{ACAD_REACTORS
330
C
102
}
330
C
100
AcDbXrecord
280
     1
  1
DWGPROPS COOKIE
  2

  3

  4

  6

  7

  8
fue-task
  9

300
=
301
=
302
=
303
=
304
=
305
=
306
=
307
=
308
=
309
=
 40
0.0
 41
2460384.426722824
 42
2460384.426723727
  1

 90
        0
  0
LAYOUT
  5
1E
102
{ACAD_REACTORS
330
1A
102
}
330
1A
100
AcDbPlotSettings
  1

  2
none_device
  4

  6

 40
0.0
 41
0.0
 42
0.0
 43
0.0
 44
0.0
 45
0.0
 46
0.0
 47
0.0
 48
0.0
 49
0.0
140
0.0
141
0.0
142
1.0
143
1.0
 70
   688
 72
     1
 73
     0
 74
     5
  7

 75
    16
147
1.0
148
0.0
149
0.0
100
AcDbLayout
  1
Layout1
 70
     1
 71
     1
 10
0.0
 20
0.0
 11
420.0
 21
297.0
 12
0.0
 22
0.0
 32
0.0
 14
1.0000000000E+20
 24
1.0000000000E+20
 34
1.0000000000E+20
 15
-1.0000000000E+20
 25
-1.0000000000E+20
 35
-1.0000000000E+20
146
0.0
 13
0.0
 23
0.0
 33
0.0
 16
1.0
 26
0.0
 36
0.0
 17
0.0
 27
1.0
 37
0.0
 76
     0
330
1B
  0
LAYOUT
  5
26
102
{ACAD_REACTORS
330
1A
102
}
330
1A
100
AcDbPlotSettings
  1

  2
none_device
  4

  6

 40
0.0
 41
0.0
 42
0.0
 43
0.0
 44
0.0
 45
0.0
 46
0.0
 47
0.0
 48
0.0
 49
0.0
140
0.0
141
0.0
142
1.0
143
1.0
 70
   688
 72
     1
 73
     0
 74
     5
  7

 75
    16
147
1.0
148
0.0
149
0.0
100
AcDbLayout
  1
Layout2
 70
     1
 71
     2
 10
0.0
 20
0.0
 11
0.0
 21
0.0
 12
0.0
 22
0.0
 32
0.0
 14
0.0
 24
0.0
 34
0.0
 15
0.0
 25
0.0
 35
0.0
146
0.0
 13
0.0
 23
0.0
 33
0.0
 16
1.0
 26
0.0
 36
0.0
 17
0.0
 27
1.0
 37
0.0
 76
     0
330
23
  0
LAYOUT
  5
22
102
{ACAD_REACTORS
330
1A
102
}
330
1A
100
AcDbPlotSettings
  1

  2
none_device
  4
Letter_(8.50_x_11.00_Inches)
  6

 40
6.35
 41
6.35
 42
6.35000508
 43
6.35000508
 44
215.9
 45
279.4
 46
0.0
 47
0.0
 48
0.0
 49
0.0
140
0.0
141
0.0
142
1.0
143
1.0
 70
  1712
 72
     1
 73
     0
 74
     0
  7

 75
     0
147
1.0
148
0.0
149
0.0
100
AcDbLayout
  1
Model
 70
     1
 71
     0
 10
0.0
 20
0.0
 11
594.0
 21
841.0
 12
0.0
 22
0.0
 32
0.0
 14
0.0
 24
0.0
 34
0.0
 15
594.0
 25
841.0
 35
0.0
146
0.0
 13
0.0
 23
0.0
 33
0.0
 16
1.0
 26
0.0
 36
0.0
 17
0.0
 27
1.0
 37
0.0
 76
     0
330
1F
331
29
  0
MLINESTYLE
  5
18
102
{ACAD_REACTORS
330
17
102
}
330
17
100
AcDbMlineStyle
  2
Standard
 70
     0
  3

 62
   256
 51
90.0
 52
90.0
 71
     2
 49
0.5
 62
   256
  6
BYLAYER
 49
-0.5
 62
   256
  6
BYLAYER
  0
ACDBPLACEHOLDER
  5
F
102
{ACAD_REACTORS
330
E
102
}
330
E
  0
SCALE
  5
48
102
{ACAD_REACTORS
330
47
102
}
330
47
100
AcDbScale
 70
     0
300
1:1
140
1.0
141
1.0
290
     1
  0
SCALE
  5
49
102
{ACAD_REACTORS
330
47
102
}
330
47
100
AcDbScale
 70
     0
300
1:2
140
1.0
141
2.0
290
     0
  0
SCALE
  5
4A
102
{ACAD_REACTORS
330
47
102
}
330
47
100
AcDbScale
 70
     0
300
1:4
140
1.0
141
4.0
290
     0
  0
SCALE
  5
4B
102
{ACAD_REACTORS
330
47
102
}
330
47
100
AcDbScale
 70
     0
300
1:5
140
1.0
141
5.0
290
     0
  0
SCALE
  5
4C
102
{ACAD_REACTORS
330
47
102
}
330
47
100
AcDbScale
 70
     0
300
1:8
140
1.0
141
8.0
290
     0
  0
SCALE
  5
4D
102
{ACAD_REACTORS
330
47
102
}
330
47
100
AcDbScale
 70
     0
300
1:10
140
1.0
141
10.0
290
     0
  0
SCALE
  5
4E
102
{ACAD_REACTORS
330
47
102
}
330
47
100
AcDbScale
 70
     0
300
1:16
140
1.0
141
16.0
290
     0
  0
SCALE
  5
4F
102
{ACAD_REACTORS
330
47
102
}
330
47
100
AcDbScale
 70
     0
300
1:20
140
1.0
141
20.0
290
     0
  0
SCALE
  5
50
102
{ACAD_REACTORS
330
47
102
}
330
47
100
AcDbScale
 70
     0
300
1:30
140
1.0
141
30.0
290
     0
  0
SCALE
  5
51
102
{ACAD_REACTORS
330
47
102
}
330
47
100
AcDbScale
 70
     0
300
1:40
140
1.0
141
40.0
290
     0
  0
SCALE
  5
52
102
{ACAD_REACTORS
330
47
102
}
330
47
100
AcDbScale
 70
     0
300
1:50
140
1.0
141
50.0
290
     0
  0
SCALE
  5
53
102
{ACAD_REACTORS
330
47
102
}
330
47
100
AcDbScale
 70
     0
300
1:100
140
1.0
141
100.0
290
     0
  0
SCALE
  5
54
102
{ACAD_REACTORS
330
47
102
}
330
47
100
AcDbScale
 70
     0
300
2:1
140
2.0
141
1.0
290
     0
  0
SCALE
  5
55
102
{ACAD_REACTORS
330
47
102
}
330
47
100
AcDbScale
 70
     0
300
4:1
140
4.0
141
1.0
290
     0
  0
SCALE
  5
56
102
{ACAD_REACTORS
330
47
102
}
330
47
100
AcDbScale
 70
     0
300
8:1
140
8.0
141
1.0
290
     0
  0
SCALE
  5
57
102
{ACAD_REACTORS
330
47
102
}
330
47
100
AcDbScale
 70
     0
300
10:1
140
10.0
141
1.0
290
     0
  0
SCALE
  5
58
102
{ACAD_REACTORS
330
47
102
}
330
47
100
AcDbScale
 70
     0
300
100:1
140
100.0
141
1.0
290
     0
  0
ENDSEC
  0
EOF
