  0
SECTION
  2
HEADER
  9
$ACADVER
  1
AC1015
  9
$ACADMAINTVER
 70
     6
  9
$DWGCODEPAGE
  3
ANSI_1252
  9
$INSBASE
 10
0.0
 20
0.0
 30
0.0
  9
$EXTMIN
 10
0.0
 20
0.0
 30
0.0
  9
$EXTMAX
 10
594.0
 20
841.0
 30
0.0
  9
$LIMMIN
 10
0.0
 20
0.0
  9
$LIMMAX
 10
594.0
 20
841.0
  9
$ORTHOMODE
 70
     0
  9
$REGENMODE
 70
     1
  9
$FILLMODE
 70
     1
  9
$QTEXTMODE
 70
     0
  9
$MIRRTEXT
 70
     1
  9
$LTSCALE
 40
1.0
  9
$ATTMODE
 70
     1
  9
$TEXTSIZE
 40
10.0
  9
$TRACEWID
 40
1.0
  9
$TEXTSTYLE
  7
Standard
  9
$CLAYER
  8
0
  9
$CELTYPE
  6
ByLayer
  9
$CECOLOR
 62
   256
  9
$CELTSCALE
 40
1.0
  9
$DISPSILH
 70
     0
  9
$DIMSCALE
 40
1.0
  9
$DIMASZ
 40
2.5
  9
$DIMEXO
 40
0.0
  9
$DIMDLI
 40
3.75
  9
$DIMRND
 40
0.0
  9
$DIMDLE
 40
0.0
  9
$DIMEXE
 40
1.0
  9
$DIMTP
 40
0.0
  9
$DIMTM
 40
0.0
  9
$DIMTXT
 40
3.5
  9
$DIMCEN
 40
2.5
  9
$DIMTSZ
 40
0.0
  9
$DIMTOL
 70
     0
  9
$DIMLIM
 70
     0
  9
$DIMTIH
 70
     1
  9
$DIMTOH
 70
     1
  9
$DIMSE1
 70
     0
  9
$DIMSE2
 70
     0
  9
$DIMTAD
 70
     1
  9
$DIMZIN
 70
     0
  9
$DIMBLK
  1

  9
$DIMASO
 70
     1
  9
$DIMSHO
 70
     1
  9
$DIMPOST
  1

  9
$DIMAPOST
  1

  9
$DIMALT
 70
     0
  9
$DIMALTD
 70
     3
  9
$DIMALTF
 40
0.0393700787
  9
$DIMLFAC
 40
1.0
  9
$DIMTOFL
 70
     1
  9
$DIMTVP
 40
0.0
  9
$DIMTIX
 70
     0
  9
$DIMSOXD
 70
     0
  9
$DIMSAH
 70
     0
  9
$DIMBLK1
  1

  9
$DIMBLK2
  1

  9
$DIMSTYLE
  2
ISO-25
  9
$DIMCLRD
 70
     0
  9
$DIMCLRE
 70
     0
  9
$DIMCLRT
 70
     0
  9
$DIMTFAC
 40
1.0
  9
$DIMGAP
 40
1.5
  9
$DIMJUST
 70
     0
  9
$DIMSD1
 70
     0
  9
$DIMSD2
 70
     0
  9
$DIMTOLJ
 70
     0
  9
$DIMTZIN
 70
     0
  9
$DIMALTZ
 70
     0
  9
$DIMALTTZ
 70
     0
  9
$DIMUPT
 70
     0
  9
$DIMDEC
 70
     2
  9
$DIMTDEC
 70
     2
  9
$DIMALTU
 70
     2
  9
$DIMALTTD
 70
     3
  9
$DIMTXSTY
  7
Standard
  9
$DIMAUNIT
 70
     0
  9
$DIMADEC
 70
     2
  9
$DIMALTRND
 40
0.0
  9
$DIMAZIN
 70
     0
  9
$DIMDSEP
 70
    44
  9
$DIMATFIT
 70
     3
  9
$DIMFRAC
 70
     0
  9
$DIMLDRBLK
  1

  9
$DIMLUNIT
 70
     2
  9
$DIMLWD
 70
    -2
  9
$DIMLWE
 70
    -2
  9
$DIMTMOVE
 70
     0
  9
$LUNITS
 70
     2
  9
$LUPREC
 70
     2
  9
$SKETCHINC
 40
1.0
  9
$FILLETRAD
 40
10.0
  9
$AUNITS
 70
     0
  9
$AUPREC
 70
     2
  9
$MENU
  1
.
  9
$ELEVATION
 40
0.0
  9
$PELEVATION
 40
0.0
  9
$THICKNESS
 40
0.0
  9
$LIMCHECK
 70
     0
  9
$CHAMFERA
 40
0.0
  9
$CHAMFERB
 40
0.0
  9
$CHAMFERC
 40
0.0
  9
$CHAMFERD
 40
0.0
  9
$SKPOLY
 70
     0
  9
$TDCREATE
 40
2458561.357519826
  9
$TDUCREATE
 40
2458561.31585316
  9
$TDUPDATE
 40
2458561.357520914
  9
$TDUUPDATE
 40
2458561.315854248
  9
$TDINDWG
 40
0.0000000116
  9
$TDUSRTIMER
 40
0.0000000116
  9
$USRTIMER
 70
     1
  9
$ANGBASE
 50
0.0
  9
$ANGDIR
 70
     0
  9
$PDMODE
 70
     0
  9
$PDSIZE
 40
-1.0
  9
$PLINEWID
 40
0.0
  9
$SPLFRAME
 70
     0
  9
$SPLINETYPE
 70
     6
  9
$SPLINESEGS
 70
     8
  9
$HANDSEED
  5
175
  9
$SURFTAB1
 70
     6
  9
$SURFTAB2
 70
     6
  9
$SURFTYPE
 70
     6
  9
$SURFU
 70
     6
  9
$SURFV
 70
     6
  9
$UCSBASE
  2

  9
$UCSNAME
  2

  9
$UCSORG
 10
0.0
 20
0.0
 30
0.0
  9
$UCSXDIR
 10
1.0
 20
0.0
 30
0.0
  9
$UCSYDIR
 10
0.0
 20
1.0
 30
0.0
  9
$UCSORTHOREF
  2

  9
$UCSORTHOVIEW
 70
     0
  9
$UCSORGTOP
 10
0.0
 20
0.0
 30
0.0
  9
$UCSORGBOTTOM
 10
0.0
 20
0.0
 30
0.0
  9
$UCSORGLEFT
 10
0.0
 20
0.0
 30
0.0
  9
$UCSORGRIGHT
 10
0.0
 20
0.0
 30
0.0
  9
$UCSORGFRONT
 10
0.0
 20
0.0
 30
0.0
  9
$UCSORGBACK
 10
0.0
 20
0.0
 30
0.0
  9
$PUCSBASE
  2

  9
$PUCSNAME
  2

  9
$PUCSORG
 10
0.0
 20
0.0
 30
0.0
  9
$PUCSXDIR
 10
1.0
 20
0.0
 30
0.0
  9
$PUCSYDIR
 10
0.0
 20
1.0
 30
0.0
  9
$PUCSORTHOREF
  2

  9
$PUCSORTHOVIEW
 70
     0
  9
$PUCSORGTOP
 10
0.0
 20
0.0
 30
0.0
  9
$PUCSORGBOTTOM
 10
0.0
 20
0.0
 30
0.0
  9
$PUCSORGLEFT
 10
0.0
 20
0.0
 30
0.0
  9
$PUCSORGRIGHT
 10
0.0
 20
0.0
 30
0.0
  9
$PUCSORGFRONT
 10
0.0
 20
0.0
 30
0.0
  9
$PUCSORGBACK
 10
0.0
 20
0.0
 30
0.0
  9
$USERI1
 70
     0
  9
$USERI2
 70
     0
  9
$USERI3
 70
     0
  9
$USERI4
 70
     0
  9
$USERI5
 70
     0
  9
$USERR1
 40
0.0
  9
$USERR2
 40
0.0
  9
$USERR3
 40
0.0
  9
$USERR4
 40
0.0
  9
$USERR5
 40
0.0
  9
$WORLDVIEW
 70
     1
  9
$SHADEDGE
 70
     3
  9
$SHADEDIF
 70
    70
  9
$TILEMODE
 70
     1
  9
$MAXACTVP
 70
    64
  9
$PINSBASE
 10
0.0
 20
0.0
 30
0.0
  9
$PLIMCHECK
 70
     0
  9
$PEXTMIN
 10
1.0000000000E+20
 20
1.0000000000E+20
 30
1.0000000000E+20
  9
$PEXTMAX
 10
-1.0000000000E+20
 20
-1.0000000000E+20
 30
-1.0000000000E+20
  9
$PLIMMIN
 10
0.0
 20
0.0
  9
$PLIMMAX
 10
420.0
 20
297.0
  9
$UNITMODE
 70
     0
  9
$VISRETAIN
 70
     1
  9
$PLINEGEN
 70
     0
  9
$PSLTSCALE
 70
     1
  9
$TREEDEPTH
 70
  3020
  9
$CMLSTYLE
  2
Standard
  9
$CMLJUST
 70
     0
  9
$CMLSCALE
 40
20.0
  9
$PROXYGRAPHICS
 70
     1
  9
$MEASUREMENT
 70
     1
  9
$CELWEIGHT
370
    -1
  9
$ENDCAPS
280
     0
  9
$JOINSTYLE
280
     0
  9
$LWDISPLAY
290
     1
  9
$INSUNITS
 70
     4
  9
$HYPERLINKBASE
  1

  9
$STYLESHEET
  1

  9
$XEDIT
290
     1
  9
$CEPSNTYPE
380
     0
  9
$PSTYLEMODE
290
     1
  9
$FINGERPRINTGUID
  2
{138D89A5-ACD5-4A16-AFD3-BDE4D37AF796}
  9
$VERSIONGUID
  2
{FAEB1C32-E019-11D5-929B-00C0DF256EC4}
  9
$EXTNAMES
290
     1
  9
$PSVPSCALE
 40
0.0
  9
$OLESTARTUP
290
     0
  0
ENDSEC
  0
SECTION
  2
CLASSES
  0
CLASS
  1
ACDBDICTIONARYWDFLT
  2
AcDbDictionaryWithDefault
  3
ObjectDBX Classes
 90
        0
280
     0
281
     0
  0
CLASS
  1
VISUALSTYLE
  2
AcDbVisualStyle
  3
ObjectDBX Classes
 90
     4095
280
     0
281
     0
  0
CLASS
  1
MATERIAL
  2
AcDbMaterial
  3
ObjectDBX Classes
 90
     1153
280
     0
281
     0
  0
CLASS
  1
SCALE
  2
AcDbScale
  3
ObjectDBX Classes
 90
     1153
280
     0
281
     0
  0
CLASS
  1
TABLESTYLE
  2
AcDbTableStyle
  3
ObjectDBX Classes
 90
     4095
280
     0
281
     0
  0
CLASS
  1
MLEADERSTYLE
  2
AcDbMLeaderStyle
  3
ACDB_MLEADERSTYLE_CLASS
 90
     4095
280
     0
281
     0
  0
CLASS
  1
SUN
  2
AcDbSun
  3
SCENEOE
 90
     1153
280
     0
281
     0
  0
CLASS
  1
ACDBPLACEHOLDER
  2
AcDbPlaceHolder
  3
ObjectDBX Classes
 90
        0
280
     0
281
     0
  0
CLASS
  1
LAYOUT
  2
AcDbLayout
  3
ObjectDBX Classes
 90
        0
280
     0
281
     0
  0
ENDSEC
  0
SECTION
  2
TABLES
  0
TABLE
  2
VPORT
  5
8
330
0
100
AcDbSymbolTable
 70
     1
  0
VPORT
  5
29
330
8
100
AcDbSymbolTableRecord
100
AcDbViewportTableRecord
  2
*Active
 70
     0
 10
0.0
 20
0.0
 11
1.0
 21
1.0
 12
297.0
 22
420.5
 13
0.0
 23
0.0
 14
10.0
 24
10.0
 15
10.0
 25
10.0
 16
0.0
 26
0.0
 36
1.0
 17
0.0
 27
0.0
 37
0.0
 40
841.0
 41
0.7063020214
 42
50.0
 43
0.0
 44
0.0
 50
0.0
 51
0.0
 71
     0
 72
  2000
 73
     1
 74
     3
 75
     0
 76
     0
 77
     0
 78
     0
281
     0
 65
     1
110
0.0
120
0.0
130
0.0
111
1.0
121
0.0
131
0.0
112
0.0
122
1.0
132
0.0
 79
     0
146
0.0
  0
ENDTAB
  0
TABLE
  2
LTYPE
  5
5
330
0
100
AcDbSymbolTable
 70
     6
  0
LTYPE
  5
14
330
5
100
AcDbSymbolTableRecord
100
AcDbLinetypeTableRecord
  2
ByBlock
 70
     0
  3

 72
    65
 73
     0
 40
0.0
  0
LTYPE
  5
15
330
5
100
AcDbSymbolTableRecord
100
AcDbLinetypeTableRecord
  2
ByLayer
 70
     0
  3

 72
    65
 73
     0
 40
0.0
  0
LTYPE
  5
16
330
5
100
AcDbSymbolTableRecord
100
AcDbLinetypeTableRecord
  2
Continuous
 70
     0
  3
Solid line
 72
    65
 73
     0
 40
0.0
  0
LTYPE
  5
6E
330
5
100
AcDbSymbolTableRecord
100
AcDbLinetypeTableRecord
  2
HIDDEN
 70
     0
  3
Hidden __ __ __ __ __ __ __ __ __ __ __ __ __ __
 72
    65
 73
     2
 40
1.905
 49
1.27
 74
     0
 49
-0.635
 74
     0
  0
LTYPE
  5
6F
330
5
100
AcDbSymbolTableRecord
100
AcDbLinetypeTableRecord
  2
PHANTOM
 70
     0
  3
Phantom ______  __  __  ______  __  __  ______
 72
    65
 73
     6
 40
12.7
 49
6.35
 74
     0
 49
-1.27
 74
     0
 49
1.27
 74
     0
 49
-1.27
 74
     0
 49
1.27
 74
     0
 49
-1.27
 74
     0
  0
LTYPE
  5
70
330
5
100
AcDbSymbolTableRecord
100
AcDbLinetypeTableRecord
  2
CENTER
 70
     0
  3
Center ____ _ ____ _ ____ _ ____ _ ____ _ ____
 72
    65
 73
     4
 40
10.16
 49
6.35
 74
     0
 49
-1.27
 74
     0
 49
1.27
 74
     0
 49
-1.27
 74
     0
  0
LTYPE
  5
71
330
5
100
AcDbSymbolTableRecord
100
AcDbLinetypeTableRecord
  2
CENTERX2
 70
     0
  3
Center (2x) ________  __  ________  __  _____
 72
    65
 73
     4
 40
20.32
 49
12.7
 74
     0
 49
-2.54
 74
     0
 49
2.54
 74
     0
 49
-2.54
 74
     0
  0
LTYPE
  5
72
330
5
100
AcDbSymbolTableRecord
100
AcDbLinetypeTableRecord
  2
DOT2
 70
     0
  3
Dot (.5x) ........................................
 72
    65
 73
     2
 40
0.635
 49
0.0
 74
     0
 49
-0.635
 74
     0
  0
ENDTAB
  0
TABLE
  2
LAYER
  5
2
330
0
100
AcDbSymbolTable
 70
     1
  0
LAYER
  5
10
330
2
100
AcDbSymbolTableRecord
100
AcDbLayerTableRecord
  2
0
 70
     0
 62
     7
  6
Continuous
370
    -3
390
F
  0
ENDTAB
  0
TABLE
  2
STYLE
  5
3
330
0
100
AcDbSymbolTable
 70
     3
  0
STYLE
  5
11
330
3
100
AcDbSymbolTableRecord
100
AcDbTextStyleTableRecord
  2
Standard
 70
     0
 40
0.0
 41
1.0
 50
0.0
 71
     0
 42
10.0
  3
txt
  4

  0
STYLE
  5
76
330
3
100
AcDbSymbolTableRecord
100
AcDbTextStyleTableRecord
  2
SLDTEXTSTYLE0
 70
     0
 40
0.0
 41
0.96
 50
0.0
 71
     0
 42
10.0
  3
ISOCP3
  4

  0
STYLE
  5
8D
330
3
100
AcDbSymbolTableRecord
100
AcDbTextStyleTableRecord
  2
SLDTEXTSTYLE1
 70
     0
 40
0.0
 41
0.605
 50
0.0
 71
     0
 42
10.0
  3
TXT
  4

  0
ENDTAB
  0
TABLE
  2
VIEW
  5
6
330
0
100
AcDbSymbolTable
 70
     0
  0
ENDTAB
  0
TABLE
  2
UCS
  5
7
330
0
100
AcDbSymbolTable
 70
     0
  0
ENDTAB
  0
TABLE
  2
APPID
  5
9
330
0
100
AcDbSymbolTable
 70
     1
  0
APPID
  5
12
330
9
100
AcDbSymbolTableRecord
100
AcDbRegAppTableRecord
  2
ACAD
 70
     0
  0
ENDTAB
  0
TABLE
  2
DIMSTYLE
  5
A
330
0
100
AcDbSymbolTable
 70
     2
100
AcDbDimStyleTable
  0
DIMSTYLE
105
27
330
A
100
AcDbSymbolTableRecord
100
AcDbDimStyleTableRecord
  2
ISO-25
 70
     0
 41
2.5
 42
0.625
 43
3.75
 44
1.25
 73
     0
 74
     0
 77
     1
 78
     8
140
2.5
141
2.5
143
0.0393700787
147
0.625
171
     3
172
     1
178
     0
271
     2
272
     2
274
     3
278
    44
283
     0
284
     8
340
11
  0
DIMSTYLE
105
77
102
{ACAD_REACTORS
330
75
330
82
102
}
330
A
100
AcDbSymbolTableRecord
100
AcDbDimStyleTableRecord
  2
SLDDIMSTYLE0
 70
     0
 41
2.5
 44
0.0
 45
0.000000001
 73
     0
 74
     0
 77
     1
 78
    12
 79
     3
140
6.0
147
1.5
173
     1
178
     0
271
     2
272
     2
276
     2
284
    12
340
76
  0
ENDTAB
  0
TABLE
  2
BLOCK_RECORD
  5
1
330
0
100
AcDbSymbolTable
 70
     3
  0
BLOCK_RECORD
  5
1F
330
1
100
AcDbSymbolTableRecord
100
AcDbBlockTableRecord
  2
*Model_Space
340
22
  0
BLOCK_RECORD
  5
1B
330
1
100
AcDbSymbolTableRecord
100
AcDbBlockTableRecord
  2
*Paper_Space
340
1E
  0
BLOCK_RECORD
  5
23
330
1
100
AcDbSymbolTableRecord
100
AcDbBlockTableRecord
  2
*Paper_Space0
340
26
  0
BLOCK_RECORD
  5
78
330
1
100
AcDbSymbolTableRecord
100
AcDbBlockTableRecord
  2
_D
340
0
  0
BLOCK_RECORD
  5
83
330
1
100
AcDbSymbolTableRecord
100
AcDbBlockTableRecord
  2
_D_1
340
0
  0
ENDTAB
  0
ENDSEC
  0
SECTION
  2
BLOCKS
  0
BLOCK
  5
20
330
1F
100
AcDbEntity
  8
0
100
AcDbBlockBegin
  2
*Model_Space
 70
     0
 10
0.0
 20
0.0
 30
0.0
  3
*Model_Space
  1

  0
ENDBLK
  5
21
330
1F
100
AcDbEntity
  8
0
100
AcDbBlockEnd
  0
BLOCK
  5
1C
330
1B
100
AcDbEntity
 67
     1
  8
0
100
AcDbBlockBegin
  2
*Paper_Space
 70
     0
 10
0.0
 20
0.0
 30
0.0
  3
*Paper_Space
  1

  0
ENDBLK
  5
1D
330
1B
100
AcDbEntity
 67
     1
  8
0
100
AcDbBlockEnd
  0
BLOCK
  5
24
330
23
100
AcDbEntity
  8
0
100
AcDbBlockBegin
  2
*Paper_Space0
 70
     0
 10
0.0
 20
0.0
 30
0.0
  3
*Paper_Space0
  1

  0
ENDBLK
  5
25
330
23
100
AcDbEntity
  8
0
100
AcDbBlockEnd
  0
BLOCK
  5
79
330
78
100
AcDbEntity
  8
0
100
AcDbBlockBegin
  2
_D
 70
     0
 10
0.0
 20
0.0
 30
0.0
  3
_D
  1

  0
SOLID
  5
7B
330
78
100
AcDbEntity
  8
0
  6
Continuous
 62
     7
370
    18
100
AcDbTrace
 10
42.7614395004
 20
152.0299240879
 30
0.0
 11
42.4614395004
 21
149.5299240879
 31
0.0
 12
43.0614395004
 22
149.5299240879
 32
0.0
 13
43.0614395004
 23
149.5299240879
 33
0.0
  0
SOLID
  5
7C
330
78
100
AcDbEntity
  8
0
  6
Continuous
 62
     7
370
    18
100
AcDbTrace
 10
42.7614395004
 20
52.0299240879
 30
0.0
 11
43.0614395004
 21
54.5299240879
 31
0.0
 12
42.4614395004
 22
54.5299240879
 32
0.0
 13
42.4614395004
 23
54.5299240879
 33
0.0
  0
LINE
  5
7D
330
78
100
AcDbEntity
  8
0
  6
Continuous
 62
     7
370
    18
100
AcDbLine
 10
56.6850079902
 20
152.0299240879
 30
0.0
 11
41.7614395004
 21
152.0299240879
 31
0.0
  0
LINE
  5
7E
330
78
100
AcDbEntity
  8
0
  6
Continuous
 62
     7
370
    18
100
AcDbLine
 10
56.6850079902
 20
52.0299240879
 30
0.0
 11
41.7614395004
 21
52.0299240879
 31
0.0
  0
LINE
  5
7F
330
78
100
AcDbEntity
  8
0
  6
Continuous
 62
     7
370
    18
100
AcDbLine
 10
42.7614395004
 20
152.0299240879
 30
0.0
 11
42.7614395004
 21
52.0299240879
 31
0.0
  0
MTEXT
  5
80
330
78
100
AcDbEntity
  8
0
  6
Continuous
 62
     7
370
    18
100
AcDbMText
 10
35.0270332946
 20
94.3680541463
 30
0.0
 40
6.0
 41
0.0
 71
     1
 72
     1
  1
100
  7
SLDTEXTSTYLE0
 11
-7.044195017643634E-15
 21
1.0
 31
0.0
 73
     1
 44
1.0
  0
MTEXT
  5
81
330
78
100
AcDbEntity
  8
0
  6
Continuous
 62
     7
370
    18
100
AcDbMText
 10
35.0270332946
 20
105.7430548466
 30
0.0
 40
6.0
 41
0.0
 71
     1
 72
     1
  1
mm
  7
SLDTEXTSTYLE0
 11
-7.044195017643634E-15
 21
1.0
 31
0.0
 73
     1
 44
1.0
  0
ENDBLK
  5
7A
330
78
100
AcDbEntity
  8
0
100
AcDbBlockEnd
  0
BLOCK
  5
84
330
83
100
AcDbEntity
  8
0
100
AcDbBlockBegin
  2
_D_1
 70
     0
 10
0.0
 20
0.0
 30
0.0
  3
_D_1
  1

  0
SOLID
  5
86
330
83
100
AcDbEntity
  8
0
  6
Continuous
 62
     7
370
    18
100
AcDbTrace
 10
56.6850079902
 20
38.4602342313
 30
0.0
 11
59.1850079902
 21
38.1602342313
 31
0.0
 12
59.1850079902
 22
38.7602342313
 32
0.0
 13
59.1850079902
 23
38.7602342313
 33
0.0
  0
SOLID
  5
87
330
83
100
AcDbEntity
  8
0
  6
Continuous
 62
     7
370
    18
100
AcDbTrace
 10
156.6850079902
 20
38.4602342313
 30
0.0
 11
154.1850079902
 21
38.7602342313
 31
0.0
 12
154.1850079902
 22
38.1602342313
 32
0.0
 13
154.1850079902
 23
38.1602342313
 33
0.0
  0
LINE
  5
88
330
83
100
AcDbEntity
  8
0
  6
Continuous
 62
     7
370
    18
100
AcDbLine
 10
56.6850079902
 20
52.0299240879
 30
0.0
 11
56.6850079902
 21
37.4602342313
 31
0.0
  0
LINE
  5
89
330
83
100
AcDbEntity
  8
0
  6
Continuous
 62
     7
370
    18
100
AcDbLine
 10
156.6850079902
 20
52.0299240879
 30
0.0
 11
156.6850079902
 21
37.4602342313
 31
0.0
  0
LINE
  5
8A
330
83
100
AcDbEntity
  8
0
  6
Continuous
 62
     7
370
    18
100
AcDbLine
 10
56.6850079902
 20
38.4602342313
 30
0.0
 11
156.6850079902
 21
38.4602342313
 31
0.0
  0
MTEXT
  5
8B
330
83
100
AcDbEntity
  8
0
  6
Continuous
 62
     7
370
    18
100
AcDbMText
 10
93.9626484861
 20
46.1946404371
 30
0.0
 40
6.0
 41
0.0
 71
     1
 72
     1
  1
100
  7
SLDTEXTSTYLE0
 73
     1
 44
1.0
  0
MTEXT
  5
8C
330
83
100
AcDbEntity
  8
0
  6
Continuous
 62
     7
370
    18
100
AcDbMText
 10
105.3376491864
 20
46.1946404371
 30
0.0
 40
6.0
 41
0.0
 71
     1
 72
     1
  1
mm
  7
SLDTEXTSTYLE0
 73
     1
 44
1.0
  0
ENDBLK
  5
85
330
83
100
AcDbEntity
  8
0
100
AcDbBlockEnd
  0
ENDSEC
  0
SECTION
  2
ENTITIES
  0
LINE
  5
73
330
1F
100
AcDbEntity
  8
0
  6
Continuous
 62
     7
370
    18
100
AcDbLine
 10
56.6850079902
 20
152.0299240879
 30
0.0
 11
56.6850079902
 21
52.0299240879
 31
0.0
  0
LINE
  5
74
330
1F
100
AcDbEntity
  8
0
  6
Continuous
 62
     7
370
    18
100
AcDbLine
 10
56.6850079902
 20
52.0299240879
 30
0.0
 11
156.6850079902
 21
52.0299240879
 31
0.0
  0
DIMENSION
  5
75
330
1F
100
AcDbEntity
  8
0
  6
Continuous
 62
     7
370
    18
100
AcDbDimension
  2
_D
 10
42.7614395004
 20
52.0299240879
 30
0.0
 11
42.7614395004
 21
105.4472211621
 31
0.0
 70
   160
  1
<>mm
 71
     2
 42
-1.0
  3
SLDDIMSTYLE0
100
AcDbAlignedDimension
 13
56.6850079902
 23
152.0299240879
 33
0.0
 14
56.6850079902
 24
52.0299240879
 34
0.0
 50
90.0
100
AcDbRotatedDimension
  0
DIMENSION
  5
82
330
1F
100
AcDbEntity
  8
0
  6
Continuous
 62
     7
370
    18
100
AcDbDimension
  2
_D_1
 10
156.6850079902
 20
38.4602342313
 30
0.0
 11
105.0418155019
 21
38.4602342313
 31
0.0
 70
   160
  1
<>mm
 71
     2
 42
-1.0
  3
SLDDIMSTYLE0
100
AcDbAlignedDimension
 13
56.6850079902
 23
52.0299240879
 33
0.0
 14
156.6850079902
 24
52.0299240879
 34
0.0
100
AcDbRotatedDimension
  0
MTEXT
  5
8E
330
1F
100
AcDbEntity
  8
0
  6
Continuous
 62
     7
370
     0
100
AcDbMText
 10
412.8252631579
 20
48.4342449499
 30
0.0
 40
10.0
 41
0.0
 71
     1
 72
     1
  1
KLUDI GmbH & Co KG
  7
SLDTEXTSTYLE1
 73
     1
 44
1.0
  0
MTEXT
  5
8F
330
1F
100
AcDbEntity
  8
0
  6
Continuous
 62
     7
370
     0
100
AcDbMText
 10
210.0873490389
 20
48.4342449499
 30
0.0
 40
10.0
 41
0.0
 71
     1
 72
     1
  1
60547-05
  7
SLDTEXTSTYLE1
 73
     1
 44
1.0
  0
SPLINE
  5
90
330
1F
100
AcDbEntity
  8
0
  6
Continuous
 62
     7
370
    25
100
AcDbSpline
210
0.0
220
0.0
230
1.0
 70
     8
 71
     3
 72
     9
 73
     5
 74
     0
 42
0.000000001
 43
0.00000001
 40
0.0
 40
0.0
 40
0.0
 40
0.0
 40
0.4999774251227464
 40
1.0
 40
1.0
 40
1.0
 40
1.0
 10
219.5649884926918
 20
314.0310713115628
 30
0.0
 10
219.7441988705376
 20
314.1245249668892
 30
0.0
 10
220.102635809569
 20
314.3114407167421
 30
0.0
 10
220.4611061527052
 20
314.49832928819
 30
0.0
 10
220.6403494166973
 20
314.5917777929004
 30
0.0
  0
SPLINE
  5
91
330
1F
100
AcDbEntity
  8
0
  6
Continuous
 62
     7
370
    25
100
AcDbSpline
210
0.0
220
0.0
230
1.0
 70
     8
 71
     3
 72
     9
 73
     5
 74
     0
 42
0.000000001
 43
0.00000001
 40
0.0
 40
0.0
 40
0.0
 40
0.0
 40
0.9780887053264259
 40
1.0
 40
1.0
 40
1.0
 40
1.0
 10
219.5451867121104
 20
312.222485712498
 30
0.0
 10
219.7252587684908
 20
312.3158489093065
 30
0.0
 10
219.9093648269698
 20
312.4113036429109
 30
0.0
 10
220.0928082173246
 20
312.5067682015367
 30
0.0
 10
220.0968276995066
 20
312.5088599536116
 30
0.0
  0
SPLINE
  5
92
330
1F
100
AcDbEntity
  8
0
  6
Continuous
 62
     7
370
    25
100
AcDbSpline
210
0.0
220
0.0
230
1.0
 70
     8
 71
     3
 72
     9
 73
     5
 74
     0
 42
0.000000001
 43
0.00000001
 40
0.0
 40
0.0
 40
0.0
 40
0.0
 40
0.500026515861411
 40
1.0
 40
1.0
 40
1.0
 40
1.0
 10
200.155155948067
 20
313.6913304242785
 30
0.0
 10
200.3344165885282
 20
313.5978684736514
 30
0.0
 10
200.6929188574575
 20
313.4109544847681
 30
0.0
 10
201.0513878214266
 20
313.2240107564064
 30
0.0
 10
201.2306127982977
 20
313.1305438491996
 30
0.0
  0
SPLINE
  5
93
330
1F
100
AcDbEntity
  8
0
  6
Continuous
 62
     7
370
    25
100
AcDbSpline
210
0.0
220
0.0
230
1.0
 70
     8
 71
     3
 72
     9
 73
     5
 74
     0
 42
0.000000001
 43
0.00000001
 40
0.0
 40
0.0
 40
0.0
 40
0.0
 40
0.500026591986277
 40
1.0
 40
1.0
 40
1.0
 40
1.0
 10
200.1542898180726
 20
315.4915955874617
 30
0.0
 10
200.3335519970514
 20
315.398139231738
 30
0.0
 10
200.6920572882732
 20
315.2112364605222
 30
0.0
 10
201.0505294387681
 20
315.0243038662318
 30
0.0
 10
201.2297559815291
 20
314.9308425399955
 30
0.0
  0
SPLINE
  5
94
330
1F
100
AcDbEntity
  8
0
  6
Continuous
 62
     7
370
    25
100
AcDbSpline
210
0.0
220
0.0
230
1.0
 70
     8
 71
     3
 72
     9
 73
     5
 74
     0
 42
0.000000001
 43
0.00000001
 40
0.0
 40
0.0
 40
0.0
 40
0.0
 40
0.5000349343077269
 40
1.0
 40
1.0
 40
1.0
 40
1.0
 10
220.6401286932472
 20
320.1702044371064
 30
0.0
 10
220.4597035091751
 20
320.2642706288075
 30
0.0
 10
220.0988783513851
 20
320.452389868579
 30
0.0
 10
219.7380651081032
 20
320.6405485433758
 30
0.0
 10
219.5576710912231
 20
320.7346213075812
 30
0.0
  0
SPLINE
  5
95
330
1F
100
AcDbEntity
  8
0
  6
Continuous
 62
     7
370
    25
100
AcDbSpline
210
0.0
220
0.0
230
1.0
 70
     8
 71
     3
 72
     9
 73
     5
 74
     0
 42
0.000000001
 43
0.00000001
 40
0.0
 40
0.0
 40
0.0
 40
0.0
 40
0.5000368802951181
 40
1.0
 40
1.0
 40
1.0
 40
1.0
 10
220.6383088889364
 20
318.3711369547541
 30
0.0
 10
220.4578706296508
 20
318.4652090167582
 30
0.0
 10
220.0970207275813
 20
318.6533392641682
 30
0.0
 10
219.7361906297133
 20
318.8415092831277
 30
0.0
 10
219.5557888882998
 20
318.9355873528417
 30
0.0
  0
SPLINE
  5
96
330
1F
100
AcDbEntity
  8
0
  6
Continuous
 62
     7
370
    25
100
AcDbSpline
210
0.0
220
0.0
230
1.0
 70
     8
 71
     3
 72
     9
 73
     5
 74
     0
 42
0.000000001
 43
0.00000001
 40
0.0
 40
0.0
 40
0.0
 40
0.0
 40
0.5000336131112231
 40
1.0
 40
1.0
 40
1.0
 40
1.0
 10
220.6379279780033
 20
316.5712983373101
 30
0.0
 10
220.4575162918202
 20
316.665356892569
 30
0.0
 10
220.0967171746154
 20
316.8534613575343
 30
0.0
 10
219.7359468089856
 20
317.0416037629833
 30
0.0
 10
219.5555737527851
 20
317.1356686416562
 30
0.0
  0
SPLINE
  5
97
330
1F
100
AcDbEntity
  8
0
  6
Continuous
 62
     7
370
    25
100
AcDbSpline
210
0.0
220
0.0
230
1.0
 70
     8
 71
     3
 72
     9
 73
     5
 74
     0
 42
0.000000001
 43
0.00000001
 40
0.0
 40
0.0
 40
0.0
 40
0.0
 40
0.500033335973392
 40
1.0
 40
1.0
 40
1.0
 40
1.0
 10
220.6394953938964
 20
314.7704445782597
 30
0.0
 10
220.4590858309465
 20
314.8645037804547
 30
0.0
 10
220.0982907599566
 20
315.0526096434606
 30
0.0
 10
219.7375138643447
 20
315.2407531343819
 30
0.0
 10
219.5571374433878
 20
315.3348186078961
 30
0.0
  0
SPLINE
  5
98
330
1F
100
AcDbEntity
  8
0
  6
Continuous
 62
     7
370
    25
100
AcDbSpline
210
0.0
220
0.0
230
1.0
 70
     8
 71
     3
 72
     9
 73
     5
 74
     0
 42
0.000000001
 43
0.00000001
 40
0.0
 40
0.0
 40
0.0
 40
0.0
 40
0.4999638397348846
 40
0.9999999999999999
 40
0.9999999999999999
 40
0.9999999999999999
 40
0.9999999999999999
 10
201.2330537947658
 20
316.23260798189
 30
0.0
 10
201.0526578496841
 20
316.1385354128443
 30
0.0
 10
200.6918398649726
 20
315.9503766670127
 30
0.0
 10
200.3310331074618
 20
315.7622587399739
 30
0.0
 10
200.1506166818384
 20
315.6681929740603
 30
0.0
  0
SPLINE
  5
99
330
1F
100
AcDbEntity
  8
0
  6
Continuous
 62
     7
370
    25
100
AcDbSpline
210
0.0
220
0.0
230
1.0
 70
     8
 71
     3
 72
     9
 73
     5
 74
     0
 42
0.000000001
 43
0.00000001
 40
0.0
 40
0.0
 40
0.0
 40
0.0
 40
0.4999690208319832
 40
1.0
 40
1.0
 40
1.0
 40
1.0
 10
201.2339161994699
 20
318.0330929372008
 30
0.0
 10
201.0535590637782
 20
317.9390432078399
 30
0.0
 10
200.6928224417538
 20
317.7509320940665
 30
0.0
 10
200.3320783665387
 20
317.5628559421986
 30
0.0
 10
200.1516951533798
 20
317.4688120398219
 30
0.0
  0
SPLINE
  5
9A
330
1F
100
AcDbEntity
  8
0
  6
Continuous
 62
     7
370
    25
100
AcDbSpline
210
0.0
220
0.0
230
1.0
 70
     8
 71
     3
 72
     9
 73
     5
 74
     0
 42
0.000000001
 43
0.00000001
 40
0.0
 40
0.0
 40
0.0
 40
0.0
 40
0.499971483677891
 40
1.0
 40
1.0
 40
1.0
 40
1.0
 10
201.2391483696941
 20
319.8359006110127
 30
0.0
 10
201.0588286212015
 20
319.7418636864018
 30
0.0
 10
200.698168554819
 20
319.5537791102191
 30
0.0
 10
200.337465892144
 20
319.3657248496801
 30
0.0
 10
200.1571042748931
 20
319.2716923567946
 30
0.0
  0
SPLINE
  5
9B
330
1F
100
AcDbEntity
  8
0
  6
Continuous
 62
     7
370
    25
100
AcDbSpline
210
0.0
220
0.0
230
1.0
 70
     8
 71
     3
 72
     9
 73
     5
 74
     0
 42
0.000000001
 43
0.00000001
 40
0.0
 40
0.0
 40
0.0
 40
0.0
 40
0.4999662267679539
 40
1.0
 40
1.0
 40
1.0
 40
1.0
 10
219.5562638628128
 20
321.2266548562343
 30
0.0
 10
219.7366312821036
 20
321.320715714097
 30
0.0
 10
220.0973904886937
 20
321.5088501376374
 30
0.0
 10
220.4581753088553
 20
321.6969464415947
 30
0.0
 10
220.6385799038056
 20
321.7910009461935
 30
0.0
  0
SPLINE
  5
9C
330
1F
100
AcDbEntity
  8
0
  6
Continuous
 62
     7
370
    25
100
AcDbSpline
210
0.0
220
0.0
230
1.0
 70
     8
 71
     3
 72
     9
 73
     5
 74
     0
 42
0.000000001
 43
0.00000001
 40
0.0
 40
0.0
 40
0.0
 40
0.0
 40
0.4999653762906743
 40
1.0
 40
1.0
 40
1.0
 40
1.0
 10
219.5553288149479
 20
319.4261801454718
 30
0.0
 10
219.73571229834
 20
319.5202508624945
 30
0.0
 10
220.0965042490355
 20
319.7084053257507
 30
0.0
 10
220.4573227593991
 20
319.8965188429821
 30
0.0
 10
220.6377445074561
 20
319.9905821147855
 30
0.0
  0
SPLINE
  5
9D
330
1F
100
AcDbEntity
  8
0
  6
Continuous
 62
     7
370
    25
100
AcDbSpline
210
0.0
220
0.0
230
1.0
 70
     8
 71
     3
 72
     9
 73
     5
 74
     0
 42
0.000000001
 43
0.00000001
 40
0.0
 40
0.0
 40
0.0
 40
0.0
 40
0.4999619750289693
 40
1.0
 40
1.0
 40
1.0
 40
1.0
 10
219.5562498929742
 20
317.6266544524129
 30
0.0
 10
219.7366520736639
 20
317.7207338715914
 30
0.0
 10
220.0974838762808
 20
317.9089070205055
 30
0.0
 10
220.4583302110747
 20
318.0970391050777
 30
0.0
 10
220.6387670996431
 20
318.191112301081
 30
0.0
  0
SPLINE
  5
9E
330
1F
100
AcDbEntity
  8
0
  6
Continuous
 62
     7
370
    25
100
AcDbSpline
210
0.0
220
0.0
230
1.0
 70
     8
 71
     3
 72
     9
 73
     5
 74
     0
 42
0.000000001
 43
0.00000001
 40
0.0
 40
0.0
 40
0.0
 40
0.0
 40
0.4999631231967877
 40
1.0
 40
1.0
 40
1.0
 40
1.0
 10
219.5494847657922
 20
315.823410919636
 30
0.0
 10
219.7298664831634
 20
315.9174897651123
 30
0.0
 10
220.0906565274726
 20
316.1056613343966
 30
0.0
 10
220.4515017787469
 20
316.2937912732909
 30
0.0
 10
220.6319377112034
 20
316.3878631803687
 30
0.0
  0
SPLINE
  5
9F
330
1F
100
AcDbEntity
  8
0
  6
Continuous
 62
     7
370
    25
100
AcDbSpline
210
0.0
220
0.0
230
1.0
 70
     8
 71
     3
 72
     9
 73
     5
 74
     0
 42
0.000000001
 43
0.00000001
 40
0.0
 40
0.0
 40
0.0
 40
0.0
 40
0.5000298792215245
 40
0.9999999999999999
 40
0.9999999999999999
 40
0.9999999999999999
 40
0.9999999999999999
 10
200.1582665654662
 20
317.2893834325965
 30
0.0
 10
200.3386488912149
 20
317.1953431519271
 30
0.0
 10
200.6993919852667
 20
317.0072738293184
 30
0.0
 10
201.0600861259131
 20
316.8191707874975
 30
0.0
 10
201.2404224189762
 20
316.7251248869593
 30
0.0
  0
SPLINE
  5
A0
330
1F
100
AcDbEntity
  8
0
  6
Continuous
 62
     7
370
    25
100
AcDbSpline
210
0.0
220
0.0
230
1.0
 70
     8
 71
     3
 72
     9
 73
     5
 74
     0
 42
0.000000001
 43
0.00000001
 40
0.0
 40
0.0
 40
0.0
 40
0.0
 40
0.5000283676988619
 40
1.0
 40
1.0
 40
1.0
 40
1.0
 10
200.1529533701781
 20
319.0920998367961
 30
0.0
 10
200.3333274311448
 20
318.9980637599941
 30
0.0
 10
200.6940550870512
 20
318.8100022761332
 30
0.0
 10
201.0547621829024
 20
318.6219087803187
 30
0.0
 10
201.2351054983977
 20
318.527867368191
 30
0.0
  0
SPLINE
  5
A1
330
1F
100
AcDbEntity
  8
0
  6
Continuous
 62
     7
370
    25
100
AcDbSpline
210
0.0
220
0.0
230
1.0
 70
     8
 71
     3
 72
     9
 73
     5
 74
     0
 42
0.000000001
 43
0.00000001
 40
0.0
 40
0.0
 40
0.0
 40
0.0
 40
0.5000338716363066
 40
0.9999999999999999
 40
0.9999999999999999
 40
0.9999999999999999
 40
0.9999999999999999
 10
200.1503335597757
 20
320.8936800274546
 30
0.0
 10
200.3307356528684
 20
320.7996211860893
 30
0.0
 10
200.6915153986531
 20
320.6115162462028
 30
0.0
 10
201.0523032738857
 20
320.4233730738985
 30
0.0
 10
201.2326849910262
 20
320.3293078604634
 30
0.0
  0
LINE
  5
A2
330
1F
100
AcDbEntity
  8
0
  6
Continuous
 62
     7
370
    25
100
AcDbLine
 10
200.7870583149
 20
312.3908818725
 30
0.0
 11
201.3470234635
 21
311.8309167239
 31
0.0
  0
LINE
  5
A3
330
1F
100
AcDbEntity
  8
0
  6
Continuous
 62
     7
370
    25
100
AcDbLine
 10
220.1678037929
 20
312.5516970668
 30
0.0
 11
220.5977535161
 21
312.9816458586
 31
0.0
  0
LINE
  5
A4
330
1F
100
AcDbEntity
  8
0
  6
Continuous
 62
     7
370
    25
100
AcDbLine
 10
219.4470243814
 20
311.8309167239
 30
0.0
 11
219.4530826348
 21
311.8369759086
 31
0.0
  0
SPLINE
  5
A5
330
1F
100
AcDbEntity
  8
0
  6
Continuous
 62
     7
370
    25
100
AcDbSpline
210
0.0
220
0.0
230
1.0
 70
     8
 71
     3
 72
     9
 73
     5
 74
     0
 42
0.000000001
 43
0.00000001
 40
0.0
 40
0.0
 40
0.0
 40
0.0
 40
0.4760181195196861
 40
0.9999999999999999
 40
0.9999999999999999
 40
0.9999999999999999
 40
0.9999999999999999
 10
220.588446809614
 20
312.9971449289019
 30
0.0
 10
220.4255536922097
 20
313.0820656768678
 30
0.0
 10
220.083354286925
 20
313.2604638186268
 30
0.0
 10
219.7411814288087
 20
313.4388994591592
 30
0.0
 10
219.5618890511635
 20
313.5323965016301
 30
0.0
  0
LINE
  5
A6
330
1F
100
AcDbEntity
  8
0
  6
Continuous
 62
     7
370
    25
100
AcDbLine
 10
201.2299590099
 20
312.6312115255
 30
0.0
 11
200.795535213
 21
312.4046840731
 31
0.0
  0
SPLINE
  5
A7
330
1F
100
AcDbEntity
  8
0
  6
Continuous
 62
     7
370
    25
100
AcDbSpline
210
0.0
220
0.0
230
1.0
 70
     8
 71
     3
 72
     9
 73
     5
 74
     0
 42
0.000000001
 43
0.00000001
 40
0.0
 40
0.0
 40
0.0
 40
0.0
 40
0.4999639838702114
 40
0.9999999999999999
 40
0.9999999999999999
 40
0.9999999999999999
 40
0.9999999999999999
 10
201.2267701613549
 20
314.4294892463382
 30
0.0
 10
201.0474671110371
 20
314.3359886986872
 30
0.0
 10
200.688835177333
 20
314.1489741323034
 30
0.0
 10
200.3302127552589
 20
313.961998112355
 30
0.0
 10
200.1508886280301
 20
313.8685033682282
 30
0.0
  0
LINE
  5
A8
330
1F
100
AcDbEntity
  8
0
  6
Continuous
 62
     7
370
    25
100
AcDbLine
 10
200.1470236393
 20
313.8590076033
 30
0.0
 11
200.1470236393
 21
313.7028285328
 31
0.0
  0
LINE
  5
A9
330
1F
100
AcDbEntity
  8
0
  6
Continuous
 62
     7
370
    25
100
AcDbLine
 10
200.1470236393
 20
315.6590026829
 30
0.0
 11
200.1470236393
 21
315.502831063
 31
0.0
  0
LINE
  5
AA
330
1F
100
AcDbEntity
  8
0
  6
Continuous
 62
     7
370
    25
100
AcDbLine
 10
200.1470236393
 20
317.4590014878
 30
0.0
 11
200.1470236393
 21
317.3028317306
 31
0.0
  0
LINE
  5
AB
330
1F
100
AcDbEntity
  8
0
  6
Continuous
 62
     7
370
    25
100
AcDbLine
 10
200.1470236393
 20
319.2590021554
 30
0.0
 11
200.1470236393
 21
319.1028323981
 31
0.0
  0
LINE
  5
AC
330
1F
100
AcDbEntity
  8
0
  6
Continuous
 62
     7
370
    25
100
AcDbLine
 10
200.1470236393
 20
321.0603988755
 30
0.0
 11
200.1470236393
 21
320.9028321344
 31
0.0
  0
LINE
  5
AD
330
1F
100
AcDbEntity
  8
0
  6
Continuous
 62
     7
370
    25
100
AcDbLine
 10
200.1470236393
 20
327.8158337835
 30
0.0
 11
200.1470236393
 21
322.7014274362
 31
0.0
  0
LINE
  5
AE
330
1F
100
AcDbEntity
  8
0
  6
Continuous
 62
     7
370
    25
100
AcDbLine
 10
220.6470242056
 20
322.9885150704
 30
0.0
 11
220.6470242056
 21
327.8141303945
 31
0.0
  0
LINE
  5
AF
330
1F
100
AcDbEntity
  8
0
  6
Continuous
 62
     7
370
    25
100
AcDbLine
 10
220.6470242056
 20
321.8028315369
 30
0.0
 11
220.6470242056
 21
322.5757296223
 31
0.0
  0
LINE
  5
B0
330
1F
100
AcDbEntity
  8
0
  6
Continuous
 62
     7
370
    25
100
AcDbLine
 10
220.6470242056
 20
320.0028327319
 30
0.0
 11
220.6470242056
 21
320.1590024892
 31
0.0
  0
LINE
  5
B1
330
1F
100
AcDbEntity
  8
0
  6
Continuous
 62
     7
370
    25
100
AcDbLine
 10
220.6470242056
 20
318.2028320644
 30
0.0
 11
220.6470242056
 21
318.3590018216
 31
0.0
  0
LINE
  5
B2
330
1F
100
AcDbEntity
  8
0
  6
Continuous
 62
     7
370
    25
100
AcDbLine
 10
220.6470242056
 20
316.4028388474
 30
0.0
 11
220.6470242056
 21
316.559001154
 31
0.0
  0
LINE
  5
B3
330
1F
100
AcDbEntity
  8
0
  6
Continuous
 62
     7
370
    25
100
AcDbLine
 10
220.6470242056
 20
314.6028325919
 30
0.0
 11
220.6470242056
 21
314.7590097997
 31
0.0
  0
LINE
  5
B4
330
1F
100
AcDbEntity
  8
0
  6
Continuous
 62
     7
370
    25
100
AcDbLine
 10
201.2817964244
 20
321.6528774265
 30
0.0
 11
200.2046240779
 21
321.0891357649
 31
0.0
  0
LINE
  5
B5
330
1F
100
AcDbEntity
  8
0
  6
Continuous
 62
     7
370
    25
100
AcDbLine
 10
200.1566209185
 20
322.7245102662
 30
0.0
 11
201.2339627656
 21
322.1609893281
 31
0.0
  0
SPLINE
  5
B6
330
1F
100
AcDbEntity
  8
0
  6
Continuous
 62
     7
370
    25
100
AcDbSpline
210
0.0
220
0.0
230
1.0
 70
     8
 71
     3
 72
    11
 73
     7
 74
     0
 42
0.000000001
 43
0.00000001
 40
0.0
 40
0.0
 40
0.0
 40
0.0
 40
0.0845524713084438
 40
0.5044888924935996
 40
0.92645003889705
 40
1.0
 40
1.0
 40
1.0
 40
1.0
 10
220.6238165783528
 20
322.6386805090602
 30
0.0
 10
220.6164430428161
 20
322.6485235585076
 30
0.0
 10
220.5724482698768
 20
322.7072528781551
 30
0.0
 10
220.5661089706305
 20
322.8389910741735
 30
0.0
 10
220.60652795397
 20
322.9507112937082
 30
0.0
 10
220.6422710431662
 20
322.9787268115972
 30
0.0
 10
220.6475764798764
 20
322.9828852254446
 30
0.0
  0
SPLINE
  5
B7
330
1F
100
AcDbEntity
  8
0
  6
Continuous
 62
     7
370
    25
100
AcDbSpline
210
0.0
220
0.0
230
1.0
 70
     8
 71
     3
 72
    11
 73
     7
 74
     0
 42
0.000000001
 43
0.00000001
 40
0.0
 40
0.0
 40
0.0
 40
0.0
 40
0.2835687308127988
 40
0.5426535362550604
 40
0.7808037677369821
 40
1.0
 40
1.0
 40
1.0
 40
1.0
 10
219.565034127498
 20
313.5304835650618
 30
0.0
 10
219.5175753776379
 20
313.5683901006424
 30
0.0
 10
219.4267555669908
 20
313.6409302411612
 30
0.0
 10
219.4062895039941
 20
313.8203807907165
 30
0.0
 10
219.4645600767613
 20
313.9619899265579
 30
0.0
 10
219.5326837943275
 20
314.0088190038198
 30
0.0
 10
219.565334013367
 20
314.0312631640132
 30
0.0
  0
SPLINE
  5
B8
330
1F
100
AcDbEntity
  8
0
  6
Continuous
 62
     7
370
    25
100
AcDbSpline
210
0.0
220
0.0
230
1.0
 70
     8
 71
     3
 72
    11
 73
     7
 74
     0
 42
0.000000001
 43
0.00000001
 40
0.0
 40
0.0
 40
0.0
 40
0.0
 40
0.0372012109460173
 40
0.3855668719184803
 40
0.7056211308012773
 40
0.9999999999999999
 40
0.9999999999999999
 40
0.9999999999999999
 40
0.9999999999999999
 10
219.4557657751087
 20
311.8459072920974
 30
0.0
 10
219.4516803474506
 20
311.849978280567
 30
0.0
 10
219.4093374902556
 20
311.8921714847644
 30
0.0
 10
219.4109552071373
 20
312.023294696428
 30
0.0
 10
219.4639636229936
 20
312.1613688894653
 30
0.0
 10
219.5328366315719
 20
312.2087072028295
 30
0.0
 10
219.5658341335896
 20
312.2313872936662
 30
0.0
  0
SPLINE
  5
B9
330
1F
100
AcDbEntity
  8
0
  6
Continuous
 62
     7
370
    25
100
AcDbSpline
210
0.0
220
0.0
230
1.0
 70
     8
 71
     3
 72
    11
 73
     7
 74
     0
 42
0.000000001
 43
0.00000001
 40
0.0
 40
0.0
 40
0.0
 40
0.0
 40
0.2835125773883432
 40
0.5425873230094892
 40
0.7807594963078622
 40
1.0
 40
1.0
 40
1.0
 40
1.0
 10
201.2289895030502
 20
313.1313336107428
 30
0.0
 10
201.2764423747467
 20
313.0933691071447
 30
0.0
 10
201.3672578400079
 20
313.0207125126244
 30
0.0
 10
201.3875693814352
 20
312.8412122618296
 30
0.0
 10
201.3291615130132
 20
312.6996406352733
 30
0.0
 10
201.2609895193704
 20
312.6528693229419
 30
0.0
 10
201.2283142941836
 20
312.6304515663083
 30
0.0
  0
SPLINE
  5
BA
330
1F
100
AcDbEntity
  8
0
  6
Continuous
 62
     7
370
    25
100
AcDbSpline
210
0.0
220
0.0
230
1.0
 70
     8
 71
     3
 72
    11
 73
     7
 74
     0
 42
0.000000001
 43
0.00000001
 40
0.0
 40
0.0
 40
0.0
 40
0.0
 40
0.2834205521075372
 40
0.5424796395840467
 40
0.7806839090511306
 40
1.0
 40
1.0
 40
1.0
 40
1.0
 10
201.228512665892
 20
314.9314255479272
 30
0.0
 10
201.2760061502883
 20
314.8934370382089
 30
0.0
 10
201.3669108080708
 20
314.8207253279709
 30
0.0
 10
201.3872423153563
 20
314.6411740424943
 30
0.0
 10
201.3288495009571
 20
314.499564206388
 30
0.0
 10
201.2607063757409
 20
314.452774897394
 30
0.0
 10
201.2280414166692
 20
314.4303460631068
 30
0.0
  0
SPLINE
  5
BB
330
1F
100
AcDbEntity
  8
0
  6
Continuous
 62
     7
370
    25
100
AcDbSpline
210
0.0
220
0.0
230
1.0
 70
     8
 71
     3
 72
    11
 73
     7
 74
     0
 42
0.000000001
 43
0.00000001
 40
0.0
 40
0.0
 40
0.0
 40
0.0
 40
0.283957543829554
 40
0.5432323478039662
 40
0.7812568783301335
 40
0.9999999999999999
 40
0.9999999999999999
 40
0.9999999999999999
 40
0.9999999999999999
 10
219.5636399376038
 20
320.7315162781175
 30
0.0
 10
219.5167783550253
 20
320.769645344282
 30
0.0
 10
219.4271285884348
 20
320.8425891437416
 30
0.0
 10
219.4067802915586
 20
321.019650034925
 30
0.0
 10
219.4633189903179
 20
321.159857073949
 30
0.0
 10
219.5304683339888
 20
321.2072682487097
 30
0.0
 10
219.56262572732
 20
321.2299731585677
 30
0.0
  0
SPLINE
  5
BC
330
1F
100
AcDbEntity
  8
0
  6
Continuous
 62
     7
370
    25
100
AcDbSpline
210
0.0
220
0.0
230
1.0
 70
     8
 71
     3
 72
    11
 73
     7
 74
     0
 42
0.000000001
 43
0.00000001
 40
0.0
 40
0.0
 40
0.0
 40
0.0
 40
0.2513956232504048
 40
0.500021342473909
 40
0.7486316208884247
 40
1.0
 40
1.0
 40
1.0
 40
1.0
 10
219.5623826521281
 20
318.9321507725413
 30
0.0
 10
219.5228858954124
 20
318.9622101130647
 30
0.0
 10
219.4443275614964
 20
319.0219975970631
 30
0.0
 10
219.4046209107433
 20
319.1809279423562
 30
0.0
 10
219.4441665341859
 20
319.3398638783486
 30
0.0
 10
219.5226535218274
 20
319.3996537393318
 30
0.0
 10
219.562113499904
 20
319.4297135833199
 30
0.0
  0
SPLINE
  5
BD
330
1F
100
AcDbEntity
  8
0
  6
Continuous
 62
     7
370
    25
100
AcDbSpline
210
0.0
220
0.0
230
1.0
 70
     8
 71
     3
 72
    11
 73
     7
 74
     0
 42
0.000000001
 43
0.00000001
 40
0.0
 40
0.0
 40
0.0
 40
0.0
 40
0.2513949350252246
 40
0.5000171196140193
 40
0.7486279393779437
 40
0.9999999999999999
 40
0.9999999999999999
 40
0.9999999999999999
 40
0.9999999999999999
 10
219.5622736873868
 20
317.1321761820014
 30
0.0
 10
219.5227623109818
 20
317.1622527888385
 30
0.0
 10
219.4441753473263
 20
317.2220742737737
 30
0.0
 10
219.4045632216335
 20
317.3810573970394
 30
0.0
 10
219.4442930888864
 20
317.540042609743
 30
0.0
 10
219.5229906956034
 20
317.5998666628946
 30
0.0
 10
219.5625568094495
 20
317.6299438837464
 30
0.0
  0
SPLINE
  5
BE
330
1F
100
AcDbEntity
  8
0
  6
Continuous
 62
     7
370
    25
100
AcDbSpline
210
0.0
220
0.0
230
1.0
 70
     8
 71
     3
 72
    11
 73
     7
 74
     0
 42
0.000000001
 43
0.00000001
 40
0.0
 40
0.0
 40
0.0
 40
0.0
 40
0.2186822513535981
 40
0.4566933138587445
 40
0.7159862739282447
 40
1.0
 40
1.0
 40
1.0
 40
1.0
 10
219.5635011705402
 20
315.3315012368853
 30
0.0
 10
219.5311711144322
 20
315.3542247968516
 30
0.0
 10
219.4636534244057
 20
315.401680398938
 30
0.0
 10
219.4066850216194
 20
315.5419390765003
 30
0.0
 10
219.426671869789
 20
315.7190561517722
 30
0.0
 10
219.5162044090089
 20
315.7920280850921
 30
0.0
 10
219.5630075695756
 20
315.8301741841729
 30
0.0
  0
SPLINE
  5
BF
330
1F
100
AcDbEntity
  8
0
  6
Continuous
 62
     7
370
    25
100
AcDbSpline
210
0.0
220
0.0
230
1.0
 70
     8
 71
     3
 72
    11
 73
     7
 74
     0
 42
0.000000001
 43
0.00000001
 40
0.0
 40
0.0
 40
0.0
 40
0.0
 40
0.2513792857281747
 40
0.500016181258816
 40
0.7486399617041032
 40
1.0
 40
1.0
 40
1.0
 40
1.0
 10
201.2303557532671
 20
316.7303067657645
 30
0.0
 10
201.2700933576925
 20
316.700186057547
 30
0.0
 10
201.3491350542251
 20
316.6402732391296
 30
0.0
 10
201.3892111434458
 20
316.4811755694499
 30
0.0
 10
201.3498059448904
 20
316.322068406441
 30
0.0
 10
201.2711529136548
 20
316.2621549562391
 30
0.0
 10
201.2316111760977
 20
316.232034287184
 30
0.0
  0
SPLINE
  5
C0
330
1F
100
AcDbEntity
  8
0
  6
Continuous
 62
     7
370
    25
100
AcDbSpline
210
0.0
220
0.0
230
1.0
 70
     8
 71
     3
 72
    11
 73
     7
 74
     0
 42
0.000000001
 43
0.00000001
 40
0.0
 40
0.0
 40
0.0
 40
0.0
 40
0.2513866663364054
 40
0.5000196555453761
 40
0.7486374095252673
 40
1.0
 40
1.0
 40
1.0
 40
1.0
 10
201.2316465663556
 20
318.5296294305022
 30
0.0
 10
201.2710891273572
 20
318.4995722723331
 30
0.0
 10
201.3495421974955
 20
318.4397872006209
 30
0.0
 10
201.3892056905795
 20
318.2808816420808
 30
0.0
 10
201.3496833074597
 20
318.1219608720849
 30
0.0
 10
201.2712579758716
 20
318.0621767843149
 30
0.0
 10
201.2318300369027
 20
318.0321206364329
 30
0.0
  0
SPLINE
  5
C1
330
1F
100
AcDbEntity
  8
0
  6
Continuous
 62
     7
370
    25
100
AcDbSpline
210
0.0
220
0.0
230
1.0
 70
     8
 71
     3
 72
    11
 73
     7
 74
     0
 42
0.000000001
 43
0.00000001
 40
0.0
 40
0.0
 40
0.0
 40
0.0
 40
0.2513919818067021
 40
0.500023848971689
 40
0.7486399198662381
 40
1.0
 40
1.0
 40
1.0
 40
1.0
 10
201.2316158327106
 20
320.3296496558483
 30
0.0
 10
201.2711241370413
 20
320.2995598314267
 30
0.0
 10
201.349706971131
 20
320.2397105485894
 30
0.0
 10
201.3892919562133
 20
320.0807016333291
 30
0.0
 10
201.3495134123009
 20
319.9216799007934
 30
0.0
 10
201.2707381436439
 20
319.8618291007522
 30
0.0
 10
201.2311343389395
 20
319.8317394617494
 30
0.0
  0
SPLINE
  5
C2
330
1F
100
AcDbEntity
  8
0
  6
Continuous
 62
     7
370
    25
100
AcDbSpline
210
0.0
220
0.0
230
1.0
 70
     8
 71
     3
 72
    11
 73
     7
 74
     0
 42
0.000000001
 43
0.00000001
 40
0.0
 40
0.0
 40
0.0
 40
0.0
 40
0.2510320371638088
 40
0.4995579668013544
 40
0.7483240452378952
 40
1.0
 40
1.0
 40
1.0
 40
1.0
 10
201.2148799660447
 20
322.1396368953879
 30
0.0
 10
201.2582101723892
 20
322.1088200051189
 30
0.0
 10
201.3444380101867
 20
322.0474938763114
 30
0.0
 10
201.3884600569938
 20
321.8840448923584
 30
0.0
 10
201.3474421572951
 20
321.7206714944787
 30
0.0
 10
201.2634409943231
 20
321.6594288734704
 30
0.0
 10
201.2211961957458
 20
321.6286295119222
 30
0.0
  0
CIRCLE
  5
C3
330
1F
100
AcDbEntity
  8
0
  6
Continuous
 62
     7
370
    25
100
AcDbCircle
 10
210.3970239225
 20
335.8309169326
 30
0.0
 40
13.0
  0
SPLINE
  5
C4
330
1F
100
AcDbEntity
  8
0
  6
Continuous
 62
     7
370
    25
100
AcDbSpline
210
0.0
220
0.0
230
1.0
 70
     8
 71
     3
 72
    14
 73
    10
 74
     0
 42
0.000000001
 43
0.00000001
 40
0.0
 40
0.0
 40
0.0
 40
0.0
 40
0.25
 40
0.25
 40
0.5
 40
0.5
 40
0.75
 40
0.75
 40
1.0
 40
1.0
 40
1.0
 40
1.0
 10
212.2766274765612
 20
322.967487242708
 30
0.0
 10
213.3091823524985
 20
322.9703745306339
 30
0.0
 10
214.3117464456748
 20
322.9732618185599
 30
0.0
 10
216.1634654562852
 20
322.9790363944118
 30
0.0
 10
217.0123459503593
 20
322.9819236823378
 30
0.0
 10
218.4770428753805
 20
322.9876982581897
 30
0.0
 10
219.0926422393486
 20
322.9905855461157
 30
0.0
 10
220.0329758868055
 20
322.9963601219677
 30
0.0
 10
220.3575708135573
 20
322.9992474098937
 30
0.0
 10
220.5214695592582
 20
323.0021346978197
 30
0.0
  0
SPLINE
  5
C5
330
1F
100
AcDbEntity
  8
0
  6
Continuous
 62
     7
370
    25
100
AcDbSpline
210
0.0
220
0.0
230
1.0
 70
     8
 71
     3
 72
     8
 73
     4
 74
     0
 42
0.000000001
 43
0.00000001
 40
0.0
 40
0.0
 40
0.0
 40
0.0
 40
1.0
 40
1.0
 40
1.0
 40
1.0
 10
208.0220501470875
 20
322.9557028146236
 30
0.0
 10
208.2093117440091
 20
322.9562319669942
 30
0.0
 10
208.3978301491039
 20
322.9567611193647
 30
0.0
 10
208.5873062912497
 20
322.9572902717352
 30
0.0
  0
SPLINE
  5
C6
330
1F
100
AcDbEntity
  8
0
  6
Continuous
 62
     7
370
    25
100
AcDbSpline
210
0.0
220
0.0
230
1.0
 70
     8
 71
     3
 72
    14
 73
    10
 74
     0
 42
0.000000001
 43
0.00000001
 40
0.0
 40
0.0
 40
0.0
 40
0.0
 40
0.2500000000000006
 40
0.2500000000000006
 40
0.5000000000000011
 40
0.5000000000000011
 40
0.7500000000000006
 40
0.7500000000000006
 40
1.0
 40
1.0
 40
1.0
 40
1.0
 10
220.5214695592582
 20
322.4699281979126
 30
0.0
 10
220.3329906643109
 20
322.4057294110045
 30
0.0
 10
219.931494379866
 20
322.3415306240963
 30
0.0
 10
218.7517238273176
 20
322.21313305028
 30
0.0
 10
217.9737548834742
 20
322.1489342633718
 30
0.0
 10
216.1370932762685
 20
322.0205366895555
 30
0.0
 10
215.0788759403713
 20
321.9563379026472
 30
0.0
 10
212.812493551708
 20
321.8279403288309
 30
0.0
 10
211.6049150380144
 20
321.7637415419228
 30
0.0
 10
210.3970239224676
 20
321.6995427550146
 30
0.0
  0
SPLINE
  5
C7
330
1F
100
AcDbEntity
  8
0
  6
Continuous
 62
     7
370
    25
100
AcDbSpline
210
0.0
220
0.0
230
1.0
 70
     8
 71
     3
 72
     8
 73
     4
 74
     0
 42
0.000000001
 43
0.00000001
 40
0.0
 40
0.0
 40
0.0
 40
0.0
 40
1.0
 40
1.0
 40
1.0
 40
1.0
 10
210.3970239224676
 20
321.6995427550146
 30
0.0
 10
209.5981055497087
 20
321.65708065747
 30
0.0
 10
208.7992268795933
 20
321.6146185599253
 30
0.0
 10
208.0220501469865
 20
321.5721564623806
 30
0.0
  0
SPLINE
  5
C8
330
1F
100
AcDbEntity
  8
0
  6
Continuous
 62
     7
370
    25
100
AcDbSpline
210
0.0
220
0.0
230
1.0
 70
     8
 71
     3
 72
    20
 73
    16
 74
     0
 42
0.000000001
 43
0.00000001
 40
0.0
 40
0.0
 40
0.0
 40
0.0
 40
0.0650792862095644
 40
0.1429893165850374
 40
0.2208994395091566
 40
0.2988094635947134
 40
0.3767195061062968
 40
0.4546295949040683
 40
0.5325397177108343
 40
0.6104496776111364
 40
0.6883597977006689
 40
0.7662698437075579
 40
0.8441798971108571
 40
0.9220899417107521
 40
1.0
 40
1.0
 40
1.0
 40
1.0
 10
200.1575755241159
 20
313.7028285327847
 30
0.0
 10
200.1636388148302
 20
313.7125898784842
 30
0.0
 10
200.1769608078328
 20
313.7340370736181
 30
0.0
 10
200.3821622092659
 20
313.7671736367863
 30
0.0
 10
200.7330632963321
 20
313.8022348256842
 30
0.0
 10
201.2328186933262
 20
313.8372920479976
 30
0.0
 10
201.8685088847725
 20
313.8723543104379
 30
0.0
 10
202.6320817449584
 20
313.9074115012268
 30
0.0
 10
203.5117229759726
 20
313.9424726793727
 30
0.0
 10
204.4943857737801
 20
313.9775340337207
 30
0.0
 10
205.5653332043323
 20
314.0125911306239
 30
0.0
 10
206.7085611551667
 20
314.0476534453567
 30
0.0
 10
207.9069613799304
 20
314.0827105553695
 30
0.0
 10
209.1426108305194
 20
314.1177720411652
 30
0.0
 10
209.9788862006616
 20
314.1411456296826
 30
0.0
 10
210.3970239224676
 20
314.152832424968
 30
0.0
  0
SPLINE
  5
C9
330
1F
100
AcDbEntity
  8
0
  6
Continuous
 62
     7
370
    25
100
AcDbSpline
210
0.0
220
0.0
230
1.0
 70
     8
 71
     3
 72
    14
 73
    10
 74
     0
 42
0.000000001
 43
0.00000001
 40
0.0
 40
0.0
 40
0.0
 40
0.0
 40
0.2499999999999999
 40
0.2499999999999999
 40
0.4999999999999998
 40
0.4999999999999998
 40
0.7499999999999999
 40
0.7499999999999999
 40
1.0
 40
1.0
 40
1.0
 40
1.0
 10
210.3970239224676
 20
314.1528318749626
 30
0.0
 10
211.7387457692355
 20
314.1903318745237
 30
0.0
 10
213.0799397057756
 20
314.2278318740849
 30
0.0
 10
215.5591184155996
 20
314.3028318732071
 30
0.0
 10
216.6961277379725
 20
314.3403318727682
 30
0.0
 10
218.5936089880453
 20
314.4153318718905
 30
0.0
 10
219.3533343379344
 20
314.4528318714516
 30
0.0
 10
220.3802438153174
 20
314.5278318705739
 30
0.0
 10
220.6470238978019
 20
314.565331870135
 30
0.0
 10
220.6470239224676
 20
314.6028318696961
 30
0.0
  0
SPLINE
  5
CA
330
1F
100
AcDbEntity
  8
0
  6
Continuous
 62
     7
370
    25
100
AcDbSpline
210
0.0
220
0.0
230
1.0
 70
     8
 71
     3
 72
    16
 73
    12
 74
     0
 42
0.000000001
 43
0.00000001
 40
0.0
 40
0.0
 40
0.0
 40
0.0
 40
0.0322081479053904
 40
0.1531821583273496
 40
0.2741561168699587
 40
0.3951300555567786
 40
0.5161040725608714
 40
0.6370780323672738
 40
0.7580520485814853
 40
0.8790260339312596
 40
1.0
 40
1.0
 40
1.0
 40
1.0
 10
200.1994598942641
 20
315.4878553960021
 30
0.0
 10
200.178732077016
 20
315.4928472712867
 30
0.0
 10
200.0801504450389
 20
315.5165886622058
 30
0.0
 10
200.2983125564442
 20
315.5590812264365
 30
0.0
 10
200.8610855633542
 20
315.6153310555391
 30
0.0
 10
201.8208971292803
 20
315.6715811623135
 30
0.0
 10
203.1020892087929
 20
315.7278311217547
 30
0.0
 10
204.6658202549071
 20
315.784081188183
 30
0.0
 10
206.4492065297428
 20
315.8403311769239
 30
0.0
 10
208.3844644031212
 20
315.8965812054196
 30
0.0
 10
209.7261707849926
 20
315.9340812227326
 30
0.0
 10
210.3970239224675
 20
315.9528312298949
 30
0.0
  0
SPLINE
  5
CB
330
1F
100
AcDbEntity
  8
0
  6
Continuous
 62
     7
370
    25
100
AcDbSpline
210
0.0
220
0.0
230
1.0
 70
     8
 71
     3
 72
    10
 73
     6
 74
     0
 42
0.000000001
 43
0.00000001
 40
0.0
 40
0.0
 40
0.0
 40
0.0
 40
0.5
 40
0.5
 40
1.0
 40
1.0
 40
1.0
 40
1.0
 10
210.3970239224675
 20
315.9528318749726
 30
0.0
 10
211.589665577997
 20
315.986165208306
 30
0.0
 10
212.7820138286126
 20
316.0194985416393
 30
0.0
 10
215.0234469544984
 20
316.0861652083059
 30
0.0
 10
216.0719804089038
 20
316.1194985416393
 30
0.0
 10
216.9855969217544
 20
316.1528318749726
 30
0.0
  0
LINE
  5
CC
330
1F
100
AcDbEntity
  8
0
  6
Continuous
 62
     7
370
    25
100
AcDbLine
 10
219.5011491242
 20
312.2225360039
 30
0.0
 11
219.529471575
 21
312.2314729753
 31
0.0
  0
SPLINE
  5
CD
330
1F
100
AcDbEntity
  8
0
  6
Continuous
 62
     7
370
    25
100
AcDbSpline
210
0.0
220
0.0
230
1.0
 70
     8
 71
     3
 72
    16
 73
    12
 74
     0
 42
0.000000001
 43
0.00000001
 40
0.0
 40
0.0
 40
0.0
 40
0.0
 40
0.109635788994888
 40
0.2200588243352431
 40
0.3312692111771836
 40
0.4432669437959358
 40
0.5560520756636659
 40
0.6696248737649289
 40
0.783984895871378
 40
0.8991326852900176
 40
1.0
 40
1.0
 40
1.0
 40
1.0
 10
215.4300708609465
 20
311.9632129583056
 30
0.0
 10
215.7237222063396
 20
311.9854901680789
 30
0.0
 10
216.3131334781888
 20
312.0302045504637
 30
0.0
 10
217.1165328405549
 20
312.0969065536169
 30
0.0
 10
217.8506968602592
 20
312.1636425997648
 30
0.0
 10
218.5000160818449
 20
312.230373460724
 30
0.0
 10
219.0561810341549
 20
312.2971020486721
 30
0.0
 10
219.5114451450909
 20
312.3638341315912
 30
0.0
 10
219.8547755574737
 20
312.4305537982697
 30
0.0
 10
220.084554799595
 20
312.4944089212099
 30
0.0
 10
220.1389689881455
 20
312.5357966506634
 30
0.0
 10
220.164377457166
 20
312.5551224711831
 30
0.0
  0
SPLINE
  5
CE
330
1F
100
AcDbEntity
  8
0
  6
Continuous
 62
     7
370
    25
100
AcDbSpline
210
0.0
220
0.0
230
1.0
 70
     8
 71
     3
 72
    13
 73
     9
 74
     0
 42
0.000000001
 43
0.00000001
 40
0.0
 40
0.0
 40
0.0
 40
0.0
 40
0.1250259177177139
 40
0.3000207893968362
 40
0.4750155431820742
 40
0.6500103658853239
 40
0.8250052947435165
 40
1.0
 40
1.0
 40
1.0
 40
1.0
 10
220.62265801307
 20
314.7590097996886
 30
0.0
 10
220.620597769256
 20
314.748590926172
 30
0.0
 10
220.61565386653
 20
314.7235890808413
 30
0.0
 10
220.3308879522741
 20
314.6840003741236
 30
0.0
 10
219.8174191747517
 20
314.640251454379
 30
0.0
 10
219.0732329765038
 20
314.5965013907195
 30
0.0
 10
218.1403662605856
 20
314.5527516997013
 30
0.0
 10
217.3705199391655
 20
314.5235851220015
 30
0.0
 10
216.9855970243755
 20
314.5090018424685
 30
0.0
  0
SPLINE
  5
CF
330
1F
100
AcDbEntity
  8
0
  6
Continuous
 62
     7
370
    25
100
AcDbSpline
210
0.0
220
0.0
230
1.0
 70
     8
 71
     3
 72
    16
 73
    12
 74
     0
 42
0.000000001
 43
0.00000001
 40
0.0
 40
0.0
 40
0.0
 40
0.0
 40
0.0319238705441023
 40
0.1529334156447144
 40
0.2739429088507375
 40
0.3949523821951389
 40
0.515961933879818
 40
0.6369714283500055
 40
0.7579809792445714
 40
0.8789904992656338
 40
1.0
 40
1.0
 40
1.0
 40
1.0
 10
220.5950657191518
 20
320.1738421830829
 30
0.0
 10
220.6155821705814
 20
320.168895609964
 30
0.0
 10
220.7138675896284
 20
320.1451987239062
 30
0.0
 10
220.4956559888114
 20
320.1027525792736
 30
0.0
 10
219.9329835298552
 20
320.0465024287088
 30
0.0
 10
218.9731450222032
 20
319.9902524080699
 30
0.0
 10
217.6919601616599
 20
319.9340024255489
 30
0.0
 10
216.128227181407
 20
319.8777523653042
 30
0.0
 10
214.3448414241579
 20
319.8215023749086
 30
0.0
 10
212.4095834145726
 20
319.7652523468484
 30
0.0
 10
211.067877050862
 20
319.7277523294773
 30
0.0
 10
210.3970239224676
 20
319.7090023222859
 30
0.0
  0
SPLINE
  5
D0
330
1F
100
AcDbEntity
  8
0
  6
Continuous
 62
     7
370
    25
100
AcDbSpline
210
0.0
220
0.0
230
1.0
 70
     8
 71
     3
 72
    14
 73
    10
 74
     0
 42
0.000000001
 43
0.00000001
 40
0.0
 40
0.0
 40
0.0
 40
0.0
 40
0.25
 40
0.25
 40
0.5
 40
0.5
 40
0.75
 40
0.75
 40
1.0
 40
1.0
 40
1.0
 40
1.0
 10
210.3970239224676
 20
319.7090019901327
 30
0.0
 10
209.0553020777526
 20
319.6715019906289
 30
0.0
 10
207.7141081432615
 20
319.6340019911251
 30
0.0
 10
205.234929436614
 20
319.5590019921177
 30
0.0
 10
204.0979201153614
 20
319.5215019926139
 30
0.0
 10
202.2004388659116
 20
319.4465019936064
 30
0.0
 10
201.4407135155205
 20
319.4090019941027
 30
0.0
 10
200.4138040352398
 20
319.3340019950952
 30
0.0
 10
200.1470239503581
 20
319.2965019955914
 30
0.0
 10
200.1470239224675
 20
319.2590019960877
 30
0.0
  0
SPLINE
  5
D1
330
1F
100
AcDbEntity
  8
0
  6
Continuous
 62
     7
370
    25
100
AcDbSpline
210
0.0
220
0.0
230
1.0
 70
     8
 71
     3
 72
    16
 73
    12
 74
     0
 42
0.000000001
 43
0.00000001
 40
0.0
 40
0.0
 40
0.0
 40
0.0
 40
0.0338683795419181
 40
0.1546348609597164
 40
0.2754012905871627
 40
0.3961677003928821
 40
0.5169341883815224
 40
0.637700619270594
 40
0.758467106470708
 40
0.8792335628593322
 40
1.0
 40
1.0
 40
1.0
 40
1.0
 10
220.5917902576569
 20
318.3747765633757
 30
0.0
 10
220.6137619228859
 20
318.369518328553
 30
0.0
 10
220.7140792526102
 20
318.3455104952374
 30
0.0
 10
220.4961918061144
 20
318.3027516866305
 30
0.0
 10
219.932839958115
 20
318.2465018214444
 30
0.0
 10
218.9731834920925
 20
318.1902517243385
 30
0.0
 10
217.6919498539412
 20
318.1340017623066
 30
0.0
 10
216.1282299424041
 20
318.0777516965725
 30
0.0
 10
214.3448406878921
 20
318.0215017076458
 30
0.0
 10
212.409583598639
 20
317.965251679199
 30
0.0
 10
211.0678771122175
 20
317.9277516618795
 30
0.0
 10
210.3970239224676
 20
317.9090016547139
 30
0.0
  0
SPLINE
  5
D2
330
1F
100
AcDbEntity
  8
0
  6
Continuous
 62
     7
370
    25
100
AcDbSpline
210
0.0
220
0.0
230
1.0
 70
     8
 71
     3
 72
    14
 73
    10
 74
     0
 42
0.000000001
 43
0.00000001
 40
0.0
 40
0.0
 40
0.0
 40
0.0
 40
0.25
 40
0.25
 40
0.5
 40
0.5
 40
0.75
 40
0.75
 40
1.0
 40
1.0
 40
1.0
 40
1.0
 10
210.3970239224676
 20
317.9090019901326
 30
0.0
 10
209.055302076199
 20
317.8715019905854
 30
0.0
 10
207.7141081401573
 20
317.8340019910383
 30
0.0
 10
205.2349294311061
 20
317.7590019919439
 30
0.0
 10
204.0979201090057
 20
317.7215019923968
 30
0.0
 10
202.2004388590844
 20
317.6465019933025
 30
0.0
 10
201.4407135090732
 20
317.6090019937553
 30
0.0
 10
200.4138040309853
 20
317.534001994661
 30
0.0
 10
200.1470239479177
 20
317.4965019951138
 30
0.0
 10
200.1470239224675
 20
317.4590019955667
 30
0.0
  0
SPLINE
  5
D3
330
1F
100
AcDbEntity
  8
0
  6
Continuous
 62
     7
370
    25
100
AcDbSpline
210
0.0
220
0.0
230
1.0
 70
     8
 71
     3
 72
    16
 73
    12
 74
     0
 42
0.000000001
 43
0.00000001
 40
0.0
 40
0.0
 40
0.0
 40
0.0
 40
0.0341987664347437
 40
0.1549239498723621
 40
0.275649081537339
 40
0.3963741933873675
 40
0.5170993833935809
 40
0.6378245131894118
 40
0.7585497024073686
 40
0.879274860824372
 40
1.0
 40
1.0
 40
1.0
 40
1.0
 10
220.5912323954347
 20
316.5749360832866
 30
0.0
 10
220.6134533460049
 20
316.569624417569
 30
0.0
 10
220.7141165508847
 20
316.5455620223674
 30
0.0
 10
220.4962815020413
 20
316.5027513850268
 30
0.0
 10
219.9328159252076
 20
316.4465010104168
 30
0.0
 10
218.9731899278341
 20
316.3902512646209
 30
0.0
 10
217.691948154973
 20
316.3340004072583
 30
0.0
 10
216.1282303750847
 20
316.2777535739675
 30
0.0
 10
214.3448405684001
 20
316.2215027206368
 30
0.0
 10
212.4095836285119
 20
316.1652529197927
 30
0.0
 10
211.0678771221751
 20
316.1277528721261
 30
0.0
 10
210.3970239224676
 20
316.109002849787
 30
0.0
  0
SPLINE
  5
D4
330
1F
100
AcDbEntity
  8
0
  6
Continuous
 62
     7
370
    25
100
AcDbSpline
210
0.0
220
0.0
230
1.0
 70
     8
 71
     3
 72
    14
 73
    10
 74
     0
 42
0.000000001
 43
0.00000001
 40
0.0
 40
0.0
 40
0.0
 40
0.0
 40
0.2499999999999998
 40
0.2499999999999998
 40
0.4999999999999994
 40
0.4999999999999994
 40
0.7499999999999998
 40
0.7499999999999998
 40
1.0
 40
1.0
 40
1.0
 40
1.0
 10
210.3970239224676
 20
316.1090019901326
 30
0.0
 10
209.0553020789803
 20
316.0715019906632
 30
0.0
 10
207.7141081457144
 20
316.0340019911937
 30
0.0
 10
205.2349294409663
 20
315.9590019922549
 30
0.0
 10
204.0979201203835
 20
315.9215019927855
 30
0.0
 10
202.2004388713063
 20
315.8465019938466
 30
0.0
 10
201.4407135206151
 20
315.8090019943772
 30
0.0
 10
200.4138040386015
 20
315.7340019954383
 30
0.0
 10
200.1470239522865
 20
315.6965019959689
 30
0.0
 10
200.1470239224675
 20
315.6590019964995
 30
0.0
  0
SPLINE
  5
D5
330
1F
100
AcDbEntity
  8
0
  6
Continuous
 62
     7
370
    25
100
AcDbSpline
210
0.0
220
0.0
230
1.0
 70
     8
 71
     3
 72
    13
 73
     9
 74
     0
 42
0.000000001
 43
0.00000001
 40
0.0
 40
0.0
 40
0.0
 40
0.0
 40
0.1749947062761342
 40
0.3499896361539786
 40
0.5249844598768796
 40
0.6999792146817685
 40
0.8749740815537912
 40
1.0
 40
1.0
 40
1.0
 40
1.0
 10
216.9855970243755
 20
316.1528327527936
 30
0.0
 10
217.3705199391823
 20
316.1674160281675
 30
0.0
 10
218.1403662606359
 20
316.1965825975491
 30
0.0
 10
219.0732329763027
 20
316.2403323509538
 30
0.0
 10
219.8174191755062
 20
316.2840821775445
 30
0.0
 10
220.3308879437584
 20
316.3278319826918
 30
0.0
 10
220.6156538695754
 20
316.3674176971549
 30
0.0
 10
220.6205977701235
 20
316.3924198468242
 30
0.0
 10
220.62265801307
 20
316.4028388473685
 30
0.0
  0
SPLINE
  5
D6
330
1F
100
AcDbEntity
  8
0
  6
Continuous
 62
     7
370
    25
100
AcDbSpline
210
0.0
220
0.0
230
1.0
 70
     8
 71
     3
 72
    16
 73
    12
 74
     0
 42
0.000000001
 43
0.00000001
 40
0.0
 40
0.0
 40
0.0
 40
0.0
 40
0.0365722733200428
 40
0.1570007679348042
 40
0.2774292109041582
 40
0.39785763410726
 40
0.5182861352744738
 40
0.6387145795019221
 40
0.7591430798828165
 40
0.8795715495384523
 40
1.0
 40
1.0
 40
1.0
 40
1.0
 10
200.2068350377324
 20
317.2857494119103
 30
0.0
 10
200.1828059698536
 20
317.2914435206338
 30
0.0
 10
200.0796518105067
 20
317.3158877063822
 30
0.0
 10
200.29713324092
 20
317.3590817166624
 30
0.0
 10
200.8614015598348
 20
317.4153317706308
 30
0.0
 10
201.820812458372
 20
317.4715818171528
 30
0.0
 10
203.1021118957288
 20
317.5278317927384
 30
0.0
 10
204.6658141780473
 20
317.5840818548412
 30
0.0
 10
206.4492081502387
 20
317.6403318447396
 30
0.0
 10
208.3844639979973
 20
317.6965818729307
 30
0.0
 10
209.7261706499514
 20
317.7340818902844
 30
0.0
 10
210.3970239224676
 20
317.7528318974669
 30
0.0
  0
SPLINE
  5
D7
330
1F
100
AcDbEntity
  8
0
  6
Continuous
 62
     7
370
    25
100
AcDbSpline
210
0.0
220
0.0
230
1.0
 70
     8
 71
     3
 72
    14
 73
    10
 74
     0
 42
0.000000001
 43
0.00000001
 40
0.0
 40
0.0
 40
0.0
 40
0.0
 40
0.25
 40
0.25
 40
0.5
 40
0.5
 40
0.75
 40
0.75
 40
1.0
 40
1.0
 40
1.0
 40
1.0
 10
210.3970239224676
 20
317.7528318749726
 30
0.0
 10
211.7387457680078
 20
317.7903318744994
 30
0.0
 10
213.0799397033227
 20
317.8278318740262
 30
0.0
 10
215.5591184112472
 20
317.9028318730799
 30
0.0
 10
216.6961277329502
 20
317.9403318726067
 30
0.0
 10
218.5936089826505
 20
318.0153318716603
 30
0.0
 10
219.3533343328398
 20
318.0528318711871
 30
0.0
 10
220.3802438119556
 20
318.1278318702408
 30
0.0
 10
220.6470238958735
 20
318.1653318697676
 30
0.0
 10
220.6470239224676
 20
318.2028318692944
 30
0.0
  0
SPLINE
  5
D8
330
1F
100
AcDbEntity
  8
0
  6
Continuous
 62
     7
370
    25
100
AcDbSpline
210
0.0
220
0.0
230
1.0
 70
     8
 71
     3
 72
    16
 73
    12
 74
     0
 42
0.000000001
 43
0.00000001
 40
0.0
 40
0.0
 40
0.0
 40
0.0
 40
0.0309264779524051
 40
0.1520606971567737
 40
0.2731948644130872
 40
0.3943290117873159
 40
0.5154632375825351
 40
0.6365974061043155
 40
0.7577316311086073
 40
0.8788658252075873
 40
1.0
 40
1.0
 40
1.0
 40
1.0
 10
200.1973066764716
 20
319.0884714040454
 30
0.0
 10
200.1775288256752
 20
319.093258399864
 30
0.0
 10
200.0802841997276
 20
319.1167953161138
 30
0.0
 10
200.2986717845042
 20
319.1590824333592
 30
0.0
 10
200.8609893085348
 20
319.2153324250399
 30
0.0
 10
201.8209229206529
 20
319.2715824882517
 30
0.0
 10
203.1020822981878
 20
319.3278324593654
 30
0.0
 10
204.6658221059627
 20
319.3840825226663
 30
0.0
 10
206.449206036128
 20
319.4403325122441
 30
0.0
 10
208.3844645265249
 20
319.4965825405196
 30
0.0
 10
209.7261708261272
 20
319.534082557862
 30
0.0
 10
210.3970239224676
 20
319.552832565039
 30
0.0
  0
SPLINE
  5
D9
330
1F
100
AcDbEntity
  8
0
  6
Continuous
 62
     7
370
    25
100
AcDbSpline
210
0.0
220
0.0
230
1.0
 70
     8
 71
     3
 72
    14
 73
    10
 74
     0
 42
0.000000001
 43
0.00000001
 40
0.0
 40
0.0
 40
0.0
 40
0.0
 40
0.2499999999999997
 40
0.2499999999999997
 40
0.4999999999999994
 40
0.4999999999999994
 40
0.7499999999999997
 40
0.7499999999999997
 40
1.0
 40
1.0
 40
1.0
 40
1.0
 10
210.3970239224676
 20
319.5528318749626
 30
0.0
 10
211.7387457695615
 20
319.590331874533
 30
0.0
 10
213.079939706427
 20
319.6278318741034
 30
0.0
 10
215.5591184167552
 20
319.7028318732442
 30
0.0
 10
216.696127739306
 20
319.7403318728146
 30
0.0
 10
218.5936089894778
 20
319.8153318719554
 30
0.0
 10
219.3533343392872
 20
319.8528318715258
 30
0.0
 10
220.3802438162101
 20
319.9278318706666
 30
0.0
 10
220.647023898314
 20
319.965331870237
 30
0.0
 10
220.6470239224676
 20
320.0028318698074
 30
0.0
  0
SPLINE
  5
DA
330
1F
100
AcDbEntity
  8
0
  6
Continuous
 62
     7
370
    25
100
AcDbSpline
210
0.0
220
0.0
230
1.0
 70
     8
 71
     3
 72
    16
 73
    12
 74
     0
 42
0.000000001
 43
0.00000001
 40
0.0
 40
0.0
 40
0.0
 40
0.0
 40
0.0276217053884674
 40
0.1491690212620494
 40
0.2707162850104209
 40
0.392263528808905
 40
0.5138108512958139
 40
0.6353581163139679
 40
0.7569054380072522
 40
0.8784527286898302
 40
1.0
 40
1.0
 40
1.0
 40
1.0
 10
200.1917811396364
 20
320.8900488007362
 30
0.0
 10
200.1744104182414
 20
320.8943099286371
 30
0.0
 10
200.0806010942816
 20
320.9173218415334
 30
0.0
 10
200.2996267317111
 20
320.959081882643
 30
0.0
 10
200.8607334313329
 20
321.0153322381815
 30
0.0
 10
201.8209914826668
 20
321.071582203898
 30
0.0
 10
203.1020639275095
 20
321.1278322011353
 30
0.0
 10
204.6658270266817
 20
321.1840822574371
 30
0.0
 10
206.4492047239364
 20
321.2403322488879
 30
0.0
 10
208.3844648545726
 20
321.2965822766704
 30
0.0
 10
209.7261709354765
 20
321.3340822940785
 30
0.0
 10
210.3970239224675
 20
321.3528323012884
 30
0.0
  0
SPLINE
  5
DB
330
1F
100
AcDbEntity
  8
0
  6
Continuous
 62
     7
370
    25
100
AcDbSpline
210
0.0
220
0.0
230
1.0
 70
     8
 71
     3
 72
    14
 73
    10
 74
     0
 42
0.000000001
 43
0.00000001
 40
0.0
 40
0.0
 40
0.0
 40
0.0
 40
0.2500000000000001
 40
0.2500000000000001
 40
0.5000000000000001
 40
0.5000000000000001
 40
0.75
 40
0.75
 40
1.0
 40
1.0
 40
1.0
 40
1.0
 10
210.3970239224675
 20
321.3528318749676
 30
0.0
 10
211.7387457667802
 20
321.3903318744601
 30
0.0
 10
213.0799397008699
 20
321.4278318739527
 30
0.0
 10
215.559118406895
 20
321.5028318729377
 30
0.0
 10
216.6961277279281
 20
321.5403318724304
 30
0.0
 10
218.5936089772558
 20
321.6153318714154
 30
0.0
 10
219.3533343277452
 20
321.652831870908
 30
0.0
 10
220.3802438085938
 20
321.7278318698931
 30
0.0
 10
220.6470238939451
 20
321.7653318693856
 30
0.0
 10
220.6470239224676
 20
321.8028318688782
 30
0.0
  0
SPLINE
  5
DC
330
1F
100
AcDbEntity
  8
0
  6
Continuous
 62
     7
370
    25
100
AcDbSpline
210
0.0
220
0.0
230
1.0
 70
     8
 71
     3
 72
    25
 73
    21
 74
     0
 42
0.000000001
 43
0.00000001
 40
0.0
 40
0.0
 40
0.0
 40
0.0
 40
0.1435050329230033
 40
0.2592362260795636
 40
0.3473585898457268
 40
0.3946789226662453
 40
0.4268804137507741
 40
0.4373413403114081
 40
0.4445293670040172
 40
0.4492485101785094
 40
0.4538914231689894
 40
0.4686697866421081
 40
0.4943171330607974
 40
0.5314403493853793
 40
0.5802082483497368
 40
0.6406838697205343
 40
0.7128934525036926
 40
0.79684767324517
 40
0.8925499107016623
 40
1.0
 40
1.0
 40
1.0
 40
1.0
 10
215.4300851565566
 20
311.9632446837832
 30
0.0
 10
215.3713259482907
 20
311.9587291077672
 30
0.0
 10
215.265179738029
 20
311.9505718964059
 30
0.0
 10
215.1199402282574
 20
311.9370218324906
 30
0.0
 10
215.0133345999762
 20
311.9249718294185
 30
0.0
 10
214.9410741320903
 20
311.914008906499
 30
0.0
 10
214.9016671863061
 20
311.9062919932575
 30
0.0
 10
214.8796625507318
 20
311.8994077904744
 30
0.0
 10
214.8700203493149
 20
311.8953740849511
 30
0.0
 10
214.8636785753779
 20
311.8900147345092
 30
0.0
 10
214.8653834082218
 20
311.8823350602749
 30
0.0
 10
214.8806152252577
 20
311.876885897157
 30
0.0
 10
214.9072243810516
 20
311.8698791326065
 30
0.0
 10
214.949122612817
 20
311.8636744543956
 30
0.0
 10
215.0046807664925
 20
311.8573604851121
 30
0.0
 10
215.0745211414283
 20
311.8514315555826
 30
0.0
 10
215.1581259882816
 20
311.8457442148728
 30
0.0
 10
215.2552797969309
 20
311.8403846250284
 30
0.0
 10
215.3656541749714
 20
311.8352889954128
 30
0.0
 10
215.4430706605852
 20
311.8323962077691
 30
0.0
 10
215.4840173158623
 20
311.8308661721766
 30
0.0
  0
LINE
  5
DD
330
1F
100
AcDbEntity
  8
0
  6
Continuous
 62
     7
370
    25
100
AcDbLine
 10
219.422704755
 20
311.8309167239
 30
0.0
 11
219.4470243814
 21
311.8309167239
 31
0.0
  0
LINE
  5
DE
330
1F
100
AcDbEntity
  8
0
  6
Continuous
 62
     7
370
    25
100
AcDbLine
 10
201.3470234635
 20
311.8309167239
 30
0.0
 11
215.4840479891
 21
311.8309167239
 31
0.0
  0
LINE
  5
DF
330
1F
100
AcDbEntity
  8
0
  6
Continuous
 62
     7
370
    25
100
AcDbLine
 10
219.4507524657
 20
311.840984321
 30
0.0
 11
219.4544898632
 21
311.839246473
 31
0.0
  0
SPLINE
  5
E0
330
1F
100
AcDbEntity
  8
0
  6
Continuous
 62
     7
370
    25
100
AcDbSpline
210
0.0
220
0.0
230
1.0
 70
     8
 71
     3
 72
     9
 73
     5
 74
     0
 42
0.000000001
 43
0.00000001
 40
0.0
 40
0.0
 40
0.0
 40
0.0
 40
0.4052416149064859
 40
1.0
 40
1.0
 40
1.0
 40
1.0
 10
219.4521541061643
 20
311.8379035058911
 30
0.0
 10
219.451263511948
 20
311.8369356389853
 30
0.0
 10
219.4490658249792
 20
311.8345472690101
 30
0.0
 10
219.4325360044163
 20
311.8322707203444
 30
0.0
 10
219.4227047550324
 20
311.8309167239364
 30
0.0
  0
SPLINE
  5
E1
330
1F
100
AcDbEntity
  8
0
  6
Continuous
 62
     7
370
    25
100
AcDbSpline
210
0.0
220
0.0
230
1.0
 70
     8
 71
     3
 72
    38
 73
    34
 74
     0
 42
0.000000001
 43
0.00000001
 40
0.0
 40
0.0
 40
0.0
 40
0.0
 40
0.0032955278222571
 40
0.0324685122004555
 40
0.0616414237080073
 40
0.0885339772768316
 40
0.1156047122655074
 40
0.1447469582960755
 40
0.1738890614908405
 40
0.2007623551874364
 40
0.2278156455420876
 40
0.2567737339799495
 40
0.2857317208675925
 40
0.3124357496932211
 40
0.3393184687166229
 40
0.3918264328489301
 40
0.4187720763820574
 40
0.4500699173538529
 40
0.5022420917701129
 40
0.5290155922555758
 40
0.5601135156866865
 40
0.5860681576999384
 40
0.6385499213628564
 40
0.6694479995884407
 40
0.6952593703590849
 40
0.7495184347958279
 40
0.7780700612404823
 40
0.8305235922265272
 40
0.8575977870438066
 40
0.885988695904381
 40
0.9380825062159139
 40
0.9931480952129347
 40
1.0
 40
1.0
 40
1.0
 40
1.0
 10
220.5957884254697
 20
312.9836109492476
 30
0.0
 10
220.5964494550807
 20
312.9829941949648
 30
0.0
 10
220.6029621137941
 20
312.9769177498432
 30
0.0
 10
220.5409561129933
 20
312.9651593031373
 30
0.0
 10
220.40874602628
 20
312.9490210592554
 30
0.0
 10
220.2023025977567
 20
312.9333838199342
 30
0.0
 10
219.9317796057929
 20
312.9177811294051
 30
0.0
 10
219.5841863806887
 20
312.9014794708706
 30
0.0
 10
219.1688007070591
 20
312.8852156988712
 30
0.0
 10
218.70217476722
 20
312.8694751639243
 30
0.0
 10
218.180546399048
 20
312.8538256631933
 30
0.0
 10
217.5894738003061
 20
312.8375265124698
 30
0.0
 10
216.9475227211162
 20
312.8212453204366
 30
0.0
 10
216.276008026
 20
312.8054778169467
 30
0.0
 10
215.36280654944
 20
312.7853332088472
 30
0.0
 10
214.3793963728625
 20
312.7646721250499
 30
0.0
 10
213.3079891326277
 20
312.7433219386153
 30
0.0
 10
212.2117513961273
 20
312.7222302819274
 30
0.0
 10
211.0886683218322
 20
312.7007155870956
 30
0.0
 10
209.9663149125041
 20
312.6793374185477
 30
0.0
 10
209.1152317573039
 20
312.6631858926281
 30
0.0
 10
208.0190021830172
 20
312.6419477152303
 30
0.0
 10
206.9543998713792
 20
312.6203609887958
 30
0.0
 10
205.9488858855297
 20
312.599179195878
 30
0.0
 10
204.9745374653511
 20
312.5775665488199
 30
0.0
 10
204.0944745633158
 20
312.555945275745
 30
0.0
 10
203.1221975886456
 20
312.5295415434638
 30
0.0
 10
202.4475368942418
 20
312.5081800412219
 30
0.0
 10
201.891842112361
 20
312.4867052962539
 30
0.0
 10
201.4208117292705
 20
312.4655374665862
 30
0.0
 10
200.9989012316551
 20
312.438613725454
 30
0.0
 10
200.8046611080374
 20
312.415752309859
 30
0.0
 10
200.7976561552189
 20
312.4034641410924
 30
0.0
 10
200.7968809741381
 20
312.4021043095286
 30
0.0
  0
LINE
  5
E2
330
1F
100
AcDbEntity
  8
0
  6
Continuous
 62
     7
370
    25
100
AcDbLine
 10
201.2382487121
 20
314.4318305913
 30
0.0
 11
201.2393672305
 21
314.4294929716
 31
0.0
  0
SPLINE
  5
E3
330
1F
100
AcDbEntity
  8
0
  6
Continuous
 62
     7
370
    25
100
AcDbSpline
210
0.0
220
0.0
230
1.0
 70
     8
 71
     3
 72
    10
 73
     6
 74
     0
 42
0.000000001
 43
0.00000001
 40
0.0
 40
0.0
 40
0.0
 40
0.0
 40
0.5
 40
0.5
 40
1.0
 40
1.0
 40
1.0
 40
1.0
 10
216.9855969217544
 20
314.5090019901327
 30
0.0
 10
216.0719804089038
 20
314.4756686567993
 30
0.0
 10
215.0234469544984
 20
314.442335323466
 30
0.0
 10
212.7820138286126
 20
314.3756686567993
 30
0.0
 10
211.589665577997
 20
314.3423353234659
 30
0.0
 10
210.3970239224676
 20
314.3090019901326
 30
0.0
  0
SPLINE
  5
E4
330
1F
100
AcDbEntity
  8
0
  6
Continuous
 62
     7
370
    25
100
AcDbSpline
210
0.0
220
0.0
230
1.0
 70
     8
 71
     3
 72
    19
 73
    15
 74
     0
 42
0.000000001
 43
0.00000001
 40
0.0
 40
0.0
 40
0.0
 40
0.0
 40
0.0887570727008378
 40
0.1775141329164881
 40
0.2662711897550243
 40
0.3550282538799734
 40
0.4437854186229608
 40
0.5325424677134987
 40
0.6212995079903395
 40
0.710056590254553
 40
0.7988136573708339
 40
0.887570770494985
 40
0.9763278681709358
 40
1.0
 40
1.0
 40
1.0
 40
1.0
 10
210.3970239224676
 20
314.309002182215
 30
0.0
 10
209.9206819561758
 20
314.2956886715703
 30
0.0
 10
208.9679980905979
 20
314.2690616521537
 30
0.0
 10
207.5667038667247
 20
314.2291201164666
 30
0.0
 10
206.2203323212645
 20
314.1891825803762
 30
0.0
 10
204.9550184224211
 20
314.1492412101235
 30
0.0
 10
203.7952909209519
 20
314.1092999604564
 30
0.0
 10
202.76375266151
 20
314.0693623268232
 30
0.0
 10
201.8800471558235
 20
314.0294209999263
 30
0.0
 10
201.1627337313225
 20
313.9894796807417
 30
0.0
 10
200.6204601554579
 20
313.9495421279668
 30
0.0
 10
200.2834220915807
 20
313.9096005880887
 30
0.0
 10
200.1333189287431
 20
313.8794228346426
 30
0.0
 10
200.160722977003
 20
313.8625584277601
 30
0.0
 10
200.1664929377678
 20
313.8590076032575
 30
0.0
  0
SPLINE
  5
E5
330
1F
100
AcDbEntity
  8
0
  6
Continuous
 62
     7
370
    25
100
AcDbSpline
210
0.0
220
0.0
230
1.0
 70
     8
 71
     3
 72
    22
 73
    18
 74
     0
 42
0.000000001
 43
0.00000001
 40
0.0
 40
0.0
 40
0.0
 40
0.0
 40
0.0663200069082216
 40
0.1616959052296628
 40
0.208646233486579
 40
0.2550889679141891
 40
0.3010237440948819
 40
0.3464508065828004
 40
0.3913701804449834
 40
0.4357816481697019
 40
0.5243794428862688
 40
0.6078173404125973
 40
0.6860946510068668
 40
0.7592106614606516
 40
0.8486457566282742
 40
0.9289094822492092
 40
1.0
 40
1.0
 40
1.0
 40
1.0
 10
200.1659043419007
 20
322.7014274362023
 30
0.0
 10
200.1660991176174
 20
322.7094678235172
 30
0.0
 10
200.1665740035125
 20
322.7290712247515
 30
0.0
 10
200.326723087937
 20
322.7529958358248
 30
0.0
 10
200.5358365374774
 20
322.7739882459286
 30
0.0
 10
200.730437112213
 20
322.7890856067137
 30
0.0
 10
200.9589885465637
 20
322.8036367500795
 30
0.0
 10
201.2201260076955
 20
322.8176314661126
 30
0.0
 10
201.5115734403837
 20
322.8310790542122
 30
0.0
 10
201.9383619875838
 20
322.848286019486
 30
0.0
 10
202.5314576929321
 20
322.868307722595
 30
0.0
 10
203.3177673739382
 20
322.8898892483778
 30
0.0
 10
204.1353551008854
 20
322.9084438698489
 30
0.0
 10
205.0413095781886
 20
322.9255378320207
 30
0.0
 10
206.0193614514241
 20
322.9400226221195
 30
0.0
 10
207.0399867708203
 20
322.9511985194686
 30
0.0
 10
207.7081951283855
 20
322.954263230321
 30
0.0
 10
208.0220500758681
 20
322.9557027134593
 30
0.0
  0
SPLINE
  5
E6
330
1F
100
AcDbEntity
  8
0
  6
Continuous
 62
     7
370
    25
100
AcDbSpline
210
0.0
220
0.0
230
1.0
 70
     8
 71
     3
 72
    19
 73
    15
 74
     0
 42
0.000000001
 43
0.00000001
 40
0.0
 40
0.0
 40
0.0
 40
0.0
 40
0.0780545767010493
 40
0.1661588094317867
 40
0.2643105089012817
 40
0.3445411409781548
 40
0.4304263939207713
 40
0.4755059842499044
 40
0.5220006670341634
 40
0.5699102369187575
 40
0.6192347986787986
 40
0.7668373041951377
 40
0.9194089904845
 40
1.0
 40
1.0
 40
1.0
 40
1.0
 10
208.0220500758681
 20
321.5721569049652
 30
0.0
 10
207.7081491176484
 20
321.5554392185943
 30
0.0
 10
207.0399319329337
 20
321.5198514160433
 30
0.0
 10
206.0190967772037
 20
321.4695214809698
 30
0.0
 10
205.0408596992538
 20
321.4219728651863
 30
0.0
 10
204.1348044290141
 20
321.3775695485876
 30
0.0
 10
203.4644722362145
 20
321.3436135468976
 30
0.0
 10
202.9421455932466
 20
321.3159592717279
 30
0.0
 10
202.5550475111699
 20
321.2946463294803
 30
0.0
 10
202.1825667227962
 20
321.2731031671333
 30
0.0
 10
201.5958623626202
 20
321.2370598790786
 30
0.0
 10
200.9098843789829
 20
321.1875046448937
 30
0.0
 10
200.4022888552842
 20
321.1362800311389
 30
0.0
 10
200.2762432146936
 20
321.1066741270448
 30
0.0
 10
200.2326764452103
 20
321.0964410591419
 30
0.0
  0
SPLINE
  5
E7
330
1F
100
AcDbEntity
  8
0
  6
Continuous
 62
     7
370
    25
100
AcDbSpline
210
0.0
220
0.0
230
1.0
 70
     8
 71
     3
 72
    10
 73
     6
 74
     0
 42
0.000000001
 43
0.00000001
 40
0.0
 40
0.0
 40
0.0
 40
0.0
 40
0.3960806209027716
 40
0.7547891487445944
 40
0.9999999999999999
 40
0.9999999999999999
 40
0.9999999999999999
 40
0.9999999999999999
 10
220.521469815338
 20
323.0021347317393
 30
0.0
 10
220.5506157264684
 20
323.0022668570778
 30
0.0
 10
220.606157493196
 20
323.0025186410997
 30
0.0
 10
220.6425544085834
 20
322.9982566578181
 30
0.0
 10
220.6440629096906
 20
322.9913282348157
 30
0.0
 10
220.6446754100564
 20
322.9885150704081
 30
0.0
  0
LWPOLYLINE
  5
E8
330
1F
100
AcDbEntity
  8
0
  6
Continuous
 62
     7
370
    25
100
AcDbPolyline
 90
       31
 70
   128
 43
0.0
 10
220.636143564
 20
322.5757296223
 10
220.6462940487
 20
322.9861169148
 10
220.6307167473
 20
322.9712176162
 10
220.600767276
 20
322.9515378389
 10
220.5432068842
 20
322.9092176098
 10
220.5207908812
 20
322.8838958803
 10
220.506582624
 20
322.8558006722
 10
220.50340402
 20
322.8424240861
 10
220.5028340506
 20
322.8380561832
 10
220.5025062251
 20
322.8336892116
 10
220.5024056422
 20
322.8287327129
 10
220.5025639671
 20
322.8236048508
 10
220.5032419699
 20
322.8165100354
 10
220.5044927361
 20
322.8092820409
 10
220.508684619
 20
322.7944283772
 10
220.5264700862
 20
322.7584951583
 10
220.5469386938
 20
322.7294444132
 10
220.5644429016
 20
322.7077995453
 10
220.5829929846
 20
322.6859414044
 10
220.6033228251
 20
322.6616003576
 10
220.6129182416
 20
322.6493571911
 10
220.6140749442
 20
322.6478233028
 10
220.6146486389
 20
322.647055893
 10
220.6147203508
 20
322.6469599667
 10
220.6147566723
 20
322.6469124693
 10
220.6147603976
 20
322.64690595
 10
220.6147631916
 20
322.6469031561
 10
220.6147641229
 20
322.6469022247
 10
220.6351423922
 20
322.6151171166
 10
220.6370599854
 20
322.5396613616
 10
220.5214698153
 20
322.4699285838
  0
SPLINE
  5
E9
330
1F
100
AcDbEntity
  8
0
  6
Continuous
 62
     7
370
    25
100
AcDbSpline
210
0.0
220
0.0
230
1.0
 70
    24
 71
     3
 72
    16
 73
    12
 74
     0
 42
0.000000001
 43
0.00000001
 40
0.0
 40
0.0
 40
0.0
 40
0.0
 40
0.2499999999999999
 40
0.2499999999999999
 40
0.4999999999999999
 40
0.4999999999999999
 40
0.6249999999999999
 40
0.6249999999999999
 40
0.7499999999999998
 40
0.7499999999999998
 40
1.0
 40
1.0
 40
1.0
 40
1.0
 10
215.4839101900616
 20
311.8309169325527
 30
0.0
 10
216.0418663910966
 20
311.8309169325527
 30
0.0
 10
216.5564124939263
 20
311.8309169325527
 30
0.0
 10
217.4738173854464
 20
311.8309169325526
 30
0.0
 10
217.878325176735
 20
311.8309169325526
 30
0.0
 10
218.3865858168985
 20
311.8309169325526
 30
0.0
 10
218.5403871261777
 20
311.8309169325526
 30
0.0
 10
218.8115214536669
 20
311.8309169325526
 30
0.0
 10
218.9290971649023
 20
311.8309169325528
 30
0.0
 10
219.2300447795333
 20
311.8309169325528
 30
0.0
 10
219.3624472344169
 20
311.8309169325526
 30
0.0
 10
219.4227041514481
 20
311.8309169325526
 30
0.0
  0
CIRCLE
  5
EA
330
1F
100
AcDbEntity
  8
0
  6
Continuous
 62
     7
370
    25
100
AcDbCircle
 10
210.3970239225
 20
335.8309169326
 30
0.0
 40
27.5
  0
ARC
  5
EB
330
1F
100
AcDbEntity
  8
0
  6
Continuous
 62
     7
370
    25
100
AcDbCircle
 10
359.2679238225
 20
308.8309169326
 30
0.0
 40
0.5000000000000568
100
AcDbArc
 50
270.0
 51
0.0
  0
ARC
  5
EC
330
1F
100
AcDbEntity
  8
0
  6
Continuous
 62
     7
370
    25
100
AcDbCircle
 10
359.2679238225
 20
362.8309169326
 30
0.0
 40
0.5000000000000568
100
AcDbArc
 50
0.0
 51
90.0
  0
LINE
  5
ED
330
1F
100
AcDbEntity
  8
0
  6
Continuous
 62
     7
370
    25
100
AcDbLine
 10
348.7679238225
 20
308.3309170816
 30
0.0
 11
359.2679236809
 21
308.3309170816
 31
0.0
  0
LINE
  5
EE
330
1F
100
AcDbEntity
  8
0
  6
Continuous
 62
     7
370
    25
100
AcDbLine
 10
359.2679236809
 20
363.3309167835
 30
0.0
 11
348.7679238225
 21
363.3309167835
 31
0.0
  0
LINE
  5
EF
330
1F
100
AcDbEntity
  8
0
  6
Continuous
 62
     7
370
    25
100
AcDbLine
 10
410.6634060646
 20
322.8309166643
 30
0.0
 11
414.5249600316
 21
322.8309166643
 31
0.0
  0
LINE
  5
F0
330
1F
100
AcDbEntity
  8
0
  6
Continuous
 62
     7
370
    25
100
AcDbLine
 10
382.7685887719
 20
322.8309166643
 30
0.0
 11
386.8724430705
 21
322.8309166643
 31
0.0
  0
LINE
  5
F1
330
1F
100
AcDbEntity
  8
0
  6
Continuous
 62
     7
370
    25
100
AcDbLine
 10
359.7679237629
 20
322.8309166643
 30
0.0
 11
362.5222702304
 21
322.8309166643
 31
0.0
  0
LINE
  5
F2
330
1F
100
AcDbEntity
  8
0
  6
Continuous
 62
     7
370
    25
100
AcDbLine
 10
386.2410510684
 20
348.8309172008
 30
0.0
 11
359.7679237629
 21
348.8309172008
 31
0.0
  0
LINE
  5
F3
330
1F
100
AcDbEntity
  8
0
  6
Continuous
 62
     7
370
    25
100
AcDbLine
 10
414.5249600316
 20
348.8309172008
 30
0.0
 11
411.2947980667
 21
348.8309172008
 31
0.0
  0
ARC
  5
F4
330
1F
100
AcDbEntity
  8
0
  6
Continuous
 62
     7
370
    25
100
AcDbCircle
 10
414.5249624789
 20
323.3309169326
 30
0.0
 40
0.5
100
AcDbArc
 50
270.0
 51
353.1970356227
  0
ARC
  5
F5
330
1F
100
AcDbEntity
  8
0
  6
Continuous
 62
     7
370
    25
100
AcDbCircle
 10
414.5249624789
 20
348.3309169326
 30
0.0
 40
0.5000000000000059
100
AcDbArc
 50
6.8029643773
 51
90.0
  0
ARC
  5
F6
330
1F
100
AcDbEntity
  8
0
  6
Continuous
 62
     7
370
    25
100
AcDbCircle
 10
309.7429238225
 20
335.8309169326
 30
0.0
 40
106.0250000000003
100
AcDbArc
 50
353.197035623
 51
0.0
  0
ARC
  5
F7
330
1F
100
AcDbEntity
  8
0
  6
Continuous
 62
     7
370
    25
100
AcDbCircle
 10
309.7429238225
 20
335.8309169326
 30
0.0
 40
106.0250000000003
100
AcDbArc
 50
0.0
 51
6.802964377
  0
SPLINE
  5
F8
330
1F
100
AcDbEntity
  8
0
  6
Continuous
 62
     7
370
    25
100
AcDbSpline
210
0.0
220
0.0
230
1.0
 70
     8
 71
     3
 72
     9
 73
     5
 74
     0
 42
0.000000001
 43
0.00000001
 40
0.0
 40
0.0
 40
0.0
 40
0.0
 40
0.4999726556764002
 40
1.0
 40
1.0
 40
1.0
 40
1.0
 10
381.934343537162
 20
315.380537233084
 30
0.0
 10
382.1135858148336
 20
315.4740124445839
 30
0.0
 10
382.4720899762842
 20
315.6609730922085
 30
0.0
 10
382.8306247238702
 20
315.8479012059821
 30
0.0
 10
383.0099019015533
 20
315.9413703742917
 30
0.0
  0
SPLINE
  5
F9
330
1F
100
AcDbEntity
  8
0
  6
Continuous
 62
     7
370
    25
100
AcDbSpline
210
0.0
220
0.0
230
1.0
 70
     8
 71
     3
 72
     9
 73
     5
 74
     0
 42
0.000000001
 43
0.00000001
 40
0.0
 40
0.0
 40
0.0
 40
0.0
 40
0.4999755524532905
 40
1.0
 40
1.0
 40
1.0
 40
1.0
 10
381.935166826318
 20
313.5808923307355
 30
0.0
 10
382.1143766084922
 20
313.6743503521113
 30
0.0
 10
382.4728136986556
 20
313.8612755345874
 30
0.0
 10
382.831283890623
 20
314.0481732999014
 30
0.0
 10
383.0105277503235
 20
314.1416267517503
 30
0.0
  0
SPLINE
  5
FA
330
1F
100
AcDbEntity
  8
0
  6
Continuous
 62
     7
370
    25
100
AcDbSpline
210
0.0
220
0.0
230
1.0
 70
     8
 71
     3
 72
     9
 73
     5
 74
     0
 42
0.000000001
 43
0.00000001
 40
0.0
 40
0.0
 40
0.0
 40
0.0
 40
0.5000387825887089
 40
1.0
 40
1.0
 40
1.0
 40
1.0
 10
362.526317758332
 20
313.2410694870646
 30
0.0
 10
362.7044926395259
 20
313.1481865464397
 30
0.0
 10
363.060814763725
 20
312.9624350730359
 30
0.0
 10
363.4175076243015
 20
312.7766422339263
 30
0.0
 10
363.5958402211172
 20
312.6837530198987
 30
0.0
  0
SPLINE
  5
FB
330
1F
100
AcDbEntity
  8
0
  6
Continuous
 62
     7
370
    25
100
AcDbSpline
210
0.0
220
0.0
230
1.0
 70
     8
 71
     3
 72
     9
 73
     5
 74
     0
 42
0.000000001
 43
0.00000001
 40
0.0
 40
0.0
 40
0.0
 40
0.0
 40
0.5000250303163003
 40
1.0
 40
1.0
 40
1.0
 40
1.0
 10
362.5245007479889
 20
315.0417500201161
 30
0.0
 10
362.7037551355843
 20
314.9483001926945
 30
0.0
 10
363.0622459644973
 20
314.7614098936979
 30
0.0
 10
363.4207040167827
 20
314.5744933878387
 30
0.0
 10
363.5999240706069
 20
314.4810398134883
 30
0.0
  0
SPLINE
  5
FC
330
1F
100
AcDbEntity
  8
0
  6
Continuous
 62
     7
370
    25
100
AcDbSpline
210
0.0
220
0.0
230
1.0
 70
     8
 71
     3
 72
     9
 73
     5
 74
     0
 42
0.000000001
 43
0.00000001
 40
0.0
 40
0.0
 40
0.0
 40
0.0
 40
0.5000331077682504
 40
1.0
 40
1.0
 40
1.0
 40
1.0
 10
383.0143014693958
 20
319.7180734041627
 30
0.0
 10
382.8339111901005
 20
319.8121302220099
 30
0.0
 10
382.4731545192063
 20
320.0002314024837
 30
0.0
 10
382.1123895143298
 20
320.1883690209158
 30
0.0
 10
381.9320189560158
 20
320.2824316013153
 30
0.0
  0
SPLINE
  5
FD
330
1F
100
AcDbEntity
  8
0
  6
Continuous
 62
     7
370
    25
100
AcDbSpline
210
0.0
220
0.0
230
1.0
 70
     8
 71
     3
 72
     9
 73
     5
 74
     0
 42
0.000000001
 43
0.00000001
 40
0.0
 40
0.0
 40
0.0
 40
0.0
 40
0.5000376661748953
 40
1.0
 40
1.0
 40
1.0
 40
1.0
 10
383.0135787630779
 20
317.9185123208459
 30
0.0
 10
382.8331542275891
 20
318.0125880340466
 30
0.0
 10
382.4723323381722
 20
318.2007252876267
 30
0.0
 10
382.1114959576609
 20
318.3889032016205
 30
0.0
 10
381.9310913587315
 20
318.4829850706752
 30
0.0
  0
SPLINE
  5
FE
330
1F
100
AcDbEntity
  8
0
  6
Continuous
 62
     7
370
    25
100
AcDbSpline
210
0.0
220
0.0
230
1.0
 70
     8
 71
     3
 72
     9
 73
     5
 74
     0
 42
0.000000001
 43
0.00000001
 40
0.0
 40
0.0
 40
0.0
 40
0.0
 40
0.5000348061582499
 40
1.0
 40
1.0
 40
1.0
 40
1.0
 10
383.0099391544563
 20
316.1205791893895
 30
0.0
 10
382.8295072729782
 20
316.2146498943469
 30
0.0
 10
382.4686686288358
 20
316.4027782082139
 30
0.0
 10
382.1078440366862
 20
316.5909476771667
 30
0.0
 10
381.9274442995293
 20
316.6850258621867
 30
0.0
  0
SPLINE
  5
FF
330
1F
100
AcDbEntity
  8
0
  6
Continuous
 62
     7
370
    25
100
AcDbSpline
210
0.0
220
0.0
230
1.0
 70
     8
 71
     3
 72
     9
 73
     5
 74
     0
 42
0.000000001
 43
0.00000001
 40
0.0
 40
0.0
 40
0.0
 40
0.0
 40
0.4999729332025484
 40
1.0
 40
1.0
 40
1.0
 40
1.0
 10
363.607021679948
 20
315.7845282021459
 30
0.0
 10
363.4266900079725
 20
315.6904917243192
 30
0.0
 10
363.0660071389611
 20
315.5024085870495
 30
0.0
 10
362.7052943719137
 20
315.3143578546428
 30
0.0
 10
362.5249282250506
 20
315.2203273985083
 30
0.0
  0
SPLINE
  5
100
330
1F
100
AcDbEntity
  8
0
  6
Continuous
 62
     7
370
    25
100
AcDbSpline
210
0.0
220
0.0
230
1.0
 70
     8
 71
     3
 72
     9
 73
     5
 74
     0
 42
0.000000001
 43
0.00000001
 40
0.0
 40
0.0
 40
0.0
 40
0.0
 40
0.4999689012091937
 40
1.0
 40
1.0
 40
1.0
 40
1.0
 10
363.6122827211721
 20
317.5871570620234
 30
0.0
 10
363.4319386020169
 20
317.4931054587121
 30
0.0
 10
363.071227928375
 20
317.3049905517971
 30
0.0
 10
362.7104653562801
 20
317.1169107424845
 30
0.0
 10
362.5300728509528
 20
317.0228649887736
 30
0.0
  0
SPLINE
  5
101
330
1F
100
AcDbEntity
  8
0
  6
Continuous
 62
     7
370
    25
100
AcDbSpline
210
0.0
220
0.0
230
1.0
 70
     8
 71
     3
 72
     9
 73
     5
 74
     0
 42
0.000000001
 43
0.00000001
 40
0.0
 40
0.0
 40
0.0
 40
0.0
 40
0.4611509905914382
 40
0.9999999999999999
 40
0.9999999999999999
 40
0.9999999999999999
 40
0.9999999999999999
 10
363.6084223891003
 20
319.3852410677369
 30
0.0
 10
363.4420566480118
 20
319.2984863322419
 30
0.0
 10
363.0812946752898
 20
319.1103598026126
 30
0.0
 10
362.7205088912097
 20
318.9222707771928
 30
0.0
 10
362.5260998288495
 20
318.8209191921647
 30
0.0
  0
SPLINE
  5
102
330
1F
100
AcDbEntity
  8
0
  6
Continuous
 62
     7
370
    25
100
AcDbSpline
210
0.0
220
0.0
230
1.0
 70
     8
 71
     3
 72
     9
 73
     5
 74
     0
 42
0.000000001
 43
0.00000001
 40
0.0
 40
0.0
 40
0.0
 40
0.0
 40
0.4999642634957461
 40
1.0
 40
1.0
 40
1.0
 40
1.0
 10
363.6096442843182
 20
321.1858377817567
 30
0.0
 10
363.4292481044445
 20
321.0917659510598
 30
0.0
 10
363.0684299559387
 20
320.9036088415115
 30
0.0
 10
362.7075848684683
 20
320.7154911408796
 30
0.0
 10
362.5271494293911
 20
320.6214255678947
 30
0.0
  0
SPLINE
  5
103
330
1F
100
AcDbEntity
  8
0
  6
Continuous
 62
     7
370
    25
100
AcDbSpline
210
0.0
220
0.0
230
1.0
 70
     8
 71
     3
 72
     9
 73
     5
 74
     0
 42
0.000000001
 43
0.00000001
 40
0.0
 40
0.0
 40
0.0
 40
0.0
 40
0.4999730822940151
 40
1.0
 40
1.0
 40
1.0
 40
1.0
 10
381.9262969101173
 20
320.776145255893
 30
0.0
 10
382.106608609034
 20
320.8701800898595
 30
0.0
 10
382.4672514222215
 20
321.0582598831456
 30
0.0
 10
382.8279365687654
 20
321.2463083715775
 30
0.0
 10
383.0082888508541
 20
321.3403376776274
 30
0.0
  0
SPLINE
  5
104
330
1F
100
AcDbEntity
  8
0
  6
Continuous
 62
     7
370
    25
100
AcDbSpline
210
0.0
220
0.0
230
1.0
 70
     8
 71
     3
 72
     9
 73
     5
 74
     0
 42
0.000000001
 43
0.00000001
 40
0.0
 40
0.0
 40
0.0
 40
0.0
 40
0.4999681583693734
 40
1.0
 40
1.0
 40
1.0
 40
1.0
 10
381.9222624207241
 20
318.9741683218177
 30
0.0
 10
382.102609157535
 20
319.0682274457924
 30
0.0
 10
382.4633256027562
 20
319.2563576744882
 30
0.0
 10
382.8240960625989
 20
319.4444519643775
 30
0.0
 10
383.00449278004
 20
319.5385050985511
 30
0.0
  0
SPLINE
  5
105
330
1F
100
AcDbEntity
  8
0
  6
Continuous
 62
     7
370
    25
100
AcDbSpline
210
0.0
220
0.0
230
1.0
 70
     8
 71
     3
 72
     9
 73
     5
 74
     0
 42
0.000000001
 43
0.00000001
 40
0.0
 40
0.0
 40
0.0
 40
0.0
 40
0.499967828987956
 40
1.0
 40
1.0
 40
1.0
 40
1.0
 10
381.9268110001785
 20
317.1763525370057
 30
0.0
 10
382.1071773543126
 20
317.2704127785657
 30
0.0
 10
382.4679332743469
 20
317.4585453665172
 30
0.0
 10
382.8287164140036
 20
317.646643505944
 30
0.0
 10
383.0091195905907
 20
317.7406986269648
 30
0.0
  0
SPLINE
  5
106
330
1F
100
AcDbEntity
  8
0
  6
Continuous
 62
     7
370
    25
100
AcDbSpline
210
0.0
220
0.0
230
1.0
 70
     8
 71
     3
 72
     9
 73
     5
 74
     0
 42
0.000000001
 43
0.00000001
 40
0.0
 40
0.0
 40
0.0
 40
0.0
 40
0.5000327738564789
 40
1.0
 40
1.0
 40
1.0
 40
1.0
 10
362.5220597515208
 20
316.8433283481295
 30
0.0
 10
362.7024504792548
 20
316.7492788715774
 30
0.0
 10
363.0632082878734
 20
316.5611922471213
 30
0.0
 10
363.4239653251257
 20
316.3730704959124
 30
0.0
 10
363.6043320203526
 20
316.2790157857831
 30
0.0
  0
SPLINE
  5
107
330
1F
100
AcDbEntity
  8
0
  6
Continuous
 62
     7
370
    25
100
AcDbSpline
210
0.0
220
0.0
230
1.0
 70
     8
 71
     3
 72
     9
 73
     5
 74
     0
 42
0.000000001
 43
0.00000001
 40
0.0
 40
0.0
 40
0.0
 40
0.0
 40
0.5000372402708206
 40
1.0
 40
1.0
 40
1.0
 40
1.0
 10
362.5216108540399
 20
318.6435637089904
 30
0.0
 10
362.7020346127211
 20
318.5494943195504
 30
0.0
 10
363.0628552559668
 20
318.361369552305
 30
0.0
 10
363.4236885364272
 20
318.173202745459
 30
0.0
 10
363.6040917391283
 20
318.0791263494189
 30
0.0
  0
SPLINE
  5
108
330
1F
100
AcDbEntity
  8
0
  6
Continuous
 62
     7
370
    25
100
AcDbSpline
210
0.0
220
0.0
230
1.0
 70
     8
 71
     3
 72
     9
 73
     5
 74
     0
 42
0.000000001
 43
0.00000001
 40
0.0
 40
0.0
 40
0.0
 40
0.0
 40
0.5000369033250314
 40
1.0
 40
1.0
 40
1.0
 40
1.0
 10
362.5249934176309
 20
320.441581590801
 30
0.0
 10
362.7054276370184
 20
320.3475142650326
 30
0.0
 10
363.0662694432684
 20
320.1593934980593
 30
0.0
 10
363.4270989447959
 20
319.9712320042087
 30
0.0
 10
363.6075003797514
 20
319.8771582010682
 30
0.0
  0
SPLINE
  5
109
330
1F
100
AcDbEntity
  8
0
  6
Continuous
 62
     7
370
    25
100
AcDbSpline
210
0.0
220
0.0
230
1.0
 70
     8
 71
     3
 72
     9
 73
     5
 74
     0
 42
0.000000001
 43
0.00000001
 40
0.0
 40
0.0
 40
0.0
 40
0.0
 40
0.5000367880363511
 40
1.0
 40
1.0
 40
1.0
 40
1.0
 10
362.5264295170409
 20
322.2407971534427
 30
0.0
 10
362.7068740015624
 20
322.1467264797293
 30
0.0
 10
363.0677364197659
 20
321.9585989739857
 30
0.0
 10
363.4285788367649
 20
321.7704299386094
 30
0.0
 10
363.6089867705805
 20
321.6763523432906
 30
0.0
  0
SPLINE
  5
10A
330
1F
100
AcDbEntity
  8
0
  6
Continuous
 62
     7
370
    25
100
AcDbSpline
210
0.0
220
0.0
230
1.0
 70
     8
 71
     3
 72
     9
 73
     5
 74
     0
 42
0.000000001
 43
0.00000001
 40
0.0
 40
0.0
 40
0.0
 40
0.0
 40
0.5000354652974196
 40
1.0
 40
1.0
 40
1.0
 40
1.0
 10
383.008974304269
 20
314.3211317274268
 30
0.0
 10
382.8296408423675
 20
314.4146288512548
 30
0.0
 10
382.4709993572183
 20
314.6016098362384
 30
0.0
 10
382.1123784158411
 20
314.7886306134732
 30
0.0
 10
381.9330806637508
 20
314.8821343693431
 30
0.0
  0
SPLINE
  5
10B
330
1F
100
AcDbEntity
  8
0
  6
Continuous
 62
     7
370
    25
100
AcDbSpline
210
0.0
220
0.0
230
1.0
 70
     8
 71
     3
 72
     9
 73
     5
 74
     0
 42
0.000000001
 43
0.00000001
 40
0.0
 40
0.0
 40
0.0
 40
0.0
 40
0.2649398807506808
 40
0.9999999999999999
 40
0.9999999999999999
 40
0.9999999999999999
 40
0.9999999999999999
 10
382.6691682244045
 20
312.6982220474179
 30
0.0
 10
382.604540777457
 20
312.7319184270099
 30
0.0
 10
382.3606082793961
 20
312.8591034302512
 30
0.0
 10
382.1166701861873
 20
312.9863197956478
 30
0.0
 10
381.9373610223038
 20
313.0798314723666
 30
0.0
  0
LINE
  5
10C
330
1F
100
AcDbEntity
  8
0
  6
Continuous
 62
     7
370
    25
100
AcDbLine
 10
363.5989145169
 20
312.1801310244
 30
0.0
 11
363.4637283886
 21
312.1096299056
 31
0.0
  0
SPLINE
  5
10D
330
1F
100
AcDbEntity
  8
0
  6
Continuous
 62
     7
370
    25
100
AcDbSpline
210
0.0
220
0.0
230
1.0
 70
     8
 71
     3
 72
     9
 73
     5
 74
     0
 42
0.000000001
 43
0.00000001
 40
0.0
 40
0.0
 40
0.0
 40
0.0
 40
0.4999708216208576
 40
1.0
 40
1.0
 40
1.0
 40
1.0
 10
363.6043692732555
 20
313.9829591873582
 30
0.0
 10
363.4251414905137
 20
313.8894884611503
 30
0.0
 10
363.0666650055044
 20
313.7025360988009
 30
0.0
 10
362.7081441808569
 20
313.515614600906
 30
0.0
 10
362.5288733074767
 20
313.4221483978923
 30
0.0
  0
LINE
  5
10E
330
1F
100
AcDbEntity
  8
0
  6
Continuous
 62
     7
370
    25
100
AcDbLine
 10
362.517923748
 20
313.4089999858
 30
0.0
 11
362.517923748
 21
313.2528283659
 31
0.0
  0
LINE
  5
10F
330
1F
100
AcDbEntity
  8
0
  6
Continuous
 62
     7
370
    25
100
AcDbLine
 10
362.517923748
 20
315.209002516
 30
0.0
 11
362.517923748
 21
315.0528327588
 31
0.0
  0
LINE
  5
110
330
1F
100
AcDbEntity
  8
0
  6
Continuous
 62
     7
370
    25
100
AcDbLine
 10
362.517923748
 20
317.0090013209
 30
0.0
 11
362.517923748
 21
316.8528315637
 31
0.0
  0
LINE
  5
111
330
1F
100
AcDbEntity
  8
0
  6
Continuous
 62
     7
370
    25
100
AcDbLine
 10
362.517923748
 20
318.8090019885
 30
0.0
 11
362.517923748
 21
318.6528322313
 31
0.0
  0
LINE
  5
112
330
1F
100
AcDbEntity
  8
0
  6
Continuous
 62
     7
370
    25
100
AcDbLine
 10
362.517923748
 20
320.6090017247
 30
0.0
 11
362.517923748
 21
320.4528319675
 31
0.0
  0
LINE
  5
113
330
1F
100
AcDbEntity
  8
0
  6
Continuous
 62
     7
370
    25
100
AcDbLine
 10
362.517923748
 20
322.8343318242
 30
0.0
 11
362.517923748
 21
322.2528317038
 31
0.0
  0
LINE
  5
114
330
1F
100
AcDbEntity
  8
0
  6
Continuous
 62
     7
370
    25
100
AcDbLine
 10
383.0179224516
 20
321.3528323013
 30
0.0
 11
383.0179224516
 21
321.6995432067
 31
0.0
  0
LINE
  5
115
330
1F
100
AcDbEntity
  8
0
  6
Continuous
 62
     7
370
    25
100
AcDbLine
 10
383.0179224516
 20
319.552832565
 30
0.0
 11
383.0179224516
 21
319.7090023223
 31
0.0
  0
LINE
  5
116
330
1F
100
AcDbEntity
  8
0
  6
Continuous
 62
     7
370
    25
100
AcDbLine
 10
383.0179224516
 20
317.7528318975
 30
0.0
 11
383.0179224516
 21
317.9090016547
 31
0.0
  0
LINE
  5
117
330
1F
100
AcDbEntity
  8
0
  6
Continuous
 62
     7
370
    25
100
AcDbLine
 10
383.0179224516
 20
315.9528312299
 30
0.0
 11
383.0179224516
 21
316.1090028498
 31
0.0
  0
LINE
  5
118
330
1F
100
AcDbEntity
  8
0
  6
Continuous
 62
     7
370
    25
100
AcDbLine
 10
383.0179224516
 20
314.152832425
 30
0.0
 11
383.0179224516
 21
314.3090021822
 31
0.0
  0
LINE
  5
119
330
1F
100
AcDbEntity
  8
0
  6
Continuous
 62
     7
370
    25
100
AcDbLine
 10
363.453162534
 20
312.0956786934
 30
0.0
 11
363.7179235721
 21
311.8309167239
 31
0.0
  0
LINE
  5
11A
330
1F
100
AcDbEntity
  8
0
  6
Continuous
 62
     7
370
    25
100
AcDbLine
 10
381.81792449
 20
311.8309167239
 30
0.0
 11
382.6703416908
 21
312.6833357874
 31
0.0
  0
SPLINE
  5
11B
330
1F
100
AcDbEntity
  8
0
  6
Continuous
 62
     7
370
    25
100
AcDbSpline
210
0.0
220
0.0
230
1.0
 70
     8
 71
     3
 72
    11
 73
     7
 74
     0
 42
0.000000001
 43
0.00000001
 40
0.0
 40
0.0
 40
0.0
 40
0.0
 40
0.2514420407400262
 40
0.5000377603556191
 40
0.7486095300681513
 40
1.0
 40
1.0
 40
1.0
 40
1.0
 10
381.9363961721165
 20
314.8805250439341
 30
0.0
 10
381.8960907115065
 20
314.9103882929162
 30
0.0
 10
381.8159360476556
 20
314.9697767392316
 30
0.0
 10
381.7749709149847
 20
315.1308228757363
 30
0.0
 10
381.8155913328695
 20
315.2919208295224
 30
0.0
 10
381.895609953366
 20
315.3513920667805
 30
0.0
 10
381.9358448291523
 20
315.3812953296597
 30
0.0
  0
SPLINE
  5
11C
330
1F
100
AcDbEntity
  8
0
  6
Continuous
 62
     7
370
    25
100
AcDbSpline
210
0.0
220
0.0
230
1.0
 70
     8
 71
     3
 72
    11
 73
     7
 74
     0
 42
0.000000001
 43
0.00000001
 40
0.0
 40
0.0
 40
0.0
 40
0.0
 40
0.251430318938888
 40
0.5000123690000993
 40
0.7485874613528053
 40
1.0
 40
1.0
 40
1.0
 40
1.0
 10
381.9359193349583
 20
313.0805877062972
 30
0.0
 10
381.8956656061254
 20
313.1104369779096
 30
0.0
 10
381.8156141533022
 20
313.1697973807237
 30
0.0
 10
381.774765398289
 20
313.3308100103326
 30
0.0
 10
381.8154621842164
 20
313.4918650337622
 30
0.0
 10
381.8954616395296
 20
313.551305288951
 30
0.0
 10
381.9356883669598
 20
313.5811940792497
 30
0.0
  0
SPLINE
  5
11D
330
1F
100
AcDbEntity
  8
0
  6
Continuous
 62
     7
370
    25
100
AcDbSpline
210
0.0
220
0.0
230
1.0
 70
     8
 71
     3
 72
    11
 73
     7
 74
     0
 42
0.000000001
 43
0.00000001
 40
0.0
 40
0.0
 40
0.0
 40
0.0
 40
0.2830695432614523
 40
0.5420132350538541
 40
0.7803284909588951
 40
1.0
 40
1.0
 40
1.0
 40
1.0
 10
363.5992749387724
 20
312.6814396146233
 30
0.0
 10
363.646791674693
 20
312.6434295882968
 30
0.0
 10
363.737775322947
 20
312.5706491079372
 30
0.0
 10
363.7580717035526
 20
312.3910625231193
 30
0.0
 10
363.6996723643928
 20
312.2494659333572
 30
0.0
 10
363.6316085493903
 20
312.2027352151948
 30
0.0
 10
363.5989620143873
 20
312.1803210142548
 30
0.0
  0
SPLINE
  5
11E
330
1F
100
AcDbEntity
  8
0
  6
Continuous
 62
     7
370
    25
100
AcDbSpline
210
0.0
220
0.0
230
1.0
 70
     8
 71
     3
 72
    11
 73
     7
 74
     0
 42
0.000000001
 43
0.00000001
 40
0.0
 40
0.0
 40
0.0
 40
0.0
 40
0.2192402921276825
 40
0.4574195545498478
 40
0.7165015557418697
 40
1.0
 40
1.0
 40
1.0
 40
1.0
 10
363.5990449020965
 20
314.481423518389
 30
0.0
 10
363.631720655221
 20
314.4589594667619
 30
0.0
 10
363.6998948411506
 20
314.412090816894
 30
0.0
 10
363.7582242172462
 20
314.2704218272721
 30
0.0
 10
363.7377830741947
 20
314.0908942647756
 30
0.0
 10
363.6468584953914
 20
314.0182832896736
 30
0.0
 10
363.5993503759009
 20
313.9803440335687
 30
0.0
  0
SPLINE
  5
11F
330
1F
100
AcDbEntity
  8
0
  6
Continuous
 62
     7
370
    25
100
AcDbSpline
210
0.0
220
0.0
230
1.0
 70
     8
 71
     3
 72
    11
 73
     7
 74
     0
 42
0.000000001
 43
0.00000001
 40
0.0
 40
0.0
 40
0.0
 40
0.0
 40
0.2513812678430604
 40
0.4999948801897409
 40
0.7486124722755494
 40
1.0
 40
1.0
 40
1.0
 40
1.0
 10
381.9331402683956
 20
320.2820814240272
 30
0.0
 10
381.8936137404579
 20
320.3121611397873
 30
0.0
 10
381.8149958634374
 20
320.3719893998904
 30
0.0
 10
381.7753976663185
 20
320.5309822301371
 30
0.0
 10
381.8151669380642
 20
320.6899747185243
 30
0.0
 10
381.8938890067621
 20
320.7498016233487
 30
0.0
 10
381.9334680939419
 20
320.7798807907398
 30
0.0
  0
SPLINE
  5
120
330
1F
100
AcDbEntity
  8
0
  6
Continuous
 62
     7
370
    25
100
AcDbSpline
210
0.0
220
0.0
230
1.0
 70
     8
 71
     3
 72
    11
 73
     7
 74
     0
 42
0.000000001
 43
0.00000001
 40
0.0
 40
0.0
 40
0.0
 40
0.0
 40
0.2220058109650344
 40
0.4610862082189823
 40
0.7192894737447507
 40
1.0
 40
1.0
 40
1.0
 40
1.0
 10
381.9339412058098
 20
318.4816458288129
 30
0.0
 10
381.9009434016775
 20
318.505051569179
 30
0.0
 10
381.8324099145549
 20
318.5536631979875
 30
0.0
 10
381.7771467807797
 20
318.6957563866379
 30
0.0
 10
381.7993661618457
 20
318.8712367803302
 30
0.0
 10
381.8881302616867
 20
318.9429657538216
 30
0.0
 10
381.9343658889038
 20
318.9803280893262
 30
0.0
  0
SPLINE
  5
121
330
1F
100
AcDbEntity
  8
0
  6
Continuous
 62
     7
370
    25
100
AcDbSpline
210
0.0
220
0.0
230
1.0
 70
     8
 71
     3
 72
    11
 73
     7
 74
     0
 42
0.000000001
 43
0.00000001
 40
0.0
 40
0.0
 40
0.0
 40
0.0
 40
0.251371661458617
 40
0.4999838813531857
 40
0.7486056891704973
 40
1.0
 40
1.0
 40
1.0
 40
1.0
 10
381.9335798526508
 20
316.6818277004655
 30
0.0
 10
381.8939697802045
 20
316.7119210408696
 30
0.0
 10
381.815184456324
 20
316.7717773709382
 30
0.0
 10
381.7754319906127
 20
316.930811638556
 30
0.0
 10
381.8151091912849
 20
317.0898379250994
 30
0.0
 10
381.8938224555609
 20
317.1496922756984
 30
0.0
 10
381.9333973134262
 20
317.1797853920157
 30
0.0
  0
SPLINE
  5
122
330
1F
100
AcDbEntity
  8
0
  6
Continuous
 62
     7
370
    25
100
AcDbSpline
210
0.0
220
0.0
230
1.0
 70
     8
 71
     3
 72
    11
 73
     7
 74
     0
 42
0.000000001
 43
0.00000001
 40
0.0
 40
0.0
 40
0.0
 40
0.0
 40
0.2513623096774195
 40
0.4999816309396254
 40
0.7486152677109383
 40
1.0
 40
1.0
 40
1.0
 40
1.0
 10
363.602883813749
 20
316.2796230081017
 30
0.0
 10
363.6422885056885
 20
316.249561945187
 30
0.0
 10
363.7206678863038
 20
316.1897678603731
 30
0.0
 10
363.7600871500213
 20
316.0308306835294
 30
0.0
 10
363.7203040689274
 20
315.8719081584358
 30
0.0
 10
363.641745774862
 20
315.8121129730257
 30
0.0
 10
363.6022505143983
 20
315.7820508840974
 30
0.0
  0
SPLINE
  5
123
330
1F
100
AcDbEntity
  8
0
  6
Continuous
 62
     7
370
    25
100
AcDbSpline
210
0.0
220
0.0
230
1.0
 70
     8
 71
     3
 72
    11
 73
     7
 74
     0
 42
0.000000001
 43
0.00000001
 40
0.0
 40
0.0
 40
0.0
 40
0.0
 40
0.2186608672921825
 40
0.4566689354657881
 40
0.7159819059376737
 40
0.9999999999999999
 40
0.9999999999999999
 40
0.9999999999999999
 40
0.9999999999999999
 10
363.6021070907218
 20
318.0799943420585
 30
0.0
 10
363.6342626702478
 20
318.0572804447801
 30
0.0
 10
363.7014189678207
 20
318.0098429155193
 30
0.0
 10
363.7579339384137
 20
317.8696183974167
 30
0.0
 10
363.7375925142534
 20
317.6925554485202
 30
0.0
 10
363.6479954470512
 20
317.619604441595
 30
0.0
 10
363.6011599356634
 20
317.5814704063828
 30
0.0
  0
SPLINE
  5
124
330
1F
100
AcDbEntity
  8
0
  6
Continuous
 62
     7
370
    25
100
AcDbSpline
210
0.0
220
0.0
230
1.0
 70
     8
 71
     3
 72
    11
 73
     7
 74
     0
 42
0.000000001
 43
0.00000001
 40
0.0
 40
0.0
 40
0.0
 40
0.0
 40
0.2836926722150299
 40
0.5428957517638666
 40
0.7810182467186678
 40
1.0
 40
1.0
 40
1.0
 40
1.0
 10
363.6015175635321
 20
319.8802744064029
 30
0.0
 10
363.6482769744371
 20
319.8421413782664
 30
0.0
 10
363.7377593193181
 20
319.7691671318204
 30
0.0
 10
363.7578497909658
 20
319.5921222721184
 30
0.0
 10
363.7012081213886
 20
319.4519679875121
 30
0.0
 10
363.6341734345182
 20
319.4046107832347
 30
0.0
 10
363.6020595932705
 20
319.3819236967261
 30
0.0
  0
SPLINE
  5
125
330
1F
100
AcDbEntity
  8
0
  6
Continuous
 62
     7
370
    25
100
AcDbSpline
210
0.0
220
0.0
230
1.0
 70
     8
 71
     3
 72
    11
 73
     7
 74
     0
 42
0.000000001
 43
0.00000001
 40
0.0
 40
0.0
 40
0.0
 40
0.0
 40
0.2513683496770793
 40
0.4999977449793443
 40
0.748629719442883
 40
1.0
 40
1.0
 40
1.0
 40
1.0
 10
363.6023287454946
 20
321.679821519881
 30
0.0
 10
363.6417928547642
 20
321.6497637474157
 30
0.0
 10
363.7202910653297
 20
321.5899757173352
 30
0.0
 10
363.7599670304072
 20
321.4310617670047
 30
0.0
 10
363.7205367918604
 20
321.2721483206072
 30
0.0
 10
363.6422220871549
 20
321.2123602392641
 30
0.0
 10
363.6028502861363
 20
321.1823024812634
 30
0.0
  0
LINE
  5
126
330
1F
100
AcDbEntity
  8
0
  6
Continuous
 62
     7
370
    25
100
AcDbLine
 10
382.3248321915
 20
322.6171362239
 30
0.0
 11
382.7875355983
 21
322.8587175745
 31
0.0
  0
LINE
  5
127
330
1F
100
AcDbEntity
  8
0
  6
Continuous
 62
     7
370
    25
100
AcDbLine
 10
382.9061898196
 20
321.7834721345
 30
0.0
 11
382.295990994
 21
322.1033777136
 31
0.0
  0
SPLINE
  5
128
330
1F
100
AcDbEntity
  8
0
  6
Continuous
 62
     7
370
    25
100
AcDbSpline
210
0.0
220
0.0
230
1.0
 70
     8
 71
     3
 72
    11
 73
     7
 74
     0
 42
0.000000001
 43
0.00000001
 40
0.0
 40
0.0
 40
0.0
 40
0.0
 40
0.2216655150787142
 40
0.4616507453493926
 40
0.7202262682638146
 40
1.0
 40
1.0
 40
1.0
 40
1.0
 10
382.3159510994656
 20
322.09422933194
 30
0.0
 10
382.2830907381216
 20
322.1166578271233
 30
0.0
 10
382.2146542458623
 20
322.1633684375436
 30
0.0
 10
382.1556471624015
 20
322.3049652180509
 30
0.0
 10
382.175071455702
 20
322.4855173963205
 30
0.0
 10
382.2672449588343
 20
322.5590037999939
 30
0.0
 10
382.3151464367611
 20
322.5971938136514
 30
0.0
  0
SPLINE
  5
129
330
1F
100
AcDbEntity
  8
0
  6
Continuous
 62
     7
370
    25
100
AcDbSpline
210
0.0
220
0.0
230
1.0
 70
    24
 71
     3
 72
    10
 73
     6
 74
     0
 42
0.000000001
 43
0.00000001
 40
0.0
 40
0.0
 40
0.0
 40
0.0
 40
0.4999999999999999
 40
0.4999999999999999
 40
1.0
 40
1.0
 40
1.0
 40
1.0
 10
359.7679238224728
 20
335.8309169325526
 30
0.0
 10
359.7679238224728
 20
328.6702743645527
 30
0.0
 10
359.7679238224728
 20
321.802372758002
 30
0.0
 10
359.7679238224728
 20
311.6756949230302
 30
0.0
 10
359.7679238224728
 20
308.8309169325528
 30
0.0
 10
359.7679238224728
 20
308.8309169325526
 30
0.0
  0
SPLINE
  5
12A
330
1F
100
AcDbEntity
  8
0
  6
Continuous
 62
     7
370
    25
100
AcDbSpline
210
0.0
220
0.0
230
1.0
 70
    24
 71
     3
 72
    10
 73
     6
 74
     0
 42
0.000000001
 43
0.00000001
 40
0.0
 40
0.0
 40
0.0
 40
0.0
 40
0.5
 40
0.5
 40
1.0
 40
1.0
 40
1.0
 40
1.0
 10
359.7679238224728
 20
362.8309169325527
 30
0.0
 10
359.7679238224728
 20
362.8309169325528
 30
0.0
 10
359.7679238224728
 20
359.9861389420755
 30
0.0
 10
359.7679238224728
 20
349.8594611071038
 30
0.0
 10
359.7679238224728
 20
342.9915595005526
 30
0.0
 10
359.7679238224728
 20
335.8309169325526
 30
0.0
  0
LINE
  5
12B
330
1F
100
AcDbEntity
  8
0
  6
Continuous
 62
     7
370
    25
100
AcDbLine
 10
348.7679238225
 20
363.3309167835
 30
0.0
 11
348.7679238225
 21
308.3309170816
 31
0.0
  0
SPLINE
  5
12C
330
1F
100
AcDbEntity
  8
0
  6
Continuous
 62
     7
370
    25
100
AcDbSpline
210
0.0
220
0.0
230
1.0
 70
     8
 71
     3
 72
     9
 73
     5
 74
     0
 42
0.000000001
 43
0.00000001
 40
0.0
 40
0.0
 40
0.0
 40
0.0
 40
0.5182666717503295
 40
1.0
 40
1.0
 40
1.0
 40
1.0
 10
382.8569005037052
 20
322.9574973720606
 30
0.0
 10
382.8297561417534
 20
322.9189334433389
 30
0.0
 10
382.777380861938
 20
322.8445240112384
 30
0.0
 10
382.771447209856
 20
322.8393538148733
 30
0.0
 10
382.7685887718899
 20
322.8368631589706
 30
0.0
  0
SPLINE
  5
12D
330
1F
100
AcDbEntity
  8
0
  6
Continuous
 62
     7
370
    25
100
AcDbSpline
210
0.0
220
0.0
230
1.0
 70
     8
 71
     3
 72
    30
 73
    26
 74
     0
 42
0.000000001
 43
0.00000001
 40
0.0
 40
0.0
 40
0.0
 40
0.0
 40
0.0355304025116122
 40
0.0808084421312644
 40
0.1271998935126931
 40
0.1878742562114697
 40
0.2502983478126401
 40
0.3118154313555725
 40
0.3433847076005688
 40
0.3752539895289623
 40
0.4112438088652907
 40
0.4481032153300434
 40
0.4841554491461646
 40
0.5214632974458188
 40
0.5640531333975245
 40
0.6078481454495857
 40
0.6699840144853377
 40
0.7338705345629598
 40
0.7970549821586437
 40
0.8296057250302711
 40
0.8624868430561934
 40
0.9072564889610998
 40
0.9532445872304462
 40
0.998056491835227
 40
1.0
 40
1.0
 40
1.0
 40
1.0
 10
382.8569005037052
 20
322.9574973720606
 30
0.0
 10
382.7783153643134
 20
323.0189758958204
 30
0.0
 10
382.5995855374602
 20
323.1587993534336
 30
0.0
 10
382.1270985667338
 20
323.5230313015279
 30
0.0
 10
381.3959741350696
 20
324.0719717424208
 30
0.0
 10
380.378368128351
 20
324.8034770521577
 30
0.0
 10
379.0634127669627
 20
325.6739973313474
 30
0.0
 10
377.7944214359368
 20
326.4063021853207
 30
0.0
 10
376.6791927664273
 20
326.9410225413978
 30
0.0
 10
375.7381221041513
 20
327.3177224629602
 30
0.0
 10
374.6877244461388
 20
327.6319350761286
 30
0.0
 10
373.5397537345769
 20
327.8260711979207
 30
0.0
 10
372.3509748528306
 20
327.8533514029404
 30
0.0
 10
371.1158748686099
 20
327.6970605382814
 30
0.0
 10
369.8593568742825
 20
327.3502768668525
 30
0.0
 10
368.4580451862502
 20
326.7778565618153
 30
0.0
 10
367.0068569491774
 20
326.0008281050885
 30
0.0
 10
365.5874733702886
 20
325.0987657629703
 30
0.0
 10
364.5669757190752
 20
324.3815953253916
 30
0.0
 10
363.872598656833
 20
323.8714769799328
 30
0.0
 10
363.3616235624958
 20
323.4866647173479
 30
0.0
 10
362.9053503745545
 20
323.1349523351506
 30
0.0
 10
362.6115153363813
 20
322.9047869169761
 30
0.0
 10
362.4861486725903
 20
322.8059128788156
 30
0.0
 10
362.5208286678331
 20
322.8332030274113
 30
0.0
 10
362.5222702304227
 20
322.8343374121483
 30
0.0
  0
SPLINE
  5
12E
330
1F
100
AcDbEntity
  8
0
  6
Continuous
 62
     7
370
    25
100
AcDbSpline
210
0.0
220
0.0
230
1.0
 70
     8
 71
     3
 72
     8
 73
     4
 74
     0
 42
0.000000001
 43
0.00000001
 40
0.0
 40
0.0
 40
0.0
 40
0.0
 40
1.0
 40
1.0
 40
1.0
 40
1.0
 10
389.0179238453384
 20
342.6422904485258
 30
0.0
 10
388.799208285458
 20
343.0892189938297
 30
0.0
 10
388.5812758341617
 20
343.518254567412
 30
0.0
 10
388.3695253028858
 20
343.9309169325523
 30
0.0
  0
LINE
  5
12F
330
1F
100
AcDbEntity
  8
0
  6
Continuous
 62
     7
370
    25
100
AcDbLine
 10
389.017923435
 20
327.698264553
 30
0.0
 11
389.017923435
 21
342.642290334
 31
0.0
  0
SPLINE
  5
130
330
1F
100
AcDbEntity
  8
0
  6
Continuous
 62
     7
370
    25
100
AcDbSpline
210
0.0
220
0.0
230
1.0
 70
     8
 71
     3
 72
     8
 73
     4
 74
     0
 42
0.000000001
 43
0.00000001
 40
0.0
 40
0.0
 40
0.0
 40
0.0
 40
1.0
 40
1.0
 40
1.0
 40
1.0
 10
388.7061351261677
 20
327.0309169325541
 30
0.0
 10
388.8077315452763
 20
327.2475050304209
 30
0.0
 10
388.9119920380807
 20
327.4698991065002
 30
0.0
 10
389.0179238224684
 20
327.6982643501078
 30
0.0
  0
LINE
  5
131
330
1F
100
AcDbEntity
  8
0
  6
Continuous
 62
     7
370
    25
100
AcDbLine
 10
388.7061352635
 20
327.0309169802
 30
0.0
 11
387.5210533643
 21
327.0309169802
 31
0.0
  0
SPLINE
  5
132
330
1F
100
AcDbEntity
  8
0
  6
Continuous
 62
     7
370
    25
100
AcDbSpline
210
0.0
220
0.0
230
1.0
 70
     8
 71
     3
 72
    74
 73
    70
 74
     0
 42
0.000000001
 43
0.00000001
 40
0.0
 40
0.0
 40
0.0
 40
0.0
 40
0.0625000000000003
 40
0.0625000000000003
 40
0.0781250000000003
 40
0.0781250000000003
 40
0.0937500000000004
 40
0.0937500000000004
 40
0.1250000000000004
 40
0.1250000000000004
 40
0.1406250000000005
 40
0.1406250000000005
 40
0.1562500000000005
 40
0.1562500000000005
 40
0.1875000000000005
 40
0.1875000000000005
 40
0.2187500000000006
 40
0.2187500000000006
 40
0.2500000000000007
 40
0.2500000000000007
 40
0.2656250000000008
 40
0.2656250000000008
 40
0.281250000000001
 40
0.281250000000001
 40
0.3125000000000012
 40
0.3125000000000012
 40
0.3437500000000014
 40
0.3437500000000014
 40
0.3750000000000016
 40
0.3750000000000016
 40
0.4062500000000018
 40
0.4062500000000018
 40
0.437500000000002
 40
0.437500000000002
 40
0.4687500000000022
 40
0.4687500000000022
 40
0.5000000000000023
 40
0.5000000000000023
 40
0.5312500000000024
 40
0.5312500000000024
 40
0.5468750000000026
 40
0.5468750000000026
 40
0.5625000000000027
 40
0.5625000000000027
 40
0.6250000000000022
 40
0.6250000000000022
 40
0.6875000000000019
 40
0.6875000000000019
 40
0.7187500000000017
 40
0.7187500000000017
 40
0.7500000000000014
 40
0.7500000000000014
 40
0.7812500000000013
 40
0.7812500000000013
 40
0.8125000000000011
 40
0.8125000000000011
 40
0.8437500000000009
 40
0.8437500000000009
 40
0.8750000000000008
 40
0.8750000000000008
 40
0.9062500000000006
 40
0.9062500000000006
 40
0.9218750000000006
 40
0.9218750000000006
 40
0.9375000000000004
 40
0.9375000000000004
 40
0.9687500000000003
 40
0.9687500000000003
 40
1.0
 40
1.0
 40
1.0
 40
1.0
 10
410.0147941324299
 20
327.0309169325529
 30
0.0
 10
410.3749656147492
 20
326.2399515280648
 30
0.0
 10
410.6938495794402
 20
325.5426567803935
 30
0.0
 10
410.9882997829726
 20
324.7893878376937
 30
0.0
 10
411.0420935513316
 20
324.6442109514632
 30
0.0
 10
411.1359982308234
 20
324.3707279596979
 30
0.0
 10
411.1762686205099
 20
324.2420908792582
 30
0.0
 10
411.2755932821757
 20
323.8802575618799
 30
0.0
 10
411.3132795369978
 20
323.6710301999361
 30
0.0
 10
411.3196452601834
 20
323.4061921725761
 30
0.0
 10
411.3133811159043
 20
323.3261066307603
 30
0.0
 10
411.2824215592241
 20
323.1828414349122
 30
0.0
 10
411.2576601737101
 20
323.1200458428224
 30
0.0
 10
411.1561904816149
 20
322.9608400374153
 30
0.0
 10
411.0521496774477
 20
322.8918914888256
 30
0.0
 10
410.7683576697822
 20
322.822637848582
 30
0.0
 10
410.5862667347783
 20
322.823125337998
 30
0.0
 10
410.1591155275597
 20
322.8853431244422
 30
0.0
 10
409.9134618236145
 20
322.9462836145946
 30
0.0
 10
409.4984439484004
 20
323.0740380396575
 30
0.0
 10
409.3523173404399
 20
323.1227082102789
 30
0.0
 10
409.0443889645746
 20
323.2310543229705
 30
0.0
 10
408.8820122166484
 20
323.2909619720289
 30
0.0
 10
408.3785478805961
 20
323.4825604841359
 30
0.0
 10
408.0196325099835
 20
323.6265739468509
 30
0.0
 10
407.2561293190435
 20
323.9353837696087
 30
0.0
 10
406.8513175472538
 20
324.1003520309244
 30
0.0
 10
405.9942152652399
 20
324.4396077485505
 30
0.0
 10
405.5493896769761
 20
324.610909700392
 30
0.0
 10
404.625167561236
 20
324.9443765487742
 30
0.0
 10
404.1457915941703
 20
325.1066064797063
 30
0.0
 10
403.1474621062832
 20
325.4078892124846
 30
0.0
 10
402.624677407703
 20
325.5475975605727
 30
0.0
 10
401.5626016138488
 20
325.7801761256791
 30
0.0
 10
401.0211740970096
 20
325.8738941652
 30
0.0
 10
399.9149137309523
 20
326.0028547266413
 30
0.0
 10
399.3443646944092
 20
326.0376457531364
 30
0.0
 10
398.2189549260493
 20
326.0387211998801
 30
0.0
 10
397.6614651754651
 20
326.0060095455181
 30
0.0
 10
396.8326223724983
 20
325.9116591574704
 30
0.0
 10
396.5575734698927
 20
325.8727000139115
 30
0.0
 10
396.0098736238038
 20
325.7809190981408
 30
0.0
 10
395.7379148682412
 20
325.7281531499694
 30
0.0
 10
394.4075075703365
 20
325.439130182905
 30
0.0
 10
393.4158409436904
 20
325.125632613949
 30
0.0
 10
391.5434635310579
 20
324.4520508486637
 30
0.0
 10
390.6957648021801
 20
324.1037748550435
 30
0.0
 10
389.5438035106058
 20
323.6376782713004
 30
0.0
 10
389.1785242830553
 20
323.4909647605935
 30
0.0
 10
388.5082199673716
 20
323.2352400617028
 30
0.0
 10
388.2007801114685
 20
323.1251620191225
 30
0.0
 10
387.6425333667233
 20
322.9517185904657
 30
0.0
 10
387.390354895502
 20
322.8881891773947
 30
0.0
 10
386.9571745252781
 20
322.8234109399662
 30
0.0
 10
386.7748714301624
 20
322.8221753131998
 30
0.0
 10
386.4891305006401
 20
322.8892859866433
 30
0.0
 10
386.3840862217332
 20
322.9570488569262
 30
0.0
 10
386.2466127326525
 20
323.1665796042025
 30
0.0
 10
386.2149778871486
 20
323.3099221232278
 30
0.0
 10
386.2213123520023
 20
323.6619772015242
 30
0.0
 10
386.2582426012182
 20
323.8713802898313
 30
0.0
 10
386.3574863543726
 20
324.235206163806
 30
0.0
 10
386.3981135246258
 20
324.3653740964183
 30
0.0
 10
386.491878333762
 20
324.6390351878558
 30
0.0
 10
386.5449648619638
 20
324.7825230745485
 30
0.0
 10
386.7204937508116
 20
325.2323165479512
 30
0.0
 10
386.8591558391697
 20
325.5578486401082
 30
0.0
 10
387.1694039699415
 20
326.2595121547433
 30
0.0
 10
387.3408572774649
 20
326.6351915768797
 30
0.0
 10
387.5210535125154
 20
327.0309169325522
 30
0.0
  0
LINE
  5
133
330
1F
100
AcDbEntity
  8
0
  6
Continuous
 62
     7
370
    25
100
AcDbLine
 10
410.0147957707
 20
327.0309169802
 30
0.0
 11
408.8297138715
 21
327.0309169802
 31
0.0
  0
SPLINE
  5
134
330
1F
100
AcDbEntity
  8
0
  6
Continuous
 62
     7
370
    25
100
AcDbSpline
210
0.0
220
0.0
230
1.0
 70
     8
 71
     3
 72
     8
 73
     4
 74
     0
 42
0.000000001
 43
0.00000001
 40
0.0
 40
0.0
 40
0.0
 40
0.0
 40
1.0
 40
1.0
 40
1.0
 40
1.0
 10
408.5179238224771
 20
327.6982643501078
 30
0.0
 10
408.623855606865
 20
327.4698991065
 30
0.0
 10
408.7281160996691
 20
327.2475050304212
 30
0.0
 10
408.8297125187778
 20
327.0309169325541
 30
0.0
  0
LINE
  5
135
330
1F
100
AcDbEntity
  8
0
  6
Continuous
 62
     7
370
    25
100
AcDbLine
 10
408.5179219747
 20
342.642290334
 30
0.0
 11
408.5179219747
 21
327.698264553
 31
0.0
  0
SPLINE
  5
136
330
1F
100
AcDbEntity
  8
0
  6
Continuous
 62
     7
370
    25
100
AcDbSpline
210
0.0
220
0.0
230
1.0
 70
     8
 71
     3
 72
     8
 73
     4
 74
     0
 42
0.000000001
 43
0.00000001
 40
0.0
 40
0.0
 40
0.0
 40
0.0
 40
1.0
 40
1.0
 40
1.0
 40
1.0
 10
409.16632234206
 20
343.9309169325528
 30
0.0
 10
408.9545718180373
 20
343.5182545815478
 30
0.0
 10
408.7366393748642
 20
343.0892190240961
 30
0.0
 10
408.5179238224774
 20
342.6422904952595
 30
0.0
  0
LINE
  5
137
330
1F
100
AcDbEntity
  8
0
  6
Continuous
 62
     7
370
    25
100
AcDbLine
 10
410.3815878535
 20
343.9309171427
 30
0.0
 11
409.1663236523
 21
343.9309171427
 31
0.0
  0
SPLINE
  5
138
330
1F
100
AcDbEntity
  8
0
  6
Continuous
 62
     7
370
    25
100
AcDbSpline
210
0.0
220
0.0
230
1.0
 70
     8
 71
     3
 72
    84
 73
    80
 74
     0
 42
0.000000001
 43
0.00000001
 40
0.0
 40
0.0
 40
0.0
 40
0.0
 40
0.0625000000000017
 40
0.0625000000000017
 40
0.0781250000000021
 40
0.0781250000000021
 40
0.0937500000000025
 40
0.0937500000000025
 40
0.1250000000000032
 40
0.1250000000000032
 40
0.1406250000000035
 40
0.1406250000000035
 40
0.1562500000000039
 40
0.1562500000000039
 40
0.1875000000000047
 40
0.1875000000000047
 40
0.203125000000005
 40
0.203125000000005
 40
0.2187500000000053
 40
0.2187500000000053
 40
0.2500000000000059
 40
0.2500000000000059
 40
0.2656250000000063
 40
0.2656250000000063
 40
0.2812500000000067
 40
0.2812500000000067
 40
0.3125000000000072
 40
0.3125000000000072
 40
0.3437500000000078
 40
0.3437500000000078
 40
0.3750000000000084
 40
0.3750000000000084
 40
0.406250000000009
 40
0.406250000000009
 40
0.4218750000000093
 40
0.4218750000000093
 40
0.4375000000000095
 40
0.4375000000000095
 40
0.4687500000000098
 40
0.4687500000000098
 40
0.4843750000000098
 40
0.4843750000000098
 40
0.5000000000000097
 40
0.5000000000000097
 40
0.5312500000000093
 40
0.5312500000000093
 40
0.5468750000000093
 40
0.5468750000000093
 40
0.5625000000000093
 40
0.5625000000000093
 40
0.5937500000000089
 40
0.5937500000000089
 40
0.6250000000000083
 40
0.6250000000000083
 40
0.6562500000000079
 40
0.6562500000000079
 40
0.6718750000000075
 40
0.6718750000000075
 40
0.6875000000000072
 40
0.6875000000000072
 40
0.750000000000006
 40
0.750000000000006
 40
0.7812500000000053
 40
0.7812500000000053
 40
0.8125000000000047
 40
0.8125000000000047
 40
0.843750000000004
 40
0.843750000000004
 40
0.8593750000000037
 40
0.8593750000000037
 40
0.8750000000000032
 40
0.8750000000000032
 40
0.9062500000000024
 40
0.9062500000000024
 40
0.9375000000000017
 40
0.9375000000000017
 40
0.9687500000000009
 40
0.9687500000000009
 40
1.0
 40
1.0
 40
1.0
 40
1.0
 10
387.1542595144485
 20
343.9309169325533
 30
0.0
 10
386.7716579357109
 20
344.8352319875094
 30
0.0
 10
386.4159655020462
 20
345.6340880173852
 30
0.0
 10
386.0699103359393
 20
346.5045406281859
 30
0.0
 10
386.0054934200301
 20
346.672621357475
 30
0.0
 10
385.890515308273
 20
346.9896876773597
 30
0.0
 10
385.8396971647638
 20
347.1392667382523
 30
0.0
 10
385.7091468315946
 20
347.5613645363746
 30
0.0
 10
385.6511768906061
 20
347.8073912707542
 30
0.0
 10
385.617196428509
 20
348.1216642036107
 30
0.0
 10
385.6147282154126
 20
348.2172584183349
 30
0.0
 10
385.6296043776191
 20
348.3893526702672
 30
0.0
 10
385.6469391789401
 20
348.4647315089064
 30
0.0
 10
385.7286708462936
 20
348.6578894899757
 30
0.0
 10
385.8227487845958
 20
348.7439856305404
 30
0.0
 10
386.0263359332009
 20
348.8134726687047
 30
0.0
 10
386.1046405602308
 20
348.8266569811084
 30
0.0
 10
386.2830781186962
 20
348.8334247162078
 30
0.0
 10
386.3826527830014
 20
348.8268909894892
 30
0.0
 10
386.7070266199494
 20
348.7805843707436
 30
0.0
 10
386.9589829583479
 20
348.7143411869786
 30
0.0
 10
387.3883405895181
 20
348.5716940112022
 30
0.0
 10
387.5400671667729
 20
348.5168930032942
 30
0.0
 10
387.8608043084571
 20
348.3940886214581
 30
0.0
 10
388.0303625752304
 20
348.3258386784186
 30
0.0
 10
388.5567676018269
 20
348.106797936093
 30
0.0
 10
388.9333048773441
 20
347.9410523635474
 30
0.0
 10
389.7363667701433
 20
347.5833367758076
 30
0.0
 10
390.1646477895832
 20
347.3904918555265
 30
0.0
 10
391.0663092848019
 20
346.9943243013851
 30
0.0
 10
391.5352027619078
 20
346.7929527830896
 30
0.0
 10
392.5119612741796
 20
346.3978211780628
 30
0.0
 10
393.0197862027681
 20
346.2039628921978
 30
0.0
 10
393.8158946311336
 20
345.9314596233997
 30
0.0
 10
394.0880689390239
 20
345.843406958191
 30
0.0
 10
394.6389737856465
 20
345.6779353092983
 30
0.0
 10
394.9177087900003
 20
345.6004671898816
 30
0.0
 10
395.7645228922939
 20
345.3873922427891
 30
0.0
 10
396.3431568308165
 20
345.2710913432476
 30
0.0
 10
397.2362850441023
 20
345.1501478395446
 30
0.0
 10
397.5398791575324
 20
345.1187061286545
 30
0.0
 10
398.1441708802938
 20
345.076739623039
 30
0.0
 10
398.4455597159194
 20
345.066008550018
 30
0.0
 10
399.3474825269178
 20
345.0645322671527
 30
0.0
 10
399.9457698125665
 20
345.1047403757392
 30
0.0
 10
400.8388823310426
 20
345.2220980690962
 30
0.0
 10
401.137211855349
 20
345.2709777605975
 30
0.0
 10
401.7215446139614
 20
345.3838740856726
 30
0.0
 10
402.0085207426014
 20
345.4479204415159
 30
0.0
 10
402.8554637722256
 20
345.6586797575598
 30
0.0
 10
403.4015374169602
 20
345.8239004488697
 30
0.0
 10
404.4625672059968
 20
346.1843562626072
 30
0.0
 10
404.9793894178637
 20
346.3805235994644
 30
0.0
 10
405.9625972568345
 20
346.7769148242077
 30
0.0
 10
406.4319417669464
 20
346.9780975504457
 30
0.0
 10
407.1057027825372
 20
347.2737111904781
 30
0.0
 10
407.3252139283208
 20
347.3712410796866
 30
0.0
 10
407.7542379167164
 20
347.5626100543402
 30
0.0
 10
407.9641583381666
 20
347.6566316370878
 30
0.0
 10
408.9759991458024
 20
348.1076171104114
 30
0.0
 10
409.677379630396
 20
348.4131339998938
 30
0.0
 10
410.5551165015731
 20
348.7082158662777
 30
0.0
 10
410.8109911877816
 20
348.7765557414183
 30
0.0
 10
411.2485351971373
 20
348.8418840358315
 30
0.0
 10
411.4302198411998
 20
348.8379747762131
 30
0.0
 10
411.7058196375375
 20
348.7488620979253
 30
0.0
 10
411.8020651791891
 20
348.6644019267349
 30
0.0
 10
411.8865724197966
 20
348.4727981335602
 30
0.0
 10
411.9046931739865
 20
348.3976101627062
 30
0.0
 10
411.9209371338768
 20
348.2280193482098
 30
0.0
 10
411.9192611318501
 20
348.1334625669541
 30
0.0
 10
411.8873740095034
 20
347.8211149193235
 30
0.0
 10
411.8303958002515
 20
347.5747912714396
 30
0.0
 10
411.6552510708148
 20
347.005602119151
 30
0.0
 10
411.5385396434984
 20
346.6876797855451
 30
0.0
 10
411.2637810125702
 20
345.9955433006409
 30
0.0
 10
411.1050135748142
 20
345.6195987271507
 30
0.0
 10
410.7587044485793
 20
344.8113466547654
 30
0.0
 10
410.5730420193477
 20
344.3834363251518
 30
0.0
 10
410.3815881304974
 20
343.9309169325543
 30
0.0
  0
LINE
  5
139
330
1F
100
AcDbEntity
  8
0
  6
Continuous
 62
     7
370
    25
100
AcDbLine
 10
388.3695254827
 20
343.9309171427
 30
0.0
 11
387.1542612816
 21
343.9309171427
 31
0.0
  0
LINE
  5
13A
330
1F
100
AcDbEntity
  8
0
  6
Continuous
 62
     7
370
    25
100
AcDbLine
 10
408.8297138715
 20
327.0309169802
 30
0.0
 11
388.7061352635
 21
327.0309169802
 31
0.0
  0
LINE
  5
13B
330
1F
100
AcDbEntity
  8
0
  6
Continuous
 62
     7
370
    25
100
AcDbLine
 10
388.3695254827
 20
343.9309171427
 30
0.0
 11
409.1746049727
 21
343.9309171427
 31
0.0
  0
LWPOLYLINE
  5
13C
330
1F
100
AcDbEntity
  8
0
  6
Continuous
 62
     7
370
    25
100
AcDbPolyline
 90
       28
 70
   128
 43
0.0
 10
362.5348756815
 20
313.2528283659
 10
362.552402241
 20
313.2763349477
 10
362.7313530797
 20
313.3113955173
 10
363.0604377741
 20
313.346456087
 10
363.534733353
 20
313.381514794
 10
364.1471450011
 20
313.4165753636
 10
364.8885122294
 20
313.4516359332
 10
365.7477429862
 20
313.4866946402
 10
366.7119878138
 20
313.5217552099
 10
367.7668223882
 20
313.5568139169
 10
368.8964645172
 20
313.5918744865
 10
370.0840200091
 20
313.6269350562
 10
371.3117210919
 20
313.6619937632
 10
372.5612076724
 20
313.6970543328
 10
373.8137843812
 20
313.7321130398
 10
375.0507167334
 20
313.7671736095
 10
376.2535030747
 20
313.8022341791
 10
377.4041483904
 20
313.8372928861
 10
378.4854418392
 20
313.8723534558
 10
379.4812100733
 20
313.9074121628
 10
380.3765575195
 20
313.9424727324
 10
381.1580861712
 20
313.977533302
 10
381.8141135181
 20
314.012592009
 10
382.3348196948
 20
314.0476525787
 10
382.7124188448
 20
314.0827112857
 10
382.9412597025
 20
314.1177718553
 10
383.0179224516
 20
314.152832425
 10
383.0179224516
 20
314.152832425
  0
LINE
  5
13D
330
1F
100
AcDbEntity
  8
0
  6
Continuous
 62
     7
370
    25
100
AcDbLine
 10
362.5698207671
 20
315.0380098287
 30
0.0
 11
362.517923748
 21
315.0528327588
 31
0.0
  0
SPLINE
  5
13E
330
1F
100
AcDbEntity
  8
0
  6
Continuous
 62
     7
370
    25
100
AcDbSpline
210
0.0
220
0.0
230
1.0
 70
     8
 71
     3
 72
    22
 73
    18
 74
     0
 42
0.000000001
 43
0.00000001
 40
0.0
 40
0.0
 40
0.0
 40
0.0
 40
0.1250000000000001
 40
0.1250000000000001
 40
0.2500000000000002
 40
0.2500000000000002
 40
0.3750000000000001
 40
0.3750000000000001
 40
0.5000000000000001
 40
0.5000000000000001
 40
0.6250000000000001
 40
0.6250000000000001
 40
0.75
 40
0.75
 40
0.875
 40
0.875
 40
1.0
 40
1.0
 40
1.0
 40
1.0
 10
362.5179238224727
 20
315.0528318749626
 30
0.0
 10
362.5179238224727
 20
315.0903318749631
 30
0.0
 10
362.7847038866225
 20
315.1278318749635
 30
0.0
 10
363.8116133418416
 20
315.2028318749643
 30
0.0
 10
364.5713386878914
 20
315.2403318749647
 30
0.0
 10
366.4688199427299
 20
315.3153318749655
 30
0.0
 10
367.605829273671
 20
315.352831874966
 30
0.0
 10
370.0850080077901
 20
315.4278318749668
 30
0.0
 10
371.4262019600021
 20
315.4653318749672
 30
0.0
 10
374.1096456849434
 20
315.540331874968
 30
0.0
 10
375.4508396371554
 20
315.5778318749685
 30
0.0
 10
377.9300183712746
 20
315.6528318749693
 30
0.0
 10
379.0670277022157
 20
315.6903318749697
 30
0.0
 10
380.9645089570542
 20
315.7653318749705
 30
0.0
 10
381.724234303104
 20
315.8028318749709
 30
0.0
 10
382.7511437583231
 20
315.8778318749718
 30
0.0
 10
383.0179238224728
 20
315.9153318749723
 30
0.0
 10
383.0179238224728
 20
315.9528318749726
 30
0.0
  0
LINE
  5
13F
330
1F
100
AcDbEntity
  8
0
  6
Continuous
 62
     7
370
    25
100
AcDbLine
 10
363.6410009841
 20
312.6813017789
 30
0.0
 11
363.6343541349
 21
312.6837679211
 31
0.0
  0
SPLINE
  5
140
330
1F
100
AcDbEntity
  8
0
  6
Continuous
 62
     7
370
    25
100
AcDbSpline
210
0.0
220
0.0
230
1.0
 70
     8
 71
     3
 72
    14
 73
    10
 74
     0
 42
0.000000001
 43
0.00000001
 40
0.0
 40
0.0
 40
0.0
 40
0.0
 40
0.25
 40
0.25
 40
0.5
 40
0.5
 40
0.75
 40
0.75
 40
1.0
 40
1.0
 40
1.0
 40
1.0
 10
370.9880300013954
 20
321.0090019901356
 30
0.0
 10
369.8135072524638
 20
320.9756686568021
 30
0.0
 10
368.6757817937795
 20
320.9423353234686
 30
0.0
 10
366.6100658511774
 20
320.8756686568016
 30
0.0
 10
365.6825835594773
 20
320.8423353234681
 30
0.0
 10
364.1493530015348
 20
320.7756686568011
 30
0.0
 10
363.5439819293787
 20
320.7423353234676
 30
0.0
 10
362.7281669894571
 20
320.6756686568007
 30
0.0
 10
362.5179238224727
 20
320.6423353234671
 30
0.0
 10
362.5179238224727
 20
320.6090019901337
 30
0.0
  0
LINE
  5
141
330
1F
100
AcDbEntity
  8
0
  6
Continuous
 62
     7
370
    25
100
AcDbLine
 10
382.973449936
 20
319.7217036996
 30
0.0
 11
383.0179224516
 21
319.7090023223
 31
0.0
  0
SPLINE
  5
142
330
1F
100
AcDbEntity
  8
0
  6
Continuous
 62
     7
370
    25
100
AcDbSpline
210
0.0
220
0.0
230
1.0
 70
     8
 71
     3
 72
    22
 73
    18
 74
     0
 42
0.000000001
 43
0.00000001
 40
0.0
 40
0.0
 40
0.0
 40
0.0
 40
0.125
 40
0.125
 40
0.2500000000000001
 40
0.2500000000000001
 40
0.3750000000000001
 40
0.3750000000000001
 40
0.5000000000000001
 40
0.5000000000000001
 40
0.6250000000000001
 40
0.6250000000000001
 40
0.7500000000000002
 40
0.7500000000000002
 40
0.8750000000000002
 40
0.8750000000000002
 40
1.0
 40
1.0
 40
1.0
 40
1.0
 10
383.0179238224728
 20
319.7090019901327
 30
0.0
 10
383.0179238224728
 20
319.6715019901326
 30
0.0
 10
382.7511437583231
 20
319.6340019901326
 30
0.0
 10
381.724234303104
 20
319.5590019901326
 30
0.0
 10
380.9645089570542
 20
319.5215019901326
 30
0.0
 10
379.0670277022157
 20
319.4465019901326
 30
0.0
 10
377.9300183712746
 20
319.4090019901326
 30
0.0
 10
375.4508396371554
 20
319.3340019901326
 30
0.0
 10
374.1096456849434
 20
319.2965019901326
 30
0.0
 10
371.4262019600021
 20
319.2215019901326
 30
0.0
 10
370.0850080077901
 20
319.1840019901326
 30
0.0
 10
367.605829273671
 20
319.1090019901326
 30
0.0
 10
366.4688199427299
 20
319.0715019901326
 30
0.0
 10
364.5713386878914
 20
318.9965019901326
 30
0.0
 10
363.8116133418416
 20
318.9590019901326
 30
0.0
 10
362.7847038866225
 20
318.8840019901326
 30
0.0
 10
362.5179238224727
 20
318.8465019901327
 30
0.0
 10
362.5179238224727
 20
318.8090019901326
 30
0.0
  0
LINE
  5
143
330
1F
100
AcDbEntity
  8
0
  6
Continuous
 62
     7
370
    25
100
AcDbLine
 10
382.9719002152
 20
317.9221463415
 30
0.0
 11
383.0179224516
 21
317.9090016547
 31
0.0
  0
SPLINE
  5
144
330
1F
100
AcDbEntity
  8
0
  6
Continuous
 62
     7
370
    25
100
AcDbSpline
210
0.0
220
0.0
230
1.0
 70
     8
 71
     3
 72
    22
 73
    18
 74
     0
 42
0.000000001
 43
0.00000001
 40
0.0
 40
0.0
 40
0.0
 40
0.0
 40
0.125
 40
0.125
 40
0.2500000000000001
 40
0.2500000000000001
 40
0.3750000000000001
 40
0.3750000000000001
 40
0.5000000000000001
 40
0.5000000000000001
 40
0.6250000000000001
 40
0.6250000000000001
 40
0.7500000000000002
 40
0.7500000000000002
 40
0.8750000000000002
 40
0.8750000000000002
 40
1.0
 40
1.0
 40
1.0
 40
1.0
 10
383.0179238224728
 20
317.9090019901326
 30
0.0
 10
383.0179238224728
 20
317.8715019901326
 30
0.0
 10
382.7511437583231
 20
317.8340019901326
 30
0.0
 10
381.724234303104
 20
317.7590019901326
 30
0.0
 10
380.9645089570542
 20
317.7215019901326
 30
0.0
 10
379.0670277022157
 20
317.6465019901326
 30
0.0
 10
377.9300183712746
 20
317.6090019901326
 30
0.0
 10
375.4508396371554
 20
317.5340019901327
 30
0.0
 10
374.1096456849434
 20
317.4965019901326
 30
0.0
 10
371.4262019600021
 20
317.4215019901326
 30
0.0
 10
370.0850080077901
 20
317.3840019901326
 30
0.0
 10
367.605829273671
 20
317.3090019901326
 30
0.0
 10
366.4688199427299
 20
317.2715019901327
 30
0.0
 10
364.5713386878914
 20
317.1965019901326
 30
0.0
 10
363.8116133418416
 20
317.1590019901327
 30
0.0
 10
362.7847038866225
 20
317.0840019901327
 30
0.0
 10
362.5179238224727
 20
317.0465019901326
 30
0.0
 10
362.5179238224727
 20
317.0090019901326
 30
0.0
  0
LINE
  5
145
330
1F
100
AcDbEntity
  8
0
  6
Continuous
 62
     7
370
    25
100
AcDbLine
 10
382.9646545256
 20
316.1242169354
 30
0.0
 11
383.0179224516
 21
316.1090028498
 31
0.0
  0
SPLINE
  5
146
330
1F
100
AcDbEntity
  8
0
  6
Continuous
 62
     7
370
    25
100
AcDbSpline
210
0.0
220
0.0
230
1.0
 70
     8
 71
     3
 72
    22
 73
    18
 74
     0
 42
0.000000001
 43
0.00000001
 40
0.0
 40
0.0
 40
0.0
 40
0.0
 40
0.1249999999999998
 40
0.1249999999999998
 40
0.2499999999999996
 40
0.2499999999999996
 40
0.3749999999999997
 40
0.3749999999999997
 40
0.4999999999999998
 40
0.4999999999999998
 40
0.6249999999999998
 40
0.6249999999999998
 40
0.7499999999999998
 40
0.7499999999999998
 40
0.8749999999999999
 40
0.8749999999999999
 40
1.0
 40
1.0
 40
1.0
 40
1.0
 10
383.0179238224728
 20
316.1090019901326
 30
0.0
 10
383.0179238224728
 20
316.0715019901326
 30
0.0
 10
382.7511437583231
 20
316.0340019901327
 30
0.0
 10
381.724234303104
 20
315.9590019901326
 30
0.0
 10
380.9645089570542
 20
315.9215019901326
 30
0.0
 10
379.0670277022157
 20
315.8465019901327
 30
0.0
 10
377.9300183712746
 20
315.8090019901326
 30
0.0
 10
375.4508396371554
 20
315.7340019901326
 30
0.0
 10
374.1096456849434
 20
315.6965019901326
 30
0.0
 10
371.4262019600021
 20
315.6215019901326
 30
0.0
 10
370.0850080077901
 20
315.5840019901327
 30
0.0
 10
367.605829273671
 20
315.5090019901327
 30
0.0
 10
366.4688199427299
 20
315.4715019901327
 30
0.0
 10
364.5713386878914
 20
315.3965019901327
 30
0.0
 10
363.8116133418416
 20
315.3590019901326
 30
0.0
 10
362.7847038866225
 20
315.2840019901327
 30
0.0
 10
362.5179238224727
 20
315.2465019901326
 30
0.0
 10
362.5179238224727
 20
315.2090019901326
 30
0.0
  0
LINE
  5
147
330
1F
100
AcDbEntity
  8
0
  6
Continuous
 62
     7
370
    25
100
AcDbLine
 10
362.5536483506
 20
316.8397297177
 30
0.0
 11
362.517923748
 21
316.8528315637
 31
0.0
  0
SPLINE
  5
148
330
1F
100
AcDbEntity
  8
0
  6
Continuous
 62
     7
370
    25
100
AcDbSpline
210
0.0
220
0.0
230
1.0
 70
     8
 71
     3
 72
    22
 73
    18
 74
     0
 42
0.000000001
 43
0.00000001
 40
0.0
 40
0.0
 40
0.0
 40
0.0
 40
0.125
 40
0.125
 40
0.2500000000000001
 40
0.2500000000000001
 40
0.3750000000000001
 40
0.3750000000000001
 40
0.5000000000000001
 40
0.5000000000000001
 40
0.6250000000000001
 40
0.6250000000000001
 40
0.7500000000000002
 40
0.7500000000000002
 40
0.8750000000000001
 40
0.8750000000000001
 40
1.0
 40
1.0
 40
1.0
 40
1.0
 10
362.5179238224727
 20
316.8528318749727
 30
0.0
 10
362.5179238224727
 20
316.8903318749726
 30
0.0
 10
362.7847038866225
 20
316.9278318749726
 30
0.0
 10
363.8116133418416
 20
317.0028318749726
 30
0.0
 10
364.5713386878914
 20
317.0403318749726
 30
0.0
 10
366.4688199427299
 20
317.1153318749726
 30
0.0
 10
367.605829273671
 20
317.1528318749726
 30
0.0
 10
370.0850080077901
 20
317.2278318749726
 30
0.0
 10
371.4262019600021
 20
317.2653318749726
 30
0.0
 10
374.1096456849434
 20
317.3403318749726
 30
0.0
 10
375.4508396371554
 20
317.3778318749726
 30
0.0
 10
377.9300183712746
 20
317.4528318749726
 30
0.0
 10
379.0670277022157
 20
317.4903318749726
 30
0.0
 10
380.9645089570542
 20
317.5653318749726
 30
0.0
 10
381.724234303104
 20
317.6028318749727
 30
0.0
 10
382.7511437583231
 20
317.6778318749726
 30
0.0
 10
383.0179238224728
 20
317.7153318749727
 30
0.0
 10
383.0179238224728
 20
317.7528318749726
 30
0.0
  0
LINE
  5
149
330
1F
100
AcDbEntity
  8
0
  6
Continuous
 62
     7
370
    25
100
AcDbLine
 10
362.5630826483
 20
318.6399334136
 30
0.0
 11
362.517923748
 21
318.6528322313
 31
0.0
  0
SPLINE
  5
14A
330
1F
100
AcDbEntity
  8
0
  6
Continuous
 62
     7
370
    25
100
AcDbSpline
210
0.0
220
0.0
230
1.0
 70
     8
 71
     3
 72
    22
 73
    18
 74
     0
 42
0.000000001
 43
0.00000001
 40
0.0
 40
0.0
 40
0.0
 40
0.0
 40
0.1249999999999999
 40
0.1249999999999999
 40
0.2499999999999999
 40
0.2499999999999999
 40
0.3749999999999999
 40
0.3749999999999999
 40
0.5
 40
0.5
 40
0.6249999999999999
 40
0.6249999999999999
 40
0.7499999999999999
 40
0.7499999999999999
 40
0.8749999999999999
 40
0.8749999999999999
 40
1.0
 40
1.0
 40
1.0
 40
1.0
 10
362.5179238224727
 20
318.6528318749726
 30
0.0
 10
362.5179238224727
 20
318.6903318749722
 30
0.0
 10
362.7847038866225
 20
318.7278318749718
 30
0.0
 10
363.8116133418416
 20
318.8028318749709
 30
0.0
 10
364.5713386878914
 20
318.8403318749705
 30
0.0
 10
366.4688199427299
 20
318.9153318749698
 30
0.0
 10
367.605829273671
 20
318.9528318749693
 30
0.0
 10
370.0850080077901
 20
319.0278318749685
 30
0.0
 10
371.4262019600021
 20
319.065331874968
 30
0.0
 10
374.1096456849434
 20
319.1403318749672
 30
0.0
 10
375.4508396371554
 20
319.1778318749668
 30
0.0
 10
377.9300183712746
 20
319.2528318749659
 30
0.0
 10
379.0670277022157
 20
319.2903318749655
 30
0.0
 10
380.9645089570541
 20
319.3653318749647
 30
0.0
 10
381.724234303104
 20
319.4028318749643
 30
0.0
 10
382.7511437583231
 20
319.4778318749635
 30
0.0
 10
383.0179238224728
 20
319.5153318749631
 30
0.0
 10
383.0179238224728
 20
319.5528318749626
 30
0.0
  0
LINE
  5
14B
330
1F
100
AcDbEntity
  8
0
  6
Continuous
 62
     7
370
    25
100
AcDbLine
 10
362.5700405592
 20
320.4379475701
 30
0.0
 11
362.517923748
 21
320.4528319675
 31
0.0
  0
SPLINE
  5
14C
330
1F
100
AcDbEntity
  8
0
  6
Continuous
 62
     7
370
    25
100
AcDbSpline
210
0.0
220
0.0
230
1.0
 70
     8
 71
     3
 72
    22
 73
    18
 74
     0
 42
0.000000001
 43
0.00000001
 40
0.0
 40
0.0
 40
0.0
 40
0.0
 40
0.1250000000000001
 40
0.1250000000000001
 40
0.2500000000000001
 40
0.2500000000000001
 40
0.3750000000000001
 40
0.3750000000000001
 40
0.5000000000000001
 40
0.5000000000000001
 40
0.625
 40
0.625
 40
0.7500000000000001
 40
0.7500000000000001
 40
0.875
 40
0.875
 40
1.0
 40
1.0
 40
1.0
 40
1.0
 10
362.5179238224727
 20
320.4528318749666
 30
0.0
 10
362.5179238224727
 20
320.4903318749667
 30
0.0
 10
362.7847038866225
 20
320.5278318749667
 30
0.0
 10
363.8116133418416
 20
320.6028318749668
 30
0.0
 10
364.5713386878914
 20
320.6403318749668
 30
0.0
 10
366.4688199427299
 20
320.7153318749669
 30
0.0
 10
367.605829273671
 20
320.7528318749669
 30
0.0
 10
370.0850080077901
 20
320.827831874967
 30
0.0
 10
371.4262019600021
 20
320.8653318749671
 30
0.0
 10
374.1096456849434
 20
320.9403318749672
 30
0.0
 10
375.4508396371554
 20
320.9778318749672
 30
0.0
 10
377.9300183712746
 20
321.0528318749673
 30
0.0
 10
379.0670277022157
 20
321.0903318749673
 30
0.0
 10
380.9645089570542
 20
321.1653318749674
 30
0.0
 10
381.724234303104
 20
321.2028318749674
 30
0.0
 10
382.7511437583231
 20
321.2778318749675
 30
0.0
 10
383.0179238224728
 20
321.3153318749676
 30
0.0
 10
383.0179238224728
 20
321.3528318749676
 30
0.0
  0
LINE
  5
14D
330
1F
100
AcDbEntity
  8
0
  6
Continuous
 62
     7
370
    25
100
AcDbLine
 10
362.5727954114
 20
322.2371603388
 30
0.0
 11
362.517923748
 21
322.2528317038
 31
0.0
  0
SPLINE
  5
14E
330
1F
100
AcDbEntity
  8
0
  6
Continuous
 62
     7
370
    25
100
AcDbSpline
210
0.0
220
0.0
230
1.0
 70
     8
 71
     3
 72
    14
 73
    10
 74
     0
 42
0.000000001
 43
0.00000001
 40
0.0
 40
0.0
 40
0.0
 40
0.0
 40
0.25
 40
0.25
 40
0.5
 40
0.5
 40
0.75
 40
0.75
 40
1.0
 40
1.0
 40
1.0
 40
1.0
 10
362.5179238224727
 20
322.2528318749686
 30
0.0
 10
362.5179238224727
 20
322.2861652083021
 30
0.0
 10
362.7281669894564
 20
322.3194985416354
 30
0.0
 10
363.5439819293754
 20
322.3861652083023
 30
0.0
 10
364.1493530015296
 20
322.4194985416357
 30
0.0
 10
365.6825835594675
 20
322.4861652083025
 30
0.0
 10
366.6100658511649
 20
322.519498541636
 30
0.0
 10
368.6757817937616
 20
322.5861652083028
 30
0.0
 10
369.8135072524431
 20
322.6194985416362
 30
0.0
 10
370.9880300013723
 20
322.6528318749696
 30
0.0
  0
LINE
  5
14F
330
1F
100
AcDbEntity
  8
0
  6
Continuous
 62
     7
370
    25
100
AcDbLine
 10
363.6328304911
 20
313.9829554621
 30
0.0
 11
363.6308998594
 21
313.9811505589
 31
0.0
  0
LINE
  5
150
330
1F
100
AcDbEntity
  8
0
  6
Continuous
 62
     7
370
    25
100
AcDbLine
 10
381.9230596328
 20
313.0819623384
 30
0.0
 11
381.9323318804
 21
313.0797271642
 31
0.0
  0
LINE
  5
151
330
1F
100
AcDbEntity
  8
0
  6
Continuous
 62
     7
370
    25
100
AcDbLine
 10
382.9690205658
 20
314.3247042808
 30
0.0
 11
383.0179224516
 21
314.3090021822
 31
0.0
  0
SPLINE
  5
152
330
1F
100
AcDbEntity
  8
0
  6
Continuous
 62
     7
370
    25
100
AcDbSpline
210
0.0
220
0.0
230
1.0
 70
     8
 71
     3
 72
    30
 73
    26
 74
     0
 42
0.000000001
 43
0.00000001
 40
0.0
 40
0.0
 40
0.0
 40
0.0
 40
0.0443778990554837
 40
0.0887557918684632
 40
0.1331336829929099
 40
0.1775115777605108
 40
0.2218895228364084
 40
0.2662674100869116
 40
0.3106452929306296
 40
0.3550231967677324
 40
0.3994010930309776
 40
0.4437790122978277
 40
0.4881569238406885
 40
0.5325347712156936
 40
0.5769126847104797
 40
0.6212906046870179
 40
0.6656685197849315
 40
0.7100463826807821
 40
0.7544242989652821
 40
0.7988021832028935
 40
0.8431800947416984
 40
0.8875580020885889
 40
0.9319358944378991
 40
0.9763137957689205
 40
1.0
 40
1.0
 40
1.0
 40
1.0
 10
383.0179224515659
 20
314.309002182215
 30
0.0
 10
382.9987204171869
 20
314.2956886715704
 30
0.0
 10
382.9603163511297
 20
314.269061652154
 30
0.0
 10
382.6516224667519
 20
314.2291201164655
 30
0.0
 10
382.1654089276086
 20
314.1891825803805
 30
0.0
 10
381.4930018140939
 20
314.1492412101072
 30
0.0
 10
380.6523015671647
 20
314.1092999605173
 30
0.0
 10
379.658327220711
 20
314.0693623265961
 30
0.0
 10
378.5307118129138
 20
314.0294210007741
 30
0.0
 10
377.2912456144045
 20
313.9894796775783
 30
0.0
 10
375.9640066294671
 20
313.9495421397725
 30
0.0
 10
374.574742539551
 20
313.9096005440293
 30
0.0
 10
373.1504174025495
 20
313.8696603374853
 30
0.0
 10
371.7186693605777
 20
313.8297186484608
 30
0.0
 10
370.3072829201718
 20
313.7897811727141
 30
0.0
 10
368.9436457990179
 20
313.7498398305473
 30
0.0
 10
367.6542255347364
 20
313.7098985312957
 30
0.0
 10
366.4640273505605
 20
313.6699609419679
 30
0.0
 10
365.3962110011477
 20
313.6300193928807
 30
0.0
 10
364.4712601939523
 20
313.5900791088802
 30
0.0
 10
363.7080174711222
 20
313.5501375048057
 30
0.0
 10
363.1179538394904
 20
313.5102000570678
 30
0.0
 10
362.7249915718505
 20
313.4702584533011
 30
0.0
 10
362.5267048588527
 20
313.4365256235926
 30
0.0
 10
362.5385739526237
 20
313.4161059877167
 30
0.0
 10
362.5427043790323
 20
313.4089999857839
 30
0.0
  0
SPLINE
  5
153
330
1F
100
AcDbEntity
  8
0
  6
Continuous
 62
     7
370
    25
100
AcDbSpline
210
0.0
220
0.0
230
1.0
 70
     8
 71
     3
 72
    35
 73
    31
 74
     0
 42
0.000000001
 43
0.00000001
 40
0.0
 40
0.0
 40
0.0
 40
0.0
 40
0.0130065202112547
 40
0.0450401780291403
 40
0.0717757934434629
 40
0.1258367297815847
 40
0.157664529065393
 40
0.1842525622152276
 40
0.2401442781857674
 40
0.2695550211152185
 40
0.3235868752571531
 40
0.3514757307427209
 40
0.3807209201069914
 40
0.4343822296039479
 40
0.4911047384035616
 40
0.5175817734125571
 40
0.5717117927490413
 40
0.6008124192316565
 40
0.6541387289005536
 40
0.6814837251099486
 40
0.7097936827541699
 40
0.7360265739293074
 40
0.7901107699738856
 40
0.8180443425391587
 40
0.8441010537026822
 40
0.897821701254688
 40
0.9255677038974464
 40
0.9592589123526439
 40
0.9878228555137605
 40
1.0
 40
1.0
 40
1.0
 40
1.0
 10
382.666128387521
 20
312.687550953358
 30
0.0
 10
382.6653964833031
 20
312.6850975050515
 30
0.0
 10
382.66286197786
 20
312.6766014779271
 30
0.0
 10
382.577411191052
 20
312.6631887958254
 30
0.0
 10
382.3652089184972
 20
312.6419461261534
 30
0.0
 10
382.0153498157131
 20
312.6203612953158
 30
0.0
 10
381.5351358863799
 20
312.5991791453878
 30
0.0
 10
380.9589661677437
 20
312.5775665779491
 30
0.0
 10
380.2767234349164
 20
312.5559452689976
 30
0.0
 10
379.2978239606622
 20
312.5295415500179
 30
0.0
 10
378.4193290047892
 20
312.508180013258
 30
0.0
 10
377.4690694285475
 20
312.486705346337
 30
0.0
 10
376.4771088603594
 20
312.465537194595
 30
0.0
 10
375.1574857925784
 20
312.4386157682945
 30
0.0
 10
373.8099694215301
 20
312.4119660470653
 30
0.0
 10
372.4505145116291
 20
312.3856112697181
 30
0.0
 10
371.3651375955468
 20
312.3640060739626
 30
0.0
 10
370.0507031835421
 20
312.3374828956112
 30
0.0
 10
369.0304181135702
 20
312.3161465162831
 30
0.0
 10
368.0786950806785
 20
312.2946323050163
 30
0.0
 10
367.3989336715578
 20
312.2785724881174
 30
0.0
 10
366.5509705887461
 20
312.2574247089776
 30
0.0
 10
365.7919353229787
 20
312.2359094093142
 30
0.0
 10
365.1416623174641
 20
312.2145342394973
 30
0.0
 10
364.5674832260376
 20
312.1934142979586
 30
0.0
 10
364.1101833628549
 20
312.1719411130637
 30
0.0
 10
363.7577054379245
 20
312.1489786731763
 30
0.0
 10
363.5706359970731
 20
312.131197640055
 30
0.0
 10
363.4729512746122
 20
312.1163536331239
 30
0.0
 10
363.4674266855839
 20
312.1081556235216
 30
0.0
 10
363.4657754356367
 20
312.1057053122218
 30
0.0
  0
SPLINE
  5
154
330
1F
100
AcDbEntity
  8
0
  6
Continuous
 62
     7
370
    25
100
AcDbSpline
210
0.0
220
0.0
230
1.0
 70
     8
 71
     3
 72
    43
 73
    39
 74
     0
 42
0.000000001
 43
0.00000001
 40
0.0
 40
0.0
 40
0.0
 40
0.0
 40
0.0204639743317486
 40
0.0408322420498792
 40
0.0611048042521324
 40
0.0812816620538754
 40
0.1013628165884283
 40
0.1213482690073991
 40
0.1412380204810257
 40
0.1610320721985256
 40
0.1807304253684554
 40
0.2003330812190795
 40
0.2198400409987443
 40
0.2392513059762671
 40
0.2585668774413296
 40
0.2777867567048843
 40
0.2969109450995698
 40
0.3159394439801359
 40
0.3348722547238818
 40
0.3537093787311029
 40
0.37245081742555
 40
0.3910965722549001
 40
0.4096466446912405
 40
0.4281010362315635
 40
0.4464597483982744
 40
0.4647227827397141
 40
0.4828901408306949
 40
0.5009618242730489
 40
0.5640155204933044
 40
0.6241474479670613
 40
0.6813573917218849
 40
0.7356451636749619
 40
0.7870106055145386
 40
0.8354535924502046
 40
0.8809740381667176
 40
0.9235719014767597
 40
0.9632471954233219
 40
0.9999999999999999
 40
0.9999999999999999
 40
0.9999999999999999
 40
0.9999999999999999
 10
370.9880300013723
 20
322.6528318749696
 30
0.0
 10
371.0922405432455
 20
322.6557774607111
 30
0.0
 10
371.3001742515726
 20
322.661654856178
 30
0.0
 10
371.6131931953897
 20
322.6703537384133
 30
0.0
 10
371.9257080514977
 20
322.678940434344
 30
0.0
 10
372.2375659560041
 20
322.6874081090233
 30
0.0
 10
372.5484270913313
 20
322.6957585809824
 30
0.0
 10
372.8580111843159
 20
322.7039913664325
 30
0.0
 10
373.166032158715
 20
322.7121065941138
 30
0.0
 10
373.4722157321913
 20
322.72010422981
 30
0.0
 10
373.7762949237076
 20
322.727984282657
 30
0.0
 10
374.0780114153733
 20
322.735746750259
 30
0.0
 10
374.3771153352098
 20
322.743391633288
 30
0.0
 10
374.6733654388762
 20
322.7509189316009
 30
0.0
 10
374.9665291647292
 20
322.7583286452723
 30
0.0
 10
375.2563827026049
 20
322.7656207743188
 30
0.0
 10
375.5427110395979
 20
322.7727953187754
 30
0.0
 10
375.8253079931077
 20
322.7798522786654
 30
0.0
 10
376.1039762294092
 20
322.7867916540438
 30
0.0
 10
376.3785272674507
 20
322.7936134448545
 30
0.0
 10
376.6487814737067
 20
322.8003176514558
 30
0.0
 10
376.9145680282213
 20
322.8069042726735
 30
0.0
 10
377.1757249379498
 20
322.8133733130126
 30
0.0
 10
377.4320988178778
 20
322.8197247559498
 30
0.0
 10
377.6835454774665
 20
322.8259586628358
 30
0.0
 10
377.9299274726566
 20
322.8320748066558
 30
0.0
 10
378.1711228443186
 20
322.8380740281768
 30
0.0
 10
378.6031086478476
 20
322.8488415269301
 30
0.0
 10
379.193422217613
 20
322.8637035726424
 30
0.0
 10
379.8926185277796
 20
322.8816751766734
 30
0.0
 10
380.5031796302115
 20
322.8977147821965
 30
0.0
 10
381.0289879464346
 20
322.9118228796343
 30
0.0
 10
381.4752498439908
 20
322.9240014438508
 30
0.0
 10
381.8479234022371
 20
322.934245872347
 30
0.0
 10
382.1539340084494
 20
322.9425751298252
 30
0.0
 10
382.3992869481699
 20
322.9489289572412
 30
0.0
 10
382.5943483592079
 20
322.9535153032768
 30
0.0
 10
382.6920156128012
 20
322.9549924723765
 30
0.0
 10
382.7389819190971
 20
322.9557028146236
 30
0.0
  0
SPLINE
  5
155
330
1F
100
AcDbEntity
  8
0
  6
Continuous
 62
     7
370
    25
100
AcDbSpline
210
0.0
220
0.0
230
1.0
 70
     8
 71
     3
 72
    37
 73
    33
 74
     0
 42
0.000000001
 43
0.00000001
 40
0.0
 40
0.0
 40
0.0
 40
0.0
 40
0.021289544496388
 40
0.043589315898456
 40
0.0668993647556585
 40
0.0912197331046633
 40
0.1165504557329722
 40
0.1428915612003128
 40
0.170243072671469
 40
0.198605008600812
 40
0.2279773832991379
 40
0.2583602074062736
 40
0.2897534882876466
 40
0.3221572303690396
 40
0.3555714354207367
 40
0.3899961027999767
 40
0.4254312296588438
 40
0.4618768111233409
 40
0.4993328404483153
 40
0.5355614687341258
 40
0.5721707684619219
 40
0.6091607498112749
 40
0.6465314225258787
 40
0.6842827959298456
 40
0.7224148789431883
 40
0.7609276800965382
 40
0.7998212075451434
 40
0.8390954690821909
 40
0.8787504721514885
 40
0.9187862238595438
 40
0.9592027309870786
 40
1.0
 40
1.0
 40
1.0
 40
1.0
 10
382.7389819190731
 20
321.5721564623806
 30
0.0
 10
382.7125311678644
 20
321.5663807295302
 30
0.0
 10
382.6583745300659
 20
321.5545551949913
 30
0.0
 10
382.56138569097
 20
321.537197038276
 30
0.0
 10
382.4489436257303
 20
321.5195804575517
 30
0.0
 10
382.3185839665825
 20
321.5017708868088
 30
0.0
 10
382.169156818685
 20
321.4837497634546
 30
0.0
 10
381.9991333209346
 20
321.4655225109502
 30
0.0
 10
381.8071057716102
 20
321.4470876962811
 30
0.0
 10
381.591663374999
 20
321.4284458208327
 30
0.0
 10
381.3514477254992
 20
321.4095968241805
 30
0.0
 10
381.0851592048189
 20
321.3905407948386
 30
0.0
 10
380.7915792781771
 20
321.3712777679327
 30
0.0
 10
380.4695902706828
 20
321.3518077950008
 30
0.0
 10
380.1181977396043
 20
321.3321308813705
 30
0.0
 10
379.7365540726319
 20
321.3122471769446
 30
0.0
 10
379.3239829242479
 20
321.2921562513936
 30
0.0
 10
378.8800069110288
 20
321.2718599167483
 30
0.0
 10
378.4138404118805
 20
321.2517596810035
 30
0.0
 10
377.9295263202388
 20
321.2319708674711
 30
0.0
 10
377.4315177383651
 20
321.2126151794823
 30
0.0
 10
376.9138112451606
 20
321.1933975767282
 30
0.0
 10
376.3775980440502
 20
321.1743198355395
 30
0.0
 10
375.8242102795093
 20
321.1553814761162
 30
0.0
 10
375.255120466098
 20
321.1365826218104
 30
0.0
 10
374.6719435939821
 20
321.1179232724167
 30
0.0
 10
374.076431937128
 20
321.0994033075376
 30
0.0
 10
373.4704915757261
 20
321.0810232217423
 30
0.0
 10
372.8561127628116
 20
321.0627811371897
 30
0.0
 10
372.2356216772225
 20
321.0446841702636
 30
0.0
 10
371.6107104728146
 20
321.0267053841898
 30
0.0
 10
371.1962378949484
 20
321.0149215372451
 30
0.0
 10
370.9880300013954
 20
321.0090019901356
 30
0.0
  0
SPLINE
  5
156
330
1F
100
AcDbEntity
  8
0
  6
Continuous
 62
     7
370
    25
100
AcDbSpline
210
0.0
220
0.0
230
1.0
 70
     8
 71
     3
 72
     8
 73
     4
 74
     0
 42
0.000000001
 43
0.00000001
 40
0.0
 40
0.0
 40
0.0
 40
0.0
 40
1.0
 40
1.0
 40
1.0
 40
1.0
 10
383.0179238224728
 20
321.6995427550146
 30
0.0
 10
383.0179238224728
 20
321.65708065747
 30
0.0
 10
382.9240951077611
 20
321.6146185599253
 30
0.0
 10
382.7389819190731
 20
321.5721564623806
 30
0.0
  0
LINE
  5
157
330
1F
100
AcDbEntity
  8
0
  6
Continuous
 62
     7
370
    25
100
AcDbLine
 10
382.8995886052
 20
321.7708908978
 30
0.0
 11
383.0179224516
 21
321.6995432067
 31
0.0
  0
SPLINE
  5
158
330
1F
100
AcDbEntity
  8
0
  6
Continuous
 62
     7
370
    25
100
AcDbSpline
210
0.0
220
0.0
230
1.0
 70
     8
 71
     3
 72
     8
 73
     4
 74
     0
 42
0.000000001
 43
0.00000001
 40
0.0
 40
0.0
 40
0.0
 40
0.0
 40
1.0
 40
1.0
 40
1.0
 40
1.0
 10
382.7389819190971
 20
322.9557028146236
 30
0.0
 10
382.7835851475123
 20
322.9562319669942
 30
0.0
 10
382.8229116698157
 20
322.9567611193647
 30
0.0
 10
382.8568990972596
 20
322.9572902717352
 30
0.0
  0
LINE
  5
159
330
1F
100
AcDbEntity
  8
0
  6
Continuous
 62
     7
370
    25
100
AcDbLine
 10
363.7179235721
 20
311.8309167239
 30
0.0
 11
381.81792449
 21
311.8309167239
 31
0.0
  0
LINE
  5
15A
330
1F
100
AcDbEntity
  8
0
  6
Continuous
 62
     7
370
    25
100
AcDbLine
 10
382.3257076348
 20
322.618054508
 30
0.0
 11
382.3037805761
 21
322.5951085824
 31
0.0
  0
LINE
  5
15B
330
1F
100
AcDbEntity
  8
0
  6
Continuous
 62
     7
370
    25
100
AcDbLine
 10
382.3012883569
 20
322.096244714
 30
0.0
 11
382.2834553922
 21
322.1033488426
 31
0.0
  0
ARC
  5
15C
330
1F
100
AcDbEntity
  8
0
  6
Continuous
 62
     7
370
    25
100
AcDbCircle
 10
183.3970239225
 20
203.5913042714
 30
0.0
 40
0.5
100
AcDbArc
 50
180.0
 51
270.0
  0
ARC
  5
15D
330
1F
100
AcDbEntity
  8
0
  6
Continuous
 62
     7
370
    25
100
AcDbCircle
 10
237.3970239225
 20
203.5913042714
 30
0.0
 40
0.5
100
AcDbArc
 50
270.0
 51
0.0
  0
LINE
  5
15E
330
1F
100
AcDbEntity
  8
0
  6
Continuous
 62
     7
370
    25
100
AcDbLine
 10
182.8970240715
 20
214.0913042714
 30
0.0
 11
182.8970240715
 21
203.591304413
 31
0.0
  0
LINE
  5
15F
330
1F
100
AcDbEntity
  8
0
  6
Continuous
 62
     7
370
    25
100
AcDbLine
 10
237.8970237735
 20
203.591304413
 30
0.0
 11
237.8970237735
 21
214.0913042714
 31
0.0
  0
LINE
  5
160
330
1F
100
AcDbEntity
  8
0
  6
Continuous
 62
     7
370
    25
100
AcDbLine
 10
197.3970236542
 20
154.3413061191
 30
0.0
 11
197.3970236542
 21
148.3342680623
 31
0.0
  0
LINE
  5
161
330
1F
100
AcDbEntity
  8
0
  6
Continuous
 62
     7
370
    25
100
AcDbLine
 10
197.3970236542
 20
203.091304331
 30
0.0
 11
197.3970236542
 21
173.8413046588
 31
0.0
  0
LINE
  5
162
330
1F
100
AcDbEntity
  8
0
  6
Continuous
 62
     7
370
    25
100
AcDbLine
 10
223.3970241907
 20
148.3342680623
 30
0.0
 11
223.3970241907
 21
203.091304331
 31
0.0
  0
ARC
  5
163
330
1F
100
AcDbEntity
  8
0
  6
Continuous
 62
     7
370
    25
100
AcDbCircle
 10
197.8970239225
 20
148.334265615
 30
0.0
 40
0.5
100
AcDbArc
 50
180.0
 51
263.1970356227
  0
ARC
  5
164
330
1F
100
AcDbEntity
  8
0
  6
Continuous
 62
     7
370
    25
100
AcDbCircle
 10
222.8970239225
 20
148.334265615
 30
0.0
 40
0.5
100
AcDbArc
 50
276.8029643773
 51
0.0
  0
ARC
  5
165
330
1F
100
AcDbEntity
  8
0
  6
Continuous
 62
     7
370
    25
100
AcDbCircle
 10
210.3970239225
 20
253.1163042714
 30
0.0
 40
106.0250000000003
100
AcDbArc
 50
263.197035623
 51
276.802964377
  0
SPLINE
  5
166
330
1F
100
AcDbEntity
  8
0
  6
Continuous
 62
     7
370
    25
100
AcDbSpline
210
0.0
220
0.0
230
1.0
 70
    24
 71
     3
 72
    14
 73
    10
 74
     0
 42
0.000000001
 43
0.00000001
 40
0.0
 40
0.0
 40
0.0
 40
0.0
 40
0.25
 40
0.25
 40
0.5
 40
0.5
 40
0.75
 40
0.75
 40
1.0
 40
1.0
 40
1.0
 40
1.0
 10
237.3970239224676
 20
203.0913042714002
 30
0.0
 10
237.3970239224676
 20
203.0913042714002
 30
0.0
 10
234.5522459319902
 20
203.0913042714002
 30
0.0
 10
224.4255680970185
 20
203.0913042714002
 30
0.0
 10
217.5576664904675
 20
203.0913042714002
 30
0.0
 10
203.2363813544676
 20
203.0913042714002
 30
0.0
 10
196.3684797479166
 20
203.0913042714002
 30
0.0
 10
186.2418019129449
 20
203.0913042714002
 30
0.0
 10
183.3970239224676
 20
203.0913042714002
 30
0.0
 10
183.3970239224676
 20
203.0913042714002
 30
0.0
  0
LINE
  5
167
330
1F
100
AcDbEntity
  8
0
  6
Continuous
 62
     7
370
    25
100
AcDbLine
 10
237.8970237735
 20
214.0913042714
 30
0.0
 11
182.8970240715
 21
214.0913042714
 31
0.0
  0
SPLINE
  5
168
330
1F
100
AcDbEntity
  8
0
  6
Continuous
 62
     7
370
    25
100
AcDbSpline
210
0.0
220
0.0
230
1.0
 70
     8
 71
     3
 72
     8
 73
     4
 74
     0
 42
0.000000001
 43
0.00000001
 40
0.0
 40
0.0
 40
0.0
 40
0.0
 40
1.0
 40
1.0
 40
1.0
 40
1.0
 10
199.3243010944591
 20
173.8413042485345
 30
0.0
 10
199.5992287075043
 20
174.0600198084149
 30
0.0
 10
199.9002056253639
 20
174.2779522597112
 30
0.0
 10
200.2289365900335
 20
174.4897027909871
 30
0.0
  0
LINE
  5
169
330
1F
100
AcDbEntity
  8
0
  6
Continuous
 62
     7
370
    25
100
AcDbLine
 10
197.3970236542
 20
173.8413046588
 30
0.0
 11
199.3243007275
 21
173.8413046588
 31
0.0
  0
SPLINE
  5
16A
330
1F
100
AcDbEntity
  8
0
  6
Continuous
 62
     7
370
    25
100
AcDbSpline
210
0.0
220
0.0
230
1.0
 70
     8
 71
     3
 72
     8
 73
     4
 74
     0
 42
0.000000001
 43
0.00000001
 40
0.0
 40
0.0
 40
0.0
 40
0.0
 40
1.0
 40
1.0
 40
1.0
 40
1.0
 10
200.8283249513416
 20
174.1530929677052
 30
0.0
 10
200.6291364026185
 20
174.0514965485967
 30
0.0
 10
200.4381552600204
 20
173.9472360557922
 30
0.0
 10
200.2550338823791
 20
173.8413042714045
 30
0.0
  0
SPLINE
  5
16B
330
1F
100
AcDbEntity
  8
0
  6
Continuous
 62
     7
370
    25
100
AcDbSpline
210
0.0
220
0.0
230
1.0
 70
     8
 71
     3
 72
     8
 73
     4
 74
     0
 42
0.000000001
 43
0.00000001
 40
0.0
 40
0.0
 40
0.0
 40
0.0
 40
1.0
 40
1.0
 40
1.0
 40
1.0
 10
200.2550338823791
 20
154.3413042713958
 30
0.0
 10
200.4381552600206
 20
154.2353724870079
 30
0.0
 10
200.6291364026183
 20
154.1311119942038
 30
0.0
 10
200.8283249513416
 20
154.0295155750951
 30
0.0
  0
LINE
  5
16C
330
1F
100
AcDbEntity
  8
0
  6
Continuous
 62
     7
370
    25
100
AcDbLine
 10
199.3243007275
 20
154.3413061191
 30
0.0
 11
197.3970236542
 21
154.3413061191
 31
0.0
  0
SPLINE
  5
16D
330
1F
100
AcDbEntity
  8
0
  6
Continuous
 62
     7
370
    25
100
AcDbSpline
210
0.0
220
0.0
230
1.0
 70
     8
 71
     3
 72
     8
 73
     4
 74
     0
 42
0.000000001
 43
0.00000001
 40
0.0
 40
0.0
 40
0.0
 40
0.0
 40
1.0
 40
1.0
 40
1.0
 40
1.0
 10
200.2289365900339
 20
153.6929057518129
 30
0.0
 10
199.9002056366245
 20
153.9046562758356
 30
0.0
 10
199.5992287287228
 20
154.1225887190087
 30
0.0
 10
199.3243011232073
 20
154.3413042713955
 30
0.0
  0
LINE
  5
16E
330
1F
100
AcDbEntity
  8
0
  6
Continuous
 62
     7
370
    25
100
AcDbLine
 10
200.2289362538
 20
152.4776402404
 30
0.0
 11
200.2289362538
 21
153.6929044415
 31
0.0
  0
SPLINE
  5
16F
330
1F
100
AcDbEntity
  8
0
  6
Continuous
 62
     7
370
    25
100
AcDbSpline
210
0.0
220
0.0
230
1.0
 70
     8
 71
     3
 72
    84
 73
    80
 74
     0
 42
0.000000001
 43
0.00000001
 40
0.0
 40
0.0
 40
0.0
 40
0.0
 40
0.0625000000000017
 40
0.0625000000000017
 40
0.0781250000000021
 40
0.0781250000000021
 40
0.0937500000000025
 40
0.0937500000000025
 40
0.1250000000000032
 40
0.1250000000000032
 40
0.1406250000000035
 40
0.1406250000000035
 40
0.1562500000000039
 40
0.1562500000000039
 40
0.1875000000000047
 40
0.1875000000000047
 40
0.203125000000005
 40
0.203125000000005
 40
0.2187500000000053
 40
0.2187500000000053
 40
0.2500000000000059
 40
0.2500000000000059
 40
0.2656250000000063
 40
0.2656250000000063
 40
0.2812500000000067
 40
0.2812500000000067
 40
0.3125000000000072
 40
0.3125000000000072
 40
0.3437500000000078
 40
0.3437500000000078
 40
0.3750000000000084
 40
0.3750000000000084
 40
0.406250000000009
 40
0.406250000000009
 40
0.4218750000000093
 40
0.4218750000000093
 40
0.4375000000000095
 40
0.4375000000000095
 40
0.4687500000000098
 40
0.4687500000000098
 40
0.4843750000000098
 40
0.4843750000000098
 40
0.5000000000000097
 40
0.5000000000000097
 40
0.5312500000000093
 40
0.5312500000000093
 40
0.5468750000000093
 40
0.5468750000000093
 40
0.5625000000000093
 40
0.5625000000000093
 40
0.5937500000000089
 40
0.5937500000000089
 40
0.6250000000000083
 40
0.6250000000000083
 40
0.6562500000000079
 40
0.6562500000000079
 40
0.6718750000000075
 40
0.6718750000000075
 40
0.6875000000000072
 40
0.6875000000000072
 40
0.750000000000006
 40
0.750000000000006
 40
0.7812500000000053
 40
0.7812500000000053
 40
0.8125000000000047
 40
0.8125000000000047
 40
0.843750000000004
 40
0.843750000000004
 40
0.8593750000000037
 40
0.8593750000000037
 40
0.8750000000000032
 40
0.8750000000000032
 40
0.9062500000000024
 40
0.9062500000000024
 40
0.9375000000000017
 40
0.9375000000000017
 40
0.9687500000000009
 40
0.9687500000000009
 40
1.0
 40
1.0
 40
1.0
 40
1.0
 10
200.2289365900344
 20
175.7049685794244
 30
0.0
 10
200.949323001526
 20
176.087570158162
 30
0.0
 10
201.7777128580126
 20
176.4432625918267
 30
0.0
 10
202.9699837910938
 20
176.7893177579337
 30
0.0
 10
203.2174735835842
 20
176.8537346738428
 30
0.0
 10
203.7209222627579
 20
176.9687127855999
 30
0.0
 10
203.9775649526488
 20
177.0195309291092
 30
0.0
 10
204.7623531967723
 20
177.1500812622784
 30
0.0
 10
205.305274426254
 20
177.2080512032668
 30
0.0
 10
206.1510853754056
 20
177.2420316653639
 30
0.0
 10
206.4382804152164
 20
177.2444998784603
 30
0.0
 10
207.0237766175237
 20
177.2296237162538
 30
0.0
 10
207.3185400983651
 20
177.2122889149328
 30
0.0
 10
208.1992731106339
 20
177.1305572475793
 30
0.0
 10
208.7855941315443
 20
177.0364793092772
 30
0.0
 10
209.662681461341
 20
176.8328921606721
 30
0.0
 10
209.9546445437009
 20
176.7545875336421
 30
0.0
 10
210.5375595420816
 20
176.5761499751767
 30
0.0
 10
210.8263183778812
 20
176.4765753108715
 30
0.0
 10
211.6716434391589
 20
176.1522014739236
 30
0.0
 10
212.2128895435638
 20
175.900245135525
 30
0.0
 10
212.9936749484063
 20
175.4708875043549
 30
0.0
 10
213.248732876961
 20
175.3191609271
 30
0.0
 10
213.7485832526374
 20
174.9984237854158
 30
0.0
 10
213.9939996791138
 20
174.8288655186425
 30
0.0
 10
214.7037583818668
 20
174.302460492046
 30
0.0
 10
215.1454473414224
 20
173.9259232165289
 30
0.0
 10
215.9722847191102
 20
173.1228613237296
 30
0.0
 10
216.358764557718
 20
172.6945803042898
 30
0.0
 10
217.071187519454
 20
171.7929188090709
 30
0.0
 10
217.3940186849698
 20
171.3240253319651
 30
0.0
 10
217.9775714199218
 20
170.3472668196934
 30
0.0
 10
218.2382960039323
 20
169.8394418911048
 30
0.0
 10
218.5824038729948
 20
169.0433334627393
 30
0.0
 10
218.6895793729961
 20
168.771159154849
 30
0.0
 10
218.8854078382451
 20
168.2202543082264
 30
0.0
 10
218.9741600488366
 20
167.9415193038726
 30
0.0
 10
219.2128781118133
 20
167.094705201579
 30
0.0
 10
219.3355139802696
 20
166.5160712630565
 30
0.0
 10
219.4609805450804
 20
165.6229430497706
 30
0.0
 10
219.4930597070664
 20
165.3193489363405
 30
0.0
 10
219.5357140869285
 20
164.7150572135792
 30
0.0
 10
219.546509334546
 20
164.4136683779535
 30
0.0
 10
219.5479992698221
 20
163.5117455669551
 30
0.0
 10
219.5079451624818
 20
162.9134582813064
 30
0.0
 10
219.3864003543961
 20
162.0203457628303
 30
0.0
 10
219.3352611040426
 20
161.7220162385239
 30
0.0
 10
219.2144975959145
 20
161.1376834799115
 30
0.0
 10
219.1448431702467
 20
160.8507073512715
 30
0.0
 10
218.9093367802234
 20
160.0037643216473
 30
0.0
 10
218.7171249936247
 20
159.4576906769127
 30
0.0
 10
218.2640497537798
 20
158.3966608878761
 30
0.0
 10
218.0016225345568
 20
157.8798386760093
 30
0.0
 10
217.4190785387049
 20
156.8966308370385
 30
0.0
 10
217.0980093113602
 20
156.4272863269265
 30
0.0
 10
216.5698004288956
 20
155.7535253113357
 30
0.0
 10
216.385927339945
 20
155.5340141655521
 30
0.0
 10
216.0017917197095
 20
155.1049901771565
 30
0.0
 10
215.8010384677597
 20
154.8950697557064
 30
0.0
 10
214.7670418175788
 20
153.8832289480705
 30
0.0
 10
213.8372952776147
 20
153.181848463477
 30
0.0
 10
212.2576919485185
 20
152.3041115922998
 30
0.0
 10
211.712447278438
 20
152.0482369060914
 30
0.0
 10
210.5831362875573
 20
151.6106928967357
 30
0.0
 10
209.995688525847
 20
151.4290082526731
 30
0.0
 10
208.8249817623029
 20
151.1534084563354
 30
0.0
 10
208.2368806383284
 20
151.0571629146838
 30
0.0
 10
207.351703130566
 20
150.9726556740763
 30
0.0
 10
207.0548296038907
 20
150.9545349198864
 30
0.0
 10
206.4722445274413
 20
150.9382909599962
 30
0.0
 10
206.1853650375952
 20
150.9399669620228
 30
0.0
 10
205.3375821712208
 20
150.9718540843696
 30
0.0
 10
204.7894720679182
 20
151.0288322936214
 30
0.0
 10
203.7269689549694
 20
151.2039770230581
 30
0.0
 10
203.222309053189
 20
151.3206884503745
 30
0.0
 10
202.2713729393937
 20
151.5954470813027
 30
0.0
 10
201.8224829684885
 20
151.7542145190588
 30
0.0
 10
200.9793317501912
 20
152.1005236452936
 30
0.0
 10
200.5894180611521
 20
152.2861860745252
 30
0.0
 10
200.2289365900351
 20
152.4776399633755
 30
0.0
  0
LINE
  5
170
330
1F
100
AcDbEntity
  8
0
  6
Continuous
 62
     7
370
    25
100
AcDbLine
 10
200.2289362538
 20
174.4897026111
 30
0.0
 11
200.2289362538
 21
175.7049668123
 31
0.0
  0
ARC
  5
171
330
1F
100
AcDbEntity
  8
0
  6
Continuous
 62
     7
370
    25
100
AcDbCircle
 10
206.3970239225
 20
164.0913042714
 30
0.0
 40
12.09016100441525
100
AcDbArc
 50
239.3245710686
 51
120.6754289314
  0
SPLINE
  5
172
330
1F
100
AcDbEntity
  8
0
  6
Continuous
 62
     7
370
    25
100
AcDbSpline
210
0.0
220
0.0
230
1.0
 70
     8
 71
     3
 72
    11
 73
     7
 74
     0
 42
0.000000001
 43
0.00000001
 40
0.0
 40
0.0
 40
0.0
 40
0.0
 40
0.2382680802424855
 40
0.4843568704045235
 40
0.7382672475117832
 40
1.0
 40
1.0
 40
1.0
 40
1.0
 10
200.2550338823761
 20
154.3413042713978
 30
0.0
 10
200.1778923378671
 20
154.3413041928362
 30
0.0
 10
200.0210772200447
 20
154.3413040331343
 30
0.0
 10
199.7898101746503
 20
154.3413036617417
 30
0.0
 10
199.5560390583142
 20
154.3413039808238
 30
0.0
 10
199.4023243922697
 20
154.3413041735646
 30
0.0
 10
199.3243011232052
 20
154.3413042713969
 30
0.0
  0
ARC
  5
173
330
1F
100
AcDbEntity
  8
0
  6
Continuous
 62
     7
370
    25
100
AcDbCircle
 10
206.3970239225
 20
164.0913042714
 30
0.0
 40
11.5000000000048
100
AcDbArc
 50
241.0376562517
 51
118.9623437483
  0
SPLINE
  5
174
330
1F
100
AcDbEntity
  8
0
  6
Continuous
 62
     7
370
    25
100
AcDbSpline
210
0.0
220
0.0
230
1.0
 70
    24
 71
     3
 72
     8
 73
     4
 74
     0
 42
0.000000001
 43
0.00000001
 40
0.0
 40
0.0
 40
0.0
 40
0.0
 40
1.0
 40
1.0
 40
1.0
 40
1.0
 10
200.2550338823724
 20
173.8413042714002
 30
0.0
 10
199.9287385033245
 20
173.8413042714002
 30
0.0
 10
199.6206012664387
 20
173.8413042714002
 30
0.0
 10
199.3243011278682
 20
173.8413042714002
 30
0.0
  0
ENDSEC
  0
SECTION
  2
OBJECTS
  0
DICTIONARY
  5
C
330
0
100
AcDbDictionary
281
     1
  3
ACAD_GROUP
350
D
  3
ACAD_LAYOUT
350
1A
  3
ACAD_MLINESTYLE
350
17
  3
ACAD_PLOTSETTINGS
350
19
  3
ACAD_PLOTSTYLENAME
350
E
  3
ACAD_SCALELIST
350
47
  0
DICTIONARY
  5
D
102
{ACAD_REACTORS
330
C
102
}
330
C
100
AcDbDictionary
281
     1
  0
DICTIONARY
  5
1A
102
{ACAD_REACTORS
330
C
102
}
330
C
100
AcDbDictionary
281
     1
  3
Layout1
350
1E
  3
Layout2
350
26
  3
Model
350
22
  0
DICTIONARY
  5
17
102
{ACAD_REACTORS
330
C
102
}
330
C
100
AcDbDictionary
281
     1
  3
Standard
350
18
  0
DICTIONARY
  5
19
102
{ACAD_REACTORS
330
C
102
}
330
C
100
AcDbDictionary
281
     1
  0
ACDBDICTIONARYWDFLT
  5
E
102
{ACAD_REACTORS
330
C
102
}
330
C
100
AcDbDictionary
281
     1
  3
Normal
350
F
100
AcDbDictionaryWithDefault
340
F
  0
DICTIONARY
  5
47
102
{ACAD_REACTORS
330
C
102
}
330
C
100
AcDbDictionary
281
     1
  3
A0
350
48
  3
A1
350
49
  3
A2
350
4A
  3
A3
350
4B
  3
A4
350
4C
  3
A5
350
4D
  3
A6
350
4E
  3
A7
350
4F
  3
A8
350
50
  3
A9
350
51
  3
B0
350
52
  3
B1
350
53
  3
B2
350
54
  3
B3
350
55
  3
B4
350
56
  3
B5
350
57
  3
B6
350
58
  3
B7
350
59
  3
B8
350
5A
  3
B9
350
5B
  3
C0
350
5C
  3
C1
350
5D
  3
C2
350
5E
  3
C3
350
5F
  3
C4
350
60
  3
C5
350
61
  3
C6
350
62
  3
C7
350
63
  3
C8
350
64
  3
C9
350
65
  3
D0
350
66
  3
D1
350
67
  3
D2
350
68
  0
LAYOUT
  5
1E
102
{ACAD_REACTORS
330
1A
102
}
330
1A
100
AcDbPlotSettings
  1

  2
none_device
  4

  6

 40
0.0
 41
0.0
 42
0.0
 43
0.0
 44
0.0
 45
0.0
 46
0.0
 47
0.0
 48
0.0
 49
0.0
140
0.0
141
0.0
142
1.0
143
1.0
 70
   688
 72
     1
 73
     0
 74
     5
  7

 75
    16
147
1.0
148
0.0
149
0.0
100
AcDbLayout
  1
Layout1
 70
     1
 71
     1
 10
0.0
 20
0.0
 11
420.0
 21
297.0
 12
0.0
 22
0.0
 32
0.0
 14
1.0000000000E+20
 24
1.0000000000E+20
 34
1.0000000000E+20
 15
-1.0000000000E+20
 25
-1.0000000000E+20
 35
-1.0000000000E+20
146
0.0
 13
0.0
 23
0.0
 33
0.0
 16
1.0
 26
0.0
 36
0.0
 17
0.0
 27
1.0
 37
0.0
 76
     0
330
1B
  0
LAYOUT
  5
26
102
{ACAD_REACTORS
330
1A
102
}
330
1A
100
AcDbPlotSettings
  1

  2
none_device
  4

  6

 40
0.0
 41
0.0
 42
0.0
 43
0.0
 44
0.0
 45
0.0
 46
0.0
 47
0.0
 48
0.0
 49
0.0
140
0.0
141
0.0
142
1.0
143
1.0
 70
   688
 72
     1
 73
     0
 74
     5
  7

 75
    16
147
1.0
148
0.0
149
0.0
100
AcDbLayout
  1
Layout2
 70
     1
 71
     2
 10
0.0
 20
0.0
 11
0.0
 21
0.0
 12
0.0
 22
0.0
 32
0.0
 14
0.0
 24
0.0
 34
0.0
 15
0.0
 25
0.0
 35
0.0
146
0.0
 13
0.0
 23
0.0
 33
0.0
 16
1.0
 26
0.0
 36
0.0
 17
0.0
 27
1.0
 37
0.0
 76
     0
330
23
  0
LAYOUT
  5
22
102
{ACAD_REACTORS
330
1A
102
}
330
1A
100
AcDbPlotSettings
  1

  2
none_device
  4
Letter_(8.50_x_11.00_Inches)
  6

 40
6.35
 41
6.35
 42
6.35000508
 43
6.35000508
 44
215.9
 45
279.4
 46
0.0
 47
0.0
 48
0.0
 49
0.0
140
0.0
141
0.0
142
1.0
143
1.0
 70
  1712
 72
     1
 73
     0
 74
     0
  7

 75
     0
147
1.0
148
0.0
149
0.0
100
AcDbLayout
  1
Model
 70
     1
 71
     0
 10
0.0
 20
0.0
 11
594.0
 21
841.0
 12
0.0
 22
0.0
 32
0.0
 14
0.0
 24
0.0
 34
0.0
 15
594.0
 25
841.0
 35
0.0
146
0.0
 13
0.0
 23
0.0
 33
0.0
 16
1.0
 26
0.0
 36
0.0
 17
0.0
 27
1.0
 37
0.0
 76
     0
330
1F
331
29
  0
MLINESTYLE
  5
18
102
{ACAD_REACTORS
330
17
102
}
330
17
100
AcDbMlineStyle
  2
Standard
 70
     0
  3

 62
   256
 51
90.0
 52
90.0
 71
     2
 49
0.5
 62
   256
  6
BYLAYER
 49
-0.5
 62
   256
  6
BYLAYER
  0
ACDBPLACEHOLDER
  5
F
102
{ACAD_REACTORS
330
E
102
}
330
E
  0
SCALE
  5
48
102
{ACAD_REACTORS
330
47
102
}
330
47
100
AcDbScale
 70
     0
300
1:1
140
1.0
141
1.0
290
     1
  0
SCALE
  5
49
102
{ACAD_REACTORS
330
47
102
}
330
47
100
AcDbScale
 70
     0
300
1:2
140
1.0
141
2.0
290
     0
  0
SCALE
  5
4A
102
{ACAD_REACTORS
330
47
102
}
330
47
100
AcDbScale
 70
     0
300
1:4
140
1.0
141
4.0
290
     0
  0
SCALE
  5
4B
102
{ACAD_REACTORS
330
47
102
}
330
47
100
AcDbScale
 70
     0
300
1:5
140
1.0
141
5.0
290
     0
  0
SCALE
  5
4C
102
{ACAD_REACTORS
330
47
102
}
330
47
100
AcDbScale
 70
     0
300
1:8
140
1.0
141
8.0
290
     0
  0
SCALE
  5
4D
102
{ACAD_REACTORS
330
47
102
}
330
47
100
AcDbScale
 70
     0
300
1:10
140
1.0
141
10.0
290
     0
  0
SCALE
  5
4E
102
{ACAD_REACTORS
330
47
102
}
330
47
100
AcDbScale
 70
     0
300
1:16
140
1.0
141
16.0
290
     0
  0
SCALE
  5
4F
102
{ACAD_REACTORS
330
47
102
}
330
47
100
AcDbScale
 70
     0
300
1:20
140
1.0
141
20.0
290
     0
  0
SCALE
  5
50
102
{ACAD_REACTORS
330
47
102
}
330
47
100
AcDbScale
 70
     0
300
1:30
140
1.0
141
30.0
290
     0
  0
SCALE
  5
51
102
{ACAD_REACTORS
330
47
102
}
330
47
100
AcDbScale
 70
     0
300
1:40
140
1.0
141
40.0
290
     0
  0
SCALE
  5
52
102
{ACAD_REACTORS
330
47
102
}
330
47
100
AcDbScale
 70
     0
300
1:50
140
1.0
141
50.0
290
     0
  0
SCALE
  5
53
102
{ACAD_REACTORS
330
47
102
}
330
47
100
AcDbScale
 70
     0
300
1:100
140
1.0
141
100.0
290
     0
  0
SCALE
  5
54
102
{ACAD_REACTORS
330
47
102
}
330
47
100
AcDbScale
 70
     0
300
2:1
140
2.0
141
1.0
290
     0
  0
SCALE
  5
55
102
{ACAD_REACTORS
330
47
102
}
330
47
100
AcDbScale
 70
     0
300
4:1
140
4.0
141
1.0
290
     0
  0
SCALE
  5
56
102
{ACAD_REACTORS
330
47
102
}
330
47
100
AcDbScale
 70
     0
300
8:1
140
8.0
141
1.0
290
     0
  0
SCALE
  5
57
102
{ACAD_REACTORS
330
47
102
}
330
47
100
AcDbScale
 70
     0
300
10:1
140
10.0
141
1.0
290
     0
  0
SCALE
  5
58
102
{ACAD_REACTORS
330
47
102
}
330
47
100
AcDbScale
 70
     0
300
100:1
140
100.0
141
1.0
290
     0
  0
SCALE
  5
59
102
{ACAD_REACTORS
330
47
102
}
330
47
100
AcDbScale
 70
     0
300
1/128" = 1'-0"
140
0.0078125
141
12.0
290
     0
  0
SCALE
  5
5A
102
{ACAD_REACTORS
330
47
102
}
330
47
100
AcDbScale
 70
     0
300
1/64" = 1'-0"
140
0.015625
141
12.0
290
     0
  0
SCALE
  5
5B
102
{ACAD_REACTORS
330
47
102
}
330
47
100
AcDbScale
 70
     0
300
1/32" = 1'-0"
140
0.03125
141
12.0
290
     0
  0
SCALE
  5
5C
102
{ACAD_REACTORS
330
47
102
}
330
47
100
AcDbScale
 70
     0
300
1/16" = 1'-0"
140
0.0625
141
12.0
290
     0
  0
SCALE
  5
5D
102
{ACAD_REACTORS
330
47
102
}
330
47
100
AcDbScale
 70
     0
300
3/32" = 1'-0"
140
0.09375
141
12.0
290
     0
  0
SCALE
  5
5E
102
{ACAD_REACTORS
330
47
102
}
330
47
100
AcDbScale
 70
     0
300
1/8" = 1'-0"
140
0.125
141
12.0
290
     0
  0
SCALE
  5
5F
102
{ACAD_REACTORS
330
47
102
}
330
47
100
AcDbScale
 70
     0
300
3/16" = 1'-0"
140
0.1875
141
12.0
290
     0
  0
SCALE
  5
60
102
{ACAD_REACTORS
330
47
102
}
330
47
100
AcDbScale
 70
     0
300
1/4" = 1'-0"
140
0.25
141
12.0
290
     0
  0
SCALE
  5
61
102
{ACAD_REACTORS
330
47
102
}
330
47
100
AcDbScale
 70
     0
300
3/8" = 1'-0"
140
0.375
141
12.0
290
     0
  0
SCALE
  5
62
102
{ACAD_REACTORS
330
47
102
}
330
47
100
AcDbScale
 70
     0
300
1/2" = 1'-0"
140
0.5
141
12.0
290
     0
  0
SCALE
  5
63
102
{ACAD_REACTORS
330
47
102
}
330
47
100
AcDbScale
 70
     0
300
3/4" = 1'-0"
140
0.75
141
12.0
290
     0
  0
SCALE
  5
64
102
{ACAD_REACTORS
330
47
102
}
330
47
100
AcDbScale
 70
     0
300
1" = 1'-0"
140
1.0
141
12.0
290
     0
  0
SCALE
  5
65
102
{ACAD_REACTORS
330
47
102
}
330
47
100
AcDbScale
 70
     0
300
1-1/2" = 1'-0"
140
1.5
141
12.0
290
     0
  0
SCALE
  5
66
102
{ACAD_REACTORS
330
47
102
}
330
47
100
AcDbScale
 70
     0
300
3" = 1'-0"
140
3.0
141
12.0
290
     0
  0
SCALE
  5
67
102
{ACAD_REACTORS
330
47
102
}
330
47
100
AcDbScale
 70
     0
300
6" = 1'-0"
140
6.0
141
12.0
290
     0
  0
SCALE
  5
68
102
{ACAD_REACTORS
330
47
102
}
330
47
100
AcDbScale
 70
     0
300
1'-0" = 1'-0"
140
12.0
141
12.0
290
     0
  0
ENDSEC
  0
EOF
