  0
SECTION
  2
HEADER
  9
$ACADVER
  1
AC1015
  9
$ACADMAINTVER
 70
     6
  9
$DWGCODEPAGE
  3
ANSI_1252
  9
$INSBASE
 10
0.0
 20
0.0
 30
0.0
  9
$EXTMIN
 10
0.0
 20
0.0
 30
0.0
  9
$EXTMAX
 10
594.0
 20
841.0
 30
0.0
  9
$LIMMIN
 10
0.0
 20
0.0
  9
$LIMMAX
 10
594.0
 20
841.0
  9
$ORTHOMODE
 70
     0
  9
$REGENMODE
 70
     1
  9
$FILLMODE
 70
     1
  9
$QTEXTMODE
 70
     0
  9
$MIRRTEXT
 70
     1
  9
$LTSCALE
 40
1.0
  9
$ATTMODE
 70
     1
  9
$TEXTSIZE
 40
10.0
  9
$TRACEWID
 40
1.0
  9
$TEXTSTYLE
  7
Standard
  9
$CLAYER
  8
0
  9
$CELTYPE
  6
ByLayer
  9
$CECOLOR
 62
   256
  9
$CELTSCALE
 40
1.0
  9
$DISPSILH
 70
     0
  9
$DIMSCALE
 40
1.0
  9
$DIMASZ
 40
2.5
  9
$DIMEXO
 40
0.0
  9
$DIMDLI
 40
3.75
  9
$DIMRND
 40
0.0
  9
$DIMDLE
 40
0.0
  9
$DIMEXE
 40
1.0
  9
$DIMTP
 40
0.0
  9
$DIMTM
 40
0.0
  9
$DIMTXT
 40
3.5
  9
$DIMCEN
 40
2.5
  9
$DIMTSZ
 40
0.0
  9
$DIMTOL
 70
     0
  9
$DIMLIM
 70
     0
  9
$DIMTIH
 70
     1
  9
$DIMTOH
 70
     1
  9
$DIMSE1
 70
     0
  9
$DIMSE2
 70
     0
  9
$DIMTAD
 70
     1
  9
$DIMZIN
 70
     0
  9
$DIMBLK
  1

  9
$DIMASO
 70
     1
  9
$DIMSHO
 70
     1
  9
$DIMPOST
  1

  9
$DIMAPOST
  1

  9
$DIMALT
 70
     0
  9
$DIMALTD
 70
     3
  9
$DIMALTF
 40
0.0393700787
  9
$DIMLFAC
 40
1.0
  9
$DIMTOFL
 70
     1
  9
$DIMTVP
 40
0.0
  9
$DIMTIX
 70
     0
  9
$DIMSOXD
 70
     0
  9
$DIMSAH
 70
     0
  9
$DIMBLK1
  1

  9
$DIMBLK2
  1

  9
$DIMSTYLE
  2
ISO-25
  9
$DIMCLRD
 70
     0
  9
$DIMCLRE
 70
     0
  9
$DIMCLRT
 70
     0
  9
$DIMTFAC
 40
1.0
  9
$DIMGAP
 40
1.5
  9
$DIMJUST
 70
     0
  9
$DIMSD1
 70
     0
  9
$DIMSD2
 70
     0
  9
$DIMTOLJ
 70
     0
  9
$DIMTZIN
 70
     0
  9
$DIMALTZ
 70
     0
  9
$DIMALTTZ
 70
     0
  9
$DIMUPT
 70
     0
  9
$DIMDEC
 70
     2
  9
$DIMTDEC
 70
     2
  9
$DIMALTU
 70
     2
  9
$DIMALTTD
 70
     3
  9
$DIMTXSTY
  7
Standard
  9
$DIMAUNIT
 70
     0
  9
$DIMADEC
 70
     2
  9
$DIMALTRND
 40
0.0
  9
$DIMAZIN
 70
     0
  9
$DIMDSEP
 70
    44
  9
$DIMATFIT
 70
     3
  9
$DIMFRAC
 70
     0
  9
$DIMLDRBLK
  1

  9
$DIMLUNIT
 70
     2
  9
$DIMLWD
 70
    -2
  9
$DIMLWE
 70
    -2
  9
$DIMTMOVE
 70
     0
  9
$LUNITS
 70
     2
  9
$LUPREC
 70
     2
  9
$SKETCHINC
 40
1.0
  9
$FILLETRAD
 40
10.0
  9
$AUNITS
 70
     0
  9
$AUPREC
 70
     2
  9
$MENU
  1
.
  9
$ELEVATION
 40
0.0
  9
$PELEVATION
 40
0.0
  9
$THICKNESS
 40
0.0
  9
$LIMCHECK
 70
     0
  9
$CHAMFERA
 40
0.0
  9
$CHAMFERB
 40
0.0
  9
$CHAMFERC
 40
0.0
  9
$CHAMFERD
 40
0.0
  9
$SKPOLY
 70
     0
  9
$TDCREATE
 40
2457996.398264734
  9
$TDUCREATE
 40
2457996.314931401
  9
$TDUPDATE
 40
2457996.398267083
  9
$TDUUPDATE
 40
2457996.31493375
  9
$TDINDWG
 40
0.0000000116
  9
$TDUSRTIMER
 40
0.0000000116
  9
$USRTIMER
 70
     1
  9
$ANGBASE
 50
0.0
  9
$ANGDIR
 70
     0
  9
$PDMODE
 70
     0
  9
$PDSIZE
 40
-1.0
  9
$PLINEWID
 40
0.0
  9
$SPLFRAME
 70
     0
  9
$SPLINETYPE
 70
     6
  9
$SPLINESEGS
 70
     8
  9
$HANDSEED
  5
1E9
  9
$SURFTAB1
 70
     6
  9
$SURFTAB2
 70
     6
  9
$SURFTYPE
 70
     6
  9
$SURFU
 70
     6
  9
$SURFV
 70
     6
  9
$UCSBASE
  2

  9
$UCSNAME
  2

  9
$UCSORG
 10
0.0
 20
0.0
 30
0.0
  9
$UCSXDIR
 10
1.0
 20
0.0
 30
0.0
  9
$UCSYDIR
 10
0.0
 20
1.0
 30
0.0
  9
$UCSORTHOREF
  2

  9
$UCSORTHOVIEW
 70
     0
  9
$UCSORGTOP
 10
0.0
 20
0.0
 30
0.0
  9
$UCSORGBOTTOM
 10
0.0
 20
0.0
 30
0.0
  9
$UCSORGLEFT
 10
0.0
 20
0.0
 30
0.0
  9
$UCSORGRIGHT
 10
0.0
 20
0.0
 30
0.0
  9
$UCSORGFRONT
 10
0.0
 20
0.0
 30
0.0
  9
$UCSORGBACK
 10
0.0
 20
0.0
 30
0.0
  9
$PUCSBASE
  2

  9
$PUCSNAME
  2

  9
$PUCSORG
 10
0.0
 20
0.0
 30
0.0
  9
$PUCSXDIR
 10
1.0
 20
0.0
 30
0.0
  9
$PUCSYDIR
 10
0.0
 20
1.0
 30
0.0
  9
$PUCSORTHOREF
  2

  9
$PUCSORTHOVIEW
 70
     0
  9
$PUCSORGTOP
 10
0.0
 20
0.0
 30
0.0
  9
$PUCSORGBOTTOM
 10
0.0
 20
0.0
 30
0.0
  9
$PUCSORGLEFT
 10
0.0
 20
0.0
 30
0.0
  9
$PUCSORGRIGHT
 10
0.0
 20
0.0
 30
0.0
  9
$PUCSORGFRONT
 10
0.0
 20
0.0
 30
0.0
  9
$PUCSORGBACK
 10
0.0
 20
0.0
 30
0.0
  9
$USERI1
 70
     0
  9
$USERI2
 70
     0
  9
$USERI3
 70
     0
  9
$USERI4
 70
     0
  9
$USERI5
 70
     0
  9
$USERR1
 40
0.0
  9
$USERR2
 40
0.0
  9
$USERR3
 40
0.0
  9
$USERR4
 40
0.0
  9
$USERR5
 40
0.0
  9
$WORLDVIEW
 70
     1
  9
$SHADEDGE
 70
     3
  9
$SHADEDIF
 70
    70
  9
$TILEMODE
 70
     1
  9
$MAXACTVP
 70
    64
  9
$PINSBASE
 10
0.0
 20
0.0
 30
0.0
  9
$PLIMCHECK
 70
     0
  9
$PEXTMIN
 10
1.0000000000E+20
 20
1.0000000000E+20
 30
1.0000000000E+20
  9
$PEXTMAX
 10
-1.0000000000E+20
 20
-1.0000000000E+20
 30
-1.0000000000E+20
  9
$PLIMMIN
 10
0.0
 20
0.0
  9
$PLIMMAX
 10
420.0
 20
297.0
  9
$UNITMODE
 70
     0
  9
$VISRETAIN
 70
     1
  9
$PLINEGEN
 70
     0
  9
$PSLTSCALE
 70
     1
  9
$TREEDEPTH
 70
  3020
  9
$CMLSTYLE
  2
Standard
  9
$CMLJUST
 70
     0
  9
$CMLSCALE
 40
20.0
  9
$PROXYGRAPHICS
 70
     1
  9
$MEASUREMENT
 70
     1
  9
$CELWEIGHT
370
    -1
  9
$ENDCAPS
280
     0
  9
$JOINSTYLE
280
     0
  9
$LWDISPLAY
290
     1
  9
$INSUNITS
 70
     4
  9
$HYPERLINKBASE
  1

  9
$STYLESHEET
  1

  9
$XEDIT
290
     1
  9
$CEPSNTYPE
380
     0
  9
$PSTYLEMODE
290
     1
  9
$FINGERPRINTGUID
  2
{5EDA1B60-A237-489F-A3C8-BC71BF6868A0}
  9
$VERSIONGUID
  2
{FAEB1C32-E019-11D5-929B-00C0DF256EC4}
  9
$EXTNAMES
290
     1
  9
$PSVPSCALE
 40
0.0
  9
$OLESTARTUP
290
     0
  0
ENDSEC
  0
SECTION
  2
CLASSES
  0
CLASS
  1
ACDBDICTIONARYWDFLT
  2
AcDbDictionaryWithDefault
  3
ObjectDBX Classes
 90
        0
280
     0
281
     0
  0
CLASS
  1
VISUALSTYLE
  2
AcDbVisualStyle
  3
ObjectDBX Classes
 90
     4095
280
     0
281
     0
  0
CLASS
  1
MATERIAL
  2
AcDbMaterial
  3
ObjectDBX Classes
 90
     1153
280
     0
281
     0
  0
CLASS
  1
SCALE
  2
AcDbScale
  3
ObjectDBX Classes
 90
     1153
280
     0
281
     0
  0
CLASS
  1
TABLESTYLE
  2
AcDbTableStyle
  3
ObjectDBX Classes
 90
     4095
280
     0
281
     0
  0
CLASS
  1
MLEADERSTYLE
  2
AcDbMLeaderStyle
  3
ACDB_MLEADERSTYLE_CLASS
 90
     4095
280
     0
281
     0
  0
CLASS
  1
SUN
  2
AcDbSun
  3
SCENEOE
 90
     1153
280
     0
281
     0
  0
CLASS
  1
ACDBPLACEHOLDER
  2
AcDbPlaceHolder
  3
ObjectDBX Classes
 90
        0
280
     0
281
     0
  0
CLASS
  1
LAYOUT
  2
AcDbLayout
  3
ObjectDBX Classes
 90
        0
280
     0
281
     0
  0
ENDSEC
  0
SECTION
  2
TABLES
  0
TABLE
  2
VPORT
  5
8
330
0
100
AcDbSymbolTable
 70
     1
  0
VPORT
  5
29
330
8
100
AcDbSymbolTableRecord
100
AcDbViewportTableRecord
  2
*Active
 70
     0
 10
0.0
 20
0.0
 11
1.0
 21
1.0
 12
297.0
 22
420.5
 13
0.0
 23
0.0
 14
10.0
 24
10.0
 15
10.0
 25
10.0
 16
0.0
 26
0.0
 36
1.0
 17
0.0
 27
0.0
 37
0.0
 40
841.0
 41
0.7063020214
 42
50.0
 43
0.0
 44
0.0
 50
0.0
 51
0.0
 71
     0
 72
  2000
 73
     1
 74
     3
 75
     0
 76
     0
 77
     0
 78
     0
281
     0
 65
     1
110
0.0
120
0.0
130
0.0
111
1.0
121
0.0
131
0.0
112
0.0
122
1.0
132
0.0
 79
     0
146
0.0
  0
ENDTAB
  0
TABLE
  2
LTYPE
  5
5
330
0
100
AcDbSymbolTable
 70
     6
  0
LTYPE
  5
14
330
5
100
AcDbSymbolTableRecord
100
AcDbLinetypeTableRecord
  2
ByBlock
 70
     0
  3

 72
    65
 73
     0
 40
0.0
  0
LTYPE
  5
15
330
5
100
AcDbSymbolTableRecord
100
AcDbLinetypeTableRecord
  2
ByLayer
 70
     0
  3

 72
    65
 73
     0
 40
0.0
  0
LTYPE
  5
16
330
5
100
AcDbSymbolTableRecord
100
AcDbLinetypeTableRecord
  2
Continuous
 70
     0
  3
Solid line
 72
    65
 73
     0
 40
0.0
  0
LTYPE
  5
6E
330
5
100
AcDbSymbolTableRecord
100
AcDbLinetypeTableRecord
  2
HIDDEN
 70
     0
  3
Hidden __ __ __ __ __ __ __ __ __ __ __ __ __ __
 72
    65
 73
     2
 40
1.905
 49
1.27
 74
     0
 49
-0.635
 74
     0
  0
LTYPE
  5
6F
330
5
100
AcDbSymbolTableRecord
100
AcDbLinetypeTableRecord
  2
PHANTOM
 70
     0
  3
Phantom ______  __  __  ______  __  __  ______
 72
    65
 73
     6
 40
12.7
 49
6.35
 74
     0
 49
-1.27
 74
     0
 49
1.27
 74
     0
 49
-1.27
 74
     0
 49
1.27
 74
     0
 49
-1.27
 74
     0
  0
LTYPE
  5
70
330
5
100
AcDbSymbolTableRecord
100
AcDbLinetypeTableRecord
  2
CENTER
 70
     0
  3
Center ____ _ ____ _ ____ _ ____ _ ____ _ ____
 72
    65
 73
     4
 40
10.16
 49
6.35
 74
     0
 49
-1.27
 74
     0
 49
1.27
 74
     0
 49
-1.27
 74
     0
  0
LTYPE
  5
71
330
5
100
AcDbSymbolTableRecord
100
AcDbLinetypeTableRecord
  2
CENTERX2
 70
     0
  3
Center (2x) ________  __  ________  __  _____
 72
    65
 73
     4
 40
20.32
 49
12.7
 74
     0
 49
-2.54
 74
     0
 49
2.54
 74
     0
 49
-2.54
 74
     0
  0
LTYPE
  5
72
330
5
100
AcDbSymbolTableRecord
100
AcDbLinetypeTableRecord
  2
DOT2
 70
     0
  3
Dot (.5x) ........................................
 72
    65
 73
     2
 40
0.635
 49
0.0
 74
     0
 49
-0.635
 74
     0
  0
ENDTAB
  0
TABLE
  2
LAYER
  5
2
330
0
100
AcDbSymbolTable
 70
     1
  0
LAYER
  5
10
330
2
100
AcDbSymbolTableRecord
100
AcDbLayerTableRecord
  2
0
 70
     0
 62
     7
  6
Continuous
370
    -3
390
F
  0
ENDTAB
  0
TABLE
  2
STYLE
  5
3
330
0
100
AcDbSymbolTable
 70
     3
  0
STYLE
  5
11
330
3
100
AcDbSymbolTableRecord
100
AcDbTextStyleTableRecord
  2
Standard
 70
     0
 40
0.0
 41
1.0
 50
0.0
 71
     0
 42
10.0
  3
txt
  4

  0
STYLE
  5
76
330
3
100
AcDbSymbolTableRecord
100
AcDbTextStyleTableRecord
  2
SLDTEXTSTYLE0
 70
     0
 40
0.0
 41
0.96
 50
0.0
 71
     0
 42
10.0
  3
ISOCP3
  4

  0
STYLE
  5
8D
330
3
100
AcDbSymbolTableRecord
100
AcDbTextStyleTableRecord
  2
SLDTEXTSTYLE1
 70
     0
 40
0.0
 41
0.605
 50
0.0
 71
     0
 42
10.0
  3
TXT
  4

  0
ENDTAB
  0
TABLE
  2
VIEW
  5
6
330
0
100
AcDbSymbolTable
 70
     0
  0
ENDTAB
  0
TABLE
  2
UCS
  5
7
330
0
100
AcDbSymbolTable
 70
     0
  0
ENDTAB
  0
TABLE
  2
APPID
  5
9
330
0
100
AcDbSymbolTable
 70
     1
  0
APPID
  5
12
330
9
100
AcDbSymbolTableRecord
100
AcDbRegAppTableRecord
  2
ACAD
 70
     0
  0
ENDTAB
  0
TABLE
  2
DIMSTYLE
  5
A
330
0
100
AcDbSymbolTable
 70
     2
100
AcDbDimStyleTable
  0
DIMSTYLE
105
27
330
A
100
AcDbSymbolTableRecord
100
AcDbDimStyleTableRecord
  2
ISO-25
 70
     0
 41
2.5
 42
0.625
 43
3.75
 44
1.25
 73
     0
 74
     0
 77
     1
 78
     8
140
2.5
141
2.5
143
0.0393700787
147
0.625
171
     3
172
     1
178
     0
271
     2
272
     2
274
     3
278
    44
283
     0
284
     8
340
11
  0
DIMSTYLE
105
77
102
{ACAD_REACTORS
330
75
330
82
102
}
330
A
100
AcDbSymbolTableRecord
100
AcDbDimStyleTableRecord
  2
SLDDIMSTYLE0
 70
     0
 41
2.5
 44
0.0
 45
0.000000001
 73
     0
 74
     0
 77
     1
 78
    12
 79
     3
140
6.0
147
1.5
173
     1
178
     0
271
     2
272
     2
276
     2
284
    12
340
76
  0
ENDTAB
  0
TABLE
  2
BLOCK_RECORD
  5
1
330
0
100
AcDbSymbolTable
 70
     3
  0
BLOCK_RECORD
  5
1F
330
1
100
AcDbSymbolTableRecord
100
AcDbBlockTableRecord
  2
*Model_Space
340
22
  0
BLOCK_RECORD
  5
1B
330
1
100
AcDbSymbolTableRecord
100
AcDbBlockTableRecord
  2
*Paper_Space
340
1E
  0
BLOCK_RECORD
  5
23
330
1
100
AcDbSymbolTableRecord
100
AcDbBlockTableRecord
  2
*Paper_Space0
340
26
  0
BLOCK_RECORD
  5
78
330
1
100
AcDbSymbolTableRecord
100
AcDbBlockTableRecord
  2
_D
340
0
  0
BLOCK_RECORD
  5
83
330
1
100
AcDbSymbolTableRecord
100
AcDbBlockTableRecord
  2
_D_1
340
0
  0
ENDTAB
  0
ENDSEC
  0
SECTION
  2
BLOCKS
  0
BLOCK
  5
20
330
1F
100
AcDbEntity
  8
0
100
AcDbBlockBegin
  2
*Model_Space
 70
     0
 10
0.0
 20
0.0
 30
0.0
  3
*Model_Space
  1

  0
ENDBLK
  5
21
330
1F
100
AcDbEntity
  8
0
100
AcDbBlockEnd
  0
BLOCK
  5
1C
330
1B
100
AcDbEntity
 67
     1
  8
0
100
AcDbBlockBegin
  2
*Paper_Space
 70
     0
 10
0.0
 20
0.0
 30
0.0
  3
*Paper_Space
  1

  0
ENDBLK
  5
1D
330
1B
100
AcDbEntity
 67
     1
  8
0
100
AcDbBlockEnd
  0
BLOCK
  5
24
330
23
100
AcDbEntity
  8
0
100
AcDbBlockBegin
  2
*Paper_Space0
 70
     0
 10
0.0
 20
0.0
 30
0.0
  3
*Paper_Space0
  1

  0
ENDBLK
  5
25
330
23
100
AcDbEntity
  8
0
100
AcDbBlockEnd
  0
BLOCK
  5
79
330
78
100
AcDbEntity
  8
0
100
AcDbBlockBegin
  2
_D
 70
     0
 10
0.0
 20
0.0
 30
0.0
  3
_D
  1

  0
SOLID
  5
7B
330
78
100
AcDbEntity
  8
0
  6
Continuous
 62
     7
370
    18
100
AcDbTrace
 10
42.7614395004
 20
152.0299240879
 30
0.0
 11
42.4614395004
 21
149.5299240879
 31
0.0
 12
43.0614395004
 22
149.5299240879
 32
0.0
 13
43.0614395004
 23
149.5299240879
 33
0.0
  0
SOLID
  5
7C
330
78
100
AcDbEntity
  8
0
  6
Continuous
 62
     7
370
    18
100
AcDbTrace
 10
42.7614395004
 20
52.0299240879
 30
0.0
 11
43.0614395004
 21
54.5299240879
 31
0.0
 12
42.4614395004
 22
54.5299240879
 32
0.0
 13
42.4614395004
 23
54.5299240879
 33
0.0
  0
LINE
  5
7D
330
78
100
AcDbEntity
  8
0
  6
Continuous
 62
     7
370
    18
100
AcDbLine
 10
56.6850079902
 20
152.0299240879
 30
0.0
 11
41.7614395004
 21
152.0299240879
 31
0.0
  0
LINE
  5
7E
330
78
100
AcDbEntity
  8
0
  6
Continuous
 62
     7
370
    18
100
AcDbLine
 10
56.6850079902
 20
52.0299240879
 30
0.0
 11
41.7614395004
 21
52.0299240879
 31
0.0
  0
LINE
  5
7F
330
78
100
AcDbEntity
  8
0
  6
Continuous
 62
     7
370
    18
100
AcDbLine
 10
42.7614395004
 20
152.0299240879
 30
0.0
 11
42.7614395004
 21
52.0299240879
 31
0.0
  0
MTEXT
  5
80
330
78
100
AcDbEntity
  8
0
  6
Continuous
 62
     7
370
    18
100
AcDbMText
 10
35.0270332946
 20
94.3680541463
 30
0.0
 40
6.0
 41
0.0
 71
     1
 72
     1
  1
100
  7
SLDTEXTSTYLE0
 11
-7.044195017643634E-15
 21
1.0
 31
0.0
 73
     1
 44
1.0
  0
MTEXT
  5
81
330
78
100
AcDbEntity
  8
0
  6
Continuous
 62
     7
370
    18
100
AcDbMText
 10
35.0270332946
 20
105.7430548466
 30
0.0
 40
6.0
 41
0.0
 71
     1
 72
     1
  1
mm
  7
SLDTEXTSTYLE0
 11
-7.044195017643634E-15
 21
1.0
 31
0.0
 73
     1
 44
1.0
  0
ENDBLK
  5
7A
330
78
100
AcDbEntity
  8
0
100
AcDbBlockEnd
  0
BLOCK
  5
84
330
83
100
AcDbEntity
  8
0
100
AcDbBlockBegin
  2
_D_1
 70
     0
 10
0.0
 20
0.0
 30
0.0
  3
_D_1
  1

  0
SOLID
  5
86
330
83
100
AcDbEntity
  8
0
  6
Continuous
 62
     7
370
    18
100
AcDbTrace
 10
56.6850079902
 20
38.4602342313
 30
0.0
 11
59.1850079902
 21
38.1602342313
 31
0.0
 12
59.1850079902
 22
38.7602342313
 32
0.0
 13
59.1850079902
 23
38.7602342313
 33
0.0
  0
SOLID
  5
87
330
83
100
AcDbEntity
  8
0
  6
Continuous
 62
     7
370
    18
100
AcDbTrace
 10
156.6850079902
 20
38.4602342313
 30
0.0
 11
154.1850079902
 21
38.7602342313
 31
0.0
 12
154.1850079902
 22
38.1602342313
 32
0.0
 13
154.1850079902
 23
38.1602342313
 33
0.0
  0
LINE
  5
88
330
83
100
AcDbEntity
  8
0
  6
Continuous
 62
     7
370
    18
100
AcDbLine
 10
56.6850079902
 20
52.0299240879
 30
0.0
 11
56.6850079902
 21
37.4602342313
 31
0.0
  0
LINE
  5
89
330
83
100
AcDbEntity
  8
0
  6
Continuous
 62
     7
370
    18
100
AcDbLine
 10
156.6850079902
 20
52.0299240879
 30
0.0
 11
156.6850079902
 21
37.4602342313
 31
0.0
  0
LINE
  5
8A
330
83
100
AcDbEntity
  8
0
  6
Continuous
 62
     7
370
    18
100
AcDbLine
 10
56.6850079902
 20
38.4602342313
 30
0.0
 11
156.6850079902
 21
38.4602342313
 31
0.0
  0
MTEXT
  5
8B
330
83
100
AcDbEntity
  8
0
  6
Continuous
 62
     7
370
    18
100
AcDbMText
 10
93.9626484861
 20
46.1946404371
 30
0.0
 40
6.0
 41
0.0
 71
     1
 72
     1
  1
100
  7
SLDTEXTSTYLE0
 73
     1
 44
1.0
  0
MTEXT
  5
8C
330
83
100
AcDbEntity
  8
0
  6
Continuous
 62
     7
370
    18
100
AcDbMText
 10
105.3376491864
 20
46.1946404371
 30
0.0
 40
6.0
 41
0.0
 71
     1
 72
     1
  1
mm
  7
SLDTEXTSTYLE0
 73
     1
 44
1.0
  0
ENDBLK
  5
85
330
83
100
AcDbEntity
  8
0
100
AcDbBlockEnd
  0
ENDSEC
  0
SECTION
  2
ENTITIES
  0
LINE
  5
73
330
1F
100
AcDbEntity
  8
0
  6
Continuous
 62
     7
370
    18
100
AcDbLine
 10
56.6850079902
 20
152.0299240879
 30
0.0
 11
56.6850079902
 21
52.0299240879
 31
0.0
  0
LINE
  5
74
330
1F
100
AcDbEntity
  8
0
  6
Continuous
 62
     7
370
    18
100
AcDbLine
 10
56.6850079902
 20
52.0299240879
 30
0.0
 11
156.6850079902
 21
52.0299240879
 31
0.0
  0
DIMENSION
  5
75
330
1F
100
AcDbEntity
  8
0
  6
Continuous
 62
     7
370
    18
100
AcDbDimension
  2
_D
 10
42.7614395004
 20
52.0299240879
 30
0.0
 11
42.7614395004
 21
105.4472211621
 31
0.0
 70
   160
  1
<>mm
 71
     2
 42
-1.0
  3
SLDDIMSTYLE0
100
AcDbAlignedDimension
 13
56.6850079902
 23
152.0299240879
 33
0.0
 14
56.6850079902
 24
52.0299240879
 34
0.0
 50
90.0
100
AcDbRotatedDimension
  0
DIMENSION
  5
82
330
1F
100
AcDbEntity
  8
0
  6
Continuous
 62
     7
370
    18
100
AcDbDimension
  2
_D_1
 10
156.6850079902
 20
38.4602342313
 30
0.0
 11
105.0418155019
 21
38.4602342313
 31
0.0
 70
   160
  1
<>mm
 71
     2
 42
-1.0
  3
SLDDIMSTYLE0
100
AcDbAlignedDimension
 13
56.6850079902
 23
52.0299240879
 33
0.0
 14
156.6850079902
 24
52.0299240879
 34
0.0
100
AcDbRotatedDimension
  0
MTEXT
  5
8E
330
1F
100
AcDbEntity
  8
0
  6
Continuous
 62
     7
370
     0
100
AcDbMText
 10
412.8252631579
 20
48.4342449499
 30
0.0
 40
10.0
 41
0.0
 71
     1
 72
     1
  1
KLUDI GmbH & Co KG
  7
SLDTEXTSTYLE1
 73
     1
 44
1.0
  0
MTEXT
  5
8F
330
1F
100
AcDbEntity
  8
0
  6
Continuous
 62
     7
370
     0
100
AcDbMText
 10
210.0873490389
 20
48.4342449499
 30
0.0
 40
10.0
 41
0.0
 71
     1
 72
     1
  1
40 028 05 75
  7
SLDTEXTSTYLE1
 73
     1
 44
1.0
  0
SPLINE
  5
90
330
1F
100
AcDbEntity
  8
0
  6
Continuous
 62
     7
370
    25
100
AcDbSpline
210
0.0
220
0.0
230
1.0
 70
     8
 71
     3
 72
    19
 73
    15
 74
     0
 42
0.000000001
 43
0.00000001
 40
0.0
 40
0.0
 40
0.0
 40
0.0
 40
0.1473620749383638
 40
0.2810987132855654
 40
0.336101841131473
 40
0.3811299479501648
 40
0.4011806542464544
 40
0.421129076342057
 40
0.4648335715492272
 40
0.5174249619471083
 40
0.5795231481240659
 40
0.7272521861395724
 40
0.893128067806944
 40
1.0
 40
1.0
 40
1.0
 40
1.0
 10
323.3814613825876
 20
414.5059946747518
 30
0.0
 10
323.3368681393133
 20
414.2827456823381
 30
0.0
 10
323.2518048466657
 20
413.8568898131394
 30
0.0
 10
323.1659922070428
 20
413.2482534676301
 30
0.0
 10
323.0887607387841
 20
412.6217139665904
 30
0.0
 10
323.0293625943379
 20
412.1645694210281
 30
0.0
 10
322.9673089840611
 20
411.7525292182061
 30
0.0
 10
322.8961611350271
 20
411.3199996463604
 30
0.0
 10
322.7852238749084
 20
410.725255968094
 30
0.0
 10
322.6333365218152
 20
410.0095484513445
 30
0.0
 10
322.383040050355
 20
408.9280030380049
 30
0.0
 10
322.0368893178438
 20
407.5216385835324
 30
0.0
 10
321.6918872105936
 20
406.0289819583263
 30
0.0
 10
321.4977625888042
 20
404.948638948524
 30
0.0
 10
321.4216979152758
 20
404.5253235669828
 30
0.0
  0
SPLINE
  5
91
330
1F
100
AcDbEntity
  8
0
  6
Continuous
 62
     7
370
    25
100
AcDbSpline
210
0.0
220
0.0
230
1.0
 70
     8
 71
     3
 72
    17
 73
    13
 74
     0
 42
0.000000001
 43
0.00000001
 40
0.0
 40
0.0
 40
0.0
 40
0.0
 40
0.3394267454959538
 40
0.4470776178297885
 40
0.4650572130550255
 40
0.4804418829436349
 40
0.4945533526526195
 40
0.5088217654688033
 40
0.5244095880543971
 40
0.5843358571087207
 40
0.6982193595342189
 40
1.0
 40
1.0
 40
1.0
 40
1.0
 10
324.699875146826
 20
415.6791928978658
 30
0.0
 10
324.5654366453515
 20
415.6560108811753
 30
0.0
 10
324.3883603077281
 20
415.6254765731513
 30
0.0
 10
324.1218553279221
 20
415.494891728184
 30
0.0
 10
323.9903128664937
 20
415.4051118096772
 30
0.0
 10
323.9388243083803
 20
415.366645108961
 30
0.0
 10
323.888123800612
 20
415.3254116199987
 30
0.0
 10
323.8396515111875
 20
415.2824868354865
 30
0.0
 10
323.7535981837811
 20
415.1997486341158
 30
0.0
 10
323.6333846857331
 20
415.0584656701444
 30
0.0
 10
323.4616128944452
 20
414.7901894239453
 30
0.0
 10
323.4100659153452
 20
414.6007933540707
 30
0.0
 10
323.372641757806
 20
414.4632879467703
 30
0.0
  0
SPLINE
  5
92
330
1F
100
AcDbEntity
  8
0
  6
Continuous
 62
     7
370
    25
100
AcDbSpline
210
0.0
220
0.0
230
1.0
 70
     8
 71
     3
 72
     9
 73
     5
 74
     0
 42
0.000000001
 43
0.00000001
 40
0.0
 40
0.0
 40
0.0
 40
0.0
 40
0.498856322706122
 40
0.9999999999999999
 40
0.9999999999999999
 40
0.9999999999999999
 40
0.9999999999999999
 10
430.2706180072624
 20
415.5719492407537
 30
0.0
 10
430.2710797183699
 20
415.5890160916175
 30
0.0
 10
430.2720052576215
 20
415.6232280482211
 30
0.0
 10
430.2708677080648
 20
415.6579782552328
 30
0.0
 10
430.2702976322968
 20
415.6753931017614
 30
0.0
  0
ARC
  5
93
330
1F
100
AcDbEntity
  8
0
  6
Continuous
 62
     7
370
    25
100
AcDbCircle
 10
342.2907009514
 20
380.4424423509
 30
0.0
 40
21.64486082191336
100
AcDbArc
 50
144.9802476932
 51
170.9531540197
  0
ARC
  5
94
330
1F
100
AcDbEntity
  8
0
  6
Continuous
 62
     7
370
    25
100
AcDbCircle
 10
342.2907009514
 20
380.4424423509
 30
0.0
 40
21.64486082191335
100
AcDbArc
 50
9.0468459803
 51
9.5739963405
  0
SPLINE
  5
95
330
1F
100
AcDbEntity
  8
0
  6
Continuous
 62
     7
370
    25
100
AcDbSpline
210
0.0
220
0.0
230
1.0
 70
     8
 71
     3
 72
    13
 73
     9
 74
     0
 42
0.000000001
 43
0.00000001
 40
0.0
 40
0.0
 40
0.0
 40
0.0
 40
0.2961539523271387
 40
0.5530168469990616
 40
0.6682047873532612
 40
0.777566277451889
 40
0.886089133894833
 40
0.9999999999999999
 40
0.9999999999999999
 40
0.9999999999999999
 40
0.9999999999999999
 10
426.8667010522682
 20
412.0595518322683
 30
0.0
 10
427.3570709711156
 20
412.1859096971915
 30
0.0
 10
428.2727529137445
 20
412.4218613956383
 30
0.0
 10
429.1766911168042
 20
413.0568293986123
 30
0.0
 10
429.6985494103885
 20
413.7227074943713
 30
0.0
 10
429.9759466275191
 20
414.2877009994642
 30
0.0
 10
430.1563711387149
 20
414.9328510906224
 30
0.0
 10
430.1870628782976
 20
415.3898469532664
 30
0.0
 10
430.2027804709275
 20
415.6238797875143
 30
0.0
  0
LINE
  5
96
330
1F
100
AcDbEntity
  8
0
  6
Continuous
 62
     7
370
    25
100
AcDbLine
 10
320.7907007939
 20
382.2735015126
 30
0.0
 11
320.7907007939
 21
380.9516716572
 31
0.0
  0
LINE
  5
97
330
1F
100
AcDbEntity
  8
0
  6
Continuous
 62
     7
370
    25
100
AcDbLine
 10
363.7907003916
 20
381.4989764066
 30
0.0
 11
363.7907003916
 21
382.2735015126
 31
0.0
  0
ARC
  5
98
330
1F
100
AcDbEntity
  8
0
  6
Continuous
 62
     7
370
    25
100
AcDbCircle
 10
353.7907009514
 20
382.2735031259
 30
0.0
 40
9.999999999999956
100
AcDbArc
 50
0.0
 51
9.0468459803
  0
ARC
  5
99
330
1F
100
AcDbEntity
  8
0
  6
Continuous
 62
     7
370
    25
100
AcDbCircle
 10
330.7907009514
 20
382.2735031259
 30
0.0
 40
10.0
100
AcDbArc
 50
170.9531540197
 51
180.0
  0
SPLINE
  5
9A
330
1F
100
AcDbEntity
  8
0
  6
Continuous
 62
     7
370
    25
100
AcDbSpline
210
0.0
220
0.0
230
1.0
 70
     8
 71
     3
 72
    10
 73
     6
 74
     0
 42
0.000000001
 43
0.00000001
 40
0.0
 40
0.0
 40
0.0
 40
0.0
 40
0.185224408635604
 40
0.6277009165818077
 40
1.0
 40
1.0
 40
1.0
 40
1.0
 10
330.3998570821483
 20
416.1102834912039
 30
0.0
 10
330.0211278889919
 20
416.0919238089842
 30
0.0
 10
328.7376649618772
 20
416.0297052847504
 30
0.0
 10
326.7660959821717
 20
415.8990383885805
 30
0.0
 10
325.3538050353823
 20
415.7429978983233
 30
0.0
 10
324.7084805674154
 20
415.6716976137853
 30
0.0
  0
SPLINE
  5
9B
330
1F
100
AcDbEntity
  8
0
  6
Continuous
 62
     7
370
    25
100
AcDbSpline
210
0.0
220
0.0
230
1.0
 70
     8
 71
     3
 72
    15
 73
    11
 74
     0
 42
0.000000001
 43
0.00000001
 40
0.0
 40
0.0
 40
0.0
 40
0.0
 40
0.0003100982476124
 40
0.0034103419095045
 40
0.0377358372592956
 40
0.103674692324582
 40
0.3115938139502371
 40
0.5878479061499653
 40
0.8903914425175102
 40
1.0
 40
1.0
 40
1.0
 40
1.0
 10
342.2424045323629
 20
416.3677755566335
 30
0.0
 10
342.2418002186988
 20
416.3677706589386
 30
0.0
 10
342.2351542081801
 20
416.367716795963
 30
0.0
 10
342.1611548588234
 20
416.3668423272642
 30
0.0
 10
341.9582615475493
 20
416.3648563426416
 30
0.0
 10
341.346227783316
 20
416.3582094815128
 30
0.0
 10
340.2237158662416
 20
416.3460694723724
 30
0.0
 10
338.5985395603391
 20
416.326143581499
 30
0.0
 10
337.1992879545419
 20
416.3071664674799
 30
0.0
 10
336.3666247710892
 20
416.2904213989194
 30
0.0
 10
336.1451846479673
 20
416.2859681816793
 30
0.0
  0
LINE
  5
9C
330
1F
100
AcDbEntity
  8
0
  6
Continuous
 62
     7
370
    25
100
AcDbLine
 10
342.2452815042
 20
416.367805359
 30
0.0
 11
342.245281155
 21
416.367805359
 31
0.0
  0
LWPOLYLINE
  5
9D
330
1F
100
AcDbEntity
  8
0
  6
Continuous
 62
     7
370
    25
100
AcDbPolyline
 90
        8
 70
   128
 43
0.0
 10
342.2424045324
 20
416.3677755566
 10
342.2445536756
 20
416.367805359
 10
342.2450045522
 20
416.367805359
 10
342.2452415738
 20
416.367805359
 10
342.2452675344
 20
416.367805359
 10
342.245275567
 20
416.367805359
 10
342.245281155
 20
416.367805359
 10
342.2452802236
 20
416.367805359
  0
LINE
  5
9E
330
1F
100
AcDbEntity
  8
0
  6
Continuous
 62
     7
370
    25
100
AcDbLine
 10
365.5814623392
 20
400.1220602365
 30
0.0
 11
365.5814623392
 21
403.2859939905
 31
0.0
  0
LINE
  5
9F
330
1F
100
AcDbEntity
  8
0
  6
Continuous
 62
     7
370
    25
100
AcDbLine
 10
365.5814623392
 20
384.0424407097
 30
0.0
 11
365.5814623392
 21
392.1641025515
 31
0.0
  0
SPLINE
  5
A0
330
1F
100
AcDbEntity
  8
0
  6
Continuous
 62
     7
370
    25
100
AcDbSpline
210
0.0
220
0.0
230
1.0
 70
     8
 71
     3
 72
    15
 73
    11
 74
     0
 42
0.000000001
 43
0.00000001
 40
0.0
 40
0.0
 40
0.0
 40
0.0
 40
0.1312456816096504
 40
0.2559495470018079
 40
0.3754324972345424
 40
0.4934862201418795
 40
0.6125234846125444
 40
0.7349802067416663
 40
0.8633526979954296
 40
1.0
 40
1.0
 40
1.0
 40
1.0
 10
365.5813338167269
 20
403.2859939904905
 30
0.0
 10
365.5813885044058
 20
403.7464720040463
 30
0.0
 10
365.581495153908
 20
404.6444759423734
 30
0.0
 10
365.7133741109265
 20
405.9609009912715
 30
0.0
 10
366.1160056505473
 20
407.1805102262441
 30
0.0
 10
366.8057890934373
 20
408.2399437781764
 30
0.0
 10
367.7338477844159
 20
409.1121297564692
 30
0.0
 10
368.8679880554236
 20
409.7621042712532
 30
0.0
 10
370.1726323849664
 20
410.1888081272054
 30
0.0
 10
371.1024267422981
 20
410.2609191716262
 30
0.0
 10
371.581839577039
 20
410.2981004687048
 30
0.0
  0
LINE
  5
A1
330
1F
100
AcDbEntity
  8
0
  6
Continuous
 62
     7
370
    25
100
AcDbLine
 10
462.1388448335
 20
363.2905099364
 30
0.0
 11
460.5793712593
 21
367.3530880185
 31
0.0
  0
LINE
  5
A2
330
1F
100
AcDbEntity
  8
0
  6
Continuous
 62
     7
370
    25
100
AcDbLine
 10
438.4420646287
 20
358.0524537535
 30
0.0
 11
439.73291497
 21
354.6896789046
 31
0.0
  0
LINE
  5
A3
330
1F
100
AcDbEntity
  8
0
  6
Continuous
 62
     7
370
    25
100
AcDbLine
 10
461.4121673561
 20
362.3931396576
 30
0.0
 11
462.1388448335
 21
363.2905099364
 31
0.0
  0
LINE
  5
A4
330
1F
100
AcDbEntity
  8
0
  6
Continuous
 62
     7
370
    25
100
AcDbLine
 10
439.73291497
 20
354.6896789046
 30
0.0
 11
440.8733976937
 21
354.5090470286
 31
0.0
  0
SPLINE
  5
A5
330
1F
100
AcDbEntity
  8
0
  6
Continuous
 62
     7
370
    25
100
AcDbSpline
210
0.0
220
0.0
230
1.0
 70
     8
 71
     3
 72
    12
 73
     8
 74
     0
 42
0.000000001
 43
0.00000001
 40
0.0
 40
0.0
 40
0.0
 40
0.0
 40
0.2237590860564519
 40
0.4597440721577511
 40
0.6853528359743539
 40
0.9132756430968261
 40
0.9999999999999999
 40
0.9999999999999999
 40
0.9999999999999999
 40
0.9999999999999999
 10
430.2559627152283
 20
415.4978308649755
 30
0.0
 10
430.2345043652504
 20
415.242610591959
 30
0.0
 10
430.1904152094777
 20
414.7182251483025
 30
0.0
 10
429.9044714998349
 20
413.9743600556122
 30
0.0
 10
429.4403054795231
 20
413.3398554990702
 30
0.0
 10
428.9913850838988
 20
412.8894992657563
 30
0.0
 10
428.6559852694236
 20
412.7565661655497
 30
0.0
 10
428.5635409808953
 20
412.7199265928961
 30
0.0
  0
SPLINE
  5
A6
330
1F
100
AcDbEntity
  8
0
  6
Continuous
 62
     7
370
    25
100
AcDbSpline
210
0.0
220
0.0
230
1.0
 70
     8
 71
     3
 72
    10
 73
     6
 74
     0
 42
0.000000001
 43
0.00000001
 40
0.0
 40
0.0
 40
0.0
 40
0.0
 40
0.3753226253380871
 40
0.7076954666104397
 40
1.0
 40
1.0
 40
1.0
 40
1.0
 10
429.1444031453927
 20
416.9159892769552
 30
0.0
 10
427.7664511244689
 20
417.0035273268449
 30
0.0
 10
425.1682320655033
 20
417.1685860706579
 30
0.0
 10
421.4934745405501
 20
417.1913300644833
 30
0.0
 10
419.2479050487557
 20
417.1721158974498
 30
0.0
 10
418.1971384144623
 20
417.1631250353552
 30
0.0
  0
SPLINE
  5
A7
330
1F
100
AcDbEntity
  8
0
  6
Continuous
 62
     7
370
    25
100
AcDbSpline
210
0.0
220
0.0
230
1.0
 70
     8
 71
     3
 72
     9
 73
     5
 74
     0
 42
0.000000001
 43
0.00000001
 40
0.0
 40
0.0
 40
0.0
 40
0.0
 40
0.808802391617852
 40
1.0
 40
1.0
 40
1.0
 40
1.0
 10
430.2583543516
 20
415.8039752217031
 30
0.0
 10
430.2673439050438
 20
415.8043915773305
 30
0.0
 10
430.2784585524992
 20
415.8049063577411
 30
0.0
 10
430.2188366491316
 20
415.9663590186025
 30
0.0
 10
430.2074370838006
 20
415.9972283812261
 30
0.0
  0
LINE
  5
A8
330
1F
100
AcDbEntity
  8
0
  6
Continuous
 62
     7
370
    25
100
AcDbLine
 10
429.1515035487
 20
416.8919984074
 30
0.0
 11
429.0747178651
 21
416.9217113229
 31
0.0
  0
SPLINE
  5
A9
330
1F
100
AcDbEntity
  8
0
  6
Continuous
 62
     7
370
    25
100
AcDbSpline
210
0.0
220
0.0
230
1.0
 70
     8
 71
     3
 72
     9
 73
     5
 74
     0
 42
0.000000001
 43
0.00000001
 40
0.0
 40
0.0
 40
0.0
 40
0.0
 40
0.2341142581357298
 40
1.0
 40
1.0
 40
1.0
 40
1.0
 10
465.7332954860528
 20
380.9415612192846
 30
0.0
 10
465.7442912471498
 20
380.9409978649617
 30
0.0
 10
465.7912587457744
 20
380.9385915428206
 30
0.0
 10
465.8877778664723
 20
380.9082961094232
 30
0.0
 10
465.961700484832
 20
380.8850932689405
 30
0.0
  0
SPLINE
  5
AA
330
1F
100
AcDbEntity
  8
0
  6
Continuous
 62
     7
370
    25
100
AcDbSpline
210
0.0
220
0.0
230
1.0
 70
     8
 71
     3
 72
    13
 73
     9
 74
     0
 42
0.000000001
 43
0.00000001
 40
0.0
 40
0.0
 40
0.0
 40
0.0
 40
0.0580205487127439
 40
0.1437663013941763
 40
0.3600911344438
 40
0.5852107238156066
 40
0.953311108677822
 40
1.0
 40
1.0
 40
1.0
 40
1.0
 10
466.1709500408967
 20
380.8121669860578
 30
0.0
 10
466.1640223283032
 20
380.8157422684991
 30
0.0
 10
466.1468564855322
 20
380.8246012873194
 30
0.0
 10
465.9634436482567
 20
380.9018331880093
 30
0.0
 10
465.8259781842772
 20
380.9292402094058
 30
0.0
 10
465.7215456061582
 20
380.9484567823629
 30
0.0
 10
465.6437639964557
 20
380.9561699580029
 30
0.0
 10
465.6152404599899
 20
380.9581069920885
 30
0.0
 10
465.6120298362572
 20
380.9583250256277
 30
0.0
  0
SPLINE
  5
AB
330
1F
100
AcDbEntity
  8
0
  6
Continuous
 62
     7
370
    25
100
AcDbSpline
210
0.0
220
0.0
230
1.0
 70
     8
 71
     3
 72
    11
 73
     7
 74
     0
 42
0.000000001
 43
0.00000001
 40
0.0
 40
0.0
 40
0.0
 40
0.0
 40
0.1776591598749637
 40
0.4052227914770448
 40
0.6777902660727326
 40
1.0
 40
1.0
 40
1.0
 40
1.0
 10
461.3073376870949
 20
381.2472808929182
 30
0.0
 10
460.6978079805698
 20
381.2780667207485
 30
0.0
 10
459.3075316258909
 20
381.3482861178236
 30
0.0
 10
456.9028179987703
 20
381.425215493963
 30
0.0
 10
453.9809591237891
 20
381.4685269023623
 30
0.0
 10
451.8610591377738
 20
381.4694057757442
 30
0.0
 10
450.7126418805916
 20
381.4698818894125
 30
0.0
  0
LINE
  5
AC
330
1F
100
AcDbEntity
  8
0
  6
Continuous
 62
     7
370
    25
100
AcDbLine
 10
365.582004369
 20
392.1608391972
 30
0.0
 11
366.1320099539
 21
392.3610213967
 31
0.0
  0
LINE
  5
AD
330
1F
100
AcDbEntity
  8
0
  6
Continuous
 62
     7
370
    25
100
AcDbLine
 10
366.1320099539
 20
399.9238598915
 30
0.0
 11
365.5818013407
 21
400.1241165968
 31
0.0
  0
ARC
  5
AE
330
1F
100
AcDbEntity
  8
0
  6
Continuous
 62
     7
370
    25
100
AcDbCircle
 10
366.0636052442
 20
399.7359224598
 30
0.0
 40
0.2000000000000019
100
AcDbArc
 50
0.0
 51
70.0
  0
ARC
  5
AF
330
1F
100
AcDbEntity
  8
0
  6
Continuous
 62
     7
370
    25
100
AcDbCircle
 10
366.0636052442
 20
392.5489622419
 30
0.0
 40
0.2000000000000455
100
AcDbArc
 50
290.0
 51
0.0
  0
LINE
  5
B0
330
1F
100
AcDbEntity
  8
0
  6
Continuous
 62
     7
370
    25
100
AcDbLine
 10
366.2636058337
 20
392.5489622923
 30
0.0
 11
366.2636058337
 21
399.7359189959
 31
0.0
  0
LINE
  5
B1
330
1F
100
AcDbEntity
  8
0
  6
Continuous
 62
     7
370
    25
100
AcDbLine
 10
461.3073376871
 20
381.2472808929
 30
0.0
 11
460.10649781
 21
381.3045907589
 31
0.0
  0
LINE
  5
B2
330
1F
100
AcDbEntity
  8
0
  6
Continuous
 62
     7
370
    25
100
AcDbLine
 10
321.5051164783
 20
404.9743104549
 30
0.0
 11
321.4265556938
 21
404.5850548716
 31
0.0
  0
LINE
  5
B3
330
1F
100
AcDbEntity
  8
0
  6
Continuous
 62
     7
370
    25
100
AcDbLine
 10
365.5079325593
 20
283.2825396033
 30
0.0
 11
365.5079660869
 21
316.1225382062
 31
0.0
  0
SPLINE
  5
B4
330
1F
100
AcDbEntity
  8
0
  6
Continuous
 62
     7
370
    25
100
AcDbSpline
210
0.0
220
0.0
230
1.0
 70
    24
 71
     3
 72
    23
 73
    19
 74
     0
 42
0.000000001
 43
0.00000001
 40
0.7822437780977693
 40
0.7822437780977693
 40
0.7822437780977693
 40
0.7822437780977693
 40
0.817524248647584
 40
0.8528047191973984
 40
0.8704449544723056
 40
0.8880851897472128
 40
0.9057254250221201
 40
0.9233656602970273
 40
0.9586461308468417
 40
0.9939266013966563
 40
1.029207071946471
 40
1.064487542496285
 40
1.064487542496285
 40
1.064487542496285
 40
1.118926597983685
 40
1.173365653471084
 40
1.227804708958484
 40
1.282243764398516
 40
1.282243764398516
 40
1.282243764398516
 40
1.282243764398516
 10
317.3492909831498
 20
283.2825396033024
 30
0.0
 10
317.3492909831498
 20
283.2825396033024
 30
0.0
 10
317.7185641926582
 20
283.2825396033024
 30
0.0
 10
319.123869079454
 20
283.2825396033024
 30
0.0
 10
320.8039767692011
 20
283.2825396033024
 30
0.0
 10
322.331048368789
 20
283.2825396033025
 30
0.0
 10
324.1108749348152
 20
283.2825396033024
 30
0.0
 10
326.7874793496178
 20
283.2825396033025
 30
0.0
 10
330.6283758786931
 20
283.2825396033024
 30
0.0
 10
335.7483300503028
 20
283.2825396033026
 30
0.0
 10
341.1092785773262
 20
283.2825396033025
 30
0.0
 10
344.6783420024835
 20
283.2825396033026
 30
0.0
 10
346.4192706295166
 20
283.2825396033026
 30
0.0
 10
349.1055871284089
 20
283.2825396033026
 30
0.0
 10
354.2709021352716
 20
283.2825396033026
 30
0.0
 10
360.5209884370061
 20
283.2825396033026
 30
0.0
 10
364.5728931307625
 20
283.2825396033026
 30
0.0
 10
365.5079319085591
 20
283.2825396033027
 30
0.0
 10
365.5079318881922
 20
283.2825396033027
 30
0.0
  0
LINE
  5
B5
330
1F
100
AcDbEntity
  8
0
  6
Continuous
 62
     7
370
    25
100
AcDbLine
 10
319.0853448517
 20
379.5546430917
 30
0.0
 11
317.3492906547
 21
283.2825396033
 31
0.0
  0
SPLINE
  5
B6
330
1F
100
AcDbEntity
  8
0
  6
Continuous
 62
     7
370
    25
100
AcDbSpline
210
0.0
220
0.0
230
1.0
 70
     8
 71
     3
 72
    18
 73
    14
 74
     0
 42
0.000000001
 43
0.00000001
 40
0.0
 40
0.0
 40
0.0
 40
0.0
 40
0.1127224177251234
 40
0.1804843032623311
 40
0.2488081808703396
 40
0.3341197077724128
 40
0.4215605708432745
 40
0.5070402568875461
 40
0.5953980703515888
 40
0.6940327341358232
 40
0.7955052410016168
 40
0.8969193451753577
 40
1.0
 40
1.0
 40
1.0
 40
1.0
 10
320.3856499797899
 20
380.9217799277998
 30
0.0
 10
320.4303943118786
 20
380.9215749527174
 30
0.0
 10
320.5020362245073
 20
380.9212467590389
 30
0.0
 10
321.0262494429708
 20
380.9207557195966
 30
0.0
 10
321.7019824573759
 20
380.9209209839784
 30
0.0
 10
322.7667824709328
 20
380.9206272835654
 30
0.0
 10
324.3370614526967
 20
380.9190502958088
 30
0.0
 10
326.3644378421577
 20
380.9179377815608
 30
0.0
 10
328.8732972097191
 20
380.915910137371
 30
0.0
 10
331.8503379551914
 20
380.9114246202657
 30
0.0
 10
335.1742041996211
 20
380.9068720795973
 30
0.0
 10
338.6579340204893
 20
380.9025675504982
 30
0.0
 10
341.0177616069554
 20
380.9016444062181
 30
0.0
 10
342.2072912265781
 20
380.9011790724493
 30
0.0
  0
ARC
  5
B7
330
1F
100
AcDbEntity
  8
0
  6
Continuous
 62
     7
370
    25
100
AcDbCircle
 10
320.4851177702
 20
379.5293995891
 30
0.0
 40
1.400000000000087
100
AcDbArc
 50
95.9354157106
 51
178.9669093514
  0
SPLINE
  5
B8
330
1F
100
AcDbEntity
  8
0
  6
Continuous
 62
     7
370
    25
100
AcDbSpline
210
0.0
220
0.0
230
1.0
 70
     8
 71
     3
 72
    22
 73
    18
 74
     0
 42
0.000000001
 43
0.00000001
 40
0.0
 40
0.0
 40
0.0
 40
0.0
 40
0.125
 40
0.187590640463716
 40
0.25
 40
0.3126362218439325
 40
0.375
 40
0.4389352278364316
 40
0.5
 40
0.5626105898471432
 40
0.625
 40
0.6875142231777363
 40
0.75
 40
0.8122341967129413
 40
0.875
 40
0.9373977961596606
 40
1.0
 40
1.0
 40
1.0
 40
1.0
 10
365.5079666948617
 20
316.1225396033026
 30
0.0
 10
365.5079806509205
 20
319.0875976451932
 30
0.0
 10
365.5174572428713
 20
323.5359725029486
 30
0.0
 10
366.0004884813203
 20
329.177822122153
 30
0.0
 10
366.6613543999147
 20
333.2095356311094
 30
0.0
 10
367.6821902471913
 20
336.9744618646275
 30
0.0
 10
369.0971095068132
 20
340.4622571678457
 30
0.0
 10
370.9086732965241
 20
343.5687807475678
 30
0.0
 10
373.1167203630405
 20
346.3065245699593
 30
0.0
 10
375.6830251514652
 20
348.6334123483734
 30
0.0
 10
378.6185786100584
 20
350.5841475553593
 30
0.0
 10
381.8666448086825
 20
352.1409680413114
 30
0.0
 10
385.3773436839479
 20
353.3338425082358
 30
0.0
 10
389.1085293092299
 20
354.1957598997641
 30
0.0
 10
392.9988203271725
 20
354.7868195468645
 30
0.0
 10
397.0019304644614
 20
355.1710157040215
 30
0.0
 10
399.7012831703165
 20
355.3551998729433
 30
0.0
 10
401.0529575707793
 20
355.4463311261339
 30
0.0
  0
SPLINE
  5
B9
330
1F
100
AcDbEntity
  8
0
  6
Continuous
 62
     7
370
    25
100
AcDbSpline
210
0.0
220
0.0
230
1.0
 70
    24
 71
     3
 72
     8
 73
     4
 74
     0
 42
0.000000001
 43
0.00000001
 40
0.0
 40
0.0
 40
0.0
 40
0.0
 40
1.0
 40
1.0
 40
1.0
 40
1.0
 10
357.5556116094966
 20
384.042442350856
 30
0.0
 10
356.4776781105191
 20
384.042442350856
 30
0.0
 10
355.3220454634257
 20
384.0424423508559
 30
0.0
 10
354.0901155410572
 20
384.0424423508559
 30
0.0
  0
SPLINE
  5
BA
330
1F
100
AcDbEntity
  8
0
  6
Continuous
 62
     7
370
    25
100
AcDbSpline
210
0.0
220
0.0
230
1.0
 70
     8
 71
     3
 72
    14
 73
    10
 74
     0
 42
0.000000001
 43
0.00000001
 40
0.0
 40
0.0
 40
0.0
 40
0.0
 40
0.2500000000000001
 40
0.2500000000000001
 40
0.3749999999999998
 40
0.3749999999999998
 40
0.4999999999999997
 40
0.4999999999999997
 40
1.0
 40
1.0
 40
1.0
 40
1.0
 10
354.0901155410572
 20
384.042442350856
 30
0.0
 10
353.2880575146624
 20
384.042442350856
 30
0.0
 10
352.4646398696891
 20
384.0745780551884
 30
0.0
 10
351.2005204126253
 20
384.1789361033607
 30
0.0
 10
350.7742920096213
 20
384.2230862257642
 30
0.0
 10
349.9123355747386
 20
384.3315884425669
 30
0.0
 10
349.477141363928
 20
384.3959521795323
 30
0.0
 10
347.3067612565437
 20
384.7663656251952
 30
0.0
 10
345.5662748413093
 20
385.2195334729137
 30
0.0
 10
343.8295112412872
 20
385.8516637272788
 30
0.0
  0
SPLINE
  5
BB
330
1F
100
AcDbEntity
  8
0
  6
Continuous
 62
     7
370
    25
100
AcDbSpline
210
0.0
220
0.0
230
1.0
 70
    24
 71
     3
 72
     8
 73
     4
 74
     0
 42
0.000000001
 43
0.00000001
 40
0.0
 40
0.0
 40
0.0
 40
0.0
 40
1.0
 40
1.0
 40
1.0
 40
1.0
 10
343.8295112412872
 20
385.8516637272788
 30
0.0
 10
343.3194323419856
 20
386.0373172637517
 30
0.0
 10
342.8087358930666
 20
386.2231955699189
 30
0.0
 10
342.2974284244997
 20
386.4092962690352
 30
0.0
  0
SPLINE
  5
BC
330
1F
100
AcDbEntity
  8
0
  6
Continuous
 62
     7
370
    25
100
AcDbSpline
210
0.0
220
0.0
230
1.0
 70
     8
 71
     3
 72
     8
 73
     4
 74
     0
 42
0.000000001
 43
0.00000001
 40
0.0013999840203585
 40
0.0013999840203585
 40
0.0013999840203585
 40
0.0013999840203585
 40
0.6262686277567391
 40
0.6262686277567391
 40
0.6262686277567391
 40
0.6262686277567391
 10
323.3726420093465
 20
414.4632836104296
 30
0.0
 10
322.0604204294008
 20
408.1089973142549
 30
0.0
 10
320.7493467911686
 20
401.752801589415
 30
0.0
 10
319.9517932155299
 20
394.5424423508558
 30
0.0
  0
SPLINE
  5
BD
330
1F
100
AcDbEntity
  8
0
  6
Continuous
 62
     7
370
    25
100
AcDbSpline
210
0.0
220
0.0
230
1.0
 70
     8
 71
     3
 72
    38
 73
    34
 74
     0
 42
0.000000001
 43
0.00000001
 40
0.0
 40
0.0
 40
0.0
 40
0.0
 40
0.1250000000000002
 40
0.1250000000000002
 40
0.1875000000000003
 40
0.1875000000000003
 40
0.2500000000000004
 40
0.2500000000000004
 40
0.2812500000000004
 40
0.2812500000000004
 40
0.3125000000000005
 40
0.3125000000000005
 40
0.3750000000000007
 40
0.3750000000000007
 40
0.4375000000000009
 40
0.4375000000000009
 40
0.4687500000000009
 40
0.4687500000000009
 40
0.500000000000001
 40
0.500000000000001
 40
0.5625000000000011
 40
0.5625000000000011
 40
0.5937500000000011
 40
0.5937500000000011
 40
0.625000000000001
 40
0.625000000000001
 40
0.7500000000000006
 40
0.7500000000000006
 40
0.8125000000000004
 40
0.8125000000000004
 40
0.8750000000000002
 40
0.8750000000000002
 40
1.0
 40
1.0
 40
1.0
 40
1.0
 10
319.9517932153164
 20
394.5424423528972
 30
0.0
 10
319.9517635992207
 20
394.5424531322745
 30
0.0
 10
320.0384767514523
 20
394.5108921239791
 30
0.0
 10
320.3270787247342
 20
394.405849596154
 30
0.0
 10
320.4497542125204
 20
394.3611993701257
 30
0.0
 10
320.7526858887672
 20
394.2509412569556
 30
0.0
 10
320.9316396476409
 20
394.1858074154155
 30
0.0
 10
321.2494510624042
 20
394.0701335203316
 30
0.0
 10
321.3641947477099
 20
394.0283702343103
 30
0.0
 10
321.6141389748494
 20
393.9373979754048
 30
0.0
 10
321.7497655718678
 20
393.8880339311153
 30
0.0
 10
322.1891771215462
 20
393.7281012064396
 30
0.0
 10
322.5223818987412
 20
393.6068245856254
 30
0.0
 10
323.2753727111202
 20
393.3327583432435
 30
0.0
 10
323.6955884700677
 20
393.179812315017
 30
0.0
 10
324.3951236235882
 20
392.9252023413127
 30
0.0
 10
324.6407379368714
 20
392.8358060421679
 30
0.0
 10
325.1506530903258
 20
392.6502121043092
 30
0.0
 10
325.414148071718
 20
392.5543077742038
 30
0.0
 10
326.2292367819305
 20
392.2576397454001
 30
0.0
 10
326.8051363088769
 20
392.0480294596637
 30
0.0
 10
327.7140439128871
 20
391.7172141461058
 30
0.0
 10
328.0245764072098
 20
391.6041895613998
 30
0.0
 10
328.6602811353947
 20
391.3728119625583
 30
0.0
 10
328.9865530531764
 20
391.2540586962088
 30
0.0
 10
330.6378305933568
 20
390.6530428230708
 30
0.0
 10
332.0182486557219
 20
390.1506117375264
 30
0.0
 10
334.1557979204728
 20
389.3726074308796
 30
0.0
 10
334.8796121839241
 20
389.1091605838459
 30
0.0
 10
336.3470977523117
 20
388.5750395177378
 30
0.0
 10
337.086663333776
 20
388.3058596597969
 30
0.0
 10
339.3080701494375
 20
387.4973337007
 30
0.0
 10
340.7978923506591
 20
386.9550827651408
 30
0.0
 10
342.2974284244997
 20
386.4092962690544
 30
0.0
  0
LINE
  5
BE
330
1F
100
AcDbEntity
  8
0
  6
Continuous
 62
     7
370
    25
100
AcDbLine
 10
438.2129592753
 20
357.9516995521
 30
0.0
 11
401.0529575802
 21
355.4463300677
 31
0.0
  0
SPLINE
  5
BF
330
1F
100
AcDbEntity
  8
0
  6
Continuous
 62
     7
370
    25
100
AcDbSpline
210
0.0
220
0.0
230
1.0
 70
     8
 71
     3
 72
    12
 73
     8
 74
     0
 42
0.000000001
 43
0.00000001
 40
0.0
 40
0.0
 40
0.0
 40
0.0
 40
0.4999999999999987
 40
0.4999999999999987
 40
0.7499999999999993
 40
0.7499999999999993
 40
1.0
 40
1.0
 40
1.0
 40
1.0
 10
439.0529575707902
 20
358.3187428411742
 30
0.0
 10
438.7735672001334
 20
358.1986053150609
 30
0.0
 10
438.5657423812506
 20
358.1069352174223
 30
0.0
 10
438.3554486292122
 20
358.0143249077672
 30
0.0
 10
438.3024011703633
 20
357.9909414968935
 30
0.0
 10
438.2311085698091
 20
357.9596053702009
 30
0.0
 10
438.2129604346865
 20
357.9516960768189
 30
0.0
 10
438.2129604573654
 20
357.9516960501589
 30
0.0
  0
LINE
  5
C0
330
1F
100
AcDbEntity
  8
0
  6
Continuous
 62
     7
370
    25
100
AcDbLine
 10
365.8441586352
 20
410.1278099986
 30
0.0
 11
417.5116179443
 21
411.6612586947
 31
0.0
  0
SPLINE
  5
C1
330
1F
100
AcDbEntity
  8
0
  6
Continuous
 62
     7
370
    25
100
AcDbSpline
210
0.0
220
0.0
230
1.0
 70
     8
 71
     3
 72
     8
 73
     4
 74
     0
 42
0.000000001
 43
0.00000001
 40
0.0668195064649489
 40
0.0668195064649489
 40
0.0668195064649489
 40
0.0668195064649489
 40
0.0775209237419444
 40
0.0775209237419444
 40
0.0775209237419444
 40
0.0775209237419444
 10
320.3403474612479
 20
380.9218943135411
 30
0.0
 10
320.4069941017907
 20
380.9288232121398
 30
0.0
 10
320.473777935762
 20
380.9356722531767
 30
0.0
 10
320.5407009513876
 20
380.9424423508559
 30
0.0
  0
SPLINE
  5
C2
330
1F
100
AcDbEntity
  8
0
  6
Continuous
 62
     7
370
    25
100
AcDbSpline
210
0.0
220
0.0
230
1.0
 70
     8
 71
     3
 72
    30
 73
    26
 74
     0
 42
0.000000001
 43
0.00000001
 40
0.0
 40
0.0
 40
0.0
 40
0.0
 40
0.1250000000000001
 40
0.1250000000000001
 40
0.1875000000000002
 40
0.1875000000000002
 40
0.2500000000000003
 40
0.2500000000000003
 40
0.3750000000000003
 40
0.3750000000000003
 40
0.4375000000000003
 40
0.4375000000000003
 40
0.5000000000000002
 40
0.5000000000000002
 40
0.6250000000000001
 40
0.6250000000000001
 40
0.6875000000000001
 40
0.6875000000000001
 40
0.75
 40
0.75
 40
0.8125
 40
0.8125
 40
0.8750000000000001
 40
0.8750000000000001
 40
1.0
 40
1.0
 40
1.0
 40
1.0
 10
320.5407009513876
 20
380.9424423508559
 30
0.0
 10
320.5407009513876
 20
380.9424423446153
 30
0.0
 10
320.6809922543286
 20
380.9482472576582
 30
0.0
 10
321.0932349798296
 20
380.9620452026256
 30
0.0
 10
321.2645326417403
 20
380.967478651515
 30
0.0
 10
321.6764237753185
 20
380.9791817552508
 30
0.0
 10
321.9182181208438
 20
380.9854716167222
 30
0.0
 10
322.733017071578
 20
381.0036213211532
 30
0.0
 10
323.3978511408299
 20
381.0145397437689
 30
0.0
 10
324.5758264494716
 20
381.0241795964523
 30
0.0
 10
325.0002222091908
 20
381.0263568807501
 30
0.0
 10
325.9058952215947
 20
381.0282945041728
 30
0.0
 10
326.382434053499
 20
381.0280535408417
 30
0.0
 10
327.8809034227971
 20
381.0237963398807
 30
0.0
 10
328.9710386936996
 20
381.0159737471536
 30
0.0
 10
330.746053761762
 20
380.9995090929033
 30
0.0
 10
331.3615395115402
 20
380.9932880635349
 30
0.0
 10
332.6125060622589
 20
380.9805056933014
 30
0.0
 10
333.2512604433498
 20
380.973916521665
 30
0.0
 10
334.5548968679461
 20
380.9611678275231
 30
0.0
 10
335.2197793160826
 20
380.955031571381
 30
0.0
 10
336.5760101630839
 20
380.9437889603193
 30
0.0
 10
337.2702374351243
 20
380.9386448233971
 30
0.0
 10
339.3727873888861
 20
380.9254049099752
 30
0.0
 10
340.7902237642425
 20
380.919545546842
 30
0.0
 10
342.2235029234868
 20
380.9176294535022
 30
0.0
  0
SPLINE
  5
C3
330
1F
100
AcDbEntity
  8
0
  6
Continuous
 62
     7
370
    25
100
AcDbSpline
210
0.0
220
0.0
230
1.0
 70
     8
 71
     3
 72
    20
 73
    16
 74
     0
 42
0.000000001
 43
0.00000001
 40
0.0
 40
0.0
 40
0.0
 40
0.0
 40
0.0426912248457486
 40
0.0861986314503293
 40
0.1305359768900001
 40
0.1757161105833858
 40
0.221750981375718
 40
0.2686513101248043
 40
0.3164260916417656
 40
0.414674952831571
 40
0.5186030431855374
 40
0.618637939778676
 40
0.7259235064572128
 40
0.9369706139745559
 40
0.9999999999999999
 40
0.9999999999999999
 40
0.9999999999999999
 40
0.9999999999999999
 10
460.7590026269589
 20
367.5827367160148
 30
0.0
 10
460.8675594661506
 20
367.7318610132862
 30
0.0
 10
461.0867485619591
 20
368.0329606042965
 30
0.0
 10
461.4080924474353
 20
368.4964942968677
 30
0.0
 10
461.7279526638399
 20
368.9740202855998
 30
0.0
 10
462.0455357922845
 20
369.4661224738571
 30
0.0
 10
462.3610643909014
 20
369.9726323650131
 30
0.0
 10
462.6744960623017
 20
370.4935707532218
 30
0.0
 10
463.0936337527774
 20
371.2140795636255
 30
0.0
 10
463.6167203480121
 20
372.1590149919023
 30
0.0
 10
464.2201320622715
 20
373.3170596156051
 30
0.0
 10
464.8161712278721
 20
374.5225878814803
 30
0.0
 10
465.5882545331406
 20
376.157038345497
 30
0.0
 10
466.2601294207749
 20
377.6616793953747
 30
0.0
 10
466.7323473249024
 20
378.7475885298734
 30
0.0
 10
466.8409433018234
 20
378.9973151121941
 30
0.0
  0
SPLINE
  5
C4
330
1F
100
AcDbEntity
  8
0
  6
Continuous
 62
     7
370
    25
100
AcDbSpline
210
0.0
220
0.0
230
1.0
 70
     8
 71
     3
 72
    54
 73
    50
 74
     0
 42
0.000000001
 43
0.00000001
 40
0.0
 40
0.0
 40
0.0
 40
0.0
 40
0.0625000000000008
 40
0.0625000000000008
 40
0.0937500000000014
 40
0.0937500000000014
 40
0.1250000000000019
 40
0.1250000000000019
 40
0.1875000000000031
 40
0.1875000000000031
 40
0.2187500000000041
 40
0.2187500000000041
 40
0.2500000000000051
 40
0.2500000000000051
 40
0.3125000000000057
 40
0.3125000000000057
 40
0.3437500000000055
 40
0.3437500000000055
 40
0.3750000000000053
 40
0.3750000000000053
 40
0.4375000000000049
 40
0.4375000000000049
 40
0.4687500000000047
 40
0.4687500000000047
 40
0.5000000000000044
 40
0.5000000000000044
 40
0.5625000000000029
 40
0.5625000000000029
 40
0.5937500000000022
 40
0.5937500000000022
 40
0.6250000000000014
 40
0.6250000000000014
 40
0.6875000000000009
 40
0.6875000000000009
 40
0.7187500000000011
 40
0.7187500000000011
 40
0.7500000000000012
 40
0.7500000000000012
 40
0.7812500000000014
 40
0.7812500000000014
 40
0.8125000000000017
 40
0.8125000000000017
 40
0.875000000000001
 40
0.875000000000001
 40
0.9062500000000007
 40
0.9062500000000007
 40
0.9375000000000004
 40
0.9375000000000004
 40
1.0
 40
1.0
 40
1.0
 40
1.0
 10
439.0529611491491
 20
358.3186595653938
 30
0.0
 10
439.2984707439363
 20
358.4240034384637
 30
0.0
 10
439.5939968416014
 20
358.5501033284419
 30
0.0
 10
440.1135251717819
 20
358.7694082320749
 30
0.0
 10
440.3004430816126
 20
358.8479506126417
 30
0.0
 10
440.6959581326647
 20
359.0129744070264
 30
0.0
 10
440.9039618051918
 20
359.0992118205529
 30
0.0
 10
441.5582332980565
 20
359.3679634180594
 30
0.0
 10
442.03450287509
 20
359.5605370123724
 30
0.0
 10
442.8118129044843
 20
359.8649320602669
 30
0.0
 10
443.0828905625219
 20
359.9695215271709
 30
0.0
 10
443.6384987440048
 20
360.179785601902
 30
0.0
 10
443.9230985056204
 20
360.2855053147644
 30
0.0
 10
444.7972747520564
 20
360.60298195023
 30
0.0
 10
445.4071257777243
 20
360.8149277371697
 30
0.0
 10
446.3646478655169
 20
361.1290837494996
 30
0.0
 10
446.6924598346984
 20
361.2336430924805
 30
0.0
 10
447.3508661072694
 20
361.4376862858783
 30
0.0
 10
447.6823902175874
 20
361.5374988289557
 30
0.0
 10
448.6835433122096
 20
361.8311861889687
 30
0.0
 10
449.3598091878873
 20
362.018983740103
 30
0.0
 10
450.3850730622296
 20
362.2975262912577
 30
0.0
 10
450.7292094869617
 20
362.3900910494422
 30
0.0
 10
451.4074742114491
 20
362.5732325296834
 30
0.0
 10
451.7432010283414
 20
362.6642421833232
 30
0.0
 10
452.7391577979017
 20
362.939670219211
 30
0.0
 10
453.3882551163892
 20
363.1264856528688
 30
0.0
 10
454.3336384536125
 20
363.4289417572617
 30
0.0
 10
454.6434853605583
 20
363.533391466006
 30
0.0
 10
455.239475236856
 20
363.7473853092001
 30
0.0
 10
455.5273538306719
 20
363.8574698822013
 30
0.0
 10
456.3604083786751
 20
364.1987978703242
 30
0.0
 10
456.8750268406371
 20
364.4415301585927
 30
0.0
 10
457.5842847011902
 20
364.8287296417638
 30
0.0
 10
457.8086222910999
 20
364.9607242391498
 30
0.0
 10
458.2284785929396
 20
365.2252738369488
 30
0.0
 10
458.4250121404916
 20
365.3583749908085
 30
0.0
 10
458.7930332808293
 20
365.6239969385564
 30
0.0
 10
458.9645205516661
 20
365.7565188582276
 30
0.0
 10
459.2838143846141
 20
366.0181238592884
 30
0.0
 10
459.4321766867362
 20
366.147732355767
 30
0.0
 10
459.8386769746458
 20
366.5218628912137
 30
0.0
 10
460.0582195361285
 20
366.7510584177496
 30
0.0
 10
460.3214179274215
 20
367.0440184244541
 30
0.0
 10
460.3980380428192
 20
367.1331660545692
 30
0.0
 10
460.5297506572226
 20
367.2906192655933
 30
0.0
 10
460.5849946038575
 20
367.3591164160895
 30
0.0
 10
460.7161635382027
 20
367.5245623570514
 30
0.0
 10
460.7591303849055
 20
367.5823842067589
 30
0.0
 10
460.7590026547427
 20
367.5827367537482
 30
0.0
  0
LINE
  5
C5
330
1F
100
AcDbEntity
  8
0
  6
Continuous
 62
     7
370
    25
100
AcDbLine
 10
450.7126418806
 20
381.4618427129
 30
0.0
 11
450.7126418806
 21
381.470954773
 31
0.0
  0
SPLINE
  5
C6
330
1F
100
AcDbEntity
  8
0
  6
Continuous
 62
     7
370
    25
100
AcDbSpline
210
0.0
220
0.0
230
1.0
 70
     8
 71
     3
 72
    33
 73
    29
 74
     0
 42
0.000000001
 43
0.00000001
 40
0.0
 40
0.0
 40
0.0
 40
0.0
 40
0.1250000000000002
 40
0.1250000000000002
 40
0.1875000000000004
 40
0.1875000000000004
 40
0.2500000000000006
 40
0.2500000000000006
 40
0.3750000000000009
 40
0.3750000000000009
 40
0.4062500000000009
 40
0.4062500000000009
 40
0.437500000000001
 40
0.437500000000001
 40
0.5000000000000013
 40
0.5000000000000013
 40
0.6250000000000017
 40
0.6250000000000017
 40
0.6562500000000016
 40
0.6562500000000016
 40
0.6875000000000013
 40
0.6875000000000013
 40
0.7500000000000011
 40
0.8125000000000009
 40
0.8125000000000009
 40
0.8750000000000006
 40
0.8750000000000006
 40
1.0
 40
1.0
 40
1.0
 40
1.0
 10
364.0407009513842
 20
381.5093287235994
 30
0.0
 10
364.0407017433828
 20
381.5093287563652
 30
0.0
 10
363.8995662466634
 20
381.5034643019541
 30
0.0
 10
363.4839935363912
 20
381.4862986087144
 30
0.0
 10
363.3112400257223
 20
381.4791734014947
 30
0.0
 10
362.8955607938121
 20
381.4620949312847
 30
0.0
 10
362.6519357875187
 20
381.4521133556632
 30
0.0
 10
361.831459483588
 20
381.4186835530087
 30
0.0
 10
361.161754132687
 20
381.3915857192607
 30
0.0
 10
360.171927134998
 20
381.3524229177689
 30
0.0
 10
359.9662580875327
 20
381.3443254130804
 30
0.0
 10
359.5392476519838
 20
381.3276190097667
 30
0.0
 10
359.317288251481
 20
381.3189863847816
 30
0.0
 10
358.6341293224482
 20
381.2926144365454
 30
0.0
 10
358.1547272313015
 20
381.2743602750075
 30
0.0
 10
356.6466999108333
 20
381.2181301937301
 30
0.0
 10
355.5489266480982
 20
381.178606251517
 30
0.0
 10
354.0577630569704
 20
381.129257183844
 30
0.0
 10
353.7530388529413
 20
381.1193822859666
 30
0.0
 10
353.1381574517723
 20
381.0999588859028
 30
0.0
 10
352.8272573931652
 20
381.0903850827705
 30
0.0
 10
351.8843530672746
 20
381.0622234309538
 30
0.0
 10
350.5999845455092
 20
381.0261558192582
 30
0.0
 10
349.2619220440397
 20
380.9948573268105
 30
0.0
 10
347.8965419966648
 20
380.9670081050075
 30
0.0
 10
347.1967953932541
 20
380.9547725088816
 30
0.0
 10
345.0859667331496
 20
380.9253908774812
 30
0.0
 10
343.6628000789005
 20
380.9156410680908
 30
0.0
 10
342.2235029234868
 20
380.9176294535022
 30
0.0
  0
LWPOLYLINE
  5
C7
330
1F
100
AcDbEntity
  8
0
  6
Continuous
 62
     7
370
    25
100
AcDbPolyline
 90
        3
 70
   128
 43
0.0
 10
450.7126418806
 20
381.470954773
 10
399.7391221977
 20
381.4935225816
 10
364.0407008982
 20
381.5093252631
  0
LINE
  5
C8
330
1F
100
AcDbEntity
  8
0
  6
Continuous
 62
     7
370
    25
100
AcDbLine
 10
430.2681742168
 20
415.5718747349
 30
0.0
 11
430.2706031061
 21
415.5719939442
 31
0.0
  0
LINE
  5
C9
330
1F
100
AcDbEntity
  8
0
  6
Continuous
 62
     7
370
    25
100
AcDbLine
 10
430.2706031061
 20
415.5719939442
 30
0.0
 11
430.2360100604
 21
415.8048543902
 31
0.0
  0
SPLINE
  5
CA
330
1F
100
AcDbEntity
  8
0
  6
Continuous
 62
     7
370
    25
100
AcDbSpline
210
0.0
220
0.0
230
1.0
 70
    24
 71
     3
 72
    15
 73
    11
 74
     0
 42
0.000000001
 43
0.00000001
 40
0.0
 40
0.0
 40
0.0
 40
0.0
 40
0.2499999999999999
 40
0.2499999999999999
 40
0.4999999999999999
 40
0.4999999999999999
 40
0.7499999999999998
 40
0.7499999999999998
 40
0.8124999999999998
 40
1.0
 40
1.0
 40
1.0
 40
1.0
 10
417.5116208578057
 20
411.6612588060583
 30
0.0
 10
418.5938303029006
 20
411.6933780325602
 30
0.0
 10
419.6230207335084
 20
411.7239236914474
 30
0.0
 10
421.4931063996
 20
411.7794265382941
 30
0.0
 10
422.3340016350838
 20
411.8043837262537
 30
0.0
 10
423.7452397447776
 20
411.8462682955474
 30
0.0
 10
424.3155826189877
 20
411.8631956768815
 30
0.0
 10
424.8080052571106
 20
411.8778104395971
 30
0.0
 10
425.157842176681
 20
411.8881933569789
 30
0.0
 10
425.3209921867709
 20
411.893035536237
 30
0.0
 10
425.3209921867709
 20
411.893035536237
 30
0.0
  0
LINE
  5
CB
330
1F
100
AcDbEntity
  8
0
  6
Continuous
 62
     7
370
    25
100
AcDbLine
 10
417.4672944403
 20
417.1555552455
 30
0.0
 11
342.2959924841
 21
416.3683418008
 31
0.0
  0
LINE
  5
CC
330
1F
100
AcDbEntity
  8
0
  6
Continuous
 62
     7
370
    25
100
AcDbLine
 10
324.6998751468
 20
415.6791928979
 30
0.0
 11
325.1246681369
 21
415.7145533534
 31
0.0
  0
SPLINE
  5
CD
330
1F
100
AcDbEntity
  8
0
  6
Continuous
 62
     7
370
    25
100
AcDbSpline
210
0.0
220
0.0
230
1.0
 70
     8
 71
     3
 72
     9
 73
     5
 74
     0
 42
0.000000001
 43
0.00000001
 40
0.0
 40
0.0
 40
0.0
 40
0.0
 40
0.688195170170161
 40
1.0
 40
1.0
 40
1.0
 40
1.0
 10
329.1457706994612
 20
416.0450611086584
 30
0.0
 10
330.7508055017559
 20
416.1206858763987
 30
0.0
 10
333.083043320132
 20
416.2305744240348
 30
0.0
 10
335.417415712821
 20
416.2689394015789
 30
0.0
 10
336.1452842994828
 20
416.2809017868734
 30
0.0
  0
LINE
  5
CE
330
1F
100
AcDbEntity
  8
0
  6
Continuous
 62
     7
370
    25
100
AcDbLine
 10
365.5808364905
 20
392.1641025515
 30
0.0
 11
365.5314614929
 21
392.4375537606
 31
0.0
  0
SPLINE
  5
CF
330
1F
100
AcDbEntity
  8
0
  6
Continuous
 62
     7
370
    25
100
AcDbSpline
210
0.0
220
0.0
230
1.0
 70
     8
 71
     3
 72
     9
 73
     5
 74
     0
 42
0.000000001
 43
0.00000001
 40
0.0
 40
0.0
 40
0.0
 40
0.0
 40
0.9920371066193149
 40
1.0
 40
1.0
 40
1.0
 40
1.0
 10
365.5314614928562
 20
399.8499426813818
 30
0.0
 10
365.5645276155266
 20
400.0313813020512
 30
0.0
 10
365.5978591536814
 20
400.2142762960577
 30
0.0
 10
365.5811964167777
 20
400.1227887421605
 30
0.0
 10
365.5810637331803
 20
400.1220602365232
 30
0.0
  0
SPLINE
  5
D0
330
1F
100
AcDbEntity
  8
0
  6
Continuous
 62
     7
370
    25
100
AcDbSpline
210
0.0
220
0.0
230
1.0
 70
     8
 71
     3
 72
    32
 73
    28
 74
     0
 42
0.000000001
 43
0.00000001
 40
0.0
 40
0.0
 40
0.0
 40
0.0
 40
0.1249999999999957
 40
0.1249999999999957
 40
0.187499999999995
 40
0.187499999999995
 40
0.2499999999999942
 40
0.2499999999999942
 40
0.3124999999999934
 40
0.3124999999999934
 40
0.3749999999999927
 40
0.3749999999999927
 40
0.437499999999992
 40
0.437499999999992
 40
0.4999999999999912
 40
0.4999999999999912
 40
0.6249999999999941
 40
0.6249999999999941
 40
0.6874999999999956
 40
0.6874999999999956
 40
0.749999999999997
 40
0.749999999999997
 40
0.8124999999999984
 40
0.8124999999999984
 40
0.8749999999999998
 40
0.8749999999999998
 40
1.0
 40
1.0
 40
1.0
 40
1.0
 10
365.5314619029065
 20
392.4375513838812
 30
0.0
 10
365.5069697231324
 20
392.5880012892149
 30
0.0
 10
365.4756587555407
 20
392.7885811678076
 30
0.0
 10
365.4244630209208
 20
393.1630511986709
 30
0.0
 10
365.4067344975544
 20
393.3002374187536
 30
0.0
 10
365.372132819118
 20
393.5907732630237
 30
0.0
 10
365.3551154474498
 20
393.7451206134251
 30
0.0
 10
365.3227459270391
 20
394.0721646034222
 30
0.0
 10
365.3072971818032
 20
394.2463306590005
 30
0.0
 10
365.2800188105582
 20
394.6033273608577
 30
0.0
 10
365.2680955011112
 20
394.7867839603233
 30
0.0
 10
365.2484316216522
 20
395.1635503800193
 30
0.0
 10
365.2406597179912
 20
395.3580544579212
 30
0.0
 10
365.230210646589
 20
395.7520451324057
 30
0.0
 10
365.2275689623315
 20
395.9490690552034
 30
0.0
 10
365.2274238932943
 20
396.5402240876172
 30
0.0
 10
365.2382125819386
 20
396.940245866854
 30
0.0
 10
365.2675378429017
 20
397.5052275379484
 30
0.0
 10
365.279429135078
 20
397.6887273982817
 30
0.0
 10
365.3067131073465
 20
398.0459697540732
 30
0.0
 10
365.3221457968797
 20
398.2196989369328
 30
0.0
 10
365.3545252990834
 20
398.5460351243264
 30
0.0
 10
365.3715824683794
 20
398.7001965821088
 30
0.0
 10
365.4063298142477
 20
398.9905790411247
 30
0.0
 10
365.4241640981231
 20
399.1277601509178
 30
0.0
 10
365.4754315469112
 20
399.5003292904653
 30
0.0
 10
365.5068652820378
 20
399.7001346103303
 30
0.0
 10
365.5314619029029
 20
399.8499437501025
 30
0.0
  0
SPLINE
  5
D1
330
1F
100
AcDbEntity
  8
0
  6
Continuous
 62
     7
370
    25
100
AcDbSpline
210
0.0
220
0.0
230
1.0
 70
    24
 71
     3
 72
    13
 73
     9
 74
     0
 42
0.000000001
 43
0.00000001
 40
0.0
 40
0.0
 40
0.0
 40
0.0
 40
0.1550276767953039
 40
0.3485314066902186
 40
0.5476569771503907
 40
0.740882200950522
 40
0.9396957825052694
 40
1.0
 40
1.0
 40
1.0
 40
1.0
 10
365.5231298811037
 20
384.0424407096601
 30
0.0
 10
365.5069663638427
 20
384.0424407096601
 30
0.0
 10
365.4706277337058
 20
384.0424407096601
 30
0.0
 10
364.6325527910801
 20
384.0424407096601
 30
0.0
 10
363.1866456648384
 20
384.0424407096601
 30
0.0
 10
361.1135081233028
 20
384.0424407096601
 30
0.0
 10
359.1343826695054
 20
384.0424407096601
 30
0.0
 10
357.853866570372
 20
384.0424407096601
 30
0.0
 10
357.5558533824284
 20
384.0424407096601
 30
0.0
  0
LINE
  5
D2
330
1F
100
AcDbEntity
  8
0
  6
Continuous
 62
     7
370
    25
100
AcDbLine
 10
438.2129592753
 20
357.9516995521
 30
0.0
 11
438.2433203913
 21
357.9649988385
 31
0.0
  0
LINE
  5
D3
330
1F
100
AcDbEntity
  8
0
  6
Continuous
 62
     7
370
    25
100
AcDbLine
 10
446.4585838772
 20
357.2714242907
 30
0.0
 11
445.2320171452
 21
360.4667398902
 31
0.0
  0
LWPOLYLINE
  5
D4
330
1F
100
AcDbEntity
  8
0
  6
Continuous
 62
     7
370
    25
100
AcDbPolyline
 90
       10
 70
   128
 43
0.0
 10
446.4585838772
 20
357.2714242907
 10
445.1034797288
 20
356.7512471052
 10
443.8567591763
 20
356.2726739617
 10
442.7416009761
 20
355.8446083041
 10
441.7787326432
 20
355.4749924513
 10
440.9860430218
 20
355.1707107397
 10
440.3782619096
 20
354.9374032589
 10
439.9666918374
 20
354.7794211479
 10
439.7589696503
 20
354.6996850343
 10
439.73291497
 20
354.6896789046
  0
LWPOLYLINE
  5
D5
330
1F
100
AcDbEntity
  8
0
  6
Continuous
 62
     7
370
    25
100
AcDbPolyline
 90
       10
 70
   128
 43
0.0
 10
462.1388448335
 20
363.2905099364
 10
462.1127901531
 20
363.2805112572
 10
461.9050754166
 20
363.2007751437
 10
461.4935053445
 20
363.0427855821
 10
460.8857242323
 20
362.8094855519
 10
460.0930346108
 20
362.5051963897
 10
459.1301588274
 20
362.1355879875
 10
458.0150080777
 20
361.7075148793
 10
456.7682875253
 20
361.2289491864
 10
455.4131759263
 20
360.7087720009
  0
LINE
  5
D6
330
1F
100
AcDbEntity
  8
0
  6
Continuous
 62
     7
370
    25
100
AcDbLine
 10
454.3634338237
 20
363.4434480043
 30
0.0
 11
455.4131759263
 21
360.7087720009
 31
0.0
  0
LWPOLYLINE
  5
D7
330
1F
100
AcDbEntity
  8
0
  6
Continuous
 62
     7
370
    25
100
AcDbPolyline
 90
        5
 70
   128
 43
0.0
 10
445.2320171452
 20
360.4667398902
 10
446.3093263961
 20
360.8802843662
 10
447.4225176431
 20
361.3075975152
 10
448.5598487712
 20
361.7441791864
 10
448.9919153906
 20
361.9100291105
  0
LWPOLYLINE
  5
D8
330
1F
100
AcDbEntity
  8
0
  6
Continuous
 62
     7
370
    25
100
AcDbPolyline
 90
       12
 70
   128
 43
0.0
 10
461.4121673561
 20
362.3931396576
 10
461.3076431609
 20
362.3530182811
 10
460.9961865402
 20
362.2334588142
 10
460.4841453887
 20
362.0369050475
 10
459.7819430686
 20
361.7673579427
 10
458.9038697935
 20
361.4302936764
 10
457.8677995063
 20
361.0325891348
 10
456.6948322512
 20
360.5823281975
 10
455.4088396884
 20
360.0886825295
 10
454.0360031582
 20
359.5616955133
 10
452.6042697883
 20
359.0121034356
 10
451.1427862502
 20
358.4510970684
  0
SPLINE
  5
D9
330
1F
100
AcDbEntity
  8
0
  6
Continuous
 62
     7
370
    25
100
AcDbSpline
210
0.0
220
0.0
230
1.0
 70
     8
 71
     3
 72
     8
 73
     4
 74
     0
 42
0.000000001
 43
0.00000001
 40
0.0
 40
0.0
 40
0.0
 40
0.0
 40
1.0
 40
1.0
 40
1.0
 40
1.0
 10
455.4131763224553
 20
360.7087692242298
 30
0.0
 10
454.0680997416663
 20
359.8017426141043
 30
0.0
 10
452.6538034499379
 20
359.0311193688005
 30
0.0
 10
451.1427857156512
 20
358.4510940043072
 30
0.0
  0
SPLINE
  5
DA
330
1F
100
AcDbEntity
  8
0
  6
Continuous
 62
     7
370
    25
100
AcDbSpline
210
0.0
220
0.0
230
1.0
 70
     8
 71
     3
 72
    10
 73
     6
 74
     0
 42
0.000000001
 43
0.00000001
 40
0.0
 40
0.0
 40
0.0
 40
0.0
 40
0.5
 40
0.5
 40
1.0
 40
1.0
 40
1.0
 40
1.0
 10
451.1427857156512
 20
358.4510940043072
 30
0.0
 10
450.389036357654
 20
358.161756734341
 30
0.0
 10
449.6074736602362
 20
357.9184746535497
 30
0.0
 10
448.0410397378612
 20
357.530388770053
 30
0.0
 10
447.2520307362468
 20
357.3830346095729
 30
0.0
 10
446.4585874445693
 20
357.2714246054812
 30
0.0
  0
LWPOLYLINE
  5
DB
330
1F
100
AcDbEntity
  8
0
  6
Continuous
 62
     7
370
    25
100
AcDbPolyline
 90
       12
 70
   128
 43
0.0
 10
451.1427862502
 20
358.4510970684
 10
449.681302712
 20
357.8900832506
 10
448.2495693422
 20
357.3404911729
 10
446.876732812
 20
356.8135116072
 10
445.5907402492
 20
356.3198659392
 10
444.4177655435
 20
355.869605002
 10
443.3817027069
 20
355.4718930097
 10
442.5036294318
 20
355.1348361941
 10
441.8014271117
 20
354.8652816387
 10
441.2893859602
 20
354.668727872
 10
440.9779293395
 20
354.5491684051
 10
440.8733976937
 20
354.5090470286
  0
LINE
  5
DC
330
1F
100
AcDbEntity
  8
0
  6
Continuous
 62
     7
370
    25
100
AcDbLine
 10
429.0747849203
 20
416.9218454333
 30
0.0
 11
428.9120195366
 21
416.9282827349
 31
0.0
  0
LINE
  5
DD
330
1F
100
AcDbEntity
  8
0
  6
Continuous
 62
     7
370
    25
100
AcDbLine
 10
421.9090623713
 20
417.175850627
 30
0.0
 11
418.718328879
 21
417.1612772914
 31
0.0
  0
SPLINE
  5
DE
330
1F
100
AcDbEntity
  8
0
  6
Continuous
 62
     7
370
    25
100
AcDbSpline
210
0.0
220
0.0
230
1.0
 70
     8
 71
     3
 72
     9
 73
     5
 74
     0
 42
0.000000001
 43
0.00000001
 40
0.0
 40
0.0
 40
0.0
 40
0.0
 40
0.0000670444284738
 40
1.0
 40
1.0
 40
1.0
 40
1.0
 10
465.5963240123589
 20
380.9594947667814
 30
0.0
 10
465.5963240123471
 20
380.9594947667824
 30
0.0
 10
465.5963238370644
 20
380.9594947815478
 30
0.0
 10
465.6041733745045
 20
380.9588391010922
 30
0.0
 10
465.6120223856766
 20
380.9581834645963
 30
0.0
  0
SPLINE
  5
DF
330
1F
100
AcDbEntity
  8
0
  6
Continuous
 62
     7
370
    25
100
AcDbSpline
210
0.0
220
0.0
230
1.0
 70
     8
 71
     3
 72
    15
 73
    11
 74
     0
 42
0.000000001
 43
0.00000001
 40
0.0
 40
0.0
 40
0.0
 40
0.0
 40
0.142400658200271
 40
0.2848038944286075
 40
0.4272047687289532
 40
0.5696066737776752
 40
0.7120094280639289
 40
0.8544118606243989
 40
0.996813179796703
 40
1.0
 40
1.0
 40
1.0
 40
1.0
 10
466.8409360504944
 20
378.9973173113561
 30
0.0
 10
466.8780277902969
 20
379.1019793550963
 30
0.0
 10
466.9522119414124
 20
379.311305337383
 30
0.0
 10
466.9658938730844
 20
379.6472653965263
 30
0.0
 10
466.9057463775602
 20
379.9759486261448
 30
0.0
 10
466.7684079989946
 20
380.2809578296114
 30
0.0
 10
466.5640364399373
 20
380.5474678116104
 30
0.0
 10
466.3008740079294
 20
380.7493050076327
 30
0.0
 10
466.1008677420181
 20
380.8628910285196
 30
0.0
 10
465.9900614268476
 20
380.8850988929962
 30
0.0
 10
465.9876359558899
 20
380.8855850072599
 30
0.0
  0
LINE
  5
E0
330
1F
100
AcDbEntity
  8
0
  6
Continuous
 62
     7
370
    25
100
AcDbLine
 10
465.8840579844
 20
380.9065509411
 30
0.0
 11
465.6699506498
 21
380.949898419
 31
0.0
  0
SPLINE
  5
E1
330
1F
100
AcDbEntity
  8
0
  6
Continuous
 62
     7
370
    25
100
AcDbSpline
210
0.0
220
0.0
230
1.0
 70
     8
 71
     3
 72
     9
 73
     5
 74
     0
 42
0.000000001
 43
0.00000001
 40
0.0
 40
0.0
 40
0.0
 40
0.0
 40
0.5496122892162484
 40
1.0
 40
1.0
 40
1.0
 40
1.0
 10
465.6699506498177
 20
380.9498984189726
 30
0.0
 10
464.4788911774653
 20
381.0413178034012
 30
0.0
 10
462.311800856303
 20
381.2076521198318
 30
0.0
 10
460.1404407873412
 20
381.3023770268874
 30
0.0
 10
459.1624868965943
 20
381.3450399609304
 30
0.0
  0
SPLINE
  5
E2
330
1F
100
AcDbEntity
  8
0
  6
Continuous
 62
     7
370
    25
100
AcDbSpline
210
0.0
220
0.0
230
1.0
 70
     8
 71
     3
 72
     9
 73
     5
 74
     0
 42
0.000000001
 43
0.00000001
 40
0.0
 40
0.0
 40
0.0
 40
0.0
 40
0.1490176889538596
 40
1.0
 40
1.0
 40
1.0
 40
1.0
 10
453.8256732679207
 20
381.4605090590215
 30
0.0
 10
453.6710495738965
 20
381.4623327039626
 30
0.0
 10
452.6334298449253
 20
381.4745704789133
 30
0.0
 10
451.5957170840464
 20
381.4726170805079
 30
0.0
 10
450.7126418805916
 20
381.4709547730184
 30
0.0
  0
LINE
  5
E3
330
1F
100
AcDbEntity
  8
0
  6
Continuous
 62
     7
370
    25
100
AcDbLine
 10
365.5314614929
 20
392.4375537606
 30
0.0
 11
365.5314614929
 21
399.8499426814
 31
0.0
  0
SPLINE
  5
E4
330
1F
100
AcDbEntity
  8
0
  6
Continuous
 62
     8
370
    18
100
AcDbSpline
210
0.0
220
0.0
230
1.0
 70
     8
 71
     3
 72
    36
 73
    32
 74
     0
 42
0.000000001
 43
0.00000001
 40
0.0
 40
0.0
 40
0.0
 40
0.0
 40
0.1250000000000009
 40
0.1250000000000009
 40
0.1875000000000013
 40
0.1875000000000013
 40
0.2500000000000017
 40
0.2500000000000017
 40
0.3750000000000026
 40
0.3750000000000026
 40
0.4062500000000027
 40
0.4062500000000027
 40
0.4375000000000028
 40
0.4375000000000028
 40
0.5000000000000027
 40
0.5000000000000027
 40
0.5625000000000026
 40
0.5625000000000026
 40
0.5937500000000024
 40
0.5937500000000024
 40
0.6250000000000023
 40
0.6250000000000023
 40
0.687500000000002
 40
0.687500000000002
 40
0.7187500000000019
 40
0.7187500000000019
 40
0.7500000000000018
 40
0.7500000000000018
 40
0.8750000000000009
 40
0.8750000000000009
 40
1.0
 40
1.0
 40
1.0
 40
1.0
 10
342.2251628692882
 20
379.5180241815956
 30
0.0
 10
340.6591127291728
 20
379.5184879478668
 30
0.0
 10
339.1071054645727
 20
379.5200460943598
 30
0.0
 10
336.7997739944668
 20
379.5222612548049
 30
0.0
 10
336.0341590540533
 20
379.5229996380553
 30
0.0
 10
334.5103649993617
 20
379.5243143523712
 30
0.0
 10
333.7560304395607
 20
379.524953555623
 30
0.0
 10
331.5431268358293
 20
379.5270107597153
 30
0.0
 10
330.1247383153291
 20
379.5285255480105
 30
0.0
 10
328.4399720955127
 20
379.5300728592271
 30
0.0
 10
328.1063184225749
 20
379.530367107221
 30
0.0
 10
327.4561214692351
 20
379.5309313995365
 30
0.0
 10
327.1393314167891
 20
379.5312017677346
 30
0.0
 10
326.2145170285892
 20
379.53203329613
 30
0.0
 10
325.632253982784
 20
379.5326358852514
 30
0.0
 10
324.5362324719431
 20
379.5340061752287
 30
0.0
 10
324.0226606675484
 20
379.5348066577886
 30
0.0
 10
323.3053259251477
 20
379.536238159669
 30
0.0
 10
323.0761413690137
 20
379.5367545189868
 30
0.0
 10
322.6417732686121
 20
379.5378690736225
 30
0.0
 10
322.435773740711
 20
379.5384615737964
 30
0.0
 10
321.849427206405
 20
379.5402747075241
 30
0.0
 10
321.5007839153732
 20
379.5415456656331
 30
0.0
 10
321.0354326589056
 20
379.5433046860745
 30
0.0
 10
320.8899107225991
 20
379.5438568408754
 30
0.0
 10
320.6172871891747
 20
379.5449197633887
 30
0.0
 10
320.4898881537031
 20
379.5454366694159
 30
0.0
 10
319.9020683081614
 20
379.547988755522
 30
0.0
 10
319.5854393049916
 20
379.5500490843015
 30
0.0
 10
319.1760963640634
 20
379.5533368637428
 30
0.0
 10
319.0853453344127
 20
379.5546413803285
 30
0.0
 10
319.0853453417445
 20
379.5546413879102
 30
0.0
  0
SPLINE
  5
E5
330
1F
100
AcDbEntity
  8
0
  6
Continuous
 62
     8
370
    18
100
AcDbSpline
210
0.0
220
0.0
230
1.0
 70
    24
 71
     3
 72
     9
 73
     5
 74
     0
 42
0.000000001
 43
0.00000001
 40
0.0
 40
0.0
 40
0.0
 40
0.0
 40
0.0000865080249891
 40
1.0
 40
1.0
 40
1.0
 40
1.0
 10
320.3403467244704
 20
380.9218916865087
 30
0.0
 10
320.3403467244138
 20
380.9218916865088
 30
0.0
 10
320.3403460711665
 20
380.9218916881171
 30
0.0
 10
320.3629990053085
 20
380.9218358055413
 30
0.0
 10
320.3856499797899
 20
380.9217799277998
 30
0.0
  0
LWPOLYLINE
  5
E6
330
1F
100
AcDbEntity
  8
0
  6
Continuous
 62
     8
370
    18
100
AcDbPolyline
 90
        5
 70
   128
 43
0.0
 10
342.2439740437
 20
379.5176211568
 10
342.2392460683
 20
379.5176211568
 10
342.2344898039
 20
379.5176286073
 10
342.2297335395
 20
379.5176286073
 10
342.2249772751
 20
379.5176360579
  0
SPLINE
  5
E7
330
1F
100
AcDbEntity
  8
0
  6
Continuous
 62
     8
370
    18
100
AcDbSpline
210
0.0
220
0.0
230
1.0
 70
     8
 71
     3
 72
    12
 73
     8
 74
     0
 42
0.000000001
 43
0.00000001
 40
0.0
 40
0.0
 40
0.0
 40
0.0
 40
0.5000000000000001
 40
0.5000000000000001
 40
0.75
 40
0.75
 40
1.0
 40
1.0
 40
1.0
 40
1.0
 10
378.8763136243006
 20
379.4895498804317
 30
0.0
 10
372.7708897274155
 20
379.4917046039431
 30
0.0
 10
366.6654992876564
 20
379.4972634698889
 30
0.0
 10
357.5073953510903
 20
379.5036377247327
 30
0.0
 10
354.4546945756657
 20
379.5050496246874
 30
0.0
 10
348.3492943347763
 20
379.5099964716726
 30
0.0
 10
345.2966122260278
 20
379.5148765548025
 30
0.0
 10
342.2439740684994
 20
379.517618259206
 30
0.0
  0
SPLINE
  5
E8
330
1F
100
AcDbEntity
  8
0
  6
Continuous
 62
     8
370
    18
100
AcDbSpline
210
0.0
220
0.0
230
1.0
 70
     8
 71
     3
 72
    10
 73
     6
 74
     0
 42
0.000000001
 43
0.00000001
 40
0.0
 40
0.0
 40
0.0
 40
0.0
 40
0.5
 40
0.5
 40
1.0
 40
1.0
 40
1.0
 40
1.0
 10
401.0529575233455
 20
379.4989805341172
 30
0.0
 10
397.3568239601974
 20
379.4992646785681
 30
0.0
 10
393.6606608688205
 20
379.4984287004934
 30
0.0
 10
386.2682928316691
 20
379.4966692025559
 30
0.0
 10
382.5720744524014
 20
379.4985950402197
 30
0.0
 10
378.875932828834
 20
379.4896734979313
 30
0.0
  0
LINE
  5
E9
330
1F
100
AcDbEntity
  8
0
  6
Continuous
 62
     8
370
    18
100
AcDbLine
 10
342.2044082011
 20
380.9012535783
 30
0.0
 11
342.223502875
 21
380.9012535783
 31
0.0
  0
SPLINE
  5
EA
330
1F
100
AcDbEntity
  8
0
  6
Continuous
 62
     8
370
    18
100
AcDbSpline
210
0.0
220
0.0
230
1.0
 70
     8
 71
     3
 72
    10
 73
     6
 74
     0
 42
0.000000001
 43
0.00000001
 40
0.0
 40
0.0
 40
0.0
 40
0.0
 40
0.5
 40
0.5
 40
1.0
 40
1.0
 40
1.0
 40
1.0
 10
342.2235029234868
 20
380.9012541686857
 30
0.0
 10
348.3291650782255
 20
380.9021476698304
 30
0.0
 10
354.4349996010791
 20
380.9020565998362
 30
0.0
 10
366.6465818232606
 20
380.9023687238229
 30
0.0
 10
372.752361922416
 20
380.902587033255
 30
0.0
 10
378.8581736959175
 20
380.9026217180128
 30
0.0
  0
SPLINE
  5
EB
330
1F
100
AcDbEntity
  8
0
  6
Continuous
 62
     8
370
    18
100
AcDbSpline
210
0.0
220
0.0
230
1.0
 70
     8
 71
     3
 72
    24
 73
    20
 74
     0
 42
0.000000001
 43
0.00000001
 40
0.0
 40
0.0
 40
0.0
 40
0.0
 40
0.125
 40
0.125
 40
0.1875000000000001
 40
0.1875000000000001
 40
0.2500000000000001
 40
0.2500000000000001
 40
0.375
 40
0.375
 40
0.5
 40
0.5
 40
0.625
 40
0.625
 40
0.75
 40
0.75
 40
0.8750000000000001
 40
0.8750000000000001
 40
1.0
 40
1.0
 40
1.0
 40
1.0
 10
342.294112046166
 20
414.5359606154166
 30
0.0
 10
340.9117077855397
 20
414.5203273473768
 30
0.0
 10
339.5771984734645
 20
414.5024112179574
 30
0.0
 10
337.4724351861273
 20
414.4718952793892
 30
0.0
 10
336.7529119470112
 20
414.4612533150269
 30
0.0
 10
335.27748079775
 20
414.4403170088835
 30
0.0
 10
334.5245446935676
 20
414.430179620218
 30
0.0
 10
332.32324610525
 20
414.4036897720823
 30
0.0
 10
330.9066559947702
 20
414.3901673375025
 30
0.0
 10
328.3896697699001
 20
414.3724707040554
 30
0.0
 10
327.2739468707042
 20
414.3680775297721
 30
0.0
 10
325.4364647622796
 20
414.366464386239
 30
0.0
 10
324.7211517133251
 20
414.3693101184311
 30
0.0
 10
323.7836349072483
 20
414.3828063835653
 30
0.0
 10
323.5790983021446
 20
414.3939385158327
 30
0.0
 10
323.421293462013
 20
414.4202446902076
 30
0.0
 10
323.4169064985919
 20
414.434884917447
 30
0.0
 10
323.3810540831711
 20
414.4568787199619
 30
0.0
 10
323.3726427063964
 20
414.4632883295793
 30
0.0
 10
323.3726420093465
 20
414.4632836104296
 30
0.0
  0
SPLINE
  5
EC
330
1F
100
AcDbEntity
  8
0
  6
Continuous
 62
     8
370
    18
100
AcDbSpline
210
0.0
220
0.0
230
1.0
 70
     8
 71
     3
 72
    10
 73
     6
 74
     0
 42
0.000000001
 43
0.00000001
 40
0.0
 40
0.0
 40
0.0
 40
0.0
 40
0.5
 40
0.5
 40
1.0
 40
1.0
 40
1.0
 40
1.0
 10
361.1193398028612
 20
414.7125496171556
 30
0.0
 10
357.9853452044766
 20
414.680626613177
 30
0.0
 10
354.842664809588
 20
414.6448437205959
 30
0.0
 10
348.5700852887644
 20
414.5920278364644
 30
0.0
 10
345.4343507021905
 20
414.5723607583574
 30
0.0
 10
342.2960258393662
 20
414.536174328907
 30
0.0
  0
SPLINE
  5
ED
330
1F
100
AcDbEntity
  8
0
  6
Continuous
 62
     8
370
    18
100
AcDbSpline
210
0.0
220
0.0
230
1.0
 70
     8
 71
     3
 72
    43
 73
    39
 74
     0
 42
0.000000001
 43
0.00000001
 40
0.0
 40
0.0
 40
0.0
 40
0.0
 40
0.0205282890803603
 40
0.0407639424507112
 40
0.0607118193738456
 40
0.0803697316221526
 40
0.0997337777086958
 40
0.140859087233059
 40
0.1803167060628866
 40
0.2075110767361452
 40
0.2342388321476544
 40
0.2864961065255621
 40
0.3119452391513187
 40
0.3497094686330839
 40
0.3746587739869407
 40
0.3870841411691779
 40
0.4375520820447018
 40
0.4627304285819354
 40
0.4753186170218074
 40
0.5004736428805828
 40
0.5382447319656225
 40
0.5888801455420452
 40
0.6296129204153806
 40
0.670649149744783
 40
0.6982469489454103
 40
0.7250383618020491
 40
0.7452722884098388
 40
0.7520207630424399
 40
0.7655548876169874
 40
0.8065647371005206
 40
0.8194476827065029
 40
0.845399169110785
 40
0.8650575801911083
 40
0.8716456960273038
 40
0.8845550674858091
 40
0.9109848611261363
 40
0.9550668562724822
 40
1.0
 40
1.0
 40
1.0
 40
1.0
 10
361.1193267766863
 20
414.712873257668
 30
0.0
 10
361.1224195972331
 20
414.6500112950034
 30
0.0
 10
361.1285611494243
 20
414.5251834821073
 30
0.0
 10
361.1451512149231
 20
414.3400875327591
 30
0.0
 10
361.1669506770313
 20
414.1586510422386
 30
0.0
 10
361.1943321526157
 20
413.9812153820218
 30
0.0
 10
361.239362903414
 20
413.742383864179
 30
0.0
 10
361.3109352024876
 20
413.449860873594
 30
0.0
 10
361.4097002430029
 20
413.1452638595418
 30
0.0
 10
361.5099753188576
 20
412.8910556879401
 30
0.0
 10
361.6368457695525
 20
412.6119555464879
 30
0.0
 10
361.7792526801583
 20
412.3528465508969
 30
0.0
 10
361.9522916682963
 20
412.0854019212143
 30
0.0
 10
362.0933365451492
 20
411.893063665736
 30
0.0
 10
362.2198337025434
 20
411.7395045103981
 30
0.0
 10
362.3715621736951
 20
411.5671667116277
 30
0.0
 10
362.5298948360095
 20
411.4063635739161
 30
0.0
 10
362.6937190954512
 20
411.2595338337842
 30
0.0
 10
362.8121846946925
 20
411.1597849495404
 30
0.0
 10
362.9561268950304
 20
411.0459374323069
 30
0.0
 10
363.1762396462987
 20
410.8891669623427
 30
0.0
 10
363.4304792906071
 20
410.7329720750963
 30
0.0
 10
363.6933535495891
 20
410.5948233761761
 30
0.0
 10
363.9112553838382
 20
410.4960434267609
 30
0.0
 10
364.101239432719
 20
410.4204787831389
 30
0.0
 10
364.249512887272
 20
410.3677538440066
 30
0.0
 10
364.356077216651
 20
410.3336211715423
 30
0.0
 10
364.4361932813271
 20
410.3095334968644
 30
0.0
 10
364.5572293280867
 20
410.2749470428093
 30
0.0
 10
364.6896778699192
 20
410.2422580732763
 30
0.0
 10
364.8454085555967
 20
410.2095712627453
 30
0.0
 10
364.9588818945386
 20
410.1887532467376
 30
0.0
 10
365.0594804434844
 20
410.1733638509847
 30
0.0
 10
365.1345950060828
 20
410.1631574634178
 30
0.0
 10
365.2225356247596
 20
410.1523469212411
 30
0.0
 10
365.3811428453232
 20
410.1369783664047
 30
0.0
 10
365.597811749112
 20
410.124844358959
 30
0.0
 10
365.7615314843727
 20
410.1267795269055
 30
0.0
 10
365.8441740830201
 20
410.1277563627626
 30
0.0
  0
SPLINE
  5
EE
330
1F
100
AcDbEntity
  8
0
  6
Continuous
 62
     8
370
    18
100
AcDbSpline
210
0.0
220
0.0
230
1.0
 70
     8
 71
     3
 72
    11
 73
     7
 74
     0
 42
0.000000001
 43
0.00000001
 40
0.0
 40
0.0
 40
0.0
 40
0.0
 40
0.0176053502032685
 40
0.0176053502032685
 40
0.0176053502032685
 40
0.0221786407149249
 40
0.0221786407149249
 40
0.0221786407149249
 40
0.0221786407149249
 10
378.8578283722907
 20
380.9026276245901
 30
0.0
 10
384.7256946015766
 20
380.9026484606763
 30
0.0
 10
390.5936886410407
 20
380.9019069604148
 30
0.0
 10
396.4615622116213
 20
380.9018843069484
 30
0.0
 10
397.9858427553193
 20
380.9018784223229
 30
0.0
 10
399.5101179857709
 20
380.9019038335537
 30
0.0
 10
401.034389336257
 20
380.9019509956872
 30
0.0
  0
SPLINE
  5
EF
330
1F
100
AcDbEntity
  8
0
  6
Continuous
 62
     8
370
    18
100
AcDbSpline
210
0.0
220
0.0
230
1.0
 70
     8
 71
     3
 72
    12
 73
     8
 74
     0
 42
0.000000001
 43
0.00000001
 40
0.0
 40
0.0
 40
0.0
 40
0.0
 40
0.25
 40
0.25
 40
0.5
 40
0.5
 40
1.0
 40
1.0
 40
1.0
 40
1.0
 10
361.0976557836021
 20
416.0439240247485
 30
0.0
 10
365.7931215951259
 20
416.1002966219002
 30
0.0
 10
370.488298099631
 20
416.1566893816545
 30
0.0
 10
379.8779784153339
 20
416.2695647169659
 30
0.0
 10
384.5728196250659
 20
416.3259975722203
 30
0.0
 10
398.6573446841043
 20
416.4952881113343
 30
0.0
 10
408.0470312370105
 20
416.6081329645131
 30
0.0
 10
417.4367225199607
 20
416.7209581245952
 30
0.0
  0
SPLINE
  5
F0
330
1F
100
AcDbEntity
  8
0
  6
Continuous
 62
     8
370
    18
100
AcDbSpline
210
0.0
220
0.0
230
1.0
 70
     8
 71
     3
 72
    12
 73
     8
 74
     0
 42
0.000000001
 43
0.00000001
 40
0.0
 40
0.0
 40
0.0
 40
0.0
 40
0.5
 40
0.5
 40
0.75
 40
0.75
 40
1.0
 40
1.0
 40
1.0
 40
1.0
 10
417.4707441787114
 20
415.3835489645114
 30
0.0
 10
408.0810543327324
 20
415.2723883096148
 30
0.0
 10
398.6913678445459
 20
415.1608546680006
 30
0.0
 10
384.6068440597091
 20
414.9931774797171
 30
0.0
 10
379.9120042026865
 20
414.9372471327864
 30
0.0
 10
370.5223210852482
 20
414.8252217306805
 30
0.0
 10
365.8211504795991
 20
414.769144923915
 30
0.0
 10
361.1193564211158
 20
414.7131928809421
 30
0.0
  0
SPLINE
  5
F1
330
1F
100
AcDbEntity
  8
0
  6
Continuous
 62
     8
370
    18
100
AcDbSpline
210
0.0
220
0.0
230
1.0
 70
     8
 71
     3
 72
    10
 73
     6
 74
     0
 42
0.000000001
 43
0.00000001
 40
0.0
 40
0.0
 40
0.0
 40
0.0
 40
0.5
 40
0.5
 40
1.0
 40
1.0
 40
1.0
 40
1.0
 10
342.2959924329402
 20
415.8205267510419
 30
0.0
 10
345.4295075674658
 20
415.8578760559415
 30
0.0
 10
348.5633810865888
 20
415.8950526405723
 30
0.0
 10
354.8312651454742
 20
415.9690208658984
 30
0.0
 10
357.9640271459455
 20
416.0068575215328
 30
0.0
 10
361.0995575036075
 20
416.0439179880693
 30
0.0
  0
LWPOLYLINE
  5
F2
330
1F
100
AcDbEntity
  8
0
  6
Continuous
 62
     8
370
    18
100
AcDbPolyline
 90
        6
 70
   128
 43
0.0
 10
401.0347446359
 20
380.9019762846
 10
407.9219831086
 20
380.9020433398
 10
414.8092253066
 20
380.9021178456
 10
421.696460054
 20
380.902199802
 10
428.5836948014
 20
380.902289209
 10
439.0346465565
 20
380.9024382206
  0
LWPOLYLINE
  5
F3
330
1F
100
AcDbEntity
  8
0
  6
Continuous
 62
     8
370
    18
100
AcDbPolyline
 90
        6
 70
   128
 43
0.0
 10
439.0529600836
 20
379.4794294806
 10
431.4657954431
 20
379.4836167069
 10
423.8786308027
 20
379.4875580641
 10
416.2914587117
 20
379.4912833544
 10
408.7042940713
 20
379.494807479
 10
401.0529575802
 20
379.4981602402
  0
SPLINE
  5
F4
330
1F
100
AcDbEntity
  8
0
  6
Continuous
 62
     8
370
    18
100
AcDbSpline
210
0.0
220
0.0
230
1.0
 70
     8
 71
     3
 72
    24
 73
    20
 74
     0
 42
0.000000001
 43
0.00000001
 40
0.0
 40
0.0
 40
0.0
 40
0.0
 40
0.1249999999999999
 40
0.1249999999999999
 40
0.25
 40
0.25
 40
0.375
 40
0.375
 40
0.5
 40
0.5
 40
0.6249999999999999
 40
0.6249999999999999
 40
0.7499999999999998
 40
0.7499999999999998
 40
0.8124999999999998
 40
0.8124999999999998
 40
0.8749999999999999
 40
0.8749999999999999
 40
1.0
 40
1.0
 40
1.0
 40
1.0
 10
324.699875694571
 20
415.6791992098054
 30
0.0
 10
324.6998802316903
 20
415.6791997390614
 30
0.0
 10
324.703130191916
 20
415.6784259962233
 30
0.0
 10
324.720414508459
 20
415.6760294044338
 30
0.0
 10
324.713096580607
 20
415.6751736218862
 30
0.0
 10
324.8450734301172
 20
415.6685182868952
 30
0.0
 10
325.0309145375998
 20
415.6640152480763
 30
0.0
 10
325.8697399620839
 20
415.6613599942633
 30
0.0
 10
326.5121739592319
 20
415.6631721097405
 30
0.0
 10
328.173981467259
 20
415.6726621051836
 30
0.0
 10
329.1890638921842
 20
415.680323852195
 30
0.0
 10
331.4748227106892
 20
415.7007475674436
 30
0.0
 10
332.7550474038658
 20
415.7135730451942
 30
0.0
 10
334.7591084570962
 20
415.7347613319948
 30
0.0
 10
335.4492416890649
 20
415.7424286416988
 30
0.0
 10
336.8232791349149
 20
415.7579151280817
 30
0.0
 10
337.5100183464708
 20
415.7656216105764
 30
0.0
 10
339.5652478114155
 20
415.7885891885726
 30
0.0
 10
340.928238365105
 20
415.8039614648978
 30
0.0
 10
342.2959924329423
 20
415.8205043292502
 30
0.0
  0
SPLINE
  5
F5
330
1F
100
AcDbEntity
  8
0
  6
Continuous
 62
     8
370
    18
100
AcDbSpline
210
0.0
220
0.0
230
1.0
 70
    24
 71
     3
 72
     8
 73
     4
 74
     0
 42
0.000000001
 43
0.00000001
 40
0.0841389975216811
 40
0.0841389975216811
 40
0.0841389975216811
 40
0.0841389975216811
 40
0.0963595689528745
 40
0.0963595689528745
 40
0.0963595689528745
 40
0.0963595689528745
 10
342.2235029234868
 20
380.9176294535025
 30
0.0
 10
342.2235029234868
 20
380.91220771134
 30
0.0
 10
342.2235029234868
 20
380.9067493081424
 30
0.0
 10
342.2235029234868
 20
380.9012542439098
 30
0.0
  0
SPLINE
  5
F6
330
1F
100
AcDbEntity
  8
0
  6
Continuous
 62
     8
370
    18
100
AcDbSpline
210
0.0
220
0.0
230
1.0
 70
     8
 71
     3
 72
    12
 73
     8
 74
     0
 42
0.000000001
 43
0.00000001
 40
0.0
 40
0.0
 40
0.0
 40
0.0
 40
0.4999999999999988
 40
0.4999999999999988
 40
0.7499999999999993
 40
0.7499999999999993
 40
1.0
 40
1.0
 40
1.0
 40
1.0
 10
439.0333309706889
 20
380.9024275000294
 30
0.0
 10
441.8551680007856
 20
380.9026705479471
 30
0.0
 10
444.676929612254
 20
380.9032460232297
 30
0.0
 10
448.9094139588422
 20
380.9048000546285
 30
0.0
 10
450.3202486751037
 20
380.9052928163361
 30
0.0
 10
453.1419566510587
 20
380.9060850315887
 30
0.0
 10
454.5528429418001
 20
380.9063753577944
 30
0.0
 10
455.9633112759557
 20
380.9084614289922
 30
0.0
  0
SPLINE
  5
F7
330
1F
100
AcDbEntity
  8
0
  6
Continuous
 62
     8
370
    18
100
AcDbSpline
210
0.0
220
0.0
230
1.0
 70
     8
 71
     3
 72
    16
 73
    12
 74
     0
 42
0.000000001
 43
0.00000001
 40
0.0
 40
0.0
 40
0.0
 40
0.0
 40
0.1249999999999991
 40
0.1249999999999991
 40
0.2499999999999982
 40
0.2499999999999982
 40
0.4999999999999988
 40
0.4999999999999988
 40
0.7499999999999993
 40
0.7499999999999993
 40
1.0
 40
1.0
 40
1.0
 40
1.0
 10
456.0065768087623
 20
379.3990074412605
 30
0.0
 10
455.3003927428
 20
379.4085016195467
 30
0.0
 10
454.5940679021986
 20
379.4138929870589
 30
0.0
 10
453.181341663915
 20
379.4245055219204
 30
0.0
 10
452.4749340585607
 20
379.4289834645782
 30
0.0
 10
450.3557011187385
 20
379.4417423351627
 30
0.0
 10
448.9428891339601
 20
379.4490156909387
 30
0.0
 10
446.1172618069676
 20
379.4606828972563
 30
0.0
 10
444.7044296997911
 20
379.4658849883011
 30
0.0
 10
441.8786892096769
 20
379.4744635998958
 30
0.0
 10
440.4657696300061
 20
379.4767259960095
 30
0.0
 10
439.0528464912887
 20
379.4790900962248
 30
0.0
  0
SPLINE
  5
F8
330
1F
100
AcDbEntity
  8
0
  6
Continuous
 62
     8
370
    18
100
AcDbSpline
210
0.0
220
0.0
230
1.0
 70
     8
 71
     3
 72
    30
 73
    26
 74
     0
 42
0.000000001
 43
0.00000001
 40
0.0
 40
0.0
 40
0.0
 40
0.0
 40
0.1250000000000004
 40
0.1250000000000004
 40
0.1875000000000006
 40
0.1875000000000006
 40
0.2500000000000007
 40
0.2500000000000007
 40
0.3125000000000009
 40
0.3125000000000009
 40
0.3750000000000011
 40
0.3750000000000011
 40
0.4375000000000013
 40
0.4375000000000013
 40
0.5000000000000014
 40
0.5000000000000014
 40
0.5625000000000017
 40
0.5625000000000017
 40
0.6250000000000018
 40
0.6250000000000018
 40
0.7500000000000012
 40
0.7500000000000012
 40
0.8750000000000006
 40
0.8750000000000006
 40
1.0
 40
1.0
 40
1.0
 40
1.0
 10
455.9636021100281
 20
380.9092889896381
 30
0.0
 10
456.7135529045444
 20
380.9104035313373
 30
0.0
 10
457.4658220903963
 20
380.9117831996118
 30
0.0
 10
458.5866783098902
 20
380.9124137353335
 30
0.0
 10
458.9593026004886
 20
380.9124493868377
 30
0.0
 10
459.7010063558324
 20
380.912490624652
 30
0.0
 10
460.0710744392733
 20
380.9125157883827
 30
0.0
 10
460.7871345585622
 20
380.9130360098094
 30
0.0
 10
461.1349130837124
 20
380.9135238967393
 30
0.0
 10
461.8079674953462
 20
380.9150303270789
 30
0.0
 10
462.1351073652594
 20
380.9160820430443
 30
0.0
 10
462.7420083544787
 20
380.9188798742575
 30
0.0
 10
463.0246474048202
 20
380.920638338104
 30
0.0
 10
463.5465317366622
 20
380.9250112008099
 30
0.0
 10
463.7873012500306
 20
380.9276453732042
 30
0.0
 10
464.2109108095613
 20
380.9332202406904
 30
0.0
 10
464.3959148274295
 20
380.9361651432301
 30
0.0
 10
464.7169896016131
 20
380.941868290472
 30
0.0
 10
464.8530816453787
 20
380.9446169876408
 30
0.0
 10
465.184061241853
 20
380.9515715676884
 30
0.0
 10
465.3076705939599
 20
380.9550517800487
 30
0.0
 10
465.4654270819744
 20
380.9602112228843
 30
0.0
 10
465.5015437016627
 20
380.9616192892911
 30
0.0
 10
465.5597421748355
 20
380.9617097175499
 30
0.0
 10
465.5794628114743
 20
380.9605434284377
 30
0.0
 10
465.5963343139225
 20
380.9595126434682
 30
0.0
  0
SPLINE
  5
F9
330
1F
100
AcDbEntity
  8
0
  6
Continuous
 62
     8
370
    18
100
AcDbSpline
210
0.0
220
0.0
230
1.0
 70
     8
 71
     3
 72
    14
 73
    10
 74
     0
 42
0.000000001
 43
0.00000001
 40
0.0
 40
0.0
 40
0.0
 40
0.0
 40
0.2500000000000034
 40
0.2500000000000034
 40
0.5000000000000068
 40
0.5000000000000068
 40
0.7500000000000102
 40
0.7500000000000102
 40
1.0
 40
1.0
 40
1.0
 40
1.0
 10
466.775951976835
 20
379.0342540056609
 30
0.0
 10
466.8588158351092
 20
379.2368563717982
 30
0.0
 10
466.8932563907745
 20
379.459083272383
 30
0.0
 10
466.8579551763039
 20
379.8954525869723
 30
0.0
 10
466.7882415918866
 20
380.1092465885581
 30
0.0
 10
466.559537216887
 20
380.4825159037565
 30
0.0
 10
466.4007290318197
 20
380.6416931861983
 30
0.0
 10
466.0280262536107
 20
380.8712287956674
 30
0.0
 10
465.8144292392973
 20
380.9414038535184
 30
0.0
 10
465.5963343077083
 20
380.9595126438479
 30
0.0
  0
SPLINE
  5
FA
330
1F
100
AcDbEntity
  8
0
  6
Continuous
 62
     8
370
    18
100
AcDbSpline
210
0.0
220
0.0
230
1.0
 70
     8
 71
     3
 72
    32
 73
    28
 74
     0
 42
0.000000001
 43
0.00000001
 40
0.0
 40
0.0
 40
0.0
 40
0.0
 40
0.1249999999999973
 40
0.1249999999999973
 40
0.2499999999999945
 40
0.2499999999999945
 40
0.3749999999999918
 40
0.3749999999999918
 40
0.4374999999999913
 40
0.4374999999999913
 40
0.4999999999999909
 40
0.4999999999999909
 40
0.5312499999999913
 40
0.5312499999999913
 40
0.5624999999999918
 40
0.5624999999999918
 40
0.6249999999999927
 40
0.6249999999999927
 40
0.6874999999999936
 40
0.6874999999999936
 40
0.7499999999999943
 40
0.7499999999999943
 40
0.8124999999999952
 40
0.8124999999999952
 40
0.8749999999999961
 40
0.8749999999999961
 40
1.0
 40
1.0
 40
1.0
 40
1.0
 10
466.7759518035185
 20
379.0342540376636
 30
0.0
 10
466.7585651564747
 20
379.0374644618622
 30
0.0
 10
466.7380317946484
 20
379.0400855201509
 30
0.0
 10
466.6699754874174
 20
379.0343341269857
 30
0.0
 10
466.6238687093069
 20
379.0257546491784
 30
0.0
 10
466.421253466432
 20
379.0190563721644
 30
0.0
 10
466.2620429655563
 20
379.019531180313
 30
0.0
 10
465.8590769109441
 20
379.0322471702447
 30
0.0
 10
465.6977019835247
 20
379.0380037175676
 30
0.0
 10
465.3240270853923
 20
379.0517121532347
 30
0.0
 10
465.1110097266788
 20
379.0596268713744
 30
0.0
 10
464.7487331309077
 20
379.0739598889857
 30
0.0
 10
464.6202313069672
 20
379.0791955868411
 30
0.0
 10
464.3525061175709
 20
379.0906337571631
 30
0.0
 10
464.2130432432197
 20
379.0968489102112
 30
0.0
 10
463.7780555700479
 20
379.1172055945027
 30
0.0
 10
463.4659002179833
 20
379.1328899781012
 30
0.0
 10
462.7977755070832
 20
379.1653648212114
 30
0.0
 10
462.4387872831745
 20
379.182549278616
 30
0.0
 10
461.7007558697017
 20
379.2165629253354
 30
0.0
 10
461.3197616751871
 20
379.2335087255669
 30
0.0
 10
460.535517058871
 20
379.2673964391638
 30
0.0
 10
460.1300908088538
 20
379.2844816107129
 30
0.0
 10
459.3129464577147
 20
379.3161225777801
 30
0.0
 10
458.9021735288778
 20
379.3305947459983
 30
0.0
 10
457.6658639683918
 20
379.3693679244068
 30
0.0
 10
456.8366475395429
 20
379.3887420629538
 30
0.0
 10
456.0068527672779
 20
379.3998945099857
 30
0.0
  0
SPLINE
  5
FB
330
1F
100
AcDbEntity
  8
0
  6
Continuous
 62
     8
370
    18
100
AcDbSpline
210
0.0
220
0.0
230
1.0
 70
     8
 71
     3
 72
    10
 73
     6
 74
     0
 42
0.000000001
 43
0.00000001
 40
0.0
 40
0.0
 40
0.0
 40
0.0
 40
0.4999999999999999
 40
0.4999999999999999
 40
1.0
 40
1.0
 40
1.0
 40
1.0
 10
466.8409428926217
 20
378.9973152750399
 30
0.0
 10
466.8395561910275
 20
378.9978592421498
 30
0.0
 10
466.8418014123652
 20
379.004390520194
 30
0.0
 10
466.8233280383955
 20
379.020350315448
 30
0.0
 10
466.8054072673975
 20
379.0288041210988
 30
0.0
 10
466.7759444323869
 20
379.0342355594682
 30
0.0
  0
LINE
  5
FC
330
1F
100
AcDbEntity
  8
0
  6
Continuous
 62
     8
370
    18
100
AcDbLine
 10
450.7126418806
 20
381.3963446589
 30
0.0
 11
450.7126418806
 21
381.4618427129
 31
0.0
  0
SPLINE
  5
FD
330
1F
100
AcDbEntity
  8
0
  6
Continuous
 62
     8
370
    18
100
AcDbSpline
210
0.0
220
0.0
230
1.0
 70
     8
 71
     3
 72
    17
 73
    13
 74
     0
 42
0.000000001
 43
0.00000001
 40
0.0
 40
0.0
 40
0.0
 40
0.0
 40
0.11761965559838
 40
0.2402472246642975
 40
0.3698440537166449
 40
0.4367214637284066
 40
0.5044525002310365
 40
0.5721257277085787
 40
0.6388469720714207
 40
0.7682036310134239
 40
0.8901277466922008
 40
1.0
 40
1.0
 40
1.0
 40
1.0
 10
417.5012318349678
 20
415.3839561911321
 30
0.0
 10
418.3334990017653
 20
415.3949270820668
 30
0.0
 10
420.033468925883
 20
415.4173359735545
 30
0.0
 10
422.6400702905523
 20
415.4512843260176
 30
0.0
 10
424.8117381196018
 20
415.480783631145
 30
0.0
 10
426.4218948645452
 20
415.5042370844134
 30
0.0
 10
427.5200489125881
 20
415.5210297925523
 30
0.0
 10
428.4228441325401
 20
415.5356603312176
 30
0.0
 10
429.3482091570486
 20
415.5517162859234
 30
0.0
 10
430.0101309584858
 20
415.5641233216231
 30
0.0
 10
430.2656468236222
 20
415.5705144915455
 30
0.0
 10
430.2673614691283
 20
415.5714373140145
 30
0.0
 10
430.2681742168267
 20
415.5718747349478
 30
0.0
  0
SPLINE
  5
FE
330
1F
100
AcDbEntity
  8
0
  6
Continuous
 62
     8
370
    18
100
AcDbSpline
210
0.0
220
0.0
230
1.0
 70
     8
 71
     3
 72
    18
 73
    14
 74
     0
 42
0.000000001
 43
0.00000001
 40
0.0
 40
0.0
 40
0.0
 40
0.0
 40
0.25
 40
0.25
 40
0.375
 40
0.375
 40
0.5
 40
0.5
 40
0.625
 40
0.625
 40
0.75
 40
0.75
 40
1.0
 40
1.0
 40
1.0
 40
1.0
 10
417.4672915295966
 20
416.7213273910636
 30
0.0
 10
419.0847235450748
 20
416.7408667423794
 30
0.0
 10
420.7175890005889
 20
416.7642701448398
 30
0.0
 10
423.099631847189
 20
416.8001412265617
 30
0.0
 10
423.8901622784707
 20
416.8123994454248
 30
0.0
 10
425.3552623715708
 20
416.8358479907112
 30
0.0
 10
426.0436426935308
 20
416.8472563589099
 30
0.0
 10
427.1835008394273
 20
416.8673134356219
 30
0.0
 10
427.6502591473479
 20
416.8762725579417
 30
0.0
 10
428.3503503772005
 20
416.8906537605874
 30
0.0
 10
428.5946574138017
 20
416.8962668432829
 30
0.0
 10
429.0600223575382
 20
416.9081481328963
 30
0.0
 10
429.0674563885091
 20
416.9102495136636
 30
0.0
 10
429.0703910942371
 20
416.9134436300072
 30
0.0
  0
SPLINE
  5
FF
330
1F
100
AcDbEntity
  8
0
  6
Continuous
 62
     8
370
    18
100
AcDbSpline
210
0.0
220
0.0
230
1.0
 70
     8
 71
     3
 72
    11
 73
     7
 74
     0
 42
0.000000001
 43
0.00000001
 40
0.0
 40
0.0
 40
0.0
 40
0.0
 40
0.1379354207534443
 40
0.432417137958695
 40
0.7268966181019935
 40
0.9999999999999999
 40
0.9999999999999999
 40
0.9999999999999999
 40
0.9999999999999999
 10
430.2360100603897
 20
415.8048543902136
 30
0.0
 10
430.2283469364148
 20
415.8851893023792
 30
0.0
 10
430.2043236208734
 20
416.1370331914039
 30
0.0
 10
429.9605480984316
 20
416.5046127891288
 30
0.0
 10
429.5572401919887
 20
416.8244184772592
 30
0.0
 10
429.2285464006917
 20
416.884521470331
 30
0.0
 10
429.0703890777428
 20
416.9134411783911
 30
0.0
  0
SPLINE
  5
100
330
1F
100
AcDbEntity
  8
0
  6
Continuous
 62
     8
370
    18
100
AcDbSpline
210
0.0
220
0.0
230
1.0
 70
     8
 71
     3
 72
     9
 73
     5
 74
     0
 42
0.000000001
 43
0.00000001
 40
0.0
 40
0.0
 40
0.0
 40
0.0
 40
0.7257965773692183
 40
1.0
 40
1.0
 40
1.0
 40
1.0
 10
430.2706031061012
 20
415.5719939442373
 30
0.0
 10
430.2399388110649
 20
415.1333687960025
 30
0.0
 10
430.1976896520131
 20
414.5290325922899
 30
0.0
 10
429.8600946955585
 20
414.0414068100978
 30
0.0
 10
429.7675250030358
 20
413.9076981516577
 30
0.0
  0
LINE
  5
101
330
1F
100
AcDbEntity
  8
0
  6
Continuous
 62
     8
370
    18
100
AcDbLine
 10
426.8699420548
 20
412.0776269408
 30
0.0
 11
425.3209887005
 21
411.8930313559
 31
0.0
  0
SPLINE
  5
102
330
1F
100
AcDbEntity
  8
0
  6
Continuous
 62
     8
370
    18
100
AcDbSpline
210
0.0
220
0.0
230
1.0
 70
    24
 71
     3
 72
     9
 73
     5
 74
     0
 42
0.000000001
 43
0.00000001
 40
0.0
 40
0.0
 40
0.0
 40
0.0
 40
0.5
 40
1.0
 40
1.0
 40
1.0
 40
1.0
 10
417.4672915295968
 20
417.1555626510818
 30
0.0
 10
417.4672915295968
 20
417.1555626510818
 30
0.0
 10
417.4672915295967
 20
417.1450397117106
 30
0.0
 10
417.4672915295967
 20
417.1134708935971
 30
0.0
 10
417.4672915295967
 20
417.0924250148548
 30
0.0
  0
SPLINE
  5
103
330
1F
100
AcDbEntity
  8
0
  6
Continuous
 62
     8
370
    18
100
AcDbSpline
210
0.0
220
0.0
230
1.0
 70
    24
 71
     3
 72
     8
 73
     4
 74
     0
 42
0.000000001
 43
0.00000001
 40
0.3553390613026224
 40
0.3553390613026224
 40
0.3553390613026224
 40
0.3553390613026224
 40
0.9318828820037534
 40
0.9318828820037534
 40
0.9318828820037534
 40
0.9318828820037534
 10
417.4672915295968
 20
417.0924250148549
 30
0.0
 10
417.4672915295967
 20
417.0241304046557
 30
0.0
 10
417.4672915295967
 20
416.9004311967278
 30
0.0
 10
417.4672915295967
 20
416.7213273910711
 30
0.0
  0
LINE
  5
104
330
1F
100
AcDbEntity
  8
0
  6
Continuous
 62
     8
370
    18
100
AcDbLine
 10
336.1452842995
 20
416.2809017869
 30
0.0
 11
337.8769428867
 21
416.3148764344
 31
0.0
  0
LINE
  5
105
330
1F
100
AcDbEntity
  8
0
  6
Continuous
 62
     8
370
    18
100
AcDbLine
 10
338.3694223061
 20
416.3222227069
 30
0.0
 11
342.2959924841
 21
416.3683418008
 31
0.0
  0
SPLINE
  5
106
330
1F
100
AcDbEntity
  8
0
  6
Continuous
 62
     8
370
    18
100
AcDbSpline
210
0.0
220
0.0
230
1.0
 70
     8
 71
     3
 72
     8
 73
     4
 74
     0
 42
0.000000001
 43
0.00000001
 40
0.0
 40
0.0
 40
0.0
 40
0.0
 40
1.0
 40
1.0
 40
1.0
 40
1.0
 10
430.2706539700695
 20
415.5734044152846
 30
0.0
 10
430.2707328586137
 20
415.5755631740408
 30
0.0
 10
430.2707702942554
 20
415.5766269242467
 30
0.0
 10
430.2707700505813
 20
415.5766201466802
 30
0.0
  0
LINE
  5
107
330
1F
100
AcDbEntity
  8
0
  6
Continuous
 62
     8
370
    18
100
AcDbLine
 10
418.718328879
 20
417.1612772914
 30
0.0
 11
417.4672944403
 21
417.1555552455
 31
0.0
  0
SPLINE
  5
108
330
1F
100
AcDbEntity
  8
0
  6
Continuous
 62
     8
370
    18
100
AcDbSpline
210
0.0
220
0.0
230
1.0
 70
     8
 71
     3
 72
     8
 73
     4
 74
     0
 42
0.000000001
 43
0.00000001
 40
0.0
 40
0.0
 40
0.0
 40
0.0
 40
1.0
 40
1.0
 40
1.0
 40
1.0
 10
429.0704004598142
 20
416.9134559212029
 30
0.0
 10
429.0733838560013
 20
416.9191280741092
 30
0.0
 10
429.0747933567651
 20
416.9218565177628
 30
0.0
 10
429.0747865008008
 20
416.9218425627183
 30
0.0
  0
LINE
  5
109
330
1F
100
AcDbEntity
  8
0
  6
Continuous
 62
     8
370
    18
100
AcDbLine
 10
366.1320099539
 20
397.5909117432
 30
0.0
 11
366.1320099539
 21
399.9238598915
 31
0.0
  0
LINE
  5
10A
330
1F
100
AcDbEntity
  8
0
  6
Continuous
 62
     8
370
    18
100
AcDbLine
 10
366.1320099539
 20
392.3610213967
 30
0.0
 11
366.1320099539
 21
397.5909117432
 31
0.0
  0
LINE
  5
10B
330
1F
100
AcDbEntity
  8
0
  6
Continuous
 62
     8
370
    18
100
AcDbLine
 10
323.373349563
 20
414.4628111096
 30
0.0
 11
323.3726417578
 21
414.4632879468
 31
0.0
  0
LINE
  5
10C
330
1F
100
AcDbEntity
  8
0
  6
Continuous
 62
     7
370
    25
100
AcDbLine
 10
184.0478959084
 20
362.1854174705
 30
0.0
 11
184.0478959084
 21
362.761749682
 31
0.0
  0
LINE
  5
10D
330
1F
100
AcDbEntity
  8
0
  6
Continuous
 62
     7
370
    25
100
AcDbLine
 10
160.0478956998
 20
362.7334523769
 30
0.0
 11
160.0478956998
 21
362.1854174705
 31
0.0
  0
LINE
  5
10E
330
1F
100
AcDbEntity
  8
0
  6
Continuous
 62
     7
370
    25
100
AcDbLine
 10
163.0844077618
 20
356.1308745118
 30
0.0
 11
163.8313657195
 21
355.8301392766
 31
0.0
  0
LINE
  5
10F
330
1F
100
AcDbEntity
  8
0
  6
Continuous
 62
     7
370
    25
100
AcDbLine
 10
180.2644258887
 20
355.8301392766
 30
0.0
 11
181.0113838465
 21
356.1308745118
 31
0.0
  0
SPLINE
  5
110
330
1F
100
AcDbEntity
  8
0
  6
Continuous
 62
     7
370
    25
100
AcDbSpline
210
0.0
220
0.0
230
1.0
 70
     8
 71
     3
 72
    11
 73
     7
 74
     0
 42
0.000000001
 43
0.00000001
 40
0.0
 40
0.0
 40
0.0
 40
0.0
 40
0.3013840268432161
 40
0.583094536280883
 40
0.8229235680969504
 40
1.0
 40
1.0
 40
1.0
 40
1.0
 10
152.1911746413268
 20
416.7977336617208
 30
0.0
 10
152.0105208210756
 20
416.7843120617629
 30
0.0
 10
151.6610057633266
 20
416.7583449868465
 30
0.0
 10
151.3583841396729
 20
416.6857329287853
 30
0.0
 10
151.1461970646758
 20
416.6056343355801
 30
0.0
 10
150.9947253523561
 20
416.500350893532
 30
0.0
 10
150.9303892553605
 20
416.4556328030325
 30
0.0
  0
SPLINE
  5
111
330
1F
100
AcDbEntity
  8
0
  6
Continuous
 62
     7
370
    25
100
AcDbSpline
210
0.0
220
0.0
230
1.0
 70
     8
 71
     3
 72
     9
 73
     5
 74
     0
 42
0.000000001
 43
0.00000001
 40
0.0
 40
0.0
 40
0.0
 40
0.0
 40
0.5468393496933778
 40
1.0
 40
1.0
 40
1.0
 40
1.0
 10
193.165363237337
 20
416.4556626053549
 30
0.0
 10
193.0489233569729
 20
416.5422683124539
 30
0.0
 10
192.8359908377067
 20
416.7006433583383
 30
0.0
 10
192.1947944904327
 20
416.767477060231
 30
0.0
 10
191.9042295367278
 20
416.7977634640432
 30
0.0
  0
SPLINE
  5
112
330
1F
100
AcDbEntity
  8
0
  6
Continuous
 62
     7
370
    25
100
AcDbSpline
210
0.0
220
0.0
230
1.0
 70
     8
 71
     3
 72
    17
 73
    13
 74
     0
 42
0.000000001
 43
0.00000001
 40
0.0
 40
0.0
 40
0.0
 40
0.0
 40
0.1221135709829741
 40
0.2307326189400777
 40
0.3117036946869953
 40
0.359977336062397
 40
0.407040422720081
 40
0.5049603458411124
 40
0.6448772541387753
 40
0.8201361259601806
 40
0.9202911093339132
 40
1.0
 40
1.0
 40
1.0
 40
1.0
 10
163.4409804419435
 20
417.1295378180242
 30
0.0
 10
163.0201184013723
 20
417.1252439089092
 30
0.0
 10
162.2249029306281
 20
417.1171306018654
 30
0.0
 10
161.0585780267243
 20
417.1001674309657
 30
0.0
 10
160.1521678881559
 20
417.0835197018436
 30
0.0
 10
159.4709000750612
 20
417.069046358457
 30
0.0
 10
158.7410538034693
 20
417.0522606137441
 30
0.0
 10
157.6917619519583
 20
417.0251658247163
 30
0.0
 10
156.1278423834885
 20
416.9767562286379
 30
0.0
 10
154.5159988368462
 20
416.9135433591572
 30
0.0
 10
153.167377068088
 20
416.8506328376396
 30
0.0
 10
152.5459589722635
 20
416.8164662053871
 30
0.0
 10
152.2705698908127
 20
416.8013248415685
 30
0.0
  0
SPLINE
  5
113
330
1F
100
AcDbEntity
  8
0
  6
Continuous
 62
     7
370
    25
100
AcDbSpline
210
0.0
220
0.0
230
1.0
 70
     8
 71
     3
 72
    17
 73
    13
 74
     0
 42
0.000000001
 43
0.00000001
 40
0.0
 40
0.0
 40
0.0
 40
0.0
 40
0.1314121242248615
 40
0.2621746755237812
 40
0.363808917287268
 40
0.4331791873898246
 40
0.4721313199517583
 40
0.5358046185991759
 40
0.6255141632301546
 40
0.8025390548722025
 40
0.9024077310414435
 40
1.0
 40
1.0
 40
1.0
 40
1.0
 10
191.8447888047255
 20
416.7997751208044
 30
0.0
 10
191.3630256553569
 20
416.8258146271697
 30
0.0
 10
190.401880722117
 20
416.8777649260663
 30
0.0
 10
188.9857535284861
 20
416.9375544884727
 30
0.0
 10
187.8300962684752
 20
416.9798463609151
 30
0.0
 10
187.0225495133716
 20
417.0058102116297
 30
0.0
 10
186.3620393284631
 20
417.0254518132009
 30
0.0
 10
185.622908084866
 20
417.0455841122197
 30
0.0
 10
184.34775396897
 20
417.0760578976291
 30
0.0
 10
182.9586339532142
 20
417.1016166033896
 30
0.0
 10
181.6151349576297
 20
417.1199233039581
 30
0.0
 10
180.9724493863118
 20
417.126357706106
 30
0.0
 10
180.6548111663021
 20
417.1295378180242
 30
0.0
  0
SPLINE
  5
114
330
1F
100
AcDbEntity
  8
0
  6
Continuous
 62
     7
370
    25
100
AcDbSpline
210
0.0
220
0.0
230
1.0
 70
     8
 71
     3
 72
     9
 73
     5
 74
     0
 42
0.000000001
 43
0.00000001
 40
0.0
 40
0.0
 40
0.0
 40
0.0
 40
0.5117752282764519
 40
1.0
 40
1.0
 40
1.0
 40
1.0
 10
172.0478958041225
 20
417.1830478878713
 30
0.0
 10
170.5700064977052
 20
417.1808782722734
 30
0.0
 10
167.682236193944
 20
417.1766388806849
 30
0.0
 10
164.8325406293503
 20
417.1452500519561
 30
0.0
 10
163.441248662845
 20
417.1299252482153
 30
0.0
  0
SPLINE
  5
115
330
1F
100
AcDbEntity
  8
0
  6
Continuous
 62
     7
370
    25
100
AcDbSpline
210
0.0
220
0.0
230
1.0
 70
     8
 71
     3
 72
     9
 73
     5
 74
     0
 42
0.000000001
 43
0.00000001
 40
0.0
 40
0.0
 40
0.0
 40
0.0
 40
0.4882247717235138
 40
1.0
 40
1.0
 40
1.0
 40
1.0
 10
180.6545429454006
 20
417.1299252482153
 30
0.0
 10
179.2632509788953
 20
417.1452500519561
 30
0.0
 10
176.4135554143014
 20
417.1766388806849
 30
0.0
 10
173.52578511054
 20
417.1808782722734
 30
0.0
 10
172.0478958041225
 20
417.1830478878713
 30
0.0
  0
SPLINE
  5
116
330
1F
100
AcDbEntity
  8
0
  6
Continuous
 62
     7
370
    25
100
AcDbSpline
210
0.0
220
0.0
230
1.0
 70
     8
 71
     3
 72
    20
 73
    16
 74
     0
 42
0.000000001
 43
0.00000001
 40
0.0
 40
0.0
 40
0.0
 40
0.0
 40
0.1021272519766344
 40
0.1925268535398509
 40
0.2712205381620193
 40
0.3394685533025477
 40
0.4045339254757769
 40
0.4676339388206792
 40
0.5191190529988193
 40
0.5695347917502883
 40
0.6282379913342476
 40
0.699572880808638
 40
0.7878526173425714
 40
0.8899951212467069
 40
1.0
 40
1.0
 40
1.0
 40
1.0
 10
194.3615520895279
 20
415.2089271517492
 30
0.0
 10
194.304375261331
 20
415.3270668069516
 30
0.0
 10
194.196587431784
 20
415.5497797034034
 30
0.0
 10
193.9874173778181
 20
415.7729088890636
 30
0.0
 10
193.8308372423579
 20
415.9110534321411
 30
0.0
 10
193.7596827733011
 20
415.9688678094205
 30
0.0
 10
193.6945011362097
 20
416.0226812201918
 30
0.0
 10
193.6383512306089
 20
416.0686401423706
 30
0.0
 10
193.5891723916177
 20
416.1088865633758
 30
0.0
 10
193.5443551128928
 20
416.1455987456955
 30
0.0
 10
193.4945425296873
 20
416.1864056928488
 30
0.0
 10
193.43409717856
 20
416.2359247728386
 30
0.0
 10
193.3617293934731
 20
416.2952094172714
 30
0.0
 10
193.2786855335624
 20
416.3633108993967
 30
0.0
 10
193.2201143448169
 20
416.4113510252084
 30
0.0
 10
193.1897433996953
 20
416.4362612934805
 30
0.0
  0
SPLINE
  5
117
330
1F
100
AcDbEntity
  8
0
  6
Continuous
 62
     7
370
    25
100
AcDbSpline
210
0.0
220
0.0
230
1.0
 70
     8
 71
     3
 72
    13
 73
     9
 74
     0
 42
0.000000001
 43
0.00000001
 40
0.0
 40
0.0
 40
0.0
 40
0.0
 40
0.2013258725484701
 40
0.3887710678728641
 40
0.5623372914648977
 40
0.7220275852934468
 40
0.8678984229476329
 40
0.9999999999999999
 40
0.9999999999999999
 40
0.9999999999999999
 40
0.9999999999999999
 10
150.906031444744
 20
416.4362463923193
 30
0.0
 10
150.8478082682319
 20
416.3885631238226
 30
0.0
 10
150.7353761887329
 20
416.296484172526
 30
0.0
 10
150.5361689879106
 20
416.1317027783022
 30
0.0
 10
150.3238179648587
 20
415.9495052265652
 30
0.0
 10
150.1060558929919
 20
415.7401911279203
 30
0.0
 10
149.8816020145444
 20
415.5062173433286
 30
0.0
 10
149.7817349853991
 20
415.3047570668624
 30
0.0
 10
149.7342749089755
 20
415.2090165587164
 30
0.0
  0
SPLINE
  5
118
330
1F
100
AcDbEntity
  8
0
  6
Continuous
 62
     7
370
    25
100
AcDbSpline
210
0.0
220
0.0
230
1.0
 70
     8
 71
     3
 72
    14
 73
    10
 74
     0
 42
0.000000001
 43
0.00000001
 40
0.0
 40
0.0
 40
0.0
 40
0.0
 40
0.2113353167085079
 40
0.3804278777333107
 40
0.5416975389028478
 40
0.6933937454212017
 40
0.8358917840012389
 40
0.9742318460641815
 40
1.0
 40
1.0
 40
1.0
 40
1.0
 10
194.6805989892043
 20
407.2948459358907
 30
0.0
 10
194.6533602010602
 20
407.9568088038129
 30
0.0
 10
194.6043272494121
 20
409.1484181046343
 30
0.0
 10
194.5349393347183
 20
410.7379309426723
 30
0.0
 10
194.4772722665906
 20
412.0289445535075
 30
0.0
 10
194.435956503029
 20
413.1035586909779
 30
0.0
 10
194.4169023303712
 20
413.9227286038143
 30
0.0
 10
194.4128770831577
 20
414.399893402638
 30
0.0
 10
194.4136177883825
 20
414.5591327209295
 30
0.0
 10
194.4137340933837
 20
414.5841363640524
 30
0.0
  0
SPLINE
  5
119
330
1F
100
AcDbEntity
  8
0
  6
Continuous
 62
     7
370
    25
100
AcDbSpline
210
0.0
220
0.0
230
1.0
 70
     8
 71
     3
 72
    12
 73
     8
 74
     0
 42
0.000000001
 43
0.00000001
 40
0.0
 40
0.0
 40
0.0
 40
0.0
 40
0.096972591190414
 40
0.3785886593382659
 40
0.6502053433363723
 40
0.916214884991579
 40
1.0
 40
1.0
 40
1.0
 40
1.0
 10
194.3124713898457
 20
413.6651519509054
 30
0.0
 10
194.3058064129068
 20
413.5760398316748
 30
0.0
 10
194.2797858162322
 20
413.2281390760473
 30
0.0
 10
194.0275171787445
 20
412.5926612328622
 30
0.0
 10
193.53440421647
 20
411.7541209036928
 30
0.0
 10
192.9578949203904
 20
411.1260527007975
 30
0.0
 10
192.5380907594856
 20
410.9111063004159
 30
0.0
 10
192.4375365079201
 20
410.8596209259725
 30
0.0
  0
SPLINE
  5
11A
330
1F
100
AcDbEntity
  8
0
  6
Continuous
 62
     7
370
    25
100
AcDbSpline
210
0.0
220
0.0
230
1.0
 70
     8
 71
     3
 72
    12
 73
     8
 74
     0
 42
0.000000001
 43
0.00000001
 40
0.0
 40
0.0
 40
0.0
 40
0.0
 40
0.035107162349067
 40
0.2871454331030586
 40
0.5482139335098389
 40
0.8242670914095469
 40
0.9999999999999999
 40
0.9999999999999999
 40
0.9999999999999999
 40
0.9999999999999999
 10
150.9436531514681
 20
411.3871220322347
 30
0.0
 10
150.9094550492853
 20
411.4085487685591
 30
0.0
 10
150.629744921621
 20
411.5838004571074
 30
0.0
 10
150.3005324334303
 20
412.1376888554726
 30
0.0
 10
149.8923275892445
 20
412.9489416520584
 30
0.0
 10
149.689757998918
 20
413.7946641335615
 30
0.0
 10
149.671869876032
 20
414.3720610937917
 30
0.0
 10
149.6649118662633
 20
414.5966533394552
 30
0.0
  0
SPLINE
  5
11B
330
1F
100
AcDbEntity
  8
0
  6
Continuous
 62
     7
370
    25
100
AcDbSpline
210
0.0
220
0.0
230
1.0
 70
     8
 71
     3
 72
    18
 73
    14
 74
     0
 42
0.000000001
 43
0.00000001
 40
0.0
 40
0.0
 40
0.0
 40
0.0
 40
0.0006296619028421
 40
0.1110678016457563
 40
0.2278029931280766
 40
0.3511735047005651
 40
0.4712749060017697
 40
0.5413291073971271
 40
0.6088109082246772
 40
0.6794590896696378
 40
0.761027261408705
 40
0.8846651119671566
 40
1.0
 40
1.0
 40
1.0
 40
1.0
 10
149.6430686265982
 20
414.6539334030844
 30
0.0
 10
149.6430753958714
 20
414.6531334629682
 30
0.0
 10
149.6442694466589
 20
414.5120298171175
 30
0.0
 10
149.6582869405597
 20
414.2694252646972
 30
0.0
 10
149.6684586872965
 20
413.971201190884
 30
0.0
 10
149.6712643294021
 20
413.7781081515577
 30
0.0
 10
149.6705757266527
 20
413.4445206014911
 30
0.0
 10
149.6502922807376
 20
412.8338792876899
 30
0.0
 10
149.6155641054522
 20
412.0264189686734
 30
0.0
 10
149.5630988251227
 20
410.8240937362643
 30
0.0
 10
149.4900843340812
 20
409.1036794164605
 30
0.0
 10
149.4046092681686
 20
407.0706184098575
 30
0.0
 10
149.3450850060443
 20
405.5538125151772
 30
0.0
 10
149.3163569421328
 20
404.8217598171926
 30
0.0
  0
SPLINE
  5
11C
330
1F
100
AcDbEntity
  8
0
  6
Continuous
 62
     7
370
    25
100
AcDbSpline
210
0.0
220
0.0
230
1.0
 70
     8
 71
     3
 72
    10
 73
     6
 74
     0
 42
0.000000001
 43
0.00000001
 40
0.0
 40
0.0
 40
0.0
 40
0.0
 40
0.419156147033016
 40
0.6347816610621798
 40
1.0
 40
1.0
 40
1.0
 40
1.0
 10
196.1308843047179
 20
283.2825396032478
 30
0.0
 10
196.0120892023039
 20
296.7285162277354
 30
0.0
 10
195.8321826138639
 20
317.0914750837895
 30
0.0
 10
195.5504764340743
 20
349.170054498096
 30
0.0
 10
195.3880480813219
 20
367.8027248240138
 30
0.0
 10
195.285917684511
 20
379.5184258194662
 30
0.0
  0
SPLINE
  5
11D
330
1F
100
AcDbEntity
  8
0
  6
Continuous
 62
     7
370
    25
100
AcDbSpline
210
0.0
220
0.0
230
1.0
 70
     8
 71
     3
 72
    10
 73
     6
 74
     0
 42
0.000000001
 43
0.00000001
 40
0.0
 40
0.0
 40
0.0
 40
0.0
 40
0.3652190761598555
 40
0.5808443397657352
 40
1.0
 40
1.0
 40
1.0
 40
1.0
 10
148.8098757863797
 20
379.5185375781751
 30
0.0
 10
148.7077446734055
 20
367.8027993306447
 30
0.0
 10
148.5453153734117
 20
349.170091754668
 30
0.0
 10
148.2636090485433
 20
317.0914750832799
 30
0.0
 10
148.083702427482
 20
296.7285162274784
 30
0.0
 10
147.9649073035277
 20
283.282539603146
 30
0.0
  0
LINE
  5
11E
330
1F
100
AcDbEntity
  8
0
  6
Continuous
 62
     7
370
    25
100
AcDbLine
 10
150.547895074
 20
382.2735015126
 30
0.0
 11
150.547895074
 21
380.9336934062
 31
0.0
  0
LINE
  5
11F
330
1F
100
AcDbEntity
  8
0
  6
Continuous
 62
     7
370
    25
100
AcDbLine
 10
193.5478965343
 20
380.9338796707
 30
0.0
 11
193.5478965343
 21
382.2735015126
 31
0.0
  0
ARC
  5
120
330
1F
100
AcDbEntity
  8
0
  6
Continuous
 62
     7
370
    25
100
AcDbCircle
 10
183.5478958041
 20
382.2735031259
 30
0.0
 40
10.0
100
AcDbArc
 50
0.0
 51
9.0468459803
  0
ARC
  5
121
330
1F
100
AcDbEntity
  8
0
  6
Continuous
 62
     7
370
    25
100
AcDbCircle
 10
160.5478958041
 20
382.2735031259
 30
0.0
 40
10.0
100
AcDbArc
 50
170.9531540197
 51
180.0
  0
LWPOLYLINE
  5
122
330
1F
100
AcDbEntity
  8
0
  6
Continuous
 62
     7
370
    25
100
AcDbPolyline
 90
        3
 70
   128
 43
0.0
 10
150.7289739848
 20
384.1845754357
 10
150.7264519633
 20
384.170180914
 10
150.6722955555
 20
383.8459241958
  0
LWPOLYLINE
  5
123
330
1F
100
AcDbEntity
  8
0
  6
Continuous
 62
     7
370
    25
100
AcDbPolyline
 90
        3
 70
   128
 43
0.0
 10
193.4234960527
 20
383.8459241958
 10
193.369339645
 20
384.170180914
 10
193.3678756059
 20
384.178547916
  0
LINE
  5
124
330
1F
100
AcDbEntity
  8
0
  6
Continuous
 62
     7
370
    25
100
AcDbLine
 10
194.4508752377
 20
414.6706823083
 30
0.0
 11
194.3977824003
 21
415.0969002219
 31
0.0
  0
LINE
  5
125
330
1F
100
AcDbEntity
  8
0
  6
Continuous
 62
     7
370
    25
100
AcDbLine
 10
149.6980110706
 20
415.0969002219
 30
0.0
 11
149.6449163706
 21
414.6706823083
 31
0.0
  0
SPLINE
  5
126
330
1F
100
AcDbEntity
  8
0
  6
Continuous
 62
     7
370
    25
100
AcDbSpline
210
0.0
220
0.0
230
1.0
 70
     8
 71
     3
 72
    12
 73
     8
 74
     0
 42
0.000000001
 43
0.00000001
 40
0.0
 40
0.0
 40
0.0
 40
0.0
 40
0.0249763035089614
 40
0.2393847146045509
 40
0.5051451389052279
 40
0.9301313560471215
 40
1.0
 40
1.0
 40
1.0
 40
1.0
 10
149.9077449143685
 20
380.8784622522093
 30
0.0
 10
149.9053222060943
 20
380.8780002590304
 30
0.0
 10
149.8821018232786
 20
380.8735722977342
 30
0.0
 10
149.7782367765538
 20
380.846930590168
 30
0.0
 10
149.5655236485112
 20
380.7597876200931
 30
0.0
 10
149.3648412497091
 20
380.6538477072767
 30
0.0
 10
149.2745060758546
 20
380.5438785796462
 30
0.0
 10
149.261751636938
 20
380.5283520193792
 30
0.0
  0
LINE
  5
127
330
1F
100
AcDbEntity
  8
0
  6
Continuous
 62
     7
370
    25
100
AcDbLine
 10
194.8217502386
 20
403.7007529112
 30
0.0
 11
194.8181720973
 21
403.8130555125
 31
0.0
  0
LINE
  5
128
330
1F
100
AcDbEntity
  8
0
  6
Continuous
 62
     7
370
    25
100
AcDbLine
 10
195.2419089676
 20
386.5492034527
 30
0.0
 11
195.2256853283
 21
387.470654008
 31
0.0
  0
LINE
  5
129
330
1F
100
AcDbEntity
  8
0
  6
Continuous
 62
     7
370
    25
100
AcDbLine
 10
148.8700913788
 20
387.4698269935
 30
0.0
 11
148.8538826407
 21
386.5491289469
 31
0.0
  0
LINE
  5
12A
330
1F
100
AcDbEntity
  8
0
  6
Continuous
 62
     7
370
    25
100
AcDbLine
 10
149.277619511
 20
403.8130555125
 30
0.0
 11
149.2740413696
 21
403.70073801
 31
0.0
  0
SPLINE
  5
12B
330
1F
100
AcDbEntity
  8
0
  6
Continuous
 62
     7
370
    25
100
AcDbSpline
210
0.0
220
0.0
230
1.0
 70
     8
 71
     3
 72
    19
 73
    15
 74
     0
 42
0.000000001
 43
0.00000001
 40
0.0
 40
0.0
 40
0.0
 40
0.0
 40
0.080209890702918
 40
0.1616497350503917
 40
0.2454169336196426
 40
0.3276374955424046
 40
0.412234066571303
 40
0.4939413048609154
 40
0.578466398967821
 40
0.6537867089933809
 40
0.7310059275195502
 40
0.8122467763901454
 40
0.8956933387563889
 40
1.0
 40
1.0
 40
1.0
 40
1.0
 10
160.9357376173891
 20
360.6049407096601
 30
0.0
 10
160.6834450043666
 20
360.8035785057085
 30
0.0
 10
160.1749910756446
 20
361.203900047364
 30
0.0
 10
159.8148164731567
 20
361.776884083825
 30
0.0
 10
159.7619741459759
 20
362.3152433963501
 30
0.0
 10
160.0566087381222
 20
362.8441033538501
 30
0.0
 10
160.6814531400991
 20
363.3979372840666
 30
0.0
 10
161.6349192596679
 20
364.0326503134343
 30
0.0
 10
162.83459895998
 20
364.7314819045157
 30
0.0
 10
164.2328160681704
 20
365.4692063077679
 30
0.0
 10
165.7834255514131
 20
366.1951390444002
 30
0.0
 10
167.5415232966693
 20
366.8621209929654
 30
0.0
 10
169.6410124276592
 20
367.4428972023034
 30
0.0
 10
171.1882192560131
 20
367.5327945958769
 30
0.0
 10
172.0477729585597
 20
367.5827372642256
 30
0.0
  0
SPLINE
  5
12C
330
1F
100
AcDbEntity
  8
0
  6
Continuous
 62
     7
370
    25
100
AcDbSpline
210
0.0
220
0.0
230
1.0
 70
     8
 71
     3
 72
    20
 73
    16
 74
     0
 42
0.000000001
 43
0.00000001
 40
0.0
 40
0.0
 40
0.0
 40
0.0
 40
0.0634204968876358
 40
0.1282080663009537
 40
0.2055110290275713
 40
0.2846797073939776
 40
0.3694476511066116
 40
0.4568328987760774
 40
0.538162690042215
 40
0.622189589336765
 40
0.6989911004495766
 40
0.7776730136765572
 40
0.8611397812678804
 40
0.947026491539717
 40
1.0
 40
1.0
 40
1.0
 40
1.0
 10
172.0480186496858
 20
367.5827372642256
 30
0.0
 10
172.5623160009248
 20
367.5648177908369
 30
0.0
 10
173.60199673731
 20
367.5285925774588
 30
0.0
 10
175.2321704527801
 20
367.2303140357899
 30
0.0
 10
176.9104071191024
 20
366.7421208417212
 30
0.0
 10
178.614726532002
 20
366.0629159604664
 30
0.0
 10
180.2266273131828
 20
365.2879361982702
 30
0.0
 10
181.6392261333926
 20
364.5189048752346
 30
0.0
 10
182.7880150772617
 20
363.8263611842145
 30
0.0
 10
183.6065965123607
 20
363.2469067576671
 30
0.0
 10
184.1208937915275
 20
362.7315847488877
 30
0.0
 10
184.3452021815049
 20
362.2341112868006
 30
0.0
 10
184.2445927792887
 20
361.6975586082946
 30
0.0
 10
183.8973789117181
 20
361.181574210648
 30
0.0
 10
183.4503316980791
 20
360.8423962541654
 30
0.0
 10
183.2797885463394
 20
360.7130039306379
 30
0.0
  0
LWPOLYLINE
  5
12D
330
1F
100
AcDbEntity
  8
0
  6
Continuous
 62
     7
370
    25
100
AcDbPolyline
 90
       23
 70
   128
 43
0.0
 10
183.0478957445
 20
358.4510970684
 10
182.9359312133
 20
359.0121034356
 10
182.6023184285
 20
359.5616955133
 10
182.0538476632
 20
360.0886825295
 10
181.3016845436
 20
360.5823281975
 10
180.3611409441
 20
361.0325891348
 10
179.2513639257
 20
361.4302936764
 10
177.99494458
 20
361.7673579427
 10
176.6174607501
 20
362.0369050475
 10
175.1469538604
 20
362.2334588142
 10
173.613359063
 20
362.3530182811
 10
172.0478958041
 20
362.3931396576
 10
170.4824325452
 20
362.3530182811
 10
168.9488377479
 20
362.2334588142
 10
167.4783308581
 20
362.0369050475
 10
166.1008470283
 20
361.7673579427
 10
164.8444276825
 20
361.4302936764
 10
163.7346506641
 20
361.0325891348
 10
162.7941070647
 20
360.5823281975
 10
162.0419439451
 20
360.0886825295
 10
161.4934731797
 20
359.5616955133
 10
161.159860395
 20
359.0121034356
 10
161.0478958637
 20
358.4510970684
  0
SPLINE
  5
12E
330
1F
100
AcDbEntity
  8
0
  6
Continuous
 62
     7
370
    25
100
AcDbSpline
210
0.0
220
0.0
230
1.0
 70
    24
 71
     3
 72
     8
 73
     4
 74
     0
 42
0.000000001
 43
0.00000001
 40
0.0
 40
0.0
 40
0.0
 40
0.0
 40
1.0
 40
1.0
 40
1.0
 40
1.0
 10
161.0478958041224
 20
360.7087692242298
 30
0.0
 10
161.0478958041224
 20
359.8017426141043
 30
0.0
 10
161.0478958041224
 20
359.0311193688005
 30
0.0
 10
161.0478958041224
 20
358.4510940043072
 30
0.0
  0
LWPOLYLINE
  5
12F
330
1F
100
AcDbEntity
  8
0
  6
Continuous
 62
     7
370
    25
100
AcDbPolyline
 90
       18
 70
   128
 43
0.0
 10
183.0478957445
 20
360.7087720009
 10
182.293411769
 20
361.2289491864
 10
181.3485216872
 20
361.7075148793
 10
180.2307846547
 20
362.1355879875
 10
178.9609738217
 20
362.5051963897
 10
177.5626870395
 20
362.8094855519
 10
176.0619114675
 20
363.0427855821
 10
174.4865378887
 20
363.2007751437
 10
172.8658435341
 20
363.2805112572
 10
171.2299480742
 20
363.2805112572
 10
169.6092537195
 20
363.2007751437
 10
168.0338801407
 20
363.0427855821
 10
166.5331045688
 20
362.8094855519
 10
165.1348177866
 20
362.5051963897
 10
163.8650069536
 20
362.1355879875
 10
162.7472699211
 20
361.7075148793
 10
161.8023798392
 20
361.2289491864
 10
161.0478958637
 20
360.7087720009
  0
SPLINE
  5
130
330
1F
100
AcDbEntity
  8
0
  6
Continuous
 62
     7
370
    25
100
AcDbSpline
210
0.0
220
0.0
230
1.0
 70
    24
 71
     3
 72
     8
 73
     4
 74
     0
 42
0.000000001
 43
0.00000001
 40
0.0
 40
0.0
 40
0.0
 40
0.0
 40
1.0
 40
1.0
 40
1.0
 40
1.0
 10
183.0478958041224
 20
360.7087692242298
 30
0.0
 10
183.0478958041224
 20
359.8017426141043
 30
0.0
 10
183.0478958041224
 20
359.0311193688005
 30
0.0
 10
183.0478958041224
 20
358.4510940043072
 30
0.0
  0
ARC
  5
131
330
1F
100
AcDbEntity
  8
0
  6
Continuous
 62
     7
370
    25
100
AcDbCircle
 10
166.0441159748
 20
363.804014612
 30
0.0
 40
8.224168754553016
100
AcDbArc
 50
232.5907149045
 51
248.9072155041
  0
ARC
  5
132
330
1F
100
AcDbEntity
  8
0
  6
Continuous
 62
     7
370
    25
100
AcDbCircle
 10
178.0516756335
 20
363.804014612
 30
0.0
 40
8.224168754553016
100
AcDbArc
 50
291.0927844959
 51
307.4092850955
  0
ARC
  5
133
330
1F
100
AcDbEntity
  8
0
  6
Continuous
 62
     7
370
    25
100
AcDbCircle
 10
182.0311882749
 20
362.1581574494
 30
0.0
 40
1.973470911490506
100
AcDbArc
 50
301.0099860102
 51
33.0897081541
  0
LINE
  5
134
330
1F
100
AcDbEntity
  8
0
  6
Continuous
 62
     7
370
    25
100
AcDbLine
 10
183.0478957445
 20
363.6192519041
 30
0.0
 11
183.0478957445
 21
360.7087720009
 31
0.0
  0
LINE
  5
135
330
1F
100
AcDbEntity
  8
0
  6
Continuous
 62
     7
370
    25
100
AcDbLine
 10
161.0478958637
 20
363.6214647265
 30
0.0
 11
161.0478958637
 21
360.7087720009
 31
0.0
  0
ARC
  5
136
330
1F
100
AcDbEntity
  8
0
  6
Continuous
 62
     7
370
    25
100
AcDbCircle
 10
161.9920183869
 20
362.1419437437
 30
0.0
 40
1.922934031547106
100
AcDbArc
 50
147.1557572931
 51
240.5949727614
  0
LWPOLYLINE
  5
137
330
1F
100
AcDbEntity
  8
0
  6
Continuous
 62
     7
370
    25
100
AcDbPolyline
 90
       23
 70
   128
 43
0.0
 10
161.0478958637
 20
358.4510970684
 10
161.159860395
 20
357.8900832506
 10
161.4934731797
 20
357.3404911729
 10
162.0419439451
 20
356.8135116072
 10
162.7941070647
 20
356.3198659392
 10
163.7346506641
 20
355.869605002
 10
164.8444276825
 20
355.4718930097
 10
166.1008470283
 20
355.1348361941
 10
167.4783308581
 20
354.8652816387
 10
168.9488377479
 20
354.668727872
 10
170.4824325452
 20
354.5491684051
 10
172.0478958041
 20
354.5090470286
 10
173.613359063
 20
354.5491684051
 10
175.1469538604
 20
354.668727872
 10
176.6174607501
 20
354.8652816387
 10
177.99494458
 20
355.1348361941
 10
179.2513639257
 20
355.4718930097
 10
180.3611409441
 20
355.869605002
 10
181.3016845436
 20
356.3198659392
 10
182.0538476632
 20
356.8135116072
 10
182.6023184285
 20
357.3404911729
 10
182.9359312133
 20
357.8900832506
 10
183.0478957445
 20
358.4510970684
  0
SPLINE
  5
138
330
1F
100
AcDbEntity
  8
0
  6
Continuous
 62
     7
370
    25
100
AcDbSpline
210
0.0
220
0.0
230
1.0
 70
     8
 71
     3
 72
     8
 73
     4
 74
     0
 42
0.000000001
 43
0.00000001
 40
0.0841389975216811
 40
0.0841389975216811
 40
0.0841389975216811
 40
0.0841389975216811
 40
0.0963595689528745
 40
0.0963595689528745
 40
0.0963595689528745
 40
0.0963595689528745
 10
150.2979996106943
 20
380.9176294535025
 30
0.0
 10
150.2305907969507
 20
380.91220771134
 30
0.0
 10
150.1638034846168
 20
380.9067493081424
 30
0.0
 10
150.0976460786978
 20
380.9012542439098
 30
0.0
  0
SPLINE
  5
139
330
1F
100
AcDbEntity
  8
0
  6
Continuous
 62
     7
370
    25
100
AcDbSpline
210
0.0
220
0.0
230
1.0
 70
     8
 71
     3
 72
    33
 73
    29
 74
     0
 42
0.000000001
 43
0.00000001
 40
0.0
 40
0.0
 40
0.0
 40
0.0
 40
0.1250000000000002
 40
0.1250000000000002
 40
0.1875000000000004
 40
0.1875000000000004
 40
0.2500000000000006
 40
0.2500000000000006
 40
0.3750000000000009
 40
0.3750000000000009
 40
0.4062500000000009
 40
0.4062500000000009
 40
0.437500000000001
 40
0.437500000000001
 40
0.5000000000000013
 40
0.5000000000000013
 40
0.6250000000000017
 40
0.6250000000000017
 40
0.6562500000000016
 40
0.6562500000000016
 40
0.6875000000000013
 40
0.6875000000000013
 40
0.7500000000000011
 40
0.8125000000000009
 40
0.8125000000000009
 40
0.8750000000000006
 40
0.8750000000000006
 40
1.0
 40
1.0
 40
1.0
 40
1.0
 10
172.0479077864216
 20
381.5093287235994
 30
0.0
 10
170.6102899018424
 20
381.5093287563652
 30
0.0
 10
169.1957249098922
 20
381.5034643019541
 30
0.0
 10
167.1071763275434
 20
381.4862986087144
 30
0.0
 10
166.4165842738461
 20
381.4791734014947
 30
0.0
 10
165.0468613519364
 20
381.4620949312847
 30
0.0
 10
164.3673092693906
 20
381.4521133556632
 30
0.0
 10
162.3909589054688
 20
381.4186835530087
 30
0.0
 10
161.1403424478091
 20
381.3915857192607
 30
0.0
 10
159.6603595500859
 20
381.3524229177689
 30
0.0
 10
159.3685648833395
 20
381.3443254130804
 30
0.0
 10
158.7935233410745
 20
381.3276190097667
 30
0.0
 10
158.5095667133565
 20
381.3189863847816
 30
0.0
 10
157.6788677329414
 20
381.2926144365454
 30
0.0
 10
157.151609620604
 20
381.2743602750075
 30
0.0
 10
155.647149438156
 20
381.2181301937301
 30
0.0
 10
154.7465200522399
 20
381.178606251517
 30
0.0
 10
153.7523436773309
 20
381.129257183844
 30
0.0
 10
153.5599114577196
 20
381.1193822859666
 30
0.0
 10
153.1925665088146
 20
381.0999588859028
 30
0.0
 10
153.0171241205773
 20
381.0903850827705
 30
0.0
 10
152.5150642334737
 20
381.0622234309538
 30
0.0
 10
151.9102494222433
 20
381.0261558192582
 30
0.0
 10
151.4330187274679
 20
380.9948573268105
 30
0.0
 10
151.0206366726212
 20
380.9670081050075
 30
0.0
 10
150.8463156072173
 20
380.9547725088816
 30
0.0
 10
150.4306329967592
 20
380.9253908774812
 30
0.0
 10
150.2935527880699
 20
380.9156410680908
 30
0.0
 10
150.2979996106913
 20
380.9176294535022
 30
0.0
  0
SPLINE
  5
13A
330
1F
100
AcDbEntity
  8
0
  6
Continuous
 62
     7
370
    25
100
AcDbSpline
210
0.0
220
0.0
230
1.0
 70
     8
 71
     3
 72
    31
 73
    27
 74
     0
 42
0.000000001
 43
0.00000001
 40
0.0
 40
0.0
 40
0.0
 40
0.0
 40
0.1250000000000001
 40
0.1250000000000001
 40
0.1875000000000002
 40
0.1875000000000002
 40
0.2500000000000002
 40
0.2500000000000002
 40
0.3750000000000002
 40
0.3750000000000002
 40
0.4375000000000002
 40
0.4375000000000002
 40
0.5000000000000002
 40
0.5000000000000002
 40
0.625
 40
0.625
 40
0.65625
 40
0.65625
 40
0.6875
 40
0.6875
 40
0.7500000000000001
 40
0.8125
 40
0.8125
 40
0.875
 40
0.875
 40
1.0
 40
1.0
 40
1.0
 40
1.0
 10
193.7977919975543
 20
380.9176294535022
 30
0.0
 10
193.8022388660831
 20
380.9156410475635
 30
0.0
 10
193.6651504407201
 20
380.9253877838859
 30
0.0
 10
193.2559644924739
 20
380.9543156758385
 30
0.0
 10
193.085390142329
 20
380.9663001762334
 30
0.0
 10
192.67431991084
 20
380.9940933816849
 30
0.0
 10
192.432708271927
 20
381.0099594493424
 30
0.0
 10
191.6178124108433
 20
381.0607375702962
 30
0.0
 10
190.9518434759126
 20
381.0989733034282
 30
0.0
 10
189.7703169151214
 20
381.1577469222782
 30
0.0
 10
189.3440592336622
 20
381.1776775723257
 30
0.0
 10
188.4358378186295
 20
381.2171116053074
 30
0.0
 10
187.9577715087089
 20
381.2364556725324
 30
0.0
 10
186.4538909227921
 20
381.2927267157885
 30
0.0
 10
185.3590585173364
 20
381.327878128283
 30
0.0
 10
183.8722329109196
 20
381.3673504978949
 30
0.0
 10
183.5680834090065
 20
381.375041506425
 30
0.0
 10
182.953656584045
 20
381.3898026590504
 30
0.0
 10
182.6430006922211
 20
381.3968850186613
 30
0.0
 10
181.7008914822196
 20
381.4172249483047
 30
0.0
 10
180.4177497547521
 20
381.4419274640822
 30
0.0
 10
179.0813827266434
 20
381.4616375517816
 30
0.0
 10
177.7180133856737
 20
381.4787396039507
 30
0.0
 10
177.0195319799256
 20
381.486010951846
 30
0.0
 10
174.9086803222394
 20
381.5034589625527
 30
0.0
 10
173.4860358948895
 20
381.5093287563773
 30
0.0
 10
172.0478838218239
 20
381.5093287235994
 30
0.0
  0
SPLINE
  5
13B
330
1F
100
AcDbEntity
  8
0
  6
Continuous
 62
     7
370
    25
100
AcDbSpline
210
0.0
220
0.0
230
1.0
 70
     8
 71
     3
 72
     8
 73
     4
 74
     0
 42
0.000000001
 43
0.00000001
 40
0.951820215608532
 40
0.951820215608532
 40
0.951820215608532
 40
0.951820215608532
 40
0.9579305291953363
 40
0.9579305291953363
 40
0.9579305291953363
 40
0.9579305291953363
 10
193.9981464352007
 20
380.9012541686857
 30
0.0
 10
193.9319887331461
 20
380.9067492583277
 30
0.0
 10
193.8652011188895
 20
380.9122076866
 30
0.0
 10
193.7977919975511
 20
380.9176294535025
 30
0.0
  0
SPLINE
  5
13C
330
1F
100
AcDbEntity
  8
0
  6
Continuous
 62
     7
370
    25
100
AcDbSpline
210
0.0
220
0.0
230
1.0
 70
    24
 71
     3
 72
    10
 73
     6
 74
     0
 42
0.000000001
 43
0.00000001
 40
0.0
 40
0.0
 40
0.0
 40
0.0
 40
0.5
 40
0.5
 40
1.0
 40
1.0
 40
1.0
 40
1.0
 10
161.0478958041224
 20
358.4510940043072
 30
0.0
 10
161.0478958041224
 20
358.161756734341
 30
0.0
 10
161.0478958041224
 20
357.9184746535497
 30
0.0
 10
161.0478958041224
 20
357.530388770053
 30
0.0
 10
161.0478958041224
 20
357.3830346095729
 30
0.0
 10
161.0478958041224
 20
357.2714246054812
 30
0.0
  0
SPLINE
  5
13D
330
1F
100
AcDbEntity
  8
0
  6
Continuous
 62
     7
370
    25
100
AcDbSpline
210
0.0
220
0.0
230
1.0
 70
    24
 71
     3
 72
    10
 73
     6
 74
     0
 42
0.000000001
 43
0.00000001
 40
0.0
 40
0.0
 40
0.0
 40
0.0
 40
0.5
 40
0.5
 40
1.0
 40
1.0
 40
1.0
 40
1.0
 10
183.0478958041224
 20
358.4510940043072
 30
0.0
 10
183.0478958041224
 20
358.1617567343411
 30
0.0
 10
183.0478958041224
 20
357.9184746535497
 30
0.0
 10
183.0478958041224
 20
357.530388770053
 30
0.0
 10
183.0478958041224
 20
357.3830346095729
 30
0.0
 10
183.0478958041224
 20
357.2714246054812
 30
0.0
  0
LINE
  5
13E
330
1F
100
AcDbEntity
  8
0
  6
Continuous
 62
     7
370
    25
100
AcDbLine
 10
152.2707114518
 20
416.7987618418
 30
0.0
 11
152.1425614656
 21
416.7929205867
 31
0.0
  0
LINE
  5
13F
330
1F
100
AcDbEntity
  8
0
  6
Continuous
 62
     7
370
    25
100
AcDbLine
 10
191.9544334114
 20
416.7928013774
 30
0.0
 11
191.8446863592
 21
416.7978230687
 31
0.0
  0
SPLINE
  5
140
330
1F
100
AcDbEntity
  8
0
  6
Continuous
 62
     7
370
    25
100
AcDbSpline
210
0.0
220
0.0
230
1.0
 70
     8
 71
     3
 72
     8
 73
     4
 74
     0
 42
0.000000001
 43
0.00000001
 40
0.0
 40
0.0
 40
0.0
 40
0.0
 40
0.9660390747218122
 40
0.9660390747218122
 40
0.9660390747218122
 40
0.9660390747218122
 10
155.4326804613941
 20
411.6612588060583
 30
0.0
 10
152.6123690787484
 20
411.6625003266632
 30
0.0
 10
150.5754758488593
 20
412.8519478525623
 30
0.0
 10
150.440379081768
 20
415.3835486267728
 30
0.0
  0
SPLINE
  5
141
330
1F
100
AcDbEntity
  8
0
  6
Continuous
 62
     7
370
    25
100
AcDbSpline
210
0.0
220
0.0
230
1.0
 70
     8
 71
     3
 72
     8
 73
     4
 74
     0
 42
0.000000001
 43
0.00000001
 40
0.0
 40
0.0
 40
0.0
 40
0.0
 40
0.9660391189136345
 40
0.9660391189136345
 40
0.9660391189136345
 40
0.9660391189136345
 10
188.663111146851
 20
411.6612588060583
 30
0.0
 10
191.4834226585129
 20
411.66250032672
 30
0.0
 10
193.5203159457426
 20
412.8519479613857
 30
0.0
 10
193.6554125450172
 20
415.3835489741999
 30
0.0
  0
LINE
  5
142
330
1F
100
AcDbEntity
  8
0
  6
Continuous
 62
     7
370
    25
100
AcDbLine
 10
180.6574803368
 20
417.1177509995
 30
0.0
 11
180.6568367929
 21
417.1192411156
 31
0.0
  0
LINE
  5
143
330
1F
100
AcDbEntity
  8
0
  6
Continuous
 62
     7
370
    25
100
AcDbLine
 10
193.1901159287
 20
416.4359632703
 30
0.0
 11
193.1654582322
 21
416.4555880995
 31
0.0
  0
SPLINE
  5
144
330
1F
100
AcDbEntity
  8
0
  6
Continuous
 62
     7
370
    25
100
AcDbSpline
210
0.0
220
0.0
230
1.0
 70
     8
 71
     3
 72
     9
 73
     5
 74
     0
 42
0.000000001
 43
0.00000001
 40
0.0
 40
0.0
 40
0.0
 40
0.0
 40
0.770723792464079
 40
0.9999999999999999
 40
0.9999999999999999
 40
0.9999999999999999
 40
0.9999999999999999
 10
194.3843247891224
 20
415.0948289604879
 30
0.0
 10
194.3829232379763
 20
415.125399040443
 30
0.0
 10
194.3811047510425
 20
415.1650631590986
 30
0.0
 10
194.3634427584737
 20
415.1999216501576
 30
0.0
 10
194.3593932838
 20
415.207913872788
 30
0.0
  0
SPLINE
  5
145
330
1F
100
AcDbEntity
  8
0
  6
Continuous
 62
     7
370
    25
100
AcDbSpline
210
0.0
220
0.0
230
1.0
 70
     8
 71
     3
 72
     9
 73
     5
 74
     0
 42
0.000000001
 43
0.00000001
 40
0.0
 40
0.0
 40
0.0
 40
0.0
 40
0.745336829037574
 40
1.0
 40
1.0
 40
1.0
 40
1.0
 10
149.7114128024138
 20
415.0948587628103
 30
0.0
 10
149.7128785650879
 20
415.12520102309
 30
0.0
 10
149.7148451426364
 20
415.1659104836958
 30
0.0
 10
149.7331043758777
 20
415.201692369546
 30
0.0
 10
149.7377543301142
 20
415.2108046980596
 30
0.0
  0
ARC
  5
146
330
1F
100
AcDbEntity
  8
0
  6
Continuous
 62
     7
370
    25
100
AcDbCircle
 10
193.8821641151
 20
379.5061437625
 30
0.0
 40
1.399922592269924
100
AcDbArc
 50
0.4697499879
 51
85.2476549622
  0
LINE
  5
147
330
1F
100
AcDbEntity
  8
0
  6
Continuous
 62
     7
370
    25
100
AcDbLine
 10
194.830571726
 20
403.481005487
 30
0.0
 11
194.6774660201
 21
407.294719276
 31
0.0
  0
LINE
  5
148
330
1F
100
AcDbEntity
  8
0
  6
Continuous
 62
     7
370
    25
100
AcDbLine
 10
149.2652198822
 20
403.481005487
 30
0.0
 11
149.3190410138
 21
404.8216555091
 31
0.0
  0
CIRCLE
  5
149
330
1F
100
AcDbEntity
  8
0
  6
Continuous
 62
     7
370
    25
100
AcDbCircle
 10
172.0478958041
 20
396.1424423509
 30
0.0
 40
3.569682227408607
  0
ARC
  5
14A
330
1F
100
AcDbEntity
  8
0
  6
Continuous
 62
     7
370
    25
100
AcDbCircle
 10
172.0478958041
 20
396.1424423509
 30
0.0
 40
4.000000000000002
100
AcDbArc
 50
292.1465377942
 51
67.9528624309
  0
SPLINE
  5
14B
330
1F
100
AcDbEntity
  8
0
  6
Continuous
 62
     7
370
    25
100
AcDbSpline
210
0.0
220
0.0
230
1.0
 70
     8
 71
     3
 72
    10
 73
     6
 74
     0
 42
0.000000001
 43
0.00000001
 40
0.0
 40
0.0
 40
0.0
 40
0.0
 40
0.5
 40
0.5
 40
1.0
 40
1.0
 40
1.0
 40
1.0
 10
173.5558026060034
 20
392.4375513839257
 30
0.0
 10
173.0706672964605
 20
392.2527302032515
 30
0.0
 10
172.5669361202069
 20
392.1605616889659
 30
0.0
 10
171.5275584688873
 20
392.1607201350371
 30
0.0
 10
171.0251243134444
 20
392.2527302026193
 30
0.0
 10
170.539989002242
 20
392.4375513839257
 30
0.0
  0
ARC
  5
14C
330
1F
100
AcDbEntity
  8
0
  6
Continuous
 62
     7
370
    25
100
AcDbCircle
 10
172.0478958041
 20
396.1424423509
 30
0.0
 40
4.000000000000031
100
AcDbArc
 50
112.0471375691
 51
247.8534622058
  0
SPLINE
  5
14D
330
1F
100
AcDbEntity
  8
0
  6
Continuous
 62
     7
370
    25
100
AcDbSpline
210
0.0
220
0.0
230
1.0
 70
     8
 71
     3
 72
    10
 73
     6
 74
     0
 42
0.000000001
 43
0.00000001
 40
0.0
 40
0.0
 40
0.0
 40
0.0
 40
0.5
 40
0.5
 40
1.0
 40
1.0
 40
1.0
 40
1.0
 10
170.5464187398339
 20
399.8499437501025
 30
0.0
 10
171.0296537512121
 20
400.0330280745126
 30
0.0
 10
171.5308377711981
 20
400.1242936038866
 30
0.0
 10
172.5657729143601
 20
400.1241940349969
 30
0.0
 10
173.066137854853
 20
400.0330280753387
 30
0.0
 10
173.5493728684115
 20
399.8499437501025
 30
0.0
  0
SPLINE
  5
14E
330
1F
100
AcDbEntity
  8
0
  6
Continuous
 62
     7
370
    25
100
AcDbSpline
210
0.0
220
0.0
230
1.0
 70
    24
 71
     3
 72
    17
 73
    13
 74
     0
 42
0.000000001
 43
0.00000001
 40
0.0
 40
0.0
 40
0.0
 40
0.0
 40
0.1054280627360568
 40
0.2139014259016947
 40
0.3193297170391418
 40
0.4278034941688642
 40
0.533324586169604
 40
0.6418997141009992
 40
0.7474158919336721
 40
0.8559858300617273
 40
0.9615220735701083
 40
1.0
 40
1.0
 40
1.0
 40
1.0
 10
172.0478956268822
 20
283.2825396033026
 30
0.0
 10
173.3809882966945
 20
283.2825396033026
 30
0.0
 10
176.0856801551215
 20
283.2825396033026
 30
0.0
 10
180.0119913471952
 20
283.2825396033026
 30
0.0
 10
183.7456653259692
 20
283.2825396033026
 30
0.0
 10
187.1187749546293
 20
283.2825396033026
 30
0.0
 10
190.0920114953696
 20
283.2825396033026
 30
0.0
 10
192.5297500943251
 20
283.2825396033026
 30
0.0
 10
194.4130820222311
 20
283.2825396033026
 30
0.0
 10
195.6068973787577
 20
283.2825396033026
 30
0.0
 10
196.1519202905451
 20
283.2825396033025
 30
0.0
 10
196.0745006082731
 20
283.2825396033025
 30
0.0
 10
196.0538154990233
 20
283.2825396033025
 30
0.0
  0
SPLINE
  5
14F
330
1F
100
AcDbEntity
  8
0
  6
Continuous
 62
     7
370
    25
100
AcDbSpline
210
0.0
220
0.0
230
1.0
 70
    24
 71
     3
 72
    17
 73
    13
 74
     0
 42
0.000000001
 43
0.00000001
 40
0.0
 40
0.0
 40
0.0
 40
0.0
 40
0.0773098505205509
 40
0.187047733832457
 40
0.3002131338047581
 40
0.4061993491995058
 40
0.5152967209023454
 40
0.620774601909615
 40
0.7293152967656491
 40
0.8348240239097989
 40
0.9433999563245592
 40
1.0
 40
1.0
 40
1.0
 40
1.0
 10
148.0349744261063
 20
283.2825396033025
 30
0.0
 10
148.0401554354569
 20
283.2825396033025
 30
0.0
 10
148.0526906564082
 20
283.2825396033026
 30
0.0
 10
148.8866978187707
 20
283.2825396033025
 30
0.0
 10
150.4115023188554
 20
283.2825396033026
 30
0.0
 10
152.5989112144694
 20
283.2825396033026
 30
0.0
 10
155.284099019405
 20
283.2825396033026
 30
0.0
 10
158.4705976804058
 20
283.2825396033026
 30
0.0
 10
162.0064889887743
 20
283.2825396033026
 30
0.0
 10
165.8608875586341
 20
283.2825396033026
 30
0.0
 10
169.2460716871877
 20
283.2825396033026
 30
0.0
 10
171.3328350041267
 20
283.2825396033026
 30
0.0
 10
172.0478959813632
 20
283.2825396033026
 30
0.0
  0
SPLINE
  5
150
330
1F
100
AcDbEntity
  8
0
  6
Continuous
 62
     7
370
    25
100
AcDbSpline
210
0.0
220
0.0
230
1.0
 70
    24
 71
     3
 72
    26
 73
    22
 74
     0
 42
0.000000001
 43
0.00000001
 40
0.2294549521418067
 40
0.2294549521418067
 40
0.2294549521418067
 40
0.2294549521418067
 40
0.2499769504868402
 40
0.2499769504868402
 40
0.3124769504868402
 40
0.3124769504868402
 40
0.3749769504868402
 40
0.3749769504868402
 40
0.4374769504868402
 40
0.4374769504868402
 40
0.4999769504868402
 40
0.4999769504868402
 40
0.5624769504868402
 40
0.5624769504868402
 40
0.6249769504868402
 40
0.6249769504868402
 40
0.6874769504868402
 40
0.6874769504868402
 40
0.7499769504868402
 40
0.7499769504868402
 40
0.7705219983450335
 40
0.7705219983450335
 40
0.7705219983450335
 40
0.7705219983450335
 10
189.5531486981807
 20
384.0424423508559
 30
0.0
 10
189.2642736276614
 20
384.0424423508559
 30
0.0
 10
188.9619909890354
 20
384.0424423508559
 30
0.0
 10
187.683803165645
 20
384.042442350856
 30
0.0
 10
186.5944204521146
 20
384.042442350856
 30
0.0
 10
184.1743129694611
 20
384.042442350856
 30
0.0
 10
182.8434300875603
 20
384.042442350856
 30
0.0
 10
179.9888996976227
 20
384.042442350856
 30
0.0
 10
178.4654786238363
 20
384.042442350856
 30
0.0
 10
175.3103849357373
 20
384.042442350856
 30
0.0
 10
173.6793412952889
 20
384.042442350856
 30
0.0
 10
170.4164503129566
 20
384.042442350856
 30
0.0
 10
168.7854066725081
 20
384.042442350856
 30
0.0
 10
165.6303129844091
 20
384.042442350856
 30
0.0
 10
164.1068919106227
 20
384.042442350856
 30
0.0
 10
161.2523615206852
 20
384.042442350856
 30
0.0
 10
159.9214786387844
 20
384.0424423508559
 30
0.0
 10
157.5013711561308
 20
384.042442350856
 30
0.0
 10
156.4119884426005
 20
384.0424423508559
 30
0.0
 10
155.1334457541425
 20
384.0424423508559
 30
0.0
 10
154.8308389735399
 20
384.0424423508559
 30
0.0
 10
154.5416696009556
 20
384.0424423508559
 30
0.0
  0
SPLINE
  5
151
330
1F
100
AcDbEntity
  8
0
  6
Continuous
 62
     7
370
    25
100
AcDbSpline
210
0.0
220
0.0
230
1.0
 70
     8
 71
     3
 72
     8
 73
     4
 74
     0
 42
0.000000001
 43
0.00000001
 40
0.0
 40
0.0
 40
0.0
 40
0.0
 40
1.0
 40
1.0
 40
1.0
 40
1.0
 10
195.243384666806
 20
386.4092962690927
 30
0.0
 10
195.2385135149503
 20
386.2231955699782
 30
0.0
 10
195.2171479384626
 20
386.03731726375
 30
0.0
 10
195.1791116610898
 20
385.8516637272787
 30
0.0
  0
SPLINE
  5
152
330
1F
100
AcDbEntity
  8
0
  6
Continuous
 62
     7
370
    25
100
AcDbSpline
210
0.0
220
0.0
230
1.0
 70
     8
 71
     3
 72
    16
 73
    12
 74
     0
 42
0.000000001
 43
0.00000001
 40
0.0
 40
0.0
 40
0.0
 40
0.0
 40
0.2499999999999997
 40
0.2499999999999997
 40
0.3749999999999999
 40
0.3749999999999999
 40
0.5000000000000001
 40
0.5000000000000001
 40
0.7500000000000001
 40
0.7500000000000001
 40
1.0
 40
1.0
 40
1.0
 40
1.0
 10
195.1791116610898
 20
385.8516637272787
 30
0.0
 10
195.1143678462815
 20
385.535651777266
 30
0.0
 10
195.0005551337131
 20
385.2635046835847
 30
0.0
 10
194.7534815359209
 20
384.9175013869837
 30
0.0
 10
194.6583963857115
 20
384.8125524103191
 30
0.0
 10
194.4420581018252
 20
384.6230074361588
 30
0.0
 10
194.3207538859714
 20
384.5385478478356
 30
0.0
 10
193.9221023718404
 20
384.3176316161241
 30
0.0
 10
193.6088819067652
 20
384.2122023697011
 30
0.0
 10
192.8856014913495
 20
384.0745767355628
 30
0.0
 10
192.4755308471132
 20
384.0424423508559
 30
0.0
 10
192.0123867540239
 20
384.042442350856
 30
0.0
  0
SPLINE
  5
153
330
1F
100
AcDbEntity
  8
0
  6
Continuous
 62
     7
370
    25
100
AcDbSpline
210
0.0
220
0.0
230
1.0
 70
    24
 71
     3
 72
     8
 73
     4
 74
     0
 42
0.000000001
 43
0.00000001
 40
0.0
 40
0.0
 40
0.0
 40
0.0
 40
1.0
 40
1.0
 40
1.0
 40
1.0
 10
192.0123867540239
 20
384.0424423508559
 30
0.0
 10
191.3006900762246
 20
384.0424423508559
 30
0.0
 10
190.4815677849019
 20
384.042442350856
 30
0.0
 10
189.5531690662388
 20
384.042442350856
 30
0.0
  0
SPLINE
  5
154
330
1F
100
AcDbEntity
  8
0
  6
Continuous
 62
     7
370
    25
100
AcDbSpline
210
0.0
220
0.0
230
1.0
 70
     8
 71
     3
 72
    14
 73
    10
 74
     0
 42
0.000000001
 43
0.00000001
 40
0.0
 40
0.0
 40
0.0
 40
0.0
 40
0.2500000000000001
 40
0.2500000000000001
 40
0.3749999999999998
 40
0.3749999999999998
 40
0.4999999999999997
 40
0.4999999999999997
 40
1.0
 40
1.0
 40
1.0
 40
1.0
 10
152.0834048542216
 20
384.042442350856
 30
0.0
 10
151.6201355359488
 20
384.042442350856
 30
0.0
 10
151.2084032203793
 20
384.0745780551884
 30
0.0
 10
150.6626425623452
 20
384.1789361033607
 30
0.0
 10
150.4927465513996
 20
384.2230862257642
 30
0.0
 10
150.1767631842789
 20
384.3315884425669
 30
0.0
 10
150.0309788298216
 20
384.3959521795323
 30
0.0
 10
149.3696920257153
 20
384.7663656251952
 30
0.0
 10
149.0461893664094
 20
385.2195334729137
 30
0.0
 10
148.9166799471558
 20
385.8516637272788
 30
0.0
  0
SPLINE
  5
155
330
1F
100
AcDbEntity
  8
0
  6
Continuous
 62
     7
370
    25
100
AcDbSpline
210
0.0
220
0.0
230
1.0
 70
     8
 71
     3
 72
     8
 73
     4
 74
     0
 42
0.000000001
 43
0.00000001
 40
0.0
 40
0.0
 40
0.0
 40
0.0
 40
1.0
 40
1.0
 40
1.0
 40
1.0
 10
148.9166799471558
 20
385.8516637272788
 30
0.0
 10
148.8786436697827
 20
386.0373172637517
 30
0.0
 10
148.8572780932943
 20
386.2231955699189
 30
0.0
 10
148.8524069414385
 20
386.4092962690352
 30
0.0
  0
SPLINE
  5
156
330
1F
100
AcDbEntity
  8
0
  6
Continuous
 62
     7
370
    25
100
AcDbSpline
210
0.0
220
0.0
230
1.0
 70
    24
 71
     3
 72
     8
 73
     4
 74
     0
 42
0.000000001
 43
0.00000001
 40
0.0
 40
0.0
 40
0.0
 40
0.0
 40
1.0
 40
1.0
 40
1.0
 40
1.0
 10
154.5426225420067
 20
384.042442350856
 30
0.0
 10
153.6140492316034
 20
384.042442350856
 30
0.0
 10
152.7949685023792
 20
384.0424423508559
 30
0.0
 10
152.0834048542216
 20
384.0424423508559
 30
0.0
  0
SPLINE
  5
157
330
1F
100
AcDbEntity
  8
0
  6
Continuous
 62
     7
370
    25
100
AcDbSpline
210
0.0
220
0.0
230
1.0
 70
     8
 71
     3
 72
    14
 73
    10
 74
     0
 42
0.000000001
 43
0.00000001
 40
0.0
 40
0.0
 40
0.0
 40
0.0
 40
0.25
 40
0.25
 40
0.5
 40
0.5
 40
0.75
 40
0.75
 40
1.0
 40
1.0
 40
1.0
 40
1.0
 10
148.8125997768886
 20
379.5180242330802
 30
0.0
 10
148.8140803763629
 20
379.6906037715042
 30
0.0
 10
148.8478284894503
 20
379.8628523057874
 30
0.0
 10
148.9753363165649
 20
380.1836021581108
 30
0.0
 10
149.0690565327509
 20
380.3320041236764
 30
0.0
 10
149.3038685259143
 20
380.5849729289521
 30
0.0
 10
149.4448875675446
 20
380.6894614117123
 30
0.0
 10
149.755251590132
 20
380.8404427503874
 30
0.0
 10
149.924500433565
 20
380.8868888402512
 30
0.0
 10
150.0964743226124
 20
380.9011779574508
 30
0.0
  0
SPLINE
  5
158
330
1F
100
AcDbEntity
  8
0
  6
Continuous
 62
     7
370
    25
100
AcDbSpline
210
0.0
220
0.0
230
1.0
 70
     8
 71
     3
 72
    11
 73
     7
 74
     0
 42
0.000000001
 43
0.00000001
 40
0.0
 40
0.0
 40
0.0
 40
0.0
 40
0.3054675236084483
 40
0.6109380764178729
 40
0.916407770476846
 40
1.0
 40
1.0
 40
1.0
 40
1.0
 10
195.2823116035021
 20
379.5180160375334
 30
0.0
 10
195.2624524388658
 20
379.6910752192979
 30
0.0
 10
195.2227339126574
 20
380.0371952989868
 30
0.0
 10
194.927291550567
 20
380.4714458429373
 30
0.0
 10
194.6191212882732
 20
380.7403793723812
 30
0.0
 10
194.4055549351835
 20
380.7911607692592
 30
0.0
 10
194.3596689552821
 20
380.802071449349
 30
0.0
  0
SPLINE
  5
159
330
1F
100
AcDbEntity
  8
0
  6
Continuous
 62
     8
370
    18
100
AcDbSpline
210
0.0
220
0.0
230
1.0
 70
     8
 71
     3
 72
    16
 73
    12
 74
     0
 42
0.000000001
 43
0.00000001
 40
0.0
 40
0.0
 40
0.0
 40
0.0
 40
0.1249999999999991
 40
0.1249999999999991
 40
0.2499999999999982
 40
0.2499999999999982
 40
0.4999999999999988
 40
0.4999999999999988
 40
0.7499999999999993
 40
0.7499999999999993
 40
1.0
 40
1.0
 40
1.0
 40
1.0
 10
150.5034931056732
 20
379.3990074412605
 30
0.0
 10
150.4800135206241
 20
379.4085016195467
 30
0.0
 10
150.4630538665801
 20
379.4138929870589
 30
0.0
 10
150.4332031508698
 20
379.4245055219204
 30
0.0
 10
150.4204569399012
 20
379.4289834645782
 30
0.0
 10
150.3825908044207
 20
379.4417423351627
 30
0.0
 10
150.3564982681889
 20
379.4490156909387
 30
0.0
 10
150.3037629944609
 20
379.4606828972563
 30
0.0
 10
150.2782257281219
 20
379.4658849883011
 30
0.0
 10
150.2307847145822
 20
379.4744635998958
 30
0.0
 10
150.209199676981
 20
379.4767259960095
 30
0.0
 10
150.1878315928194
 20
379.4790900962248
 30
0.0
  0
SPLINE
  5
15A
330
1F
100
AcDbEntity
  8
0
  6
Continuous
 62
     8
370
    18
100
AcDbSpline
210
0.0
220
0.0
230
1.0
 70
     8
 71
     3
 72
    32
 73
    28
 74
     0
 42
0.000000001
 43
0.00000001
 40
0.0
 40
0.0
 40
0.0
 40
0.0
 40
0.1249999999999973
 40
0.1249999999999973
 40
0.2499999999999945
 40
0.2499999999999945
 40
0.3749999999999918
 40
0.3749999999999918
 40
0.4374999999999913
 40
0.4374999999999913
 40
0.4999999999999909
 40
0.4999999999999909
 40
0.5312499999999913
 40
0.5312499999999913
 40
0.5624999999999918
 40
0.5624999999999918
 40
0.6249999999999927
 40
0.6249999999999927
 40
0.6874999999999936
 40
0.6874999999999936
 40
0.7499999999999943
 40
0.7499999999999943
 40
0.8124999999999952
 40
0.8124999999999952
 40
0.8749999999999961
 40
0.8749999999999961
 40
1.0
 40
1.0
 40
1.0
 40
1.0
 10
163.6087756535577
 20
379.0342540376636
 30
0.0
 10
162.7788432511931
 20
379.0374644618622
 30
0.0
 10
161.9490375683813
 20
379.0400855201509
 30
0.0
 10
160.290522699681
 20
379.0343341269857
 30
0.0
 10
159.459037405265
 20
379.0257546491784
 30
0.0
 10
157.8170941456188
 20
379.0190563721644
 30
0.0
 10
157.0076879325004
 20
379.019531180313
 30
0.0
 10
155.8263668501169
 20
379.0322471702447
 30
0.0
 10
155.4399791794368
 20
379.0380037175676
 30
0.0
 10
154.7016756738543
 20
379.0517121532347
 30
0.0
 10
154.3471317464245
 20
379.0596268713744
 30
0.0
 10
153.8391850153628
 20
379.0739598889857
 30
0.0
 10
153.6732272994701
 20
379.0791955868411
 30
0.0
 10
153.3549064986831
 20
379.0906337571631
 30
0.0
 10
153.2020935005367
 20
379.0968489102112
 30
0.0
 10
152.7624808203612
 20
379.1172055945027
 30
0.0
 10
152.4945340519148
 20
379.1328899781012
 30
0.0
 10
152.00815202711
 20
379.1653648212114
 30
0.0
 10
151.788413050798
 20
379.182549278616
 30
0.0
 10
151.4129021842124
 20
379.2165629253354
 30
0.0
 10
151.2555494412614
 20
379.2335087255669
 30
0.0
 10
150.9973449154085
 20
379.2673964391638
 30
0.0
 10
150.8962048966619
 20
379.2844816107129
 30
0.0
 10
150.7407439461544
 20
379.3161225777801
 30
0.0
 10
150.6859127049309
 20
379.3305947459983
 30
0.0
 10
150.5622961667845
 20
379.3693679244068
 30
0.0
 10
150.5310126455354
 20
379.3887420629538
 30
0.0
 10
150.5034295004359
 20
379.3998945099857
 30
0.0
  0
SPLINE
  5
15B
330
1F
100
AcDbEntity
  8
0
  6
Continuous
 62
     8
370
    18
100
AcDbSpline
210
0.0
220
0.0
230
1.0
 70
     8
 71
     3
 72
    10
 73
     6
 74
     0
 42
0.000000001
 43
0.00000001
 40
0.0
 40
0.0
 40
0.0
 40
0.0
 40
0.4999999999999999
 40
0.4999999999999999
 40
1.0
 40
1.0
 40
1.0
 40
1.0
 10
172.047313948252
 20
378.9973152750399
 30
0.0
 10
170.6407911767587
 20
378.9978592421498
 30
0.0
 10
169.2342559738574
 20
379.004390520194
 30
0.0
 10
166.4213490674642
 20
379.020350315448
 30
0.0
 10
165.0150040725644
 20
379.0288041210988
 30
0.0
 10
163.6087840679371
 20
379.0342355594682
 30
0.0
  0
SPLINE
  5
15C
330
1F
100
AcDbEntity
  8
0
  6
Continuous
 62
     8
370
    18
100
AcDbSpline
210
0.0
220
0.0
230
1.0
 70
     8
 71
     3
 72
    17
 73
    13
 74
     0
 42
0.000000001
 43
0.00000001
 40
0.0
 40
0.0
 40
0.0
 40
0.0
 40
0.0054249975596547
 40
0.1007818847324367
 40
0.1961860716231099
 40
0.2915175822064641
 40
0.3868567728283924
 40
0.4822239098719396
 40
0.5775481524921093
 40
0.6729417177639071
 40
0.8363719223840586
 40
1.0
 40
1.0
 40
1.0
 40
1.0
 10
161.0478958637274
 20
359.9898803802229
 30
0.0
 10
161.0073488055113
 20
360.0044731063237
 30
0.0
 10
160.2540933611648
 20
360.275566765566
 30
0.0
 10
158.8711269440184
 20
361.0144796904818
 30
0.0
 10
156.9627592682373
 20
362.2523079760064
 30
0.0
 10
155.2579281217477
 20
363.7701940488164
 30
0.0
 10
153.8009296625549
 20
365.5238450346326
 30
0.0
 10
152.6165769090338
 20
367.4718073711996
 30
0.0
 10
151.7087834652971
 20
369.561834609221
 30
0.0
 10
150.8975524530378
 20
372.2599783862206
 30
0.0
 10
150.3385904715472
 20
375.5826306463352
 30
0.0
 10
150.2381651666126
 20
378.17986347815
 30
0.0
 10
150.1879221350707
 20
379.4792655678488
 30
0.0
  0
SPLINE
  5
15D
330
1F
100
AcDbEntity
  8
0
  6
Continuous
 62
     8
370
    18
100
AcDbSpline
210
0.0
220
0.0
230
1.0
 70
     8
 71
     3
 72
    10
 73
     6
 74
     0
 42
0.000000001
 43
0.00000001
 40
0.0
 40
0.0
 40
0.0
 40
0.0
 40
0.5
 40
0.5
 40
1.0
 40
1.0
 40
1.0
 40
1.0
 10
180.4870075403077
 20
379.0342355594682
 30
0.0
 10
179.0807929229056
 20
379.0288041419068
 30
0.0
 10
177.6744391178457
 20
379.0203502996034
 30
0.0
 10
174.8614935663872
 20
379.0043902779337
 30
0.0
 10
173.4549926354294
 20
378.9978592391362
 30
0.0
 10
172.0484776599931
 20
378.9973152750394
 30
0.0
  0
SPLINE
  5
15E
330
1F
100
AcDbEntity
  8
0
  6
Continuous
 62
     8
370
    18
100
AcDbSpline
210
0.0
220
0.0
230
1.0
 70
     8
 71
     3
 72
    32
 73
    28
 74
     0
 42
0.000000001
 43
0.00000001
 40
0.0
 40
0.0
 40
0.0
 40
0.0
 40
0.1250000000000022
 40
0.1250000000000022
 40
0.1875000000000033
 40
0.1875000000000033
 40
0.2500000000000044
 40
0.2500000000000044
 40
0.3125000000000054
 40
0.3125000000000054
 40
0.3750000000000065
 40
0.3750000000000065
 40
0.4375000000000075
 40
0.4375000000000075
 40
0.4687500000000079
 40
0.4687500000000079
 40
0.5000000000000082
 40
0.5000000000000082
 40
0.5625000000000077
 40
0.5625000000000077
 40
0.6250000000000071
 40
0.6250000000000071
 40
0.7500000000000048
 40
0.7500000000000048
 40
0.8750000000000024
 40
0.8750000000000024
 40
1.0
 40
1.0
 40
1.0
 40
1.0
 10
193.592362107809
 20
379.3998945099858
 30
0.0
 10
193.5647716130397
 20
379.3887390913274
 30
0.0
 10
193.5334992358622
 20
379.3693577809294
 30
0.0
 10
193.4097034297968
 20
379.3305453862581
 30
0.0
 10
193.3547761121492
 20
379.3160529547549
 30
0.0
 10
193.1988795536452
 20
379.2843521277563
 30
0.0
 10
193.0984225071342
 20
379.2673934903533
 30
0.0
 10
192.8402900254434
 20
379.233514781298
 30
0.0
 10
192.6825867984603
 20
379.2165190896312
 30
0.0
 10
192.3042770504514
 20
379.1822849176687
 30
0.0
 10
192.0869927070822
 20
379.165324449029
 30
0.0
 10
191.6027289001172
 20
379.1329854034223
 30
0.0
 10
191.3348326545576
 20
379.1172739463881
 30
0.0
 10
190.8925276610072
 20
379.0967957728342
 30
0.0
 10
190.7375971509359
 20
379.0905055698349
 30
0.0
 10
190.4191032525829
 20
379.079081478063
 30
0.0
 10
190.2553453484438
 20
379.0739243113355
 30
0.0
 10
189.7511986436001
 20
379.059698486421
 30
0.0
 10
189.3979943718483
 20
379.0517938689953
 30
0.0
 10
188.6593912167265
 20
379.0380605611504
 30
0.0
 10
188.2720112537694
 20
379.0322868952395
 30
0.0
 10
187.0962676139972
 20
379.0195954929026
 30
0.0
 10
186.2838471577406
 20
379.0190377640651
 30
0.0
 10
184.6330012378637
 20
379.0257675613731
 30
0.0
 10
183.8046279558543
 20
379.0343378837217
 30
0.0
 10
182.1466288587492
 20
379.0400844195031
 30
0.0
 10
181.3169060283349
 20
379.0374642981224
 30
0.0
 10
180.4870159546871
 20
379.0342540376637
 30
0.0
  0
SPLINE
  5
15F
330
1F
100
AcDbEntity
  8
0
  6
Continuous
 62
     8
370
    18
100
AcDbSpline
210
0.0
220
0.0
230
1.0
 70
     8
 71
     3
 72
    16
 73
    12
 74
     0
 42
0.000000001
 43
0.00000001
 40
0.0
 40
0.0
 40
0.0
 40
0.0
 40
0.2500000000000006
 40
0.2500000000000006
 40
0.5000000000000012
 40
0.5000000000000012
 40
0.7500000000000018
 40
0.7500000000000018
 40
0.8750000000000009
 40
0.8750000000000009
 40
1.0
 40
1.0
 40
1.0
 40
1.0
 10
193.9079600154255
 20
379.4790900962248
 30
0.0
 10
193.8865919312639
 20
379.4767259960096
 30
0.0
 10
193.8650068936627
 20
379.474463599896
 30
0.0
 10
193.817565880123
 20
379.4658849883011
 30
0.0
 10
193.792028613784
 20
379.4606828972564
 30
0.0
 10
193.739293340056
 20
379.4490156909387
 30
0.0
 10
193.7132008038241
 20
379.4417423351625
 30
0.0
 10
193.6753346683436
 20
379.4289834645781
 30
0.0
 10
193.662588457375
 20
379.4245055219204
 30
0.0
 10
193.6327377416648
 20
379.4138929870588
 30
0.0
 10
193.6157780876207
 20
379.4085016195468
 30
0.0
 10
193.5922985025716
 20
379.3990074412606
 30
0.0
  0
SPLINE
  5
160
330
1F
100
AcDbEntity
  8
0
  6
Continuous
 62
     8
370
    18
100
AcDbSpline
210
0.0
220
0.0
230
1.0
 70
     8
 71
     3
 72
    17
 73
    13
 74
     0
 42
0.000000001
 43
0.00000001
 40
0.0
 40
0.0
 40
0.0
 40
0.0
 40
0.0054249975596547
 40
0.1007818847324367
 40
0.1961860716231099
 40
0.2915175822064641
 40
0.3868567728283924
 40
0.4822239098719396
 40
0.5775481524921093
 40
0.6729417177639071
 40
0.8363719223840586
 40
1.0
 40
1.0
 40
1.0
 40
1.0
 10
183.0478957445181
 20
359.9898803802229
 30
0.0
 10
183.0884428027343
 20
360.0044731063237
 30
0.0
 10
183.8416982470807
 20
360.275566765566
 30
0.0
 10
185.2246646642272
 20
361.0144796904818
 30
0.0
 10
187.1330323400084
 20
362.2523079760064
 30
0.0
 10
188.837863486498
 20
363.7701940488164
 30
0.0
 10
190.2948619456907
 20
365.5238450346326
 30
0.0
 10
191.4792146992118
 20
367.4718073711996
 30
0.0
 10
192.3870081429485
 20
369.561834609221
 30
0.0
 10
193.1982391552078
 20
372.2599783862206
 30
0.0
 10
193.7572011366984
 20
375.5826306463352
 30
0.0
 10
193.857626441633
 20
378.17986347815
 30
0.0
 10
193.9078694731749
 20
379.4792655678488
 30
0.0
  0
SPLINE
  5
161
330
1F
100
AcDbEntity
  8
0
  6
Continuous
 62
     8
370
    18
100
AcDbSpline
210
0.0
220
0.0
230
1.0
 70
     8
 71
     3
 72
    30
 73
    26
 74
     0
 42
0.000000001
 43
0.00000001
 40
0.0
 40
0.0
 40
0.0
 40
0.0
 40
0.1250000000000004
 40
0.1250000000000004
 40
0.1875000000000006
 40
0.1875000000000006
 40
0.2500000000000007
 40
0.2500000000000007
 40
0.3125000000000009
 40
0.3125000000000009
 40
0.3750000000000011
 40
0.3750000000000011
 40
0.4375000000000013
 40
0.4375000000000013
 40
0.5000000000000014
 40
0.5000000000000014
 40
0.5625000000000017
 40
0.5625000000000017
 40
0.6250000000000018
 40
0.6250000000000018
 40
0.7500000000000012
 40
0.7500000000000012
 40
0.8750000000000006
 40
0.8750000000000006
 40
1.0
 40
1.0
 40
1.0
 40
1.0
 10
151.7854501574271
 20
380.9092889896381
 30
0.0
 10
151.8097633332681
 20
380.9104035313373
 30
0.0
 10
151.8377340757807
 20
380.9117831996118
 30
0.0
 10
151.9400740823744
 20
380.9124137353335
 30
0.0
 10
151.9849941521736
 20
380.9124493868377
 30
0.0
 10
152.1133506705369
 20
380.912490624652
 30
0.0
 10
152.1976380359879
 20
380.9125157883827
 30
0.0
 10
152.4184764558491
 20
380.9130360098094
 30
0.0
 10
152.5553996905602
 20
380.9135238967393
 30
0.0
 10
152.8874237293748
 20
380.9150303270789
 30
0.0
 10
153.0838693459167
 20
380.9160820430443
 30
0.0
 10
153.5224769301637
 20
380.9188798742575
 30
0.0
 10
153.7658531360622
 20
380.920638338104
 30
0.0
 10
154.3027979554845
 20
380.9250112008099
 30
0.0
 10
154.5990899720965
 20
380.9276453732042
 30
0.0
 10
155.2196443171709
 20
380.9332202406904
 30
0.0
 10
155.5452921723745
 20
380.9361651432301
 30
0.0
 10
156.2246560149068
 20
380.941868290472
 30
0.0
 10
156.5801855750249
 20
380.9446169876408
 30
0.0
 10
157.6549100972817
 20
380.9515715676884
 30
0.0
 10
158.3912775872517
 20
380.9550517800487
 30
0.0
 10
159.8823472438989
 20
380.9602112228843
 30
0.0
 10
160.634512135913
 20
380.9616192892911
 30
0.0
 10
162.1354533327113
 20
380.9617097175499
 30
0.0
 10
162.8871218402119
 20
380.9605434284377
 30
0.0
 10
163.6372770620198
 20
380.9595126434682
 30
0.0
  0
SPLINE
  5
162
330
1F
100
AcDbEntity
  8
0
  6
Continuous
 62
     8
370
    18
100
AcDbSpline
210
0.0
220
0.0
230
1.0
 70
     8
 71
     3
 72
    30
 73
    26
 74
     0
 42
0.000000001
 43
0.00000001
 40
0.0
 40
0.0
 40
0.0
 40
0.0
 40
0.1250000000000004
 40
0.1250000000000004
 40
0.2500000000000008
 40
0.2500000000000008
 40
0.3750000000000012
 40
0.3750000000000012
 40
0.4375000000000011
 40
0.4375000000000011
 40
0.500000000000001
 40
0.500000000000001
 40
0.5625000000000009
 40
0.5625000000000009
 40
0.6250000000000008
 40
0.6250000000000008
 40
0.6875000000000007
 40
0.6875000000000007
 40
0.7500000000000004
 40
0.7500000000000004
 40
0.8125000000000003
 40
0.8125000000000003
 40
0.8750000000000002
 40
0.8750000000000002
 40
1.0
 40
1.0
 40
1.0
 40
1.0
 10
180.4585145462249
 20
380.9595126434682
 30
0.0
 10
181.2090884759931
 20
380.9605440039284
 30
0.0
 10
181.9602353825273
 20
380.9617094165861
 30
0.0
 10
183.4607995165907
 20
380.9616196252509
 30
0.0
 10
184.2107174330318
 20
380.9602200203569
 30
0.0
 10
185.7059293586965
 20
380.955047520431
 30
0.0
 10
186.4489422728647
 20
380.9515278573288
 30
0.0
 10
187.5208309173815
 20
380.9445788967457
 30
0.0
 10
187.8739087749433
 20
380.9418465215065
 30
0.0
 10
188.5549168064962
 20
380.9361265326444
 30
0.0
 10
188.8799008008953
 20
380.9331864535283
 30
0.0
 10
189.4967303480395
 20
380.9276451824703
 30
0.0
 10
189.7905115205415
 20
380.9250316597907
 30
0.0
 10
190.3314624534584
 20
380.920625682709
 30
0.0
 10
190.5749494845466
 20
380.9188689831125
 30
0.0
 10
191.0118329605184
 20
380.9160830772195
 30
0.0
 10
191.2062317538619
 20
380.9150406758887
 30
0.0
 10
191.5404376826841
 20
380.9135230362241
 30
0.0
 10
191.6775181599414
 20
380.9130354600517
 30
0.0
 10
191.8980982006614
 20
380.9125159904074
 30
0.0
 10
191.9819852477951
 20
380.9124907485415
 30
0.0
 10
192.1106294319042
 20
380.9124494632225
 30
0.0
 10
192.1556085848088
 20
380.9124140888059
 30
0.0
 10
192.2580603239781
 20
380.9117838168803
 30
0.0
 10
192.2860147081908
 20
380.9104041531169
 30
0.0
 10
192.3103414508178
 20
380.9092889896381
 30
0.0
  0
SPLINE
  5
163
330
1F
100
AcDbEntity
  8
0
  6
Continuous
 62
     8
370
    18
100
AcDbSpline
210
0.0
220
0.0
230
1.0
 70
     8
 71
     3
 72
    10
 73
     6
 74
     0
 42
0.000000001
 43
0.00000001
 40
0.0
 40
0.0
 40
0.0
 40
0.0
 40
0.5
 40
0.5
 40
1.0
 40
1.0
 40
1.0
 40
1.0
 10
172.0469964460191
 20
380.949896189434
 30
0.0
 10
173.4490050103017
 20
380.9500236815727
 30
0.0
 10
174.8510192822148
 20
380.9512328255095
 30
0.0
 10
177.6549812654747
 20
380.9552174418101
 30
0.0
 10
179.0568614637656
 20
380.9575834026476
 30
0.0
 10
180.4585145462249
 20
380.9594947270108
 30
0.0
  0
SPLINE
  5
164
330
1F
100
AcDbEntity
  8
0
  6
Continuous
 62
     8
370
    18
100
AcDbSpline
210
0.0
220
0.0
230
1.0
 70
     8
 71
     3
 72
    10
 73
     6
 74
     0
 42
0.000000001
 43
0.00000001
 40
0.0
 40
0.0
 40
0.0
 40
0.0
 40
0.4999999999999999
 40
0.4999999999999999
 40
1.0
 40
1.0
 40
1.0
 40
1.0
 10
163.6372770620198
 20
380.9594947270108
 30
0.0
 10
165.0389051935632
 20
380.9575834364878
 30
0.0
 10
166.4408057538972
 20
380.9552174536395
 30
0.0
 10
169.2447276285636
 20
380.9512328837195
 30
0.0
 10
170.6467770991006
 20
380.9500236824365
 30
0.0
 10
172.0487951622258
 20
380.949896189434
 30
0.0
  0
SPLINE
  5
165
330
1F
100
AcDbEntity
  8
0
  6
Continuous
 62
     8
370
    18
100
AcDbSpline
210
0.0
220
0.0
230
1.0
 70
    24
 71
     3
 72
    13
 73
     9
 74
     0
 42
0.000000001
 43
0.00000001
 40
0.1133843104618712
 40
0.1133843104618712
 40
0.1133843104618712
 40
0.1133843104618712
 40
0.2383843104618712
 40
0.3633843104618711
 40
0.6133843104618711
 40
0.8633843104618711
 40
0.9883843104618711
 40
1.0
 40
1.0
 40
1.0
 40
1.0
 10
163.6372770620199
 20
381.3963428328441
 30
0.0
 10
163.6372770620199
 20
381.3959968648269
 30
0.0
 10
163.6372770620199
 20
381.3951275539716
 30
0.0
 10
163.6372770620199
 20
381.3824320409283
 30
0.0
 10
163.6372770620199
 20
381.3268046182832
 30
0.0
 10
163.6372770620199
 20
381.1790379123048
 30
0.0
 10
163.6372770620198
 20
381.0274193007386
 30
0.0
 10
163.6372770620198
 20
380.9648947587916
 30
0.0
 10
163.6372770620198
 20
380.9595131452249
 30
0.0
  0
SPLINE
  5
166
330
1F
100
AcDbEntity
  8
0
  6
Continuous
 62
     8
370
    18
100
AcDbSpline
210
0.0
220
0.0
230
1.0
 70
     8
 71
     3
 72
    13
 73
     9
 74
     0
 42
0.000000001
 43
0.00000001
 40
0.1035993772596287
 40
0.1035993772596287
 40
0.1035993772596287
 40
0.1035993772596287
 40
0.125
 40
0.25
 40
0.5
 40
0.75
 40
0.875
 40
1.0
 40
1.0
 40
1.0
 40
1.0
 10
151.785663736882
 20
380.9093063323595
 30
0.0
 10
151.8797943363023
 20
380.9169496163756
 30
0.0
 10
152.5238361208849
 20
380.9678758895379
 30
0.0
 10
154.2693034051712
 20
381.082539881987
 30
0.0
 10
157.0232294171035
 20
381.2163424849031
 30
0.0
 10
159.7787978479954
 20
381.3069603968044
 30
0.0
 10
161.9835488365552
 20
381.3631203685342
 30
0.0
 10
163.0860191663511
 20
381.386070998914
 30
0.0
 10
163.6372770620199
 20
381.3963428328441
 30
0.0
  0
SPLINE
  5
167
330
1F
100
AcDbEntity
  8
0
  6
Continuous
 62
     8
370
    18
100
AcDbSpline
210
0.0
220
0.0
230
1.0
 70
     8
 71
     3
 72
    14
 73
    10
 74
     0
 42
0.000000001
 43
0.00000001
 40
0.0
 40
0.0
 40
0.0
 40
0.0
 40
0.145435844438609
 40
0.2788988766122656
 40
0.5577521529313259
 40
0.705397710442859
 40
0.8365913119150571
 40
0.9222212149360521
 40
1.0
 40
1.0
 40
1.0
 40
1.0
 10
180.4585145462249
 20
381.3963428328441
 30
0.0
 10
181.033447856757
 20
381.3849075886232
 30
0.0
 10
182.1359838584787
 20
381.3629784914373
 30
0.0
 10
184.3405615835198
 20
381.3062722082012
 30
0.0
 10
186.553547506545
 20
381.2329497579985
 30
0.0
 10
188.7567911534478
 20
381.1348460266962
 30
0.0
 10
190.1959848845158
 20
381.0562980325431
 30
0.0
 10
191.3588575747247
 20
380.9819412478087
 30
0.0
 10
192.0033427870989
 20
380.9321456811667
 30
0.0
 10
192.3101029563262
 20
380.908444134325
 30
0.0
  0
SPLINE
  5
168
330
1F
100
AcDbEntity
  8
0
  6
Continuous
 62
     8
370
    18
100
AcDbSpline
210
0.0
220
0.0
230
1.0
 70
    24
 71
     3
 72
     8
 73
     4
 74
     0
 42
0.000000001
 43
0.00000001
 40
0.0
 40
0.0
 40
0.0
 40
0.0
 40
0.8917773888804557
 40
0.8917773888804557
 40
0.8917773888804557
 40
0.8917773888804557
 10
180.4585145462249
 20
380.9594942252766
 30
0.0
 10
180.4585145462249
 20
381.3915568829719
 30
0.0
 10
180.4585145462249
 20
381.3941014422574
 30
0.0
 10
180.4585145462249
 20
381.396342832844
 30
0.0
  0
SPLINE
  5
169
330
1F
100
AcDbEntity
  8
0
  6
Continuous
 62
     8
370
    18
100
AcDbSpline
210
0.0
220
0.0
230
1.0
 70
     8
 71
     3
 72
    13
 73
     9
 74
     0
 42
0.000000001
 43
0.00000001
 40
0.0
 40
0.0
 40
0.0
 40
0.0
 40
0.124999999985803
 40
0.249999999971606
 40
0.3749999999574091
 40
0.4999999999432119
 40
0.4999999999432119
 40
0.5000013429002297
 40
0.5000013429002297
 40
0.5000013429002297
 40
0.5000013429002297
 10
180.4585145462249
 20
381.396342832844
 30
0.0
 10
179.7577111364392
 20
381.4092476034462
 30
0.0
 10
178.3560363397526
 20
381.4313418663894
 30
0.0
 10
176.2533903357439
 20
381.4543793272224
 30
0.0
 10
174.1506624536226
 20
381.4679591346641
 30
0.0
 10
172.7488180198069
 20
381.4709519880464
 30
0.0
 10
172.0478882736551
 20
381.4709519719245
 30
0.0
 10
172.0478807431879
 20
381.4709519719242
 30
0.0
 10
172.0478732127206
 20
381.4709519719237
 30
0.0
  0
SPLINE
  5
16A
330
1F
100
AcDbEntity
  8
0
  6
Continuous
 62
     8
370
    18
100
AcDbSpline
210
0.0
220
0.0
230
1.0
 70
     8
 71
     3
 72
     8
 73
     4
 74
     0
 42
0.000000001
 43
0.00000001
 40
0.4999993484982498
 40
0.4999993484982498
 40
0.4999993484982498
 40
0.4999993484982498
 40
0.664604493350987
 40
0.664604493350987
 40
0.664604493350987
 40
0.664604493350987
 10
172.0479183955242
 20
381.4709519719237
 30
0.0
 10
169.1931721118847
 20
381.4709521687922
 30
0.0
 10
166.338425220304
 20
381.4460824557657
 30
0.0
 10
163.6372770620199
 20
381.396342832844
 30
0.0
  0
SPLINE
  5
16B
330
1F
100
AcDbEntity
  8
0
  6
Continuous
 62
     8
370
    18
100
AcDbSpline
210
0.0
220
0.0
230
1.0
 70
     8
 71
     3
 72
    12
 73
     8
 74
     0
 42
0.000000001
 43
0.00000001
 40
0.0
 40
0.0
 40
0.0
 40
0.0
 40
0.4999999999999988
 40
0.4999999999999988
 40
0.7499999999999993
 40
0.7499999999999993
 40
1.0
 40
1.0
 40
1.0
 40
1.0
 10
151.4734316806344
 20
380.9024275000294
 30
0.0
 10
151.5161165457757
 20
380.9026705479471
 30
0.0
 10
151.5628812496256
 20
380.9032460232297
 30
0.0
 10
151.6415793921367
 20
380.9048000546285
 30
0.0
 10
151.667454959489
 20
380.9052928163361
 30
0.0
 10
151.7171215046878
 20
380.9060850315887
 30
0.0
 10
151.7402066233563
 20
380.9063753577944
 30
0.0
 10
151.7859023785281
 20
380.9084614289922
 30
0.0
  0
LWPOLYLINE
  5
16C
330
1F
100
AcDbEntity
  8
0
  6
Continuous
 62
     8
370
    18
100
AcDbPolyline
 90
        6
 70
   128
 43
0.0
 10
150.9333527238
 20
380.9019762846
 10
151.031068951
 20
380.9020433398
 10
151.1288634092
 20
380.9021178456
 10
151.2267398239
 20
380.902199802
 10
151.3247056455
 20
380.902289209
 10
151.4735440315
 20
380.9024382206
  0
SPLINE
  5
16D
330
1F
100
AcDbEntity
  8
0
  6
Continuous
 62
     8
370
    18
100
AcDbSpline
210
0.0
220
0.0
230
1.0
 70
     8
 71
     3
 72
    11
 73
     7
 74
     0
 42
0.000000001
 43
0.00000001
 40
0.0
 40
0.0
 40
0.0
 40
0.0
 40
0.0176053502032685
 40
0.0176053502032685
 40
0.0176053502032685
 40
0.0221786407149249
 40
0.0221786407149249
 40
0.0221786407149249
 40
0.0221786407149249
 10
150.629334593148
 20
380.9026276245901
 30
0.0
 10
150.7121120811408
 20
380.9026484606763
 30
0.0
 10
150.7856376211251
 20
380.9019069604148
 30
0.0
 10
150.8678930581189
 20
380.9018843069484
 30
0.0
 10
150.8892603150501
 20
380.9018784223229
 30
0.0
 10
150.911008168269
 20
380.9019038335537
 30
0.0
 10
150.9330214247798
 20
380.9019509956872
 30
0.0
  0
SPLINE
  5
16E
330
1F
100
AcDbEntity
  8
0
  6
Continuous
 62
     8
370
    18
100
AcDbSpline
210
0.0
220
0.0
230
1.0
 70
     8
 71
     3
 72
    10
 73
     6
 74
     0
 42
0.000000001
 43
0.00000001
 40
0.0
 40
0.0
 40
0.0
 40
0.0
 40
0.5
 40
0.5
 40
1.0
 40
1.0
 40
1.0
 40
1.0
 10
150.0976451730447
 20
380.9012541686857
 30
0.0
 10
150.1942273202291
 20
380.9021476698304
 30
0.0
 10
150.2789894853626
 20
380.9020565998362
 30
0.0
 10
150.4544676625517
 20
380.9023687238229
 30
0.0
 10
150.5429758534996
 20
380.902587033255
 30
0.0
 10
150.6292677663613
 20
380.9026217180128
 30
0.0
  0
LWPOLYLINE
  5
16F
330
1F
100
AcDbEntity
  8
0
  6
Continuous
 62
     8
370
    18
100
AcDbPolyline
 90
        3
 70
   128
 43
0.0
 10
172.0479409848
 20
381.470954773
 10
172.0479267382
 20
381.4935225816
 10
172.0479077864
 20
381.5093252631
  0
SPLINE
  5
170
330
1F
100
AcDbEntity
  8
0
  6
Continuous
 62
     8
370
    18
100
AcDbSpline
210
0.0
220
0.0
230
1.0
 70
     8
 71
     3
 72
    11
 73
     7
 74
     0
 42
0.000000001
 43
0.00000001
 40
0.0
 40
0.0
 40
0.0
 40
0.0
 40
0.0286318124677322
 40
0.0286318124677322
 40
0.0286318124677322
 40
0.0366385311579619
 40
0.0366385311579619
 40
0.0366385311579619
 40
0.0366385311579619
 10
193.4665238418841
 20
380.9026217180128
 30
0.0
 10
193.6013924585146
 20
380.9025675080064
 30
0.0
 10
193.7396426424884
 20
380.9022323665985
 30
0.0
 10
193.877443360303
 20
380.9019309986942
 30
0.0
 10
193.9159785163664
 20
380.9018467229415
 30
0.0
 10
193.9559337497354
 20
380.9016446868504
 30
0.0
 10
193.9981464352007
 20
380.9012541686857
 30
0.0
  0
SPLINE
  5
171
330
1F
100
AcDbEntity
  8
0
  6
Continuous
 62
     8
370
    18
100
AcDbSpline
210
0.0
220
0.0
230
1.0
 70
     8
 71
     3
 72
    10
 73
     6
 74
     0
 42
0.000000001
 43
0.00000001
 40
0.0
 40
0.0
 40
0.0
 40
0.0
 40
0.5
 40
0.5
 40
1.0
 40
1.0
 40
1.0
 40
1.0
 10
193.1627701834654
 20
380.9019509956872
 30
0.0
 10
193.2161479638042
 20
380.9018366368691
 30
0.0
 10
193.2674075937667
 20
380.9018961369525
 30
0.0
 10
193.3667024787586
 20
380.9022808505816
 30
0.0
 10
193.4143168343738
 20
380.9026407488988
 30
0.0
 10
193.4664570150973
 20
380.9026276245902
 30
0.0
  0
LWPOLYLINE
  5
172
330
1F
100
AcDbEntity
  8
0
  6
Continuous
 62
     8
370
    18
100
AcDbPolyline
 90
        5
 70
   128
 43
0.0
 10
192.6222475768
 20
380.9024382206
 10
192.7575519831
 20
380.9023041101
 10
192.8926757128
 20
380.9021849008
 10
193.0276336671
 20
380.9020731421
 10
193.1624388845
 20
380.9019762846
  0
SPLINE
  5
173
330
1F
100
AcDbEntity
  8
0
  6
Continuous
 62
     8
370
    18
100
AcDbSpline
210
0.0
220
0.0
230
1.0
 70
     8
 71
     3
 72
    12
 73
     8
 74
     0
 42
0.000000001
 43
0.00000001
 40
0.0
 40
0.0
 40
0.0
 40
0.0
 40
0.25
 40
0.25
 40
0.5
 40
0.5
 40
1.0
 40
1.0
 40
1.0
 40
1.0
 10
192.3098892297167
 20
380.9084614289922
 30
0.0
 10
192.3555849848885
 20
380.9063753577944
 30
0.0
 10
192.378670103557
 20
380.9060850315888
 30
0.0
 10
192.4283366487558
 20
380.905292816336
 30
0.0
 10
192.4542122161082
 20
380.9048000546285
 30
0.0
 10
192.5329103586192
 20
380.9032460232297
 30
0.0
 10
192.5796750624691
 20
380.9026705479471
 30
0.0
 10
192.6223599276105
 20
380.9024275000293
 30
0.0
  0
ARC
  5
174
330
1F
100
AcDbEntity
  8
0
  6
Continuous
 62
     8
370
    18
100
AcDbCircle
 10
196.1078524871
 20
323.8782252828
 30
0.0
 40
55.64471059429079
100
AcDbArc
 50
91.7098350466
 51
92.2658468025
  0
SPLINE
  5
175
330
1F
100
AcDbEntity
  8
0
  6
Continuous
 62
     8
370
    18
100
AcDbSpline
210
0.0
220
0.0
230
1.0
 70
     8
 71
     3
 72
    17
 73
    13
 74
     0
 42
0.000000001
 43
0.00000001
 40
0.0
 40
0.0
 40
0.0
 40
0.0
 40
0.1605335837808995
 40
0.3204892682909145
 40
0.412656374992737
 40
0.5047518234366245
 40
0.5969090401268509
 40
0.689015348530462
 40
0.7811005242353967
 40
0.8732934163584374
 40
0.965453805891431
 40
1.0
 40
1.0
 40
1.0
 40
1.0
 10
194.4478577525176
 20
379.4985700221754
 30
0.0
 10
194.4285487130125
 20
378.0823402226212
 30
0.0
 10
194.3900001439428
 20
375.2549788599648
 30
0.0
 10
193.9706662074472
 20
371.6269991717048
 30
0.0
 10
193.2499877771608
 20
368.6722220798364
 30
0.0
 10
192.3999926255132
 20
366.3794548704852
 30
0.0
 10
191.2367736407917
 20
364.2273346386197
 30
0.0
 10
189.7722198196734
 20
362.2674132929711
 30
0.0
 10
188.02347598656
 20
360.5536220097932
 30
0.0
 10
186.0473016404817
 20
359.1178187829628
 30
0.0
 10
184.3686468831896
 20
358.1449641313396
 30
0.0
 10
183.3308485459661
 20
357.7285963705679
 30
0.0
 10
183.0478957445181
 20
357.6150748701788
 30
0.0
  0
SPLINE
  5
176
330
1F
100
AcDbEntity
  8
0
  6
Continuous
 62
     8
370
    18
100
AcDbSpline
210
0.0
220
0.0
230
1.0
 70
     8
 71
     3
 72
    17
 73
    13
 74
     0
 42
0.000000001
 43
0.00000001
 40
0.0
 40
0.0
 40
0.0
 40
0.0
 40
0.1602440725721087
 40
0.3203514947784313
 40
0.4125491515716953
 40
0.5046980067167445
 40
0.5968497139888765
 40
0.6889941090073277
 40
0.7811328111301583
 40
0.8733167111268841
 40
0.9654696232324886
 40
1.0
 40
1.0
 40
1.0
 40
1.0
 10
149.6482542306937
 20
379.4985700221754
 30
0.0
 10
149.6687176429765
 20
378.0848233180481
 30
0.0
 10
149.7096270170822
 20
375.258535501995
 30
0.0
 10
150.1251506948803
 20
371.6310937462512
 30
0.0
 10
150.8424647810777
 20
368.6728960678485
 30
0.0
 10
151.6934755156647
 20
366.3797798814506
 30
0.0
 10
152.8519176272557
 20
364.2237667183208
 30
0.0
 10
154.3219195187964
 20
362.2665641420207
 30
0.0
 10
156.0697243967136
 20
360.5507819874234
 30
0.0
 10
158.0481564342695
 20
359.1169058741779
 30
0.0
 10
159.7269439348813
 20
358.144667531228
 30
0.0
 10
160.7649609920863
 20
357.7291407055042
 30
0.0
 10
161.0478958637274
 20
357.6158795328832
 30
0.0
  0
ARC
  5
177
330
1F
100
AcDbEntity
  8
0
  6
Continuous
 62
     8
370
    18
100
AcDbCircle
 10
147.9934377653
 20
324.036649771
 30
0.0
 40
55.48619258179883
100
AcDbArc
 50
87.7333589587
 51
88.2909591922
  0
SPLINE
  5
178
330
1F
100
AcDbEntity
  8
0
  6
Continuous
 62
     8
370
    18
100
AcDbSpline
210
0.0
220
0.0
230
1.0
 70
     8
 71
     3
 72
    11
 73
     7
 74
     0
 42
0.000000001
 43
0.00000001
 40
0.0
 40
0.0
 40
0.0
 40
0.0
 40
0.3906203545959616
 40
0.6009202529461636
 40
0.8157136099478244
 40
0.9999999999999999
 40
0.9999999999999999
 40
0.9999999999999999
 40
0.9999999999999999
 10
150.4408265054978
 20
415.3839561911321
 30
0.0
 10
150.4491947377182
 20
415.5448814759279
 30
0.0
 10
150.4620682097825
 20
415.7924447728915
 30
0.0
 10
150.6057769206917
 20
416.0958240066686
 30
0.0
 10
150.7493440980496
 20
416.300863038067
 30
0.0
 10
150.874725850055
 20
416.4050791628463
 30
0.0
 10
150.9326244295395
 20
416.4532039137579
 30
0.0
  0
SPLINE
  5
179
330
1F
100
AcDbEntity
  8
0
  6
Continuous
 62
     8
370
    18
100
AcDbSpline
210
0.0
220
0.0
230
1.0
 70
     8
 71
     3
 72
    15
 73
    11
 74
     0
 42
0.000000001
 43
0.00000001
 40
0.0
 40
0.0
 40
0.0
 40
0.0
 40
0.1735461479508036
 40
0.3473857693072073
 40
0.523217382092894
 40
0.6115247192347961
 40
0.6995867001856932
 40
0.7876421282893544
 40
0.8759814638588191
 40
1.0
 40
1.0
 40
1.0
 40
1.0
 10
163.4286972285069
 20
416.9134411783911
 30
0.0
 10
162.6225477124499
 20
416.9120021336321
 30
0.0
 10
161.0088854495947
 20
416.9091216106327
 30
0.0
 10
158.5836244330779
 20
416.9017002532263
 30
0.0
 10
156.613678667614
 20
416.8878626914772
 30
0.0
 10
155.1871683623765
 20
416.8718082051338
 30
0.0
 10
154.225504827559
 20
416.857588645206
 30
0.0
 10
153.4350646697681
 20
416.8415079838342
 30
0.0
 10
152.6960985589104
 20
416.8219370369325
 30
0.0
 10
152.4275473210675
 20
416.8073062988939
 30
0.0
 10
152.2707114518441
 20
416.7987618418432
 30
0.0
  0
SPLINE
  5
17A
330
1F
100
AcDbEntity
  8
0
  6
Continuous
 62
     8
370
    18
100
AcDbSpline
210
0.0
220
0.0
230
1.0
 70
     8
 71
     3
 72
    15
 73
    11
 74
     0
 42
0.000000001
 43
0.00000001
 40
0.0
 40
0.0
 40
0.0
 40
0.0
 40
0.1264053447617583
 40
0.2141027052477904
 40
0.3015785713639379
 40
0.3892575705352458
 40
0.4772504916978692
 40
0.6522161490979744
 40
0.8260622846794103
 40
1.0
 40
1.0
 40
1.0
 40
1.0
 10
191.8446863592423
 20
416.797823068688
 30
0.0
 10
191.685435110114
 20
416.80657922631
 30
0.0
 10
191.4156987052436
 20
416.8214102212968
 30
0.0
 10
190.6756351090213
 20
416.8411657972937
 30
0.0
 10
189.889631057814
 20
416.8572555321549
 30
0.0
 10
188.9315913063119
 20
416.8715134195182
 30
0.0
 10
187.5076699101078
 20
416.8876301469093
 30
0.0
 10
185.5357229385581
 20
416.9016118347178
 30
0.0
 10
183.1015331346025
 20
416.9090649672845
 30
0.0
 10
181.4787164067419
 20
416.911982185298
 30
0.0
 10
180.6670943797387
 20
416.9134411783911
 30
0.0
  0
SPLINE
  5
17B
330
1F
100
AcDbEntity
  8
0
  6
Continuous
 62
     8
370
    18
100
AcDbSpline
210
0.0
220
0.0
230
1.0
 70
     8
 71
     3
 72
    11
 73
     7
 74
     0
 42
0.000000001
 43
0.00000001
 40
0.0
 40
0.0
 40
0.0
 40
0.0
 40
0.3906051657215929
 40
0.6008967826125498
 40
0.8156817875934407
 40
1.0
 40
1.0
 40
1.0
 40
1.0
 10
193.6549651027478
 20
415.3839561911321
 30
0.0
 10
193.6465968712356
 20
415.5448814351503
 30
0.0
 10
193.6337234024924
 20
415.7924446264691
 30
0.0
 10
193.4900147264699
 20
416.09582413501
 30
0.0
 10
193.3464380382958
 20
416.3008759536625
 30
0.0
 10
193.2210417917182
 20
416.4050998818037
 30
0.0
 10
193.163129925803
 20
416.4532337160803
 30
0.0
  0
LWPOLYLINE
  5
17C
330
1F
100
AcDbEntity
  8
0
  6
Continuous
 62
     8
370
    18
100
AcDbPolyline
 90
        9
 70
   128
 43
0.0
 10
172.0478892404
 20
415.5766133042
 10
172.0478904856
 20
415.8241960974
 10
172.0478916857
 20
416.0644922229
 10
172.0478927971
 20
416.2888143035
 10
172.0478937797
 20
416.4890114041
 10
172.0478945977
 20
416.6578266593
 10
172.0478952215
 20
416.789165494
 10
172.0478956286
 20
416.8782446357
 10
172.0478958041
 20
416.9218454333
  0
SPLINE
  5
17D
330
1F
100
AcDbEntity
  8
0
  6
Continuous
 62
     8
370
    18
100
AcDbSpline
210
0.0
220
0.0
230
1.0
 70
     8
 71
     3
 72
     8
 73
     4
 74
     0
 42
0.000000001
 43
0.00000001
 40
0.0
 40
0.0
 40
0.0
 40
0.0
 40
1.0
 40
1.0
 40
1.0
 40
1.0
 10
172.0478958041225
 20
416.9218425627183
 30
0.0
 10
174.9190508118548
 20
416.9218565177632
 30
0.0
 10
177.7901927158482
 20
416.9191280739948
 30
0.0
 10
180.6613970555543
 20
416.9134559212029
 30
0.0
  0
SPLINE
  5
17E
330
1F
100
AcDbEntity
  8
0
  6
Continuous
 62
     8
370
    18
100
AcDbSpline
210
0.0
220
0.0
230
1.0
 70
     8
 71
     3
 72
     8
 73
     4
 74
     0
 42
0.000000001
 43
0.00000001
 40
0.0
 40
0.0
 40
0.0
 40
0.0
 40
1.0
 40
1.0
 40
1.0
 40
1.0
 10
163.4343945526906
 20
416.9134559212029
 30
0.0
 10
166.3055989450953
 20
416.9191280741092
 30
0.0
 10
169.17674084382
 20
416.9218565177628
 30
0.0
 10
172.0478958041226
 20
416.9218425627183
 30
0.0
  0
SPLINE
  5
17F
330
1F
100
AcDbEntity
  8
0
  6
Continuous
 62
     8
370
    18
100
AcDbSpline
210
0.0
220
0.0
230
1.0
 70
     8
 71
     3
 72
    15
 73
    11
 74
     0
 42
0.000000001
 43
0.00000001
 40
0.0
 40
0.0
 40
0.0
 40
0.0
 40
0.2499999999999999
 40
0.2499999999999999
 40
0.4999999999999999
 40
0.4999999999999999
 40
0.7499999999999998
 40
0.7499999999999998
 40
0.8124999999999998
 40
1.0
 40
1.0
 40
1.0
 40
1.0
 10
155.4326804613941
 20
411.6612588060583
 30
0.0
 10
155.448746056529
 20
411.6933780325602
 30
0.0
 10
155.6816776669085
 20
411.7239236914474
 30
0.0
 10
156.4977493494774
 20
411.7794265382941
 30
0.0
 10
157.0808894216669
 20
411.8043837262537
 30
0.0
 10
158.5138544591771
 20
411.8462682955474
 30
0.0
 10
159.3636794244978
 20
411.8631956768815
 30
0.0
 10
160.5404364589314
 20
411.8778104395971
 30
0.0
 10
161.5047372520349
 20
411.8881933569789
 30
0.0
 10
162.5501782612796
 20
411.893035536237
 30
0.0
 10
163.3622821370245
 20
411.893035536237
 30
0.0
  0
SPLINE
  5
180
330
1F
100
AcDbEntity
  8
0
  6
Continuous
 62
     8
370
    18
100
AcDbSpline
210
0.0
220
0.0
230
1.0
 70
     8
 71
     3
 72
    26
 73
    22
 74
     0
 42
0.000000001
 43
0.00000001
 40
0.0
 40
0.0
 40
0.0
 40
0.0
 40
0.020888040983904
 40
0.0417297757350735
 40
0.0625470702775161
 40
0.08336186765898
 40
0.1041961188173937
 40
0.1250717133231358
 40
0.187563425170879
 40
0.2500999909328807
 40
0.3125917027798605
 40
0.375128268542639
 40
0.5000080743070486
 40
0.6248878800714576
 40
0.687379591919705
 40
0.7499161576812153
 40
0.812407869529508
 40
0.8749444352909694
 40
0.9166290310503848
 40
0.9582556329718537
 40
1.0
 40
1.0
 40
1.0
 40
1.0
 10
180.7335094712205
 20
411.893035536237
 30
0.0
 10
180.8193762768195
 20
411.8930115671806
 30
0.0
 10
180.9909195318091
 20
411.8929636822043
 30
0.0
 10
181.2477697954329
 20
411.892579653785
 30
0.0
 10
181.5037803590825
 20
411.8919668385142
 30
0.0
 10
181.7589485468172
 20
411.8911030129754
 30
0.0
 10
182.0132802068215
 20
411.8899939913533
 30
0.0
 10
182.4348685411624
 20
411.8877398338054
 30
0.0
 10
183.0180761101687
 20
411.8834550326448
 30
0.0
 10
183.7456978148634
 20
411.8758027991402
 30
0.0
 10
184.4453108730165
 20
411.8661002066556
 30
0.0
 10
185.3301998980314
 20
411.8505411602544
 30
0.0
 10
186.3347731300942
 20
411.8264206220982
 30
0.0
 10
187.1625355406721
 20
411.7969840751075
 30
0.0
 10
187.7001013773548
 20
411.7709670638571
 30
0.0
 10
188.0374622800552
 20
411.7503637754334
 30
0.0
 10
188.3062105877939
 20
411.7288885244943
 30
0.0
 10
188.4813081151885
 20
411.7091962066806
 30
0.0
 10
188.5864971879578
 20
411.6916777178652
 30
0.0
 10
188.6458800568558
 20
411.6765129828831
 30
0.0
 10
188.6573620439178
 20
411.6663483176766
 30
0.0
 10
188.663111146851
 20
411.6612588060584
 30
0.0
  0
LINE
  5
181
330
1F
100
AcDbEntity
  8
0
  6
Continuous
 62
     8
370
    18
100
AcDbLine
 10
180.7335097865
 20
411.8930313559
 30
0.0
 11
163.3622818217
 21
411.8930313559
 31
0.0
  0
SPLINE
  5
182
330
1F
100
AcDbEntity
  8
0
  6
Continuous
 62
     8
370
    18
100
AcDbSpline
210
0.0
220
0.0
230
1.0
 70
     8
 71
     3
 72
     9
 73
     5
 74
     0
 42
0.000000001
 43
0.00000001
 40
0.0
 40
0.0
 40
0.0
 40
0.0
 40
0.1946206432181032
 40
1.0
 40
1.0
 40
1.0
 40
1.0
 10
163.4383066148318
 20
417.1178702088094
 30
0.0
 10
163.4396330774195
 20
417.1225020916357
 30
0.0
 10
163.4464487089255
 20
417.146301636996
 30
0.0
 10
163.4397696109982
 20
417.0172541506495
 30
0.0
 10
163.4343904034055
 20
416.9133219691015
 30
0.0
  0
SPLINE
  5
183
330
1F
100
AcDbEntity
  8
0
  6
Continuous
 62
     8
370
    18
100
AcDbSpline
210
0.0
220
0.0
230
1.0
 70
     8
 71
     3
 72
     9
 73
     5
 74
     0
 42
0.000000001
 43
0.00000001
 40
0.0
 40
0.0
 40
0.0
 40
0.0
 40
0.1641894828816174
 40
1.0
 40
1.0
 40
1.0
 40
1.0
 10
180.6568367929019
 20
417.1192411156393
 30
0.0
 10
180.6557799314176
 20
417.1227475130604
 30
0.0
 10
180.6493430910934
 20
417.1441033110054
 30
0.0
 10
180.6559093398124
 20
417.0184654909241
 30
0.0
 10
180.6613974795497
 20
416.9134560795522
 30
0.0
  0
SPLINE
  5
184
330
1F
100
AcDbEntity
  8
0
  6
Continuous
 62
     8
370
    18
100
AcDbSpline
210
0.0
220
0.0
230
1.0
 70
     8
 71
     3
 72
    25
 73
    21
 74
     0
 42
0.000000001
 43
0.00000001
 40
0.0
 40
0.0
 40
0.0
 40
0.0
 40
0.0278278052389514
 40
0.0556241569726691
 40
0.083397755554591
 40
0.1111573227319191
 40
0.138911593479915
 40
0.1666693077739834
 40
0.1944392023381851
 40
0.2222300024090757
 40
0.2500504135536149
 40
0.3750238770644359
 40
0.5000238038085686
 40
0.6249915239041719
 40
0.7499868255200524
 40
0.8000264490424542
 40
0.8499966169627688
 40
0.899948277864955
 40
0.9499324369253148
 40
1.0
 40
1.0
 40
1.0
 40
1.0
 10
154.6656676327021
 20
410.1278043297298
 30
0.0
 10
154.8049320691178
 20
410.1308337747728
 30
0.0
 10
155.0833035326733
 20
410.1368892407057
 30
0.0
 10
155.5074396160781
 20
410.1456891593597
 30
0.0
 10
155.9360293678763
 20
410.1542735885453
 30
0.0
 10
156.3695664739464
 20
410.1626227615457
 30
0.0
 10
156.8079184992126
 20
410.1707419648517
 30
0.0
 10
157.2511212658226
 20
410.1786297826494
 30
0.0
 10
157.6991630619344
 20
410.186286580236
 30
0.0
 10
158.1520541143719
 20
410.1937122991336
 30
0.0
 10
159.1422966229678
 20
410.2092773804746
 30
0.0
 10
160.704796109509
 20
410.231027771689
 30
0.0
 10
162.8857452937489
 20
410.2552789339488
 30
0.0
 10
165.1247773430371
 20
410.2743272368883
 30
0.0
 10
166.9518243606272
 20
410.2852663628349
 30
0.0
 10
168.3339045493299
 20
410.2911941876135
 30
0.0
 10
169.2588716706008
 20
410.2942757293322
 30
0.0
 10
170.1863245695246
 20
410.2964609517883
 30
0.0
 10
171.1162793483404
 20
410.2978295340281
 30
0.0
 10
171.7371844548371
 20
410.2979988055229
 30
0.0
 10
172.0478958041227
 20
410.2980835118234
 30
0.0
  0
SPLINE
  5
185
330
1F
100
AcDbEntity
  8
0
  6
Continuous
 62
     8
370
    18
100
AcDbSpline
210
0.0
220
0.0
230
1.0
 70
     8
 71
     3
 72
    11
 73
     7
 74
     0
 42
0.000000001
 43
0.00000001
 40
0.0
 40
0.0
 40
0.0
 40
0.0
 40
0.125
 40
0.25
 40
0.375
 40
0.5
 40
0.5
 40
0.5
 40
0.5
 10
189.4301239755434
 20
410.1278043297297
 30
0.0
 10
188.1835700775805
 20
410.1552132757872
 30
0.0
 10
185.5421146307837
 20
410.2040889412269
 30
0.0
 10
181.2398968733874
 20
410.2579401106045
 30
0.0
 10
176.7026528942022
 20
410.290693302444
 30
0.0
 10
173.5994815008159
 20
410.2980947034674
 30
0.0
 10
172.0478958041227
 20
410.2980947034674
 30
0.0
  0
SPLINE
  5
186
330
1F
100
AcDbEntity
  8
0
  6
Continuous
 62
     8
370
    18
100
AcDbSpline
210
0.0
220
0.0
230
1.0
 70
     8
 71
     3
 72
    12
 73
     8
 74
     0
 42
0.000000001
 43
0.00000001
 40
0.0
 40
0.0
 40
0.0
 40
0.0
 40
0.25
 40
0.25
 40
0.5
 40
0.5
 40
1.0
 40
1.0
 40
1.0
 40
1.0
 10
194.4428044205234
 20
414.7131928809421
 30
0.0
 10
194.4206119492349
 20
414.7691482969004
 30
0.0
 10
194.3545189103947
 20
414.8252251701692
 30
0.0
 10
194.2147962117488
 20
414.9372498782551
 30
0.0
 10
194.14491414535
 20
414.9931798812991
 30
0.0
 10
193.9352327869023
 20
415.1608560364782
 30
0.0
 10
193.7953767838021
 20
415.2723889916635
 30
0.0
 10
193.6554125445002
 20
415.3835489645114
 30
0.0
  0
ARC
  5
187
330
1F
100
AcDbEntity
  8
0
  6
Continuous
 62
     8
370
    18
100
AcDbCircle
 10
192.3858409372
 20
415.4513092385
 30
0.0
 40
1.27137792338639
100
AcDbArc
 50
356.9450962345
 51
50.7577159761
  0
LINE
  5
188
330
1F
100
AcDbEntity
  8
0
  6
Continuous
 62
     8
370
    18
100
AcDbLine
 10
194.4428043962
 20
414.7131953212
 30
0.0
 11
194.3843247891
 21
415.0948289605
 31
0.0
  0
SPLINE
  5
189
330
1F
100
AcDbEntity
  8
0
  6
Continuous
 62
     8
370
    18
100
AcDbSpline
210
0.0
220
0.0
230
1.0
 70
     8
 71
     3
 72
    12
 73
     8
 74
     0
 42
0.000000001
 43
0.00000001
 40
0.0
 40
0.0
 40
0.0
 40
0.0
 40
0.5
 40
0.5
 40
0.75
 40
0.75
 40
1.0
 40
1.0
 40
1.0
 40
1.0
 10
150.4403790637448
 20
415.3835489645114
 30
0.0
 10
150.3004139658368
 20
415.2723883096148
 30
0.0
 10
150.160557105492
 20
415.1608546680006
 30
0.0
 10
149.9508744619591
 20
414.9931774797171
 30
0.0
 10
149.8809919671956
 20
414.9372471327864
 30
0.0
 10
149.7412684129705
 20
414.8252217306805
 30
0.0
 10
149.6751783210823
 20
414.769144923915
 30
0.0
 10
149.6529871877221
 20
414.7131928809421
 30
0.0
  0
SPLINE
  5
18A
330
1F
100
AcDbEntity
  8
0
  6
Continuous
 62
     8
370
    18
100
AcDbSpline
210
0.0
220
0.0
230
1.0
 70
     8
 71
     3
 72
    43
 73
    39
 74
     0
 42
0.000000001
 43
0.00000001
 40
0.0
 40
0.0
 40
0.0
 40
0.0
 40
0.0205282890803603
 40
0.0407639424507112
 40
0.0607118193738456
 40
0.0803697316221526
 40
0.0997337777086958
 40
0.140859087233059
 40
0.1803167060628866
 40
0.2075110767361452
 40
0.2342388321476544
 40
0.2864961065255621
 40
0.3119452391513187
 40
0.3497094686330839
 40
0.3746587739869407
 40
0.3870841411691779
 40
0.4375520820447018
 40
0.4627304285819354
 40
0.4753186170218074
 40
0.5004736428805828
 40
0.5382447319656225
 40
0.5888801455420452
 40
0.6296129204153806
 40
0.670649149744783
 40
0.6982469489454103
 40
0.7250383618020491
 40
0.7452722884098388
 40
0.7520207630424399
 40
0.7655548876169874
 40
0.8065647371005206
 40
0.8194476827065029
 40
0.845399169110785
 40
0.8650575801911083
 40
0.8716456960273038
 40
0.8845550674858091
 40
0.9109848611261363
 40
0.9550668562724822
 40
1.0
 40
1.0
 40
1.0
 40
1.0
 10
149.6531713654575
 20
414.712873257668
 30
0.0
 10
149.6558027822072
 20
414.6500112950034
 30
0.0
 10
149.6610281042265
 20
414.5251834821073
 30
0.0
 10
149.6748868066295
 20
414.3400875327591
 30
0.0
 10
149.693092712824
 20
414.1586510422386
 30
0.0
 10
149.7160059396129
 20
413.9812153820218
 30
0.0
 10
149.7538183199048
 20
413.742383864179
 30
0.0
 10
149.8142274659724
 20
413.449860873594
 30
0.0
 10
149.8986469388733
 20
413.1452638595418
 30
0.0
 10
149.9853383128219
 20
412.8910556879401
 30
0.0
 10
150.0959945285643
 20
412.6119555464879
 30
0.0
 10
150.2217084867762
 20
412.3528465508969
 30
0.0
 10
150.3770195256499
 20
412.0854019212143
 30
0.0
 10
150.5052618668703
 20
411.893063665736
 30
0.0
 10
150.6218986023913
 20
411.7395045103981
 30
0.0
 10
150.7630451944449
 20
411.5671667116277
 30
0.0
 10
150.9124868231274
 20
411.4063635739161
 30
0.0
 10
151.0703464049306
 20
411.2595338337842
 30
0.0
 10
151.1856317889082
 20
411.1597849495404
 30
0.0
 10
151.327151723313
 20
411.0459374323069
 30
0.0
 10
151.5473738489984
 20
410.8891669623427
 30
0.0
 10
151.8085702956178
 20
410.7329720750963
 30
0.0
 10
152.0860088574897
 20
410.5948233761761
 30
0.0
 10
152.3214920263544
 20
410.4960434267609
 30
0.0
 10
152.5311124585535
 20
410.4204787831389
 30
0.0
 10
152.6974598738566
 20
410.3677538440066
 30
0.0
 10
152.8187195954054
 20
410.3336211715423
 30
0.0
 10
152.9106695124564
 20
410.3095334968644
 30
0.0
 10
153.0503843941804
 20
410.2749470428093
 30
0.0
 10
153.2060046495514
 20
410.2422580732763
 30
0.0
 10
153.3922663199858
 20
410.2095712627453
 30
0.0
 10
153.5297658138663
 20
410.1887532467376
 30
0.0
 10
153.6534372503024
 20
410.1733638509847
 30
0.0
 10
153.7466391948989
 20
410.1631574634178
 30
0.0
 10
153.8562159998065
 20
410.1523469212411
 30
0.0
 10
154.0565292362929
 20
410.1369783664047
 30
0.0
 10
154.3366267838452
 20
410.124844358959
 30
0.0
 10
154.5552525463459
 20
410.1267795269055
 30
0.0
 10
154.6656106599573
 20
410.1277563627626
 30
0.0
  0
SPLINE
  5
18B
330
1F
100
AcDbEntity
  8
0
  6
Continuous
 62
     8
370
    18
100
AcDbSpline
210
0.0
220
0.0
230
1.0
 70
     8
 71
     3
 72
    24
 73
    20
 74
     0
 42
0.000000001
 43
0.00000001
 40
0.0
 40
0.0
 40
0.0
 40
0.0
 40
0.0400088573575245
 40
0.0725835779095102
 40
0.0979998281886944
 40
0.1164636425014556
 40
0.1281191322998146
 40
0.1973162736201315
 40
0.2554046599837327
 40
0.3837408284558536
 40
0.5122156709490209
 40
0.641029724429389
 40
0.7071988437645409
 40
0.769932094561317
 40
0.8344447619790307
 40
0.8981911465357384
 40
0.931667435513683
 40
0.9655588873062394
 40
1.0
 40
1.0
 40
1.0
 40
1.0
 10
189.4301239755434
 20
410.1278043297298
 30
0.0
 10
189.5284430274438
 20
410.1266549313547
 30
0.0
 10
189.7068122445359
 20
410.1245697069313
 30
0.0
 10
189.9449435128922
 20
410.1324017144223
 30
0.0
 10
190.1292890527079
 20
410.1434138938018
 30
0.0
 10
190.2622502410245
 20
410.1544998908662
 30
0.0
 10
190.4989343268455
 20
410.1780803161039
 30
0.0
 10
190.8261633791958
 20
410.2255466448164
 30
0.0
 10
191.4126922130953
 20
410.3579064181156
 30
0.0
 10
192.1053912185844
 20
410.6086258201135
 30
0.0
 10
192.8805855678646
 20
411.088462339998
 30
0.0
 10
193.4441896312532
 20
411.6628412461777
 30
0.0
 10
193.8152078250841
 20
412.2306862778935
 30
0.0
 10
194.0485512921758
 20
412.7096618368686
 30
0.0
 10
194.2292349882209
 20
413.2282658762451
 30
0.0
 10
194.3369279619654
 20
413.6974233597712
 30
0.0
 10
194.3959545006506
 20
414.0890788215292
 30
0.0
 10
194.4281810179893
 20
414.3975746954623
 30
0.0
 10
194.4378763696977
 20
414.6066095434334
 30
0.0
 10
194.4427630398133
 20
414.7119676960217
 30
0.0
  0
SPLINE
  5
18C
330
1F
100
AcDbEntity
  8
0
  6
Continuous
 62
     8
370
    18
100
AcDbSpline
210
0.0
220
0.0
230
1.0
 70
     8
 71
     3
 72
    11
 73
     7
 74
     0
 42
0.000000001
 43
0.00000001
 40
0.0
 40
0.0
 40
0.0
 40
0.0
 40
0.3926772347429217
 40
0.6040945885697235
 40
0.8200169585748556
 40
1.0
 40
1.0
 40
1.0
 40
1.0
 10
150.440379470662
 20
415.3835538597799
 30
0.0
 10
150.4487342786136
 20
415.5444845608644
 30
0.0
 10
150.4615873136906
 20
415.7920603229874
 30
0.0
 10
150.6053290850177
 20
416.0954011048318
 30
0.0
 10
150.7475031787548
 20
416.2988272580181
 30
0.0
 10
150.8711649277299
 20
416.4017397677257
 30
0.0
 10
150.9273829460896
 20
416.448524949143
 30
0.0
  0
LINE
  5
18D
330
1F
100
AcDbEntity
  8
0
  6
Continuous
 62
     8
370
    18
100
AcDbLine
 10
149.6531827898
 20
414.7125545712
 30
0.0
 11
149.7114128024
 21
415.0948587628
 31
0.0
  0
SPLINE
  5
18E
330
1F
100
AcDbEntity
  8
0
  6
Continuous
 62
     8
370
    18
100
AcDbSpline
210
0.0
220
0.0
230
1.0
 70
     8
 71
     3
 72
    10
 73
     6
 74
     0
 42
0.000000001
 43
0.00000001
 40
0.0
 40
0.0
 40
0.0
 40
0.0
 40
0.5
 40
0.5
 40
1.0
 40
1.0
 40
1.0
 40
1.0
 10
149.6479318601739
 20
379.4989805341172
 30
0.0
 10
149.5946412217695
 20
379.4992646785681
 30
0.0
 10
149.5434342435497
 20
379.4984287004934
 30
0.0
 10
149.4441886311094
 20
379.4966692025559
 30
0.0
 10
149.3965151926194
 20
379.4985950402197
 30
0.0
 10
149.3445522666746
 20
379.4896734979313
 30
0.0
  0
SPLINE
  5
18F
330
1F
100
AcDbEntity
  8
0
  6
Continuous
 62
     8
370
    18
100
AcDbSpline
210
0.0
220
0.0
230
1.0
 70
     8
 71
     3
 72
    10
 73
     6
 74
     0
 42
0.000000001
 43
0.00000001
 40
0.0
 40
0.0
 40
0.0
 40
0.0
 40
0.5
 40
0.5
 40
1.0
 40
1.0
 40
1.0
 40
1.0
 10
194.7512393415707
 20
379.4896734979313
 30
0.0
 10
194.6992764255039
 20
379.4985950470916
 30
0.0
 10
194.6516029729626
 20
379.4966692026252
 30
0.0
 10
194.5523573628451
 20
379.4984287005308
 30
0.0
 10
194.5011503962681
 20
379.4992646786203
 30
0.0
 10
194.4478597480712
 20
379.4989805341172
 30
0.0
  0
SPLINE
  5
190
330
1F
100
AcDbEntity
  8
0
  6
Continuous
 62
     8
370
    18
100
AcDbSpline
210
0.0
220
0.0
230
1.0
 70
     8
 71
     3
 72
    12
 73
     8
 74
     0
 42
0.000000001
 43
0.00000001
 40
0.0
 40
0.0
 40
0.0
 40
0.0
 40
0.2500000000000001
 40
0.2500000000000001
 40
0.5000000000000001
 40
0.5000000000000001
 40
1.0
 40
1.0
 40
1.0
 40
1.0
 10
195.2820387556175
 20
379.5176182591931
 30
0.0
 10
195.2339272926801
 20
379.5148765562205
 30
0.0
 10
195.188957181274
 20
379.5099964739839
 30
0.0
 10
195.1012189637438
 20
379.5050496254058
 30
0.0
 10
195.057334606035
 20
379.5036377257351
 30
0.0
 10
194.9259135689904
 20
379.4972634707235
 30
0.0
 10
194.837505626028
 20
379.4917046041927
 30
0.0
 10
194.7513028254092
 20
379.4895498804318
 30
0.0
  0
LWPOLYLINE
  5
191
330
1F
100
AcDbEntity
  8
0
  6
Continuous
 62
     8
370
    18
100
AcDbPolyline
 90
        5
 70
   128
 43
0.0
 10
195.2823376805
 20
379.5176360579
 10
195.2822631747
 20
379.5176286073
 10
195.2821886689
 20
379.5176286073
 10
195.2821141631
 20
379.5176211568
 10
195.2820396573
 20
379.5176211568
  0
LWPOLYLINE
  5
192
330
1F
100
AcDbEntity
  8
0
  6
Continuous
 62
     8
370
    18
100
AcDbPolyline
 90
        3
 70
   128
 43
0.0
 10
195.283190772
 20
379.517829773
 10
195.549807936
 20
348.4525371166
 10
195.8272787333
 20
316.1225382062
  0
SPLINE
  5
193
330
1F
100
AcDbEntity
  8
0
  6
Continuous
 62
     8
370
    18
100
AcDbSpline
210
0.0
220
0.0
230
1.0
 70
     8
 71
     3
 72
    18
 73
    14
 74
     0
 42
0.000000001
 43
0.00000001
 40
0.0
 40
0.0
 40
0.0
 40
0.0
 40
0.0625
 40
0.0625
 40
0.1250000000000001
 40
0.1250000000000001
 40
0.2500000000000001
 40
0.2500000000000001
 40
0.5000000000000002
 40
0.5000000000000002
 40
0.7500000000000001
 40
0.7500000000000001
 40
1.0
 40
1.0
 40
1.0
 40
1.0
 10
148.8134550037797
 20
379.517825518452
 30
0.0
 10
148.8025574803792
 20
378.1971876942858
 30
0.0
 10
148.7890911760432
 20
376.8760010755617
 30
0.0
 10
148.7667480132813
 20
374.2346083276932
 30
0.0
 10
148.7556756928528
 20
372.9139331598764
 30
0.0
 10
148.7221898594666
 20
368.9518502145698
 30
0.0
 10
148.6995006814658
 20
366.3103835439787
 30
0.0
 10
148.6309358599224
 20
358.3858772916568
 30
0.0
 10
148.5861586959966
 20
353.1030723891964
 30
0.0
 10
148.4952534887751
 20
342.5371739823025
 30
0.0
 10
148.4495352822271
 20
337.2541680354236
 30
0.0
 10
148.3593560078528
 20
326.6884247168788
 30
0.0
 10
148.3155626614442
 20
321.4058299968004
 30
0.0
 10
148.2676467700416
 20
316.1223545363164
 30
0.0
  0
LWPOLYLINE
  5
194
330
1F
100
AcDbEntity
  8
0
  6
Continuous
 62
     8
370
    18
100
AcDbPolyline
 90
        5
 70
   128
 43
0.0
 10
148.8137519509
 20
379.5176211568
 10
148.8136774451
 20
379.5176211568
 10
148.8136029393
 20
379.5176286073
 10
148.8135284335
 20
379.5176286073
 10
148.8134539277
 20
379.5176360579
  0
SPLINE
  5
195
330
1F
100
AcDbEntity
  8
0
  6
Continuous
 62
     8
370
    18
100
AcDbSpline
210
0.0
220
0.0
230
1.0
 70
     8
 71
     3
 72
    12
 73
     8
 74
     0
 42
0.000000001
 43
0.00000001
 40
0.0
 40
0.0
 40
0.0
 40
0.0
 40
0.5000000000000001
 40
0.5000000000000001
 40
0.75
 40
0.75
 40
1.0
 40
1.0
 40
1.0
 40
1.0
 10
149.3444887828362
 20
379.4895498804317
 30
0.0
 10
149.2582859921785
 20
379.4917046039431
 30
0.0
 10
149.1698780536377
 20
379.4972634698889
 30
0.0
 10
149.0384570242855
 20
379.5036377247327
 30
0.0
 10
148.9945726676732
 20
379.5050496246874
 30
0.0
 10
148.9068344575315
 20
379.5099964716726
 30
0.0
 10
148.8618643406124
 20
379.5148765548025
 30
0.0
 10
148.8137528524033
 20
379.517618259206
 30
0.0
  0
LINE
  5
196
330
1F
100
AcDbEntity
  8
0
  6
Continuous
 62
     8
370
    18
100
AcDbLine
 10
194.4426088185
 20
414.7125545712
 30
0.0
 11
194.4282068462
 21
414.6791312667
 31
0.0
  0
LINE
  5
197
330
1F
100
AcDbEntity
  8
0
  6
Continuous
 62
     8
370
    18
100
AcDbLine
 10
149.6683838368
 20
414.6772686215
 30
0.0
 11
149.6531827898
 21
414.7125545712
 31
0.0
  0
CIRCLE
  5
198
330
1F
100
AcDbEntity
  8
0
  6
Continuous
 62
     8
370
    18
100
AcDbCircle
 10
172.0478958041
 20
396.1424423509
 30
0.0
 40
3.781418633081857
  0
SPLINE
  5
199
330
1F
100
AcDbEntity
  8
0
  6
Continuous
 62
     8
370
    18
100
AcDbSpline
210
0.0
220
0.0
230
1.0
 70
     8
 71
     3
 72
     8
 73
     4
 74
     0
 42
0.000000001
 43
0.00000001
 40
0.0000024790398112
 40
0.0000024790398112
 40
0.0000024790398112
 40
0.0000024790398112
 40
0.7671742739455352
 40
0.7671742739455352
 40
0.7671742739455352
 40
0.7671742739455352
 10
194.8305743605241
 20
403.4809525966521
 30
0.0
 10
195.0258788501471
 20
398.2229327112815
 30
0.0
 10
195.18150433637
 20
392.6674754945233
 30
0.0
 10
195.2433846668057
 20
386.4092962691823
 30
0.0
  0
SPLINE
  5
19A
330
1F
100
AcDbEntity
  8
0
  6
Continuous
 62
     8
370
    18
100
AcDbSpline
210
0.0
220
0.0
230
1.0
 70
     8
 71
     3
 72
     8
 73
     4
 74
     0
 42
0.000000001
 43
0.00000001
 40
0.0000024790398112
 40
0.0000024790398112
 40
0.0000024790398112
 40
0.0000024790398112
 40
0.7671742739455352
 40
0.7671742739455352
 40
0.7671742739455352
 40
0.7671742739455352
 10
149.2652172477215
 20
403.4809525966521
 30
0.0
 10
149.0699127580985
 20
398.2229327112815
 30
0.0
 10
148.9142872718756
 20
392.6674754945233
 30
0.0
 10
148.8524069414399
 20
386.4092962691823
 30
0.0
  0
LINE
  5
19B
330
1F
100
AcDbEntity
  8
0
  6
Continuous
 62
     8
370
    18
100
AcDbLine
 10
193.9984461815
 20
380.9012535783
 30
0.0
 11
193.9981462956
 21
380.9012535783
 31
0.0
  0
LINE
  5
19C
330
1F
100
AcDbEntity
  8
0
  6
Continuous
 62
     8
370
    18
100
AcDbLine
 10
150.0973454268
 20
380.9012535783
 30
0.0
 11
150.0976453126
 21
380.9012535783
 31
0.0
  0
LINE
  5
19D
330
1F
100
AcDbEntity
  8
0
  6
Continuous
 62
     7
370
    25
100
AcDbLine
 10
150.4387198538
 20
120.6952563961
 30
0.0
 11
150.4391743393
 21
120.6645972569
 31
0.0
  0
SPLINE
  5
19E
330
1F
100
AcDbEntity
  8
0
  6
Continuous
 62
     7
370
    25
100
AcDbSpline
210
0.0
220
0.0
230
1.0
 70
     8
 71
     3
 72
    19
 73
    15
 74
     0
 42
0.000000001
 43
0.00000001
 40
0.0
 40
0.0
 40
0.0
 40
0.0
 40
0.1483681939861696
 40
0.2741040134840878
 40
0.3440956995671002
 40
0.4009015282772013
 40
0.4492744363908611
 40
0.4937152167785248
 40
0.54644896816536
 40
0.6069891045906477
 40
0.6744969432432253
 40
0.7746320524755004
 40
0.8831027317109256
 40
1.0
 40
1.0
 40
1.0
 40
1.0
 10
180.6646291688837
 20
107.9094118912671
 30
0.0
 10
181.7216353356822
 20
107.9114526865883
 30
0.0
 10
183.6744098813097
 20
107.9152229703209
 30
0.0
 10
186.1151010089546
 20
108.2656901600409
 30
0.0
 10
187.8280374064854
 20
108.8324467098986
 30
0.0
 10
188.9515839013634
 20
109.3823377349177
 30
0.0
 10
189.8447430533706
 20
109.9676791755829
 30
0.0
 10
190.6418415140397
 20
110.6338840320566
 30
0.0
 10
191.3999788844908
 20
111.4677885661591
 30
0.0
 10
192.1218491108542
 20
112.5392976005852
 30
0.0
 10
192.8211791622157
 20
114.0127611829028
 30
0.0
 10
193.3433629544348
 20
115.9203061882936
 30
0.0
 10
193.6041243118308
 20
118.2293598728441
 30
0.0
 10
193.6291223005518
 20
119.8343821606023
 30
0.0
 10
193.6420886368311
 20
120.6668994863485
 30
0.0
  0
SPLINE
  5
19F
330
1F
100
AcDbEntity
  8
0
  6
Continuous
 62
     7
370
    25
100
AcDbSpline
210
0.0
220
0.0
230
1.0
 70
     8
 71
     3
 72
    19
 73
    15
 74
     0
 42
0.000000001
 43
0.00000001
 40
0.0
 40
0.0
 40
0.0
 40
0.0
 40
0.1483552411851042
 40
0.2742115761159702
 40
0.3443207518174794
 40
0.4012060720474442
 40
0.4496087146848145
 40
0.4940441643265254
 40
0.546819433235824
 40
0.6074670971404813
 40
0.6750003121210896
 40
0.7750996606179368
 40
0.8832796203265375
 40
0.9999999999999999
 40
0.9999999999999999
 40
0.9999999999999999
 40
0.9999999999999999
 10
150.4537029714144
 20
120.6668920357679
 30
0.0
 10
150.4716580947597
 20
119.6102027301118
 30
0.0
 10
150.5048453460662
 20
117.6570769918217
 30
0.0
 10
150.8969266427547
 20
115.2210553209615
 30
0.0
 10
151.4948528534207
 20
113.5164428341504
 30
0.0
 10
152.0661864953154
 20
112.4018717554998
 30
0.0
 10
152.6688414028159
 20
111.5194469721922
 30
0.0
 10
153.3506579236053
 20
110.7350398588814
 30
0.0
 10
154.2002639583793
 20
109.9929965050442
 30
0.0
 10
155.2864284527163
 20
109.2910678393203
 30
0.0
 10
156.7736667418806
 20
108.6197475079252
 30
0.0
 10
158.6881644919064
 20
108.1324780081306
 30
0.0
 10
160.9976927840832
 20
107.9108722789074
 30
0.0
 10
162.5996695731768
 20
107.9099108569045
 30
0.0
 10
163.4310748950399
 20
107.9094118912671
 30
0.0
  0
SPLINE
  5
1A0
330
1F
100
AcDbEntity
  8
0
  6
Continuous
 62
     7
370
    25
100
AcDbSpline
210
0.0
220
0.0
230
1.0
 70
     8
 71
     3
 72
    21
 73
    17
 74
     0
 42
0.000000001
 43
0.00000001
 40
0.0
 40
0.0
 40
0.0
 40
0.0
 40
0.0774355747156206
 40
0.153111334429388
 40
0.2210231010468949
 40
0.2811709391858595
 40
0.3335548461432247
 40
0.3781747484603672
 40
0.4150305864455643
 40
0.449115054349377
 40
0.5062691313753789
 40
0.5772720357323811
 40
0.6621237715959527
 40
0.7608249332634621
 40
0.873441295769895
 40
1.0
 40
1.0
 40
1.0
 40
1.0
 10
193.6425431222476
 20
120.6973723609899
 30
0.0
 10
193.6641164420198
 20
122.1518846948132
 30
0.0
 10
193.7067728023624
 20
125.0278538497341
 30
0.0
 10
193.7683569193651
 20
129.1794437983872
 30
0.0
 10
193.8251319274194
 20
133.0063090993104
 30
0.0
 10
193.8754145085517
 20
136.3956713311452
 30
0.0
 10
193.9192120477649
 20
139.3475302116236
 30
0.0
 10
193.9565166289346
 20
141.8618841560773
 30
0.0
 10
193.9887224771138
 20
144.0325099094935
 30
0.0
 10
194.0244179673975
 20
146.4385719815005
 30
0.0
 10
194.0696264189023
 20
149.4860358710442
 30
0.0
 10
194.1289837284526
 20
153.4870868539981
 30
0.0
 10
194.1999192726266
 20
158.2685394965256
 30
0.0
 10
194.2824780419602
 20
163.8316294860614
 30
0.0
 10
194.3763631265698
 20
170.1781648491482
 30
0.0
 10
194.4094202428589
 20
174.6711023556656
 30
0.0
 10
194.4269123078145
 20
177.048525540993
 30
0.0
  0
LINE
  5
1A1
330
1F
100
AcDbEntity
  8
0
  6
Continuous
 62
     7
370
    25
100
AcDbLine
 10
193.656617269
 20
120.6645972569
 30
0.0
 11
193.6570680291
 21
120.6950850327
 31
0.0
  0
SPLINE
  5
1A2
330
1F
100
AcDbEntity
  8
0
  6
Continuous
 62
     7
370
    25
100
AcDbSpline
210
0.0
220
0.0
230
1.0
 70
     8
 71
     3
 72
    15
 73
    11
 74
     0
 42
0.000000001
 43
0.00000001
 40
0.0
 40
0.0
 40
0.0
 40
0.0
 40
0.0840748056890327
 40
0.1798463558378657
 40
0.2872675125515652
 40
0.4063815891430662
 40
0.5372120700181657
 40
0.6797589509989415
 40
0.8340215550101511
 40
0.9999999999999999
 40
0.9999999999999999
 40
0.9999999999999999
 40
0.9999999999999999
 10
149.6688830257214
 20
177.0475867678378
 30
0.0
 10
149.6791368570643
 20
175.4682483933487
 30
0.0
 10
149.7010710641705
 20
172.0898492527388
 30
0.0
 10
149.7704416753001
 20
166.6938723709986
 30
0.0
 10
149.8607677754051
 20
160.6399359247678
 30
0.0
 10
149.9602127426003
 20
153.9274639022311
 30
0.0
 10
150.0696503475124
 20
146.5552237597553
 30
0.0
 10
150.1888192001116
 20
138.5227801926507
 30
0.0
 10
150.3177845688071
 20
129.830144904712
 30
0.0
 10
150.4070058104051
 20
123.8149934682275
 30
0.0
 10
150.453248485998
 20
120.6973872621511
 30
0.0
  0
SPLINE
  5
1A3
330
1F
100
AcDbEntity
  8
0
  6
Continuous
 62
     7
370
    25
100
AcDbSpline
210
0.0
220
0.0
230
1.0
 70
     8
 71
     3
 72
    17
 73
    13
 74
     0
 42
0.000000001
 43
0.00000001
 40
0.0
 40
0.0
 40
0.0
 40
0.0
 40
0.0511153357678707
 40
0.1123666196440014
 40
0.1696573239082037
 40
0.2259791357507183
 40
0.2846525936676451
 40
0.4199911849031692
 40
0.5829901709056151
 40
0.7419559922918384
 40
0.8949380795273337
 40
1.0
 40
1.0
 40
1.0
 40
1.0
 10
149.7544343174256
 20
191.0113499042545
 30
0.0
 10
149.7471253991094
 20
191.0291638207783
 30
0.0
 10
149.7310582358577
 20
191.0683240757651
 30
0.0
 10
149.7279166729418
 20
190.8702207406831
 30
0.0
 10
149.7265921210295
 20
190.5354998333939
 30
0.0
 10
149.7285262650102
 20
190.028045737202
 30
0.0
 10
149.7314625900768
 20
189.1021111363693
 30
0.0
 10
149.737960075321
 20
187.5170859222068
 30
0.0
 10
149.7740973921973
 20
185.4449339447813
 30
0.0
 10
149.7548893659186
 20
183.3354650652042
 30
0.0
 10
149.6788213623533
 20
181.5096554247359
 30
0.0
 10
149.6598664592719
 20
180.4679899972006
 30
0.0
 10
149.6521490217007
 20
180.043878733084
 30
0.0
  0
LINE
  5
1A4
330
1F
100
AcDbEntity
  8
0
  6
Continuous
 62
     7
370
    25
100
AcDbLine
 10
194.4422064871
 20
179.8303376426
 30
0.0
 11
194.4301682115
 21
180.1266006668
 31
0.0
  0
SPLINE
  5
1A5
330
1F
100
AcDbEntity
  8
0
  6
Continuous
 62
     7
370
    25
100
AcDbSpline
210
0.0
220
0.0
230
1.0
 70
     8
 71
     3
 72
    22
 73
    18
 74
     0
 42
0.000000001
 43
0.00000001
 40
0.0
 40
0.0
 40
0.0
 40
0.0
 40
0.0349961424691304
 40
0.1181220290688244
 40
0.1844000217675138
 40
0.2466757375033781
 40
0.3063024326500629
 40
0.3702679963219382
 40
0.4322146911682489
 40
0.4943483275917198
 40
0.5549727947492221
 40
0.6177975309757695
 40
0.6815222427542604
 40
0.7490750513268155
 40
0.8259891341913684
 40
0.9296870822904127
 40
1.0
 40
1.0
 40
1.0
 40
1.0
 10
150.5193649382151
 20
81.68131182985049
 30
0.0
 10
150.5250883469481
 20
81.4538838038273
 30
0.0
 10
150.5444064947502
 20
80.68624891593434
 30
0.0
 10
150.6283888672322
 20
79.4893029734884
 30
0.0
 10
150.8379465028441
 20
78.12699874382201
 30
0.0
 10
151.171753140864
 20
76.94632894362668
 30
0.0
 10
151.658507067094
 20
75.83594394881928
 30
0.0
 10
152.3104283370387
 20
74.81493532094522
 30
0.0
 10
153.122931965583
 20
73.89510078107656
 30
0.0
 10
154.0540828811025
 20
73.12900958280505
 30
0.0
 10
155.0940170651182
 20
72.50963034434318
 30
0.0
 10
156.2192844931287
 20
72.03631487255258
 30
0.0
 10
157.4409274418096
 20
71.70823727772418
 30
0.0
 10
158.7799344028368
 20
71.49820421562603
 30
0.0
 10
160.389423221069
 20
71.37861074705675
 30
0.0
 10
162.0188081566406
 20
71.29631315619925
 30
0.0
 10
163.1499972111227
 20
71.28184219223807
 30
0.0
 10
163.6070790291585
 20
71.27599488095981
 30
0.0
  0
LINE
  5
1A6
330
1F
100
AcDbEntity
  8
0
  6
Continuous
 62
     7
370
    25
100
AcDbLine
 10
150.5052479506
 20
82.1582011421
 30
0.0
 11
150.5193649382
 21
81.6813118299
 31
0.0
  0
LINE
  5
1A7
330
1F
100
AcDbEntity
  8
0
  6
Continuous
 62
     7
370
    25
100
AcDbLine
 10
193.6114574374
 20
81.9423280199
 30
0.0
 11
193.6162965894
 21
82.1579776247
 31
0.0
  0
SPLINE
  5
1A8
330
1F
100
AcDbEntity
  8
0
  6
Continuous
 62
     7
370
    25
100
AcDbSpline
210
0.0
220
0.0
230
1.0
 70
     8
 71
     3
 72
    22
 73
    18
 74
     0
 42
0.000000001
 43
0.00000001
 40
0.0
 40
0.0
 40
0.0
 40
0.0
 40
0.0839891563256766
 40
0.1975408291851221
 40
0.2721908570480263
 40
0.3414502427945741
 40
0.4041840056568045
 40
0.462124387664096
 40
0.5184589586716932
 40
0.5769757506468026
 40
0.6371233302312866
 40
0.6992379672925756
 40
0.7632060730609052
 40
0.8285269052072396
 40
0.8886182651050294
 40
0.9734534793873791
 40
1.0
 40
1.0
 40
1.0
 40
1.0
 10
180.4885021001853
 20
71.28913770513279
 30
0.0
 10
181.0411712727043
 20
71.3003844853754
 30
0.0
 10
182.3410382005388
 20
71.32683668935009
 30
0.0
 10
184.1319358706779
 20
71.39426125109676
 30
0.0
 10
185.8193564920108
 20
71.5651374480494
 30
0.0
 10
187.1562114858872
 20
71.829983120828
 30
0.0
 10
188.347995679739
 20
72.2180486217066
 30
0.0
 10
189.4016910545637
 20
72.72408069909272
 30
0.0
 10
190.3454878514002
 20
73.36644438392574
 30
0.0
 10
191.1910700667927
 20
74.15495954870586
 30
0.0
 10
191.9356613192789
 20
75.0884101279023
 30
0.0
 10
192.5564718973882
 20
76.15000615353351
 30
0.0
 10
193.0360936745164
 20
77.31968092139708
 30
0.0
 10
193.3348798250244
 20
78.53435545112005
 30
0.0
 10
193.5059233304416
 20
79.90849141775938
 30
0.0
 10
193.5955493580335
 20
81.03457731010796
 30
0.0
 10
193.6083956705372
 20
81.76761673366171
 30
0.0
 10
193.611457437352
 20
81.94232801990253
 30
0.0
  0
SPLINE
  5
1A9
330
1F
100
AcDbEntity
  8
0
  6
Continuous
 62
     7
370
    25
100
AcDbSpline
210
0.0
220
0.0
230
1.0
 70
     8
 71
     3
 72
     9
 73
     5
 74
     0
 42
0.000000001
 43
0.00000001
 40
0.0
 40
0.0
 40
0.0
 40
0.0
 40
0.2063805604147939
 40
1.0
 40
1.0
 40
1.0
 40
1.0
 10
163.6072317660607
 20
71.28526340322236
 30
0.0
 10
164.1877442040262
 20
71.27320960747213
 30
0.0
 10
167.0005693887175
 20
71.21480393338136
 30
0.0
 10
169.8141171899628
 20
71.21368615053377
 30
0.0
 10
172.0470034192332
 20
71.2127990563367
 30
0.0
  0
SPLINE
  5
1AA
330
1F
100
AcDbEntity
  8
0
  6
Continuous
 62
     7
370
    25
100
AcDbSpline
210
0.0
220
0.0
230
1.0
 70
     8
 71
     3
 72
     9
 73
     5
 74
     0
 42
0.000000001
 43
0.00000001
 40
0.0
 40
0.0
 40
0.0
 40
0.0
 40
0.1996413151060726
 40
1.0
 40
1.0
 40
1.0
 40
1.0
 10
172.0470343570598
 20
71.20774756269199
 30
0.0
 10
172.6088212436859
 20
71.20797933356374
 30
0.0
 10
175.4228023393705
 20
71.20914026997433
 30
0.0
 10
178.2364882587176
 20
71.25417036283562
 30
0.0
 10
180.4884462208308
 20
71.29021058873874
 30
0.0
  0
LWPOLYLINE
  5
1AB
330
1F
100
AcDbEntity
  8
0
  6
Continuous
 62
     7
370
    25
100
AcDbPolyline
 90
        3
 70
   128
 43
0.0
 10
149.7566992939
 20
129.4578916867
 10
149.7848643512
 20
127.4696893533
 10
150.1881456525
 20
99.1119823893
  0
LWPOLYLINE
  5
1AC
330
1F
100
AcDbEntity
  8
0
  6
Continuous
 62
     7
370
    25
100
AcDbPolyline
 90
        3
 70
   128
 43
0.0
 10
193.908053875
 20
99.1118408282
 10
194.0452693553
 20
108.7540022572
 10
194.339556113
 20
129.5179731687
  0
SPLINE
  5
1AD
330
1F
100
AcDbEntity
  8
0
  6
Continuous
 62
     7
370
    25
100
AcDbSpline
210
0.0
220
0.0
230
1.0
 70
     8
 71
     3
 72
    10
 73
     6
 74
     0
 42
0.000000001
 43
0.00000001
 40
0.0
 40
0.0
 40
0.0
 40
0.0
 40
0.1774368802206976
 40
0.6317845922470394
 40
1.0
 40
1.0
 40
1.0
 40
1.0
 10
148.7555945814408
 20
191.6787771050785
 30
0.0
 10
148.7515840918704
 20
191.6888415574772
 30
0.0
 10
148.7373042785937
 20
191.7246772075798
 30
0.0
 10
148.7639037674586
 20
191.3880484596534
 30
0.0
 10
148.7988485848248
 20
190.7549433291174
 30
0.0
 10
148.8144914210595
 20
190.4715376448785
 30
0.0
  0
SPLINE
  5
1AE
330
1F
100
AcDbEntity
  8
0
  6
Continuous
 62
     7
370
    25
100
AcDbSpline
210
0.0
220
0.0
230
1.0
 70
     8
 71
     3
 72
    12
 73
     8
 74
     0
 42
0.000000001
 43
0.00000001
 40
0.0
 40
0.0
 40
0.0
 40
0.0
 40
0.2451801382201205
 40
0.4854357713147541
 40
0.7013607418688754
 40
0.8930778364734117
 40
1.0
 40
1.0
 40
1.0
 40
1.0
 10
195.1223867536343
 20
185.171480058596
 30
0.0
 10
195.1282913149095
 20
185.6122466961661
 30
0.0
 10
195.1399818428522
 20
186.4849270618431
 30
0.0
 10
195.1672957262042
 20
187.6337310259565
 30
0.0
 10
195.1955315464287
 20
188.5859031996015
 30
0.0
 10
195.2206825435605
 20
189.2625053110146
 30
0.0
 10
195.2333845175465
 20
189.5463351812738
 30
0.0
 10
195.2379322201766
 20
189.6479551223074
 30
0.0
  0
SPLINE
  5
1AF
330
1F
100
AcDbEntity
  8
0
  6
Continuous
 62
     7
370
    25
100
AcDbSpline
210
0.0
220
0.0
230
1.0
 70
     8
 71
     3
 72
     8
 73
     4
 74
     0
 42
0.000000001
 43
0.00000001
 40
0.0
 40
0.0
 40
0.0
 40
0.0
 40
1.0
 40
1.0
 40
1.0
 40
1.0
 10
180.6587415515676
 20
107.8942059626093
 30
0.0
 10
177.7884583452055
 20
107.894091744574
 30
0.0
 10
174.9181804668882
 20
107.8940380200325
 30
0.0
 10
172.0479023678625
 20
107.8940383117887
 30
0.0
  0
SPLINE
  5
1B0
330
1F
100
AcDbEntity
  8
0
  6
Continuous
 62
     7
370
    25
100
AcDbSpline
210
0.0
220
0.0
230
1.0
 70
     8
 71
     3
 72
     8
 73
     4
 74
     0
 42
0.000000001
 43
0.00000001
 40
0.0
 40
0.0
 40
0.0
 40
0.0
 40
1.0
 40
1.0
 40
1.0
 40
1.0
 10
172.0478892403826
 20
107.8940383117887
 30
0.0
 10
169.177611188753
 20
107.8940380200284
 30
0.0
 10
166.3073333157409
 20
107.8940917445835
 30
0.0
 10
163.4370500566772
 20
107.8942059626094
 30
0.0
  0
SPLINE
  5
1B1
330
1F
100
AcDbEntity
  8
0
  6
Continuous
 62
     7
370
    25
100
AcDbSpline
210
0.0
220
0.0
230
1.0
 70
     8
 71
     3
 72
    10
 73
     6
 74
     0
 42
0.000000001
 43
0.00000001
 40
0.0
 40
0.0
 40
0.0
 40
0.0
 40
0.432944142056606
 40
0.8658882463767299
 40
1.0
 40
1.0
 40
1.0
 40
1.0
 10
193.6554121375836
 20
120.6940643032048
 30
0.0
 10
193.7468785647966
 20
126.9538423366989
 30
0.0
 10
193.92981141125
 20
139.4733978580692
 30
0.0
 10
194.1660135808012
 20
153.931679134092
 30
0.0
 10
194.2625422235249
 20
162.1308363890234
 30
0.0
 10
194.2853717655696
 20
164.0699810822461
 30
0.0
  0
LINE
  5
1B2
330
1F
100
AcDbEntity
  8
0
  6
Continuous
 62
     7
370
    25
100
AcDbLine
 10
194.387049839
 20
172.4501482685
 30
0.0
 11
194.4428043962
 21
177.0454521765
 31
0.0
  0
LINE
  5
1B3
330
1F
100
AcDbEntity
  8
0
  6
Continuous
 62
     7
370
    25
100
AcDbLine
 10
149.6531827898
 20
177.0454689403
 30
0.0
 11
149.690791458
 21
177.0485329916
 31
0.0
  0
LINE
  5
1B4
330
1F
100
AcDbEntity
  8
0
  6
Continuous
 62
     7
370
    25
100
AcDbLine
 10
149.693820119
 20
187.1090249632
 30
0.0
 11
149.6531827898
 21
177.0454689403
 31
0.0
  0
SPLINE
  5
1B5
330
1F
100
AcDbEntity
  8
0
  6
Continuous
 62
     7
370
    25
100
AcDbSpline
210
0.0
220
0.0
230
1.0
 70
     8
 71
     3
 72
    10
 73
     6
 74
     0
 42
0.000000001
 43
0.00000001
 40
0.0
 40
0.0
 40
0.0
 40
0.0
 40
0.5
 40
0.5
 40
1.0
 40
1.0
 40
1.0
 40
1.0
 10
194.366600330555
 20
195.8687825229975
 30
0.0
 10
194.4031562540681
 20
192.7304576601734
 30
0.0
 10
194.4257939861287
 20
189.5947230736014
 30
0.0
 10
194.4584300907568
 20
183.3221435527796
 30
0.0
 10
194.4529096946356
 20
180.1794631578944
 30
0.0
 10
194.4426090318518
 20
177.0454685595087
 30
0.0
  0
SPLINE
  5
1B6
330
1F
100
AcDbEntity
  8
0
  6
Continuous
 62
     7
370
    25
100
AcDbSpline
210
0.0
220
0.0
230
1.0
 70
     8
 71
     3
 72
    38
 73
    34
 74
     0
 42
0.000000001
 43
0.00000001
 40
0.0
 40
0.0
 40
0.0
 40
0.0
 40
0.1250000000000002
 40
0.1250000000000002
 40
0.1875000000000003
 40
0.1875000000000003
 40
0.2500000000000004
 40
0.2500000000000004
 40
0.2812500000000004
 40
0.2812500000000004
 40
0.3125000000000005
 40
0.3125000000000005
 40
0.3750000000000007
 40
0.3750000000000007
 40
0.4375000000000009
 40
0.4375000000000009
 40
0.4687500000000009
 40
0.4687500000000009
 40
0.500000000000001
 40
0.500000000000001
 40
0.5625000000000011
 40
0.5625000000000011
 40
0.5937500000000011
 40
0.5937500000000011
 40
0.625000000000001
 40
0.625000000000001
 40
0.7500000000000006
 40
0.7500000000000006
 40
0.8125000000000004
 40
0.8125000000000004
 40
0.8750000000000002
 40
0.8750000000000002
 40
1.0
 40
1.0
 40
1.0
 40
1.0
 10
172.0478958041229
 20
218.2130151470537
 30
0.0
 10
170.4591221304331
 20
218.2130447631494
 30
0.0
 10
168.8865426873346
 20
218.1263316109178
 30
0.0
 10
166.5572703154991
 20
217.8377296376359
 30
0.0
 10
165.7857888456982
 20
217.7150541498497
 30
0.0
 10
164.2535757952757
 20
217.4121224736029
 30
0.0
 10
163.492601060723
 20
217.2331687147292
 30
0.0
 10
162.3603579831199
 20
216.9153572999658
 30
0.0
 10
161.9845877408494
 20
216.8006136146602
 30
0.0
 10
161.2368663994947
 20
216.5506693875207
 30
0.0
 10
160.8638555275987
 20
216.4150427905022
 30
0.0
 10
159.7587973471537
 20
215.9756312408239
 30
0.0
 10
159.0486600894084
 20
215.6424264636289
 30
0.0
 10
157.6855165704256
 20
214.8894356512499
 30
0.0
 10
157.0327938641675
 20
214.4692198923023
 30
0.0
 10
156.0993793055391
 20
213.7696847387819
 30
0.0
 10
155.7946998573847
 20
213.5240704254986
 30
0.0
 10
155.2065228238959
 20
213.0141552720443
 30
0.0
 10
154.9238404456968
 20
212.750660290652
 30
0.0
 10
154.1086644206638
 20
211.9355715804396
 30
0.0
 10
153.6086437924765
 20
211.3596720534932
 30
0.0
 10
152.9188116327993
 20
210.450764449483
 30
0.0
 10
152.6989722859851
 20
210.1402319551602
 30
0.0
 10
152.2788525688847
 20
209.5045272269754
 30
0.0
 10
152.0779540475599
 20
209.1782553091936
 30
0.0
 10
151.1297178992856
 20
207.5269777690133
 30
0.0
 10
150.5493539780653
 20
206.1465597066482
 30
0.0
 10
149.8796161930777
 20
204.0090104418972
 30
0.0
 10
149.690270810458
 20
203.285196178446
 30
0.0
 10
149.3711635081854
 20
201.8177106100584
 30
0.0
 10
149.2421446217308
 20
201.0781450285941
 30
0.0
 10
148.9374640852776
 20
198.8567382129325
 30
0.0
 10
148.8381733197027
 20
197.3669160117109
 30
0.0
 10
148.8524069414387
 20
195.8673799378703
 30
0.0
  0
SPLINE
  5
1B7
330
1F
100
AcDbEntity
  8
0
  6
Continuous
 62
     7
370
    25
100
AcDbSpline
210
0.0
220
0.0
230
1.0
 70
     8
 71
     3
 72
    34
 73
    30
 74
     0
 42
0.000000001
 43
0.00000001
 40
0.0
 40
0.0
 40
0.0
 40
0.0
 40
0.1250000000000002
 40
0.1250000000000002
 40
0.2500000000000004
 40
0.2500000000000004
 40
0.2812500000000002
 40
0.2812500000000002
 40
0.3125000000000001
 40
0.3125000000000001
 40
0.3749999999999999
 40
0.3749999999999999
 40
0.4374999999999999
 40
0.4374999999999999
 40
0.4999999999999998
 40
0.4999999999999998
 40
0.6249999999999998
 40
0.6249999999999998
 40
0.6562499999999998
 40
0.6562499999999998
 40
0.6874999999999999
 40
0.6874999999999999
 40
0.7499999999999998
 40
0.7499999999999998
 40
0.8124999999999999
 40
0.8124999999999999
 40
0.875
 40
0.875
 40
1.0
 40
1.0
 40
1.0
 40
1.0
 10
195.2433846668044
 20
195.8673799379169
 30
0.0
 10
195.2575814060652
 20
197.3630303807704
 30
0.0
 10
195.1587767008269
 20
198.8408797080535
 30
0.0
 10
194.7611169001195
 20
201.7650644279788
 30
0.0
 10
194.4599863324089
 20
203.2110413655645
 30
0.0
 10
193.909779218537
 20
204.9911347867884
 30
0.0
 10
193.790906893953
 20
205.3457623392223
 30
0.0
 10
193.5338454731795
 20
206.05197447339
 30
0.0
 10
193.3952500231694
 20
206.4045055283014
 30
0.0
 10
192.9506476282613
 20
207.4500464188403
 30
0.0
 10
192.6176278751214
 20
208.1274302552441
 30
0.0
 10
191.8713227760455
 20
209.4391402971508
 30
0.0
 10
191.4581393256957
 20
210.0735211634665
 30
0.0
 10
190.5416385323139
 20
211.2939315197787
 30
0.0
 10
190.0344621886846
 20
211.8833656591459
 30
0.0
 10
188.4112404348561
 20
213.5204002216662
 30
0.0
 10
187.1849171169531
 20
214.4514452019182
 30
0.0
 10
185.4688700157663
 20
215.4116113772408
 30
0.0
 10
185.1165778070517
 20
215.5933645999551
 30
0.0
 10
184.4060860353028
 20
215.931683869413
 30
0.0
 10
184.046432652776
 20
216.0890841580341
 30
0.0
 10
182.9552249292301
 20
216.5286080881858
 30
0.0
 10
182.2115174746858
 20
216.7783068229032
 30
0.0
 10
180.6985092032482
 20
217.20942035938
 30
0.0
 10
179.9299095847455
 20
217.3927059815198
 30
0.0
 10
178.372231458475
 20
217.7046388753328
 30
0.0
 10
177.5859904465725
 20
217.8309500833454
 30
0.0
 10
175.2251255437897
 20
218.1260987416608
 30
0.0
 10
173.6406819398179
 20
218.2130448377316
 30
0.0
 10
172.0478958041229
 20
218.2130151468402
 30
0.0
  0
SPLINE
  5
1B8
330
1F
100
AcDbEntity
  8
0
  6
Continuous
 62
     7
370
    25
100
AcDbSpline
210
0.0
220
0.0
230
1.0
 70
     8
 71
     3
 72
     9
 73
     5
 74
     0
 42
0.000000001
 43
0.00000001
 40
0.0
 40
0.0
 40
0.0
 40
0.0
 40
0.2969342099039197
 40
1.0
 40
1.0
 40
1.0
 40
1.0
 10
149.7289216668166
 20
189.8930275355433
 30
0.0
 10
149.5974617412485
 20
190.3323941406442
 30
0.0
 10
149.1547376589992
 20
191.8120707506352
 30
0.0
 10
149.0149557426769
 20
193.2936497246261
 30
0.0
 10
148.9166798592366
 20
194.3352972165648
 30
0.0
  0
SPLINE
  5
1B9
330
1F
100
AcDbEntity
  8
0
  6
Continuous
 62
     7
370
    25
100
AcDbSpline
210
0.0
220
0.0
230
1.0
 70
     8
 71
     3
 72
     8
 73
     4
 74
     0
 42
0.000000001
 43
0.00000001
 40
0.0
 40
0.0
 40
0.0
 40
0.0
 40
1.0
 40
1.0
 40
1.0
 40
1.0
 10
148.9166799471558
 20
194.3352971210829
 30
0.0
 10
148.8786436697827
 20
194.8453760203845
 30
0.0
 10
148.8572780932943
 20
195.3560724693035
 30
0.0
 10
148.8524069414385
 20
195.8673799378703
 30
0.0
  0
SPLINE
  5
1BA
330
1F
100
AcDbEntity
  8
0
  6
Continuous
 62
     7
370
    25
100
AcDbSpline
210
0.0
220
0.0
230
1.0
 70
     8
 71
     3
 72
     8
 73
     4
 74
     0
 42
0.000000001
 43
0.00000001
 40
0.0
 40
0.0
 40
0.0
 40
0.0
 40
1.0
 40
1.0
 40
1.0
 40
1.0
 10
195.243384666806
 20
195.8673799378911
 30
0.0
 10
195.2385135149503
 20
195.3560724693291
 30
0.0
 10
195.2171479384626
 20
194.8453760203795
 30
0.0
 10
195.1791116610898
 20
194.3352971210828
 30
0.0
  0
SPLINE
  5
1BB
330
1F
100
AcDbEntity
  8
0
  6
Continuous
 62
     7
370
    25
100
AcDbSpline
210
0.0
220
0.0
230
1.0
 70
     8
 71
     3
 72
    10
 73
     6
 74
     0
 42
0.000000001
 43
0.00000001
 40
0.0
 40
0.0
 40
0.0
 40
0.0
 40
0.4782616390902528
 40
0.9632627288447885
 40
1.0
 40
1.0
 40
1.0
 40
1.0
 10
195.179111749009
 20
194.3352972165648
 30
0.0
 10
195.1010577777492
 20
193.6217832333569
 30
0.0
 10
194.9438499333235
 20
192.1847007446981
 30
0.0
 10
194.6717209037341
 20
190.6614521287019
 30
0.0
 10
194.4094457894806
 20
189.8863352218191
 30
0.0
 10
194.3909781575955
 20
189.8317567546819
 30
0.0
  0
SPLINE
  5
1BC
330
1F
100
AcDbEntity
  8
0
  6
Continuous
 62
     7
370
    25
100
AcDbSpline
210
0.0
220
0.0
230
1.0
 70
     8
 71
     3
 72
    11
 73
     7
 74
     0
 42
0.000000001
 43
0.00000001
 40
0.0
 40
0.0
 40
0.0
 40
0.0
 40
0.1650261023550686
 40
0.5195279501088206
 40
0.7581371016965638
 40
1.0
 40
1.0
 40
1.0
 40
1.0
 10
152.8187314570702
 20
185.871924041674
 30
0.0
 10
152.5383265285438
 20
186.3771102742939
 30
0.0
 10
151.6555680095047
 20
187.9675154532973
 30
0.0
 10
150.9045055652115
 20
190.5365956703691
 30
0.0
 10
150.3730046659745
 20
193.4119529106467
 30
0.0
 10
150.3231134264397
 20
195.0943901517761
 30
0.0
 10
150.2979988754548
 20
195.9413054873202
 30
0.0
  0
SPLINE
  5
1BD
330
1F
100
AcDbEntity
  8
0
  6
Continuous
 62
     7
370
    25
100
AcDbSpline
210
0.0
220
0.0
230
1.0
 70
     8
 71
     3
 72
    16
 73
    12
 74
     0
 42
0.000000001
 43
0.00000001
 40
0.0
 40
0.0
 40
0.0
 40
0.0
 40
0.1249999999999991
 40
0.1249999999999991
 40
0.2499999999999982
 40
0.2499999999999982
 40
0.4999999999999988
 40
0.4999999999999988
 40
0.7499999999999993
 40
0.7499999999999993
 40
1.0
 40
1.0
 40
1.0
 40
1.0
 10
150.5034931056732
 20
82.15823155360772
 30
0.0
 10
150.4800135206241
 20
82.86441561957008
 30
0.0
 10
150.4630538665801
 20
83.57074046017148
 30
0.0
 10
150.4332031508698
 20
84.98346669845515
 30
0.0
 10
150.4204569399012
 20
85.68987430380945
 30
0.0
 10
150.3825908044207
 20
87.8091072436316
 30
0.0
 10
150.3564982681889
 20
89.22191922840996
 30
0.0
 10
150.3037629944609
 20
92.04754655540245
 30
0.0
 10
150.2782257281219
 20
93.46037866257903
 30
0.0
 10
150.2307847145822
 20
96.28611915269315
 30
0.0
 10
150.209199676981
 20
97.69903873236396
 30
0.0
 10
150.1878315928194
 20
99.11196187108143
 30
0.0
  0
SPLINE
  5
1BE
330
1F
100
AcDbEntity
  8
0
  6
Continuous
 62
     7
370
    25
100
AcDbSpline
210
0.0
220
0.0
230
1.0
 70
     8
 71
     3
 72
    16
 73
    12
 74
     0
 42
0.000000001
 43
0.00000001
 40
0.0
 40
0.0
 40
0.0
 40
0.0
 40
0.2500000000000006
 40
0.2500000000000006
 40
0.5000000000000012
 40
0.5000000000000012
 40
0.7500000000000018
 40
0.7500000000000018
 40
0.8750000000000009
 40
0.8750000000000009
 40
1.0
 40
1.0
 40
1.0
 40
1.0
 10
193.9079600154255
 20
99.1119618710813
 30
0.0
 10
193.8865919312639
 20
97.69903873236385
 30
0.0
 10
193.8650068936627
 20
96.28611915269299
 30
0.0
 10
193.817565880123
 20
93.46037866257892
 30
0.0
 10
193.792028613784
 20
92.04754655540229
 30
0.0
 10
193.739293340056
 20
89.22191922840979
 30
0.0
 10
193.7132008038241
 20
87.80910724363149
 30
0.0
 10
193.6753346683436
 20
85.68987430380939
 30
0.0
 10
193.662588457375
 20
84.98346669845498
 30
0.0
 10
193.6327377416648
 20
83.57074046017134
 30
0.0
 10
193.6157780876207
 20
82.86441561956998
 30
0.0
 10
193.5922985025716
 20
82.15823155360759
 30
0.0
  0
SPLINE
  5
1BF
330
1F
100
AcDbEntity
  8
0
  6
Continuous
 62
     7
370
    25
100
AcDbSpline
210
0.0
220
0.0
230
1.0
 70
     8
 71
     3
 72
    10
 73
     6
 74
     0
 42
0.000000001
 43
0.00000001
 40
0.0
 40
0.0
 40
0.0
 40
0.0
 40
0.5
 40
0.5
 40
1.0
 40
1.0
 40
1.0
 40
1.0
 10
149.6479318601739
 20
137.1118508390246
 30
0.0
 10
149.5946412217695
 20
140.8079844021727
 30
0.0
 10
149.5434342435497
 20
144.5041474935496
 30
0.0
 10
149.4441886311094
 20
151.896515530701
 30
0.0
 10
149.3965151926194
 20
155.5927339099687
 30
0.0
 10
149.3445522666746
 20
159.288875533536
 30
0.0
  0
LINE
  5
1C0
330
1F
100
AcDbEntity
  8
0
  6
Continuous
 62
     7
370
    25
100
AcDbLine
 10
149.756693706
 20
129.4605142911
 30
0.0
 11
149.6482560933
 21
137.1118507822
 31
0.0
  0
SPLINE
  5
1C1
330
1F
100
AcDbEntity
  8
0
  6
Continuous
 62
     7
370
    25
100
AcDbSpline
210
0.0
220
0.0
230
1.0
 70
     8
 71
     3
 72
    10
 73
     6
 74
     0
 42
0.000000001
 43
0.00000001
 40
0.0
 40
0.0
 40
0.0
 40
0.0
 40
0.5
 40
0.5
 40
1.0
 40
1.0
 40
1.0
 40
1.0
 10
194.7512393415707
 20
159.2888755335357
 30
0.0
 10
194.6992764255039
 20
155.5927346049138
 30
0.0
 10
194.6516029729626
 20
151.896515217406
 30
0.0
 10
194.5523573628451
 20
144.5041473581623
 30
0.0
 10
194.5011503962681
 20
140.807985081349
 30
0.0
 10
194.4478597480712
 20
137.1118508390244
 30
0.0
  0
LINE
  5
1C2
330
1F
100
AcDbEntity
  8
0
  6
Continuous
 62
     7
370
    25
100
AcDbLine
 10
194.4475355149
 20
137.1118507822
 30
0.0
 11
194.3400087357
 21
129.5246786912
 31
0.0
  0
SPLINE
  5
1C3
330
1F
100
AcDbEntity
  8
0
  6
Continuous
 62
     7
370
    25
100
AcDbSpline
210
0.0
220
0.0
230
1.0
 70
     8
 71
     3
 72
    12
 73
     8
 74
     0
 42
0.000000001
 43
0.00000001
 40
0.0
 40
0.0
 40
0.0
 40
0.0
 40
0.5000000000000001
 40
0.5000000000000001
 40
0.75
 40
0.75
 40
1.0
 40
1.0
 40
1.0
 40
1.0
 10
149.3444887828362
 20
159.2884947380695
 30
0.0
 10
149.2582859921785
 20
165.3939186349546
 30
0.0
 10
149.1698780536377
 20
171.4993090747138
 30
0.0
 10
149.0384570242855
 20
180.6574130112797
 30
0.0
 10
148.9945726676732
 20
183.7101137867044
 30
0.0
 10
148.9068344575315
 20
189.8155140275938
 30
0.0
 10
148.8618643406124
 20
192.8681961363422
 30
0.0
 10
148.8137528524033
 20
195.9208342938707
 30
0.0
  0
SPLINE
  5
1C4
330
1F
100
AcDbEntity
  8
0
  6
Continuous
 62
     7
370
    25
100
AcDbSpline
210
0.0
220
0.0
230
1.0
 70
     8
 71
     3
 72
    12
 73
     8
 74
     0
 42
0.000000001
 43
0.00000001
 40
0.0
 40
0.0
 40
0.0
 40
0.0
 40
0.2500000000000001
 40
0.2500000000000001
 40
0.5000000000000001
 40
0.5000000000000001
 40
1.0
 40
1.0
 40
1.0
 40
1.0
 10
195.2820387556175
 20
195.9208342796067
 30
0.0
 10
195.2339272926801
 20
192.8681977252929
 30
0.0
 10
195.188957181274
 20
189.8155161471223
 30
0.0
 10
195.1012189637438
 20
183.7101154061526
 30
0.0
 10
195.057334606035
 20
180.6574145505116
 30
0.0
 10
194.9259135689904
 20
171.4993100751113
 30
0.0
 10
194.837505626028
 20
165.3939193404672
 30
0.0
 10
194.7513028254092
 20
159.2884947380692
 30
0.0
  0
SPLINE
  5
1C5
330
1F
100
AcDbEntity
  8
0
  6
Continuous
 62
     7
370
    25
100
AcDbSpline
210
0.0
220
0.0
230
1.0
 70
     8
 71
     3
 72
    19
 73
    15
 74
     0
 42
0.000000001
 43
0.00000001
 40
0.0
 40
0.0
 40
0.0
 40
0.0
 40
0.0949710806743597
 40
0.1926218945409574
 40
0.2876432660607004
 40
0.3365723040204178
 40
0.3859330301583303
 40
0.4744897234448925
 40
0.5657781684632114
 40
0.6520924042239585
 40
0.7406606644178296
 40
0.8318399353110657
 40
0.9254682709442583
 40
1.0
 40
1.0
 40
1.0
 40
1.0
 10
172.0478959651166
 20
220.8155177076314
 30
0.0
 10
170.6516063552809
 20
220.7508708338124
 30
0.0
 10
167.8196289989675
 20
220.61975299012
 30
0.0
 10
163.7033104637764
 20
219.5431962697179
 30
0.0
 10
160.4468301532339
 20
218.0950557574218
 30
0.0
 10
158.032614830886
 20
216.5932954119882
 30
0.0
 10
155.8452616563114
 20
214.9307121245477
 30
0.0
 10
153.4482974867217
 20
212.5420805904118
 30
0.0
 10
151.1899925604451
 20
209.3270429618193
 30
0.0
 10
149.5008325604962
 20
205.7844792746463
 30
0.0
 10
148.3900494121422
 20
202.0189888544414
 30
0.0
 10
147.894745262004
 20
198.0238114061015
 30
0.0
 10
147.9673891719691
 20
194.1860117403208
 30
0.0
 10
148.5448255323651
 20
191.7795433222581
 30
0.0
 10
148.800756275729
 20
190.7129508917187
 30
0.0
  0
SPLINE
  5
1C6
330
1F
100
AcDbEntity
  8
0
  6
Continuous
 62
     7
370
    25
100
AcDbSpline
210
0.0
220
0.0
230
1.0
 70
     8
 71
     3
 72
    19
 73
    15
 74
     0
 42
0.000000001
 43
0.00000001
 40
0.0
 40
0.0
 40
0.0
 40
0.0
 40
0.0179583637216477
 40
0.1086578707562545
 40
0.2018454150411906
 40
0.2952204976509961
 40
0.3913132779214364
 40
0.48402402824803
 40
0.5797903136417417
 40
0.6667908183555525
 40
0.7563300543470708
 40
0.8434832600120983
 40
0.932849133922019
 40
1.0
 40
1.0
 40
1.0
 40
1.0
 10
195.2916862965382
 20
190.6800249134157
 30
0.0
 10
195.3747648895664
 20
190.9307430073011
 30
0.0
 10
195.877435576261
 20
192.447723878382
 30
0.0
 10
196.1631046640908
 20
195.4359481721491
 30
0.0
 10
196.112853047787
 20
199.5140610667853
 30
0.0
 10
195.3237611491973
 20
203.6178293121082
 30
0.0
 10
193.8737026406952
 20
207.5238066812162
 30
0.0
 10
191.7433451214852
 20
211.1482524307518
 30
0.0
 10
189.0812260421687
 20
214.230468624928
 30
0.0
 10
185.9554050531215
 20
216.7588947292335
 30
0.0
 10
182.5588273699791
 20
218.6659126155857
 30
0.0
 10
178.8677587978376
 20
219.9966649504363
 30
0.0
 10
175.3366484760847
 20
220.7058873370389
 30
0.0
 10
173.0352652713637
 20
220.7826038026488
 30
0.0
 10
172.0478956431292
 20
220.8155177076314
 30
0.0
  0
SPLINE
  5
1C7
330
1F
100
AcDbEntity
  8
0
  6
Continuous
 62
     8
370
    18
100
AcDbSpline
210
0.0
220
0.0
230
1.0
 70
     8
 71
     3
 72
    18
 73
    14
 74
     0
 42
0.000000001
 43
0.00000001
 40
0.0
 40
0.0
 40
0.0
 40
0.0
 40
0.25
 40
0.25
 40
0.375
 40
0.375
 40
0.5
 40
0.5
 40
0.625
 40
0.625
 40
0.75
 40
0.75
 40
1.0
 40
1.0
 40
1.0
 40
1.0
 10
151.6451004889166
 20
120.6975168327735
 30
0.0
 10
151.6711127701191
 20
119.0800848172953
 30
0.0
 10
151.7030421177656
 20
117.4472193617812
 30
0.0
 10
152.2063018146663
 20
115.0651765151811
 30
0.0
 10
152.4638812799276
 20
114.2746460838995
 30
0.0
 10
153.1916917628305
 20
112.8095459907993
 30
0.0
 10
153.6721652638572
 20
112.1211656688393
 30
0.0
 10
154.8358532973248
 20
110.9813075229429
 30
0.0
 10
155.533891970804
 20
110.5145492150222
 30
0.0
 10
157.0108977287554
 20
109.8144579851696
 30
0.0
 10
157.8066153539603
 20
109.5701509485685
 30
0.0
 10
160.200986170153
 20
109.1047860048319
 30
0.0
 10
161.8174815982444
 20
109.097351973861
 30
0.0
 10
163.4286973940172
 20
109.094417268133
 30
0.0
  0
SPLINE
  5
1C8
330
1F
100
AcDbEntity
  8
0
  6
Continuous
 62
     8
370
    18
100
AcDbSpline
210
0.0
220
0.0
230
1.0
 70
     8
 71
     3
 72
    18
 73
    14
 74
     0
 42
0.000000001
 43
0.00000001
 40
0.0
 40
0.0
 40
0.0
 40
0.0
 40
0.2500000000000008
 40
0.2500000000000008
 40
0.3750000000000009
 40
0.3750000000000009
 40
0.5000000000000007
 40
0.5000000000000007
 40
0.6250000000000004
 40
0.6250000000000004
 40
0.7500000000000003
 40
0.7500000000000003
 40
1.0
 40
1.0
 40
1.0
 40
1.0
 10
180.6670942142278
 20
109.0944172681328
 30
0.0
 10
182.2829455736153
 20
109.0973604171621
 30
0.0
 10
183.9249453031236
 20
109.1068512592959
 30
0.0
 10
186.314832249124
 20
109.5770825398106
 30
0.0
 10
187.1090318428702
 20
109.8230896639366
 30
0.0
 10
188.5859835124726
 20
110.5288675093147
 30
0.0
 10
189.2824881264295
 20
110.9986522865197
 30
0.0
 10
190.4411605591102
 20
112.1432506778426
 30
0.0
 10
190.9164098838281
 20
112.8295709704477
 30
0.0
 10
191.6392234680987
 20
114.2942536210594
 30
0.0
 10
191.8939743798861
 20
115.0803827218029
 30
0.0
 10
192.3951195721289
 20
117.4706843184672
 30
0.0
 10
192.4247674970184
 20
119.0855976096401
 30
0.0
 10
192.4506911193283
 20
120.6975168327733
 30
0.0
  0
SPLINE
  5
1C9
330
1F
100
AcDbEntity
  8
0
  6
Continuous
 62
     8
370
    18
100
AcDbSpline
210
0.0
220
0.0
230
1.0
 70
     8
 71
     3
 72
     8
 73
     4
 74
     0
 42
0.000000001
 43
0.00000001
 40
0.0
 40
0.0
 40
0.0
 40
0.0
 40
1.0
 40
1.0
 40
1.0
 40
1.0
 10
163.4343945526906
 20
109.0944079025559
 30
0.0
 10
166.3055989450953
 20
109.0914245063689
 30
0.0
 10
169.17674084382
 20
109.090015005605
 30
0.0
 10
172.0478958041226
 20
109.0900218615693
 30
0.0
  0
SPLINE
  5
1CA
330
1F
100
AcDbEntity
  8
0
  6
Continuous
 62
     8
370
    18
100
AcDbSpline
210
0.0
220
0.0
230
1.0
 70
     8
 71
     3
 72
     8
 73
     4
 74
     0
 42
0.000000001
 43
0.00000001
 40
0.0
 40
0.0
 40
0.0
 40
0.0
 40
1.0
 40
1.0
 40
1.0
 40
1.0
 10
172.0478958041225
 20
109.0900218615693
 30
0.0
 10
174.9190508118548
 20
109.0900150056077
 30
0.0
 10
177.7901927158482
 20
109.0914245062852
 30
0.0
 10
180.6613970555543
 20
109.0944079025559
 30
0.0
  0
SPLINE
  5
1CB
330
1F
100
AcDbEntity
  8
0
  6
Continuous
 62
     8
370
    18
100
AcDbSpline
210
0.0
220
0.0
230
1.0
 70
     8
 71
     3
 72
    10
 73
     6
 74
     0
 42
0.000000001
 43
0.00000001
 40
0.0
 40
0.0
 40
0.0
 40
0.0
 40
0.5
 40
0.5
 40
1.0
 40
1.0
 40
1.0
 40
1.0
 10
193.2313836516824
 20
177.0652508587626
 30
0.0
 10
193.2360993752278
 20
180.2007812164178
 30
0.0
 10
193.2391384389215
 20
183.3335432169046
 30
0.0
 10
193.183892745175
 20
189.6014272757719
 30
0.0
 10
193.1432210630978
 20
192.7353007949125
 30
0.0
 10
193.1054744251265
 20
195.8688159294297
 30
0.0
  0
SPLINE
  5
1CC
330
1F
100
AcDbEntity
  8
0
  6
Continuous
 62
     8
370
    18
100
AcDbSpline
210
0.0
220
0.0
230
1.0
 70
     8
 71
     3
 72
    12
 73
     8
 74
     0
 42
0.000000001
 43
0.00000001
 40
0.0
 40
0.0
 40
0.0
 40
0.0
 40
0.5
 40
0.5
 40
0.75
 40
0.75
 40
1.0
 40
1.0
 40
1.0
 40
1.0
 10
192.4511786530739
 20
120.7280858424092
 30
0.0
 10
192.5892943618596
 20
130.1177195244693
 30
0.0
 10
192.7277012838133
 20
139.507348477239
 30
0.0
 10
192.9356029684693
 20
153.5917871354696
 30
0.0
 10
193.0049315764602
 20
158.286599550271
 30
0.0
 10
193.1437188982244
 20
167.6762222523222
 30
0.0
 10
193.2092944056682
 20
172.3714039153624
 30
0.0
 10
193.2309118076096
 20
177.0671525787679
 30
0.0
  0
SPLINE
  5
1CD
330
1F
100
AcDbEntity
  8
0
  6
Continuous
 62
     8
370
    18
100
AcDbSpline
210
0.0
220
0.0
230
1.0
 70
     8
 71
     3
 72
    10
 73
     6
 74
     0
 42
0.000000001
 43
0.00000001
 40
0.0
 40
0.0
 40
0.0
 40
0.0
 40
0.5
 40
0.5
 40
1.0
 40
1.0
 40
1.0
 40
1.0
 10
150.9903171831191
 20
195.8688159294299
 30
0.0
 10
150.9525705453339
 20
192.7353007949043
 30
0.0
 10
150.911898863019
 20
189.6014272757812
 30
0.0
 10
150.8566531693756
 20
183.3335432168959
 30
0.0
 10
150.8596922329903
 20
180.2007812164246
 30
0.0
 10
150.8644079565631
 20
177.0652508587627
 30
0.0
  0
SPLINE
  5
1CE
330
1F
100
AcDbEntity
  8
0
  6
Continuous
 62
     8
370
    18
100
AcDbSpline
210
0.0
220
0.0
230
1.0
 70
     8
 71
     3
 72
    12
 73
     8
 74
     0
 42
0.000000001
 43
0.00000001
 40
0.0
 40
0.0
 40
0.0
 40
0.0
 40
0.25
 40
0.25
 40
0.5
 40
0.5
 40
1.0
 40
1.0
 40
1.0
 40
1.0
 10
150.8648798006359
 20
177.067152578768
 30
0.0
 10
150.8864959004535
 20
172.3716867672443
 30
0.0
 10
150.9520684501383
 20
167.676510262739
 30
0.0
 10
151.0908566291293
 20
158.2868299470361
 30
0.0
 10
151.1601856627871
 20
153.5919887373042
 30
0.0
 10
151.3680886261906
 20
139.5074636782658
 30
0.0
 10
151.5064963987446
 20
130.1177771253596
 30
0.0
 10
151.6446129551711
 20
120.7280858424094
 30
0.0
  0
LWPOLYLINE
  5
1CF
330
1F
100
AcDbEntity
  8
0
  6
Continuous
 62
     8
370
    18
100
AcDbPolyline
 90
        9
 70
   128
 43
0.0
 10
172.0478892404
 20
107.8940413435
 10
172.0478904856
 20
107.9087636908
 10
172.0478916857
 20
107.9701341231
 10
172.0478927971
 20
108.0759398182
 10
172.0478937797
 20
108.2223362763
 10
172.0478945977
 20
108.4040186842
 10
172.0478952215
 20
108.6144081791
 10
172.0478956286
 20
108.8458679159
 10
172.0478958041
 20
109.0900234421
  0
SPLINE
  5
1D0
330
1F
100
AcDbEntity
  8
0
  6
Continuous
 62
     8
370
    18
100
AcDbSpline
210
0.0
220
0.0
230
1.0
 70
     8
 71
     3
 72
    14
 73
    10
 74
     0
 42
0.000000001
 43
0.00000001
 40
0.0
 40
0.0
 40
0.0
 40
0.0
 40
0.25
 40
0.25
 40
0.5
 40
0.5
 40
0.75
 40
0.75
 40
1.0
 40
1.0
 40
1.0
 40
1.0
 10
193.2309118076096
 20
177.0671525787679
 30
0.0
 10
193.3806403087189
 20
177.0663385450318
 30
0.0
 10
193.5401606781168
 20
177.065146927789
 30
0.0
 10
193.845139650939
 20
177.0620237447309
 30
0.0
 10
193.9896717143511
 20
177.0600925980057
 30
0.0
 10
194.2250272813399
 20
177.0558782263761
 30
0.0
 10
194.3151100661398
 20
177.0536082650805
 30
0.0
 10
194.4263059785447
 20
177.0492792529272
 30
0.0
 10
194.4478330216397
 20
177.0472289622408
 30
0.0
 10
194.4428044205234
 20
177.0454519412542
 30
0.0
  0
SPLINE
  5
1D1
330
1F
100
AcDbEntity
  8
0
  6
Continuous
 62
     8
370
    18
100
AcDbSpline
210
0.0
220
0.0
230
1.0
 70
     8
 71
     3
 72
    13
 73
     9
 74
     0
 42
0.000000001
 43
0.00000001
 40
0.0
 40
0.0
 40
0.0
 40
0.0
 40
0.1303891270082124
 40
0.2777032909077698
 40
0.4280340862446041
 40
0.5783632487602055
 40
0.7256789702471418
 40
1.0
 40
1.0
 40
1.0
 40
1.0
 10
149.6907914579667
 20
177.0485329915736
 30
0.0
 10
149.6976726969337
 20
177.0494583723252
 30
0.0
 10
149.7123283875615
 20
177.0514292519987
 30
0.0
 10
149.8287864437462
 20
177.0544744625603
 30
0.0
 10
149.980724345129
 20
177.0574752102395
 30
0.0
 10
150.1759143616299
 20
177.0601671041229
 30
0.0
 10
150.4622528512418
 20
177.063158714989
 30
0.0
 10
150.7058936615592
 20
177.064425832582
 30
0.0
 10
150.8644087762393
 20
177.065250231788
 30
0.0
  0
SPLINE
  5
1D2
330
1F
100
AcDbEntity
  8
0
  6
Continuous
 62
     8
370
    18
100
AcDbSpline
210
0.0
220
0.0
230
1.0
 70
     8
 71
     3
 72
    24
 73
    20
 74
     0
 42
0.000000001
 43
0.00000001
 40
0.0
 40
0.0
 40
0.0
 40
0.0
 40
0.1249999999999999
 40
0.1249999999999999
 40
0.25
 40
0.25
 40
0.375
 40
0.375
 40
0.5
 40
0.5
 40
0.6249999999999999
 40
0.6249999999999999
 40
0.7499999999999998
 40
0.7499999999999998
 40
0.8124999999999998
 40
0.8124999999999998
 40
0.8749999999999999
 40
0.8749999999999999
 40
1.0
 40
1.0
 40
1.0
 40
1.0
 10
172.0478955007636
 20
213.4649326677991
 30
0.0
 10
170.6763738891503
 20
213.4649281306797
 30
0.0
 10
169.3048947059172
 20
213.4616781704541
 30
0.0
 10
166.5623719640779
 20
213.444393853911
 30
0.0
 10
165.1917631753929
 20
213.4517117817632
 30
0.0
 10
162.4371469865724
 20
213.3197349322529
 30
0.0
 10
161.0645252790934
 20
213.1338938247703
 30
0.0
 10
158.4321984477336
 20
212.2950684002861
 30
0.0
 10
157.1908411153586
 20
211.6526344031382
 30
0.0
 10
154.9871386053944
 20
209.9908268951112
 30
0.0
 10
154.0200278706778
 20
208.9757444701859
 30
0.0
 10
152.4680255460253
 20
206.6899856516808
 30
0.0
 10
151.8839076340083
 20
205.4097609585042
 30
0.0
 10
151.3637494358192
 20
203.4056999052739
 30
0.0
 10
151.2461962457839
 20
202.7155666733052
 30
0.0
 10
151.1007686276396
 20
201.3415292274553
 30
0.0
 10
151.0708889056762
 20
200.6547900158993
 30
0.0
 10
151.020693287963
 20
198.5995605509547
 30
0.0
 10
151.0100775114412
 20
197.2365699972651
 30
0.0
 10
150.9899619332479
 20
195.8688159294277
 30
0.0
  0
SPLINE
  5
1D3
330
1F
100
AcDbEntity
  8
0
  6
Continuous
 62
     8
370
    18
100
AcDbSpline
210
0.0
220
0.0
230
1.0
 70
     8
 71
     3
 72
    22
 73
    18
 74
     0
 42
0.000000001
 43
0.00000001
 40
0.0
 40
0.0
 40
0.0
 40
0.0
 40
0.1249999999999999
 40
0.1249999999999999
 40
0.2499999999999998
 40
0.2499999999999998
 40
0.3749999999999999
 40
0.3749999999999999
 40
0.4999999999999999
 40
0.4999999999999999
 40
0.6249999999999999
 40
0.6249999999999999
 40
0.75
 40
0.75
 40
0.875
 40
0.875
 40
1.0
 40
1.0
 40
1.0
 40
1.0
 10
193.1058296749978
 20
195.8688159294276
 30
0.0
 10
193.0858017424605
 20
197.2306105522999
 30
0.0
 10
193.0749290625658
 20
198.587560632117
 30
0.0
 10
193.0092097299566
 20
201.3160115370551
 30
0.0
 10
192.9156881929479
 20
202.6886529131617
 30
0.0
 10
192.2121117123563
 20
205.4182406062473
 30
0.0
 10
191.6345444229319
 20
206.6833000944249
 30
0.0
 10
190.0504914178912
 20
209.0096288057186
 30
0.0
 10
189.087184044211
 20
210.0149454725163
 30
0.0
 10
186.8347026941659
 20
211.6973491678442
 30
0.0
 10
185.595036710763
 20
212.3281987175924
 30
0.0
 10
182.9140772445232
 20
213.1591413860662
 30
0.0
 10
181.5500026891873
 20
213.3291339106204
 30
0.0
 10
178.8304395536174
 20
213.4507505142727
 30
0.0
 10
177.4745540438075
 20
213.4448905467922
 30
0.0
 10
174.7620495833179
 20
213.4617301373839
 30
0.0
 10
173.4051734483393
 20
213.4649281778195
 30
0.0
 10
172.0478961074821
 20
213.4649326677991
 30
0.0
  0
LINE
  5
1D4
330
1F
100
AcDbEntity
  8
0
  6
Continuous
 62
     8
370
    18
100
AcDbLine
 10
149.7291917504
 20
195.8687824671
 30
0.0
 11
149.693820119
 21
187.1090249632
 31
0.0
  0
SPLINE
  5
1D5
330
1F
100
AcDbEntity
  8
0
  6
Continuous
 62
     8
370
    18
100
AcDbSpline
210
0.0
220
0.0
230
1.0
 70
     8
 71
     3
 72
    24
 73
    20
 74
     0
 42
0.000000001
 43
0.00000001
 40
0.0
 40
0.0
 40
0.0
 40
0.0
 40
0.125
 40
0.125
 40
0.1875000000000001
 40
0.1875000000000001
 40
0.2500000000000001
 40
0.2500000000000001
 40
0.375
 40
0.375
 40
0.5
 40
0.5
 40
0.625
 40
0.625
 40
0.75
 40
0.75
 40
0.8750000000000001
 40
0.8750000000000001
 40
1.0
 40
1.0
 40
1.0
 40
1.0
 10
149.7290321527303
 20
195.870696316204
 30
0.0
 10
149.7482532221096
 20
197.2531005768304
 30
0.0
 10
149.7610297927096
 20
198.5876098889056
 30
0.0
 10
149.8198306047044
 20
200.6923731762428
 30
0.0
 10
149.8532289944892
 20
201.4118964153589
 30
0.0
 10
150.0142700956869
 20
202.8873275646201
 30
0.0
 10
150.144032667916
 20
203.6402636688024
 30
0.0
 10
150.7192601162832
 20
205.8415622571201
 30
0.0
 10
151.3641344521885
 20
207.2581523675999
 30
0.0
 10
153.0663514690562
 20
209.7751385924699
 30
0.0
 10
154.1226306808533
 20
210.8908614916659
 30
0.0
 10
156.5421686679562
 20
212.7283436000905
 30
0.0
 10
157.9106667133289
 20
213.443656649045
 30
0.0
 10
160.8126511943485
 20
214.3811734551218
 30
0.0
 10
162.3088051354818
 20
214.5857100602255
 30
0.0
 10
165.1809785942459
 20
214.7435149003572
 30
0.0
 10
166.5368638895879
 20
214.7479018637782
 30
0.0
 10
169.2922279808381
 20
214.7837542791989
 30
0.0
 10
170.6700440858502
 20
214.7921656559736
 30
0.0
 10
172.0478958041229
 20
214.7921663530236
 30
0.0
  0
LINE
  5
1D6
330
1F
100
AcDbEntity
  8
0
  6
Continuous
 62
     8
370
    18
100
AcDbLine
 10
172.0478958041
 20
214.7921666046
 30
0.0
 11
172.0478961075
 21
213.4649332155
 31
0.0
  0
SPLINE
  5
1D7
330
1F
100
AcDbEntity
  8
0
  6
Continuous
 62
     8
370
    18
100
AcDbSpline
210
0.0
220
0.0
230
1.0
 70
     8
 71
     3
 72
    22
 73
    18
 74
     0
 42
0.000000001
 43
0.00000001
 40
0.0
 40
0.0
 40
0.0
 40
0.0
 40
0.125
 40
0.125
 40
0.25
 40
0.25
 40
0.375
 40
0.375
 40
0.5000000000000001
 40
0.5000000000000001
 40
0.6250000000000001
 40
0.6250000000000001
 40
0.75
 40
0.75
 40
0.875
 40
0.875
 40
1.0
 40
1.0
 40
1.0
 40
1.0
 10
172.0478958041228
 20
214.7921663530236
 30
0.0
 10
173.4114432873488
 20
214.7921656631633
 30
0.0
 10
174.774576143173
 20
214.7839242179813
 30
0.0
 10
177.4997914182418
 20
214.748871983532
 30
0.0
 10
178.841020271716
 20
214.7430397083914
 30
0.0
 10
181.6709619348764
 20
214.5963181346131
 30
0.0
 10
183.1555080957289
 20
214.4091326657833
 30
0.0
 10
186.1080883224191
 20
213.4809261615829
 30
0.0
 10
187.4763166771007
 20
212.7779562898902
 30
0.0
 10
189.9497604011199
 20
210.9173655482964
 30
0.0
 10
191.0017510459527
 20
209.8124306476249
 30
0.0
 10
192.7390626435497
 20
207.2508102864189
 30
0.0
 10
193.3767849524109
 20
205.8506881742902
 30
0.0
 10
194.1548459632213
 20
202.8528367911879
 30
0.0
 10
194.2575361768909
 20
201.3689604228194
 30
0.0
 10
194.3346056515589
 20
198.5758989164049
 30
0.0
 10
194.3476230141627
 20
197.2470140195986
 30
0.0
 10
194.3667594555153
 20
195.8706963162038
 30
0.0
  0
SPLINE
  5
1D8
330
1F
100
AcDbEntity
  8
0
  6
Continuous
 62
     8
370
    18
100
AcDbSpline
210
0.0
220
0.0
230
1.0
 70
     8
 71
     3
 72
    34
 73
    30
 74
     0
 42
0.000000001
 43
0.00000001
 40
0.0
 40
0.0
 40
0.0
 40
0.0
 40
0.1249999999999995
 40
0.1249999999999995
 40
0.1874999999999993
 40
0.1874999999999993
 40
0.2499999999999991
 40
0.2499999999999991
 40
0.3749999999999988
 40
0.3749999999999988
 40
0.4062499999999988
 40
0.4062499999999988
 40
0.4374999999999988
 40
0.4374999999999988
 40
0.4999999999999988
 40
0.4999999999999988
 40
0.5624999999999989
 40
0.5624999999999989
 40
0.624999999999999
 40
0.624999999999999
 40
0.6874999999999991
 40
0.6874999999999991
 40
0.7187499999999992
 40
0.7187499999999992
 40
0.7499999999999992
 40
0.7499999999999992
 40
0.8749999999999997
 40
0.8749999999999997
 40
1.0
 40
1.0
 40
1.0
 40
1.0
 10
172.047895784701
 20
219.0794630206256
 30
0.0
 10
173.6120126396585
 20
219.0794630279706
 30
0.0
 10
175.1649867477835
 20
218.9884529791939
 30
0.0
 10
177.4732388796145
 20
218.6786959921999
 30
0.0
 10
178.2391340195317
 20
218.5466731806191
 30
0.0
 10
179.7627148746208
 20
218.2155693691199
 30
0.0
 10
180.5233819317547
 20
218.0153362596033
 30
0.0
 10
182.7550878129564
 20
217.3073329559183
 30
0.0
 10
184.183412173175
 20
216.6932170252681
 30
0.0
 10
185.8749962734578
 20
215.7014037867687
 30
0.0
 10
186.207271059884
 20
215.4924340710915
 30
0.0
 10
186.8531575328682
 20
215.0567564074668
 30
0.0
 10
187.1676749404569
 20
214.829459604602
 30
0.0
 10
188.0861557091824
 20
214.1194266024086
 30
0.0
 10
188.6651354121674
 20
213.6086463671451
 30
0.0
 10
189.7555771402588
 20
212.5112977390122
 30
0.0
 10
190.2678152617734
 20
211.9241521454805
 30
0.0
 10
191.2200462055216
 20
210.6746864651577
 30
0.0
 10
191.6506842927236
 20
210.0258100474094
 30
0.0
 10
192.4325343254897
 20
208.6858906964407
 30
0.0
 10
192.7836955025992
 20
207.9948208073572
 30
0.0
 10
193.2557139856031
 20
206.9291638748165
 30
0.0
 10
193.4038873065254
 20
206.5690786552784
 30
0.0
 10
193.682608256412
 20
205.8395508815223
 30
0.0
 10
193.8134396828669
 20
205.469153075965
 30
0.0
 10
194.4196496427352
 20
203.6120906802132
 30
0.0
 10
194.758677505486
 20
202.1036149026457
 30
0.0
 10
195.2023822707775
 20
199.0500100663054
 30
0.0
 10
195.3048588412497
 20
197.5045367544729
 30
0.0
 10
195.2831894247951
 20
195.9396454930817
 30
0.0
  0
SPLINE
  5
1D9
330
1F
100
AcDbEntity
  8
0
  6
Continuous
 62
     8
370
    18
100
AcDbSpline
210
0.0
220
0.0
230
1.0
 70
     8
 71
     3
 72
    36
 73
    32
 74
     0
 42
0.000000001
 43
0.00000001
 40
0.0
 40
0.0
 40
0.0
 40
0.0
 40
0.1250000000000009
 40
0.1250000000000009
 40
0.1875000000000013
 40
0.1875000000000013
 40
0.2500000000000017
 40
0.2500000000000017
 40
0.3750000000000026
 40
0.3750000000000026
 40
0.4062500000000027
 40
0.4062500000000027
 40
0.4375000000000028
 40
0.4375000000000028
 40
0.5000000000000027
 40
0.5000000000000027
 40
0.5625000000000026
 40
0.5625000000000026
 40
0.5937500000000024
 40
0.5937500000000024
 40
0.6250000000000023
 40
0.6250000000000023
 40
0.687500000000002
 40
0.687500000000002
 40
0.7187500000000019
 40
0.7187500000000019
 40
0.7500000000000018
 40
0.7500000000000018
 40
0.8750000000000009
 40
0.8750000000000009
 40
1.0
 40
1.0
 40
1.0
 40
1.0
 10
148.8126021834505
 20
195.9396454930819
 30
0.0
 10
148.7909167197304
 20
197.5056956331973
 30
0.0
 10
148.8934850821485
 20
199.0577028977974
 30
0.0
 10
149.2303252874032
 20
201.3650343679033
 30
0.0
 10
149.3735365508883
 20
202.1306493083168
 30
0.0
 10
149.7257579039226
 20
203.6544433630083
 30
0.0
 10
149.9345524362447
 20
204.4087779228093
 30
0.0
 10
150.6620588729603
 20
206.6216815265408
 30
0.0
 10
151.2830941986479
 20
208.040070047041
 30
0.0
 10
152.2703682687379
 20
209.7248362668574
 30
0.0
 10
152.4793052207065
 20
210.0584899397952
 30
0.0
 10
152.9150998932007
 20
210.7086868931349
 30
0.0
 10
153.1419860079277
 20
211.025476945581
 30
0.0
 10
153.8502927398097
 20
211.9502913337809
 30
0.0
 10
154.3595840672554
 20
212.5325543795861
 30
0.0
 10
155.452280614852
 20
213.628575890427
 30
0.0
 10
156.0358877376994
 20
214.1421476948217
 30
0.0
 10
156.9686628936449
 20
214.8594824372224
 30
0.0
 10
157.2879499339502
 20
215.0886669933563
 30
0.0
 10
157.9361854668265
 20
215.523035093758
 30
0.0
 10
158.2660694608732
 20
215.7290346216591
 30
0.0
 10
159.2720398968142
 20
216.3153811559651
 30
0.0
 10
159.9644714049991
 20
216.6640244469969
 30
0.0
 10
161.0328221888547
 20
217.1293757034645
 30
0.0
 10
161.3938860433344
 20
217.274897639771
 30
0.0
 10
162.1255106008244
 20
217.5475211731954
 30
0.0
 10
162.4971219221343
 20
217.6749202086669
 30
0.0
 10
164.3619538428602
 20
218.2627400542086
 30
0.0
 10
165.8765057323629
 20
218.5793690573785
 30
0.0
 10
168.9386762760379
 20
218.9887119983067
 30
0.0
 10
170.4865847416391
 20
219.0794630279574
 30
0.0
 10
172.0478958235448
 20
219.0794630206256
 30
0.0
  0
SPLINE
  5
1DA
330
1F
100
AcDbEntity
  8
0
  6
Continuous
 62
     8
370
    18
100
AcDbSpline
210
0.0
220
0.0
230
1.0
 70
     8
 71
     3
 72
    30
 73
    26
 74
     0
 42
0.000000001
 43
0.00000001
 40
0.0
 40
0.0
 40
0.0
 40
0.0
 40
0.1250000000000004
 40
0.1250000000000004
 40
0.1875000000000006
 40
0.1875000000000006
 40
0.2500000000000007
 40
0.2500000000000007
 40
0.3125000000000009
 40
0.3125000000000009
 40
0.3750000000000011
 40
0.3750000000000011
 40
0.4375000000000013
 40
0.4375000000000013
 40
0.5000000000000014
 40
0.5000000000000014
 40
0.5625000000000017
 40
0.5625000000000017
 40
0.6250000000000018
 40
0.6250000000000018
 40
0.7500000000000012
 40
0.7500000000000012
 40
0.8750000000000006
 40
0.8750000000000006
 40
1.0
 40
1.0
 40
1.0
 40
1.0
 10
151.7854501574271
 20
82.20120625234202
 30
0.0
 10
151.8097633332681
 20
81.45125545782572
 30
0.0
 10
151.8377340757807
 20
80.69898627197384
 30
0.0
 10
151.9400740823744
 20
79.57813005247988
 30
0.0
 10
151.9849941521736
 20
79.20550576188151
 30
0.0
 10
152.1133506705369
 20
78.46380200653765
 30
0.0
 10
152.1976380359879
 20
78.09373392309678
 30
0.0
 10
152.4184764558491
 20
77.37767380380788
 30
0.0
 10
152.5553996905602
 20
77.0298952786577
 30
0.0
 10
152.8874237293748
 20
76.35684086702382
 30
0.0
 10
153.0838693459167
 20
76.02970099711072
 30
0.0
 10
153.5224769301637
 20
75.42280000789137
 30
0.0
 10
153.7658531360622
 20
75.14016095754988
 30
0.0
 10
154.3027979554845
 20
74.61827662570784
 30
0.0
 10
154.5990899720965
 20
74.3775071123395
 30
0.0
 10
155.2196443171709
 20
73.95389755280884
 30
0.0
 10
155.5452921723745
 20
73.76889353494056
 30
0.0
 10
156.2246560149068
 20
73.44781876075696
 30
0.0
 10
156.5801855750249
 20
73.31172671699147
 30
0.0
 10
157.6549100972817
 20
72.98074712051712
 30
0.0
 10
158.3912775872517
 20
72.85713776841011
 30
0.0
 10
159.8823472438989
 20
72.69938128039574
 30
0.0
 10
160.634512135913
 20
72.6632646607074
 30
0.0
 10
162.1354533327113
 20
72.60506618753462
 30
0.0
 10
162.8871218402119
 20
72.58534555089581
 30
0.0
 10
163.6372770620198
 20
72.56847404844758
 30
0.0
  0
LWPOLYLINE
  5
1DB
330
1F
100
AcDbEntity
  8
0
  6
Continuous
 62
     8
370
    18
100
AcDbPolyline
 90
        3
 70
   128
 43
0.0
 10
192.6222475768
 20
99.1301618059
 10
192.7575519831
 20
108.6301363547
 10
192.8387539984
 20
114.3391735394
  0
SPLINE
  5
1DC
330
1F
100
AcDbEntity
  8
0
  6
Continuous
 62
     8
370
    18
100
AcDbSpline
210
0.0
220
0.0
230
1.0
 70
     8
 71
     3
 72
    12
 73
     8
 74
     0
 42
0.000000001
 43
0.00000001
 40
0.0
 40
0.0
 40
0.0
 40
0.0
 40
0.25
 40
0.25
 40
0.5
 40
0.5
 40
1.0
 40
1.0
 40
1.0
 40
1.0
 10
192.3098892297167
 20
82.2014970864142
 30
0.0
 10
192.3555849848885
 20
83.61196542056982
 30
0.0
 10
192.378670103557
 20
85.0228517113112
 30
0.0
 10
192.4283366487558
 20
87.84455968726627
 30
0.0
 10
192.4542122161082
 20
89.25539440352776
 30
0.0
 10
192.5329103586192
 20
93.48787875011588
 30
0.0
 10
192.5796750624691
 20
96.3096403615843
 30
0.0
 10
192.6223599276105
 20
99.13147739168102
 30
0.0
  0
SPLINE
  5
1DD
330
1F
100
AcDbEntity
  8
0
  6
Continuous
 62
     8
370
    18
100
AcDbSpline
210
0.0
220
0.0
230
1.0
 70
     8
 71
     3
 72
    12
 73
     8
 74
     0
 42
0.000000001
 43
0.00000001
 40
0.0
 40
0.0
 40
0.0
 40
0.0
 40
0.4999999999999988
 40
0.4999999999999988
 40
0.7499999999999993
 40
0.7499999999999993
 40
1.0
 40
1.0
 40
1.0
 40
1.0
 10
151.4734316806344
 20
99.13147739168119
 30
0.0
 10
151.5161165457757
 20
96.30964036158447
 30
0.0
 10
151.5628812496256
 20
93.48787875011608
 30
0.0
 10
151.6415793921367
 20
89.25539440352793
 30
0.0
 10
151.667454959489
 20
87.84455968726641
 30
0.0
 10
151.7171215046878
 20
85.02285171131136
 30
0.0
 10
151.7402066233563
 20
83.61196542056996
 30
0.0
 10
151.7859023785281
 20
82.20149708641434
 30
0.0
  0
LWPOLYLINE
  5
1DE
330
1F
100
AcDbEntity
  8
0
  6
Continuous
 62
     8
370
    18
100
AcDbPolyline
 90
        3
 70
   128
 43
0.0
 10
151.2576448322
 20
114.2956174453
 10
151.3247056455
 20
109.581113561
 10
151.4735440315
 20
99.1301618059
  0
SPLINE
  5
1DF
330
1F
100
AcDbEntity
  8
0
  6
Continuous
 62
     8
370
    18
100
AcDbSpline
210
0.0
220
0.0
230
1.0
 70
     8
 71
     3
 72
    10
 73
     6
 74
     0
 42
0.000000001
 43
0.00000001
 40
0.0
 40
0.0
 40
0.0
 40
0.0
 40
0.5
 40
0.5
 40
1.0
 40
1.0
 40
1.0
 40
1.0
 10
172.0469964460191
 20
72.49486094518454
 30
0.0
 10
173.4490050103017
 20
72.4964368511561
 30
0.0
 10
174.8510192822148
 20
72.49565951824704
 30
0.0
 10
177.6549812654747
 20
72.51752366629371
 30
0.0
 10
179.0568614637656
 20
72.53703803071863
 30
0.0
 10
180.4585145462249
 20
72.56848770670867
 30
0.0
  0
SPLINE
  5
1E0
330
1F
100
AcDbEntity
  8
0
  6
Continuous
 62
     8
370
    18
100
AcDbSpline
210
0.0
220
0.0
230
1.0
 70
     8
 71
     3
 72
    10
 73
     6
 74
     0
 42
0.000000001
 43
0.00000001
 40
0.0
 40
0.0
 40
0.0
 40
0.0
 40
0.4999999999999999
 40
0.4999999999999999
 40
1.0
 40
1.0
 40
1.0
 40
1.0
 10
163.6372770620198
 20
72.56848770670875
 30
0.0
 10
165.0389051935632
 20
72.53703858834736
 30
0.0
 10
166.4408057538972
 20
72.51752380703897
 30
0.0
 10
169.2447276285636
 20
72.49565976181842
 30
0.0
 10
170.6467770991006
 20
72.49643686183283
 30
0.0
 10
172.0487951622258
 20
72.49486094518431
 30
0.0
  0
SPLINE
  5
1E1
330
1F
100
AcDbEntity
  8
0
  6
Continuous
 62
     8
370
    18
100
AcDbSpline
210
0.0
220
0.0
230
1.0
 70
     8
 71
     3
 72
    30
 73
    26
 74
     0
 42
0.000000001
 43
0.00000001
 40
0.0
 40
0.0
 40
0.0
 40
0.0
 40
0.1250000000000004
 40
0.1250000000000004
 40
0.2500000000000008
 40
0.2500000000000008
 40
0.3750000000000012
 40
0.3750000000000012
 40
0.4375000000000011
 40
0.4375000000000011
 40
0.500000000000001
 40
0.500000000000001
 40
0.5625000000000009
 40
0.5625000000000009
 40
0.6250000000000008
 40
0.6250000000000008
 40
0.6875000000000007
 40
0.6875000000000007
 40
0.7500000000000004
 40
0.7500000000000004
 40
0.8125000000000003
 40
0.8125000000000003
 40
0.8750000000000002
 40
0.8750000000000002
 40
1.0
 40
1.0
 40
1.0
 40
1.0
 10
180.4585145462249
 20
72.5684740484475
 30
0.0
 10
181.2090884759931
 20
72.58535496968084
 30
0.0
 10
181.9602353825273
 20
72.60506486225286
 30
0.0
 10
183.4607995165907
 20
72.66324338726609
 30
0.0
 10
184.2107174330318
 20
72.69911999217153
 30
0.0
 10
185.7059293586965
 20
72.8572603127417
 30
0.0
 10
186.4489422728647
 20
72.98263899975946
 30
0.0
 10
187.5208309173815
 20
73.31363493259884
 30
0.0
 10
187.8739087749433
 20
73.44890910722425
 30
0.0
 10
188.5549168064962
 20
73.7712038598978
 30
0.0
 10
188.8799008008953
 20
73.9563085990666
 30
0.0
 10
189.4967303480395
 20
74.37767885734901
 30
0.0
 10
189.7905115205415
 20
74.61591925422222
 30
0.0
 10
190.3314624534584
 20
75.14158715035862
 30
0.0
 10
190.5749494845466
 20
75.42493516171753
 30
0.0
 10
191.0118329605184
 20
76.02970480668073
 30
0.0
 10
191.2062317538619
 20
76.35280590156378
 30
0.0
 10
191.5404376826841
 20
77.02969466337494
 30
0.0
 10
191.6775181599414
 20
77.37828990973368
 30
0.0
 10
191.8980982006614
 20
78.09359654929752
 30
0.0
 10
191.9819852477951
 20
78.46154054059699
 30
0.0
 10
192.1106294319042
 20
79.2041649158471
 30
0.0
 10
192.1556085848088
 20
79.57710791527505
 30
0.0
 10
192.2580603239781
 20
80.69867535226385
 30
0.0
 10
192.2860147081908
 20
81.45083686380218
 30
0.0
 10
192.3103414508178
 20
82.20120625234183
 30
0.0
  0
SPLINE
  5
1E2
330
1F
100
AcDbEntity
  8
0
  6
Continuous
 62
     8
370
    18
100
AcDbSpline
210
0.0
220
0.0
230
1.0
 70
     8
 71
     3
 72
    10
 73
     6
 74
     0
 42
0.000000001
 43
0.00000001
 40
0.0
 40
0.0
 40
0.0
 40
0.0
 40
0.4054751512626211
 40
0.8109474837169687
 40
1.0
 40
1.0
 40
1.0
 40
1.0
 10
149.6479319930829
 20
137.1118470569108
 30
0.0
 10
149.6671889699534
 20
137.1121004570371
 30
0.0
 10
149.7057027898225
 20
137.1126072555281
 30
0.0
 10
149.9305996783201
 20
137.1157851195998
 30
0.0
 10
150.1423111521747
 20
137.1187978365751
 30
0.0
 10
150.2096331269301
 20
137.1197558482145
 30
0.0
  0
SPLINE
  5
1E3
330
1F
100
AcDbEntity
  8
0
  6
Continuous
 62
     8
370
    18
100
AcDbSpline
210
0.0
220
0.0
230
1.0
 70
     8
 71
     3
 72
    10
 73
     6
 74
     0
 42
0.000000001
 43
0.00000001
 40
0.0
 40
0.0
 40
0.0
 40
0.0
 40
0.4145549689082766
 40
0.8291149127564902
 40
1.0
 40
1.0
 40
1.0
 40
1.0
 10
149.3444810212411
 20
159.2888727326844
 30
0.0
 10
149.3628070087202
 20
159.289129532861
 30
0.0
 10
149.3994592036027
 20
159.2896431362958
 30
0.0
 10
149.6171993115125
 20
159.2927104119196
 30
0.0
 10
149.8210762167678
 20
159.2955848721852
 30
0.0
 10
149.8805856854476
 20
159.2964238961194
 30
0.0
  0
SPLINE
  5
1E4
330
1F
100
AcDbEntity
  8
0
  6
Continuous
 62
     8
370
    18
100
AcDbSpline
210
0.0
220
0.0
230
1.0
 70
     8
 71
     3
 72
    10
 73
     6
 74
     0
 42
0.000000001
 43
0.00000001
 40
0.0
 40
0.0
 40
0.0
 40
0.0
 40
0.4196823941242442
 40
0.839358775332731
 40
1.0
 40
1.0
 40
1.0
 40
1.0
 10
194.7512342185534
 20
159.2884964783643
 30
0.0
 10
194.7328359210661
 20
159.28875783548
 30
0.0
 10
194.6960395896895
 20
159.2892805459668
 30
0.0
 10
194.4818589380015
 20
159.2923092841088
 30
0.0
 10
194.2826056081446
 20
159.2951204534168
 30
0.0
 10
194.2274490893639
 20
159.2958986301873
 30
0.0
  0
SPLINE
  5
1E5
330
1F
100
AcDbEntity
  8
0
  6
Continuous
 62
     8
370
    18
100
AcDbSpline
210
0.0
220
0.0
230
1.0
 70
     8
 71
     3
 72
    10
 73
     6
 74
     0
 42
0.000000001
 43
0.00000001
 40
0.0
 40
0.0
 40
0.0
 40
0.0
 40
0.4111373319377934
 40
0.8222758427275537
 40
1.0
 40
1.0
 40
1.0
 40
1.0
 10
194.4475429654873
 20
137.1120333214257
 30
0.0
 10
194.4282160518515
 20
137.1123080781233
 30
0.0
 10
194.3895621691638
 20
137.1128575923061
 30
0.0
 10
194.168793448708
 20
137.1159856839082
 30
0.0
 10
193.9624266229566
 20
137.1189132577543
 30
0.0
 10
193.9001432210959
 20
137.1197968264077
 30
0.0
  0
LWPOLYLINE
  5
1E6
330
1F
100
AcDbEntity
  8
0
  6
Continuous
 62
     8
370
    18
100
AcDbPolyline
 90
        5
 70
   128
 43
0.0
 10
148.8137519509
 20
195.9208343186
 10
148.8136774451
 20
195.9255622941
 10
148.8136029393
 20
195.9303185585
 10
148.8135284335
 20
195.9350748229
 10
148.8134539277
 20
195.9398310873
  0
LWPOLYLINE
  5
1E7
330
1F
100
AcDbEntity
  8
0
  6
Continuous
 62
     8
370
    18
100
AcDbPolyline
 90
        5
 70
   128
 43
0.0
 10
195.2823376805
 20
195.9398310873
 10
195.2822631747
 20
195.9350748229
 10
195.2821886689
 20
195.9303185585
 10
195.2821141631
 20
195.9255622941
 10
195.2820396573
 20
195.9208343186
  0
LWPOLYLINE
  5
1E8
330
1F
100
AcDbEntity
  8
0
  6
Continuous
 62
     8
370
    18
100
AcDbPolyline
 90
        3
 70
   128
 43
0.0
 10
195.2820396573
 20
195.9208343186
 10
195.2560389937
 20
195.9212808878
 10
195.2456696481
 20
195.9214513198
  0
ENDSEC
  0
SECTION
  2
OBJECTS
  0
DICTIONARY
  5
C
330
0
100
AcDbDictionary
281
     1
  3
ACAD_GROUP
350
D
  3
ACAD_LAYOUT
350
1A
  3
ACAD_MLINESTYLE
350
17
  3
ACAD_PLOTSETTINGS
350
19
  3
ACAD_PLOTSTYLENAME
350
E
  3
ACAD_SCALELIST
350
47
  0
DICTIONARY
  5
D
102
{ACAD_REACTORS
330
C
102
}
330
C
100
AcDbDictionary
281
     1
  0
DICTIONARY
  5
1A
102
{ACAD_REACTORS
330
C
102
}
330
C
100
AcDbDictionary
281
     1
  3
Layout1
350
1E
  3
Layout2
350
26
  3
Model
350
22
  0
DICTIONARY
  5
17
102
{ACAD_REACTORS
330
C
102
}
330
C
100
AcDbDictionary
281
     1
  3
Standard
350
18
  0
DICTIONARY
  5
19
102
{ACAD_REACTORS
330
C
102
}
330
C
100
AcDbDictionary
281
     1
  0
ACDBDICTIONARYWDFLT
  5
E
102
{ACAD_REACTORS
330
C
102
}
330
C
100
AcDbDictionary
281
     1
  3
Normal
350
F
100
AcDbDictionaryWithDefault
340
F
  0
DICTIONARY
  5
47
102
{ACAD_REACTORS
330
C
102
}
330
C
100
AcDbDictionary
281
     1
  3
A0
350
48
  3
A1
350
49
  3
A2
350
4A
  3
A3
350
4B
  3
A4
350
4C
  3
A5
350
4D
  3
A6
350
4E
  3
A7
350
4F
  3
A8
350
50
  3
A9
350
51
  3
B0
350
52
  3
B1
350
53
  3
B2
350
54
  3
B3
350
55
  3
B4
350
56
  3
B5
350
57
  3
B6
350
58
  3
B7
350
59
  3
B8
350
5A
  3
B9
350
5B
  3
C0
350
5C
  3
C1
350
5D
  3
C2
350
5E
  3
C3
350
5F
  3
C4
350
60
  3
C5
350
61
  3
C6
350
62
  3
C7
350
63
  3
C8
350
64
  3
C9
350
65
  3
D0
350
66
  3
D1
350
67
  3
D2
350
68
  0
LAYOUT
  5
1E
102
{ACAD_REACTORS
330
1A
102
}
330
1A
100
AcDbPlotSettings
  1

  2
none_device
  4

  6

 40
0.0
 41
0.0
 42
0.0
 43
0.0
 44
0.0
 45
0.0
 46
0.0
 47
0.0
 48
0.0
 49
0.0
140
0.0
141
0.0
142
1.0
143
1.0
 70
   688
 72
     1
 73
     0
 74
     5
  7

 75
    16
147
1.0
148
0.0
149
0.0
100
AcDbLayout
  1
Layout1
 70
     1
 71
     1
 10
0.0
 20
0.0
 11
420.0
 21
297.0
 12
0.0
 22
0.0
 32
0.0
 14
1.0000000000E+20
 24
1.0000000000E+20
 34
1.0000000000E+20
 15
-1.0000000000E+20
 25
-1.0000000000E+20
 35
-1.0000000000E+20
146
0.0
 13
0.0
 23
0.0
 33
0.0
 16
1.0
 26
0.0
 36
0.0
 17
0.0
 27
1.0
 37
0.0
 76
     0
330
1B
  0
LAYOUT
  5
26
102
{ACAD_REACTORS
330
1A
102
}
330
1A
100
AcDbPlotSettings
  1

  2
none_device
  4

  6

 40
0.0
 41
0.0
 42
0.0
 43
0.0
 44
0.0
 45
0.0
 46
0.0
 47
0.0
 48
0.0
 49
0.0
140
0.0
141
0.0
142
1.0
143
1.0
 70
   688
 72
     1
 73
     0
 74
     5
  7

 75
    16
147
1.0
148
0.0
149
0.0
100
AcDbLayout
  1
Layout2
 70
     1
 71
     2
 10
0.0
 20
0.0
 11
0.0
 21
0.0
 12
0.0
 22
0.0
 32
0.0
 14
0.0
 24
0.0
 34
0.0
 15
0.0
 25
0.0
 35
0.0
146
0.0
 13
0.0
 23
0.0
 33
0.0
 16
1.0
 26
0.0
 36
0.0
 17
0.0
 27
1.0
 37
0.0
 76
     0
330
23
  0
LAYOUT
  5
22
102
{ACAD_REACTORS
330
1A
102
}
330
1A
100
AcDbPlotSettings
  1

  2
none_device
  4
Letter_(8.50_x_11.00_Inches)
  6

 40
6.35
 41
6.35
 42
6.35000508
 43
6.35000508
 44
215.9
 45
279.4
 46
0.0
 47
0.0
 48
0.0
 49
0.0
140
0.0
141
0.0
142
1.0
143
1.0
 70
  1712
 72
     1
 73
     0
 74
     0
  7

 75
     0
147
1.0
148
0.0
149
0.0
100
AcDbLayout
  1
Model
 70
     1
 71
     0
 10
0.0
 20
0.0
 11
594.0
 21
841.0
 12
0.0
 22
0.0
 32
0.0
 14
0.0
 24
0.0
 34
0.0
 15
594.0
 25
841.0
 35
0.0
146
0.0
 13
0.0
 23
0.0
 33
0.0
 16
1.0
 26
0.0
 36
0.0
 17
0.0
 27
1.0
 37
0.0
 76
     0
330
1F
331
29
  0
MLINESTYLE
  5
18
102
{ACAD_REACTORS
330
17
102
}
330
17
100
AcDbMlineStyle
  2
Standard
 70
     0
  3

 62
   256
 51
90.0
 52
90.0
 71
     2
 49
0.5
 62
   256
  6
BYLAYER
 49
-0.5
 62
   256
  6
BYLAYER
  0
ACDBPLACEHOLDER
  5
F
102
{ACAD_REACTORS
330
E
102
}
330
E
  0
SCALE
  5
48
102
{ACAD_REACTORS
330
47
102
}
330
47
100
AcDbScale
 70
     0
300
1:1
140
1.0
141
1.0
290
     1
  0
SCALE
  5
49
102
{ACAD_REACTORS
330
47
102
}
330
47
100
AcDbScale
 70
     0
300
1:2
140
1.0
141
2.0
290
     0
  0
SCALE
  5
4A
102
{ACAD_REACTORS
330
47
102
}
330
47
100
AcDbScale
 70
     0
300
1:4
140
1.0
141
4.0
290
     0
  0
SCALE
  5
4B
102
{ACAD_REACTORS
330
47
102
}
330
47
100
AcDbScale
 70
     0
300
1:5
140
1.0
141
5.0
290
     0
  0
SCALE
  5
4C
102
{ACAD_REACTORS
330
47
102
}
330
47
100
AcDbScale
 70
     0
300
1:8
140
1.0
141
8.0
290
     0
  0
SCALE
  5
4D
102
{ACAD_REACTORS
330
47
102
}
330
47
100
AcDbScale
 70
     0
300
1:10
140
1.0
141
10.0
290
     0
  0
SCALE
  5
4E
102
{ACAD_REACTORS
330
47
102
}
330
47
100
AcDbScale
 70
     0
300
1:16
140
1.0
141
16.0
290
     0
  0
SCALE
  5
4F
102
{ACAD_REACTORS
330
47
102
}
330
47
100
AcDbScale
 70
     0
300
1:20
140
1.0
141
20.0
290
     0
  0
SCALE
  5
50
102
{ACAD_REACTORS
330
47
102
}
330
47
100
AcDbScale
 70
     0
300
1:30
140
1.0
141
30.0
290
     0
  0
SCALE
  5
51
102
{ACAD_REACTORS
330
47
102
}
330
47
100
AcDbScale
 70
     0
300
1:40
140
1.0
141
40.0
290
     0
  0
SCALE
  5
52
102
{ACAD_REACTORS
330
47
102
}
330
47
100
AcDbScale
 70
     0
300
1:50
140
1.0
141
50.0
290
     0
  0
SCALE
  5
53
102
{ACAD_REACTORS
330
47
102
}
330
47
100
AcDbScale
 70
     0
300
1:100
140
1.0
141
100.0
290
     0
  0
SCALE
  5
54
102
{ACAD_REACTORS
330
47
102
}
330
47
100
AcDbScale
 70
     0
300
2:1
140
2.0
141
1.0
290
     0
  0
SCALE
  5
55
102
{ACAD_REACTORS
330
47
102
}
330
47
100
AcDbScale
 70
     0
300
4:1
140
4.0
141
1.0
290
     0
  0
SCALE
  5
56
102
{ACAD_REACTORS
330
47
102
}
330
47
100
AcDbScale
 70
     0
300
8:1
140
8.0
141
1.0
290
     0
  0
SCALE
  5
57
102
{ACAD_REACTORS
330
47
102
}
330
47
100
AcDbScale
 70
     0
300
10:1
140
10.0
141
1.0
290
     0
  0
SCALE
  5
58
102
{ACAD_REACTORS
330
47
102
}
330
47
100
AcDbScale
 70
     0
300
100:1
140
100.0
141
1.0
290
     0
  0
SCALE
  5
59
102
{ACAD_REACTORS
330
47
102
}
330
47
100
AcDbScale
 70
     0
300
1/128" = 1'-0"
140
0.0078125
141
12.0
290
     0
  0
SCALE
  5
5A
102
{ACAD_REACTORS
330
47
102
}
330
47
100
AcDbScale
 70
     0
300
1/64" = 1'-0"
140
0.015625
141
12.0
290
     0
  0
SCALE
  5
5B
102
{ACAD_REACTORS
330
47
102
}
330
47
100
AcDbScale
 70
     0
300
1/32" = 1'-0"
140
0.03125
141
12.0
290
     0
  0
SCALE
  5
5C
102
{ACAD_REACTORS
330
47
102
}
330
47
100
AcDbScale
 70
     0
300
1/16" = 1'-0"
140
0.0625
141
12.0
290
     0
  0
SCALE
  5
5D
102
{ACAD_REACTORS
330
47
102
}
330
47
100
AcDbScale
 70
     0
300
3/32" = 1'-0"
140
0.09375
141
12.0
290
     0
  0
SCALE
  5
5E
102
{ACAD_REACTORS
330
47
102
}
330
47
100
AcDbScale
 70
     0
300
1/8" = 1'-0"
140
0.125
141
12.0
290
     0
  0
SCALE
  5
5F
102
{ACAD_REACTORS
330
47
102
}
330
47
100
AcDbScale
 70
     0
300
3/16" = 1'-0"
140
0.1875
141
12.0
290
     0
  0
SCALE
  5
60
102
{ACAD_REACTORS
330
47
102
}
330
47
100
AcDbScale
 70
     0
300
1/4" = 1'-0"
140
0.25
141
12.0
290
     0
  0
SCALE
  5
61
102
{ACAD_REACTORS
330
47
102
}
330
47
100
AcDbScale
 70
     0
300
3/8" = 1'-0"
140
0.375
141
12.0
290
     0
  0
SCALE
  5
62
102
{ACAD_REACTORS
330
47
102
}
330
47
100
AcDbScale
 70
     0
300
1/2" = 1'-0"
140
0.5
141
12.0
290
     0
  0
SCALE
  5
63
102
{ACAD_REACTORS
330
47
102
}
330
47
100
AcDbScale
 70
     0
300
3/4" = 1'-0"
140
0.75
141
12.0
290
     0
  0
SCALE
  5
64
102
{ACAD_REACTORS
330
47
102
}
330
47
100
AcDbScale
 70
     0
300
1" = 1'-0"
140
1.0
141
12.0
290
     0
  0
SCALE
  5
65
102
{ACAD_REACTORS
330
47
102
}
330
47
100
AcDbScale
 70
     0
300
1-1/2" = 1'-0"
140
1.5
141
12.0
290
     0
  0
SCALE
  5
66
102
{ACAD_REACTORS
330
47
102
}
330
47
100
AcDbScale
 70
     0
300
3" = 1'-0"
140
3.0
141
12.0
290
     0
  0
SCALE
  5
67
102
{ACAD_REACTORS
330
47
102
}
330
47
100
AcDbScale
 70
     0
300
6" = 1'-0"
140
6.0
141
12.0
290
     0
  0
SCALE
  5
68
102
{ACAD_REACTORS
330
47
102
}
330
47
100
AcDbScale
 70
     0
300
1'-0" = 1'-0"
140
12.0
141
12.0
290
     0
  0
ENDSEC
  0
EOF
