  0
SECTION
  2
HEADER
  9
$ACADVER
  1
AC1015
  9
$ACADMAINTVER
 70
     6
  9
$DWGCODEPAGE
  3
ANSI_1252
  9
$INSBASE
 10
0.0
 20
0.0
 30
0.0
  9
$EXTMIN
 10
0.0
 20
0.0
 30
0.0
  9
$EXTMAX
 10
594.0
 20
841.0
 30
0.0
  9
$LIMMIN
 10
0.0
 20
0.0
  9
$LIMMAX
 10
594.0
 20
841.0
  9
$ORTHOMODE
 70
     0
  9
$REGENMODE
 70
     1
  9
$FILLMODE
 70
     1
  9
$QTEXTMODE
 70
     0
  9
$MIRRTEXT
 70
     1
  9
$LTSCALE
 40
1.0
  9
$ATTMODE
 70
     1
  9
$TEXTSIZE
 40
10.0
  9
$TRACEWID
 40
1.0
  9
$TEXTSTYLE
  7
Standard
  9
$CLAYER
  8
0
  9
$CELTYPE
  6
ByLayer
  9
$CECOLOR
 62
   256
  9
$CELTSCALE
 40
1.0
  9
$DISPSILH
 70
     0
  9
$DIMSCALE
 40
1.0
  9
$DIMASZ
 40
2.5
  9
$DIMEXO
 40
0.0
  9
$DIMDLI
 40
3.75
  9
$DIMRND
 40
0.0
  9
$DIMDLE
 40
0.0
  9
$DIMEXE
 40
1.0
  9
$DIMTP
 40
0.0
  9
$DIMTM
 40
0.0
  9
$DIMTXT
 40
3.5
  9
$DIMCEN
 40
2.5
  9
$DIMTSZ
 40
0.0
  9
$DIMTOL
 70
     0
  9
$DIMLIM
 70
     0
  9
$DIMTIH
 70
     1
  9
$DIMTOH
 70
     1
  9
$DIMSE1
 70
     0
  9
$DIMSE2
 70
     0
  9
$DIMTAD
 70
     1
  9
$DIMZIN
 70
     0
  9
$DIMBLK
  1

  9
$DIMASO
 70
     1
  9
$DIMSHO
 70
     1
  9
$DIMPOST
  1

  9
$DIMAPOST
  1

  9
$DIMALT
 70
     0
  9
$DIMALTD
 70
     3
  9
$DIMALTF
 40
0.0393700787
  9
$DIMLFAC
 40
1.0
  9
$DIMTOFL
 70
     1
  9
$DIMTVP
 40
0.0
  9
$DIMTIX
 70
     0
  9
$DIMSOXD
 70
     0
  9
$DIMSAH
 70
     0
  9
$DIMBLK1
  1

  9
$DIMBLK2
  1

  9
$DIMSTYLE
  2
ISO-25
  9
$DIMCLRD
 70
     0
  9
$DIMCLRE
 70
     0
  9
$DIMCLRT
 70
     0
  9
$DIMTFAC
 40
1.0
  9
$DIMGAP
 40
1.5
  9
$DIMJUST
 70
     0
  9
$DIMSD1
 70
     0
  9
$DIMSD2
 70
     0
  9
$DIMTOLJ
 70
     0
  9
$DIMTZIN
 70
     0
  9
$DIMALTZ
 70
     0
  9
$DIMALTTZ
 70
     0
  9
$DIMUPT
 70
     0
  9
$DIMDEC
 70
     2
  9
$DIMTDEC
 70
     2
  9
$DIMALTU
 70
     2
  9
$DIMALTTD
 70
     3
  9
$DIMTXSTY
  7
Standard
  9
$DIMAUNIT
 70
     0
  9
$DIMADEC
 70
     2
  9
$DIMALTRND
 40
0.0
  9
$DIMAZIN
 70
     0
  9
$DIMDSEP
 70
    44
  9
$DIMATFIT
 70
     3
  9
$DIMFRAC
 70
     0
  9
$DIMLDRBLK
  1

  9
$DIMLUNIT
 70
     2
  9
$DIMLWD
 70
    -2
  9
$DIMLWE
 70
    -2
  9
$DIMTMOVE
 70
     0
  9
$LUNITS
 70
     2
  9
$LUPREC
 70
     2
  9
$SKETCHINC
 40
1.0
  9
$FILLETRAD
 40
10.0
  9
$AUNITS
 70
     0
  9
$AUPREC
 70
     2
  9
$MENU
  1
.
  9
$ELEVATION
 40
0.0
  9
$PELEVATION
 40
0.0
  9
$THICKNESS
 40
0.0
  9
$LIMCHECK
 70
     0
  9
$CHAMFERA
 40
0.0
  9
$CHAMFERB
 40
0.0
  9
$CHAMFERC
 40
0.0
  9
$CHAMFERD
 40
0.0
  9
$SKPOLY
 70
     0
  9
$TDCREATE
 40
2459031.602269745
  9
$TDUCREATE
 40
2459031.518936412
  9
$TDUPDATE
 40
2459031.602270833
  9
$TDUUPDATE
 40
2459031.5189375
  9
$TDINDWG
 40
0.0000000116
  9
$TDUSRTIMER
 40
0.0000000116
  9
$USRTIMER
 70
     1
  9
$ANGBASE
 50
0.0
  9
$ANGDIR
 70
     0
  9
$PDMODE
 70
     0
  9
$PDSIZE
 40
-1.0
  9
$PLINEWID
 40
0.0
  9
$SPLFRAME
 70
     0
  9
$SPLINETYPE
 70
     6
  9
$SPLINESEGS
 70
     8
  9
$HANDSEED
  5
109
  9
$SURFTAB1
 70
     6
  9
$SURFTAB2
 70
     6
  9
$SURFTYPE
 70
     6
  9
$SURFU
 70
     6
  9
$SURFV
 70
     6
  9
$UCSBASE
  2

  9
$UCSNAME
  2

  9
$UCSORG
 10
0.0
 20
0.0
 30
0.0
  9
$UCSXDIR
 10
1.0
 20
0.0
 30
0.0
  9
$UCSYDIR
 10
0.0
 20
1.0
 30
0.0
  9
$UCSORTHOREF
  2

  9
$UCSORTHOVIEW
 70
     0
  9
$UCSORGTOP
 10
0.0
 20
0.0
 30
0.0
  9
$UCSORGBOTTOM
 10
0.0
 20
0.0
 30
0.0
  9
$UCSORGLEFT
 10
0.0
 20
0.0
 30
0.0
  9
$UCSORGRIGHT
 10
0.0
 20
0.0
 30
0.0
  9
$UCSORGFRONT
 10
0.0
 20
0.0
 30
0.0
  9
$UCSORGBACK
 10
0.0
 20
0.0
 30
0.0
  9
$PUCSBASE
  2

  9
$PUCSNAME
  2

  9
$PUCSORG
 10
0.0
 20
0.0
 30
0.0
  9
$PUCSXDIR
 10
1.0
 20
0.0
 30
0.0
  9
$PUCSYDIR
 10
0.0
 20
1.0
 30
0.0
  9
$PUCSORTHOREF
  2

  9
$PUCSORTHOVIEW
 70
     0
  9
$PUCSORGTOP
 10
0.0
 20
0.0
 30
0.0
  9
$PUCSORGBOTTOM
 10
0.0
 20
0.0
 30
0.0
  9
$PUCSORGLEFT
 10
0.0
 20
0.0
 30
0.0
  9
$PUCSORGRIGHT
 10
0.0
 20
0.0
 30
0.0
  9
$PUCSORGFRONT
 10
0.0
 20
0.0
 30
0.0
  9
$PUCSORGBACK
 10
0.0
 20
0.0
 30
0.0
  9
$USERI1
 70
     0
  9
$USERI2
 70
     0
  9
$USERI3
 70
     0
  9
$USERI4
 70
     0
  9
$USERI5
 70
     0
  9
$USERR1
 40
0.0
  9
$USERR2
 40
0.0
  9
$USERR3
 40
0.0
  9
$USERR4
 40
0.0
  9
$USERR5
 40
0.0
  9
$WORLDVIEW
 70
     1
  9
$SHADEDGE
 70
     3
  9
$SHADEDIF
 70
    70
  9
$TILEMODE
 70
     1
  9
$MAXACTVP
 70
    64
  9
$PINSBASE
 10
0.0
 20
0.0
 30
0.0
  9
$PLIMCHECK
 70
     0
  9
$PEXTMIN
 10
1.0000000000E+20
 20
1.0000000000E+20
 30
1.0000000000E+20
  9
$PEXTMAX
 10
-1.0000000000E+20
 20
-1.0000000000E+20
 30
-1.0000000000E+20
  9
$PLIMMIN
 10
0.0
 20
0.0
  9
$PLIMMAX
 10
420.0
 20
297.0
  9
$UNITMODE
 70
     0
  9
$VISRETAIN
 70
     1
  9
$PLINEGEN
 70
     0
  9
$PSLTSCALE
 70
     1
  9
$TREEDEPTH
 70
  3020
  9
$CMLSTYLE
  2
Standard
  9
$CMLJUST
 70
     0
  9
$CMLSCALE
 40
20.0
  9
$PROXYGRAPHICS
 70
     1
  9
$MEASUREMENT
 70
     1
  9
$CELWEIGHT
370
    -1
  9
$ENDCAPS
280
     0
  9
$JOINSTYLE
280
     0
  9
$LWDISPLAY
290
     1
  9
$INSUNITS
 70
     4
  9
$HYPERLINKBASE
  1

  9
$STYLESHEET
  1

  9
$XEDIT
290
     1
  9
$CEPSNTYPE
380
     0
  9
$PSTYLEMODE
290
     1
  9
$FINGERPRINTGUID
  2
{9fd87dfe-83c4-4df9-be83-8a1ed2c03a8c}
  9
$VERSIONGUID
  2
{FAEB1C32-E019-11D5-929B-00C0DF256EC4}
  9
$EXTNAMES
290
     1
  9
$PSVPSCALE
 40
0.0
  9
$OLESTARTUP
290
     0
  0
ENDSEC
  0
SECTION
  2
CLASSES
  0
CLASS
  1
ACDBDICTIONARYWDFLT
  2
AcDbDictionaryWithDefault
  3
ObjectDBX Classes
 90
        0
280
     0
281
     0
  0
CLASS
  1
VISUALSTYLE
  2
AcDbVisualStyle
  3
ObjectDBX Classes
 90
     4095
280
     0
281
     0
  0
CLASS
  1
MATERIAL
  2
AcDbMaterial
  3
ObjectDBX Classes
 90
     1153
280
     0
281
     0
  0
CLASS
  1
SCALE
  2
AcDbScale
  3
ObjectDBX Classes
 90
     1153
280
     0
281
     0
  0
CLASS
  1
TABLESTYLE
  2
AcDbTableStyle
  3
ObjectDBX Classes
 90
     4095
280
     0
281
     0
  0
CLASS
  1
MLEADERSTYLE
  2
AcDbMLeaderStyle
  3
ACDB_MLEADERSTYLE_CLASS
 90
     4095
280
     0
281
     0
  0
CLASS
  1
SUN
  2
AcDbSun
  3
SCENEOE
 90
     1153
280
     0
281
     0
  0
CLASS
  1
ACDBPLACEHOLDER
  2
AcDbPlaceHolder
  3
ObjectDBX Classes
 90
        0
280
     0
281
     0
  0
CLASS
  1
LAYOUT
  2
AcDbLayout
  3
ObjectDBX Classes
 90
        0
280
     0
281
     0
  0
ENDSEC
  0
SECTION
  2
TABLES
  0
TABLE
  2
VPORT
  5
8
330
0
100
AcDbSymbolTable
 70
     1
  0
VPORT
  5
29
330
8
100
AcDbSymbolTableRecord
100
AcDbViewportTableRecord
  2
*Active
 70
     0
 10
0.0
 20
0.0
 11
1.0
 21
1.0
 12
297.0
 22
420.5
 13
0.0
 23
0.0
 14
10.0
 24
10.0
 15
10.0
 25
10.0
 16
0.0
 26
0.0
 36
1.0
 17
0.0
 27
0.0
 37
0.0
 40
841.0
 41
0.7063020214
 42
50.0
 43
0.0
 44
0.0
 50
0.0
 51
0.0
 71
     0
 72
  2000
 73
     1
 74
     3
 75
     0
 76
     0
 77
     0
 78
     0
281
     0
 65
     1
110
0.0
120
0.0
130
0.0
111
1.0
121
0.0
131
0.0
112
0.0
122
1.0
132
0.0
 79
     0
146
0.0
  0
ENDTAB
  0
TABLE
  2
LTYPE
  5
5
330
0
100
AcDbSymbolTable
 70
     6
  0
LTYPE
  5
14
330
5
100
AcDbSymbolTableRecord
100
AcDbLinetypeTableRecord
  2
ByBlock
 70
     0
  3

 72
    65
 73
     0
 40
0.0
  0
LTYPE
  5
15
330
5
100
AcDbSymbolTableRecord
100
AcDbLinetypeTableRecord
  2
ByLayer
 70
     0
  3

 72
    65
 73
     0
 40
0.0
  0
LTYPE
  5
16
330
5
100
AcDbSymbolTableRecord
100
AcDbLinetypeTableRecord
  2
Continuous
 70
     0
  3
Solid line
 72
    65
 73
     0
 40
0.0
  0
LTYPE
  5
6E
330
5
100
AcDbSymbolTableRecord
100
AcDbLinetypeTableRecord
  2
HIDDEN
 70
     0
  3
Hidden __ __ __ __ __ __ __ __ __ __ __ __ __ __
 72
    65
 73
     2
 40
1.905
 49
1.27
 74
     0
 49
-0.635
 74
     0
  0
LTYPE
  5
6F
330
5
100
AcDbSymbolTableRecord
100
AcDbLinetypeTableRecord
  2
PHANTOM
 70
     0
  3
Phantom ______  __  __  ______  __  __  ______
 72
    65
 73
     6
 40
12.7
 49
6.35
 74
     0
 49
-1.27
 74
     0
 49
1.27
 74
     0
 49
-1.27
 74
     0
 49
1.27
 74
     0
 49
-1.27
 74
     0
  0
LTYPE
  5
70
330
5
100
AcDbSymbolTableRecord
100
AcDbLinetypeTableRecord
  2
CENTER
 70
     0
  3
Center ____ _ ____ _ ____ _ ____ _ ____ _ ____
 72
    65
 73
     4
 40
10.16
 49
6.35
 74
     0
 49
-1.27
 74
     0
 49
1.27
 74
     0
 49
-1.27
 74
     0
  0
LTYPE
  5
71
330
5
100
AcDbSymbolTableRecord
100
AcDbLinetypeTableRecord
  2
CENTERX2
 70
     0
  3
Center (2x) ________  __  ________  __  _____
 72
    65
 73
     4
 40
20.32
 49
12.7
 74
     0
 49
-2.54
 74
     0
 49
2.54
 74
     0
 49
-2.54
 74
     0
  0
LTYPE
  5
72
330
5
100
AcDbSymbolTableRecord
100
AcDbLinetypeTableRecord
  2
DOT2
 70
     0
  3
Dot (.5x) ........................................
 72
    65
 73
     2
 40
0.635
 49
0.0
 74
     0
 49
-0.635
 74
     0
  0
ENDTAB
  0
TABLE
  2
LAYER
  5
2
330
0
100
AcDbSymbolTable
 70
     1
  0
LAYER
  5
10
330
2
100
AcDbSymbolTableRecord
100
AcDbLayerTableRecord
  2
0
 70
     0
 62
     7
  6
Continuous
370
    -3
390
F
  0
ENDTAB
  0
TABLE
  2
STYLE
  5
3
330
0
100
AcDbSymbolTable
 70
     3
  0
STYLE
  5
11
330
3
100
AcDbSymbolTableRecord
100
AcDbTextStyleTableRecord
  2
Standard
 70
     0
 40
0.0
 41
1.0
 50
0.0
 71
     0
 42
10.0
  3
txt
  4

  0
STYLE
  5
76
330
3
100
AcDbSymbolTableRecord
100
AcDbTextStyleTableRecord
  2
SLDTEXTSTYLE0
 70
     0
 40
0.0
 41
0.96
 50
0.0
 71
     0
 42
10.0
  3
ISOCP3
  4

  0
STYLE
  5
8D
330
3
100
AcDbSymbolTableRecord
100
AcDbTextStyleTableRecord
  2
SLDTEXTSTYLE1
 70
     0
 40
0.0
 41
0.605
 50
0.0
 71
     0
 42
10.0
  3
TXT
  4

  0
ENDTAB
  0
TABLE
  2
VIEW
  5
6
330
0
100
AcDbSymbolTable
 70
     0
  0
ENDTAB
  0
TABLE
  2
UCS
  5
7
330
0
100
AcDbSymbolTable
 70
     0
  0
ENDTAB
  0
TABLE
  2
APPID
  5
9
330
0
100
AcDbSymbolTable
 70
     1
  0
APPID
  5
12
330
9
100
AcDbSymbolTableRecord
100
AcDbRegAppTableRecord
  2
ACAD
 70
     0
  0
ENDTAB
  0
TABLE
  2
DIMSTYLE
  5
A
330
0
100
AcDbSymbolTable
 70
     2
100
AcDbDimStyleTable
  0
DIMSTYLE
105
27
330
A
100
AcDbSymbolTableRecord
100
AcDbDimStyleTableRecord
  2
ISO-25
 70
     0
 41
2.5
 42
0.625
 43
3.75
 44
1.25
 73
     0
 74
     0
 77
     1
 78
     8
140
2.5
141
2.5
143
0.0393700787
147
0.625
171
     3
172
     1
178
     0
271
     2
272
     2
274
     3
278
    44
283
     0
284
     8
340
11
  0
DIMSTYLE
105
77
102
{ACAD_REACTORS
330
75
330
82
102
}
330
A
100
AcDbSymbolTableRecord
100
AcDbDimStyleTableRecord
  2
SLDDIMSTYLE0
 70
     0
 41
2.5
 44
0.0
 45
0.000000001
 73
     0
 74
     0
 77
     1
 78
    12
 79
     3
140
6.0
147
1.5
173
     1
178
     0
271
     2
272
     2
276
     2
284
    12
340
76
  0
ENDTAB
  0
TABLE
  2
BLOCK_RECORD
  5
1
330
0
100
AcDbSymbolTable
 70
     3
  0
BLOCK_RECORD
  5
1F
330
1
100
AcDbSymbolTableRecord
100
AcDbBlockTableRecord
  2
*Model_Space
340
22
  0
BLOCK_RECORD
  5
1B
330
1
100
AcDbSymbolTableRecord
100
AcDbBlockTableRecord
  2
*Paper_Space
340
1E
  0
BLOCK_RECORD
  5
23
330
1
100
AcDbSymbolTableRecord
100
AcDbBlockTableRecord
  2
*Paper_Space0
340
26
  0
BLOCK_RECORD
  5
78
330
1
100
AcDbSymbolTableRecord
100
AcDbBlockTableRecord
  2
_D
340
0
  0
BLOCK_RECORD
  5
83
330
1
100
AcDbSymbolTableRecord
100
AcDbBlockTableRecord
  2
_D_1
340
0
  0
ENDTAB
  0
ENDSEC
  0
SECTION
  2
BLOCKS
  0
BLOCK
  5
20
330
1F
100
AcDbEntity
  8
0
100
AcDbBlockBegin
  2
*Model_Space
 70
     0
 10
0.0
 20
0.0
 30
0.0
  3
*Model_Space
  1

  0
ENDBLK
  5
21
330
1F
100
AcDbEntity
  8
0
100
AcDbBlockEnd
  0
BLOCK
  5
1C
330
1B
100
AcDbEntity
 67
     1
  8
0
100
AcDbBlockBegin
  2
*Paper_Space
 70
     0
 10
0.0
 20
0.0
 30
0.0
  3
*Paper_Space
  1

  0
ENDBLK
  5
1D
330
1B
100
AcDbEntity
 67
     1
  8
0
100
AcDbBlockEnd
  0
BLOCK
  5
24
330
23
100
AcDbEntity
  8
0
100
AcDbBlockBegin
  2
*Paper_Space0
 70
     0
 10
0.0
 20
0.0
 30
0.0
  3
*Paper_Space0
  1

  0
ENDBLK
  5
25
330
23
100
AcDbEntity
  8
0
100
AcDbBlockEnd
  0
BLOCK
  5
79
330
78
100
AcDbEntity
  8
0
100
AcDbBlockBegin
  2
_D
 70
     0
 10
0.0
 20
0.0
 30
0.0
  3
_D
  1

  0
SOLID
  5
7B
330
78
100
AcDbEntity
  8
0
  6
Continuous
 62
     7
370
    18
100
AcDbTrace
 10
42.7614395004
 20
152.0299240879
 30
0.0
 11
42.4614395004
 21
149.5299240879
 31
0.0
 12
43.0614395004
 22
149.5299240879
 32
0.0
 13
43.0614395004
 23
149.5299240879
 33
0.0
  0
SOLID
  5
7C
330
78
100
AcDbEntity
  8
0
  6
Continuous
 62
     7
370
    18
100
AcDbTrace
 10
42.7614395004
 20
52.0299240879
 30
0.0
 11
43.0614395004
 21
54.5299240879
 31
0.0
 12
42.4614395004
 22
54.5299240879
 32
0.0
 13
42.4614395004
 23
54.5299240879
 33
0.0
  0
LINE
  5
7D
330
78
100
AcDbEntity
  8
0
  6
Continuous
 62
     7
370
     0
100
AcDbLine
 10
56.6850079902
 20
152.0299240879
 30
0.0
 11
41.7614395004
 21
152.0299240879
 31
0.0
  0
LINE
  5
7E
330
78
100
AcDbEntity
  8
0
  6
Continuous
 62
     7
370
     0
100
AcDbLine
 10
56.6850079902
 20
52.0299240879
 30
0.0
 11
41.7614395004
 21
52.0299240879
 31
0.0
  0
LINE
  5
7F
330
78
100
AcDbEntity
  8
0
  6
Continuous
 62
     7
370
     0
100
AcDbLine
 10
42.7614395004
 20
152.0299240879
 30
0.0
 11
42.7614395004
 21
52.0299240879
 31
0.0
  0
MTEXT
  5
80
330
78
100
AcDbEntity
  8
0
  6
Continuous
 62
     7
370
    18
100
AcDbMText
 10
35.0270332946
 20
94.3680541463
 30
0.0
 40
6.0
 41
0.0
 71
     1
 72
     1
  1
100
  7
SLDTEXTSTYLE0
 11
-7.044195017643634E-15
 21
1.0
 31
0.0
 73
     1
 44
1.0
  0
MTEXT
  5
81
330
78
100
AcDbEntity
  8
0
  6
Continuous
 62
     7
370
    18
100
AcDbMText
 10
35.0270332946
 20
105.7430548466
 30
0.0
 40
6.0
 41
0.0
 71
     1
 72
     1
  1
mm
  7
SLDTEXTSTYLE0
 11
-7.044195017643634E-15
 21
1.0
 31
0.0
 73
     1
 44
1.0
  0
ENDBLK
  5
7A
330
78
100
AcDbEntity
  8
0
100
AcDbBlockEnd
  0
BLOCK
  5
84
330
83
100
AcDbEntity
  8
0
100
AcDbBlockBegin
  2
_D_1
 70
     0
 10
0.0
 20
0.0
 30
0.0
  3
_D_1
  1

  0
SOLID
  5
86
330
83
100
AcDbEntity
  8
0
  6
Continuous
 62
     7
370
    18
100
AcDbTrace
 10
56.6850079902
 20
38.4602342313
 30
0.0
 11
59.1850079902
 21
38.1602342313
 31
0.0
 12
59.1850079902
 22
38.7602342313
 32
0.0
 13
59.1850079902
 23
38.7602342313
 33
0.0
  0
SOLID
  5
87
330
83
100
AcDbEntity
  8
0
  6
Continuous
 62
     7
370
    18
100
AcDbTrace
 10
156.6850079902
 20
38.4602342313
 30
0.0
 11
154.1850079902
 21
38.7602342313
 31
0.0
 12
154.1850079902
 22
38.1602342313
 32
0.0
 13
154.1850079902
 23
38.1602342313
 33
0.0
  0
LINE
  5
88
330
83
100
AcDbEntity
  8
0
  6
Continuous
 62
     7
370
     0
100
AcDbLine
 10
56.6850079902
 20
52.0299240879
 30
0.0
 11
56.6850079902
 21
37.4602342313
 31
0.0
  0
LINE
  5
89
330
83
100
AcDbEntity
  8
0
  6
Continuous
 62
     7
370
     0
100
AcDbLine
 10
156.6850079902
 20
52.0299240879
 30
0.0
 11
156.6850079902
 21
37.4602342313
 31
0.0
  0
LINE
  5
8A
330
83
100
AcDbEntity
  8
0
  6
Continuous
 62
     7
370
     0
100
AcDbLine
 10
56.6850079902
 20
38.4602342313
 30
0.0
 11
156.6850079902
 21
38.4602342313
 31
0.0
  0
MTEXT
  5
8B
330
83
100
AcDbEntity
  8
0
  6
Continuous
 62
     7
370
    18
100
AcDbMText
 10
93.9626484861
 20
46.1946404371
 30
0.0
 40
6.0
 41
0.0
 71
     1
 72
     1
  1
100
  7
SLDTEXTSTYLE0
 73
     1
 44
1.0
  0
MTEXT
  5
8C
330
83
100
AcDbEntity
  8
0
  6
Continuous
 62
     7
370
    18
100
AcDbMText
 10
105.3376491864
 20
46.1946404371
 30
0.0
 40
6.0
 41
0.0
 71
     1
 72
     1
  1
mm
  7
SLDTEXTSTYLE0
 73
     1
 44
1.0
  0
ENDBLK
  5
85
330
83
100
AcDbEntity
  8
0
100
AcDbBlockEnd
  0
ENDSEC
  0
SECTION
  2
ENTITIES
  0
LINE
  5
73
330
1F
100
AcDbEntity
  8
0
  6
Continuous
 62
     7
370
    18
100
AcDbLine
 10
56.6850079902
 20
152.0299240879
 30
0.0
 11
56.6850079902
 21
52.0299240879
 31
0.0
  0
LINE
  5
74
330
1F
100
AcDbEntity
  8
0
  6
Continuous
 62
     7
370
    18
100
AcDbLine
 10
56.6850079902
 20
52.0299240879
 30
0.0
 11
156.6850079902
 21
52.0299240879
 31
0.0
  0
DIMENSION
  5
75
330
1F
100
AcDbEntity
  8
0
  6
Continuous
 62
     7
370
    18
100
AcDbDimension
  2
_D
 10
42.7614395004
 20
52.0299240879
 30
0.0
 11
42.7614395004
 21
105.4472211621
 31
0.0
 70
   160
  1
<>mm
 71
     2
 42
-1.0
  3
SLDDIMSTYLE0
100
AcDbAlignedDimension
 13
56.6850079902
 23
152.0299240879
 33
0.0
 14
56.6850079902
 24
52.0299240879
 34
0.0
 50
90.0
100
AcDbRotatedDimension
  0
DIMENSION
  5
82
330
1F
100
AcDbEntity
  8
0
  6
Continuous
 62
     7
370
    18
100
AcDbDimension
  2
_D_1
 10
156.6850079902
 20
38.4602342313
 30
0.0
 11
105.0418155019
 21
38.4602342313
 31
0.0
 70
   160
  1
<>mm
 71
     2
 42
-1.0
  3
SLDDIMSTYLE0
100
AcDbAlignedDimension
 13
56.6850079902
 23
52.0299240879
 33
0.0
 14
156.6850079902
 24
52.0299240879
 34
0.0
100
AcDbRotatedDimension
  0
MTEXT
  5
8E
330
1F
100
AcDbEntity
  8
0
  6
Continuous
 62
     7
370
     0
100
AcDbMText
 10
412.8252631579
 20
48.4342449499
 30
0.0
 40
10.0
 41
0.0
 71
     1
 72
     1
  1
KLUDI GmbH & Co KG
  7
SLDTEXTSTYLE1
 73
     1
 44
1.0
  0
MTEXT
  5
8F
330
1F
100
AcDbEntity
  8
0
  6
Continuous
 62
     7
370
     0
100
AcDbMText
 10
210.0873490389
 20
48.4342449499
 30
0.0
 40
10.0
 41
0.0
 71
     1
 72
     1
  1
38 118 05 76
  7
SLDTEXTSTYLE1
 73
     1
 44
1.0
  0
ARC
  5
90
330
1F
100
AcDbEntity
  8
0
  6
Continuous
 62
     7
370
    25
100
AcDbCircle
 10
207.865341651
 20
277.9295798423
 30
0.0
 40
1.200000000000017
100
AcDbArc
 50
90.0
 51
180.0
  0
ARC
  5
91
330
1F
100
AcDbEntity
  8
0
  6
Continuous
 62
     7
370
    25
100
AcDbCircle
 10
251.465341651
 20
277.9295798423
 30
0.0
 40
1.199999999999989
100
AcDbArc
 50
0.0
 51
90.0
  0
LINE
  5
92
330
1F
100
AcDbEntity
  8
0
  6
Continuous
 62
     7
370
    25
100
AcDbLine
 10
252.665341651
 20
273.1295798423
 30
0.0
 11
252.665341651
 21
277.9295798423
 31
0.0
  0
LINE
  5
93
330
1F
100
AcDbEntity
  8
0
  6
Continuous
 62
     7
370
    25
100
AcDbLine
 10
206.665341651
 20
277.9295798423
 30
0.0
 11
206.665341651
 21
273.1295798423
 31
0.0
  0
ARC
  5
94
330
1F
100
AcDbEntity
  8
0
  6
Continuous
 62
     7
370
    25
100
AcDbCircle
 10
248.165341651
 20
401.8736226528
 30
0.0
 40
0.5000000000000568
100
AcDbArc
 50
0.0
 51
90.0
  0
ARC
  5
95
330
1F
100
AcDbEntity
  8
0
  6
Continuous
 62
     7
370
    25
100
AcDbCircle
 10
211.165341651
 20
401.8736226528
 30
0.0
 40
0.5000000000000568
100
AcDbArc
 50
90.0
 51
180.0
  0
LINE
  5
96
330
1F
100
AcDbEntity
  8
0
  6
Continuous
 62
     7
370
    25
100
AcDbLine
 10
248.665341651
 20
385.689089534
 30
0.0
 11
248.665341651
 21
401.8736226528
 31
0.0
  0
LINE
  5
97
330
1F
100
AcDbEntity
  8
0
  6
Continuous
 62
     7
370
    25
100
AcDbLine
 10
248.665341651
 20
279.4295798423
 30
0.0
 11
248.665341651
 21
351.0581557715
 31
0.0
  0
LINE
  5
98
330
1F
100
AcDbEntity
  8
0
  6
Continuous
 62
     7
370
    25
100
AcDbLine
 10
210.665341651
 20
401.8736226528
 30
0.0
 11
210.665341651
 21
279.4295798423
 31
0.0
  0
ARC
  5
99
330
1F
100
AcDbEntity
  8
0
  6
Continuous
 62
     7
370
    25
100
AcDbCircle
 10
210.965341651
 20
403.2736226528
 30
0.0
 40
0.3000000000000114
100
AcDbArc
 50
180.0
 51
270.0
  0
ARC
  5
9A
330
1F
100
AcDbEntity
  8
0
  6
Continuous
 62
     7
370
    25
100
AcDbCircle
 10
248.365341651
 20
403.2736226528
 30
0.0
 40
0.3000000000000114
100
AcDbArc
 50
270.0
 51
0.0
  0
ARC
  5
9B
330
1F
100
AcDbEntity
  8
0
  6
Continuous
 62
     7
370
    25
100
AcDbCircle
 10
211.665341651
 20
431.9736226528
 30
0.0
 40
1.0
100
AcDbArc
 50
90.0
 51
180.0
  0
ARC
  5
9C
330
1F
100
AcDbEntity
  8
0
  6
Continuous
 62
     7
370
    25
100
AcDbCircle
 10
247.665341651
 20
431.9736226528
 30
0.0
 40
1.0
100
AcDbArc
 50
0.0
 51
90.0
  0
LINE
  5
9D
330
1F
100
AcDbEntity
  8
0
  6
Continuous
 62
     7
370
    25
100
AcDbLine
 10
248.665341651
 20
430.9117592191
 30
0.0
 11
248.665341651
 21
431.9736226528
 31
0.0
  0
LINE
  5
9E
330
1F
100
AcDbEntity
  8
0
  6
Continuous
 62
     7
370
    25
100
AcDbLine
 10
248.665341651
 20
403.2736226528
 30
0.0
 11
248.665341651
 21
417.0352174322
 31
0.0
  0
LINE
  5
9F
330
1F
100
AcDbEntity
  8
0
  6
Continuous
 62
     7
370
    25
100
AcDbLine
 10
210.665341651
 20
431.9736226528
 30
0.0
 11
210.665341651
 21
403.2736226528
 31
0.0
  0
ARC
  5
A0
330
1F
100
AcDbEntity
  8
0
  6
Continuous
 62
     7
370
    25
100
AcDbCircle
 10
210.965341651
 20
279.4295798423
 30
0.0
 40
0.3000000000000114
100
AcDbArc
 50
180.0
 51
270.0
  0
ARC
  5
A1
330
1F
100
AcDbEntity
  8
0
  6
Continuous
 62
     7
370
    25
100
AcDbCircle
 10
248.365341651
 20
279.4295798423
 30
0.0
 40
0.3000000000000114
100
AcDbArc
 50
270.0
 51
0.0
  0
LINE
  5
A2
330
1F
100
AcDbEntity
  8
0
  6
Continuous
 62
     7
370
    25
100
AcDbLine
 10
245.165341651
 20
402.3736226528
 30
0.0
 11
245.165341651
 21
402.9736226528
 31
0.0
  0
LINE
  5
A3
330
1F
100
AcDbEntity
  8
0
  6
Continuous
 62
     7
370
    25
100
AcDbLine
 10
214.165341651
 20
402.9736226528
 30
0.0
 11
214.165341651
 21
402.3736226528
 31
0.0
  0
SPLINE
  5
A4
330
1F
100
AcDbEntity
  8
0
  6
Continuous
 62
     7
370
    25
100
AcDbSpline
210
0.0
220
0.0
230
1.0
 70
     8
 71
     3
 72
    24
 73
    20
 74
     0
 42
0.000000001
 43
0.00000001
 40
0.0
 40
0.0
 40
0.0
 40
0.0
 40
0.0721962375197631
 40
0.1317684276973575
 40
0.1803390120437448
 40
0.220016010524325
 40
0.2595055665318032
 40
0.3006112410420879
 40
0.402120912024206
 40
0.504377128053475
 40
0.5804203728216568
 40
0.6560886841747403
 40
0.7257525365959271
 40
0.7581781657183411
 40
0.7892478339895742
 40
0.8236197608325481
 40
0.8689326722061238
 40
0.9268683340556194
 40
1.0
 40
1.0
 40
1.0
 40
1.0
 10
292.9187917072476
 20
356.1537611784771
 30
0.0
 10
294.0433335112806
 20
356.155533498359
 30
0.0
 10
296.0957826483537
 20
356.1587682348529
 30
0.0
 10
298.9046983065409
 20
356.1328324799218
 30
0.0
 10
301.2067861098322
 20
356.0896149724537
 30
0.0
 10
303.1956170389143
 20
356.0315216611233
 30
0.0
 10
305.0675212819947
 20
355.9559264575943
 30
0.0
 10
307.8998954528959
 20
355.8024071581133
 30
0.0
 10
311.7024023868855
 20
355.4852404038634
 30
0.0
 10
316.0177714335358
 20
354.8381329093535
 30
0.0
 10
319.8684047657195
 20
353.9117263076764
 30
0.0
 10
323.1357196340236
 20
352.7910353351446
 30
0.0
 10
325.6533237901352
 20
351.6270341962338
 30
0.0
 10
327.4696898126725
 20
350.6245799093717
 30
0.0
 10
328.7725235049809
 20
349.8323254920915
 30
0.0
 10
330.209424027048
 20
348.8767692814965
 30
0.0
 10
331.9391054745532
 20
347.609399777489
 30
0.0
 10
334.0772554971603
 20
345.8817676486652
 30
0.0
 10
335.5858941189247
 20
344.5057241264804
 30
0.0
 10
336.4276695451483
 20
343.7379328173632
 30
0.0
  0
SPLINE
  5
A5
330
1F
100
AcDbEntity
  8
0
  6
Continuous
 62
     7
370
    25
100
AcDbSpline
210
0.0
220
0.0
230
1.0
 70
     8
 71
     3
 72
    31
 73
    27
 74
     0
 42
0.000000001
 43
0.00000001
 40
0.0
 40
0.0
 40
0.0
 40
0.0
 40
0.0471705479138709
 40
0.085804682975829
 40
0.116831853647586
 40
0.1434602562326954
 40
0.161922512015695
 40
0.1750835077519876
 40
0.189618941025655
 40
0.2058394628602445
 40
0.2237081827304918
 40
0.2431990652275204
 40
0.2643022923856976
 40
0.3430208866758952
 40
0.4208652028256466
 40
0.5004373777405893
 40
0.5902143164040307
 40
0.6784297254587163
 40
0.7629658937235626
 40
0.789511220400561
 40
0.814821991378508
 40
0.8387637848250087
 40
0.8650614796905076
 40
0.9000435847597124
 40
0.9446445969776386
 40
1.0
 40
1.0
 40
1.0
 40
1.0
 10
352.9624027082073
 20
361.4692632900354
 30
0.0
 10
352.210233234024
 20
362.1632061530221
 30
0.0
 10
350.842013738371
 20
363.4255096452488
 30
0.0
 10
348.9325176863294
 20
365.0927215231776
 30
0.0
 10
347.3302895269634
 20
366.4333025940888
 30
0.0
 10
346.0410081119283
 20
367.4653465320431
 30
0.0
 10
345.0397339690244
 20
368.2364653036421
 30
0.0
 10
344.2376973336989
 20
368.8361034318784
 30
0.0
 10
343.4671769639565
 20
369.3965522974854
 30
0.0
 10
342.6046016125911
 20
370.0038887899079
 30
0.0
 10
341.6422158464886
 20
370.6559085283929
 30
0.0
 10
340.5774724262957
 20
371.3453196434426
 30
0.0
 10
338.3718224097281
 20
372.7001378809649
 30
0.0
 10
334.9619691122403
 20
374.5136389295869
 30
0.0
 10
330.2015608860847
 20
376.4305321581803
 30
0.0
 10
325.0450649434914
 20
377.9313091248368
 30
0.0
 10
319.5569892891481
 20
379.0146675660741
 30
0.0
 10
313.9043423380745
 20
379.7346555999333
 30
0.0
 10
309.5933103024541
 20
380.0792013047617
 30
0.0
 10
306.6393513031109
 20
380.2513349341332
 30
0.0
 10
304.9969095283747
 20
380.3320226277539
 30
0.0
 10
303.359268173911
 20
380.3996522505475
 30
0.0
 10
301.511483293221
 20
380.4626149288744
 30
0.0
 10
299.2152053356118
 20
380.5223078710239
 30
0.0
 10
296.2881722346003
 20
380.573696717484
 30
0.0
 10
294.1196881948021
 20
380.5864316049439
 30
0.0
 10
292.9187917072476
 20
380.5934841270465
 30
0.0
  0
SPLINE
  5
A6
330
1F
100
AcDbEntity
  8
0
  6
Continuous
 62
     7
370
    25
100
AcDbSpline
210
0.0
220
0.0
230
1.0
 70
     8
 71
     3
 72
    13
 73
     9
 74
     0
 42
0.000000001
 43
0.00000001
 40
0.0
 40
0.0
 40
0.0
 40
0.0
 40
0.2394809317581996
 40
0.3683761244007111
 40
0.4999999857397945
 40
0.6316238494178819
 40
0.7605190485359666
 40
1.0
 40
1.0
 40
1.0
 40
1.0
 10
248.6653415053059
 20
417.034067224633
 30
0.0
 10
248.6983609748953
 20
417.3453526143423
 30
0.0
 10
248.7491524268401
 20
417.8241803214244
 30
0.0
 10
249.0573871815181
 20
418.4003801367512
 30
0.0
 10
249.3763935710758
 20
418.7969718561415
 30
0.0
 10
249.7724279202833
 20
419.1166699511344
 30
0.0
 10
250.3480889138447
 20
419.4259099218639
 30
0.0
 10
250.82682727528
 20
419.477537045371
 30
0.0
 10
251.1380545849678
 20
419.5110997845421
 30
0.0
  0
SPLINE
  5
A7
330
1F
100
AcDbEntity
  8
0
  6
Continuous
 62
     7
370
    25
100
AcDbSpline
210
0.0
220
0.0
230
1.0
 70
     8
 71
     3
 72
    13
 73
     9
 74
     0
 42
0.000000001
 43
0.00000001
 40
0.0
 40
0.0
 40
0.0
 40
0.0
 40
0.2394809598748802
 40
0.3683761642883376
 40
0.5000000320003518
 40
0.63162389446219
 40
0.7605190843417583
 40
0.9999999999999999
 40
0.9999999999999999
 40
0.9999999999999999
 40
0.9999999999999999
 10
251.1380544264335
 20
428.4361451549648
 30
0.0
 10
250.8268271257315
 20
428.4697079300099
 30
0.0
 10
250.3480887771201
 20
428.521335108807
 30
0.0
 10
249.772427804314
 20
428.8305750960544
 30
0.0
 10
249.3763934608928
 20
429.1502731806817
 30
0.0
 10
249.0573870650517
 20
429.5468648671258
 30
0.0
 10
248.7491522880057
 20
430.1230646092253
 30
0.0
 10
248.6983607939761
 20
430.6018922642971
 30
0.0
 10
248.6653412975566
 20
430.9131776152068
 30
0.0
  0
LINE
  5
A8
330
1F
100
AcDbEntity
  8
0
  6
Continuous
 62
     7
370
    25
100
AcDbLine
 10
251.1377922211
 20
419.5110991869
 30
0.0
 11
293.6670869793
 21
419.5853268845
 31
0.0
  0
LINE
  5
A9
330
1F
100
AcDbEntity
  8
0
  6
Continuous
 62
     7
370
    25
100
AcDbLine
 10
293.6670869793
 20
428.361918421
 30
0.0
 11
251.1377308403
 21
428.4361462257
 31
0.0
  0
ARC
  5
AA
330
1F
100
AcDbEntity
  8
0
  6
Continuous
 62
     7
370
    25
100
AcDbCircle
 10
293.665341651
 20
427.3619199441
 30
0.0
 40
1.000000000000046
100
AcDbArc
 50
0.0
 51
89.9
  0
ARC
  5
AB
330
1F
100
AcDbEntity
  8
0
  6
Continuous
 62
     7
370
    25
100
AcDbCircle
 10
293.665341651
 20
420.5853253614
 30
0.0
 40
1.0
100
AcDbArc
 50
270.1
 51
0.0
  0
LINE
  5
AC
330
1F
100
AcDbEntity
  8
0
  6
Continuous
 62
     7
370
    25
100
AcDbLine
 10
207.865341651
 20
279.1295798423
 30
0.0
 11
251.465341651
 21
279.1295798423
 31
0.0
  0
LINE
  5
AD
330
1F
100
AcDbEntity
  8
0
  6
Continuous
 62
     7
370
    25
100
AcDbLine
 10
206.665341651
 20
273.1295798423
 30
0.0
 11
252.665341651
 21
273.1295798423
 31
0.0
  0
LINE
  5
AE
330
1F
100
AcDbEntity
  8
0
  6
Continuous
 62
     7
370
    25
100
AcDbLine
 10
211.165341651
 20
402.3736226528
 30
0.0
 11
248.1653415814
 21
402.3736226528
 31
0.0
  0
LINE
  5
AF
330
1F
100
AcDbEntity
  8
0
  6
Continuous
 62
     7
370
    25
100
AcDbLine
 10
248.365341651
 20
402.9736226528
 30
0.0
 11
210.9653417103
 21
402.9736226528
 31
0.0
  0
LINE
  5
B0
330
1F
100
AcDbEntity
  8
0
  6
Continuous
 62
     7
370
    25
100
AcDbLine
 10
247.665341651
 20
432.9736226528
 30
0.0
 11
211.665341651
 21
432.9736226528
 31
0.0
  0
ARC
  5
B1
330
1F
100
AcDbEntity
  8
0
  6
Continuous
 62
     7
370
    25
100
AcDbCircle
 10
253.6237507234
 20
385.689089534
 30
0.0
 40
4.958409072396563
100
AcDbArc
 50
180.0
 51
269.8
  0
ARC
  5
B2
330
1F
100
AcDbEntity
  8
0
  6
Continuous
 62
     7
370
    25
100
AcDbCircle
 10
253.6237507234
 20
351.0581557715
 30
0.0
 40
4.958409072396563
100
AcDbArc
 50
90.2
 51
180.0
  0
LINE
  5
B3
330
1F
100
AcDbEntity
  8
0
  6
Continuous
 62
     7
370
    25
100
AcDbLine
 10
292.9187917072
 20
356.1537611785
 30
0.0
 11
253.6064426457
 21
356.0165346356
 31
0.0
  0
LINE
  5
B4
330
1F
100
AcDbEntity
  8
0
  6
Continuous
 62
     7
370
    25
100
AcDbLine
 10
253.6064426457
 20
380.73071067
 30
0.0
 11
292.9187917072
 21
380.593484127
 31
0.0
  0
LINE
  5
B5
330
1F
100
AcDbEntity
  8
0
  6
Continuous
 62
     7
370
    25
100
AcDbLine
 10
352.9624027082
 20
361.46926329
 30
0.0
 11
359.6054434828
 21
355.2745275499
 31
0.0
  0
LINE
  5
B6
330
1F
100
AcDbEntity
  8
0
  6
Continuous
 62
     7
370
    25
100
AcDbLine
 10
340.2021131336
 20
340.2182072294
 30
0.0
 11
336.4276695451
 21
343.7379328174
 31
0.0
  0
ARC
  5
B7
330
1F
100
AcDbEntity
  8
0
  6
Continuous
 62
     7
370
    25
100
AcDbCircle
 10
358.9234451227
 20
354.5431738483
 30
0.0
 40
1.000000000000048
100
AcDbArc
 50
307.0
 51
47.0
  0
LINE
  5
B8
330
1F
100
AcDbEntity
  8
0
  6
Continuous
 62
     7
370
    25
100
AcDbLine
 10
359.5252601458
 20
353.7445383383
 30
0.0
 11
341.4859265168
 21
340.150925421
 31
0.0
  0
ARC
  5
B9
330
1F
100
AcDbEntity
  8
0
  6
Continuous
 62
     7
370
    25
100
AcDbCircle
 10
340.8841114936
 20
340.949560931
 30
0.0
 40
0.999999999999986
100
AcDbArc
 50
227.0
 51
307.0
  0
LINE
  5
BA
330
1F
100
AcDbEntity
  8
0
  6
Continuous
 62
     7
370
    25
100
AcDbLine
 10
294.665341651
 20
427.3619199441
 30
0.0
 11
294.665341651
 21
420.5853253614
 31
0.0
  0
SPLINE
  5
BB
330
1F
100
AcDbEntity
  8
0
  6
Continuous
 62
     8
370
    18
100
AcDbSpline
210
0.0
220
0.0
230
1.0
 70
     8
 71
     3
 72
    51
 73
    47
 74
     0
 42
0.000000001
 43
0.00000001
 40
0.0
 40
0.0
 40
0.0
 40
0.0
 40
0.0062418803457922
 40
0.0124780656144976
 40
0.0187120971149117
 40
0.0249475198254316
 40
0.0311878763535343
 40
0.0374367009154125
 40
0.0436975133867162
 40
0.0499738134739505
 40
0.0562690750537234
 40
0.062586740723822
 40
0.0689302166061151
 40
0.0753028674366652
 40
0.081708011973352
 40
0.0881489187458901
 40
0.0946288021675432
 40
0.1011508190222434
 40
0.107718065335344
 40
0.1358966712254555
 40
0.1644149760674131
 40
0.1934848061219791
 40
0.2233062410964206
 40
0.2875907908479376
 40
0.3504469355504968
 40
0.4012539922775983
 40
0.4506857002345901
 40
0.5001189678750818
 40
0.5495516538175171
 40
0.5989935456357074
 40
0.6498218977340352
 40
0.7126766423253408
 40
0.7769677789529543
 40
0.806603663916497
 40
0.835501466816962
 40
0.8638577238631161
 40
0.8918803639755819
 40
0.9042947997546702
 40
0.9165563686343519
 40
0.9286867031946912
 40
0.940708144504699
 40
0.9526436451333621
 40
0.9645166560741211
 40
0.9763509998155661
 40
0.98817073264773
 40
1.0
 40
1.0
 40
1.0
 40
1.0
 10
248.6653416509653
 20
351.058155771487
 30
0.0
 10
248.6647850313934
 20
351.0589184616239
 30
0.0
 10
248.6636723001081
 20
351.060443146021
 30
0.0
 10
248.6546840391816
 20
351.0727253439669
 30
0.0
 10
248.6403707866475
 20
351.092327744433
 30
0.0
 10
248.6202366019071
 20
351.1199659136566
 30
0.0
 10
248.5944539979512
 20
351.1554481106376
 30
0.0
 10
248.5630184775901
 20
351.1988256542323
 30
0.0
 10
248.5259750657998
 20
351.2500846474834
 30
0.0
 10
248.4833575141831
 20
351.3092286619098
 30
0.0
 10
248.4352045835264
 20
351.3762565452691
 30
0.0
 10
248.3815556281382
 20
351.4511683837111
 30
0.0
 10
248.3224517536065
 20
351.5339639134153
 30
0.0
 10
248.25793542959
 20
351.624642908677
 30
0.0
 10
248.1880506894953
 20
351.7232052427509
 30
0.0
 10
248.1128425271251
 20
351.8296502677273
 30
0.0
 10
248.0323589357716
 20
351.9439792728567
 30
0.0
 10
247.9466430973245
 20
352.0661862100359
 30
0.0
 10
247.7563114397217
 20
352.3386692721501
 30
0.0
 10
247.4265973712437
 20
352.814027477976
 30
0.0
 10
246.9132616110849
 20
353.5762272545127
 30
0.0
 10
246.3392728088195
 20
354.4641119517412
 30
0.0
 10
245.4828896992476
 20
355.8555328800815
 30
0.0
 10
244.3340596754291
 20
357.8793131903384
 30
0.0
 10
243.1452325145413
 20
360.5237704878583
 30
0.0
 10
242.2817661588866
 20
363.1727782389806
 30
0.0
 10
241.7740569507728
 20
365.7511390489788
 30
0.0
 10
241.6068390092393
 20
368.379725439772
 30
0.0
 10
241.775601973819
 20
371.0083411515864
 30
0.0
 10
242.2849938621303
 20
373.5866784250844
 30
0.0
 10
243.1498718637341
 20
376.2352721426076
 30
0.0
 10
244.339667356565
 20
378.8788419780931
 30
0.0
 10
245.4872311585975
 20
380.8989725555396
 30
0.0
 10
246.3409210983582
 20
382.2856356002528
 30
0.0
 10
246.9114903876507
 20
383.1681922697328
 30
0.0
 10
247.4222282536455
 20
383.9266813285066
 30
0.0
 10
247.7813965641957
 20
384.4447902263885
 30
0.0
 10
248.0199605539501
 20
384.7858709543755
 30
0.0
 10
248.1699301807382
 20
384.998641816086
 30
0.0
 10
248.3007924489441
 20
385.1830675647607
 30
0.0
 10
248.4122575974289
 20
385.3391354366659
 30
0.0
 10
248.5039904469245
 20
385.4667952018755
 30
0.0
 10
248.5758539008757
 20
385.5662274822628
 30
0.0
 10
248.6270843366788
 20
385.6367375439807
 30
0.0
 10
248.6593412658699
 20
385.6808977848967
 30
0.0
 10
248.6633409850806
 20
385.6863582171661
 30
0.0
 10
248.6653416509653
 20
385.6890895340367
 30
0.0
  0
SPLINE
  5
BC
330
1F
100
AcDbEntity
  8
0
  6
Continuous
 62
     8
370
    18
100
AcDbSpline
210
0.0
220
0.0
230
1.0
 70
     8
 71
     3
 72
    24
 73
    20
 74
     0
 42
0.000000001
 43
0.00000001
 40
0.0
 40
0.0
 40
0.0
 40
0.0
 40
0.0608574740274835
 40
0.1227719833669269
 40
0.1839787388887622
 40
0.2459808853751174
 40
0.3083372805669471
 40
0.3710036591772945
 40
0.4350949580365266
 40
0.4992475561881206
 40
0.5634588350183012
 40
0.627681185451013
 40
0.6904746211502693
 40
0.7530069777641071
 40
0.8149957488102599
 40
0.876236362106258
 40
0.9380437479378153
 40
0.9993545958206163
 40
1.0
 40
1.0
 40
1.0
 40
1.0
 10
248.6649695215201
 20
417.0352174321633
 30
0.0
 10
248.6564903606306
 20
417.0604367743505
 30
0.0
 10
248.6393847640489
 20
417.111313494244
 30
0.0
 10
248.5063465766585
 20
417.5376899983028
 30
0.0
 10
248.3176614391405
 20
418.1838533504622
 30
0.0
 10
248.0966481751678
 20
419.0529895384261
 30
0.0
 10
247.875107229577
 20
420.0968146957318
 30
0.0
 10
247.6870875966359
 20
421.2933013205204
 30
0.0
 10
247.5579678461947
 20
422.5946227697842
 30
0.0
 10
247.5131606290106
 20
423.9580345957046
 30
0.0
 10
247.5559311356175
 20
425.322947398863
 30
0.0
 10
247.6837269298522
 20
426.6280805537535
 30
0.0
 10
247.871117331058
 20
427.8294188941347
 30
0.0
 10
248.0929779685553
 20
428.8784397432918
 30
0.0
 10
248.3134500097302
 20
429.7485569793217
 30
0.0
 10
248.5065048108893
 20
430.4093925972339
 30
0.0
 10
248.6271982741929
 20
430.798732698909
 30
0.0
 10
248.6797109264672
 20
430.9575864628966
 30
0.0
 10
248.6650354549676
 20
430.9122316841971
 30
0.0
 10
248.664882579183
 20
430.9117592191471
 30
0.0
  0
SPLINE
  5
BD
330
1F
100
AcDbEntity
  8
0
  6
Continuous
 62
     8
370
    18
100
AcDbSpline
210
0.0
220
0.0
230
1.0
 70
     8
 71
     3
 72
    57
 73
    53
 74
     0
 42
0.000000001
 43
0.00000001
 40
0.0
 40
0.0
 40
0.0
 40
0.0
 40
0.0080588727641187
 40
0.0161598042898617
 40
0.0243058992462115
 40
0.0325002113938501
 40
0.0407457413491178
 40
0.0490454346066877
 40
0.0574021798188807
 40
0.0658188073272984
 40
0.074298087940451
 40
0.0828427319493036
 40
0.0914553883711669
 40
0.1001386444111136
 40
0.108895025129113
 40
0.117726993300317
 40
0.1266369494554221
 40
0.1537685144013529
 40
0.1843811059990773
 40
0.2185163783745928
 40
0.2562046221843859
 40
0.2777444923892641
 40
0.2992969059336786
 40
0.3208618955174548
 40
0.3422548830304235
 40
0.3631430725166673
 40
0.383541810730235
 40
0.4148092769946173
 40
0.4445200217190415
 40
0.4728544826279458
 40
0.5000207295432137
 40
0.5553794135701029
 40
0.6162076382941498
 40
0.6448001166458766
 40
0.6789166992605393
 40
0.7003871249320583
 40
0.7219056849415318
 40
0.7434729874571812
 40
0.7677184104149354
 40
0.7909420072595098
 40
0.8131543314866448
 40
0.8343673918684168
 40
0.8545949233441367
 40
0.873852716530713
 40
0.8904224654252813
 40
0.906728947511108
 40
0.9227883902045294
 40
0.9386177752944724
 40
0.9542348296915273
 40
0.96965800710493
 40
0.9849064598254983
 40
1.0
 40
1.0
 40
1.0
 40
1.0
 10
253.6064426457161
 20
380.730710669965
 30
0.0
 10
253.6058102743045
 20
380.7298789741571
 30
0.0
 10
253.6045422311738
 20
380.728211241972
 30
0.0
 10
253.5944257536971
 20
380.7146761003726
 30
0.0
 10
253.5783065755669
 20
380.6929283980662
 30
0.0
 10
253.5555862106834
 20
380.6620622002927
 30
0.0
 10
253.5264265541711
 20
380.6221877724691
 30
0.0
 10
253.4907839984471
 20
380.5731489037642
 30
0.0
 10
253.4486705122717
 20
380.5148699797153
 30
0.0
 10
253.4000830084195
 20
380.4472624983871
 30
0.0
 10
253.345022556181
 20
380.3702507299566
 30
0.0
 10
253.2834887885395
 20
380.2837651680743
 30
0.0
 10
253.2154828923146
 20
380.1877445831442
 30
0.0
 10
253.1410012195997
 20
380.0821361825655
 30
0.0
 10
253.0600580922082
 20
379.9668946257995
 30
0.0
 10
252.9725999673974
 20
379.8419876046099
 30
0.0
 10
252.8151946327176
 20
379.6160244730239
 30
0.0
 10
252.5503695073969
 20
379.23828613127
 30
0.0
 10
252.137375600405
 20
378.6317480942951
 30
0.0
 10
251.6360345484813
 20
377.8562063273015
 30
0.0
 10
251.1463791478405
 20
377.0591626553422
 30
0.0
 10
250.7118709587513
 20
376.3115231186348
 30
0.0
 10
250.365329869606
 20
375.679082904563
 30
0.0
 10
250.0155269516043
 20
375.018795502394
 30
0.0
 10
249.6787654071597
 20
374.3342098347703
 30
0.0
 10
249.3722402085001
 20
373.6290771970078
 30
0.0
 10
249.0403993449735
 20
372.7803488315556
 30
0.0
 10
248.7174943672472
 20
371.7810651555446
 30
0.0
 10
248.4521710149238
 20
370.6303219118323
 30
0.0
 10
248.2914937804889
 20
369.4960820615902
 30
0.0
 10
248.2167905244
 20
367.9956261493983
 30
0.0
 10
248.412344799465
 20
366.0507672161131
 30
0.0
 10
248.9297674254582
 20
364.2166858019897
 30
0.0
 10
249.5114910862084
 20
362.784436342719
 30
0.0
 10
249.944475327392
 20
361.8659971726412
 30
0.0
 10
250.3548141200444
 20
361.0738064742535
 30
0.0
 10
250.7009348154312
 20
360.442086600313
 30
0.0
 10
251.069299083836
 20
359.8205027994472
 30
0.0
 10
251.4415545747589
 20
359.2219096284111
 30
0.0
 10
251.7972470857902
 20
358.6582642155008
 30
0.0
 10
252.1197542511571
 20
358.1606063045143
 30
0.0
 10
252.4082491707438
 20
357.725897478365
 30
0.0
 10
252.6628883449016
 20
357.3509513603952
 30
0.0
 10
252.8771913757242
 20
357.0417259228736
 30
0.0
 10
253.0552355069988
 20
356.7871400121154
 30
0.0
 10
253.2023163634015
 20
356.5780468883278
 30
0.0
 10
253.326837644467
 20
356.4024452108349
 30
0.0
 10
253.4287096614301
 20
356.2600395114022
 30
0.0
 10
253.5080989365064
 20
356.1501757891371
 30
0.0
 10
253.5644206758845
 20
356.0730860383187
 30
0.0
 10
253.59979504505
 20
356.0253264641228
 30
0.0
 10
253.6042343338303
 20
356.0194552531607
 30
0.0
 10
253.6064426457161
 20
356.0165346355587
 30
0.0
  0
SPLINE
  5
BE
330
1F
100
AcDbEntity
  8
0
  6
Continuous
 62
     8
370
    18
100
AcDbSpline
210
0.0
220
0.0
230
1.0
 70
     8
 71
     3
 72
    28
 73
    24
 74
     0
 42
0.000000001
 43
0.00000001
 40
0.0
 40
0.0
 40
0.0
 40
0.0
 40
0.0007091620835138
 40
0.0655081531047036
 40
0.0880667562902673
 40
0.1111016643737078
 40
0.1346212177527696
 40
0.1871529172510324
 40
0.263042019683275
 40
0.3112851064180073
 40
0.3517768571860121
 40
0.384521378215882
 40
0.5004551972002573
 40
0.5378567593199938
 40
0.5766547850989012
 40
0.6169046574669579
 40
0.6686405851840739
 40
0.7380727924748122
 40
0.8137424168366858
 40
0.8430307270945382
 40
0.8665808962320278
 40
0.9356067823031802
 40
1.0
 40
1.0
 40
1.0
 40
1.0
 10
251.1377248224852
 20
428.4351342062735
 30
0.0
 10
251.1378347667213
 20
428.4354712116195
 30
0.0
 10
251.1479907578836
 20
428.4666017504843
 30
0.0
 10
251.1214747929369
 20
428.3873666380006
 30
0.0
 10
251.0842142152542
 20
428.2685105687191
 30
0.0
 10
251.0531539547584
 20
428.1676058386549
 30
0.0
 10
251.0008881294401
 20
427.9930788259856
 30
0.0
 10
250.8973721487945
 20
427.6487919105967
 30
0.0
 10
250.7618516417036
 20
427.1113083146718
 30
0.0
 10
250.6361770757545
 20
426.51123225747
 30
0.0
 10
250.5516862072112
 20
426.0231607580246
 30
0.0
 10
250.4369381894626
 20
425.2173371067976
 30
0.0
 10
250.3798487008065
 20
424.3321695798434
 30
0.0
 10
250.3998153354594
 20
423.430429338413
 30
0.0
 10
250.4335579469017
 20
422.8917829677392
 30
0.0
 10
250.4934261843764
 20
422.307227150523
 30
0.0
 10
250.5980426754426
 20
421.6281291321976
 30
0.0
 10
250.7475867293585
 20
420.8904815553668
 30
0.0
 10
250.8817817276611
 20
420.3619614899599
 30
0.0
 10
250.9704840808599
 20
420.0542358836626
 30
0.0
 10
251.0459645060104
 20
419.8041731475643
 30
0.0
 10
251.1191121532537
 20
419.5657602971795
 30
0.0
 10
251.1317060542996
 20
419.5294522605926
 30
0.0
 10
251.1377843578467
 20
419.5119285984028
 30
0.0
  0
SPLINE
  5
BF
330
1F
100
AcDbEntity
  8
0
  6
Continuous
 62
     7
370
    25
100
AcDbSpline
210
0.0
220
0.0
230
1.0
 70
     8
 71
     3
 72
    20
 73
    16
 74
     0
 42
0.000000001
 43
0.00000001
 40
0.0
 40
0.0
 40
0.0
 40
0.0
 40
0.0585087854217335
 40
0.1370870257815959
 40
0.215834591495746
 40
0.2955525664198772
 40
0.3765637332235296
 40
0.4586779928255976
 40
0.541418831308556
 40
0.6242682829528226
 40
0.7069073538811551
 40
0.7892563171029281
 40
0.8713379931906968
 40
0.9532318601919023
 40
1.0
 40
1.0
 40
1.0
 40
1.0
 10
111.210513026364
 20
347.9258817052585
 30
0.0
 10
111.2046197602019
 20
347.6712832972495
 30
0.0
 10
111.1908117427481
 20
347.0747551302213
 30
0.0
 10
111.408583816694
 20
346.1469035683299
 30
0.0
 10
111.8169215836481
 20
345.1676213627775
 30
0.0
 10
112.4209849116943
 20
344.2359832330037
 30
0.0
 10
113.2057620132041
 20
343.363013039072
 30
0.0
 10
114.1641533299221
 20
342.562248568913
 30
0.0
 10
115.2798026222172
 20
341.8485210702627
 30
0.0
 10
116.5316670448062
 20
341.2351549122914
 30
0.0
 10
117.8956106962711
 20
340.7325916616279
 30
0.0
 10
119.3470856708199
 20
340.3473793422175
 30
0.0
 10
120.8615124926554
 20
340.0866667711248
 30
0.0
 10
122.1933810562946
 20
339.9651424937547
 30
0.0
 10
123.0121626514828
 20
339.95371483909
 30
0.0
 10
123.3097865815434
 20
339.9495609309994
 30
0.0
  0
SPLINE
  5
C0
330
1F
100
AcDbEntity
  8
0
  6
Continuous
 62
     7
370
    25
100
AcDbSpline
210
0.0
220
0.0
230
1.0
 70
     8
 71
     3
 72
    20
 73
    16
 74
     0
 42
0.000000001
 43
0.00000001
 40
0.0
 40
0.0
 40
0.0
 40
0.0
 40
0.044602255234493
 40
0.1287402584121059
 40
0.2130618349916816
 40
0.2976434928838456
 40
0.3825927467454542
 40
0.4679868653810818
 40
0.553843132952455
 40
0.640066515125165
 40
0.7262928035602058
 40
0.8118796394456603
 40
0.8961725343240406
 40
0.9788370385330538
 40
1.0
 40
1.0
 40
1.0
 40
1.0
 10
123.3097865815434
 20
339.9495609309994
 30
0.0
 10
123.5857985622338
 20
339.9531505599859
 30
0.0
 10
124.3824814548836
 20
339.9635116899531
 30
0.0
 10
125.6929202674057
 20
340.0783114276413
 30
0.0
 10
127.2080898898409
 20
340.3335285986431
 30
0.0
 10
128.6617948890399
 20
340.7131752198046
 30
0.0
 10
130.0306559235114
 20
341.210839334519
 30
0.0
 10
131.2925350216548
 20
341.8218538818733
 30
0.0
 10
132.4256503694589
 20
342.5396086268336
 30
0.0
 10
133.4086955751218
 20
343.3557328143921
 30
0.0
 10
134.2182995207299
 20
344.2583176120394
 30
0.0
 10
134.8404844123474
 20
345.2304104628307
 30
0.0
 10
135.2385777493095
 20
346.2498321974606
 30
0.0
 10
135.4255693736017
 20
347.0385665543733
 30
0.0
 10
135.4118554255452
 20
347.4774053658282
 30
0.0
 10
135.4090601367227
 20
347.5668530740675
 30
0.0
  0
LINE
  5
C1
330
1F
100
AcDbEntity
  8
0
  6
Continuous
 62
     7
370
    25
100
AcDbLine
 10
111.187519043
 20
352.6035980537
 30
0.0
 11
111.187519043
 21
347.7463673897
 31
0.0
  0
LINE
  5
C2
330
1F
100
AcDbEntity
  8
0
  6
Continuous
 62
     7
370
    25
100
AcDbLine
 10
135.4320541201
 20
347.7463673897
 30
0.0
 11
135.4320541201
 21
352.6035980537
 31
0.0
  0
SPLINE
  5
C3
330
1F
100
AcDbEntity
  8
0
  6
Continuous
 62
     7
370
    25
100
AcDbSpline
210
0.0
220
0.0
230
1.0
 70
     8
 71
     3
 72
    16
 73
    12
 74
     0
 42
0.000000001
 43
0.00000001
 40
0.0
 40
0.0
 40
0.0
 40
0.0
 40
0.1512177421827785
 40
0.2820023188931052
 40
0.3971368029474014
 40
0.5003562337709491
 40
0.5943887252238246
 40
0.701645434715414
 40
0.8011082176791955
 40
0.9055125354565532
 40
1.0
 40
1.0
 40
1.0
 40
1.0
 10
135.4324743210619
 20
352.6035980536993
 30
0.0
 10
135.4324664568744
 20
353.6874694286342
 30
0.0
 10
135.4324517911407
 20
355.7087550046619
 30
0.0
 10
135.4327217024734
 20
358.3382001065548
 30
0.0
 10
135.4335661775262
 20
360.4510364812385
 30
0.0
 10
135.4351141455092
 20
362.1270410846184
 30
0.0
 10
135.4375043860006
 20
363.5424900579019
 30
0.0
 10
135.4410258257353
 20
364.702748130794
 30
0.0
 10
135.4453971267569
 20
365.6632622517123
 30
0.0
 10
135.4502735169494
 20
366.1585172201631
 30
0.0
 10
135.4361216237239
 20
366.1868980110617
 30
0.0
 10
135.429398487686
 20
366.2003808656193
 30
0.0
  0
SPLINE
  5
C4
330
1F
100
AcDbEntity
  8
0
  6
Continuous
 62
     7
370
    25
100
AcDbSpline
210
0.0
220
0.0
230
1.0
 70
     8
 71
     3
 72
    17
 73
    13
 74
     0
 42
0.000000001
 43
0.00000001
 40
0.0
 40
0.0
 40
0.0
 40
0.0
 40
0.0576206725504243
 40
0.1358884891990183
 40
0.2560731508716506
 40
0.3798590507520757
 40
0.4654467019447689
 40
0.5549670032546205
 40
0.6503682142569609
 40
0.7541900355109977
 40
0.8695285731152238
 40
1.0
 40
1.0
 40
1.0
 40
1.0
 10
111.1884589096662
 20
366.6093446971865
 30
0.0
 10
111.185326062525
 20
366.5985130625215
 30
0.0
 10
111.1779377790139
 20
366.5729685069822
 30
0.0
 10
111.1796702341195
 20
366.218029349842
 30
0.0
 10
111.1790853531798
 20
365.6190023952892
 30
0.0
 10
111.1816531038169
 20
364.6191585969642
 30
0.0
 10
111.1835923319149
 20
363.3965141513547
 30
0.0
 10
111.1851456902573
 20
362.0410718834806
 30
0.0
 10
111.18626862165
 20
360.3343894388362
 30
0.0
 10
111.1869144180722
 20
358.2144377637661
 30
0.0
 10
111.1871188973428
 20
355.6253870596939
 30
0.0
 10
111.1871057959854
 20
353.6513700998199
 30
0.0
 10
111.1870988420248
 20
352.6035980536992
 30
0.0
  0
ARC
  5
C5
330
1F
100
AcDbEntity
  8
0
  6
Continuous
 62
     7
370
    25
100
AcDbCircle
 10
101.5097865815
 20
277.9295798423
 30
0.0
 40
1.200000000000017
100
AcDbArc
 50
90.0
 51
180.0
  0
ARC
  5
C6
330
1F
100
AcDbEntity
  8
0
  6
Continuous
 62
     7
370
    25
100
AcDbCircle
 10
145.1097865815
 20
277.9295798423
 30
0.0
 40
1.200000000000017
100
AcDbArc
 50
0.0
 51
90.0
  0
LINE
  5
C7
330
1F
100
AcDbEntity
  8
0
  6
Continuous
 62
     7
370
    25
100
AcDbLine
 10
146.3097865815
 20
273.1295798423
 30
0.0
 11
146.3097865815
 21
277.9295798423
 31
0.0
  0
LINE
  5
C8
330
1F
100
AcDbEntity
  8
0
  6
Continuous
 62
     7
370
    25
100
AcDbLine
 10
100.3097865815
 20
277.9295798423
 30
0.0
 11
100.3097865815
 21
273.1295798423
 31
0.0
  0
LINE
  5
C9
330
1F
100
AcDbEntity
  8
0
  6
Continuous
 62
     7
370
    25
100
AcDbLine
 10
142.3097865815
 20
279.4295798423
 30
0.0
 11
142.3097865815
 21
401.8736226528
 31
0.0
  0
LINE
  5
CA
330
1F
100
AcDbEntity
  8
0
  6
Continuous
 62
     7
370
    25
100
AcDbLine
 10
104.3097865815
 20
401.8736226528
 30
0.0
 11
104.3097865815
 21
279.4295798423
 31
0.0
  0
LINE
  5
CB
330
1F
100
AcDbEntity
  8
0
  6
Continuous
 62
     7
370
    25
100
AcDbLine
 10
142.3097865815
 20
403.2736226528
 30
0.0
 11
142.3097865815
 21
431.9736226528
 31
0.0
  0
LINE
  5
CC
330
1F
100
AcDbEntity
  8
0
  6
Continuous
 62
     7
370
    25
100
AcDbLine
 10
104.3097865815
 20
431.9736226528
 30
0.0
 11
104.3097865815
 21
403.2736226528
 31
0.0
  0
ARC
  5
CD
330
1F
100
AcDbEntity
  8
0
  6
Continuous
 62
     7
370
    25
100
AcDbCircle
 10
104.6097865815
 20
279.4295798423
 30
0.0
 40
0.3000000000000114
100
AcDbArc
 50
180.0
 51
270.0
  0
ARC
  5
CE
330
1F
100
AcDbEntity
  8
0
  6
Continuous
 62
     7
370
    25
100
AcDbCircle
 10
142.0097865815
 20
279.4295798423
 30
0.0
 40
0.3000000000000114
100
AcDbArc
 50
270.0
 51
0.0
  0
ARC
  5
CF
330
1F
100
AcDbEntity
  8
0
  6
Continuous
 62
     7
370
    25
100
AcDbCircle
 10
141.8097865815
 20
401.8736226528
 30
0.0
 40
0.5000000000000568
100
AcDbArc
 50
0.0
 51
90.0
  0
ARC
  5
D0
330
1F
100
AcDbEntity
  8
0
  6
Continuous
 62
     7
370
    25
100
AcDbCircle
 10
104.8097865815
 20
401.8736226528
 30
0.0
 40
0.5000000000000568
100
AcDbArc
 50
90.0
 51
180.0
  0
ARC
  5
D1
330
1F
100
AcDbEntity
  8
0
  6
Continuous
 62
     7
370
    25
100
AcDbCircle
 10
105.3097865815
 20
431.9736226528
 30
0.0
 40
1.0
100
AcDbArc
 50
90.0
 51
180.0
  0
ARC
  5
D2
330
1F
100
AcDbEntity
  8
0
  6
Continuous
 62
     7
370
    25
100
AcDbCircle
 10
141.3097865815
 20
431.9736226528
 30
0.0
 40
1.0
100
AcDbArc
 50
0.0
 51
90.0
  0
ARC
  5
D3
330
1F
100
AcDbEntity
  8
0
  6
Continuous
 62
     7
370
    25
100
AcDbCircle
 10
104.6097865815
 20
403.2736226528
 30
0.0
 40
0.2999999999999972
100
AcDbArc
 50
180.0
 51
270.0
  0
ARC
  5
D4
330
1F
100
AcDbEntity
  8
0
  6
Continuous
 62
     7
370
    25
100
AcDbCircle
 10
142.0097865815
 20
403.2736226528
 30
0.0
 40
0.2999999999999829
100
AcDbArc
 50
270.0
 51
0.0
  0
LINE
  5
D5
330
1F
100
AcDbEntity
  8
0
  6
Continuous
 62
     7
370
    25
100
AcDbLine
 10
138.8097865815
 20
402.3736226528
 30
0.0
 11
138.8097865815
 21
402.9736226528
 31
0.0
  0
LINE
  5
D6
330
1F
100
AcDbEntity
  8
0
  6
Continuous
 62
     7
370
    25
100
AcDbLine
 10
107.8097865815
 20
402.9736226528
 30
0.0
 11
107.8097865815
 21
402.3736226528
 31
0.0
  0
ELLIPSE
  5
D7
330
1F
100
AcDbEntity
  8
0
  6
Continuous
 62
     7
370
    25
100
AcDbEllipse
 10
123.3097865815
 20
347.7463673897
 30
0.0
 11
12.12226753854941
 21
0.0
 31
0.0
210
0.0
220
0.0
230
1.0
 40
0.6210191399
 41
3.120263686264138
 42
3.141592653589793
  0
ELLIPSE
  5
D8
330
1F
100
AcDbEntity
  8
0
  6
Continuous
 62
     7
370
    25
100
AcDbEllipse
 10
123.3097865815
 20
347.7463673897
 30
0.0
 11
12.12226753854941
 21
0.0
 31
0.0
210
0.0
220
0.0
230
1.0
 40
0.6210191399
 41
6.261856339853953
 42
6.283185307179586
  0
LINE
  5
D9
330
1F
100
AcDbEntity
  8
0
  6
Continuous
 62
     7
370
    25
100
AcDbLine
 10
133.3384276906
 20
279.1295798423
 30
0.0
 11
145.1097865815
 21
279.1295798423
 31
0.0
  0
LINE
  5
DA
330
1F
100
AcDbEntity
  8
0
  6
Continuous
 62
     7
370
    25
100
AcDbLine
 10
101.5097865815
 20
279.1295798423
 30
0.0
 11
133.3384276906
 21
279.1295798423
 31
0.0
  0
LINE
  5
DB
330
1F
100
AcDbEntity
  8
0
  6
Continuous
 62
     7
370
    25
100
AcDbLine
 10
133.890462981
 20
273.1295798423
 30
0.0
 11
146.3097865815
 21
273.1295798423
 31
0.0
  0
LINE
  5
DC
330
1F
100
AcDbEntity
  8
0
  6
Continuous
 62
     7
370
    25
100
AcDbLine
 10
100.3097865815
 20
273.1295798423
 30
0.0
 11
133.890462981
 21
273.1295798423
 31
0.0
  0
LINE
  5
DD
330
1F
100
AcDbEntity
  8
0
  6
Continuous
 62
     7
370
    25
100
AcDbLine
 10
104.8097865815
 20
402.3736226528
 30
0.0
 11
141.8097865815
 21
402.3736226528
 31
0.0
  0
LINE
  5
DE
330
1F
100
AcDbEntity
  8
0
  6
Continuous
 62
     7
370
    25
100
AcDbLine
 10
123.3097865815
 20
432.9736226528
 30
0.0
 11
141.3097865815
 21
432.9736226528
 31
0.0
  0
LINE
  5
DF
330
1F
100
AcDbEntity
  8
0
  6
Continuous
 62
     7
370
    25
100
AcDbLine
 10
105.3097865815
 20
432.9736226528
 30
0.0
 11
123.3097865815
 21
432.9736226528
 31
0.0
  0
LINE
  5
E0
330
1F
100
AcDbEntity
  8
0
  6
Continuous
 62
     7
370
    25
100
AcDbLine
 10
123.3097865815
 20
402.9736226528
 30
0.0
 11
104.6097865815
 21
402.9736226528
 31
0.0
  0
LINE
  5
E1
330
1F
100
AcDbEntity
  8
0
  6
Continuous
 62
     7
370
    25
100
AcDbLine
 10
142.0097865815
 20
402.9736226528
 30
0.0
 11
123.3097865815
 21
402.9736226528
 31
0.0
  0
ELLIPSE
  5
E2
330
1F
100
AcDbEntity
  8
0
  6
Continuous
 62
     8
370
    25
100
AcDbEllipse
 10
123.3097865815
 20
347.7463673897
 30
0.0
 11
12.12226753854941
 21
0.0
 31
0.0
210
0.0
220
0.0
230
1.0
 40
0.6210191399
 41
1.570796326794887
 42
3.120263686264138
  0
ELLIPSE
  5
E3
330
1F
100
AcDbEntity
  8
0
  6
Continuous
 62
     8
370
    18
100
AcDbEllipse
 10
123.3097865815
 20
346.9477318796
 30
0.0
 11
11.12226753854941
 21
0.0
 31
0.0
210
0.0
220
0.0
230
1.0
 40
0.6110989899
 41
1.570796326794897
 42
4.712388980384699
  0
LINE
  5
E4
330
1F
100
AcDbEntity
  8
0
  6
Continuous
 62
     8
370
    18
100
AcDbLine
 10
123.3097865815
 20
339.9495610327
 30
0.0
 11
123.3097865815
 21
340.150925421
 31
0.0
  0
ELLIPSE
  5
E5
330
1F
100
AcDbEntity
  8
0
  6
Continuous
 62
     8
370
    25
100
AcDbEllipse
 10
123.3097865815
 20
347.7463673897
 30
0.0
 11
12.12226753854941
 21
0.0
 31
0.0
210
0.0
220
0.0
230
1.0
 40
0.6210191399
 41
0.0
 42
1.570796326794897
  0
ELLIPSE
  5
E6
330
1F
100
AcDbEntity
  8
0
  6
Continuous
 62
     8
370
    18
100
AcDbEllipse
 10
123.3097865815
 20
346.9477318796
 30
0.0
 11
11.12226753854941
 21
0.0
 31
0.0
210
0.0
220
0.0
230
1.0
 40
0.6110989899
 41
4.712388980384699
 42
7.853981633974483
  0
SPLINE
  5
E7
330
1F
100
AcDbEntity
  8
0
  6
Continuous
 62
     8
370
    25
100
AcDbSpline
210
0.0
220
0.0
230
1.0
 70
     8
 71
     3
 72
    16
 73
    12
 74
     0
 42
0.000000001
 43
0.00000001
 40
0.0
 40
0.0
 40
0.0
 40
0.0
 40
0.0860813462523802
 40
0.2003211779708322
 40
0.3145610096892851
 40
0.4288008414077376
 40
0.5430406731261904
 40
0.6572805048446425
 40
0.7715203365630952
 40
0.8857601682815474
 40
1.0
 40
1.0
 40
1.0
 40
1.0
 10
111.2668511767758
 20
366.5772621229442
 30
0.0
 10
111.1861841937063
 20
367.1751506062946
 30
0.0
 10
110.9984628606259
 20
368.5665057662011
 30
0.0
 10
111.2570717258373
 20
370.7742460545497
 30
0.0
 10
111.9447579802491
 20
373.0797359712204
 30
0.0
 10
113.0845364051376
 20
375.2065771691709
 30
0.0
 10
114.613154993975
 20
377.0696389890807
 30
0.0
 10
116.4770816264609
 20
378.6010842728392
 30
0.0
 10
118.603290269028
 20
379.7304207306194
 30
0.0
 10
120.9104455946562
 20
380.4570481585437
 30
0.0
 10
122.510006252581
 20
380.548005470879
 30
0.0
 10
123.3097865815434
 20
380.5934841270466
 30
0.0
  0
SPLINE
  5
E8
330
1F
100
AcDbEntity
  8
0
  6
Continuous
 62
     8
370
    25
100
AcDbSpline
210
0.0
220
0.0
230
1.0
 70
     8
 71
     3
 72
    16
 73
    12
 74
     0
 42
0.000000001
 43
0.00000001
 40
0.0
 40
0.0
 40
0.0
 40
0.0
 40
0.1119104170537912
 40
0.2238208341075825
 40
0.3357312511613734
 40
0.4476416682151641
 40
0.5595520852689557
 40
0.6714625023227466
 40
0.783372919376537
 40
0.8952833364303289
 40
0.9999999999999999
 40
0.9999999999999999
 40
0.9999999999999999
 40
0.9999999999999999
 10
123.3097865815434
 20
380.5934841270465
 30
0.0
 10
124.1095672661248
 20
380.548005456151
 30
0.0
 10
125.7091286352877
 20
380.4570481143598
 30
0.0
 10
128.0162786266302
 20
379.7304209073551
 30
0.0
 10
130.1425075394828
 20
378.60108361008
 30
0.0
 10
132.0063584251122
 20
377.0696414633817
 30
0.0
 10
133.5352597310902
 20
375.2065679347259
 30
0.0
 10
134.673983034273
 20
373.0797704346995
 30
0.0
 10
135.3656070583669
 20
370.7741174350783
 30
0.0
 10
135.6269474117019
 20
368.4208831111203
 30
0.0
 10
135.4132437022706
 20
366.885223101901
 30
0.0
 10
135.3099401846324
 20
366.142891201014
 30
0.0
  0
CIRCLE
  5
E9
330
1F
100
AcDbEntity
  8
0
  6
Continuous
 62
     8
370
    18
100
AcDbCircle
 10
123.3097865815
 20
423.9736226528
 30
0.0
 40
3.388297291362875
  0
CIRCLE
  5
EA
330
1F
100
AcDbEntity
  8
0
  6
Continuous
 62
     8
370
    18
100
AcDbCircle
 10
123.3097865815
 20
423.9736226528
 30
0.0
 40
4.388295768276166
  0
SPLINE
  5
EB
330
1F
100
AcDbEntity
  8
0
  6
Continuous
 62
     8
370
    25
100
AcDbSpline
210
0.0
220
0.0
230
1.0
 70
    11
 71
     3
 72
    39
 73
    35
 74
     0
 42
0.000000001
 43
0.00000001
 40
0.0
 40
0.0
 40
0.0
 40
0.0
 40
0.0379496165638503
 40
0.0644154498017241
 40
0.0988793891052647
 40
0.1313288981952032
 40
0.1637231118766977
 40
0.1982100864675272
 40
0.2244716543064818
 40
0.2624100197276806
 40
0.2970963950092809
 40
0.3230867952950068
 40
0.3529677146949662
 40
0.3813126789611043
 40
0.4095959667869084
 40
0.4394782488958785
 40
0.4653419957083953
 40
0.5000524398666768
 40
0.5378810841425634
 40
0.5642734942074883
 40
0.5987808108756165
 40
0.6312618648868754
 40
0.6637006865451243
 40
0.6982363779806813
 40
0.7244895240471367
 40
0.7624230557696554
 40
0.7969980148342054
 40
0.8229113871847017
 40
0.8527169455811477
 40
0.8809791222021565
 40
0.9093239537424046
 40
0.9392564048764748
 40
0.9651997181299319
 40
1.0
 40
1.0
 40
1.0
 40
1.0
 10
126.5823673087703
 20
427.0085003124573
 30
0.0
 10
126.3424410721551
 20
427.2670281740228
 30
0.0
 10
125.8828047005495
 20
427.6574724923791
 30
0.0
 10
125.073982962845
 20
428.102627837454
 30
0.0
 10
124.2352625600751
 20
428.3733493954485
 30
0.0
 10
123.3003180062369
 20
428.4675350802383
 30
0.0
 10
122.3656513433196
 20
428.3693469567339
 30
0.0
 10
121.5302543736571
 20
428.0958690835246
 30
0.0
 10
120.7247346788304
 20
427.6488020422711
 30
0.0
 10
120.0208567387521
 20
427.047411881566
 30
0.0
 10
119.4727797203259
 20
426.3063543854553
 30
0.0
 10
119.1066103947079
 20
425.5431730923833
 30
0.0
 10
118.8935344732572
 20
424.7788217181088
 30
0.0
 10
118.8220285480028
 20
423.9646951352193
 30
0.0
 10
118.8968211686955
 20
423.150919223346
 30
0.0
 10
119.1123273109307
 20
422.3891591357744
 30
0.0
 10
119.4806301263863
 20
421.6282046007437
 30
0.0
 10
120.0297942685777
 20
420.8904415692616
 30
0.0
 10
120.7356443674825
 20
420.2907854132221
 30
0.0
 10
121.5429038022457
 20
419.8457915715917
 30
0.0
 10
122.3814344510565
 20
419.5744249995914
 30
0.0
 10
123.3174612034166
 20
419.4796325995766
 30
0.0
 10
124.2533539363989
 20
419.5776796497034
 30
0.0
 10
125.0895306615975
 20
419.8514264667753
 30
0.0
 10
125.8952699714507
 20
420.2987616221901
 30
0.0
 10
126.5982042450827
 20
420.8994651340382
 30
0.0
 10
127.145371131451
 20
421.638880602841
 30
0.0
 10
127.511111907796
 20
422.3994891632844
 30
0.0
 10
127.7246025965776
 20
423.1613655849629
 30
0.0
 10
127.7975354433191
 20
423.974399192037
 30
0.0
 10
127.7242814985612
 20
424.7886336893731
 30
0.0
 10
127.5094626094158
 20
425.5525128472169
 30
0.0
 10
127.1411165691595
 20
426.3157819207893
 30
0.0
 10
126.8023827244251
 20
426.771426969737
 30
0.0
 10
126.5823673087704
 20
427.0085003124574
 30
0.0
  0
LINE
  5
EC
330
1F
100
AcDbEntity
  8
0
  6
Continuous
 62
     8
370
    18
100
AcDbLine
 10
123.3097865815
 20
380.73071067
 30
0.0
 11
123.3097865815
 21
380.593484127
 31
0.0
  0
SPLINE
  5
ED
330
1F
100
AcDbEntity
  8
0
  6
Continuous
 62
     8
370
    18
100
AcDbSpline
210
0.0
220
0.0
230
1.0
 70
     8
 71
     3
 72
    20
 73
    16
 74
     0
 42
0.000000001
 43
0.00000001
 40
0.0
 40
0.0
 40
0.0
 40
0.0
 40
0.0448253673522229
 40
0.0940228137015587
 40
0.1433467562809135
 40
0.1947921598956388
 40
0.3053422342572095
 40
0.4181266323033169
 40
0.5356048588195675
 40
0.6006522990491069
 40
0.6616228577981514
 40
0.7714209211764165
 40
0.8310417922160125
 40
0.8888827266336342
 40
1.0
 40
1.0
 40
1.0
 40
1.0
 10
135.5010333922204
 20
366.2822897278219
 30
0.0
 10
135.55198902948
 20
366.6092913334198
 30
0.0
 10
135.6588703039034
 20
367.2951889146186
 30
0.0
 10
135.7005838389642
 20
368.3679430175869
 30
0.0
 10
135.6527139756285
 20
369.4874922106604
 30
0.0
 10
135.4403146355448
 20
371.0391913346126
 30
0.0
 10
134.8830583418747
 20
372.9601909525339
 30
0.0
 10
133.7998003491164
 20
375.0702701839191
 30
0.0
 10
132.5475266022656
 20
376.6681958935595
 30
0.0
 10
131.3300144568714
 20
377.8136084432167
 30
0.0
 10
130.0217091360315
 20
378.8074406594047
 30
0.0
 10
128.5826316627832
 20
379.6051711854598
 30
0.0
 10
127.0355648647677
 20
380.1783624343082
 30
0.0
 10
125.4060802390337
 20
380.6126895402783
 30
0.0
 10
124.1414710775899
 20
380.6838869134671
 30
0.0
 10
123.3097865815434
 20
380.730710669965
 30
0.0
  0
SPLINE
  5
EE
330
1F
100
AcDbEntity
  8
0
  6
Continuous
 62
     8
370
    18
100
AcDbSpline
210
0.0
220
0.0
230
1.0
 70
     8
 71
     3
 72
    21
 73
    17
 74
     0
 42
0.000000001
 43
0.00000001
 40
0.0
 40
0.0
 40
0.0
 40
0.0
 40
0.1097447595221553
 40
0.1476686782692034
 40
0.1863514342210977
 40
0.2258639286139087
 40
0.2743185603525676
 40
0.3289900050476944
 40
0.3899526533708051
 40
0.4572606018182907
 40
0.5725962486837991
 40
0.6843766898216296
 40
0.7930838809749899
 40
0.8920024461888738
 40
0.9908682747323169
 40
1.0
 40
1.0
 40
1.0
 40
1.0
 10
123.3097865815434
 20
380.730710669965
 30
0.0
 10
122.475786562834
 20
380.6847641784149
 30
0.0
 10
121.3535855486304
 20
380.622940199686
 30
0.0
 10
119.9986390938867
 20
380.2891365949927
 30
0.0
 10
119.1767084783709
 20
380.0319154460925
 30
0.0
 10
118.310636997599
 20
379.6908048458097
 30
0.0
 10
117.3799993618348
 20
379.2383200147852
 30
0.0
 10
116.3741311523396
 20
378.6317462605465
 30
0.0
 10
115.337302820715
 20
377.8561679588313
 30
0.0
 10
114.0914313358148
 20
376.6919473626515
 30
0.0
 10
112.82473816712
 20
375.0783681538036
 30
0.0
 10
111.7399282751922
 20
372.9677222876722
 30
0.0
 10
111.0785979062806
 20
370.7032192233584
 30
0.0
 10
110.8718814308784
 20
368.3810244832923
 30
0.0
 10
110.9923457466538
 20
366.7977739623237
 30
0.0
 10
111.1647795648278
 20
366.0161842898386
 30
0.0
 10
111.1793596937183
 20
365.9500970322173
 30
0.0
  0
SPLINE
  5
EF
330
1F
100
AcDbEntity
  8
0
  6
Continuous
 62
     8
370
    18
100
AcDbSpline
210
0.0
220
0.0
230
1.0
 70
     8
 71
     3
 72
    28
 73
    24
 74
     0
 42
0.000000001
 43
0.00000001
 40
0.0
 40
0.0
 40
0.0
 40
0.0
 40
0.0747966299295198
 40
0.1517016227733616
 40
0.2314313281666027
 40
0.2723679215793612
 40
0.3143608355948005
 40
0.3510495519810041
 40
0.3871551335580786
 40
0.4228486458526782
 40
0.4583071452749133
 40
0.4937112383264627
 40
0.5478577528440219
 40
0.6006416687351603
 40
0.65287266233922
 40
0.705386262824726
 40
0.7577175016252694
 40
0.8097823543222777
 40
0.8447663625734706
 40
0.8802403808541225
 40
0.9164347668666307
 40
0.975470127766238
 40
1.0
 40
1.0
 40
1.0
 40
1.0
 10
123.3097865815434
 20
385.6890895340367
 30
0.0
 10
124.2510528484107
 20
385.633204295425
 30
0.0
 10
126.1601177391704
 20
385.5198585284506
 30
0.0
 10
128.8873419051114
 20
384.6084145028714
 30
0.0
 10
130.9514471032108
 20
383.4560159056973
 30
0.0
 10
132.4462387125823
 20
382.2838465318259
 30
0.0
 10
133.4435282536408
 20
381.3256790232762
 30
0.0
 10
134.3096944158231
 20
380.3307739221855
 30
0.0
 10
135.0466470047427
 20
379.3257267235855
 30
0.0
 10
135.6938644877232
 20
378.2709163458599
 30
0.0
 10
136.2569255007279
 20
377.1663032540583
 30
0.0
 10
136.8264626934056
 20
375.8105666404566
 30
0.0
 10
137.3478304882418
 20
374.187992996346
 30
0.0
 10
137.7561594913196
 20
372.2834783426064
 30
0.0
 10
137.9928804395659
 20
370.3358150813511
 30
0.0
 10
138.068164524634
 20
368.3627792447184
 30
0.0
 10
137.9912101299972
 20
366.3921659570681
 30
0.0
 10
137.7806227626363
 20
364.6689129833111
 30
0.0
 10
137.4872072242635
 20
363.1958413095341
 30
0.0
 10
137.1567431333789
 20
361.9483562439448
 30
0.0
 10
136.6485311485494
 20
360.4782963254584
 30
0.0
 10
136.1032161696412
 20
359.1747044355344
 30
0.0
 10
135.5849494020913
 20
358.3630069569199
 30
0.0
 10
135.4328165459463
 20
358.1247399803761
 30
0.0
  0
SPLINE
  5
F0
330
1F
100
AcDbEntity
  8
0
  6
Continuous
 62
     8
370
    18
100
AcDbSpline
210
0.0
220
0.0
230
1.0
 70
     8
 71
     3
 72
    26
 73
    22
 74
     0
 42
0.000000001
 43
0.00000001
 40
0.0
 40
0.0
 40
0.0
 40
0.0
 40
0.013964668092995
 40
0.0494290522772373
 40
0.0848385350580858
 40
0.1388155466143319
 40
0.1914376014743996
 40
0.2435084177394218
 40
0.2958573765382278
 40
0.3482043722617574
 40
0.4002815899496603
 40
0.4352729327186512
 40
0.4707542087065879
 40
0.5069563334189692
 40
0.5659646863495356
 40
0.625464583405971
 40
0.6862750149150887
 40
0.7686646690093555
 40
0.8479996007408221
 40
0.9250569621972565
 40
1.0
 40
1.0
 40
1.0
 40
1.0
 10
111.1868363359124
 20
358.0825585210534
 30
0.0
 10
111.1012576939214
 20
358.2190449251983
 30
0.0
 10
110.7983452909469
 20
358.7021493971902
 30
0.0
 10
110.3619427789537
 20
359.5913048100231
 30
0.0
 10
109.7889170941351
 20
360.9437101004316
 30
0.0
 10
109.2707058337778
 20
362.5655824579861
 30
0.0
 10
108.8631235732542
 20
364.4655985629932
 30
0.0
 10
108.6270225893904
 20
366.4089697402824
 30
0.0
 10
108.5514366711812
 20
368.3797101701728
 30
0.0
 10
108.6279126746855
 20
370.3503855614492
 30
0.0
 10
108.8385996411733
 20
372.0755291489473
 30
0.0
 10
109.1318243965732
 20
373.5505170982752
 30
0.0
 10
109.4639094954813
 20
374.7983980447274
 30
0.0
 10
109.9665443789882
 20
376.2739440047395
 30
0.0
 10
110.7090260329927
 20
377.9321161262551
 30
0.0
 10
111.7934538282369
 20
379.6986782894323
 30
0.0
 10
113.2761230554398
 20
381.4971970046003
 30
0.0
 10
115.2292698142977
 20
383.2095354027759
 30
0.0
 10
117.7237421438522
 20
384.6044855982771
 30
0.0
 10
120.4514156995315
 20
385.518978094288
 30
0.0
 10
122.3658729798188
 20
385.6329140031431
 30
0.0
 10
123.3097865815434
 20
385.6890895340367
 30
0.0
  0
SPLINE
  5
F1
330
1F
100
AcDbEntity
  8
0
  6
Continuous
 62
     8
370
    18
100
AcDbSpline
210
0.0
220
0.0
230
1.0
 70
    11
 71
     3
 72
    39
 73
    35
 74
     0
 42
0.000000001
 43
0.00000001
 40
0.0
 40
0.0
 40
0.0
 40
0.0
 40
0.0312333828365431
 40
0.0626046735499179
 40
0.094662518182913
 40
0.1267506593701832
 40
0.1588197686293087
 40
0.1908943026184899
 40
0.2222361882160848
 40
0.2534480552028092
 40
0.2844365154180146
 40
0.315051212648951
 40
0.3459981933596686
 40
0.3766962503044962
 40
0.4073858051132475
 40
0.4383430958915847
 40
0.4689465093483551
 40
0.4999476187512584
 40
0.5311258527134971
 40
0.5624590785657774
 40
0.5945047653735153
 40
0.6265811018631839
 40
0.6586867787263684
 40
0.6907979913972756
 40
0.72219474586811
 40
0.7534609606439738
 40
0.7844553823189754
 40
0.8150757246825729
 40
0.8459794536444926
 40
0.8766349133424525
 40
0.9072893485067632
 40
0.9382104881248247
 40
0.9689133356556694
 40
0.9999999999999999
 40
0.9999999999999999
 40
0.9999999999999999
 40
0.9999999999999999
 10
127.9225619497536
 20
428.8665664216028
 30
0.0
 10
128.2187510187803
 20
428.5460521337134
 30
0.0
 10
128.7505817398747
 20
427.8467157889665
 30
0.0
 10
129.3368307400884
 20
426.6485522426888
 30
0.0
 10
129.704306046372
 20
425.3459883463768
 30
0.0
 10
129.8252124145647
 20
423.9826323041439
 30
0.0
 10
129.7075606019004
 20
422.6187134362978
 30
0.0
 10
129.3431915309464
 20
421.315644890831
 30
0.0
 10
128.7602894229204
 20
420.1163015851575
 30
0.0
 10
127.9684593589689
 20
419.0691744519785
 30
0.0
 10
126.9998661779242
 20
418.1976708543584
 30
0.0
 10
125.871267956036
 20
417.5435051825029
 30
0.0
 10
124.6299840967507
 20
417.1273400662304
 30
0.0
 10
123.3210125151036
 20
416.9888162702855
 30
0.0
 10
122.0113505328766
 20
417.1226197210567
 30
0.0
 10
120.7685799847873
 20
417.5343686014128
 30
0.0
 10
119.6374664348036
 20
418.1847516344845
 30
0.0
 10
118.6662468912139
 20
419.0527460359982
 30
0.0
 10
117.871274947907
 20
420.0968804493756
 30
0.0
 10
117.2849004984774
 20
421.2932830757733
 30
0.0
 10
116.9165103888946
 20
422.5946282561796
 30
0.0
 10
116.7943435012281
 20
423.9580310858995
 30
0.0
 10
116.9108993584679
 20
425.3229559527762
 30
0.0
 10
117.2749209788217
 20
426.6280501373121
 30
0.0
 10
117.858228591188
 20
427.8295290962427
 30
0.0
 10
118.6509696657713
 20
428.8780316487113
 30
0.0
 10
119.6203389940017
 20
429.750057855977
 30
0.0
 10
120.7486577229467
 20
430.4038431962448
 30
0.0
 10
121.988847465471
 20
430.8195946917479
 30
0.0
 10
123.2960273053684
 20
430.9583097218976
 30
0.0
 10
124.6041382378708
 20
430.8253867337261
 30
0.0
 10
125.8475927345018
 20
430.4144673507219
 30
0.0
 10
126.9810455221501
 20
429.7637657403715
 30
0.0
 10
127.6277642258093
 20
429.1855750969464
 30
0.0
 10
127.9225619497536
 20
428.8665664216029
 30
0.0
  0
SPLINE
  5
F2
330
1F
100
AcDbEntity
  8
0
  6
Continuous
 62
     7
370
    25
100
AcDbSpline
210
0.0
220
0.0
230
1.0
 70
     8
 71
     3
 72
    11
 73
     7
 74
     0
 42
0.000000001
 43
0.00000001
 40
0.0
 40
0.0
 40
0.0
 40
0.0
 40
0.2440820862982309
 40
0.4999997687199715
 40
0.7559175666673048
 40
1.0
 40
1.0
 40
1.0
 40
1.0
 10
127.7736120921525
 20
185.2091596314648
 30
0.0
 10
127.8004017083134
 20
185.5125340891686
 30
0.0
 10
127.8552799752425
 20
186.133993701334
 30
0.0
 10
128.2918693209024
 20
186.9837221136795
 30
0.0
 10
128.9431411645744
 20
187.6826445268305
 30
0.0
 10
129.5091448610551
 20
187.9450573828979
 30
0.0
 10
129.785447852273
 20
188.0731580605371
 30
0.0
  0
SPLINE
  5
F3
330
1F
100
AcDbEntity
  8
0
  6
Continuous
 62
     7
370
    25
100
AcDbSpline
210
0.0
220
0.0
230
1.0
 70
     8
 71
     3
 72
    11
 73
     7
 74
     0
 42
0.000000001
 43
0.00000001
 40
0.0
 40
0.0
 40
0.0
 40
0.0
 40
0.244082930979694
 40
0.5000007807293078
 40
0.7559182408534847
 40
1.0
 40
1.0
 40
1.0
 40
1.0
 10
116.8341370142788
 20
188.0731538176838
 30
0.0
 10
117.1104378051192
 20
187.9450541206199
 30
0.0
 10
117.6764364621404
 20
187.6826435199027
 30
0.0
 10
118.3277057302503
 20
186.9837218857008
 30
0.0
 10
118.764293451008
 20
186.1339937653177
 30
0.0
 10
118.8191714829856
 20
185.5125340224596
 30
0.0
 10
118.8459609779835
 20
185.2091595742019
 30
0.0
  0
LINE
  5
F4
330
1F
100
AcDbEntity
  8
0
  6
Continuous
 62
     7
370
    25
100
AcDbLine
 10
118.8457860306
 20
185.3094273825
 30
0.0
 11
118.9214908133
 21
141.9338260939
 31
0.0
  0
LINE
  5
F5
330
1F
100
AcDbEntity
  8
0
  6
Continuous
 62
     7
370
    25
100
AcDbLine
 10
127.6980823498
 20
141.9338260939
 30
0.0
 11
127.7737871324
 21
185.3094273825
 31
0.0
  0
ARC
  5
F6
330
1F
100
AcDbEntity
  8
0
  6
Continuous
 62
     7
370
    25
100
AcDbCircle
 10
126.6980838729
 20
141.9355714223
 30
0.0
 40
1.000000000000003
100
AcDbArc
 50
270.0
 51
359.9
  0
ARC
  5
F7
330
1F
100
AcDbEntity
  8
0
  6
Continuous
 62
     7
370
    25
100
AcDbCircle
 10
119.9214892902
 20
141.9355714223
 30
0.0
 40
1.000000000000003
100
AcDbArc
 50
180.1
 51
270.0
  0
SPLINE
  5
F8
330
1F
100
AcDbEntity
  8
0
  6
Continuous
 62
     7
370
    25
100
AcDbSpline
210
0.0
220
0.0
230
1.0
 70
     8
 71
     3
 72
    11
 73
     7
 74
     0
 42
0.000000001
 43
0.00000001
 40
0.0
 40
0.0
 40
0.0
 40
0.0
 40
0.2481852884899476
 40
0.4999998326623004
 40
0.7518144610871663
 40
1.0
 40
1.0
 40
1.0
 40
1.0
 10
135.6855581359746
 20
187.3468998466016
 30
0.0
 10
135.7162457512513
 20
187.9373718250341
 30
0.0
 10
135.778069732022
 20
189.1269503540611
 30
0.0
 10
136.256571866482
 20
190.8597774506011
 30
0.0
 10
136.9854600936497
 20
192.503058882079
 30
0.0
 10
137.6920267144842
 20
193.462056727264
 30
0.0
 10
138.0427458322463
 20
193.9380753619992
 30
0.0
  0
SPLINE
  5
F9
330
1F
100
AcDbEntity
  8
0
  6
Continuous
 62
     7
370
    25
100
AcDbSpline
210
0.0
220
0.0
230
1.0
 70
     8
 71
     3
 72
    11
 73
     7
 74
     0
 42
0.000000001
 43
0.00000001
 40
0.0
 40
0.0
 40
0.0
 40
0.0
 40
0.2481854352676706
 40
0.5000000376715994
 40
0.7518146211344472
 40
0.9999999999999999
 40
0.9999999999999999
 40
0.9999999999999999
 40
0.9999999999999999
 10
108.5768246161431
 20
193.9380786956559
 30
0.0
 10
108.9275441822998
 20
193.46205936751
 30
0.0
 10
109.6341118183153
 20
192.5030599735741
 30
0.0
 10
110.3630007692706
 20
190.8597778014878
 30
0.0
 10
110.8415033180674
 20
189.1269502939203
 30
0.0
 10
110.9033273355029
 20
187.9373718910611
 30
0.0
 10
110.9340149721954
 20
187.3468999133652
 30
0.0
  0
LINE
  5
FA
330
1F
100
AcDbEntity
  8
0
  6
Continuous
 62
     7
370
    25
100
AcDbLine
 10
110.933664778
 20
187.447226407
 30
0.0
 11
111.0900471235
 21
142.6471664193
 31
0.0
  0
LINE
  5
FB
330
1F
100
AcDbEntity
  8
0
  6
Continuous
 62
     7
370
    25
100
AcDbLine
 10
135.5295260396
 20
142.6471664193
 30
0.0
 11
135.6859072586
 21
187.4469037063
 31
0.0
  0
SPLINE
  5
FC
330
1F
100
AcDbEntity
  8
0
  6
Continuous
 62
     7
370
    25
100
AcDbSpline
210
0.0
220
0.0
230
1.0
 70
     8
 71
     3
 72
    24
 73
    20
 74
     0
 42
0.000000001
 43
0.00000001
 40
0.0
 40
0.0
 40
0.0
 40
0.0
 40
0.0881890918206802
 40
0.1647800332816333
 40
0.2313806815474272
 40
0.289362317692543
 40
0.339883642266772
 40
0.3940019175909217
 40
0.4394875032484167
 40
0.4775093284019324
 40
0.5089390654835253
 40
0.5529441164430486
 40
0.6102205580346786
 40
0.6803319980974191
 40
0.7290836927051147
 40
0.7837835778274455
 40
0.8457809878709981
 40
0.9170013240785855
 40
1.0
 40
1.0
 40
1.0
 40
1.0
 10
111.0895015233361
 20
142.6821213660258
 30
0.0
 10
111.0951722735221
 20
141.0387043054253
 30
0.0
 10
111.1057679876302
 20
137.9680034698619
 30
0.0
 10
111.1197880730415
 20
133.6569728622449
 30
0.0
 10
111.1313749671064
 20
129.9108097589065
 30
0.0
 10
111.1408767229139
 20
126.6535773289669
 30
0.0
 10
111.1491572557775
 20
123.6338633828364
 30
0.0
 10
111.1562436731772
 20
120.8539311458783
 30
0.0
 10
111.1621777341092
 20
118.3169085922648
 30
0.0
 10
111.1666920691044
 20
116.2101976929266
 30
0.0
 10
111.1707537221866
 20
114.1443555879327
 30
0.0
 10
111.1749729180619
 20
111.7499598697212
 30
0.0
 10
111.1794409192237
 20
108.70987286355
 30
0.0
 10
111.1827296234179
 20
105.6797078000362
 30
0.0
 10
111.1848783023587
 20
102.8093141500509
 30
0.0
 10
111.1861613645688
 20
100.1749193247745
 30
0.0
 10
111.1868833660308
 20
97.31512494116393
 30
0.0
 10
111.1871185884452
 20
94.17122922691179
 30
0.0
 10
111.1871057509815
 20
92.0483714962671
 30
0.0
 10
111.1870988420248
 20
90.90587694659597
 30
0.0
  0
SPLINE
  5
FD
330
1F
100
AcDbEntity
  8
0
  6
Continuous
 62
     7
370
    25
100
AcDbSpline
210
0.0
220
0.0
230
1.0
 70
     8
 71
     3
 72
    26
 73
    22
 74
     0
 42
0.000000001
 43
0.00000001
 40
0.0
 40
0.0
 40
0.0
 40
0.0
 40
0.0726177856598992
 40
0.1346351280440331
 40
0.1879845678634335
 40
0.234093093918219
 40
0.2739497930501552
 40
0.3159004796426837
 40
0.3496540269827978
 40
0.3771381450477705
 40
0.4086652147471868
 40
0.4463169091665846
 40
0.4908345242411572
 40
0.5433232549153675
 40
0.605336285691289
 40
0.6529763484458048
 40
0.7065274820834899
 40
0.7668861119241895
 40
0.8350920462112685
 40
0.9123412494851115
 40
1.0
 40
1.0
 40
1.0
 40
1.0
 10
135.4324743210619
 20
90.90587694659558
 30
0.0
 10
135.4324693304352
 20
91.90427637367155
 30
0.0
 10
135.4324600776929
 20
93.75533301884396
 30
0.0
 10
135.4326045171829
 20
96.46278836395622
 30
0.0
 10
135.4330450121916
 20
98.8776774853416
 30
0.0
 10
135.4338058949404
 20
101.0413614569916
 30
0.0
 10
135.4349149832256
 20
103.0938451535185
 30
0.0
 10
135.4363450410838
 20
105.0045782576091
 30
0.0
 10
135.4380283188873
 20
106.7540170858677
 30
0.0
 10
135.439857386417
 20
108.3551510314916
 30
0.0
 10
135.4420899858354
 20
110.0492067594073
 30
0.0
 10
135.4451702389023
 20
112.0719147677986
 30
0.0
 10
135.4494438856153
 20
114.5012488381346
 30
0.0
 10
135.4553116728303
 20
117.404250746238
 30
0.0
 10
135.4621838712805
 20
120.391138962215
 30
0.0
 10
135.4698359271618
 20
123.4122456428301
 30
0.0
 10
135.4780027632395
 20
126.411561758635
 30
0.0
 10
135.4878557519369
 20
129.7991418967418
 30
0.0
 10
135.4997018230347
 20
133.6318405416455
 30
0.0
 10
135.5138295556457
 20
137.9753295712705
 30
0.0
 10
135.5244344723246
 20
141.0485272277976
 30
0.0
 10
135.5300716397506
 20
142.6821213660257
 30
0.0
  0
LINE
  5
FE
330
1F
100
AcDbEntity
  8
0
  6
Continuous
 62
     7
370
    25
100
AcDbLine
 10
111.187519043
 20
90.9058769466
 30
0.0
 11
111.187519043
 21
85.6971347651
 31
0.0
  0
LINE
  5
FF
330
1F
100
AcDbEntity
  8
0
  6
Continuous
 62
     7
370
    25
100
AcDbLine
 10
135.4320541201
 20
85.6971347651
 30
0.0
 11
135.4320541201
 21
90.9058769466
 31
0.0
  0
SPLINE
  5
100
330
1F
100
AcDbEntity
  8
0
  6
Continuous
 62
     7
370
    25
100
AcDbSpline
210
0.0
220
0.0
230
1.0
 70
     8
 71
     3
 72
    20
 73
    16
 74
     0
 42
0.000000001
 43
0.00000001
 40
0.0
 40
0.0
 40
0.0
 40
0.0
 40
0.0435265866303267
 40
0.1245675114672163
 40
0.2057425698957185
 40
0.2870597469816764
 40
0.3685517314766869
 40
0.450224535432539
 40
0.5320492153618295
 40
0.6139578509738739
 40
0.6958240035115385
 40
0.7775223126759877
 40
0.8589605687473916
 40
0.9401062970438677
 40
1.0
 40
1.0
 40
1.0
 40
1.0
 10
123.3097865815434
 20
75.67746795058491
 30
0.0
 10
123.5904976717775
 20
75.68230857479216
 30
0.0
 10
124.393856828991
 20
75.6961618207764
 30
0.0
 10
125.7125209147494
 20
75.84850349927972
 30
0.0
 10
127.2322010616336
 20
76.18478282392543
 30
0.0
 10
128.6882997842864
 20
76.68334270288312
 30
0.0
 10
130.0561797434979
 20
77.33392353873542
 30
0.0
 10
131.3126318997037
 20
78.12755525123447
 30
0.0
 10
132.4356119936198
 20
79.05168242221362
 30
0.0
 10
133.4049409483741
 20
80.09120369398664
 30
0.0
 10
134.202029014687
 20
81.22810679222425
 30
0.0
 10
134.8146049322615
 20
82.44192791275484
 30
0.0
 10
135.2231007579355
 20
83.71030998259002
 30
0.0
 10
135.4343081375764
 20
84.89856457584027
 30
0.0
 10
135.4155366413441
 20
85.65735905152874
 30
0.0
 10
135.4075651513189
 20
85.97958816524547
 30
0.0
  0
SPLINE
  5
101
330
1F
100
AcDbEntity
  8
0
  6
Continuous
 62
     7
370
    25
100
AcDbSpline
210
0.0
220
0.0
230
1.0
 70
     8
 71
     3
 72
    20
 73
    16
 74
     0
 42
0.000000001
 43
0.00000001
 40
0.0
 40
0.0
 40
0.0
 40
0.0
 40
0.021765487948562
 40
0.1054516632586644
 40
0.1890866290703698
 40
0.2727994532041043
 40
0.3566714752745213
 40
0.440717331248038
 40
0.5248945270244706
 40
0.6091262592824311
 40
0.6933200455110916
 40
0.7774376528089885
 40
0.8614734263452702
 40
0.9454512838196911
 40
1.0
 40
1.0
 40
1.0
 40
1.0
 10
111.2120080117678
 20
85.41468136497568
 30
0.0
 10
111.2099722252004
 20
85.3017505921131
 30
0.0
 10
111.200109038118
 20
84.75461202763007
 30
0.0
 10
111.3860999325817
 20
83.77975287792303
 30
0.0
 10
111.772670692744
 20
82.5192113333692
 30
0.0
 10
112.3680833283574
 20
81.31379880714776
 30
0.0
 10
113.1421773590428
 20
80.18246238911414
 30
0.0
 10
114.0880097121917
 20
79.14360318638586
 30
0.0
 10
115.1886000000251
 20
78.21455904616276
 30
0.0
 10
116.4257281166606
 20
77.41107416025228
 30
0.0
 10
117.7780474602541
 20
76.74694626120495
 30
0.0
 10
119.2224642680567
 20
76.23224482699234
 30
0.0
 10
120.7345509030562
 20
75.87843906194111
 30
0.0
 10
122.108094687715
 20
75.70222213418165
 30
0.0
 10
122.970277832865
 20
75.6844616416805
 30
0.0
 10
123.3097865815435
 20
75.67746795058491
 30
0.0
  0
CIRCLE
  5
102
330
1F
100
AcDbEntity
  8
0
  6
Continuous
 62
     7
370
    25
100
AcDbCircle
 10
123.3097865815
 20
205.9355714223
 30
0.0
 40
19.0
  0
LINE
  5
103
330
1F
100
AcDbEntity
  8
0
  6
Continuous
 62
     7
370
    25
100
AcDbLine
 10
126.6980838729
 20
140.9355714223
 30
0.0
 11
119.9214892902
 21
140.9355714223
 31
0.0
  0
ARC
  5
104
330
1F
100
AcDbEntity
  8
0
  6
Continuous
 62
     7
370
    25
100
AcDbCircle
 10
123.3097865815
 20
205.9355714223
 30
0.0
 40
22.99999999999999
100
AcDbArc
 50
302.544579578
 51
237.455420422
  0
CIRCLE
  5
105
330
1F
100
AcDbEntity
  8
0
  6
Continuous
 62
     8
370
    18
100
AcDbCircle
 10
123.3097865815
 20
205.9355714223
 30
0.0
 40
18.0
  0
SPLINE
  5
106
330
1F
100
AcDbEntity
  8
0
  6
Continuous
 62
     8
370
    18
100
AcDbSpline
210
0.0
220
0.0
230
1.0
 70
     8
 71
     3
 72
    22
 73
    18
 74
     0
 42
0.000000001
 43
0.00000001
 40
0.0
 40
0.0
 40
0.0
 40
0.0
 40
0.099600165344254
 40
0.1381403542834149
 40
0.1691203343486417
 40
0.2595722114386672
 40
0.3447371422953451
 40
0.4297569483175062
 40
0.459355064534167
 40
0.4895781187226497
 40
0.5204370539391224
 40
0.5893615052457217
 40
0.6889321415520075
 40
0.7522296992987938
 40
0.805357082017881
 40
0.8483196773048624
 40
1.0
 40
1.0
 40
1.0
 40
1.0
 10
126.5823673087703
 20
184.8579853053256
 30
0.0
 10
126.3256564058184
 20
184.7997328422253
 30
0.0
 10
125.9696114639288
 20
184.7189396441142
 30
0.0
 10
125.451946250327
 20
184.6300598289098
 30
0.0
 10
124.9428500126829
 20
184.5543087273906
 30
0.0
 10
124.2350091245373
 20
184.4846278238973
 30
0.0
 10
123.3005750511526
 20
184.4520302177948
 30
0.0
 10
122.5834866875306
 20
184.4779040923593
 30
0.0
 10
122.0812831913118
 20
184.5169333603454
 30
0.0
 10
121.7735995539895
 20
184.5476961279931
 30
0.0
 10
121.3450307143065
 20
184.600064923672
 30
0.0
 10
120.724589648469
 20
184.7035334515747
 30
0.0
 10
120.0960533330759
 20
184.8390002488118
 30
0.0
 10
119.6201298865912
 20
184.964871682638
 30
0.0
 10
119.3347834736431
 20
185.0488364590419
 30
0.0
 10
118.9699790113336
 20
185.1661434548932
 30
0.0
 10
118.9007526433517
 20
185.1901619784027
 30
0.0
 10
118.8468062786785
 20
185.2088790087183
 30
0.0
  0
SPLINE
  5
107
330
1F
100
AcDbEntity
  8
0
  6
Continuous
 62
     8
370
    18
100
AcDbSpline
210
0.0
220
0.0
230
1.0
 70
     8
 71
     3
 72
    13
 73
     9
 74
     0
 42
0.000000001
 43
0.00000001
 40
0.0
 40
0.0
 40
0.0
 40
0.0
 40
0.0006648665179746
 40
0.157975720029516
 40
0.3210949530585621
 40
0.4900287574835774
 40
0.7079050861626011
 40
1.0
 40
1.0
 40
1.0
 40
1.0
 10
127.7732057974629
 20
185.2090247898545
 30
0.0
 10
127.7733408565962
 20
185.2090696150556
 30
0.0
 10
127.8054316045259
 20
185.2197203144435
 30
0.0
 10
127.7364359004751
 20
185.1961828448222
 30
0.0
 10
127.6578900724674
 20
185.1691260215422
 30
0.0
 10
127.4665225371666
 20
185.1074228467213
 30
0.0
 10
127.1461812927543
 20
185.0035825407736
 30
0.0
 10
126.7876960036261
 20
184.9110086271629
 30
0.0
 10
126.5823673087703
 20
184.8579853053256
 30
0.0
  0
ARC
  5
108
330
1F
100
AcDbEntity
  8
0
  6
Continuous
 62
     8
370
    18
100
AcDbCircle
 10
123.3097865815
 20
205.9355714223
 30
0.0
 40
21.8
100
AcDbArc
 50
305.0028850096
 51
234.9691341278
  0
ENDSEC
  0
SECTION
  2
OBJECTS
  0
DICTIONARY
  5
C
330
0
100
AcDbDictionary
281
     1
  3
ACAD_GROUP
350
D
  3
ACAD_LAYOUT
350
1A
  3
ACAD_MLINESTYLE
350
17
  3
ACAD_PLOTSETTINGS
350
19
  3
ACAD_PLOTSTYLENAME
350
E
  3
ACAD_SCALELIST
350
47
  0
DICTIONARY
  5
D
102
{ACAD_REACTORS
330
C
102
}
330
C
100
AcDbDictionary
281
     1
  0
DICTIONARY
  5
1A
102
{ACAD_REACTORS
330
C
102
}
330
C
100
AcDbDictionary
281
     1
  3
Layout1
350
1E
  3
Layout2
350
26
  3
Model
350
22
  0
DICTIONARY
  5
17
102
{ACAD_REACTORS
330
C
102
}
330
C
100
AcDbDictionary
281
     1
  3
Standard
350
18
  0
DICTIONARY
  5
19
102
{ACAD_REACTORS
330
C
102
}
330
C
100
AcDbDictionary
281
     1
  0
ACDBDICTIONARYWDFLT
  5
E
102
{ACAD_REACTORS
330
C
102
}
330
C
100
AcDbDictionary
281
     1
  3
Normal
350
F
100
AcDbDictionaryWithDefault
340
F
  0
DICTIONARY
  5
47
102
{ACAD_REACTORS
330
C
102
}
330
C
100
AcDbDictionary
281
     1
  3
A0
350
48
  3
A1
350
49
  3
A2
350
4A
  3
A3
350
4B
  3
A4
350
4C
  3
A5
350
4D
  3
A6
350
4E
  3
A7
350
4F
  3
A8
350
50
  3
A9
350
51
  3
B0
350
52
  3
B1
350
53
  3
B2
350
54
  3
B3
350
55
  3
B4
350
56
  3
B5
350
57
  3
B6
350
58
  3
B7
350
59
  3
B8
350
5A
  3
B9
350
5B
  3
C0
350
5C
  3
C1
350
5D
  3
C2
350
5E
  3
C3
350
5F
  3
C4
350
60
  3
C5
350
61
  3
C6
350
62
  3
C7
350
63
  3
C8
350
64
  3
C9
350
65
  3
D0
350
66
  3
D1
350
67
  3
D2
350
68
  0
LAYOUT
  5
1E
102
{ACAD_REACTORS
330
1A
102
}
330
1A
100
AcDbPlotSettings
  1

  2
none_device
  4

  6

 40
0.0
 41
0.0
 42
0.0
 43
0.0
 44
0.0
 45
0.0
 46
0.0
 47
0.0
 48
0.0
 49
0.0
140
0.0
141
0.0
142
1.0
143
1.0
 70
   688
 72
     1
 73
     0
 74
     5
  7

 75
    16
147
1.0
148
0.0
149
0.0
100
AcDbLayout
  1
Layout1
 70
     1
 71
     1
 10
0.0
 20
0.0
 11
420.0
 21
297.0
 12
0.0
 22
0.0
 32
0.0
 14
1.0000000000E+20
 24
1.0000000000E+20
 34
1.0000000000E+20
 15
-1.0000000000E+20
 25
-1.0000000000E+20
 35
-1.0000000000E+20
146
0.0
 13
0.0
 23
0.0
 33
0.0
 16
1.0
 26
0.0
 36
0.0
 17
0.0
 27
1.0
 37
0.0
 76
     0
330
1B
  0
LAYOUT
  5
26
102
{ACAD_REACTORS
330
1A
102
}
330
1A
100
AcDbPlotSettings
  1

  2
none_device
  4

  6

 40
0.0
 41
0.0
 42
0.0
 43
0.0
 44
0.0
 45
0.0
 46
0.0
 47
0.0
 48
0.0
 49
0.0
140
0.0
141
0.0
142
1.0
143
1.0
 70
   688
 72
     1
 73
     0
 74
     5
  7

 75
    16
147
1.0
148
0.0
149
0.0
100
AcDbLayout
  1
Layout2
 70
     1
 71
     2
 10
0.0
 20
0.0
 11
0.0
 21
0.0
 12
0.0
 22
0.0
 32
0.0
 14
0.0
 24
0.0
 34
0.0
 15
0.0
 25
0.0
 35
0.0
146
0.0
 13
0.0
 23
0.0
 33
0.0
 16
1.0
 26
0.0
 36
0.0
 17
0.0
 27
1.0
 37
0.0
 76
     0
330
23
  0
LAYOUT
  5
22
102
{ACAD_REACTORS
330
1A
102
}
330
1A
100
AcDbPlotSettings
  1

  2
none_device
  4
Letter_(8.50_x_11.00_Inches)
  6

 40
6.35
 41
6.35
 42
6.35000508
 43
6.35000508
 44
215.9
 45
279.4
 46
0.0
 47
0.0
 48
0.0
 49
0.0
140
0.0
141
0.0
142
1.0
143
1.0
 70
  1712
 72
     1
 73
     0
 74
     0
  7

 75
     0
147
1.0
148
0.0
149
0.0
100
AcDbLayout
  1
Model
 70
     1
 71
     0
 10
0.0
 20
0.0
 11
594.0
 21
841.0
 12
0.0
 22
0.0
 32
0.0
 14
0.0
 24
0.0
 34
0.0
 15
594.0
 25
841.0
 35
0.0
146
0.0
 13
0.0
 23
0.0
 33
0.0
 16
1.0
 26
0.0
 36
0.0
 17
0.0
 27
1.0
 37
0.0
 76
     0
330
1F
331
29
  0
MLINESTYLE
  5
18
102
{ACAD_REACTORS
330
17
102
}
330
17
100
AcDbMlineStyle
  2
Standard
 70
     0
  3

 62
   256
 51
90.0
 52
90.0
 71
     2
 49
0.5
 62
   256
  6
BYLAYER
 49
-0.5
 62
   256
  6
BYLAYER
  0
ACDBPLACEHOLDER
  5
F
102
{ACAD_REACTORS
330
E
102
}
330
E
  0
SCALE
  5
48
102
{ACAD_REACTORS
330
47
102
}
330
47
100
AcDbScale
 70
     0
300
1:1
140
1.0
141
1.0
290
     1
  0
SCALE
  5
49
102
{ACAD_REACTORS
330
47
102
}
330
47
100
AcDbScale
 70
     0
300
1:2
140
1.0
141
2.0
290
     0
  0
SCALE
  5
4A
102
{ACAD_REACTORS
330
47
102
}
330
47
100
AcDbScale
 70
     0
300
1:4
140
1.0
141
4.0
290
     0
  0
SCALE
  5
4B
102
{ACAD_REACTORS
330
47
102
}
330
47
100
AcDbScale
 70
     0
300
1:5
140
1.0
141
5.0
290
     0
  0
SCALE
  5
4C
102
{ACAD_REACTORS
330
47
102
}
330
47
100
AcDbScale
 70
     0
300
1:8
140
1.0
141
8.0
290
     0
  0
SCALE
  5
4D
102
{ACAD_REACTORS
330
47
102
}
330
47
100
AcDbScale
 70
     0
300
1:10
140
1.0
141
10.0
290
     0
  0
SCALE
  5
4E
102
{ACAD_REACTORS
330
47
102
}
330
47
100
AcDbScale
 70
     0
300
1:16
140
1.0
141
16.0
290
     0
  0
SCALE
  5
4F
102
{ACAD_REACTORS
330
47
102
}
330
47
100
AcDbScale
 70
     0
300
1:20
140
1.0
141
20.0
290
     0
  0
SCALE
  5
50
102
{ACAD_REACTORS
330
47
102
}
330
47
100
AcDbScale
 70
     0
300
1:30
140
1.0
141
30.0
290
     0
  0
SCALE
  5
51
102
{ACAD_REACTORS
330
47
102
}
330
47
100
AcDbScale
 70
     0
300
1:40
140
1.0
141
40.0
290
     0
  0
SCALE
  5
52
102
{ACAD_REACTORS
330
47
102
}
330
47
100
AcDbScale
 70
     0
300
1:50
140
1.0
141
50.0
290
     0
  0
SCALE
  5
53
102
{ACAD_REACTORS
330
47
102
}
330
47
100
AcDbScale
 70
     0
300
1:100
140
1.0
141
100.0
290
     0
  0
SCALE
  5
54
102
{ACAD_REACTORS
330
47
102
}
330
47
100
AcDbScale
 70
     0
300
2:1
140
2.0
141
1.0
290
     0
  0
SCALE
  5
55
102
{ACAD_REACTORS
330
47
102
}
330
47
100
AcDbScale
 70
     0
300
4:1
140
4.0
141
1.0
290
     0
  0
SCALE
  5
56
102
{ACAD_REACTORS
330
47
102
}
330
47
100
AcDbScale
 70
     0
300
8:1
140
8.0
141
1.0
290
     0
  0
SCALE
  5
57
102
{ACAD_REACTORS
330
47
102
}
330
47
100
AcDbScale
 70
     0
300
10:1
140
10.0
141
1.0
290
     0
  0
SCALE
  5
58
102
{ACAD_REACTORS
330
47
102
}
330
47
100
AcDbScale
 70
     0
300
100:1
140
100.0
141
1.0
290
     0
  0
SCALE
  5
59
102
{ACAD_REACTORS
330
47
102
}
330
47
100
AcDbScale
 70
     0
300
1/128" = 1'-0"
140
0.0078125
141
12.0
290
     0
  0
SCALE
  5
5A
102
{ACAD_REACTORS
330
47
102
}
330
47
100
AcDbScale
 70
     0
300
1/64" = 1'-0"
140
0.015625
141
12.0
290
     0
  0
SCALE
  5
5B
102
{ACAD_REACTORS
330
47
102
}
330
47
100
AcDbScale
 70
     0
300
1/32" = 1'-0"
140
0.03125
141
12.0
290
     0
  0
SCALE
  5
5C
102
{ACAD_REACTORS
330
47
102
}
330
47
100
AcDbScale
 70
     0
300
1/16" = 1'-0"
140
0.0625
141
12.0
290
     0
  0
SCALE
  5
5D
102
{ACAD_REACTORS
330
47
102
}
330
47
100
AcDbScale
 70
     0
300
3/32" = 1'-0"
140
0.09375
141
12.0
290
     0
  0
SCALE
  5
5E
102
{ACAD_REACTORS
330
47
102
}
330
47
100
AcDbScale
 70
     0
300
1/8" = 1'-0"
140
0.125
141
12.0
290
     0
  0
SCALE
  5
5F
102
{ACAD_REACTORS
330
47
102
}
330
47
100
AcDbScale
 70
     0
300
3/16" = 1'-0"
140
0.1875
141
12.0
290
     0
  0
SCALE
  5
60
102
{ACAD_REACTORS
330
47
102
}
330
47
100
AcDbScale
 70
     0
300
1/4" = 1'-0"
140
0.25
141
12.0
290
     0
  0
SCALE
  5
61
102
{ACAD_REACTORS
330
47
102
}
330
47
100
AcDbScale
 70
     0
300
3/8" = 1'-0"
140
0.375
141
12.0
290
     0
  0
SCALE
  5
62
102
{ACAD_REACTORS
330
47
102
}
330
47
100
AcDbScale
 70
     0
300
1/2" = 1'-0"
140
0.5
141
12.0
290
     0
  0
SCALE
  5
63
102
{ACAD_REACTORS
330
47
102
}
330
47
100
AcDbScale
 70
     0
300
3/4" = 1'-0"
140
0.75
141
12.0
290
     0
  0
SCALE
  5
64
102
{ACAD_REACTORS
330
47
102
}
330
47
100
AcDbScale
 70
     0
300
1" = 1'-0"
140
1.0
141
12.0
290
     0
  0
SCALE
  5
65
102
{ACAD_REACTORS
330
47
102
}
330
47
100
AcDbScale
 70
     0
300
1-1/2" = 1'-0"
140
1.5
141
12.0
290
     0
  0
SCALE
  5
66
102
{ACAD_REACTORS
330
47
102
}
330
47
100
AcDbScale
 70
     0
300
3" = 1'-0"
140
3.0
141
12.0
290
     0
  0
SCALE
  5
67
102
{ACAD_REACTORS
330
47
102
}
330
47
100
AcDbScale
 70
     0
300
6" = 1'-0"
140
6.0
141
12.0
290
     0
  0
SCALE
  5
68
102
{ACAD_REACTORS
330
47
102
}
330
47
100
AcDbScale
 70
     0
300
1'-0" = 1'-0"
140
12.0
141
12.0
290
     0
  0
ENDSEC
  0
EOF
