  0
SECTION
  2
HEADER
  9
$ACADVER
  1
AC1024
  9
$ACADMAINTVER
 70
     6
  9
$DWGCODEPAGE
  3
ANSI_1252
  9
$INSBASE
 10
0.0
 20
0.0
 30
0.0
  9
$EXTMIN
 10
0.0
 20
0.0
 30
0.0
  9
$EXTMAX
 10
594.0
 20
841.0
 30
0.0
  9
$LIMMIN
 10
0.0
 20
0.0
  9
$LIMMAX
 10
594.0
 20
841.0
  9
$ORTHOMODE
 70
     0
  9
$REGENMODE
 70
     1
  9
$FILLMODE
 70
     1
  9
$QTEXTMODE
 70
     0
  9
$MIRRTEXT
 70
     1
  9
$LTSCALE
 40
1.0
  9
$ATTMODE
 70
     1
  9
$TEXTSIZE
 40
10.0
  9
$TRACEWID
 40
1.0
  9
$TEXTSTYLE
  7
Standard
  9
$CLAYER
  8
0
  9
$CELTYPE
  6
ByLayer
  9
$CECOLOR
 62
   256
  9
$CELTSCALE
 40
1.0
  9
$DISPSILH
 70
     0
  9
$DIMSCALE
 40
1.0
  9
$DIMASZ
 40
2.5
  9
$DIMEXO
 40
0.0
  9
$DIMDLI
 40
3.75
  9
$DIMRND
 40
0.0
  9
$DIMDLE
 40
0.0
  9
$DIMEXE
 40
1.0
  9
$DIMTP
 40
0.0
  9
$DIMTM
 40
0.0
  9
$DIMTXT
 40
3.5
  9
$DIMCEN
 40
2.5
  9
$DIMTSZ
 40
0.0
  9
$DIMTOL
 70
     0
  9
$DIMLIM
 70
     0
  9
$DIMTIH
 70
     1
  9
$DIMTOH
 70
     1
  9
$DIMSE1
 70
     0
  9
$DIMSE2
 70
     0
  9
$DIMTAD
 70
     1
  9
$DIMZIN
 70
     0
  9
$DIMBLK
  1

  9
$DIMASO
 70
     1
  9
$DIMSHO
 70
     1
  9
$DIMPOST
  1

  9
$DIMAPOST
  1

  9
$DIMALT
 70
     0
  9
$DIMALTD
 70
     3
  9
$DIMALTF
 40
0.0393700787
  9
$DIMLFAC
 40
1.0
  9
$DIMTOFL
 70
     1
  9
$DIMTVP
 40
0.0
  9
$DIMTIX
 70
     0
  9
$DIMSOXD
 70
     0
  9
$DIMSAH
 70
     0
  9
$DIMBLK1
  1

  9
$DIMBLK2
  1

  9
$DIMSTYLE
  2
ISO-25
  9
$DIMCLRD
 70
     0
  9
$DIMCLRE
 70
     0
  9
$DIMCLRT
 70
     0
  9
$DIMTFAC
 40
1.0
  9
$DIMGAP
 40
1.5
  9
$DIMJUST
 70
     0
  9
$DIMSD1
 70
     0
  9
$DIMSD2
 70
     0
  9
$DIMTOLJ
 70
     0
  9
$DIMTZIN
 70
     0
  9
$DIMALTZ
 70
     0
  9
$DIMALTTZ
 70
     0
  9
$DIMUPT
 70
     0
  9
$DIMDEC
 70
     2
  9
$DIMTDEC
 70
     2
  9
$DIMALTU
 70
     2
  9
$DIMALTTD
 70
     3
  9
$DIMTXSTY
  7
Standard
  9
$DIMAUNIT
 70
     0
  9
$DIMADEC
 70
     2
  9
$DIMALTRND
 40
0.0
  9
$DIMAZIN
 70
     0
  9
$DIMDSEP
 70
    44
  9
$DIMATFIT
 70
     3
  9
$DIMFRAC
 70
     0
  9
$DIMLDRBLK
  1

  9
$DIMLUNIT
 70
     2
  9
$DIMLWD
 70
    -2
  9
$DIMLWE
 70
    -2
  9
$DIMTMOVE
 70
     0
  9
$DIMFXL
 40
1.0
  9
$DIMFXLON
 70
     0
  9
$DIMJOGANG
 40
0.7853981634
  9
$DIMTFILL
 70
     0
  9
$DIMTFILLCLR
 70
     0
  9
$DIMARCSYM
 70
     0
  9
$DIMLTYPE
  6

  9
$DIMLTEX1
  6

  9
$DIMLTEX2
  6

  9
$DIMTXTDIRECTION
 70
     0
  9
$LUNITS
 70
     2
  9
$LUPREC
 70
     2
  9
$SKETCHINC
 40
1.0
  9
$FILLETRAD
 40
10.0
  9
$AUNITS
 70
     0
  9
$AUPREC
 70
     2
  9
$MENU
  1
.
  9
$ELEVATION
 40
0.0
  9
$PELEVATION
 40
0.0
  9
$THICKNESS
 40
0.0
  9
$LIMCHECK
 70
     0
  9
$CHAMFERA
 40
10.0
  9
$CHAMFERB
 40
10.0
  9
$CHAMFERC
 40
20.0
  9
$CHAMFERD
 40
0.0
  9
$SKPOLY
 70
     0
  9
$TDCREATE
 40
2456191.419284143
  9
$TDUCREATE
 40
2456191.33595081
  9
$TDUPDATE
 40
2456191.419284155
  9
$TDUUPDATE
 40
2456191.335950822
  9
$TDINDWG
 40
0.0000000116
  9
$TDUSRTIMER
 40
0.0000000116
  9
$USRTIMER
 70
     1
  9
$ANGBASE
 50
0.0
  9
$ANGDIR
 70
     0
  9
$PDMODE
 70
     0
  9
$PDSIZE
 40
-1.0
  9
$PLINEWID
 40
0.0
  9
$SPLFRAME
 70
     0
  9
$SPLINETYPE
 70
     6
  9
$SPLINESEGS
 70
     8
  9
$HANDSEED
  5
1C7
  9
$SURFTAB1
 70
     6
  9
$SURFTAB2
 70
     6
  9
$SURFTYPE
 70
     6
  9
$SURFU
 70
     6
  9
$SURFV
 70
     6
  9
$UCSBASE
  2

  9
$UCSNAME
  2

  9
$UCSORG
 10
0.0
 20
0.0
 30
0.0
  9
$UCSXDIR
 10
1.0
 20
0.0
 30
0.0
  9
$UCSYDIR
 10
0.0
 20
1.0
 30
0.0
  9
$UCSORTHOREF
  2

  9
$UCSORTHOVIEW
 70
     0
  9
$UCSORGTOP
 10
0.0
 20
0.0
 30
0.0
  9
$UCSORGBOTTOM
 10
0.0
 20
0.0
 30
0.0
  9
$UCSORGLEFT
 10
0.0
 20
0.0
 30
0.0
  9
$UCSORGRIGHT
 10
0.0
 20
0.0
 30
0.0
  9
$UCSORGFRONT
 10
0.0
 20
0.0
 30
0.0
  9
$UCSORGBACK
 10
0.0
 20
0.0
 30
0.0
  9
$PUCSBASE
  2

  9
$PUCSNAME
  2

  9
$PUCSORG
 10
0.0
 20
0.0
 30
0.0
  9
$PUCSXDIR
 10
1.0
 20
0.0
 30
0.0
  9
$PUCSYDIR
 10
0.0
 20
1.0
 30
0.0
  9
$PUCSORTHOREF
  2

  9
$PUCSORTHOVIEW
 70
     0
  9
$PUCSORGTOP
 10
0.0
 20
0.0
 30
0.0
  9
$PUCSORGBOTTOM
 10
0.0
 20
0.0
 30
0.0
  9
$PUCSORGLEFT
 10
0.0
 20
0.0
 30
0.0
  9
$PUCSORGRIGHT
 10
0.0
 20
0.0
 30
0.0
  9
$PUCSORGFRONT
 10
0.0
 20
0.0
 30
0.0
  9
$PUCSORGBACK
 10
0.0
 20
0.0
 30
0.0
  9
$USERI1
 70
     0
  9
$USERI2
 70
     0
  9
$USERI3
 70
     0
  9
$USERI4
 70
     0
  9
$USERI5
 70
     0
  9
$USERR1
 40
0.0
  9
$USERR2
 40
0.0
  9
$USERR3
 40
0.0
  9
$USERR4
 40
0.0
  9
$USERR5
 40
0.0
  9
$WORLDVIEW
 70
     1
  9
$SHADEDGE
 70
     3
  9
$SHADEDIF
 70
    70
  9
$TILEMODE
 70
     1
  9
$MAXACTVP
 70
    64
  9
$PINSBASE
 10
0.0
 20
0.0
 30
0.0
  9
$PLIMCHECK
 70
     0
  9
$PEXTMIN
 10
1.0000000000E+20
 20
1.0000000000E+20
 30
1.0000000000E+20
  9
$PEXTMAX
 10
-1.0000000000E+20
 20
-1.0000000000E+20
 30
-1.0000000000E+20
  9
$PLIMMIN
 10
0.0
 20
0.0
  9
$PLIMMAX
 10
420.0
 20
297.0
  9
$UNITMODE
 70
     0
  9
$VISRETAIN
 70
     1
  9
$PLINEGEN
 70
     0
  9
$PSLTSCALE
 70
     1
  9
$TREEDEPTH
 70
  3020
  9
$CMLSTYLE
  2
Standard
  9
$CMLJUST
 70
     0
  9
$CMLSCALE
 40
20.0
  9
$PROXYGRAPHICS
 70
     1
  9
$MEASUREMENT
 70
     1
  9
$CELWEIGHT
370
    -1
  9
$ENDCAPS
280
     0
  9
$JOINSTYLE
280
     0
  9
$LWDISPLAY
290
     1
  9
$INSUNITS
 70
     4
  9
$HYPERLINKBASE
  1

  9
$STYLESHEET
  1

  9
$XEDIT
290
     1
  9
$CEPSNTYPE
380
     0
  9
$PSTYLEMODE
290
     1
  9
$FINGERPRINTGUID
  2
{25075030-07FD-4A13-9741-B4FB94C5EF2D}
  9
$VERSIONGUID
  2
{FAEB1C32-E019-11D5-929B-00C0DF256EC4}
  9
$EXTNAMES
290
     1
  9
$PSVPSCALE
 40
0.0
  9
$OLESTARTUP
290
     0
  9
$SORTENTS
280
   127
  9
$INDEXCTL
280
     0
  9
$HIDETEXT
280
     1
  9
$XCLIPFRAME
280
     2
  9
$HALOGAP
280
     0
  9
$OBSCOLOR
 70
   257
  9
$OBSLTYPE
280
     0
  9
$INTERSECTIONDISPLAY
280
     0
  9
$INTERSECTIONCOLOR
 70
   257
  9
$DIMASSOC
280
     2
  9
$PROJECTNAME
  1

  9
$CAMERADISPLAY
290
     0
  9
$LENSLENGTH
 40
50.0
  9
$CAMERAHEIGHT
 40
0.0
  9
$STEPSPERSEC
 40
2.0
  9
$STEPSIZE
 40
6.0
  9
$3DDWFPREC
 40
2.0
  9
$PSOLWIDTH
 40
5.0
  9
$PSOLHEIGHT
 40
80.0
  9
$LOFTANG1
 40
1.5707963268
  9
$LOFTANG2
 40
1.5707963268
  9
$LOFTMAG1
 40
0.0
  9
$LOFTMAG2
 40
0.0
  9
$LOFTPARAM
 70
     7
  9
$LOFTNORMALS
280
     1
  9
$LATITUDE
 40
37.795
  9
$LONGITUDE
 40
-122.394
  9
$NORTHDIRECTION
 40
0.0
  9
$TIMEZONE
 70
 -8000
  9
$LIGHTGLYPHDISPLAY
280
     1
  9
$TILEMODELIGHTSYNCH
280
     1
  9
$SOLIDHIST
280
     1
  9
$SHOWHIST
280
     1
  9
$DWFFRAME
280
     2
  9
$DGNFRAME
280
     2
  9
$REALWORLDSCALE
290
     1
  9
$INTERFERECOLOR
 62
   256
  9
$CSHADOW
280
     0
  9
$SHADOWPLANELOCATION
 40
0.0
  0
ENDSEC
  0
SECTION
  2
CLASSES
  0
CLASS
  1
ACDBDICTIONARYWDFLT
  2
AcDbDictionaryWithDefault
  3
ObjectDBX Classes
 90
        0
 91
        4
280
     0
281
     0
  0
CLASS
  1
VISUALSTYLE
  2
AcDbVisualStyle
  3
ObjectDBX Classes
 90
     4095
 91
        4
280
     0
281
     0
  0
CLASS
  1
MATERIAL
  2
AcDbMaterial
  3
ObjectDBX Classes
 90
     1153
 91
        4
280
     0
281
     0
  0
ENDSEC
  0
SECTION
  2
TABLES
  0
TABLE
  2
VPORT
  5
8
330
0
100
AcDbSymbolTable
 70
     1
  0
VPORT
  5
29
330
8
100
AcDbSymbolTableRecord
100
AcDbViewportTableRecord
  2
*Active
 70
     0
 10
0.0
 20
0.0
 11
1.0
 21
1.0
 12
297.0
 22
420.5
 13
0.0
 23
0.0
 14
10.0
 24
10.0
 15
10.0
 25
10.0
 16
0.0
 26
0.0
 36
1.0
 17
0.0
 27
0.0
 37
0.0
 40
841.0
 41
0.7063020214
 42
50.0
 43
0.0
 44
0.0
 50
0.0
 51
0.0
 71
     0
 72
  2000
 73
     1
 74
     3
 75
     0
 76
     0
 77
     0
 78
     0
281
     0
 65
     1
110
0.0
120
0.0
130
0.0
111
1.0
121
0.0
131
0.0
112
0.0
122
1.0
132
0.0
 79
     0
146
0.0
 60
     3
 61
     5
292
     1
282
     1
141
0.0
142
0.0
 63
   250
  0
ENDTAB
  0
TABLE
  2
LTYPE
  5
5
330
0
100
AcDbSymbolTable
 70
     6
  0
LTYPE
  5
14
330
5
100
AcDbSymbolTableRecord
100
AcDbLinetypeTableRecord
  2
ByBlock
 70
     0
  3

 72
    65
 73
     0
 40
0.0
  0
LTYPE
  5
15
330
5
100
AcDbSymbolTableRecord
100
AcDbLinetypeTableRecord
  2
ByLayer
 70
     0
  3

 72
    65
 73
     0
 40
0.0
  0
LTYPE
  5
16
330
5
100
AcDbSymbolTableRecord
100
AcDbLinetypeTableRecord
  2
Continuous
 70
     0
  3
Solid line
 72
    65
 73
     0
 40
0.0
  0
LTYPE
  5
3F
330
5
100
AcDbSymbolTableRecord
100
AcDbLinetypeTableRecord
  2
HIDDEN
 70
     0
  3
Hidden __ __ __ __ __ __ __ __ __ __ __ __ __ __
 72
    65
 73
     2
 40
1.905
 49
1.27
 74
     0
 49
-0.635
 74
     0
  0
LTYPE
  5
40
330
5
100
AcDbSymbolTableRecord
100
AcDbLinetypeTableRecord
  2
PHANTOM
 70
     0
  3
Phantom ______  __  __  ______  __  __  ______
 72
    65
 73
     6
 40
12.7
 49
6.35
 74
     0
 49
-1.27
 74
     0
 49
1.27
 74
     0
 49
-1.27
 74
     0
 49
1.27
 74
     0
 49
-1.27
 74
     0
  0
LTYPE
  5
41
330
5
100
AcDbSymbolTableRecord
100
AcDbLinetypeTableRecord
  2
CENTER
 70
     0
  3
Center ____ _ ____ _ ____ _ ____ _ ____ _ ____
 72
    65
 73
     4
 40
10.16
 49
6.35
 74
     0
 49
-1.27
 74
     0
 49
1.27
 74
     0
 49
-1.27
 74
     0
  0
LTYPE
  5
42
330
5
100
AcDbSymbolTableRecord
100
AcDbLinetypeTableRecord
  2
CENTERX2
 70
     0
  3
Center (2x) ________  __  ________  __  _____
 72
    65
 73
     4
 40
20.32
 49
12.7
 74
     0
 49
-2.54
 74
     0
 49
2.54
 74
     0
 49
-2.54
 74
     0
  0
LTYPE
  5
43
330
5
100
AcDbSymbolTableRecord
100
AcDbLinetypeTableRecord
  2
DOT2
 70
     0
  3
Dot (.5x) ........................................
 72
    65
 73
     2
 40
0.635
 49
0.0
 74
     0
 49
-0.635
 74
     0
  0
ENDTAB
  0
TABLE
  2
LAYER
  5
2
330
0
100
AcDbSymbolTable
 70
     1
  0
LAYER
  5
10
330
2
100
AcDbSymbolTableRecord
100
AcDbLayerTableRecord
  2
0
 70
     0
 62
     7
  6
Continuous
370
    -3
390
F
347
3E
  0
ENDTAB
  0
TABLE
  2
STYLE
  5
3
330
0
100
AcDbSymbolTable
 70
     3
  0
STYLE
  5
11
330
3
100
AcDbSymbolTableRecord
100
AcDbTextStyleTableRecord
  2
Standard
 70
     0
 40
0.0
 41
1.0
 50
0.0
 71
     0
 42
2.5
  3
txt
  4

  0
STYLE
  5
47
330
3
100
AcDbSymbolTableRecord
100
AcDbTextStyleTableRecord
  2
SLDTEXTSTYLE0
 70
     0
 40
0.0
 41
0.96
 50
0.0
 71
     0
 42
0.2
  3
ISOCP3
  4

  0
STYLE
  5
5E
330
3
100
AcDbSymbolTableRecord
100
AcDbTextStyleTableRecord
  2
SLDTEXTSTYLE1
 70
     0
 40
0.0
 41
0.605
 50
0.0
 71
     0
 42
0.2
  3
TXT
  4

  0
ENDTAB
  0
TABLE
  2
VIEW
  5
6
330
0
100
AcDbSymbolTable
 70
     0
  0
ENDTAB
  0
TABLE
  2
UCS
  5
7
330
0
100
AcDbSymbolTable
 70
     0
  0
ENDTAB
  0
TABLE
  2
APPID
  5
9
330
0
100
AcDbSymbolTable
 70
     1
  0
APPID
  5
12
330
9
100
AcDbSymbolTableRecord
100
AcDbRegAppTableRecord
  2
ACAD
 70
     0
  0
ENDTAB
  0
TABLE
  2
DIMSTYLE
  5
A
330
0
100
AcDbSymbolTable
 70
     2
100
AcDbDimStyleTable
  0
DIMSTYLE
105
27
330
A
100
AcDbSymbolTableRecord
100
AcDbDimStyleTableRecord
  2
ISO-25
 70
     0
 41
2.5
 42
0.625
 43
3.75
 44
1.25
 73
     0
 74
     0
 77
     1
 78
     8
140
2.5
141
2.5
143
0.0393700787
147
0.625
171
     3
172
     1
178
     0
271
     2
272
     2
274
     3
278
    44
283
     0
284
     8
340
11
  0
DIMSTYLE
105
48
102
{ACAD_REACTORS
330
46
330
53
102
}
330
A
100
AcDbSymbolTableRecord
100
AcDbDimStyleTableRecord
  2
SLDDIMSTYLE0
 70
     0
 41
2.5
 44
0.0
 45
0.000000001
 73
     0
 74
     0
 77
     1
 78
    12
 79
     3
140
6.0
147
1.5
173
     1
178
     0
271
     2
272
     2
276
     2
284
    12
340
47
  0
ENDTAB
  0
TABLE
  2
BLOCK_RECORD
  5
1
330
0
100
AcDbSymbolTable
 70
     3
  0
BLOCK_RECORD
  5
1F
330
1
100
AcDbSymbolTableRecord
100
AcDbBlockTableRecord
  2
*Model_Space
340
22
 70
     0
280
     1
281
     0
  0
BLOCK_RECORD
  5
1B
330
1
100
AcDbSymbolTableRecord
100
AcDbBlockTableRecord
  2
*Paper_Space
340
1E
 70
     0
280
     1
281
     0
  0
BLOCK_RECORD
  5
23
330
1
100
AcDbSymbolTableRecord
100
AcDbBlockTableRecord
  2
*Paper_Space0
340
26
 70
     0
280
     1
281
     0
  0
BLOCK_RECORD
  5
49
330
1
100
AcDbSymbolTableRecord
100
AcDbBlockTableRecord
  2
*D1
340
0
 70
     0
280
     1
281
     0
  0
BLOCK_RECORD
  5
54
330
1
100
AcDbSymbolTableRecord
100
AcDbBlockTableRecord
  2
*D2
340
0
 70
     0
280
     1
281
     0
  0
ENDTAB
  0
ENDSEC
  0
SECTION
  2
BLOCKS
  0
BLOCK
  5
20
330
1F
100
AcDbEntity
  8
0
100
AcDbBlockBegin
  2
*Model_Space
 70
     0
 10
0.0
 20
0.0
 30
0.0
  3
*Model_Space
  1

  0
ENDBLK
  5
21
330
1F
100
AcDbEntity
  8
0
100
AcDbBlockEnd
  0
BLOCK
  5
1C
330
1B
100
AcDbEntity
 67
     1
  8
0
100
AcDbBlockBegin
  2
*Paper_Space
 70
     0
 10
0.0
 20
0.0
 30
0.0
  3
*Paper_Space
  1

  0
ENDBLK
  5
1D
330
1B
100
AcDbEntity
 67
     1
  8
0
100
AcDbBlockEnd
  0
BLOCK
  5
24
330
23
100
AcDbEntity
  8
0
100
AcDbBlockBegin
  2
*Paper_Space0
 70
     0
 10
0.0
 20
0.0
 30
0.0
  3
*Paper_Space0
  1

  0
ENDBLK
  5
25
330
23
100
AcDbEntity
  8
0
100
AcDbBlockEnd
  0
BLOCK
  5
4A
330
49
100
AcDbEntity
  8
0
100
AcDbBlockBegin
  2
*D1
 70
     1
 10
0.0
 20
0.0
 30
0.0
  3
*D1
  1

  0
SOLID
  5
4C
330
49
100
AcDbEntity
  8
0
  6
Continuous
 62
     7
370
     0
100
AcDbTrace
 10
42.7614395004
 20
152.0299240879
 30
0.0
 11
42.4614395004
 21
149.5299240879
 31
0.0
 12
43.0614395004
 22
149.5299240879
 32
0.0
 13
43.0614395004
 23
149.5299240879
 33
0.0
  0
SOLID
  5
4D
330
49
100
AcDbEntity
  8
0
  6
Continuous
 62
     7
370
     0
100
AcDbTrace
 10
42.7614395004
 20
52.0299240879
 30
0.0
 11
43.0614395004
 21
54.5299240879
 31
0.0
 12
42.4614395004
 22
54.5299240879
 32
0.0
 13
42.4614395004
 23
54.5299240879
 33
0.0
  0
LINE
  5
4E
330
49
100
AcDbEntity
  8
0
  6
Continuous
 62
     7
370
     0
100
AcDbLine
 10
56.6850079902
 20
152.0299240879
 30
0.0
 11
41.7614395004
 21
152.0299240879
 31
0.0
  0
LINE
  5
4F
330
49
100
AcDbEntity
  8
0
  6
Continuous
 62
     7
370
     0
100
AcDbLine
 10
56.6850079902
 20
52.0299240879
 30
0.0
 11
41.7614395004
 21
52.0299240879
 31
0.0
  0
LINE
  5
50
330
49
100
AcDbEntity
  8
0
  6
Continuous
 62
     7
370
     0
100
AcDbLine
 10
42.7614395004
 20
152.0299240879
 30
0.0
 11
42.7614395004
 21
52.0299240879
 31
0.0
  0
MTEXT
  5
51
330
49
100
AcDbEntity
  8
0
  6
Continuous
 62
     7
370
     0
100
AcDbMText
 10
35.0270332946
 20
91.6722208134
 30
0.1
 40
6.0
 41
0.0
 46
0.0
 71
     1
 72
     1
  1
100
  7
SLDTEXTSTYLE0
 11
-7.044195017643634E-15
 21
1.0
 31
0.0
 73
     1
 44
1.0
  0
MTEXT
  5
52
330
49
100
AcDbEntity
  8
0
  6
Continuous
 62
     7
370
     0
100
AcDbMText
 10
35.0270332946
 20
108.4388881795
 30
0.1
 40
6.0
 41
0.0
 46
0.0
 71
     1
 72
     1
  1
mm
  7
SLDTEXTSTYLE0
 11
-7.044195017643634E-15
 21
1.0
 31
0.0
 73
     1
 44
1.0
  0
ENDBLK
  5
4B
330
49
100
AcDbEntity
  8
0
100
AcDbBlockEnd
  0
BLOCK
  5
55
330
54
100
AcDbEntity
  8
0
100
AcDbBlockBegin
  2
*D2
 70
     1
 10
0.0
 20
0.0
 30
0.0
  3
*D2
  1

  0
SOLID
  5
57
330
54
100
AcDbEntity
  8
0
  6
Continuous
 62
     7
370
     0
100
AcDbTrace
 10
56.6850079902
 20
38.4602342313
 30
0.0
 11
59.1850079902
 21
38.1602342313
 31
0.0
 12
59.1850079902
 22
38.7602342313
 32
0.0
 13
59.1850079902
 23
38.7602342313
 33
0.0
  0
SOLID
  5
58
330
54
100
AcDbEntity
  8
0
  6
Continuous
 62
     7
370
     0
100
AcDbTrace
 10
156.6850079902
 20
38.4602342313
 30
0.0
 11
154.1850079902
 21
38.7602342313
 31
0.0
 12
154.1850079902
 22
38.1602342313
 32
0.0
 13
154.1850079902
 23
38.1602342313
 33
0.0
  0
LINE
  5
59
330
54
100
AcDbEntity
  8
0
  6
Continuous
 62
     7
370
     0
100
AcDbLine
 10
56.6850079902
 20
52.0299240879
 30
0.0
 11
56.6850079902
 21
37.4602342313
 31
0.0
  0
LINE
  5
5A
330
54
100
AcDbEntity
  8
0
  6
Continuous
 62
     7
370
     0
100
AcDbLine
 10
156.6850079902
 20
52.0299240879
 30
0.0
 11
156.6850079902
 21
37.4602342313
 31
0.0
  0
LINE
  5
5B
330
54
100
AcDbEntity
  8
0
  6
Continuous
 62
     7
370
     0
100
AcDbLine
 10
56.6850079902
 20
38.4602342313
 30
0.0
 11
156.6850079902
 21
38.4602342313
 31
0.0
  0
MTEXT
  5
5C
330
54
100
AcDbEntity
  8
0
  6
Continuous
 62
     7
370
     0
100
AcDbMText
 10
91.2668151533
 20
46.1946404371
 30
0.1
 40
6.0
 41
0.0
 46
0.0
 71
     1
 72
     1
  1
100
  7
SLDTEXTSTYLE0
 73
     1
 44
1.0
  0
MTEXT
  5
5D
330
54
100
AcDbEntity
  8
0
  6
Continuous
 62
     7
370
     0
100
AcDbMText
 10
108.0334825193
 20
46.1946404371
 30
0.1
 40
6.0
 41
0.0
 46
0.0
 71
     1
 72
     1
  1
mm
  7
SLDTEXTSTYLE0
 73
     1
 44
1.0
  0
ENDBLK
  5
56
330
54
100
AcDbEntity
  8
0
100
AcDbBlockEnd
  0
ENDSEC
  0
SECTION
  2
ENTITIES
  0
LINE
  5
44
330
1F
100
AcDbEntity
  8
0
  6
Continuous
 62
     7
370
     0
100
AcDbLine
 10
56.6850079902
 20
152.0299240879
 30
0.0
 11
56.6850079902
 21
52.0299240879
 31
0.0
  0
LINE
  5
45
330
1F
100
AcDbEntity
  8
0
  6
Continuous
 62
     7
370
     0
100
AcDbLine
 10
56.6850079902
 20
52.0299240879
 30
0.0
 11
156.6850079902
 21
52.0299240879
 31
0.0
  0
DIMENSION
  5
46
330
1F
100
AcDbEntity
  8
0
  6
Continuous
 62
     7
370
     0
100
AcDbDimension
280
     0
  2
*D1
 10
42.7614395004
 20
52.0299240879
 30
0.0
 11
42.7614395004
 21
105.4472211621
 31
0.0
 70
   160
  1
<>mm
 71
     2
 42
-1.0
 73
     0
 74
     0
 75
     0
  3
SLDDIMSTYLE0
100
AcDbAlignedDimension
 13
56.6850079902
 23
152.0299240879
 33
0.0
 14
56.6850079902
 24
52.0299240879
 34
0.0
 50
90.0
100
AcDbRotatedDimension
  0
DIMENSION
  5
53
330
1F
100
AcDbEntity
  8
0
  6
Continuous
 62
     7
370
     0
100
AcDbDimension
280
     0
  2
*D2
 10
156.6850079902
 20
38.4602342313
 30
0.0
 11
105.0418155019
 21
38.4602342313
 31
0.0
 70
   160
  1
<>mm
 71
     2
 42
-1.0
 73
     0
 74
     0
 75
     0
  3
SLDDIMSTYLE0
100
AcDbAlignedDimension
 13
56.6850079902
 23
52.0299240879
 33
0.0
 14
156.6850079902
 24
52.0299240879
 34
0.0
100
AcDbRotatedDimension
  0
MTEXT
  5
5F
330
1F
100
AcDbEntity
  8
0
  6
Continuous
 62
     7
370
     0
100
AcDbMText
 10
286.6150147214
 20
48.7810843307
 30
0.0
 40
10.0
 41
0.0
 46
0.0
 71
     1
 72
     1
  1
37 913 05 75
  7
SLDTEXTSTYLE1
 73
     1
 44
1.0
  0
MTEXT
  5
60
330
1F
100
AcDbEntity
  8
0
  6
Continuous
 62
     7
370
     0
100
AcDbMText
 10
412.8252631579
 20
48.4342449499
 30
0.0
 40
10.0
 41
0.0
 46
0.0
 71
     1
 72
     1
  1
KLUDI GmbH & Co KG
  7
SLDTEXTSTYLE1
 73
     1
 44
1.0
  0
LINE
  5
61
330
1F
100
AcDbEntity
  8
0
  6
Continuous
 62
     7
370
    15
100
AcDbLine
 10
167.9254035591
 20
476.7352965919
 30
0.0
 11
167.9254035591
 21
478.6876676583
 31
0.0
  0
LINE
  5
62
330
1F
100
AcDbEntity
  8
0
  6
Continuous
 62
     7
370
    15
100
AcDbLine
 10
139.8414056934
 20
478.6876615855
 30
0.0
 11
139.8414056934
 21
476.7352965919
 31
0.0
  0
LINE
  5
63
330
1F
100
AcDbEntity
  8
0
  6
Continuous
 62
     7
370
    15
100
AcDbLine
 10
164.7320436175
 20
468.4345141858
 30
0.0
 11
165.7182835258
 21
468.9913381697
 31
0.0
  0
LINE
  5
64
330
1F
100
AcDbEntity
  8
0
  6
Continuous
 62
     7
370
    15
100
AcDbLine
 10
165.9194046262
 20
469.2203709203
 30
0.0
 11
165.9194046262
 21
476.7242551083
 31
0.0
  0
LINE
  5
65
330
1F
100
AcDbEntity
  8
0
  6
Continuous
 62
     7
370
    15
100
AcDbLine
 10
141.8474046262
 20
476.7242551083
 30
0.0
 11
141.8474046262
 21
469.2203709203
 31
0.0
  0
LINE
  5
66
330
1F
100
AcDbEntity
  8
0
  6
Continuous
 62
     7
370
    15
100
AcDbLine
 10
142.0485257267
 20
468.9913381697
 30
0.0
 11
143.034765635
 21
468.4345141858
 31
0.0
  0
SPLINE
  5
67
330
1F
100
AcDbEntity
  8
0
  6
Continuous
 62
     7
370
    15
100
AcDbSpline
210
0.0
220
0.0
230
1.0
 70
     8
 71
     3
 72
    11
 73
     7
 74
     0
 42
0.00000001
 43
0.00000001
 40
0.0
 40
0.0
 40
0.0
 40
0.0
 40
0.1950414029735015
 40
0.4372122133042216
 40
0.7216313446051984
 40
1.0
 40
1.0
 40
1.0
 40
1.0
 10
153.8834046262481
 20
496.3457734073107
 30
0.0
 10
153.3189629213811
 20
496.3364945566254
 30
0.0
 10
152.0536889677292
 20
496.3156947326742
 30
0.0
 10
149.6082818846193
 20
496.1543041161964
 30
0.0
 10
146.836957944227
 20
495.9283379673505
 30
0.0
 10
144.935712709672
 20
495.7306098912441
 30
0.0
 10
143.9953101422564
 20
495.632808730699
 30
0.0
  0
SPLINE
  5
68
330
1F
100
AcDbEntity
  8
0
  6
Continuous
 62
     7
370
    15
100
AcDbSpline
210
0.0
220
0.0
230
1.0
 70
     8
 71
     3
 72
    13
 73
     9
 74
     0
 42
0.00000001
 43
0.00000001
 40
0.0
 40
0.0
 40
0.0
 40
0.0
 40
0.1561427992440627
 40
0.3045124796034749
 40
0.4412339880587277
 40
0.5678353821552483
 40
0.797127029656755
 40
1.0
 40
1.0
 40
1.0
 40
1.0
 10
164.1160939008977
 20
495.5982772024689
 30
0.0
 10
163.4809748223373
 20
495.6672320895684
 30
0.0
 10
162.2423542366155
 20
495.8017091436056
 30
0.0
 10
160.4532641376301
 20
495.9626955420127
 30
0.0
 10
158.841601404909
 20
496.0964328610611
 30
0.0
 10
157.0571464950069
 20
496.2194893012484
 30
0.0
 10
155.238566890635
 20
496.3219353052609
 30
0.0
 10
154.3163330055866
 20
496.3381644559071
 30
0.0
 10
153.8834046262481
 20
496.3457829787148
 30
0.0
  0
SPLINE
  5
69
330
1F
100
AcDbEntity
  8
0
  6
Continuous
 62
     7
370
    15
100
AcDbSpline
210
0.0
220
0.0
230
1.0
 70
     8
 71
     3
 72
    11
 73
     7
 74
     0
 42
0.00000001
 43
0.00000001
 40
0.0
 40
0.0
 40
0.0
 40
0.0
 40
0.2572918843011813
 40
0.5173684291007986
 40
0.768343527344001
 40
1.0
 40
1.0
 40
1.0
 40
1.0
 10
167.8666505629523
 20
492.1738491427755
 30
0.0
 10
167.7494586001778
 20
492.6031078817093
 30
0.0
 10
167.5138063103726
 20
493.4662712109496
 30
0.0
 10
166.5632695165914
 20
494.5609679258648
 30
0.0
 10
165.3153488267555
 20
495.3467421270706
 30
0.0
 10
164.3366314385598
 20
495.5355698616217
 30
0.0
 10
163.8668606412327
 20
495.6262045601438
 30
0.0
  0
SPLINE
  5
6A
330
1F
100
AcDbEntity
  8
0
  6
Continuous
 62
     7
370
    15
100
AcDbSpline
210
0.0
220
0.0
230
1.0
 70
     8
 71
     3
 72
    11
 73
     7
 74
     0
 42
0.00000001
 43
0.00000001
 40
0.0
 40
0.0
 40
0.0
 40
0.0
 40
0.2316564478810691
 40
0.4826315132836261
 40
0.7427080553446368
 40
1.0
 40
1.0
 40
1.0
 40
1.0
 10
143.8999493700059
 20
495.6261950434276
 30
0.0
 10
143.430179183822
 20
495.5355605275464
 30
0.0
 10
142.4514630810445
 20
495.3467331758555
 30
0.0
 10
141.203543600752
 20
494.5609609656447
 30
0.0
 10
140.2530068117776
 20
493.4662667683469
 30
0.0
 10
140.017353457682
 20
492.6031048787338
 30
0.0
 10
139.900160951187
 20
492.1738468028498
 30
0.0
  0
SPLINE
  5
6B
330
1F
100
AcDbEntity
  8
0
  6
Continuous
 62
     7
370
    15
100
AcDbSpline
210
0.0
220
0.0
230
1.0
 70
     8
 71
     3
 72
    17
 73
    13
 74
     0
 42
0.00000001
 43
0.00000001
 40
0.0
 40
0.0
 40
0.0
 40
0.0
 40
0.0014343371106468
 40
0.083781777280911
 40
0.1638703097595391
 40
0.2626999775261596
 40
0.3969393041289634
 40
0.5306221187841561
 40
0.6578761700072819
 40
0.7845001508946965
 40
0.9098960362916457
 40
1.0
 40
1.0
 40
1.0
 40
1.0
 10
163.9113188416055
 20
499.7926854076622
 30
0.0
 10
163.9119914475568
 20
499.7953361140671
 30
0.0
 10
163.9512793678032
 20
499.950167842263
 30
0.0
 10
163.7964376822635
 20
500.273435339751
 30
0.0
 10
163.5234550203753
 20
500.5976134492468
 30
0.0
 10
163.0766499174499
 20
500.8878184897674
 30
0.0
 10
162.4047291376016
 20
501.1639940673224
 30
0.0
 10
161.4649232059402
 20
501.4188277066855
 30
0.0
 10
160.3605728702125
 20
501.6213498663478
 30
0.0
 10
159.1485988273181
 20
501.7676437727825
 30
0.0
 10
157.9749071240811
 20
501.8547712497533
 30
0.0
 10
157.2163030081391
 20
501.8648327762065
 30
0.0
 10
156.8991183882165
 20
501.8690396627458
 30
0.0
  0
SPLINE
  5
6C
330
1F
100
AcDbEntity
  8
0
  6
Continuous
 62
     7
370
    15
100
AcDbSpline
210
0.0
220
0.0
230
1.0
 70
     8
 71
     3
 72
    16
 73
    12
 74
     0
 42
0.00000001
 43
0.00000001
 40
0.0
 40
0.0
 40
0.0
 40
0.0
 40
0.1048565392674486
 40
0.2293690899179023
 40
0.3538173495710724
 40
0.4794055509052611
 40
0.6065680719992707
 40
0.7359243860136555
 40
0.8555244302264436
 40
0.9379497944375044
 40
1.0
 40
1.0
 40
1.0
 40
1.0
 10
150.8676433193561
 20
501.8708684869565
 30
0.0
 10
150.4985168740172
 20
501.8642752919276
 30
0.0
 10
149.6910689320624
 20
501.8498529663959
 30
0.0
 10
148.4839888975242
 20
501.7550032200429
 30
0.0
 10
147.2977108656464
 20
501.6051299188414
 30
0.0
 10
146.2379364767997
 20
501.4033679777477
 30
0.0
 10
145.3417669095786
 20
501.1547537174558
 30
0.0
 10
144.6514699189105
 20
500.8702351782193
 30
0.0
 10
144.2019892563309
 20
500.5633580294659
 30
0.0
 10
143.90020862748
 20
500.1959554146694
 30
0.0
 10
143.8807940624649
 20
499.9106456319384
 30
0.0
 10
143.8724557824914
 20
499.788109131856
 30
0.0
  0
SPLINE
  5
6D
330
1F
100
AcDbEntity
  8
0
  6
Continuous
 62
     7
370
    15
100
AcDbSpline
210
0.0
220
0.0
230
1.0
 70
     8
 71
     3
 72
     9
 73
     5
 74
     0
 42
0.00000001
 43
0.00000001
 40
0.0
 40
0.0
 40
0.0
 40
0.0
 40
0.7229469274269956
 40
1.0
 40
1.0
 40
1.0
 40
1.0
 10
156.8990837207733
 20
501.8750874313137
 30
0.0
 10
155.4456064627411
 20
501.8853878441794
 30
0.0
 10
153.4351168916667
 20
501.8996356575042
 30
0.0
 10
151.4247138668578
 20
501.8804130999476
 30
0.0
 10
150.8677255317244
 20
501.8750874313137
 30
0.0
  0
LINE
  5
6E
330
1F
100
AcDbEntity
  8
0
  6
Continuous
 62
     7
370
    15
100
AcDbLine
 10
167.9591136768
 20
408.3004971126
 30
0.0
 11
167.9485157141
 21
408.6511126358
 31
0.0
  0
LINE
  5
6F
330
1F
100
AcDbEntity
  8
0
  6
Continuous
 62
     7
370
    15
100
AcDbLine
 10
176.9524046262
 20
453.1537551083
 30
0.0
 11
176.9524046262
 21
484.5732539573
 31
0.0
  0
LINE
  5
70
330
1F
100
AcDbEntity
  8
0
  6
Continuous
 62
     7
370
    15
100
AcDbLine
 10
130.8144046262
 20
484.5723023959
 30
0.0
 11
130.8144046262
 21
453.1537551083
 31
0.0
  0
LINE
  5
71
330
1F
100
AcDbEntity
  8
0
  6
Continuous
 62
     7
370
    15
100
AcDbLine
 10
176.4509046262
 20
360.0753551083
 30
0.0
 11
175.9494046262
 21
370.1053551083
 31
0.0
  0
LINE
  5
72
330
1F
100
AcDbEntity
  8
0
  6
Continuous
 62
     7
370
    15
100
AcDbLine
 10
131.8174046262
 20
370.1053551083
 30
0.0
 11
131.3159046262
 21
360.0753551083
 31
0.0
  0
LINE
  5
73
330
1F
100
AcDbEntity
  8
0
  6
Continuous
 62
     7
370
    15
100
AcDbLine
 10
131.8174046262
 20
447.3363551083
 30
0.0
 11
131.8174046262
 21
445.3303551083
 31
0.0
  0
LINE
  5
74
330
1F
100
AcDbEntity
  8
0
  6
Continuous
 62
     7
370
    15
100
AcDbLine
 10
175.9494046262
 20
445.3303551083
 30
0.0
 11
175.9494046262
 21
447.3363551083
 31
0.0
  0
ARC
  5
75
330
1F
100
AcDbEntity
  8
0
  6
Continuous
 62
     7
370
    15
100
AcDbCircle
 10
153.8834046262
 20
447.4100414111
 30
0.0
 40
22.06600000000001
100
AcDbArc
 50
164.9123139457
 51
180.196565318
  0
ARC
  5
76
330
1F
100
AcDbEntity
  8
0
  6
Continuous
 62
     7
370
    15
100
AcDbCircle
 10
153.8834046262
 20
447.4100414111
 30
0.0
 40
22.06600000000001
100
AcDbArc
 50
0.0
 51
15.0876860543
  0
LINE
  5
77
330
1F
100
AcDbEntity
  8
0
  6
Continuous
 62
     7
370
    15
100
AcDbLine
 10
175.9494046262
 20
410.2253551083
 30
0.0
 11
175.9494046262
 21
445.3303551083
 31
0.0
  0
LINE
  5
78
330
1F
100
AcDbEntity
  8
0
  6
Continuous
 62
     7
370
    15
100
AcDbLine
 10
131.8174046262
 20
445.3303551083
 30
0.0
 11
131.8174046262
 21
410.2253551083
 31
0.0
  0
SPLINE
  5
79
330
1F
100
AcDbEntity
  8
0
  6
Continuous
 62
     7
370
    15
100
AcDbSpline
210
0.0
220
0.0
230
1.0
 70
     8
 71
     3
 72
    12
 73
     8
 74
     0
 42
0.00000001
 43
0.00000001
 40
0.0
 40
0.0
 40
0.0
 40
0.0
 40
0.0206330407510257
 40
0.3020800754260794
 40
0.5850746696597785
 40
0.8182317987166254
 40
1.0
 40
1.0
 40
1.0
 40
1.0
 10
132.7375928276038
 20
487.0039023971667
 30
0.0
 10
132.710998191808
 20
486.9896033499386
 30
0.0
 10
132.3216367940346
 20
486.7802567336388
 30
0.0
 10
131.788492462134
 20
486.3528317972842
 30
0.0
 10
131.2023171562398
 20
485.7404463942885
 30
0.0
 10
130.874860080829
 20
485.1342227707581
 30
0.0
 10
130.8543724718623
 20
484.7348938656586
 30
0.0
 10
130.8453973730719
 20
484.5599580603636
 30
0.0
  0
SPLINE
  5
7A
330
1F
100
AcDbEntity
  8
0
  6
Continuous
 62
     7
370
    15
100
AcDbSpline
210
0.0
220
0.0
230
1.0
 70
     8
 71
     3
 72
    12
 73
     8
 74
     0
 42
0.00000001
 43
0.00000001
 40
0.0
 40
0.0
 40
0.0
 40
0.0
 40
0.1061833022242697
 40
0.3448908834977154
 40
0.5967665107945013
 40
0.880521897201329
 40
1.0
 40
1.0
 40
1.0
 40
1.0
 10
176.8957518888936
 20
484.5386622840025
 30
0.0
 10
176.9058401186198
 20
484.6348499623426
 30
0.0
 10
176.938607403026
 20
484.9472743517654
 30
0.0
 10
176.7195805349871
 20
485.4652039447557
 30
0.0
 10
176.2862324068067
 20
486.0572782864686
 30
0.0
 10
175.7891028061616
 20
486.5224099177788
 30
0.0
 10
175.3452020666415
 20
486.7919798901282
 30
0.0
 10
175.213674255563
 20
486.8718534862704
 30
0.0
  0
LINE
  5
7B
330
1F
100
AcDbEntity
  8
0
  6
Continuous
 62
     7
370
    15
100
AcDbLine
 10
132.8204046262
 20
370.4062551083
 30
0.0
 11
132.8204046262
 21
370.1053551083
 31
0.0
  0
LINE
  5
7C
330
1F
100
AcDbEntity
  8
0
  6
Continuous
 62
     7
370
    15
100
AcDbLine
 10
174.9464046262
 20
370.1053551083
 30
0.0
 11
174.9464046262
 21
370.4062551083
 31
0.0
  0
LINE
  5
7D
330
1F
100
AcDbEntity
  8
0
  6
Continuous
 62
     7
370
    15
100
AcDbLine
 10
132.8204046262
 20
410.2253551083
 30
0.0
 11
132.8204046262
 21
409.7238551083
 31
0.0
  0
LINE
  5
7E
330
1F
100
AcDbEntity
  8
0
  6
Continuous
 62
     7
370
    15
100
AcDbLine
 10
174.9464046262
 20
409.7238551083
 30
0.0
 11
174.9464046262
 21
410.2253551083
 31
0.0
  0
LINE
  5
7F
330
1F
100
AcDbEntity
  8
0
  6
Continuous
 62
     7
370
    15
100
AcDbLine
 10
175.9494029492
 20
370.7027082878
 30
0.0
 11
175.9494029492
 21
409.78332637
 31
0.0
  0
LINE
  5
80
330
1F
100
AcDbEntity
  8
0
  6
Continuous
 62
     7
370
    15
100
AcDbLine
 10
131.8174063033
 20
409.78332637
 30
0.0
 11
131.8174063033
 21
370.6953975552
 31
0.0
  0
ARC
  5
81
330
1F
100
AcDbEntity
  8
0
  6
Continuous
 62
     7
370
    15
100
AcDbCircle
 10
173.6765952402
 20
370.7027082878
 30
0.0
 40
2.272807709033435
100
AcDbArc
 50
352.5052825461
 51
359.9999999998
  0
LINE
  5
82
330
1F
100
AcDbEntity
  8
0
  6
Continuous
 62
     7
370
    15
100
AcDbLine
 10
131.8173930933
 20
370.7024156432
 30
0.0
 11
131.8367026736
 21
370.4041040417
 31
0.0
  0
SPLINE
  5
83
330
1F
100
AcDbEntity
  8
0
  6
Continuous
 62
     7
370
    15
100
AcDbSpline
210
0.0
220
0.0
230
1.0
 70
     8
 71
     3
 72
     8
 73
     4
 74
     0
 42
0.00000001
 43
0.00000001
 40
0.0
 40
0.0
 40
0.0
 40
0.0
 40
1.0
 40
1.0
 40
1.0
 40
1.0
 10
167.9061065958511
 20
476.8015942316987
 30
0.0
 10
167.9071475345566
 20
476.7998071187446
 30
0.0
 10
167.9081463885324
 20
476.7980200057904
 30
0.0
 10
167.9091031487852
 20
476.7962328928363
 30
0.0
  0
ELLIPSE
  5
84
330
1F
100
AcDbEntity
  8
0
  6
Continuous
 62
     7
370
    15
100
AcDbEllipse
 10
153.8834046262
 20
476.724246984
 30
0.0
 11
14.04199893280796
 21
0.0
 31
0.0
210
0.0
220
0.0
230
1.0
 40
0.1051042351
 41
0.0524317993005615
 42
3.089160854289231
  0
SPLINE
  5
85
330
1F
100
AcDbEntity
  8
0
  6
Continuous
 62
     7
370
    15
100
AcDbSpline
210
0.0
220
0.0
230
1.0
 70
     8
 71
     3
 72
     8
 73
     4
 74
     0
 42
0.00000001
 43
0.00000001
 40
0.0
 40
0.0
 40
0.0
 40
0.0
 40
1.0
 40
1.0
 40
1.0
 40
1.0
 10
139.8577061037108
 20
476.7962328928363
 30
0.0
 10
139.8586628639636
 20
476.7980200057904
 30
0.0
 10
139.8596617179394
 20
476.7998071187446
 30
0.0
 10
139.8607026566449
 20
476.8015942316987
 30
0.0
  0
LINE
  5
86
330
1F
100
AcDbEntity
  8
0
  6
Continuous
 62
     7
370
    15
100
AcDbLine
 10
167.9254035591
 20
478.6914422959
 30
0.0
 11
167.9254035591
 21
491.4911054319
 31
0.0
  0
LINE
  5
87
330
1F
100
AcDbEntity
  8
0
  6
Continuous
 62
     7
370
    15
100
AcDbLine
 10
139.8414056934
 20
491.4911054319
 30
0.0
 11
139.8414056934
 21
478.6914422959
 31
0.0
  0
LWPOLYLINE
  5
88
330
1F
100
AcDbEntity
  8
0
  6
Continuous
 62
     7
370
    15
100
AcDbPolyline
 90
       21
 70
   128
 43
0.0
 10
165.9194046262
 20
476.7242551083
 10
165.7712214937
 20
476.9210660259
 10
165.3303208564
 20
477.1130308055
 10
164.6075591514
 20
477.2954226371
 10
163.6207331705
 20
477.4637504286
 10
162.3941418446
 20
477.6138693911
 10
160.9579879228
 20
477.7420830974
 10
159.3476342811
 20
477.8452345007
 10
157.6027331705
 20
477.920783671
 10
155.7662498475
 20
477.9668703371
 10
153.8834046262
 20
477.9823596922
 10
152.000559405
 20
477.9668703371
 10
150.164076082
 20
477.920783671
 10
148.4191749714
 20
477.8452345007
 10
146.8088213297
 20
477.7420830974
 10
145.3726674079
 20
477.6138693911
 10
144.146076082
 20
477.4637504286
 10
143.1592501011
 20
477.2954226371
 10
142.4364883961
 20
477.1130308055
 10
141.9955877588
 20
476.9210660259
 10
141.8474046262
 20
476.7242551083
  0
SPLINE
  5
89
330
1F
100
AcDbEntity
  8
0
  6
Continuous
 62
     7
370
    15
100
AcDbSpline
210
0.0
220
0.0
230
1.0
 70
     8
 71
     3
 72
     8
 73
     4
 74
     0
 42
0.00000001
 43
0.00000001
 40
0.0
 40
0.0
 40
0.0
 40
0.0
 40
1.0
 40
1.0
 40
1.0
 40
1.0
 10
167.9235585065089
 20
476.7006590258508
 30
0.0
 10
167.9194575346811
 20
476.6738818748511
 30
0.0
 10
167.9084194864808
 20
476.6471360053268
 30
0.0
 10
167.8904439010778
 20
476.6204214193559
 30
0.0
  0
SPLINE
  5
8A
330
1F
100
AcDbEntity
  8
0
  6
Continuous
 62
     7
370
    15
100
AcDbSpline
210
0.0
220
0.0
230
1.0
 70
     8
 71
     3
 72
    10
 73
     6
 74
     0
 42
0.00000001
 43
0.00000001
 40
0.0
 40
0.0
 40
0.0
 40
0.0
 40
0.4083295459346603
 40
0.8123376305522884
 40
1.0
 40
1.0
 40
1.0
 40
1.0
 10
167.8904439010778
 20
476.6204214193559
 30
0.0
 10
167.7753314488633
 20
476.5283550281026
 30
0.0
 10
167.5463248104508
 20
476.3451966089561
 30
0.0
 10
166.8238894630941
 20
476.1273331071964
 30
0.0
 10
166.1372034440197
 20
476.0134622301677
 30
0.0
 10
165.9194046262475
 20
475.9773453707784
 30
0.0
  0
SPLINE
  5
8B
330
1F
100
AcDbEntity
  8
0
  6
Continuous
 62
     7
370
    15
100
AcDbSpline
210
0.0
220
0.0
230
1.0
 70
     8
 71
     3
 72
    10
 73
     6
 74
     0
 42
0.00000001
 43
0.00000001
 40
0.0
 40
0.0
 40
0.0
 40
0.0
 40
0.4083296539676212
 40
0.8123378455315672
 40
0.9999999999999999
 40
0.9999999999999999
 40
0.9999999999999999
 40
0.9999999999999999
 10
139.8763663807587
 20
476.6204197538337
 30
0.0
 10
139.9914788295432
 20
476.528353369647
 30
0.0
 10
140.220485461148
 20
476.3451949645462
 30
0.0
 10
140.9429205034951
 20
476.1273315329403
 30
0.0
 10
141.6296061396592
 20
476.0134607137438
 30
0.0
 10
141.8474046262476
 20
475.977343907477
 30
0.0
  0
SPLINE
  5
8C
330
1F
100
AcDbEntity
  8
0
  6
Continuous
 62
     7
370
    15
100
AcDbSpline
210
0.0
220
0.0
230
1.0
 70
     8
 71
     3
 72
     8
 73
     4
 74
     0
 42
0.00000001
 43
0.00000001
 40
0.0
 40
0.0
 40
0.0
 40
0.0
 40
1.0
 40
1.0
 40
1.0
 40
1.0
 10
139.8432517777618
 20
476.7006573544303
 30
0.0
 10
139.8473527492882
 20
476.673880205399
 30
0.0
 10
139.858390796677
 20
476.6471343378409
 30
0.0
 10
139.8763663807587
 20
476.6204197538339
 30
0.0
  0
SPLINE
  5
8D
330
1F
100
AcDbEntity
  8
0
  6
Continuous
 62
     7
370
    15
100
AcDbSpline
210
0.0
220
0.0
230
1.0
 70
     8
 71
     3
 72
     8
 73
     4
 74
     0
 42
0.00000001
 43
0.00000001
 40
0.0
 40
0.0
 40
0.0
 40
0.0
 40
1.0
 40
1.0
 40
1.0
 40
1.0
 10
139.857710734278
 20
476.795355525773
 30
0.0
 10
139.8432344673178
 20
476.763805578431
 30
0.0
 10
139.8384149085959
 20
476.7322395211609
 30
0.0
 10
139.8432517777618
 20
476.7006573544303
 30
0.0
  0
SPLINE
  5
8E
330
1F
100
AcDbEntity
  8
0
  6
Continuous
 62
     7
370
    15
100
AcDbSpline
210
0.0
220
0.0
230
1.0
 70
     8
 71
     3
 72
     8
 73
     4
 74
     0
 42
0.00000001
 43
0.00000001
 40
0.0000176373663025
 40
0.0000176373663025
 40
0.0000176373663025
 40
0.0000176373663025
 40
1.0
 40
1.0
 40
1.0
 40
1.0
 10
167.9091003148905
 20
476.7953555347811
 30
0.0
 10
167.9235759869598
 20
476.7638061410093
 30
0.0
 10
167.9283952907208
 20
476.7322406378765
 30
0.0
 10
167.9235585065089
 20
476.7006590258506
 30
0.0
  0
LINE
  5
8F
330
1F
100
AcDbEntity
  8
0
  6
Continuous
 62
     7
370
    15
100
AcDbLine
 10
158.6936236441
 20
473.7877452533
 30
0.0
 11
158.6936236441
 21
470.3736334555
 31
0.0
  0
SPLINE
  5
90
330
1F
100
AcDbEntity
  8
0
  6
Continuous
 62
     7
370
    15
100
AcDbSpline
210
0.0
220
0.0
230
1.0
 70
     8
 71
     3
 72
     8
 73
     4
 74
     0
 42
0.00000001
 43
0.00000001
 40
0.0
 40
0.0
 40
0.0
 40
0.0
 40
1.0
 40
1.0
 40
1.0
 40
1.0
 10
158.6936236441304
 20
470.3736334554929
 30
0.0
 10
157.1080948504088
 20
470.0097933851702
 30
0.0
 10
155.5067792648693
 20
469.7977234090349
 30
0.0
 10
153.8834046262469
 20
469.7977234090348
 30
0.0
  0
SPLINE
  5
91
330
1F
100
AcDbEntity
  8
0
  6
Continuous
 62
     7
370
    15
100
AcDbSpline
210
0.0
220
0.0
230
1.0
 70
     8
 71
     3
 72
    10
 73
     6
 74
     0
 42
0.00000001
 43
0.00000001
 40
0.0
 40
0.0
 40
0.0
 40
0.0
 40
0.5
 40
0.5
 40
1.0
 40
1.0
 40
1.0
 40
1.0
 10
153.8834046262469
 20
469.7977234090348
 30
0.0
 10
153.0736076504173
 20
469.7977234090348
 30
0.0
 10
152.2543210051628
 20
469.8505549217611
 30
0.0
 10
150.6480470047414
 20
470.0491087111925
 30
0.0
 10
149.85626840505
 20
470.1939351107242
 30
0.0
 10
149.0731856083645
 20
470.3736334554926
 30
0.0
  0
LINE
  5
92
330
1F
100
AcDbEntity
  8
0
  6
Continuous
 62
     7
370
    15
100
AcDbLine
 10
149.0731856084
 20
470.3736334555
 30
0.0
 11
149.0731856084
 21
473.7877452533
 31
0.0
  0
LINE
  5
93
330
1F
100
AcDbEntity
  8
0
  6
Continuous
 62
     7
370
    15
100
AcDbLine
 10
149.0731856084
 20
473.7877452533
 30
0.0
 11
158.6936236441
 21
473.7877452533
 31
0.0
  0
LWPOLYLINE
  5
94
330
1F
100
AcDbEntity
  8
0
  6
Continuous
 62
     7
370
    15
100
AcDbPolyline
 90
       20
 70
   128
 43
0.0
 10
153.8834046262
 20
467.4911983386
 10
155.6993767408
 20
467.5069273364
 10
157.46581387
 20
467.5536852838
 10
159.1345322136
 20
467.6301967458
 10
160.6600134854
 20
467.7343746893
 10
162.0006465327
 20
467.8633774114
 10
163.1198623809
 20
468.0136860543
 10
163.9871317392
 20
468.18120059
 10
164.5787977604
 20
468.3613516585
 10
164.8787213376
 20
468.5492252085
 10
164.8787213376
 20
468.7396965391
 10
164.5787977604
 20
468.9275700891
 10
163.9871317392
 20
469.1077211576
 10
163.1198623809
 20
469.2752356933
 10
162.0006465327
 20
469.4255443362
 10
160.6600134854
 20
469.5545470583
 10
159.1345322136
 20
469.6587250018
 10
157.46581387
 20
469.7352364638
 10
155.6993767408
 20
469.7819944112
 10
153.8834046262
 20
469.797723409
  0
LWPOLYLINE
  5
95
330
1F
100
AcDbEntity
  8
0
  6
Continuous
 62
     7
370
    15
100
AcDbPolyline
 90
       10
 70
   128
 43
0.0
 10
165.7182835258
 20
468.9913381697
 10
165.8834534133
 20
469.1232030067
 10
165.8834534133
 20
469.3175388339
 10
165.5971310509
 20
469.5095562249
 10
165.0313180061
 20
469.6946736257
 10
164.1995146348
 20
469.8684741166
 10
163.1215678484
 20
470.0268108005
 10
161.8231975649
 20
470.1659057484
 10
160.335383029
 20
470.2824401408
 10
158.6936236441
 20
470.3736334555
  0
ARC
  5
96
330
1F
100
AcDbEntity
  8
0
  6
Continuous
 62
     7
370
    15
100
AcDbCircle
 10
153.8834046262
 20
364.2915324572
 30
0.0
 40
109.6018194360152
100
AcDbArc
 50
87.4845873594
 51
92.5154126406
  0
LWPOLYLINE
  5
97
330
1F
100
AcDbEntity
  8
0
  6
Continuous
 62
     7
370
    15
100
AcDbPolyline
 90
       10
 70
   128
 43
0.0
 10
149.0731856084
 20
470.3736334555
 10
147.4314262234
 20
470.2824401408
 10
145.9436116876
 20
470.1659057484
 10
144.6452414041
 20
470.0268108005
 10
143.5672946177
 20
469.8684741166
 10
142.7354912464
 20
469.6946736257
 10
142.1696782016
 20
469.5095562249
 10
141.8833558392
 20
469.3175388339
 10
141.8833558392
 20
469.1232030067
 10
142.0485257267
 20
468.9913381697
  0
LWPOLYLINE
  5
98
330
1F
100
AcDbEntity
  8
0
  6
Continuous
 62
     7
370
    15
100
AcDbPolyline
 90
       20
 70
   128
 43
0.0
 10
153.8834046262
 20
469.797723409
 10
152.0674325117
 20
469.7819944112
 10
150.3009953825
 20
469.7352364638
 10
148.6322770389
 20
469.6587250018
 10
147.1067957671
 20
469.5545470583
 10
145.7661627198
 20
469.4255443362
 10
144.6469468716
 20
469.2752356933
 10
143.7796775133
 20
469.1077211576
 10
143.1880114921
 20
468.9275700891
 10
142.8880879149
 20
468.7396965391
 10
142.8880879149
 20
468.5492252085
 10
143.1880114921
 20
468.3613516585
 10
143.7796775133
 20
468.18120059
 10
144.6469468716
 20
468.0136860543
 10
145.7661627198
 20
467.8633774114
 10
147.1067957671
 20
467.7343746893
 10
148.6322770389
 20
467.6301967458
 10
150.3009953825
 20
467.5536852838
 10
152.0674325117
 20
467.5069273364
 10
153.8834046262
 20
467.4911983386
  0
SPLINE
  5
99
330
1F
100
AcDbEntity
  8
0
  6
Continuous
 62
     7
370
    15
100
AcDbSpline
210
0.0
220
0.0
230
1.0
 70
     8
 71
     3
 72
     9
 73
     5
 74
     0
 42
0.00000001
 43
0.00000001
 40
0.0
 40
0.0
 40
0.0
 40
0.0
 40
0.4528450488037654
 40
1.0
 40
1.0
 40
1.0
 40
1.0
 10
143.859332240512
 20
495.6159407329299
 30
0.0
 10
143.865987316382
 20
495.6192197518216
 30
0.0
 10
143.8806834599916
 20
495.6264606809215
 30
0.0
 10
143.9547468642815
 20
495.6307995307689
 30
0.0
 10
143.9952710226412
 20
495.6331735539453
 30
0.0
  0
SPLINE
  5
9A
330
1F
100
AcDbEntity
  8
0
  6
Continuous
 62
     7
370
    15
100
AcDbSpline
210
0.0
220
0.0
230
1.0
 70
     8
 71
     3
 72
    10
 73
     6
 74
     0
 42
0.00000001
 43
0.00000001
 40
0.0
 40
0.0
 40
0.0
 40
0.0
 40
0.0532780099636345
 40
0.1595908420863371
 40
1.0
 40
1.0
 40
1.0
 40
1.0
 10
167.9254046224613
 20
491.4912885997277
 30
0.0
 10
167.9253514664504
 20
491.5042449549888
 30
0.0
 10
167.9251922410487
 20
491.5430548814088
 30
0.0
 10
167.9224720523476
 20
491.7866422795284
 30
0.0
 10
167.8596698002542
 20
492.0105643115558
 30
0.0
 10
167.8039199725831
 20
492.209340856682
 30
0.0
  0
SPLINE
  5
9B
330
1F
100
AcDbEntity
  8
0
  6
Continuous
 62
     7
370
    15
100
AcDbSpline
210
0.0
220
0.0
230
1.0
 70
     8
 71
     3
 72
    13
 73
     9
 74
     0
 42
0.00000001
 43
0.00000001
 40
0.0
 40
0.0
 40
0.0
 40
0.0
 40
0.0000151615674231
 40
0.0000606195888161
 40
0.0002424303015479
 40
0.0009696528679465
 40
0.0038788261037198
 40
1.0
 40
1.0
 40
1.0
 40
1.0
 10
139.8414056934401
 20
491.4914707347456
 30
0.0
 10
139.8414056934432
 20
491.4914744387036
 30
0.0
 10
139.8414056934555
 20
491.4914892480172
 30
0.0
 10
139.8414056938924
 20
491.4915484632742
 30
0.0
 10
139.8414056996877
 20
491.4917816026651
 30
0.0
 10
139.8414058269325
 20
491.4927141787315
 30
0.0
 10
139.8414533074827
 20
491.7369069641709
 30
0.0
 10
139.9076876766046
 20
491.9748461873469
 30
0.0
 10
139.9737291714514
 20
492.2120925322516
 30
0.0
  0
SPLINE
  5
9C
330
1F
100
AcDbEntity
  8
0
  6
Continuous
 62
     7
370
    15
100
AcDbSpline
210
0.0
220
0.0
230
1.0
 70
    24
 71
     3
 72
    11
 73
     7
 74
     0
 42
0.00000001
 43
0.00000001
 40
0.0
 40
0.0
 40
0.0
 40
0.0
 40
0.2394640492787308
 40
0.4929768774868443
 40
0.7465003145037543
 40
1.0
 40
1.0
 40
1.0
 40
1.0
 10
167.9254035590561
 20
476.5924784046227
 30
0.0
 10
167.9254035590561
 20
475.6647537406333
 30
0.0
 10
167.9254035590561
 20
473.7548770414022
 30
0.0
 10
167.9254035590561
 20
470.0888029595214
 30
0.0
 10
167.9254035590561
 20
465.9594939614174
 30
0.0
 10
167.9254035590561
 20
462.7855928455349
 30
0.0
 10
167.9254035590561
 20
461.198716628363
 30
0.0
  0
SPLINE
  5
9D
330
1F
100
AcDbEntity
  8
0
  6
Continuous
 62
     7
370
    15
100
AcDbSpline
210
0.0
220
0.0
230
1.0
 70
    24
 71
     3
 72
    11
 73
     7
 74
     0
 42
0.00000001
 43
0.00000001
 40
0.0
 40
0.0
 40
0.0
 40
0.0
 40
0.239464049278736
 40
0.4929768774868478
 40
0.746500314503756
 40
1.0
 40
1.0
 40
1.0
 40
1.0
 10
139.8414056934401
 20
476.5924784046227
 30
0.0
 10
139.8414056934401
 20
475.6647537406334
 30
0.0
 10
139.8414056934401
 20
473.7548770414022
 30
0.0
 10
139.8414056934401
 20
470.0888029595214
 30
0.0
 10
139.8414056934401
 20
465.9594939614175
 30
0.0
 10
139.8414056934401
 20
462.7855928455349
 30
0.0
 10
139.8414056934401
 20
461.198716628363
 30
0.0
  0
SPLINE
  5
9E
330
1F
100
AcDbEntity
  8
0
  6
Continuous
 62
     7
370
    15
100
AcDbSpline
210
0.0
220
0.0
230
1.0
 70
    24
 71
     3
 72
    16
 73
    12
 74
     0
 42
0.00000001
 43
0.00000001
 40
2.0
 40
2.0
 40
2.0
 40
2.0
 40
2.981221748834685
 40
2.981221748834685
 40
3.9620438096696
 40
3.9620438096696
 40
5.923678048085891
 40
5.923678048085891
 40
9.84690838137193
 40
9.84690838137193
 40
17.69322779990785
 40
17.69322779990785
 40
17.69322779990785
 40
17.69322779990785
 10
167.9254035590561
 20
461.198716628363
 30
0.0
 10
167.9254035590561
 20
460.1312836971701
 30
0.0
 10
167.9254035590561
 20
459.0604998586558
 30
0.0
 10
167.9254035590561
 20
456.9223339979152
 30
0.0
 10
167.9254035590561
 20
455.8534767565928
 30
0.0
 10
167.9254035590561
 20
452.6469631447026
 30
0.0
 10
167.9254035590561
 20
450.5093542032734
 30
0.0
 10
167.9254035590561
 20
444.0969444524518
 30
0.0
 10
167.9254035590561
 20
439.8225206009185
 30
0.0
 10
167.9254035590561
 20
427.0023447848192
 30
0.0
 10
167.9254035590561
 20
418.459555356818
 30
0.0
 10
167.9254035590561
 20
409.9242685133839
 30
0.0
  0
SPLINE
  5
9F
330
1F
100
AcDbEntity
  8
0
  6
Continuous
 62
     7
370
    15
100
AcDbSpline
210
0.0
220
0.0
230
1.0
 70
    24
 71
     3
 72
    16
 73
    12
 74
     0
 42
0.00000001
 43
0.00000001
 40
2.0
 40
2.0
 40
2.0
 40
2.0
 40
2.981221748834685
 40
2.981221748834685
 40
3.9620438096696
 40
3.9620438096696
 40
5.923678048085891
 40
5.923678048085891
 40
9.84690838137193
 40
9.84690838137193
 40
17.69322779990785
 40
17.69322779990785
 40
17.69322779990785
 40
17.69322779990785
 10
139.8414056934401
 20
461.198716628363
 30
0.0
 10
139.8414056934401
 20
460.1312836971701
 30
0.0
 10
139.8414056934401
 20
459.0604998586558
 30
0.0
 10
139.8414056934401
 20
456.9223339979152
 30
0.0
 10
139.8414056934401
 20
455.8534767565928
 30
0.0
 10
139.8414056934401
 20
452.6469631447026
 30
0.0
 10
139.8414056934401
 20
450.5093542032734
 30
0.0
 10
139.8414056934401
 20
444.0969444524518
 30
0.0
 10
139.8414056934401
 20
439.8225206009185
 30
0.0
 10
139.8414056934401
 20
427.0023447848192
 30
0.0
 10
139.8414056934401
 20
418.459555356818
 30
0.0
 10
139.8414056934401
 20
409.9242685133839
 30
0.0
  0
LINE
  5
A0
330
1F
100
AcDbEntity
  8
0
  6
Continuous
 62
     7
370
    15
100
AcDbLine
 10
163.9134046262
 20
496.6197170501
 30
0.0
 11
163.9134046262
 21
499.7914099555
 31
0.0
  0
LINE
  5
A1
330
1F
100
AcDbEntity
  8
0
  6
Continuous
 62
     7
370
    15
100
AcDbLine
 10
143.8534046262
 20
496.6197170501
 30
0.0
 11
143.8534046262
 21
499.7914099555
 31
0.0
  0
LINE
  5
A2
330
1F
100
AcDbEntity
  8
0
  6
Continuous
 62
     7
370
    15
100
AcDbLine
 10
143.8534046262
 20
495.6144442314
 30
0.0
 11
143.8534046262
 21
496.6197170501
 31
0.0
  0
LINE
  5
A3
330
1F
100
AcDbEntity
  8
0
  6
Continuous
 62
     7
370
    15
100
AcDbLine
 10
163.9134046262
 20
496.6197170501
 30
0.0
 11
163.9134046262
 21
495.6144539286
 31
0.0
  0
SPLINE
  5
A4
330
1F
100
AcDbEntity
  8
0
  6
Continuous
 62
     7
370
    15
100
AcDbSpline
210
0.0
220
0.0
230
1.0
 70
    24
 71
     3
 72
     8
 73
     4
 74
     0
 42
0.00000001
 43
0.00000001
 40
2.0
 40
2.0
 40
2.0
 40
2.0
 40
4.44925136236726
 40
4.44925136236726
 40
4.44925136236726
 40
4.44925136236726
 10
167.9254035590561
 20
409.9242685133839
 30
0.0
 10
167.9254035590561
 20
407.3962033491471
 30
0.0
 10
167.9254035590561
 20
404.8290605349206
 30
0.0
 10
167.9254035590561
 20
402.2236848062911
 30
0.0
  0
SPLINE
  5
A5
330
1F
100
AcDbEntity
  8
0
  6
Continuous
 62
     7
370
    15
100
AcDbSpline
210
0.0
220
0.0
230
1.0
 70
    24
 71
     3
 72
     8
 73
     4
 74
     0
 42
0.00000001
 43
0.00000001
 40
2.0
 40
2.0
 40
2.0
 40
2.0
 40
4.44925136236726
 40
4.44925136236726
 40
4.44925136236726
 40
4.44925136236726
 10
139.8414056934401
 20
409.9242685133839
 30
0.0
 10
139.8414056934401
 20
407.3962033491471
 30
0.0
 10
139.8414056934401
 20
404.8290605349206
 30
0.0
 10
139.8414056934401
 20
402.2236848062911
 30
0.0
  0
LINE
  5
A6
330
1F
100
AcDbEntity
  8
0
  6
Continuous
 62
     7
370
    15
100
AcDbLine
 10
176.9524046262
 20
453.1537551083
 30
0.0
 11
168.0109798793
 21
453.1537551083
 31
0.0
  0
LINE
  5
A7
330
1F
100
AcDbEntity
  8
0
  6
Continuous
 62
     7
370
    15
100
AcDbLine
 10
139.7544356291
 20
453.1537551083
 30
0.0
 11
130.8144046262
 21
453.1537551083
 31
0.0
  0
LINE
  5
A8
330
1F
100
AcDbEntity
  8
0
  6
Continuous
 62
     7
370
    15
100
AcDbLine
 10
131.8174046262
 20
370.1053551083
 30
0.0
 11
175.9494046262
 21
370.1053551083
 31
0.0
  0
LINE
  5
A9
330
1F
100
AcDbEntity
  8
0
  6
Continuous
 62
     7
370
    15
100
AcDbLine
 10
131.3159046262
 20
360.0753551083
 30
0.0
 11
176.4509046262
 21
360.0753551083
 31
0.0
  0
SPLINE
  5
AA
330
1F
100
AcDbEntity
  8
0
  6
Continuous
 62
     7
370
    15
100
AcDbSpline
210
0.0
220
0.0
230
1.0
 70
    24
 71
     3
 72
    11
 73
     7
 74
     0
 42
0.00000001
 43
0.00000001
 40
0.0
 40
0.0
 40
0.0
 40
0.0
 40
0.2863719411496446
 40
0.5730577727529631
 40
0.8644219748164392
 40
1.0
 40
1.0
 40
1.0
 40
1.0
 10
174.502453806576
 20
409.7238551083425
 30
0.0
 10
174.0769314018358
 20
409.7238551083425
 30
0.0
 10
173.2254201799685
 20
409.7238551083425
 30
0.0
 10
171.3632943879319
 20
409.7238551083425
 30
0.0
 10
169.5927799015772
 20
409.7238551083425
 30
0.0
 10
168.3313763648747
 20
409.7238551083425
 30
0.0
 10
167.9308102237169
 20
409.7238551083425
 30
0.0
  0
SPLINE
  5
AB
330
1F
100
AcDbEntity
  8
0
  6
Continuous
 62
     7
370
    15
100
AcDbSpline
210
0.0
220
0.0
230
1.0
 70
    24
 71
     3
 72
    11
 73
     7
 74
     0
 42
0.00000001
 43
0.00000001
 40
0.0
 40
0.0
 40
0.0
 40
0.0
 40
0.2863504638569736
 40
0.5730619431008613
 40
0.8643782410003832
 40
0.9999999999999999
 40
0.9999999999999999
 40
0.9999999999999999
 40
0.9999999999999999
 10
133.2643570129679
 20
409.7238551083425
 30
0.0
 10
133.6898628092946
 20
409.7238551083425
 30
0.0
 10
134.5414108569535
 20
409.7238551083425
 30
0.0
 10
136.4033611671641
 20
409.7238551083425
 30
0.0
 10
138.1739212183585
 20
409.7238551083425
 30
0.0
 10
139.4353057871488
 20
409.7238551083425
 30
0.0
 10
139.8359990287793
 20
409.7238551083425
 30
0.0
  0
SPLINE
  5
AC
330
1F
100
AcDbEntity
  8
0
  6
Continuous
 62
     7
370
    15
100
AcDbSpline
210
0.0
220
0.0
230
1.0
 70
    24
 71
     3
 72
    16
 73
    12
 74
     0
 42
0.00000001
 43
0.00000001
 40
0.0
 40
0.0
 40
0.0
 40
0.0
 40
0.083231443494352
 40
0.1664657217276506
 40
0.2497343542920975
 40
0.3330688217983876
 40
0.4165005303343555
 40
0.500060776343893
 40
0.6664892370438309
 40
0.8330539261775161
 40
0.9999999999999999
 40
0.9999999999999999
 40
0.9999999999999999
 40
0.9999999999999999
 10
153.8834067881433
 20
370.4062551083425
 30
0.0
 10
153.7431490123765
 20
370.4062551083425
 30
0.0
 10
153.4626286838721
 20
370.4062551083425
 30
0.0
 10
153.0419475701604
 20
370.4062551083425
 30
0.0
 10
152.6214120815833
 20
370.4062551083426
 30
0.0
 10
152.2010217795012
 20
370.4062551083425
 30
0.0
 10
151.7807792036085
 20
370.4062551083425
 30
0.0
 10
151.2220857388475
 20
370.4062551083425
 30
0.0
 10
150.5265068953155
 20
370.4062551083425
 30
0.0
 10
149.6961697841728
 20
370.4062551083425
 30
0.0
 10
149.1477012845762
 20
370.4062551083425
 30
0.0
 10
148.8731534354713
 20
370.4062551083425
 30
0.0
  0
SPLINE
  5
AD
330
1F
100
AcDbEntity
  8
0
  6
Continuous
 62
     7
370
    15
100
AcDbSpline
210
0.0
220
0.0
230
1.0
 70
     8
 71
     3
 72
    16
 73
    12
 74
     0
 42
0.00000001
 43
0.00000001
 40
0.0
 40
0.0
 40
0.0
 40
0.0
 40
0.064247308200628
 40
0.1476168905160052
 40
0.2501235977811753
 40
0.3951941357944369
 40
0.5000519550813707
 40
0.6033779309087836
 40
0.7499597434752734
 40
0.8948861166189597
 40
0.9999999999999999
 40
0.9999999999999999
 40
0.9999999999999999
 40
0.9999999999999999
 10
153.8834024643527
 20
370.4062551083426
 30
0.0
 10
153.9916689048422
 20
370.406259586589
 30
0.0
 10
154.2404257125576
 20
370.4062698759665
 30
0.0
 10
154.6618162338076
 20
370.4062697318782
 30
0.0
 10
155.2189526377511
 20
370.4062514638945
 30
0.0
 10
155.8112935925897
 20
370.4062215296951
 30
0.0
 10
156.403388856593
 20
370.4062579614504
 30
0.0
 10
156.9963556536645
 20
370.4062203422885
 30
0.0
 10
157.6535498014044
 20
370.4062557457503
 30
0.0
 10
158.3101514547901
 20
370.4062776194207
 30
0.0
 10
158.7209580854339
 20
370.4062617710042
 30
0.0
 10
158.8936561975933
 20
370.4062551085227
 30
0.0
  0
LINE
  5
AE
330
1F
100
AcDbEntity
  8
0
  6
Continuous
 62
     7
370
    15
100
AcDbLine
 10
175.9494046262
 20
410.2253551083
 30
0.0
 11
168.0851933466
 21
410.2253551084
 31
0.0
  0
LINE
  5
AF
330
1F
100
AcDbEntity
  8
0
  6
Continuous
 62
     7
370
    15
100
AcDbLine
 10
139.8382448941
 20
410.2253551084
 30
0.0
 11
131.8174046262
 21
410.2253551083
 31
0.0
  0
SPLINE
  5
B0
330
1F
100
AcDbEntity
  8
0
  6
Continuous
 62
     7
370
    15
100
AcDbSpline
210
0.0
220
0.0
230
1.0
 70
     8
 71
     3
 72
    14
 73
    10
 74
     0
 42
0.00000001
 43
0.00000001
 40
0.0
 40
0.0
 40
0.0
 40
0.0
 40
0.0394615057677317
 40
0.1976689847744315
 40
0.3570318009896974
 40
0.5199985031944124
 40
0.6841926098487907
 40
0.8409928778878507
 40
1.0
 40
1.0
 40
1.0
 40
1.0
 10
167.9254035590561
 20
489.4818871937647
 30
0.0
 10
168.0543655099467
 20
489.4549354169214
 30
0.0
 10
168.7003565184276
 20
489.3199296622537
 30
0.0
 10
169.7510732729473
 20
489.0438629492022
 30
0.0
 10
171.0816244831052
 20
488.6586419368838
 30
0.0
 10
172.2866275526976
 20
488.2453709236052
 30
0.0
 10
173.3428756432667
 20
487.8195346237029
 30
0.0
 10
174.2555044143092
 20
487.3868256865031
 30
0.0
 10
174.7311338138223
 20
487.0981496815306
 30
0.0
 10
174.9706103566996
 20
486.9528030487253
 30
0.0
  0
SPLINE
  5
B1
330
1F
100
AcDbEntity
  8
0
  6
Continuous
 62
     7
370
    15
100
AcDbSpline
210
0.0
220
0.0
230
1.0
 70
     8
 71
     3
 72
    12
 73
     8
 74
     0
 42
0.00000001
 43
0.00000001
 40
0.0
 40
0.0
 40
0.0
 40
0.0
 40
0.0062850041361084
 40
0.3354257818855553
 40
0.5023732316758416
 40
0.6716520986950968
 40
1.0
 40
1.0
 40
1.0
 40
1.0
 10
133.0666389837384
 20
487.1187428138874
 30
0.0
 10
133.0747844670241
 20
487.1241485675733
 30
0.0
 10
133.5095025739329
 20
487.412649436869
 30
0.0
 10
134.4475261612297
 20
487.8411801793487
 30
0.0
 10
135.8689006586019
 20
488.3847326100195
 30
0.0
 10
137.4658679719729
 20
488.9098441587645
 30
0.0
 10
138.8970633861092
 20
489.2578746020255
 30
0.0
 10
139.8414056934401
 20
489.4875147116599
 30
0.0
  0
SPLINE
  5
B2
330
1F
100
AcDbEntity
  8
0
  6
Continuous
 62
     7
370
    15
100
AcDbSpline
210
0.0
220
0.0
230
1.0
 70
    24
 71
     3
 72
    31
 73
    27
 74
     0
 42
0.00000001
 43
0.00000001
 40
0.0
 40
0.0
 40
0.0
 40
0.0
 40
0.0316812337795732
 40
0.0632780325498515
 40
0.0948047465031351
 40
0.1262758217037729
 40
0.157705780935459
 40
0.1891092040252419
 40
0.220500707774437
 40
0.2518949256329009
 40
0.2833064872572938
 40
0.3147499980957883
 40
0.3462400191413084
 40
0.377791046992606
 40
0.4094174943575671
 40
0.4411336711261068
 40
0.4729537661311035
 40
0.5048918297053109
 40
0.567268941224961
 40
0.629286676622557
 40
0.6910538480216686
 40
0.7526805947955939
 40
0.8142778095842309
 40
0.8759565443149864
 40
0.93782741195676
 40
1.0
 40
1.0
 40
1.0
 40
1.0
 10
148.8731526019899
 20
370.4062551083425
 30
0.0
 10
148.7187699340256
 20
370.4062551083425
 30
0.0
 10
148.4104160499396
 20
370.4062551083425
 30
0.0
 10
147.9515754487923
 20
370.4062551083425
 30
0.0
 10
147.4963290723715
 20
370.4062551083425
 30
0.0
 10
147.0448861945663
 20
370.4062551083425
 30
0.0
 10
146.5971912989096
 20
370.4062551083425
 30
0.0
 10
146.1532596075551
 20
370.4062551083425
 30
0.0
 10
145.7130874261849
 20
370.4062551083425
 30
0.0
 10
145.2766761120446
 20
370.4062551083426
 30
0.0
 10
144.844025658377
 20
370.4062551083425
 30
0.0
 10
144.4151364057064
 20
370.4062551083425
 30
0.0
 10
143.9900085922415
 20
370.4062551083425
 30
0.0
 10
143.568642426897
 20
370.4062551083425
 30
0.0
 10
143.1510382348792
 20
370.4062551083426
 30
0.0
 10
142.7371957887364
 20
370.4062551083425
 30
0.0
 10
142.3271168398804
 20
370.4062551083425
 30
0.0
 10
141.7922899396054
 20
370.4062551083425
 30
0.0
 10
141.1424850229003
 20
370.4062551083425
 30
0.0
 10
140.3911922196959
 20
370.4062551083425
 30
0.0
 10
139.6668051642067
 20
370.4062551083426
 30
0.0
 10
138.9694007169323
 20
370.4062551083425
 30
0.0
 10
138.2987851002909
 20
370.4062551083425
 30
0.0
 10
137.6557012180654
 20
370.4062551083425
 30
0.0
 10
137.037398857609
 20
370.4062551083425
 30
0.0
 10
136.6497875791172
 20
370.4062551083426
 30
0.0
 10
136.4555105315656
 20
370.4062551083425
 30
0.0
  0
SPLINE
  5
B3
330
1F
100
AcDbEntity
  8
0
  6
Continuous
 62
     7
370
    15
100
AcDbSpline
210
0.0
220
0.0
230
1.0
 70
     8
 71
     3
 72
    14
 73
    10
 74
     0
 42
0.00000001
 43
0.00000001
 40
0.0
 40
0.0
 40
0.0
 40
0.0
 40
0.2500000000000001
 40
0.2500000000000001
 40
0.5000000000000001
 40
0.5000000000000001
 40
0.7500000000000002
 40
0.7500000000000002
 40
1.0
 40
1.0
 40
1.0
 40
1.0
 10
158.893657034076
 20
370.4062551059559
 30
0.0
 10
160.1123767250463
 20
370.4061941139357
 30
0.0
 10
161.3079726045638
 20
370.4051247861131
 30
0.0
 10
163.6155517155959
 20
370.4062568649513
 30
0.0
 10
164.7273920431238
 20
370.4064439448028
 30
0.0
 10
166.8398881456095
 20
370.4067732328438
 30
0.0
 10
167.8390125063718
 20
370.407638195509
 30
0.0
 10
169.6898260918291
 20
370.4060896634512
 30
0.0
 10
170.5429012420645
 20
370.4049316758948
 30
0.0
 10
171.3111535951679
 20
370.4062792543899
 30
0.0
  0
SPLINE
  5
B4
330
1F
100
AcDbEntity
  8
0
  6
Continuous
 62
     7
370
    15
100
AcDbSpline
210
0.0
220
0.0
230
1.0
 70
    24
 71
     3
 72
     8
 73
     4
 74
     0
 42
0.00000001
 43
0.00000001
 40
0.0
 40
0.0
 40
0.0
 40
0.0
 40
1.0
 40
1.0
 40
1.0
 40
1.0
 10
134.207172263409
 20
370.4062551083425
 30
0.0
 10
134.8390971760888
 20
370.4062551083425
 30
0.0
 10
135.5943594291415
 20
370.4062551083425
 30
0.0
 10
136.4555105315672
 20
370.4062551083425
 30
0.0
  0
SPLINE
  5
B5
330
1F
100
AcDbEntity
  8
0
  6
Continuous
 62
     7
370
    15
100
AcDbSpline
210
0.0
220
0.0
230
1.0
 70
    24
 71
     3
 72
     8
 73
     4
 74
     0
 42
0.00000001
 43
0.00000001
 40
0.0
 40
0.0
 40
0.0
 40
0.0
 40
1.0
 40
1.0
 40
1.0
 40
1.0
 10
171.3112987209297
 20
370.4062551083425
 30
0.0
 10
172.1731512101367
 20
370.4062551083425
 30
0.0
 10
172.9286698092556
 20
370.4062551083426
 30
0.0
 10
173.5605942686489
 20
370.4062551083426
 30
0.0
  0
SPLINE
  5
B6
330
1F
100
AcDbEntity
  8
0
  6
Continuous
 62
     7
370
    15
100
AcDbSpline
210
0.0
220
0.0
230
1.0
 70
    24
 71
     3
 72
     8
 73
     4
 74
     0
 42
0.00000001
 43
0.00000001
 40
0.0
 40
0.0
 40
0.0
 40
0.0
 40
1.0
 40
1.0
 40
1.0
 40
1.0
 10
133.4219662676968
 20
370.4062551083425
 30
0.0
 10
133.6549535989137
 20
370.4062551083425
 30
0.0
 10
133.9174036945786
 20
370.4062551083425
 30
0.0
 10
134.207172263409
 20
370.4062551083425
 30
0.0
  0
SPLINE
  5
B7
330
1F
100
AcDbEntity
  8
0
  6
Continuous
 62
     7
370
    15
100
AcDbSpline
210
0.0
220
0.0
230
1.0
 70
    24
 71
     3
 72
     8
 73
     4
 74
     0
 42
0.00000001
 43
0.00000001
 40
0.0
 40
0.0
 40
0.0
 40
0.0
 40
1.0
 40
1.0
 40
1.0
 40
1.0
 10
173.5605942686489
 20
370.4062551083425
 30
0.0
 10
173.8499990446795
 20
370.4062551083425
 30
0.0
 10
174.1121844811719
 20
370.4062551083426
 30
0.0
 10
174.3450276444511
 20
370.4062551083426
 30
0.0
  0
SPLINE
  5
B8
330
1F
100
AcDbEntity
  8
0
  6
Continuous
 62
     7
370
    15
100
AcDbSpline
210
0.0
220
0.0
230
1.0
 70
     8
 71
     3
 72
    11
 73
     7
 74
     0
 42
0.00000001
 43
0.00000001
 40
0.0
 40
0.0
 40
0.0
 40
0.0
 40
0.291668935585671
 40
0.500001886832685
 40
0.708334272026917
 40
1.0
 40
1.0
 40
1.0
 40
1.0
 10
133.3994543164859
 20
370.4062551083426
 30
0.0
 10
133.4016153015186
 20
370.4062551083426
 30
0.0
 10
133.4053336976118
 20
370.4062551083723
 30
0.0
 10
133.410635044421
 20
370.4062551081937
 30
0.0
 10
133.415964373015
 20
370.4062551083722
 30
0.0
 10
133.419749954795
 20
370.4062551083425
 30
0.0
 10
133.4219662676968
 20
370.4062551083425
 30
0.0
  0
SPLINE
  5
B9
330
1F
100
AcDbEntity
  8
0
  6
Continuous
 62
     7
370
    15
100
AcDbSpline
210
0.0
220
0.0
230
1.0
 70
    24
 71
     3
 72
    11
 73
     7
 74
     0
 42
0.00000001
 43
0.00000001
 40
0.0
 40
0.0
 40
0.0
 40
0.0
 40
0.2850455990738595
 40
0.494818677625223
 40
0.704864183769899
 40
1.0
 40
1.0
 40
1.0
 40
1.0
 10
174.3450276444511
 20
370.4062551083425
 30
0.0
 10
174.3471833576349
 20
370.4062551083416
 30
0.0
 10
174.3508980754621
 20
370.4062551083138
 30
0.0
 10
174.3561567507519
 20
370.4062551083206
 30
0.0
 10
174.3614621483315
 20
370.406255108255
 30
0.0
 10
174.3651867945204
 20
370.4062551083426
 30
0.0
 10
174.3673549360103
 20
370.4062551083426
 30
0.0
  0
SPLINE
  5
BA
330
1F
100
AcDbEntity
  8
0
  6
Continuous
 62
     7
370
    15
100
AcDbSpline
210
0.0
220
0.0
230
1.0
 70
     8
 71
     3
 72
    10
 73
     6
 74
     0
 42
0.00000001
 43
0.00000001
 40
0.0
 40
0.0
 40
0.0
 40
0.0
 40
0.4716261774628063
 40
0.9797325291805703
 40
1.0
 40
1.0
 40
1.0
 40
1.0
 10
133.2643569703681
 20
409.7238521053736
 30
0.0
 10
132.8888865137675
 20
409.7238521059833
 30
0.0
 10
132.1089030487765
 20
409.7238521072499
 30
0.0
 10
131.6949965592712
 20
409.7238521086195
 30
0.0
 10
131.8276724129672
 20
409.7238521093337
 30
0.0
 10
131.8327616204157
 20
409.7238521093611
 30
0.0
  0
SPLINE
  5
BB
330
1F
100
AcDbEntity
  8
0
  6
Continuous
 62
     7
370
    15
100
AcDbSpline
210
0.0
220
0.0
230
1.0
 70
     8
 71
     3
 72
    10
 73
     6
 74
     0
 42
0.00000001
 43
0.00000001
 40
0.0
 40
0.0
 40
0.0
 40
0.0
 40
0.0202674708823319
 40
0.5283738225699177
 40
1.0
 40
1.0
 40
1.0
 40
1.0
 10
175.9340476378766
 20
409.7238521093611
 30
0.0
 10
175.939136845247
 20
409.7238521093337
 30
0.0
 10
176.0718126965052
 20
409.7238521086196
 30
0.0
 10
175.6579062046725
 20
409.7238521072499
 30
0.0
 10
174.877922739037
 20
409.7238521059832
 30
0.0
 10
174.5024522821281
 20
409.7238521053736
 30
0.0
  0
LINE
  5
BC
330
1F
100
AcDbEntity
  8
0
  6
Continuous
 62
     7
370
    15
100
AcDbLine
 10
174.4843086533
 20
370.4062551083
 30
0.0
 11
175.9299861061
 21
370.4062551083
 31
0.0
  0
SPLINE
  5
BD
330
1F
100
AcDbEntity
  8
0
  6
Continuous
 62
     7
370
    15
100
AcDbSpline
210
0.0
220
0.0
230
1.0
 70
    24
 71
     3
 72
    10
 73
     6
 74
     0
 42
0.00000001
 43
0.00000001
 40
0.0
 40
0.0
 40
0.0
 40
0.0
 40
0.0362801568653543
 40
0.5914637170061852
 40
1.0
 40
1.0
 40
1.0
 40
1.0
 10
131.8562315885274
 20
370.4062551083425
 30
0.0
 10
131.8494003360704
 20
370.4062551083425
 30
0.0
 10
131.7380326265802
 20
370.4062551083425
 30
0.0
 10
132.0577808776534
 20
370.4062551083425
 30
0.0
 10
132.7173165195857
 20
370.4062551083425
 30
0.0
 10
132.9969042458076
 20
370.4062551083425
 30
0.0
  0
SPLINE
  5
BE
330
1F
100
AcDbEntity
  8
0
  6
Continuous
 62
     8
370
     0
100
AcDbSpline
210
0.0
220
0.0
230
1.0
 70
     8
 71
     3
 72
     9
 73
     5
 74
     0
 42
0.00000001
 43
0.00000001
 40
0.0
 40
0.0
 40
0.0
 40
0.0
 40
0.7470456330376388
 40
1.0
 40
1.0
 40
1.0
 40
1.0
 10
167.9091031487854
 20
476.7962328928564
 30
0.0
 10
167.9162110592226
 20
476.7810631637937
 30
0.0
 10
167.9257257530015
 20
476.7607568687137
 30
0.0
 10
167.9243689509945
 20
476.7404368567508
 30
0.0
 10
167.9240257420017
 20
476.735296820988
 30
0.0
  0
SPLINE
  5
BF
330
1F
100
AcDbEntity
  8
0
  6
Continuous
 62
     8
370
     0
100
AcDbSpline
210
0.0
220
0.0
230
1.0
 70
     8
 71
     3
 72
     9
 73
     5
 74
     0
 42
0.00000001
 43
0.00000001
 40
0.0
 40
0.0
 40
0.0
 40
0.0
 40
0.4130279001791569
 40
1.0
 40
1.0
 40
1.0
 40
1.0
 10
139.8436551388854
 20
476.7352964339381
 30
0.0
 10
139.8432144568743
 20
476.7436897354517
 30
0.0
 10
139.842147502291
 20
476.7640111265974
 30
0.0
 10
139.851951456262
 20
476.7843150539712
 30
0.0
 10
139.8577061037108
 20
476.7962328928564
 30
0.0
  0
SPLINE
  5
C0
330
1F
100
AcDbEntity
  8
0
  6
Continuous
 62
     8
370
     0
100
AcDbSpline
210
0.0
220
0.0
230
1.0
 70
     8
 71
     3
 72
    20
 73
    16
 74
     0
 42
0.00000001
 43
0.00000001
 40
0.0
 40
0.0
 40
0.0
 40
0.0
 40
0.1249999999999981
 40
0.1249999999999981
 40
0.2499999999999963
 40
0.2499999999999963
 40
0.4999999999999988
 40
0.4999999999999988
 40
0.624999999999998
 40
0.624999999999998
 40
0.6874999999999979
 40
0.6874999999999979
 40
0.7499999999999977
 40
0.7499999999999977
 40
1.0
 40
1.0
 40
1.0
 40
1.0
 10
162.5858126052514
 20
495.7244658578475
 30
0.0
 10
162.3561934892175
 20
495.7371935976309
 30
0.0
 10
162.1068566913895
 20
495.7496836651348
 30
0.0
 10
161.5731023382257
 20
495.77544885526
 30
0.0
 10
161.2978425644427
 20
495.7922183795654
 30
0.0
 10
160.4079759898941
 20
495.8631407020205
 30
0.0
 10
159.738405379416
 20
495.9326735379119
 30
0.0
 10
158.6479260004101
 20
496.0467746319667
 30
0.0
 10
158.2778055877818
 20
496.0863673679713
 30
0.0
 10
157.6664727027908
 20
496.1471153395052
 30
0.0
 10
157.4550357004665
 20
496.167228380087
 30
0.0
 10
157.0294018136424
 20
496.2045987977817
 30
0.0
 10
156.8134912900413
 20
496.2221296604834
 30
0.0
 10
155.7208876060878
 20
496.3021698133615
 30
0.0
 10
154.8036140445007
 20
496.3404162752238
 30
0.0
 10
153.8834046261098
 20
496.3404000275445
 30
0.0
  0
SPLINE
  5
C1
330
1F
100
AcDbEntity
  8
0
  6
Continuous
 62
     8
370
     0
100
AcDbSpline
210
0.0
220
0.0
230
1.0
 70
     8
 71
     3
 72
    27
 73
    23
 74
     0
 42
0.00000001
 43
0.00000001
 40
0.0
 40
0.0
 40
0.0
 40
0.0
 40
0.0322828786666563
 40
0.0638630462284079
 40
0.0947451982461548
 40
0.1249333682695368
 40
0.1543960278771734
 40
0.1843065095663848
 40
0.2109090511427688
 40
0.241257575161208
 40
0.3624046526969461
 40
0.4766471491329682
 40
0.5431052970343495
 40
0.5996208350103844
 40
0.6306553659342141
 40
0.6644890023670298
 40
0.6976573430046601
 40
0.730331549835254
 40
0.8007560074177671
 40
0.8690724181928673
 40
0.9353911478019791
 40
1.0
 40
1.0
 40
1.0
 40
1.0
 10
145.1809948414436
 20
495.7244554631354
 30
0.0
 10
145.2409045632221
 20
495.7277261530047
 30
0.0
 10
145.359419933892
 20
495.7341963386559
 30
0.0
 10
145.545015045394
 20
495.7437549621022
 30
0.0
 10
145.73350589448
 20
495.7531822723532
 30
0.0
 10
145.9235298264308
 20
495.7623878286077
 30
0.0
 10
146.1219271158702
 20
495.7720465357099
 30
0.0
 10
146.3254778604312
 20
495.7834923726631
 30
0.0
 10
146.5411361473354
 20
495.7983703900092
 30
0.0
 10
146.9969877022248
 20
495.8333021466085
 30
0.0
 10
147.721096268322
 20
495.9007230207197
 30
0.0
 10
148.6068809721909
 20
495.9931919852743
 30
0.0
 10
149.3302110715676
 20
496.0688180585296
 30
0.0
 10
149.8137859219689
 20
496.1189727566619
 30
0.0
 10
150.2041316373459
 20
496.1570377490398
 30
0.0
 10
150.5220358419517
 20
496.1860651975524
 30
0.0
 10
150.8475742414512
 20
496.2135436735963
 30
0.0
 10
151.2956471998078
 20
496.2480867785001
 30
0.0
 10
151.8646311112271
 20
496.2851088225902
 30
0.0
 10
152.5514567175973
 20
496.3171125040021
 30
0.0
 10
153.2227178509384
 20
496.3367933428254
 30
0.0
 10
153.665101503189
 20
496.3392018346453
 30
0.0
 10
153.8834046262481
 20
496.3403903534423
 30
0.0
  0
LINE
  5
C2
330
1F
100
AcDbEntity
  8
0
  6
Continuous
 62
     8
370
     0
100
AcDbLine
 10
143.9952710226
 20
495.6331735539
 30
0.0
 11
145.1809948414
 21
495.7244554631
 31
0.0
  0
LINE
  5
C3
330
1F
100
AcDbEntity
  8
0
  6
Continuous
 62
     8
370
     0
100
AcDbLine
 10
153.8834046262
 20
496.3403903534
 30
0.0
 11
153.8834046262
 21
496.3457734072
 31
0.0
  0
SPLINE
  5
C4
330
1F
100
AcDbEntity
  8
0
  6
Continuous
 62
     8
370
     0
100
AcDbSpline
210
0.0
220
0.0
230
1.0
 70
     8
 71
     3
 72
    10
 73
     6
 74
     0
 42
0.00000001
 43
0.00000001
 40
0.0
 40
0.0
 40
0.0
 40
0.0
 40
0.5
 40
0.5
 40
1.0
 40
1.0
 40
1.0
 40
1.0
 10
163.8753423422471
 20
495.6251916811302
 30
0.0
 10
163.7236575092559
 20
495.6434033397231
 30
0.0
 10
163.5392157875838
 20
495.6602647628388
 30
0.0
 10
163.1079236500586
 20
495.6931702427065
 30
0.0
 10
162.8610800145742
 20
495.7092071094175
 30
0.0
 10
162.5858220495615
 20
495.724464600579
 30
0.0
  0
LINE
  5
C5
330
1F
100
AcDbEntity
  8
0
  6
Continuous
 62
     8
370
     0
100
AcDbLine
 10
143.4422801828
 20
457.7196697235
 30
0.0
 11
143.4429742179
 21
457.8761987171
 31
0.0
  0
SPLINE
  5
C6
330
1F
100
AcDbEntity
  8
0
  6
Continuous
 62
     8
370
     0
100
AcDbSpline
210
0.0
220
0.0
230
1.0
 70
     8
 71
     3
 72
    10
 73
     6
 74
     0
 42
0.00000001
 43
0.00000001
 40
0.0
 40
0.0
 40
0.0
 40
0.0
 40
0.4523245301985383
 40
0.9047072684729266
 40
1.0
 40
1.0
 40
1.0
 40
1.0
 10
143.4429742178979
 20
457.8761987171013
 30
0.0
 10
143.4505378167157
 20
459.608594071031
 30
0.0
 10
143.4656659876846
 20
463.0736077148434
 30
0.0
 10
143.4820403038074
 20
466.4719841213345
 30
0.0
 10
143.4902519118384
 20
468.0068224451131
 30
0.0
 10
143.4916806896505
 20
468.2738764659518
 30
0.0
  0
SPLINE
  5
C7
330
1F
100
AcDbEntity
  8
0
  6
Continuous
 62
     8
370
     0
100
AcDbSpline
210
0.0
220
0.0
230
1.0
 70
     8
 71
     3
 72
    10
 73
     6
 74
     0
 42
0.00000001
 43
0.00000001
 40
0.0
 40
0.0
 40
0.0
 40
0.0
 40
0.4520961785967215
 40
0.904250536035962
 40
1.0
 40
1.0
 40
1.0
 40
1.0
 10
164.3238354897227
 20
457.876198597792
 30
0.0
 10
164.3162718459185
 20
459.6086133004866
 30
0.0
 10
164.3011435849685
 20
463.0736656449026
 30
0.0
 10
164.2847614844851
 20
466.4735484050262
 30
0.0
 10
164.2765424890628
 20
468.0097217788723
 30
0.0
 10
164.2751061705426
 20
468.278177247434
 30
0.0
  0
LINE
  5
C8
330
1F
100
AcDbEntity
  8
0
  6
Continuous
 62
     8
370
     0
100
AcDbLine
 10
164.3245298467
 20
457.7196763471
 30
0.0
 11
164.32383584
 21
457.8761986272
 31
0.0
  0
SPLINE
  5
C9
330
1F
100
AcDbEntity
  8
0
  6
Continuous
 62
     8
370
     0
100
AcDbSpline
210
0.0
220
0.0
230
1.0
 70
     8
 71
     3
 72
    12
 73
     8
 74
     0
 42
0.00000001
 43
0.00000001
 40
0.0
 40
0.0
 40
0.0
 40
0.0
 40
0.1495526395248183
 40
0.3167455001638131
 40
0.501570592786668
 40
0.7523469844779289
 40
1.0
 40
1.0
 40
1.0
 40
1.0
 10
164.6380022882324
 20
406.6390818583225
 30
0.0
 10
164.6244898873899
 20
409.1826841028642
 30
0.0
 10
164.5958712539985
 20
414.5699147644232
 30
0.0
 10
164.545794916951
 20
423.1058047457399
 30
0.0
 10
164.4825085860321
 20
433.3686858369687
 30
0.0
 10
164.406956719259
 20
445.0067752352595
 30
0.0
 10
164.3519748052173
 20
453.4998890807942
 30
0.0
 10
164.3246561185296
 20
457.7198352247798
 30
0.0
  0
SPLINE
  5
CA
330
1F
100
AcDbEntity
  8
0
  6
Continuous
 62
     8
370
     0
100
AcDbSpline
210
0.0
220
0.0
230
1.0
 70
     8
 71
     3
 72
    16
 73
    12
 74
     0
 42
0.00000001
 43
0.00000001
 40
0.0
 40
0.0
 40
0.0
 40
0.0
 40
0.5000000000000002
 40
0.5000000000000002
 40
0.7500000000000002
 40
0.8750000000000004
 40
0.9375000000000007
 40
0.9375000000000007
 40
0.9687500000000003
 40
0.9687500000000003
 40
1.0
 40
1.0
 40
1.0
 40
1.0
 10
143.1288070106234
 20
406.6390820685529
 30
0.0
 10
143.1726593953905
 20
415.1420384106797
 30
0.0
 10
143.2236200241341
 20
423.6518461819845
 30
0.0
 10
143.3041513355641
 20
436.4230950886359
 30
0.0
 10
143.3454429647945
 20
442.810335223671
 30
0.0
 10
143.3940698168546
 20
450.2638909197299
 30
0.0
 10
143.4148725878254
 20
453.4585246569738
 30
0.0
 10
143.4252568093648
 20
455.0558727107322
 30
0.0
 10
143.4290896368301
 20
455.5939765773534
 30
0.0
 10
143.4364418570861
 20
456.6668736963911
 30
0.0
 10
143.4398775332843
 20
457.2003964337759
 30
0.0
 10
143.4422801827993
 20
457.7196697235239
 30
0.0
  0
SPLINE
  5
CB
330
1F
100
AcDbEntity
  8
0
  6
Continuous
 62
     8
370
     0
100
AcDbSpline
210
0.0
220
0.0
230
1.0
 70
     8
 71
     3
 72
    13
 73
     9
 74
     0
 42
0.00000001
 43
0.00000001
 40
0.0
 40
0.0
 40
0.0
 40
0.0
 40
0.1663308349172845
 40
0.3327955959528817
 40
0.4993945785816479
 40
0.6661280922056184
 40
0.8329964568802982
 40
1.0
 40
1.0
 40
1.0
 40
1.0
 10
164.6220682597135
 20
398.9816012770645
 30
0.0
 10
164.6257128619737
 20
399.4123292683131
 30
0.0
 10
164.6330050010519
 20
400.2741320640032
 30
0.0
 10
164.6400573551151
 20
401.5587877611069
 30
0.0
 10
164.6442930790546
 20
402.8381653302252
 30
0.0
 10
164.6453606342616
 20
404.111428522441
 30
0.0
 10
164.6436129943486
 20
405.3793286611972
 30
0.0
 10
164.6398730283517
 20
406.2190507967235
 30
0.0
 10
164.6380022882324
 20
406.6390818583225
 30
0.0
  0
SPLINE
  5
CC
330
1F
100
AcDbEntity
  8
0
  6
Continuous
 62
     8
370
     0
100
AcDbSpline
210
0.0
220
0.0
230
1.0
 70
     8
 71
     3
 72
    15
 73
    11
 74
     0
 42
0.00000001
 43
0.00000001
 40
0.0
 40
0.0
 40
0.0
 40
0.0
 40
0.108570071673711
 40
0.2280162137701069
 40
0.3583381655481957
 40
0.4995350333960564
 40
0.6313357985412344
 40
0.7495581635776255
 40
0.8926051115398406
 40
1.0
 40
1.0
 40
1.0
 40
1.0
 10
164.8665115752842
 20
393.2438078695083
 30
0.0
 10
164.8478925286061
 20
393.4531751131309
 30
0.0
 10
164.8087892613604
 20
393.8928830864459
 30
0.0
 10
164.7575641311103
 20
394.582227180065
 30
0.0
 10
164.7102896306188
 20
395.3327373192909
 30
0.0
 10
164.6718227624993
 20
396.1049371611353
 30
0.0
 10
164.6442039910704
 20
396.8520209832749
 30
0.0
 10
164.6261895621436
 20
397.6007533823068
 30
0.0
 10
164.618284159571
 20
398.3016585771496
 30
0.0
 10
164.6209325657378
 20
398.7775351057104
 30
0.0
 10
164.6220682597135
 20
398.9816012770644
 30
0.0
  0
SPLINE
  5
CD
330
1F
100
AcDbEntity
  8
0
  6
Continuous
 62
     8
370
     0
100
AcDbSpline
210
0.0
220
0.0
230
1.0
 70
     8
 71
     3
 72
    10
 73
     6
 74
     0
 42
0.00000001
 43
0.00000001
 40
0.0
 40
0.0
 40
0.0
 40
0.0
 40
0.5
 40
0.5
 40
1.0
 40
1.0
 40
1.0
 40
1.0
 10
142.900297612579
 20
393.2438062521735
 30
0.0
 10
142.9884313149528
 20
394.207889809855
 30
0.0
 10
143.0528281749708
 20
395.1673149286804
 30
0.0
 10
143.1353323263911
 20
397.0778794268028
 30
0.0
 10
143.1534411376283
 20
398.0290169941197
 30
0.0
 10
143.1447410540299
 20
398.9816015572654
 30
0.0
  0
SPLINE
  5
CE
330
1F
100
AcDbEntity
  8
0
  6
Continuous
 62
     8
370
     0
100
AcDbSpline
210
0.0
220
0.0
230
1.0
 70
     8
 71
     3
 72
     8
 73
     4
 74
     0
 42
0.00000001
 43
0.00000001
 40
0.0
 40
0.0
 40
0.0
 40
0.0
 40
1.0
 40
1.0
 40
1.0
 40
1.0
 10
143.1447410540299
 20
398.9816015572654
 30
0.0
 10
143.1210534331842
 20
401.575192952074
 30
0.0
 10
143.1157779689949
 20
404.1127571533463
 30
0.0
 10
143.128807010633
 20
406.6390820685515
 30
0.0
  0
SPLINE
  5
CF
330
1F
100
AcDbEntity
  8
0
  6
Continuous
 62
     8
370
    15
100
AcDbSpline
210
0.0
220
0.0
230
1.0
 70
     8
 71
     3
 72
     9
 73
     5
 74
     0
 42
0.00000001
 43
0.00000001
 40
2.0
 40
2.0
 40
2.0
 40
2.0
 40
2.89924943952887
 40
3.799141563875045
 40
3.799141563875045
 40
3.799141563875045
 40
3.799141563875045
 10
167.9254035590561
 20
402.2236848062911
 30
0.0
 10
167.9254035590561
 20
401.2671138721149
 30
0.0
 10
167.9778388736062
 20
399.3518284806905
 30
0.0
 10
168.1339630706692
 20
397.4184797805878
 30
0.0
 10
168.2376109014999
 20
396.447948089226
 30
0.0
  0
SPLINE
  5
D0
330
1F
100
AcDbEntity
  8
0
  6
Continuous
 62
     8
370
    15
100
AcDbSpline
210
0.0
220
0.0
230
1.0
 70
     8
 71
     3
 72
     9
 73
     5
 74
     0
 42
0.00000001
 43
0.00000001
 40
2.0
 40
2.0
 40
2.0
 40
2.0
 40
2.89924943952887
 40
3.799141563875045
 40
3.799141563875045
 40
3.799141563875045
 40
3.799141563875045
 10
139.8414056934401
 20
402.2236848062911
 30
0.0
 10
139.8414056934401
 20
401.2671138721149
 30
0.0
 10
139.7889703788899
 20
399.3518284806905
 30
0.0
 10
139.6328461818269
 20
397.4184797805878
 30
0.0
 10
139.5291983509963
 20
396.447948089226
 30
0.0
  0
SPLINE
  5
D1
330
1F
100
AcDbEntity
  8
0
  6
Continuous
 62
     8
370
     0
100
AcDbSpline
210
0.0
220
0.0
230
1.0
 70
     8
 71
     3
 72
     8
 73
     4
 74
     0
 42
0.00000001
 43
0.00000001
 40
2.0
 40
2.0
 40
2.0
 40
2.0
 40
3.09965581616584
 40
3.09965581616584
 40
3.09965581616584
 40
3.09965581616584
 10
168.063679709656
 20
406.3631091325333
 30
0.0
 10
167.9715246122931
 20
407.5927615443423
 30
0.0
 10
167.9254035590561
 20
408.8226288116307
 30
0.0
 10
167.9254035590561
 20
410.0514347850828
 30
0.0
  0
SPLINE
  5
D2
330
1F
100
AcDbEntity
  8
0
  6
Continuous
 62
     8
370
     0
100
AcDbSpline
210
0.0
220
0.0
230
1.0
 70
     8
 71
     3
 72
     8
 73
     4
 74
     0
 42
0.00000001
 43
0.00000001
 40
2.0
 40
2.0
 40
2.0
 40
2.0
 40
3.09965581616584
 40
3.09965581616584
 40
3.09965581616584
 40
3.09965581616584
 10
139.7031295428402
 20
406.3631091325333
 30
0.0
 10
139.7952846402031
 20
407.5927615443423
 30
0.0
 10
139.8414056934401
 20
408.8226288116307
 30
0.0
 10
139.8414056934401
 20
410.0514347850828
 30
0.0
  0
SPLINE
  5
D3
330
1F
100
AcDbEntity
  8
0
  6
Continuous
 62
     8
370
    15
100
AcDbSpline
210
0.0
220
0.0
230
1.0
 70
     8
 71
     3
 72
    29
 73
    25
 74
     0
 42
0.00000001
 43
0.00000001
 40
0.0
 40
0.0
 40
0.0
 40
0.0
 40
0.0147086652914374
 40
0.0299954926569092
 40
0.0458626541407827
 40
0.06231209189606
 40
0.0914636387224004
 40
0.1247181727185737
 40
0.1425521679828431
 40
0.1603883622035744
 40
0.1782290744300775
 40
0.1960677189984485
 40
0.2496023848027152
 40
0.3746002517016198
 40
0.4371375575933183
 40
0.4996912034795329
 40
0.5622535604503078
 40
0.6248182111242512
 40
0.696315996856274
 40
0.7499318975769055
 40
0.813440699969149
 40
0.8749968711107293
 40
0.93693797400108
 40
1.0
 40
1.0
 40
1.0
 40
1.0
 10
168.2376109500149
 20
396.4479489227803
 30
0.0
 10
168.2496703428562
 20
396.3359485743525
 30
0.0
 10
168.2742631541174
 20
396.107545414564
 30
0.0
 10
168.3140845418417
 20
395.7508486040968
 30
0.0
 10
168.3571485265737
 20
395.3756073660324
 30
0.0
 10
168.4152678799561
 20
394.8843959940087
 30
0.0
 10
168.4942048027559
 20
394.2436329366351
 30
0.0
 10
168.5807789554043
 20
393.5818534306981
 30
0.0
 10
168.6595918318406
 20
393.0087961527854
 30
0.0
 10
168.7233348466957
 20
392.5630516157568
 30
0.0
 10
168.7898217022818
 20
392.1181268137185
 30
0.0
 10
168.9048419305848
 20
391.3743944328232
 30
0.0
 10
169.1753377889721
 20
389.7208101482553
 30
0.0
 10
169.559070191935
 20
387.6461556202628
 30
0.0
 10
170.0113984175549
 20
385.4618327683618
 30
0.0
 10
170.3781334019988
 20
383.8115932626468
 30
0.0
 10
170.7726937315651
 20
382.1548686754999
 30
0.0
 10
171.2158684853461
 20
380.4173506751969
 30
0.0
 10
171.6704047516727
 20
378.7619154700563
 30
0.0
 10
172.1578710809121
 20
377.1047111123632
 30
0.0
 10
172.6474806235212
 20
375.5431552442545
 30
0.0
 10
173.192421647925
 20
373.9195493299079
 30
0.0
 10
173.7657652905876
 20
372.3105526707813
 30
0.0
 10
174.1777045139713
 20
371.241894274915
 30
0.0
 10
174.3855210882109
 20
370.7027736613519
 30
0.0
  0
SPLINE
  5
D4
330
1F
100
AcDbEntity
  8
0
  6
Continuous
 62
     8
370
     0
100
AcDbSpline
210
0.0
220
0.0
230
1.0
 70
     8
 71
     3
 72
    30
 73
    26
 74
     0
 42
0.00000001
 43
0.00000001
 40
0.0
 40
0.0
 40
0.0
 40
0.0
 40
0.0175586431811713
 40
0.035254063854947
 40
0.0530898733394465
 40
0.0710695983579374
 40
0.0891966816335422
 40
0.1074744826206979
 40
0.1259062783610413
 40
0.1574481846298197
 40
0.188703867755864
 40
0.2513962672366959
 40
0.3763705738566268
 40
0.5008514061969881
 40
0.5630270734774306
 40
0.6251591148067648
 40
0.6873167923471138
 40
0.7495352839329353
 40
0.811879204855492
 40
0.8743862529354695
 40
0.9370858278391001
 40
0.9685202700859623
 40
0.984258608875635
 40
0.9921301309691543
 40
1.0
 40
1.0
 40
1.0
 40
1.0
 10
174.5024522395282
 20
409.7238519624016
 30
0.0
 10
174.446525031688
 20
409.6016873250417
 30
0.0
 10
174.3342349568751
 20
409.3564064179769
 30
0.0
 10
174.1654722584501
 20
408.9958153180248
 30
0.0
 10
173.9958164157732
 20
408.6387930229303
 30
0.0
 10
173.8254081026037
 20
408.2859791961472
 30
0.0
 10
173.6543740520349
 20
407.9372001049534
 30
0.0
 10
173.4828473620246
 20
407.5925034072856
 30
0.0
 10
173.2707048237038
 20
407.1720858391985
 30
0.0
 10
173.0206604047867
 20
406.6854591923727
 30
0.0
 10
172.6396081378864
 20
405.9616469832021
 30
0.0
 10
171.9900258306997
 20
404.7741745438495
 30
0.0
 10
171.1096013737227
 20
403.3435718059853
 30
0.0
 10
170.3136130294415
 20
402.4198169802295
 30
0.0
 10
169.7502022361711
 20
402.0764337860111
 30
0.0
 10
169.3686636388776
 20
402.0298080254908
 30
0.0
 10
169.0324217935805
 20
402.2073767221871
 30
0.0
 10
168.744098700443
 20
402.611228313886
 30
0.0
 10
168.5046120541376
 20
403.2410137762069
 30
0.0
 10
168.3126699725036
 20
404.0843912791047
 30
0.0
 10
168.1900781111115
 20
404.95595162855
 30
0.0
 10
168.1215590337729
 20
405.6374415147118
 30
0.0
 10
168.0915132954274
 20
405.9993236066071
 30
0.0
 10
168.0753109493076
 20
406.2083402285427
 30
0.0
 10
168.0675563511421
 20
406.3115253375056
 30
0.0
 10
168.0636794592291
 20
406.3631124740589
 30
0.0
  0
LINE
  5
D5
330
1F
100
AcDbEntity
  8
0
  6
Continuous
 62
     8
370
     0
100
AcDbLine
 10
174.5024522395
 20
409.7238519624
 30
0.0
 11
174.5024522395
 21
370.7027082878
 31
0.0
  0
LINE
  5
D6
330
1F
100
AcDbEntity
  8
0
  6
Continuous
 62
     8
370
     0
100
AcDbLine
 10
133.3812531287
 20
370.7027082878
 30
0.0
 11
133.2643570129
 21
370.7027082878
 31
0.0
  0
LINE
  5
D7
330
1F
100
AcDbEntity
  8
0
  6
Continuous
 62
     8
370
     0
100
AcDbLine
 10
133.264357013
 20
370.7027082878
 30
0.0
 11
133.264357013
 21
409.7238519624
 31
0.0
  0
SPLINE
  5
D8
330
1F
100
AcDbEntity
  8
0
  6
Continuous
 62
     8
370
     0
100
AcDbSpline
210
0.0
220
0.0
230
1.0
 70
     8
 71
     3
 72
    26
 73
    22
 74
     0
 42
0.00000001
 43
0.00000001
 40
0.0
 40
0.0
 40
0.0
 40
0.0
 40
0.125
 40
0.125
 40
0.2500000000000002
 40
0.2500000000000002
 40
0.3750000000000002
 40
0.3750000000000002
 40
0.5000000000000002
 40
0.5000000000000002
 40
0.6250000000000002
 40
0.6250000000000002
 40
0.7500000000000001
 40
0.7500000000000001
 40
0.8749999999999998
 40
0.8749999999999998
 40
0.9374999999999997
 40
0.9374999999999997
 40
0.9687499999999998
 40
0.9687499999999998
 40
1.0
 40
1.0
 40
1.0
 40
1.0
 10
133.2643570129679
 20
409.7238519624016
 30
0.0
 10
133.6662220310738
 20
408.8414653851109
 30
0.0
 10
134.0658588724567
 20
408.0204075218043
 30
0.0
 10
134.8444431566119
 20
406.4875748023463
 30
0.0
 10
135.2234526560635
 20
405.7739391612492
 30
0.0
 10
135.9543686062795
 20
404.4852948119475
 30
0.0
 10
136.3068315467168
 20
403.913041609903
 30
0.0
 10
136.9770231592465
 20
402.9722920488363
 30
0.0
 10
137.2946644467133
 20
402.6037590959883
 30
0.0
 10
137.8819108101611
 20
402.1294986337808
 30
0.0
 10
138.1514203361573
 20
402.0233560583808
 30
0.0
 10
138.6296284769709
 20
402.1109475489525
 30
0.0
 10
138.838474698162
 20
402.3039003664506
 30
0.0
 10
139.1901374142681
 20
402.9928315737392
 30
0.0
 10
139.3333596871698
 20
403.4872805257401
 30
0.0
 10
139.5029620488953
 20
404.4316045075026
 30
0.0
 10
139.5520737428675
 20
404.7800520164323
 30
0.0
 10
139.6158025637929
 20
405.3448407189239
 30
0.0
 10
139.6354089433695
 20
405.5397266032056
 30
0.0
 10
139.6714100312483
 20
405.9454453791324
 30
0.0
 10
139.6877636197211
 20
406.158076281419
 30
0.0
 10
139.703129793267
 20
406.3631124740592
 30
0.0
  0
SPLINE
  5
D9
330
1F
100
AcDbEntity
  8
0
  6
Continuous
 62
     8
370
    15
100
AcDbSpline
210
0.0
220
0.0
230
1.0
 70
     8
 71
     3
 72
    18
 73
    14
 74
     0
 42
0.00000001
 43
0.00000001
 40
0.0
 40
0.0
 40
0.0
 40
0.0
 40
0.1249999999999993
 40
0.1249999999999993
 40
0.1874999999999992
 40
0.1874999999999992
 40
0.2499999999999992
 40
0.2499999999999992
 40
0.4999999999999994
 40
0.4999999999999994
 40
0.7499999999999997
 40
0.7499999999999997
 40
1.0
 40
1.0
 40
1.0
 40
1.0
 10
139.5291983024815
 20
396.4479489227772
 30
0.0
 10
139.4284825673662
 20
395.5048814464877
 30
0.0
 10
139.3078469702762
 20
394.4883296222295
 30
0.0
 10
139.0979972720581
 20
392.9356623671965
 30
0.0
 10
139.0228287101387
 20
392.4155836761282
 30
0.0
 10
138.8619222201542
 20
391.3743529503995
 30
0.0
 10
138.7765469193118
 20
390.8490965824695
 30
0.0
 10
138.3261356864699
 20
388.2015455985871
 30
0.0
 10
137.8916239984657
 20
386.0153714008149
 30
0.0
 10
136.8764737736042
 20
381.6058058988386
 30
0.0
 10
136.2951355620448
 20
379.3855380031844
 30
0.0
 10
134.9661870140006
 20
374.9998786648487
 30
0.0
 10
134.2176784146897
 20
372.8353440646906
 30
0.0
 10
133.3812570554876
 20
370.7026950551401
 30
0.0
  0
SPLINE
  5
DA
330
1F
100
AcDbEntity
  8
0
  6
Continuous
 62
     8
370
     0
100
AcDbSpline
210
0.0
220
0.0
230
1.0
 70
     8
 71
     3
 72
    11
 73
     7
 74
     0
 42
0.00000001
 43
0.00000001
 40
0.0
 40
0.0
 40
0.0
 40
0.0
 40
0.2752637968273745
 40
0.5495652165228864
 40
0.8120694278161076
 40
1.0
 40
1.0
 40
1.0
 40
1.0
 10
174.502453806576
 20
409.7238549505392
 30
0.0
 10
174.0328467137346
 20
409.1283524381955
 30
0.0
 10
173.0952743681062
 20
407.9394294090572
 30
0.0
 10
171.3166132440539
 20
407.135135495907
 30
0.0
 10
169.5120067051507
 20
406.4629453262373
 30
0.0
 10
168.4622967253268
 20
406.2317471362758
 30
0.0
 10
168.0243363271252
 20
406.135286539268
 30
0.0
  0
SPLINE
  5
DB
330
1F
100
AcDbEntity
  8
0
  6
Continuous
 62
     8
370
     0
100
AcDbSpline
210
0.0
220
0.0
230
1.0
 70
     8
 71
     3
 72
    11
 73
     7
 74
     0
 42
0.00000001
 43
0.00000001
 40
0.0
 40
0.0
 40
0.0
 40
0.0
 40
0.2752638680272068
 40
0.5495653620343878
 40
0.812069641854145
 40
1.0
 40
1.0
 40
1.0
 40
1.0
 10
133.2643570129679
 20
409.7238519624016
 30
0.0
 10
133.7339641111834
 20
409.1283496159056
 30
0.0
 10
134.6715364732748
 20
407.9394269106122
 30
0.0
 10
136.4501979805528
 20
407.1351335986225
 30
0.0
 10
138.2548044247106
 20
406.4629438362431
 30
0.0
 10
139.304514074492
 20
406.231745631193
 30
0.0
 10
139.7424739776725
 20
406.1352851065895
 30
0.0
  0
SPLINE
  5
DC
330
1F
100
AcDbEntity
  8
0
  6
Continuous
 62
     8
370
     0
100
AcDbSpline
210
0.0
220
0.0
230
1.0
 70
     8
 71
     3
 72
    30
 73
    26
 74
     0
 42
0.00000001
 43
0.00000001
 40
0.0
 40
0.0
 40
0.0
 40
0.0
 40
0.0138685355520933
 40
0.0282482345057646
 40
0.0431475328025864
 40
0.0585746979461448
 40
0.0872015924885786
 40
0.119263826618205
 40
0.1505048394287697
 40
0.1663828461754689
 40
0.1820112701718344
 40
0.2126845264336649
 40
0.2438780484137142
 40
0.3054032513356024
 40
0.3684040647616907
 40
0.4941725609123315
 40
0.5574762134408288
 40
0.6209542115245797
 40
0.6527261174579282
 40
0.6845014420208515
 40
0.7480023100118685
 40
0.8142416024661935
 40
0.8744652268525509
 40
0.936733496874514
 40
1.0
 40
1.0
 40
1.0
 40
1.0
 10
142.9002939800552
 20
393.2438072588902
 30
0.0
 10
142.8891071577549
 20
393.1403763919613
 30
0.0
 10
142.8663211917438
 20
392.9297024261941
 30
0.0
 10
142.8223218550899
 20
392.6020081829933
 30
0.0
 10
142.7703598219423
 20
392.258495349801
 30
0.0
 10
142.6930547412275
 20
391.8002336669452
 30
0.0
 10
142.5786414233233
 20
391.2005836406567
 30
0.0
 10
142.4224521734311
 20
390.467406016025
 30
0.0
 10
142.2746101746779
 20
389.8328621199265
 30
0.0
 10
142.1579102015578
 20
389.3290635723624
 30
0.0
 10
142.0305479357122
 20
388.8333464631554
 30
0.0
 10
141.8553866000564
 20
388.2149559742508
 30
0.0
 10
141.5536160602188
 20
387.2288560889122
 30
0.0
 10
141.1262257055366
 20
385.9850063789548
 30
0.0
 10
140.3503349342539
 20
383.9994287641444
 30
0.0
 10
139.4521453076641
 20
382.040607709512
 30
0.0
 10
138.4880420358378
 20
380.1444152156599
 30
0.0
 10
137.8682755466053
 20
378.9814874519292
 30
0.0
 10
137.3693363719283
 20
378.0648616227795
 30
0.0
 10
136.8704872534786
 20
377.156904959325
 30
0.0
 10
136.2402434037039
 20
376.0163204623503
 30
0.0
 10
135.5125112101083
 20
374.6832218139352
 30
0.0
 10
134.8007141116265
 20
373.3571350652833
 30
0.0
 10
134.1090208013668
 20
372.0395357697201
 30
0.0
 10
133.6402577029735
 20
371.1334054308477
 30
0.0
 10
133.4040123879421
 20
370.6767375572456
 30
0.0
  0
SPLINE
  5
DD
330
1F
100
AcDbEntity
  8
0
  6
Continuous
 62
     8
370
     0
100
AcDbSpline
210
0.0
220
0.0
230
1.0
 70
     8
 71
     3
 72
    12
 73
     8
 74
     0
 42
0.00000001
 43
0.00000001
 40
0.0
 40
0.0
 40
0.0
 40
0.0
 40
0.2016692461360479
 40
0.4025142675146616
 40
0.6025253681772708
 40
0.8016914326425394
 40
1.0
 40
1.0
 40
1.0
 40
1.0
 10
133.4040015768829
 20
370.6763155737567
 30
0.0
 10
133.4519002090767
 20
370.6633828931325
 30
0.0
 10
133.5475017111494
 20
370.6375703879131
 30
0.0
 10
133.7002389177542
 20
370.6004855372511
 30
0.0
 10
133.8593106745606
 20
370.5647297371922
 30
0.0
 10
134.0245513035416
 20
370.5302996051317
 30
0.0
 10
134.1403464913888
 20
370.5084509011952
 30
0.0
 10
134.1981191791791
 20
370.497550117021
 30
0.0
  0
SPLINE
  5
DE
330
1F
100
AcDbEntity
  8
0
  6
Continuous
 62
     8
370
     0
100
AcDbSpline
210
0.0
220
0.0
230
1.0
 70
     8
 71
     3
 72
    28
 73
    24
 74
     0
 42
0.00000001
 43
0.00000001
 40
0.0
 40
0.0
 40
0.0
 40
0.0
 40
0.125
 40
0.125
 40
0.1562500000000002
 40
0.1562500000000002
 40
0.1718750000000004
 40
0.1718750000000004
 40
0.1875000000000007
 40
0.1875000000000007
 40
0.2500000000000007
 40
0.2500000000000007
 40
0.3750000000000005
 40
0.3750000000000005
 40
0.5000000000000003
 40
0.5000000000000003
 40
0.6250000000000002
 40
0.6250000000000002
 40
0.75
 40
0.75
 40
0.875
 40
0.875
 40
1.0
 40
1.0
 40
1.0
 40
1.0
 10
164.866516043098
 20
393.2438093211472
 30
0.0
 10
164.9535362660885
 20
392.3879916529963
 30
0.0
 10
165.1282160278547
 20
391.4494387756023
 30
0.0
 10
165.4034949370731
 20
390.2131529117442
 30
0.0
 10
165.4615121289651
 20
389.9628155842137
 30
0.0
 10
165.5504249766155
 20
389.5824280918287
 30
0.0
 10
165.5801740298089
 20
389.4543119113991
 30
0.0
 10
165.6415603803918
 20
389.2007339342886
 30
0.0
 10
165.6735332002827
 20
389.0763875680898
 30
0.0
 10
165.8388410026003
 20
388.4601532532139
 30
0.0
 10
165.9843031234272
 20
387.9666272581157
 30
0.0
 10
166.4578996584632
 20
386.4804615037
 30
0.0
 10
166.8245016164574
 20
385.4865354917942
 30
0.0
 10
167.6389142122317
 20
383.5146976063594
 30
0.0
 10
168.0871090518482
 20
382.5368466158584
 30
0.0
 10
169.030189773193
 20
380.6170312520808
 30
0.0
 10
169.5252023874657
 20
379.6756224014328
 30
0.0
 10
170.5218245434652
 20
377.8316638047604
 30
0.0
 10
171.0229357061555
 20
376.9299015789237
 30
0.0
 10
172.0048956184002
 20
375.1435464733161
 30
0.0
 10
172.4845945276641
 20
374.2590337306809
 30
0.0
 10
173.4295589866073
 20
372.4794051012213
 30
0.0
 10
173.894401269558
 20
371.5836344620822
 30
0.0
 10
174.3629950317726
 20
370.6763703815047
 30
0.0
  0
SPLINE
  5
DF
330
1F
100
AcDbEntity
  8
0
  6
Continuous
 62
     8
370
     0
100
AcDbSpline
210
0.0
220
0.0
230
1.0
 70
     8
 71
     3
 72
     8
 73
     4
 74
     0
 42
0.00000001
 43
0.00000001
 40
2.00510126727544
 40
2.00510126727544
 40
2.00510126727544
 40
2.00510126727544
 40
3.0
 40
3.0
 40
3.0
 40
3.0
 10
174.3629219005994
 20
370.676870195341
 30
0.0
 10
174.3705942355932
 20
370.685497637878
 30
0.0
 10
174.3780640504607
 20
370.6939278910177
 30
0.0
 10
174.3855213678291
 20
370.7027736613519
 30
0.0
  0
SPLINE
  5
E0
330
1F
100
AcDbEntity
  8
0
  6
Continuous
 62
     8
370
     0
100
AcDbSpline
210
0.0
220
0.0
230
1.0
 70
     8
 71
     3
 72
     8
 73
     4
 74
     0
 42
0.00000001
 43
0.00000001
 40
2.0
 40
2.0
 40
2.0
 40
2.0
 40
3.0
 40
3.0
 40
3.0
 40
3.0
 10
133.4040053858307
 20
370.6767374700475
 30
0.0
 10
133.3962916190422
 20
370.6854111978437
 30
0.0
 10
133.3887189883801
 20
370.6940899770626
 30
0.0
 10
133.3812878846671
 20
370.7027736613519
 30
0.0
  0
LINE
  5
E1
330
1F
100
AcDbEntity
  8
0
  6
Continuous
 62
     8
370
     0
100
AcDbLine
 10
167.9380339769
 20
445.3303551083
 30
0.0
 11
175.9494046262
 21
445.3303551083
 31
0.0
  0
LINE
  5
E2
330
1F
100
AcDbEntity
  8
0
  6
Continuous
 62
     8
370
     0
100
AcDbLine
 10
131.8174046262
 20
445.3303551083
 30
0.0
 11
139.7499586945
 21
445.3303551083
 31
0.0
  0
SPLINE
  5
E3
330
1F
100
AcDbEntity
  8
0
  6
Continuous
 62
     8
370
     0
100
AcDbSpline
210
0.0
220
0.0
230
1.0
 70
     8
 71
     3
 72
     8
 73
     4
 74
     0
 42
0.00000001
 43
0.00000001
 40
0.0
 40
0.0
 40
0.0
 40
0.0
 40
1.0
 40
1.0
 40
1.0
 40
1.0
 10
136.4555105315609
 20
370.4062551083427
 30
0.0
 10
135.5922371920151
 20
370.4306775211972
 30
0.0
 10
134.8335864943537
 20
370.4619806912395
 30
0.0
 10
134.1981226035181
 20
370.4974230871547
 30
0.0
  0
ARC
  5
E4
330
1F
100
AcDbEntity
  8
0
  6
Continuous
 62
     8
370
     0
100
AcDbCircle
 10
136.7260814472
 20
370.7020925379
 30
0.0
 40
2.5362222419668
100
AcDbArc
 50
184.625836846
 51
186.6985103697
  0
ARC
  5
E5
330
1F
100
AcDbEntity
  8
0
  6
Continuous
 62
     8
370
     0
100
AcDbCircle
 10
135.83938904
 20
370.702617115
 30
0.0
 40
2.435521155532243
100
AcDbArc
 50
180.6088316377
 51
186.9892547684
  0
ARC
  5
E6
330
1F
100
AcDbEntity
  8
0
  6
Continuous
 62
     8
370
     0
100
AcDbCircle
 10
171.9274616107
 20
370.7026166459
 30
0.0
 40
2.435663295367358
100
AcDbArc
 50
353.0111662602
 51
359.3824449717
  0
ARC
  5
E7
330
1F
100
AcDbEntity
  8
0
  6
Continuous
 62
     8
370
     0
100
AcDbCircle
 10
135.8082113286
 20
370.7026457089
 30
0.0
 40
2.426958200676283
100
AcDbArc
 50
179.9985226347
 51
187.0147176444
  0
ARC
  5
E8
330
1F
100
AcDbEntity
  8
0
  6
Continuous
 62
     8
370
     0
100
AcDbCircle
 10
171.9585882616
 20
370.7026457741
 30
0.0
 40
2.42693310956617
100
AcDbArc
 50
352.9852060835
 51
0.0030192024
  0
SPLINE
  5
E9
330
1F
100
AcDbEntity
  8
0
  6
Continuous
 62
     8
370
     0
100
AcDbSpline
210
0.0
220
0.0
230
1.0
 70
     8
 71
     3
 72
     8
 73
     4
 74
     0
 42
0.00000001
 43
0.00000001
 40
0.0
 40
0.0
 40
0.0
 40
0.0
 40
1.0
 40
1.0
 40
1.0
 40
1.0
 10
133.2821665770893
 20
370.4062084975378
 30
0.0
 10
133.2699022589276
 20
370.5068716534568
 30
0.0
 10
133.2645109012583
 20
370.6059676844254
 30
0.0
 10
133.2643446688509
 20
370.7027082634798
 30
0.0
  0
ARC
  5
EA
330
1F
100
AcDbEntity
  8
0
  6
Continuous
 62
     8
370
     0
100
AcDbCircle
 10
172.072507531
 20
370.7026446149
 30
0.0
 40
2.429944709336741
100
AcDbArc
 50
352.9939720749
 51
0.0015013456
  0
LINE
  5
EB
330
1F
100
AcDbEntity
  8
0
  6
Continuous
 62
     7
370
    15
100
AcDbLine
 10
266.2383921753
 20
409.78332637
 30
0.0
 11
266.2383921749
 21
372.0061990549
 31
0.0
  0
SPLINE
  5
EC
330
1F
100
AcDbEntity
  8
0
  6
Continuous
 62
     7
370
    15
100
AcDbSpline
210
0.0
220
0.0
230
1.0
 70
     8
 71
     3
 72
    13
 73
     9
 74
     0
 42
0.00000001
 43
0.00000001
 40
0.0
 40
0.0
 40
0.0
 40
0.0
 40
0.0147054305171749
 40
0.0757031085902294
 40
0.3379743972844879
 40
0.5523987613813863
 40
0.8062710364637565
 40
0.9999999999999999
 40
0.9999999999999999
 40
0.9999999999999999
 40
0.9999999999999999
 10
265.7317894564571
 20
481.3622517620794
 30
0.0
 10
265.7284274622174
 20
481.3616511454505
 30
0.0
 10
265.7111200182287
 20
481.3585591893315
 30
0.0
 10
265.6164853579389
 20
481.3360797638592
 30
0.0
 10
265.482614885657
 20
481.2695598405646
 30
0.0
 10
265.3390721924497
 20
481.1243101341428
 30
0.0
 10
265.2497718197561
 20
480.9572946572194
 30
0.0
 10
265.2450116758279
 20
480.8326116517118
 30
0.0
 10
265.242951409524
 20
480.7786468559437
 30
0.0
  0
LINE
  5
ED
330
1F
100
AcDbEntity
  8
0
  6
Continuous
 62
     7
370
    15
100
AcDbLine
 10
362.2520855865
 20
501.8786719499
 30
0.0
 11
265.7307489317
 21
481.3624285028
 31
0.0
  0
LINE
  5
EE
330
1F
100
AcDbEntity
  8
0
  6
Continuous
 62
     7
370
    15
100
AcDbLine
 10
311.373390498
 20
468.1987551083
 30
0.0
 11
311.373390498
 21
484.8920947723
 31
0.0
  0
LINE
  5
EF
330
1F
100
AcDbEntity
  8
0
  6
Continuous
 62
     7
370
    15
100
AcDbLine
 10
311.373390498
 20
453.1537551083
 30
0.0
 11
311.373390498
 21
462.1807551083
 31
0.0
  0
LINE
  5
F0
330
1F
100
AcDbEntity
  8
0
  6
Continuous
 62
     7
370
    15
100
AcDbLine
 10
265.235390498
 20
480.7750028237
 30
0.0
 11
265.235390498
 21
460.8084726785
 31
0.0
  0
LINE
  5
F1
330
1F
100
AcDbEntity
  8
0
  6
Continuous
 62
     7
370
    15
100
AcDbLine
 10
310.871890498
 20
360.0753551083
 30
0.0
 11
310.370390498
 21
370.1053551083
 31
0.0
  0
LINE
  5
F2
330
1F
100
AcDbEntity
  8
0
  6
Continuous
 62
     7
370
    15
100
AcDbLine
 10
266.238390498
 20
370.1053551083
 30
0.0
 11
265.736890498
 21
360.0753551083
 31
0.0
  0
ARC
  5
F3
330
1F
100
AcDbEntity
  8
0
  6
Continuous
 62
     7
370
    15
100
AcDbCircle
 10
288.3045135308
 20
447.4100414111
 30
0.0
 40
22.06599999999998
100
AcDbArc
 50
148.3478694359
 51
180.1965890681
  0
ARC
  5
F4
330
1F
100
AcDbEntity
  8
0
  6
Continuous
 62
     7
370
    15
100
AcDbCircle
 10
288.3045135308
 20
447.4100414111
 30
0.0
 40
22.06599999999997
100
AcDbArc
 50
0.0
 51
15.0876860543
  0
LINE
  5
F5
330
1F
100
AcDbEntity
  8
0
  6
Continuous
 62
     7
370
    15
100
AcDbLine
 10
266.238390498
 20
447.3363551083
 30
0.0
 11
266.238390498
 21
445.3303551083
 31
0.0
  0
LINE
  5
F6
330
1F
100
AcDbEntity
  8
0
  6
Continuous
 62
     7
370
    15
100
AcDbLine
 10
310.370390498
 20
445.3303551083
 30
0.0
 11
310.370390498
 21
447.3363551083
 31
0.0
  0
LINE
  5
F7
330
1F
100
AcDbEntity
  8
0
  6
Continuous
 62
     7
370
    15
100
AcDbLine
 10
310.370390498
 20
410.2253551084
 30
0.0
 11
310.370390498
 21
445.3303551083
 31
0.0
  0
LINE
  5
F8
330
1F
100
AcDbEntity
  8
0
  6
Continuous
 62
     7
370
    15
100
AcDbLine
 10
266.238390498
 20
445.3303551083
 30
0.0
 11
266.238390498
 21
410.2253551083
 31
0.0
  0
LINE
  5
F9
330
1F
100
AcDbEntity
  8
0
  6
Continuous
 62
     7
370
    15
100
AcDbLine
 10
267.241390498
 20
410.2253551083
 30
0.0
 11
267.241390498
 21
409.7238551083
 31
0.0
  0
LINE
  5
FA
330
1F
100
AcDbEntity
  8
0
  6
Continuous
 62
     7
370
    15
100
AcDbLine
 10
309.367390498
 20
409.7238551083
 30
0.0
 11
309.367390498
 21
410.2253551083
 31
0.0
  0
LINE
  5
FB
330
1F
100
AcDbEntity
  8
0
  6
Continuous
 62
     7
370
    15
100
AcDbLine
 10
267.241390498
 20
370.4062551083
 30
0.0
 11
267.241390498
 21
370.1053551083
 31
0.0
  0
LINE
  5
FC
330
1F
100
AcDbEntity
  8
0
  6
Continuous
 62
     7
370
    15
100
AcDbLine
 10
309.367390498
 20
370.1053551083
 30
0.0
 11
309.367390498
 21
370.4062551083
 31
0.0
  0
SPLINE
  5
FD
330
1F
100
AcDbEntity
  8
0
  6
Continuous
 62
     7
370
    15
100
AcDbSpline
210
0.0
220
0.0
230
1.0
 70
     8
 71
     3
 72
     9
 73
     5
 74
     0
 42
0.00000001
 43
0.00000001
 40
0.0
 40
0.0
 40
0.0
 40
0.0
 40
0.6398360447041144
 40
0.9999999999999999
 40
0.9999999999999999
 40
0.9999999999999999
 40
0.9999999999999999
 10
312.1831236419708
 20
408.5239770620943
 30
0.0
 10
311.8585079247135
 20
408.7001492488503
 30
0.0
 10
311.351165895542
 20
408.9754888271909
 30
0.0
 10
310.8952968563646
 20
409.3284492586492
 30
0.0
 10
310.7311092601176
 20
409.4555728837062
 30
0.0
  0
LINE
  5
FE
330
1F
100
AcDbEntity
  8
0
  6
Continuous
 62
     7
370
    15
100
AcDbLine
 10
502.9463741852
 20
478.2001205405
 30
0.0
 11
502.9463741852
 21
492.331242307
 31
0.0
  0
LINE
  5
FF
330
1F
100
AcDbEntity
  8
0
  6
Continuous
 62
     7
370
    15
100
AcDbLine
 10
474.8623763196
 20
475.8229846162
 30
0.0
 11
474.8623763196
 21
475.4561555405
 31
0.0
  0
LINE
  5
100
330
1F
100
AcDbEntity
  8
0
  6
Continuous
 62
     7
370
    15
100
AcDbLine
 10
501.3043084311
 20
473.8925873019
 30
0.0
 11
500.8744560317
 21
477.9823596922
 31
0.0
  0
LINE
  5
101
330
1F
100
AcDbEntity
  8
0
  6
Continuous
 62
     7
370
    15
100
AcDbLine
 10
476.9343249663
 20
475.4661505245
 30
0.0
 11
477.3641773658
 21
471.3763781341
 31
0.0
  0
SPLINE
  5
102
330
1F
100
AcDbEntity
  8
0
  6
Continuous
 62
     7
370
    15
100
AcDbSpline
210
0.0
220
0.0
230
1.0
 70
     8
 71
     3
 72
    12
 73
     8
 74
     0
 42
0.00000001
 43
0.00000001
 40
0.0
 40
0.0
 40
0.0
 40
0.0
 40
0.1582269878862857
 40
0.2998456314737784
 40
0.5690141117042502
 40
0.8601663589491173
 40
1.0
 40
1.0
 40
1.0
 40
1.0
 10
310.7319547078129
 20
484.3630208757428
 30
0.0
 10
310.7331327581171
 20
484.3660098999571
 30
0.0
 10
310.7353652043142
 20
484.3716742045427
 30
0.0
 10
310.8202854558424
 20
484.500701492483
 30
0.0
 10
311.0553555512039
 20
484.7389347583959
 30
0.0
 10
311.3410390482753
 20
484.886273533563
 30
0.0
 10
311.4368767418031
 20
484.9146956816519
 30
0.0
 10
311.4679713414173
 20
484.9239172653782
 30
0.0
  0
ARC
  5
103
330
1F
100
AcDbEntity
  8
0
  6
Continuous
 62
     7
370
    15
100
AcDbCircle
 10
362.377206842
 20
501.2900227238
 30
0.0
 40
0.6018000000000098
100
AcDbArc
 50
12.0
 51
102.0
  0
SPLINE
  5
104
330
1F
100
AcDbEntity
  8
0
  6
Continuous
 62
     7
370
    15
100
AcDbSpline
210
0.0
220
0.0
230
1.0
 70
     8
 71
     3
 72
    31
 73
    27
 74
     0
 42
0.00000001
 43
0.00000001
 40
0.0
 40
0.0
 40
0.0
 40
0.0
 40
0.0539819760049839
 40
0.102022710812684
 40
0.1441222344929885
 40
0.1802805571836795
 40
0.2104976811577771
 40
0.2350420356249495
 40
0.2590178802086309
 40
0.2832897751089904
 40
0.3078577190270022
 40
0.397404477680268
 40
0.4873018561928939
 40
0.5554255538908316
 40
0.6231711656014892
 40
0.686297498473118
 40
0.7041024831479618
 40
0.7218114602865627
 40
0.7428970188606766
 40
0.7681097475099735
 40
0.7974472971527174
 40
0.8309115255207198
 40
0.8685104731406558
 40
0.910260799458477
 40
0.956190992278393
 40
1.0
 40
1.0
 40
1.0
 40
1.0
 10
326.4769227735626
 20
392.5265518985685
 30
0.0
 10
329.0143515666979
 20
394.2425621721202
 30
0.0
 10
333.8099404489188
 20
397.4857191079464
 30
0.0
 10
340.5880929779504
 20
402.0617279803946
 30
0.0
 10
346.5291573012567
 20
406.0700876294338
 30
0.0
 10
351.6324608827646
 20
409.5117995837244
 30
0.0
 10
355.9100214929138
 20
412.3962869767148
 30
0.0
 10
359.6144019685563
 20
414.894312446299
 30
0.0
 10
363.0390630816638
 20
417.2037372989863
 30
0.0
 10
366.4648171643426
 20
419.5139356243185
 30
0.0
 10
372.9754930433276
 20
423.904461824118
 30
0.0
 10
382.5732121423595
 20
430.3777160031086
 30
0.0
 10
394.2218663498064
 20
438.2301900024407
 30
0.0
 10
404.83950956116
 20
445.3989974761294
 30
0.0
 10
414.2154750301176
 20
451.6916985731084
 30
0.0
 10
421.1739510179335
 20
456.4632539516619
 30
0.0
 10
425.8709876489148
 20
459.5083402681882
 30
0.0
 10
428.6100142348174
 20
461.1861619729501
 30
0.0
 10
431.7518867080772
 20
463.0092443845551
 30
0.0
 10
435.5269375154349
 20
465.0528327200371
 30
0.0
 10
439.9994268594567
 20
467.2782188497175
 30
0.0
 10
445.1986871119913
 20
469.6115685236459
 30
0.0
 10
451.1526488771378
 20
471.9708789704039
 30
0.0
 10
457.89017451085
 20
474.2455459306919
 30
0.0
 10
465.0760031117928
 20
476.2806560603577
 30
0.0
 10
470.0707947210229
 20
477.2803962891234
 30
0.0
 10
472.5091590351258
 20
477.7684508643516
 30
0.0
  0
SPLINE
  5
105
330
1F
100
AcDbEntity
  8
0
  6
Continuous
 62
     7
370
    15
100
AcDbSpline
210
0.0
220
0.0
230
1.0
 70
     8
 71
     3
 72
    15
 73
    11
 74
     0
 42
0.00000001
 43
0.00000001
 40
0.0
 40
0.0
 40
0.0
 40
0.0
 40
0.1143625932547134
 40
0.2373764703247098
 40
0.3669194042028729
 40
0.4999928279840443
 40
0.633067553079283
 40
0.7626139891863475
 40
0.8856325811697857
 40
1.0
 40
1.0
 40
1.0
 40
1.0
 10
472.4886746037752
 20
477.7954548324078
 30
0.0
 10
472.6220888967271
 20
477.8126431785615
 30
0.0
 10
472.8990099864866
 20
477.8483201322279
 30
0.0
 10
473.3302375889076
 20
477.7903777554621
 30
0.0
 10
473.7592638328324
 20
477.6378317250035
 30
0.0
 10
474.152091198799
 20
477.3827031759715
 30
0.0
 10
474.475633817704
 20
477.0439463119493
 30
0.0
 10
474.7051313076714
 20
476.65056355511
 30
0.0
 10
474.8421097975767
 20
476.2374532840092
 30
0.0
 10
474.8584787392051
 20
475.9586339740322
 30
0.0
 10
474.8663649393928
 20
475.8243048924962
 30
0.0
  0
LINE
  5
106
330
1F
100
AcDbEntity
  8
0
  6
Continuous
 62
     7
370
    15
100
AcDbLine
 10
326.4771062312
 20
392.5262867497
 30
0.0
 11
330.1001756651
 21
394.9761358897
 31
0.0
  0
LINE
  5
107
330
1F
100
AcDbEntity
  8
0
  6
Continuous
 62
     7
370
    15
100
AcDbLine
 10
470.6126314044
 20
477.3630246514
 30
0.0
 11
472.5092068584
 21
477.7682564793
 31
0.0
  0
SPLINE
  5
108
330
1F
100
AcDbEntity
  8
0
  6
Continuous
 62
     7
370
    15
100
AcDbSpline
210
0.0
220
0.0
230
1.0
 70
     8
 71
     3
 72
    15
 73
    11
 74
     0
 42
0.00000001
 43
0.00000001
 40
0.0
 40
0.0
 40
0.0
 40
0.0
 40
0.1143623149400702
 40
0.2373760171905451
 40
0.3669188885086262
 40
0.4999923513173861
 40
0.6330671871257549
 40
0.7626137645389152
 40
0.8856324882729018
 40
1.0
 40
1.0
 40
1.0
 40
1.0
 10
472.4886736029389
 20
477.7954601625905
 30
0.0
 10
472.6220880294239
 20
477.8126495430555
 30
0.0
 10
472.899009541649
 20
477.8483286623082
 30
0.0
 10
473.3302388563005
 20
477.7903890844167
 30
0.0
 10
473.7592677287815
 20
477.637845102739
 30
0.0
 10
474.1520982625048
 20
477.3827173939225
 30
0.0
 10
474.4756439404554
 20
477.043960068168
 30
0.0
 10
474.7051437886662
 20
476.6505758071405
 30
0.0
 10
474.8421237220954
 20
476.2374634889551
 30
0.0
 10
474.8584928359829
 20
475.9586426867284
 30
0.0
 10
474.866379118104
 20
475.8243129042687
 30
0.0
  0
SPLINE
  5
109
330
1F
100
AcDbEntity
  8
0
  6
Continuous
 62
     7
370
    15
100
AcDbSpline
210
0.0
220
0.0
230
1.0
 70
     8
 71
     3
 72
     9
 73
     5
 74
     0
 42
0.00000001
 43
0.00000001
 40
0.0
 40
0.0
 40
0.0
 40
0.0
 40
0.6398360486452997
 40
0.9999999999999999
 40
0.9999999999999999
 40
0.9999999999999999
 40
0.9999999999999999
 10
312.1831254142623
 20
408.5239799810064
 30
0.0
 10
311.8585096802838
 20
408.7001521785142
 30
0.0
 10
311.3511676281038
 20
408.9754917719629
 30
0.0
 10
310.8952985674549
 20
409.3284522204543
 30
0.0
 10
310.7311109652713
 20
409.4555758502549
 30
0.0
  0
SPLINE
  5
10A
330
1F
100
AcDbEntity
  8
0
  6
Continuous
 62
     7
370
    15
100
AcDbSpline
210
0.0
220
0.0
230
1.0
 70
    24
 71
     3
 72
    22
 73
    18
 74
     0
 42
0.00000001
 43
0.00000001
 40
0.0
 40
0.0
 40
0.0
 40
0.0
 40
0.125
 40
0.125
 40
0.2499999999999999
 40
0.2499999999999999
 40
0.3749999999999999
 40
0.3749999999999999
 40
0.4999999999999999
 40
0.4999999999999999
 40
0.6249999999999999
 40
0.6249999999999999
 40
0.7499999999999998
 40
0.7499999999999998
 40
0.8749999999999999
 40
0.8749999999999999
 40
1.0
 40
1.0
 40
1.0
 40
1.0
 10
296.1633443570798
 20
409.7238521053736
 30
0.0
 10
294.7484392927234
 20
409.7238521060916
 30
0.0
 10
293.1988816759232
 20
409.7238521068779
 30
0.0
 10
289.8901964341571
 20
409.723852108557
 30
0.0
 10
288.130984478872
 20
409.7238521094499
 30
0.0
 10
284.5306367660282
 20
409.7238521112769
 30
0.0
 10
282.6906067340946
 20
409.7238521122107
 30
0.0
 10
279.1120367725785
 20
409.7238521140268
 30
0.0
 10
277.3755807740852
 20
409.723852114908
 30
0.0
 10
274.1935268797317
 20
409.7238521165228
 30
0.0
 10
272.7497592004338
 20
409.7238521172555
 30
0.0
 10
270.284334409251
 20
409.7238521185067
 30
0.0
 10
269.2630819702883
 20
409.723852119025
 30
0.0
 10
267.6786842182321
 20
409.723852119829
 30
0.0
 10
267.1145692636499
 20
409.7238521201153
 30
0.0
 10
266.3951190179012
 20
409.7238521204804
 30
0.0
 10
266.238392179419
 20
409.72385212056
 30
0.0
 10
266.2383921753096
 20
409.72385212056
 30
0.0
  0
SPLINE
  5
10B
330
1F
100
AcDbEntity
  8
0
  6
Continuous
 62
     7
370
    15
100
AcDbSpline
210
0.0
220
0.0
230
1.0
 70
     8
 71
     3
 72
    32
 73
    28
 74
     0
 42
0.00000001
 43
0.00000001
 40
0.0
 40
0.0
 40
0.0
 40
0.0
 40
0.0108226156452244
 40
0.0733368317177111
 40
0.097075982237793
 40
0.1358918069885557
 40
0.1989396432342469
 40
0.2228916771941668
 40
0.254348605030101
 40
0.3178936172066018
 40
0.3503692298891025
 40
0.4145982695144161
 40
0.4472239951929494
 40
0.4803465549780883
 40
0.5127182038264991
 40
0.5453253145928249
 40
0.5786700810797362
 40
0.6122671755549726
 40
0.6768299474961033
 40
0.7099509452101203
 40
0.7433127032490073
 40
0.8067385072417614
 40
0.8389094715929163
 40
0.8715297027082839
 40
0.9350402329498708
 40
0.9672801988556338
 40
0.9999999999999999
 40
0.9999999999999999
 40
0.9999999999999999
 40
0.9999999999999999
 10
265.7370521471199
 20
481.3616028440447
 30
0.0
 10
265.7284369042713
 20
481.3605188486825
 30
0.0
 10
265.6700577992837
 20
481.3531734168507
 30
0.0
 10
265.9308908835142
 20
481.3858885053558
 30
0.0
 10
266.4694556019713
 20
481.454668145893
 30
0.0
 10
267.2267443813581
 20
481.5526351673838
 30
0.0
 10
268.3061511284843
 20
481.6963604143273
 30
0.0
 10
269.5601409273912
 20
481.8702420588045
 30
0.0
 10
270.9648751255188
 20
482.0699551031238
 30
0.0
 10
272.7259146945273
 20
482.3318648628065
 30
0.0
 10
275.2025081018247
 20
482.7215622753787
 30
0.0
 10
277.4011649411201
 20
483.0867744186968
 30
0.0
 10
279.7507358449651
 20
483.5011245041595
 30
0.0
 10
281.5852995844964
 20
483.8375396221542
 30
0.0
 10
283.4649392207155
 20
484.195810082964
 30
0.0
 10
285.3802302131471
 20
484.574882320813
 30
0.0
 10
287.3373916024568
 20
484.9769764746898
 30
0.0
 10
289.9261747478669
 20
485.5286776976708
 30
0.0
 10
292.493324654911
 20
486.1048610857984
 30
0.0
 10
294.9763854103367
 20
486.6891548749997
 30
0.0
 10
297.3705304769011
 20
487.2697934943702
 30
0.0
 10
299.6288219621263
 20
487.8410255734133
 30
0.0
 10
301.7054933253423
 20
488.385147054383
 30
0.0
 10
303.658882116706
 20
488.9084891520179
 30
0.0
 10
305.4036446498217
 20
489.3908461654401
 30
0.0
 10
306.9143139332341
 20
489.8181597439452
 30
0.0
 10
307.5626012962752
 20
490.0047246670783
 30
0.0
 10
307.8891393145958
 20
490.0986961737915
 30
0.0
  0
LINE
  5
10C
330
1F
100
AcDbEntity
  8
0
  6
Continuous
 62
     7
370
    15
100
AcDbLine
 10
311.373390498
 20
453.1537551083
 30
0.0
 11
285.7175268711
 21
453.1537551083
 31
0.0
  0
SPLINE
  5
10D
330
1F
100
AcDbEntity
  8
0
  6
Continuous
 62
     7
370
    15
100
AcDbSpline
210
0.0
220
0.0
230
1.0
 70
     8
 71
     3
 72
    10
 73
     6
 74
     0
 42
0.00000001
 43
0.00000001
 40
0.0
 40
0.0
 40
0.0
 40
0.0
 40
0.5
 40
0.5
 40
1.0
 40
1.0
 40
1.0
 40
1.0
 10
281.0146870086504
 20
454.1105586921889
 30
0.0
 10
281.7454529136317
 20
453.8003669689796
 30
0.0
 10
282.5024254001906
 20
453.5634669978971
 30
0.0
 10
284.0721080940832
 20
453.2398576299657
 30
0.0
 10
284.8914792403362
 20
453.1537551083425
 30
0.0
 10
285.7175268711472
 20
453.1537551083425
 30
0.0
  0
LINE
  5
10E
330
1F
100
AcDbEntity
  8
0
  6
Continuous
 62
     7
370
    15
100
AcDbLine
 10
281.0146870087
 20
454.1105586922
 30
0.0
 11
265.235390498
 21
460.8084726785
 31
0.0
  0
SPLINE
  5
10F
330
1F
100
AcDbEntity
  8
0
  6
Continuous
 62
     7
370
    15
100
AcDbSpline
210
0.0
220
0.0
230
1.0
 70
     8
 71
     3
 72
    22
 73
    18
 74
     0
 42
0.00000001
 43
0.00000001
 40
0.0
 40
0.0
 40
0.0
 40
0.0
 40
0.1250000000000001
 40
0.1250000000000001
 40
0.2500000000000001
 40
0.2500000000000001
 40
0.3750000000000002
 40
0.3750000000000002
 40
0.5000000000000002
 40
0.5000000000000002
 40
0.6250000000000002
 40
0.6250000000000002
 40
0.7500000000000002
 40
0.7500000000000002
 40
0.8750000000000001
 40
0.8750000000000001
 40
1.0
 40
1.0
 40
1.0
 40
1.0
 10
311.1794507185596
 20
464.8106771537958
 30
0.0
 10
311.182458113592
 20
464.6291990655873
 30
0.0
 10
311.1875394634502
 20
464.4526668439991
 30
0.0
 10
311.2011837851753
 20
464.1090445226222
 30
0.0
 10
311.2098185551856
 20
463.940875000045
 30
0.0
 10
311.2295973723984
 20
463.6193483852408
 30
0.0
 10
311.2405600733258
 20
463.4683969084818
 30
0.0
 10
311.2635267503628
 20
463.1854755074157
 30
0.0
 10
311.2756541128695
 20
463.0523507043584
 30
0.0
 10
311.2991960411835
 20
462.812650253447
 30
0.0
 10
311.3105611234346
 20
462.7062543825952
 30
0.0
 10
311.3314179842526
 20
462.5199454033615
 30
0.0
 10
311.3409795660032
 20
462.4395192354906
 30
0.0
 10
311.3566242003849
 20
462.311415285172
 30
0.0
 10
311.3627781120822
 20
462.2630485085757
 30
0.0
 10
311.3711722033909
 20
462.1976337197595
 30
0.0
 10
311.3733904979695
 20
462.1807551083426
 30
0.0
 10
311.3733904979695
 20
462.1807551083426
 30
0.0
  0
SPLINE
  5
110
330
1F
100
AcDbEntity
  8
0
  6
Continuous
 62
     7
370
    15
100
AcDbSpline
210
0.0
220
0.0
230
1.0
 70
     8
 71
     3
 72
    22
 73
    18
 74
     0
 42
0.00000001
 43
0.00000001
 40
0.0
 40
0.0
 40
0.0
 40
0.0
 40
0.1250000000000001
 40
0.1250000000000001
 40
0.2500000000000001
 40
0.2500000000000001
 40
0.3750000000000002
 40
0.3750000000000002
 40
0.5000000000000002
 40
0.5000000000000002
 40
0.6250000000000001
 40
0.6250000000000001
 40
0.7500000000000001
 40
0.7500000000000001
 40
0.875
 40
0.875
 40
1.0
 40
1.0
 40
1.0
 40
1.0
 10
311.3733904979695
 20
468.1987551083425
 30
0.0
 10
311.3733904979695
 20
468.1987551083426
 30
0.0
 10
311.3712157961291
 20
468.1822090919842
 30
0.0
 10
311.3629026461944
 20
468.117439175695
 30
0.0
 10
311.3567052226833
 20
468.0687506478459
 30
0.0
 10
311.3409820601659
 20
467.9400190870693
 30
0.0
 10
311.3316071089384
 20
467.8611859601525
 30
0.0
 10
311.3107971602287
 20
467.6754311646228
 30
0.0
 10
311.2992356512159
 20
467.5672403613212
 30
0.0
 10
311.2756999594804
 20
467.3276491381891
 30
0.0
 10
311.2637803980153
 20
467.196940293251
 30
0.0
 10
311.2407733600525
 20
466.9139553810033
 30
0.0
 10
311.22959424205
 20
466.7600130993976
 30
0.0
 10
311.209928057231
 20
466.4405126106607
 30
0.0
 10
311.2013694191089
 20
466.2744754956017
 30
0.0
 10
311.1876306317175
 20
465.9297913386793
 30
0.0
 10
311.1824579608476
 20
465.75030193389
 30
0.0
 10
311.1794507185596
 20
465.5688330628893
 30
0.0
  0
LINE
  5
111
330
1F
100
AcDbEntity
  8
0
  6
Continuous
 62
     7
370
    15
100
AcDbLine
 10
265.736890498
 20
360.0753551083
 30
0.0
 11
310.871890498
 21
360.0753551083
 31
0.0
  0
LINE
  5
112
330
1F
100
AcDbEntity
  8
0
  6
Continuous
 62
     7
370
    15
100
AcDbLine
 10
266.238390498
 20
370.1053551083
 30
0.0
 11
310.370390498
 21
370.1053551083
 31
0.0
  0
SPLINE
  5
113
330
1F
100
AcDbEntity
  8
0
  6
Continuous
 62
     7
370
    15
100
AcDbSpline
210
0.0
220
0.0
230
1.0
 70
     8
 71
     3
 72
    14
 73
    10
 74
     0
 42
0.00000001
 43
0.00000001
 40
0.0
 40
0.0
 40
0.0
 40
0.0
 40
0.2499999999999999
 40
0.2499999999999999
 40
0.4999999999999999
 40
0.4999999999999999
 40
0.7499999999999999
 40
0.7499999999999999
 40
1.0
 40
1.0
 40
1.0
 40
1.0
 10
280.9041378102142
 20
370.4061923502721
 30
0.0
 10
282.1015087586408
 20
370.4061615387477
 30
0.0
 10
283.3548243016201
 20
370.4061388271285
 30
0.0
 10
285.9210644971598
 20
370.406110383755
 30
0.0
 10
287.2337116035667
 20
370.4061046561416
 30
0.0
 10
289.8567533140871
 20
370.406109396215
 30
0.0
 10
291.1668204869092
 20
370.4061198556165
 30
0.0
 10
293.7229819895422
 20
370.406154649571
 30
0.0
 10
294.9688023249483
 20
370.4061789660268
 30
0.0
 10
296.1565563518389
 20
370.4062084975341
 30
0.0
  0
LINE
  5
114
330
1F
100
AcDbEntity
  8
0
  6
Continuous
 62
     7
370
    15
100
AcDbLine
 10
310.370390498
 20
410.2253551084
 30
0.0
 11
266.238390498
 21
410.2253551083
 31
0.0
  0
SPLINE
  5
115
330
1F
100
AcDbEntity
  8
0
  6
Continuous
 62
     7
370
    15
100
AcDbSpline
210
0.0
220
0.0
230
1.0
 70
     8
 71
     3
 72
    15
 73
    11
 74
     0
 42
0.00000001
 43
0.00000001
 40
0.0
 40
0.0
 40
0.0
 40
0.0
 40
0.1117547758493992
 40
0.2156734059161994
 40
0.3117868044161024
 40
0.4001159954337039
 40
0.549923578174273
 40
0.6998988744560397
 40
0.862748397125323
 40
1.0
 40
1.0
 40
1.0
 40
1.0
 10
277.0359304363652
 20
370.4062551083426
 30
0.0
 10
277.1735072391785
 20
370.40625547837
 30
0.0
 10
277.4390140813898
 20
370.406256192479
 30
0.0
 10
277.8287713859954
 20
370.4062577005171
 30
0.0
 10
278.1927265500471
 20
370.4062488483886
 30
0.0
 10
278.6186074920328
 20
370.4062571748489
 30
0.0
 10
279.1187291366103
 20
370.4061419539944
 30
0.0
 10
279.7230903736014
 20
370.4062724118792
 30
0.0
 10
280.3181446733786
 20
370.4062537959927
 30
0.0
 10
280.7203503427864
 20
370.4062546964962
 30
0.0
 10
280.9042995789362
 20
370.4062551083425
 30
0.0
  0
LINE
  5
116
330
1F
100
AcDbEntity
  8
0
  6
Continuous
 62
     7
370
    15
100
AcDbLine
 10
266.2383341152
 20
370.7027082877
 30
0.0
 11
266.2383341151
 21
372.006199055
 31
0.0
  0
ARC
  5
117
330
1F
100
AcDbEntity
  8
0
  6
Continuous
 62
     7
370
    15
100
AcDbCircle
 10
311.3281954624
 20
410.2433995992
 30
0.0
 40
1.002999733103311
100
AcDbArc
 50
211.1975650096
 51
232.8715650017
  0
SPLINE
  5
118
330
1F
100
AcDbEntity
  8
0
  6
Continuous
 62
     7
370
    15
100
AcDbSpline
210
0.0
220
0.0
230
1.0
 70
    24
 71
     3
 72
    33
 73
    29
 74
     0
 42
0.00000001
 43
0.00000001
 40
0.0
 40
0.0
 40
0.0
 40
0.0
 40
0.0174185770357702
 40
0.0347906947215165
 40
0.0521245200111798
 40
0.0694282740780439
 40
0.0867102210108774
 40
0.1039786562069462
 40
0.1212418945416614
 40
0.1385082583983146
 40
0.1557860656436885
 40
0.1730836176362409
 40
0.1904091873530097
 40
0.207771007719405
 40
0.2251772602226906
 40
0.2426360638853159
 40
0.3658628907127499
 40
0.4909688467756679
 40
0.6189742639760623
 40
0.7459104306792872
 40
0.7787476187803442
 40
0.8111739529620347
 40
0.8432392210349569
 40
0.8749949091358521
 40
0.9064940214881329
 40
0.9377908659496621
 40
0.9689408083182118
 40
0.9999999999999999
 40
0.9999999999999999
 40
0.9999999999999999
 40
0.9999999999999999
 10
296.1633444685187
 20
409.7238551083425
 30
0.0
 10
296.3072589747098
 20
409.7238551083425
 30
0.0
 10
296.5947041340135
 20
409.7238551083425
 30
0.0
 10
297.0206572412645
 20
409.7238551083425
 30
0.0
 10
297.441954495207
 20
409.7238551083425
 30
0.0
 10
297.8582747754938
 20
409.7238551083425
 30
0.0
 10
298.2697034705392
 20
409.7238551083425
 30
0.0
 10
298.6762173678526
 20
409.7238551083425
 30
0.0
 10
299.0778223113123
 20
409.7238551083425
 30
0.0
 10
299.4745163454274
 20
409.7238551083425
 30
0.0
 10
299.866299769571
 20
409.7238551083425
 30
0.0
 10
300.2531717440586
 20
409.7238551083425
 30
0.0
 10
300.6351338379533
 20
409.7238551083425
 30
0.0
 10
301.0121792190008
 20
409.7238551083425
 30
0.0
 10
301.3843324811185
 20
409.7238551083425
 30
0.0
 10
302.492414948058
 20
409.7238551083425
 30
0.0
 10
304.2351723422454
 20
409.7238551083425
 30
0.0
 10
306.3460673146223
 20
409.7238551083425
 30
0.0
 10
308.0991763713545
 20
409.7238551083425
 30
0.0
 10
309.0944695040851
 20
409.7238551083425
 30
0.0
 10
309.6110802732967
 20
409.7238551083425
 30
0.0
 10
309.8407215755283
 20
409.7238551083425
 30
0.0
 10
310.0350178496132
 20
409.7238551083425
 30
0.0
 10
310.1939198322083
 20
409.7238551083425
 30
0.0
 10
310.3176536139769
 20
409.7238551083425
 30
0.0
 10
310.4053394188854
 20
409.7238551083425
 30
0.0
 10
310.4602180571302
 20
409.7238551083425
 30
0.0
 10
310.4669047753071
 20
409.7238551083425
 30
0.0
 10
310.4702432571032
 20
409.7238551083425
 30
0.0
  0
SPLINE
  5
119
330
1F
100
AcDbEntity
  8
0
  6
Continuous
 62
     7
370
    15
100
AcDbSpline
210
0.0
220
0.0
230
1.0
 70
     8
 71
     3
 72
    30
 73
    26
 74
     0
 42
0.00000001
 43
0.00000001
 40
0.0
 40
0.0
 40
0.0
 40
0.0
 40
0.0312500000000002
 40
0.0312500000000002
 40
0.0625000000000006
 40
0.0625000000000006
 40
0.125000000000001
 40
0.125000000000001
 40
0.1875000000000016
 40
0.1875000000000016
 40
0.250000000000002
 40
0.250000000000002
 40
0.3750000000000017
 40
0.3750000000000017
 40
0.5000000000000013
 40
0.5000000000000013
 40
0.625000000000001
 40
0.625000000000001
 40
0.7500000000000007
 40
0.7500000000000007
 40
0.8750000000000003
 40
0.8750000000000003
 40
0.9375000000000002
 40
0.9375000000000002
 40
1.0
 40
1.0
 40
1.0
 40
1.0
 10
323.3599700172446
 20
409.7803767211325
 30
0.0
 10
323.2497948313197
 20
409.7060624711564
 30
0.0
 10
323.1395710428724
 20
409.6317163489559
 30
0.0
 10
322.9191602131795
 20
409.4830482023788
 30
0.0
 10
322.8078790346509
 20
409.4094764959961
 30
0.0
 10
322.4831928129963
 20
409.1828251360616
 30
0.0
 10
322.2622309168589
 20
409.0355930395069
 30
0.0
 10
321.8018735921997
 20
408.754615242235
 30
0.0
 10
321.5623337181008
 20
408.6192723418735
 30
0.0
 10
321.0693832900324
 20
408.3689841627549
 30
0.0
 10
320.8161636471823
 20
408.2538086698582
 30
0.0
 10
320.0354823088839
 20
407.9370913653797
 30
0.0
 10
319.4868571335917
 20
407.7641626881975
 30
0.0
 10
318.3486101858006
 20
407.5160625242563
 30
0.0
 10
317.7677108038616
 20
407.4416632961249
 30
0.0
 10
316.5906572506229
 20
407.3943677828223
 30
0.0
 10
315.9914362666202
 20
407.4237011324033
 30
0.0
 10
314.8263754293595
 20
407.5839948113915
 30
0.0
 10
314.2553339427593
 20
407.7148765411626
 30
0.0
 10
313.1451985980581
 20
408.0735452818301
 30
0.0
 10
312.6180442757529
 20
408.2946532358098
 30
0.0
 10
311.8691828172849
 20
408.6889755420576
 30
0.0
 10
311.6269598609387
 20
408.8302114154887
 30
0.0
 10
311.161509665399
 20
409.1257769515708
 30
0.0
 10
310.9376917940959
 20
409.2810200412812
 30
0.0
 10
310.7227811492296
 20
409.4437234526431
 30
0.0
  0
LINE
  5
11A
330
1F
100
AcDbEntity
  8
0
  6
Continuous
 62
     7
370
    15
100
AcDbLine
 10
296.156429029
 20
370.4062551083
 30
0.0
 11
296.4647959988
 21
370.4062551083
 31
0.0
  0
SPLINE
  5
11B
330
1F
100
AcDbEntity
  8
0
  6
Continuous
 62
     7
370
    15
100
AcDbSpline
210
0.0
220
0.0
230
1.0
 70
     8
 71
     3
 72
    11
 73
     7
 74
     0
 42
0.00000001
 43
0.00000001
 40
0.0
 40
0.0
 40
0.0
 40
0.0
 40
0.291668935585671
 40
0.500001886832685
 40
0.708334272026917
 40
1.0
 40
1.0
 40
1.0
 40
1.0
 10
296.464796104619
 20
370.4062551083426
 30
0.0
 10
296.4705227172599
 20
370.4062551083426
 30
0.0
 10
296.4803345012289
 20
370.4062551083723
 30
0.0
 10
296.4942216902573
 20
370.4062551081937
 30
0.0
 10
296.5080980929852
 20
370.4062551083722
 30
0.0
 10
296.5178840667667
 20
370.4062551083425
 30
0.0
 10
296.5235894222999
 20
370.4062551083425
 30
0.0
  0
SPLINE
  5
11C
330
1F
100
AcDbEntity
  8
0
  6
Continuous
 62
     7
370
    15
100
AcDbSpline
210
0.0
220
0.0
230
1.0
 70
    24
 71
     3
 72
     8
 73
     4
 74
     0
 42
0.00000001
 43
0.00000001
 40
0.0
 40
0.0
 40
0.0
 40
0.0
 40
1.0
 40
1.0
 40
1.0
 40
1.0
 10
296.5235894222999
 20
370.4062551083425
 30
0.0
 10
297.1230307267675
 20
370.4062551083425
 30
0.0
 10
297.7116553837354
 20
370.4062551083425
 30
0.0
 10
298.2859684532094
 20
370.4062551083425
 30
0.0
  0
SPLINE
  5
11D
330
1F
100
AcDbEntity
  8
0
  6
Continuous
 62
     7
370
    15
100
AcDbSpline
210
0.0
220
0.0
230
1.0
 70
    24
 71
     3
 72
    31
 73
    27
 74
     0
 42
0.00000001
 43
0.00000001
 40
0.0
 40
0.0
 40
0.0
 40
0.0
 40
0.0316812337795732
 40
0.0632780325498515
 40
0.0948047465031351
 40
0.1262758217037729
 40
0.157705780935459
 40
0.1891092040252419
 40
0.220500707774437
 40
0.2518949256329009
 40
0.2833064872572938
 40
0.3147499980957883
 40
0.3462400191413084
 40
0.377791046992606
 40
0.4094174943575671
 40
0.4411336711261068
 40
0.4729537661311035
 40
0.5048918297053109
 40
0.567268941224961
 40
0.629286676622557
 40
0.6910538480216686
 40
0.7526805947955939
 40
0.8142778095842309
 40
0.8759565443149864
 40
0.93782741195676
 40
1.0
 40
1.0
 40
1.0
 40
1.0
 10
309.8055753917229
 20
370.4062551083425
 30
0.0
 10
309.7681888907562
 20
370.4062551083425
 30
0.0
 10
309.6935155291835
 20
370.4062551083425
 30
0.0
 10
309.569235656476
 20
370.4062551083425
 30
0.0
 10
309.4361740646876
 20
370.4062551083425
 30
0.0
 10
309.2934440234494
 20
370.4062551083425
 30
0.0
 10
309.1412824224162
 20
370.4062551083425
 30
0.0
 10
308.9796260026101
 20
370.4062551083425
 30
0.0
 10
308.8084917793787
 20
370.4062551083425
 30
0.0
 10
308.6278753260574
 20
370.4062551083426
 30
0.0
 10
308.4377779842208
 20
370.4062551083425
 30
0.0
 10
308.2381995923641
 20
370.4062551083425
 30
0.0
 10
308.0291403732785
 20
370.4062551083425
 30
0.0
 10
307.8106006461562
 20
370.4062551083425
 30
0.0
 10
307.5825800758847
 20
370.4062551083426
 30
0.0
 10
307.3450809634513
 20
370.4062551083425
 30
0.0
 10
307.0980957693036
 20
370.4062551083425
 30
0.0
 10
306.7605500544334
 20
370.4062551083425
 30
0.0
 10
306.3218262565338
 20
370.4062551083425
 30
0.0
 10
305.7675629958365
 20
370.4062551083425
 30
0.0
 10
305.1845305984473
 20
370.4062551083426
 30
0.0
 10
304.5726850817276
 20
370.4062551083425
 30
0.0
 10
303.9321864866777
 20
370.4062551083425
 30
0.0
 10
303.262469277087
 20
370.4062551083425
 30
0.0
 10
302.5656818501707
 20
370.4062551083425
 30
0.0
 10
302.0792200423928
 20
370.4062551083426
 30
0.0
 10
301.8353975093399
 20
370.4062551083425
 30
0.0
  0
SPLINE
  5
11E
330
1F
100
AcDbEntity
  8
0
  6
Continuous
 62
     7
370
    15
100
AcDbSpline
210
0.0
220
0.0
230
1.0
 70
    24
 71
     3
 72
     8
 73
     4
 74
     0
 42
0.00000001
 43
0.00000001
 40
0.0
 40
0.0
 40
0.0
 40
0.0
 40
1.0
 40
1.0
 40
1.0
 40
1.0
 10
298.2859684532094
 20
370.4062551083425
 30
0.0
 10
299.5383111538277
 20
370.4062551083425
 30
0.0
 10
300.7287144084823
 20
370.4062551083425
 30
0.0
 10
301.8353975093421
 20
370.4062551083425
 30
0.0
  0
ARC
  5
11F
330
1F
100
AcDbEntity
  8
0
  6
Continuous
 62
     7
370
    15
100
AcDbCircle
 10
268.5111418276
 20
370.7027082878
 30
0.0
 40
2.272807712438123
100
AcDbArc
 50
180.0000000033
 51
187.4958963632
  0
SPLINE
  5
120
330
1F
100
AcDbEntity
  8
0
  6
Continuous
 62
     7
370
    15
100
AcDbSpline
210
0.0
220
0.0
230
1.0
 70
     8
 71
     3
 72
    14
 73
    10
 74
     0
 42
0.00000001
 43
0.00000001
 40
0.0
 40
0.0
 40
0.0
 40
0.0
 40
0.25
 40
0.25
 40
0.5
 40
0.5
 40
0.75
 40
0.75
 40
1.0
 40
1.0
 40
1.0
 40
1.0
 10
266.2577570585964
 20
370.406208742535
 30
0.0
 10
266.2578484359245
 20
370.4063045760032
 30
0.0
 10
266.5047645581582
 20
370.4063176566152
 30
0.0
 10
267.4763999154454
 20
370.4062684477701
 30
0.0
 10
268.201116440995
 20
370.4062061583152
 30
0.0
 10
270.0802221887058
 20
370.4062087426777
 30
0.0
 10
271.2346177903851
 20
370.4062736180548
 30
0.0
 10
273.8955078852634
 20
370.4062919181385
 30
0.0
 10
275.4019951356367
 20
370.4062453424954
 30
0.0
 10
277.0359319316194
 20
370.4062212320839
 30
0.0
  0
LINE
  5
121
330
1F
100
AcDbEntity
  8
0
  6
Continuous
 62
     7
370
    15
100
AcDbLine
 10
489.6402852331
 20
476.8015942396
 30
0.0
 11
502.9463741852
 21
478.2001205405
 31
0.0
  0
SPLINE
  5
122
330
1F
100
AcDbEntity
  8
0
  6
Continuous
 62
     7
370
    15
100
AcDbSpline
210
0.0
220
0.0
230
1.0
 70
     8
 71
     3
 72
     8
 73
     4
 74
     0
 42
0.00000001
 43
0.00000001
 40
0.0
 40
0.0
 40
0.0
 40
0.0
 40
1.0
 40
1.0
 40
1.0
 40
1.0
 10
489.580773791603
 20
476.7962328928363
 30
0.0
 10
489.6006130285119
 20
476.7980200057904
 30
0.0
 10
489.6204502354233
 20
476.7998071187446
 30
0.0
 10
489.6402852337324
 20
476.8015942316987
 30
0.0
  0
LINE
  5
123
330
1F
100
AcDbEntity
  8
0
  6
Continuous
 62
     7
370
    15
100
AcDbLine
 10
474.8623763196
 20
475.8229846162
 30
0.0
 11
474.8781552951
 21
475.8282962938
 31
0.0
  0
LINE
  5
124
330
1F
100
AcDbEntity
  8
0
  6
Continuous
 62
     7
370
    15
100
AcDbLine
 10
474.8781552578
 20
475.8282962812
 30
0.0
 11
474.8623763196
 21
475.8229846162
 31
0.0
  0
SPLINE
  5
125
330
1F
100
AcDbEntity
  8
0
  6
Continuous
 62
     7
370
    15
100
AcDbSpline
210
0.0
220
0.0
230
1.0
 70
    24
 71
     3
 72
     8
 73
     4
 74
     0
 42
0.00000001
 43
0.00000001
 40
0.0
 40
0.0
 40
0.0
 40
0.0
 40
1.0
 40
1.0
 40
1.0
 40
1.0
 10
489.5808657832845
 20
476.795355525773
 30
0.0
 10
489.2806880857597
 20
476.763805578431
 30
0.0
 10
488.980357112508
 20
476.7322395211609
 30
0.0
 10
488.6798728679793
 20
476.7006573544303
 30
0.0
  0
SPLINE
  5
126
330
1F
100
AcDbEntity
  8
0
  6
Continuous
 62
     7
370
    15
100
AcDbSpline
210
0.0
220
0.0
230
1.0
 70
    24
 71
     3
 72
     8
 73
     4
 74
     0
 42
0.00000001
 43
0.00000001
 40
0.0
 40
0.0
 40
0.0
 40
0.0
 40
1.0
 40
1.0
 40
1.0
 40
1.0
 10
488.6798728679793
 20
476.7006573544303
 30
0.0
 10
488.4251053130524
 20
476.673880205399
 30
0.0
 10
488.1706353814593
 20
476.6471343378409
 30
0.0
 10
487.9164630929724
 20
476.6204197538339
 30
0.0
  0
SPLINE
  5
127
330
1F
100
AcDbEntity
  8
0
  6
Continuous
 62
     7
370
    15
100
AcDbSpline
210
0.0
220
0.0
230
1.0
 70
     8
 71
     3
 72
     8
 73
     4
 74
     0
 42
0.00000001
 43
0.00000001
 40
0.0
 40
0.0
 40
0.0
 40
0.0
 40
1.0
 40
1.0
 40
1.0
 40
1.0
 10
474.8746116804867
 20
475.2496660170801
 30
0.0
 10
474.866326194107
 20
475.3245511296541
 30
0.0
 10
474.8624445405898
 20
475.3982828294899
 30
0.0
 10
474.8624447511388
 20
475.4702749874713
 30
0.0
  0
SPLINE
  5
128
330
1F
100
AcDbEntity
  8
0
  6
Continuous
 62
     7
370
    15
100
AcDbSpline
210
0.0
220
0.0
230
1.0
 70
    24
 71
     3
 72
    28
 73
    24
 74
     0
 42
0.00000001
 43
0.00000001
 40
0.0
 40
0.0
 40
0.0
 40
0.0
 40
0.01809457089163
 40
0.036154612775618
 40
0.054193177454809
 40
0.0722233633732621
 40
0.0902582872310813
 40
0.1083110554009635
 40
0.1263947354569786
 40
0.1888891790409502
 40
0.251406679830675
 40
0.3137732464422967
 40
0.3761331876857185
 40
0.5014499442605145
 40
0.6272533864972635
 40
0.6894463553984717
 40
0.7516525575885268
 40
0.8135865749023904
 40
0.8755327176675669
 40
0.9066776854921793
 40
0.9377579626158458
 40
0.968842444822207
 40
1.0
 40
1.0
 40
1.0
 40
1.0
 10
487.9164630929723
 20
476.6204197538337
 30
0.0
 10
487.7902611741061
 20
476.6071553976622
 30
0.0
 10
487.5380981614835
 20
476.5806519970582
 30
0.0
 10
487.1612996569193
 20
476.5410488783868
 30
0.0
 10
486.7861583292984
 20
476.5016199360306
 30
0.0
 10
486.4127386971115
 20
476.4623719511564
 30
0.0
 10
486.0410262773212
 20
476.4233034015356
 30
0.0
 10
485.6710181186289
 20
476.3844139769743
 30
0.0
 10
485.0016392735305
 20
476.3140594253571
 30
0.0
 10
484.0452087108619
 20
476.2135345224831
 30
0.0
 10
482.8355460844276
 20
476.0863938572023
 30
0.0
 10
481.6788445948848
 20
475.9648196317132
 30
0.0
 10
480.2186112810614
 20
475.8113429259544
 30
0.0
 10
478.566781974093
 20
475.637728669856
 30
0.0
 10
477.2201702082093
 20
475.496194070003
 30
0.0
 10
476.3562285829736
 20
475.4053901461684
 30
0.0
 10
475.8222814827506
 20
475.3492700445272
 30
0.0
 10
475.401849237252
 20
475.305080834883
 30
0.0
 10
475.1497280865065
 20
475.2785818341396
 30
0.0
 10
475.0071944670572
 20
475.2636009470677
 30
0.0
 10
474.9310697292297
 20
475.2555999147136
 30
0.0
 10
474.88341824028
 20
475.2505915414083
 30
0.0
 10
474.8775395817618
 20
475.2499736695003
 30
0.0
 10
474.8745968016913
 20
475.2496643708515
 30
0.0
  0
LINE
  5
129
330
1F
100
AcDbEntity
  8
0
  6
Continuous
 62
     7
370
    15
100
AcDbLine
 10
500.6656405797
 20
470.3736334555
 30
0.0
 11
500.3068029701
 21
473.7877452533
 31
0.0
  0
LINE
  5
12A
330
1F
100
AcDbEntity
  8
0
  6
Continuous
 62
     7
370
    15
100
AcDbLine
 10
500.6656405797
 20
470.3736334555
 30
0.0
 11
478.7205204365
 21
468.067108385
 31
0.0
  0
LINE
  5
12B
330
1F
100
AcDbEntity
  8
0
  6
Continuous
 62
     7
370
    15
100
AcDbLine
 10
478.7205204365
 20
468.067108385
 30
0.0
 11
478.3616828269
 21
471.4812201828
 31
0.0
  0
LINE
  5
12C
330
1F
100
AcDbEntity
  8
0
  6
Continuous
 62
     7
370
    15
100
AcDbLine
 10
477.3641773658
 20
471.3763781341
 30
0.0
 11
478.3616828269
 21
471.4812201828
 31
0.0
  0
LINE
  5
12D
330
1F
100
AcDbEntity
  8
0
  6
Continuous
 62
     7
370
    15
100
AcDbLine
 10
500.3068029701
 20
473.7877452533
 30
0.0
 11
501.3043084311
 21
473.8925873019
 31
0.0
  0
SPLINE
  5
12E
330
1F
100
AcDbEntity
  8
0
  6
Continuous
 62
     7
370
    15
100
AcDbSpline
210
0.0
220
0.0
230
1.0
 70
    24
 71
     3
 72
    10
 73
     6
 74
     0
 42
0.00000001
 43
0.00000001
 40
0.0
 40
0.0
 40
0.0
 40
0.0
 40
0.5
 40
0.5
 40
1.0
 40
1.0
 40
1.0
 40
1.0
 10
500.7261711647247
 20
469.7977234090348
 30
0.0
 10
500.7261711647247
 20
469.7977234090348
 30
0.0
 10
500.7206183489818
 20
469.8505549217611
 30
0.0
 10
500.6997495047844
 20
470.0491087111925
 30
0.0
 10
500.6845276368153
 20
470.1939351107242
 30
0.0
 10
500.66564057971
 20
470.3736334554926
 30
0.0
  0
LINE
  5
12F
330
1F
100
AcDbEntity
  8
0
  6
Continuous
 62
     7
370
    15
100
AcDbLine
 10
500.7261711647
 20
469.797723409
 30
0.0
 11
478.7810510215
 21
467.4911983386
 31
0.0
  0
SPLINE
  5
130
330
1F
100
AcDbEntity
  8
0
  6
Continuous
 62
     7
370
    15
100
AcDbSpline
210
0.0
220
0.0
230
1.0
 70
    24
 71
     3
 72
    10
 73
     6
 74
     0
 42
0.00000001
 43
0.00000001
 40
0.0
 40
0.0
 40
0.0
 40
0.0
 40
0.5000000000000001
 40
0.5000000000000001
 40
1.0
 40
1.0
 40
1.0
 40
1.0
 10
478.7810510215284
 20
467.4911983385708
 30
0.0
 10
478.7810510215284
 20
467.4911983385708
 30
0.0
 10
478.7754982057854
 20
467.544029851297
 30
0.0
 10
478.7546293615881
 20
467.7425836407284
 30
0.0
 10
478.739407493619
 20
467.88741004026
 30
0.0
 10
478.7205204365137
 20
468.0671083850285
 30
0.0
  0
SPLINE
  5
131
330
1F
100
AcDbEntity
  8
0
  6
Continuous
 62
     7
370
    15
100
AcDbSpline
210
0.0
220
0.0
230
1.0
 70
     8
 71
     3
 72
    14
 73
    10
 74
     0
 42
0.00000001
 43
0.00000001
 40
0.0
 40
0.0
 40
0.0
 40
0.0
 40
0.25
 40
0.25
 40
0.5
 40
0.5
 40
0.75
 40
0.75
 40
1.0
 40
1.0
 40
1.0
 40
1.0
 10
498.9683288162064
 20
496.3403999244374
 30
0.0
 10
499.4391266231457
 20
496.3364172082364
 30
0.0
 10
499.9459294161662
 20
496.2467029492856
 30
0.0
 10
500.9256481584164
 20
495.8513374770835
 30
0.0
 10
501.3955720244263
 20
495.5444296678205
 30
0.0
 10
502.1709812611319
 20
494.7624331082404
 30
0.0
 10
502.4739029084533
 20
494.2899298608598
 30
0.0
 10
502.8609665958946
 20
493.3069016963617
 30
0.0
 10
502.9463904977019
 20
492.7993581256089
 30
0.0
 10
502.946390497648
 20
492.3285434731246
 30
0.0
  0
SPLINE
  5
132
330
1F
100
AcDbEntity
  8
0
  6
Continuous
 62
     7
370
    15
100
AcDbSpline
210
0.0
220
0.0
230
1.0
 70
     8
 71
     3
 72
    14
 73
    10
 74
     0
 42
0.00000001
 43
0.00000001
 40
0.1068541931604894
 40
0.1068541931604894
 40
0.1068541931604894
 40
0.1068541931604894
 40
0.230769230769231
 40
0.230769230769231
 40
0.461538461538462
 40
0.461538461538462
 40
0.692307692307692
 40
0.692307692307692
 40
0.742350535359114
 40
0.742350535359114
 40
0.742350535359114
 40
0.742350535359114
 10
422.283610440718
 20
457.1736776362667
 30
0.0
 10
422.2806699530336
 20
457.186495157034
 30
0.0
 10
422.2760398673206
 20
457.2037371416142
 30
0.0
 10
422.2579509214792
 20
457.2657534113501
 30
0.0
 10
422.2403160951289
 20
457.3214557449579
 30
0.0
 10
422.1933153139281
 20
457.4635654367038
 30
0.0
 10
422.1639676211459
 20
457.5499132834978
 30
0.0
 10
422.1211405098754
 20
457.6735951848351
 30
0.0
 10
422.1132364727691
 20
457.696350936439
 30
0.0
 10
422.1050605148628
 20
457.7198213860244
 30
0.0
  0
LWPOLYLINE
  5
133
330
1F
100
AcDbEntity
  8
0
  6
Continuous
 62
     7
370
    15
100
AcDbPolyline
 90
        3
 70
   128
 43
0.0
 10
323.3599700277
 20
409.7803767282
 10
401.7979619319
 20
462.6874702868
 10
413.5729831405
 20
470.6298220073
  0
SPLINE
  5
134
330
1F
100
AcDbEntity
  8
0
  6
Continuous
 62
     7
370
    15
100
AcDbSpline
210
0.0
220
0.0
230
1.0
 70
     8
 71
     3
 72
    15
 73
    11
 74
     0
 42
0.00000001
 43
0.00000001
 40
0.0
 40
0.0
 40
0.0
 40
0.0
 40
0.1463143647005003
 40
1.463151383459341
 40
1.463652820632645
 40
2.875851576076145
 40
2.876185346317245
 40
4.288268992713448
 40
4.288435129583734
 40
5.6880774436983
 40
5.6880774436983
 40
5.6880774436983
 40
5.6880774436983
 10
413.5729831404796
 20
470.6298220073049
 30
0.0
 10
414.1445979995225
 20
471.0153281850176
 30
0.0
 10
419.8873172217556
 20
474.8310519326573
 30
0.0
 10
425.8918546749894
 20
478.2511040153983
 30
0.0
 10
437.4405713847473
 20
483.9133136866979
 30
0.0
 10
443.6139675623907
 20
486.447163825457
 30
0.0
 10
456.2353264486147
 20
490.6733784060891
 30
0.0
 10
462.6876938543678
 20
492.3674055156364
 30
0.0
 10
475.6984069910627
 20
494.8750687915479
 30
0.0
 10
482.2575714081792
 20
495.6968686268961
 30
0.0
 10
488.8415304386785
 20
496.0850123247044
 30
0.0
  0
ARC
  5
135
330
1F
100
AcDbEntity
  8
0
  6
Continuous
 62
     7
370
    15
100
AcDbCircle
 10
497.6956259592
 20
345.8957847756
 30
0.0
 40
150.4499886316989
100
AcDbArc
 50
89.5153176461
 51
93.3738504231
  0
LINE
  5
136
330
1F
100
AcDbEntity
  8
0
  6
Continuous
 62
     7
370
    15
100
AcDbLine
 10
363.6748765162
 20
498.0794650313
 30
0.0
 11
362.9694053859
 21
501.3984457521
 31
0.0
  0
LINE
  5
137
330
1F
100
AcDbEntity
  8
0
  6
Continuous
 62
     7
370
    15
100
AcDbLine
 10
357.2243730632
 20
494.657552963
 30
0.0
 11
356.7464617668
 21
494.5559697811
 31
0.0
  0
SPLINE
  5
138
330
1F
100
AcDbEntity
  8
0
  6
Continuous
 62
     7
370
    15
100
AcDbSpline
210
0.0
220
0.0
230
1.0
 70
     8
 71
     3
 72
     8
 73
     4
 74
     0
 42
0.00000001
 43
0.00000001
 40
0.0
 40
0.0
 40
0.0
 40
0.0
 40
1.0
 40
1.0
 40
1.0
 40
1.0
 10
354.5165847996283
 20
494.0820264905953
 30
0.0
 10
355.2599347935214
 20
494.2406650486002
 30
0.0
 10
356.0032068218113
 20
494.3984147915738
 30
0.0
 10
356.7464617666706
 20
494.5559697818726
 30
0.0
  0
LINE
  5
139
330
1F
100
AcDbEntity
  8
0
  6
Continuous
 62
     7
370
    15
100
AcDbLine
 10
354.516586623
 20
494.0819951876
 30
0.0
 11
311.6438145265
 21
484.9691061615
 31
0.0
  0
ARC
  5
13A
330
1F
100
AcDbEntity
  8
0
  6
Continuous
 62
     7
370
    15
100
AcDbCircle
 10
361.7127124291
 20
497.6623941796
 30
0.0
 40
2.006000000000077
100
AcDbArc
 50
282.0
 51
12.0
  0
SPLINE
  5
13B
330
1F
100
AcDbEntity
  8
0
  6
Continuous
 62
     7
370
    15
100
AcDbSpline
210
0.0
220
0.0
230
1.0
 70
     8
 71
     3
 72
    12
 73
     8
 74
     0
 42
0.00000001
 43
0.00000001
 40
0.0
 40
0.0
 40
0.0
 40
0.0
 40
0.2005415222276554
 40
0.4003899847443759
 40
0.5999674863144274
 40
0.7996973214696591
 40
1.0
 40
1.0
 40
1.0
 40
1.0
 10
361.5908712030828
 20
495.5856808214827
 30
0.0
 10
361.6240630318272
 20
495.5927482276092
 30
0.0
 10
361.6903319803072
 20
495.606858615322
 30
0.0
 10
361.7779999961682
 20
495.6255244050777
 30
0.0
 10
361.8565049274275
 20
495.6422190990448
 30
0.0
 10
361.9259217238225
 20
495.6569519854436
 30
0.0
 10
361.9639778414269
 20
495.6650051434062
 30
0.0
 10
361.9830331482577
 20
495.6690374884165
 30
0.0
  0
LINE
  5
13C
330
1F
100
AcDbEntity
  8
0
  6
Continuous
 62
     7
370
    15
100
AcDbLine
 10
361.5905421415
 20
495.58561085
 30
0.0
 11
359.8622683505
 21
495.2182549153
 31
0.0
  0
SPLINE
  5
13D
330
1F
100
AcDbEntity
  8
0
  6
Continuous
 62
     7
370
    15
100
AcDbSpline
210
0.0
220
0.0
230
1.0
 70
     8
 71
     3
 72
    14
 73
    10
 74
     0
 42
0.00000001
 43
0.00000001
 40
0.0
 40
0.0
 40
0.0
 40
0.0
 40
0.1433678440897955
 40
0.2860741642776286
 40
0.4284107519319568
 40
0.570673643557403
 40
0.7131611979849929
 40
0.8561715869111556
 40
0.9999999999999999
 40
0.9999999999999999
 40
0.9999999999999999
 40
0.9999999999999999
 10
358.4457961839313
 20
494.9171746667068
 30
0.0
 10
358.5173534271323
 20
494.9324328458588
 30
0.0
 10
358.6601377361011
 20
494.9628788002989
 30
0.0
 10
358.8703841747914
 20
495.0076948515388
 30
0.0
 10
359.0768845183281
 20
495.0516627182319
 30
0.0
 10
359.2794456035231
 20
495.0947233200345
 30
0.0
 10
359.477995518509
 20
495.1368580772145
 30
0.0
 10
359.6729963079327
 20
495.1781787955279
 30
0.0
 10
359.7989867172487
 20
495.2048557243754
 30
0.0
 10
359.8621615754236
 20
495.2182322282348
 30
0.0
  0
SPLINE
  5
13E
330
1F
100
AcDbEntity
  8
0
  6
Continuous
 62
     7
370
    15
100
AcDbSpline
210
0.0
220
0.0
230
1.0
 70
     8
 71
     3
 72
    13
 73
     9
 74
     0
 42
0.00000001
 43
0.00000001
 40
0.0
 40
0.0
 40
0.0
 40
0.0
 40
0.1677791485702925
 40
0.3347226738206326
 40
0.5011216997679131
 40
0.6672712574817671
 40
0.8334663808333241
 40
1.0
 40
1.0
 40
1.0
 40
1.0
 10
357.2244202430126
 20
494.6573307024069
 30
0.0
 10
357.2934534805312
 20
494.6719886664521
 30
0.0
 10
357.4311761358291
 20
494.7012315906163
 30
0.0
 10
357.6370022811283
 20
494.744970365582
 30
0.0
 10
357.8414507174725
 20
494.7884422593975
 30
0.0
 10
358.0444663284939
 20
494.8316486891393
 30
0.0
 10
358.2462414454861
 20
494.8746307474358
 30
0.0
 10
358.3792328389537
 20
494.9029837454729
 30
0.0
 10
358.4457961839313
 20
494.917174666707
 30
0.0
  0
ARC
  5
13F
330
1F
100
AcDbEntity
  8
0
  6
Continuous
 62
     7
370
    15
100
AcDbCircle
 10
312.9025890724
 20
369.9249672313
 30
0.0
 40
2.557649805385136
100
AcDbArc
 50
161.9092196037
 51
169.1536531247
  0
SPLINE
  5
140
330
1F
100
AcDbEntity
  8
0
  6
Continuous
 62
     7
370
    15
100
AcDbSpline
210
0.0
220
0.0
230
1.0
 70
    24
 71
     3
 72
    16
 73
    12
 74
     0
 42
0.00000001
 43
0.00000001
 40
0.0
 40
0.0
 40
0.0
 40
0.0
 40
0.083231443494352
 40
0.1664657217276506
 40
0.2497343542920975
 40
0.3330688217983876
 40
0.4165005303343555
 40
0.500060776343893
 40
0.6664892370438309
 40
0.8330539261775161
 40
0.9999999999999999
 40
0.9999999999999999
 40
0.9999999999999999
 40
0.9999999999999999
 10
310.3906307713031
 20
370.4062551083425
 30
0.0
 10
310.389839238169
 20
370.4062551083425
 30
0.0
 10
310.3882561449424
 20
370.4062551083425
 30
0.0
 10
310.3754964302648
 20
370.4062551083425
 30
0.0
 10
310.3551325082738
 20
370.4062551083426
 30
0.0
 10
310.3264240358179
 20
370.4062551083425
 30
0.0
 10
310.2895514035458
 20
370.4062551083425
 30
0.0
 10
310.2296833963125
 20
370.4062551083425
 30
0.0
 10
310.1342736651296
 20
370.4062551083425
 30
0.0
 10
309.9900452618585
 20
370.4062551083425
 30
0.0
 10
309.8671098516961
 20
370.4062551083425
 30
0.0
 10
309.8055718555054
 20
370.4062551083425
 30
0.0
  0
SPLINE
  5
141
330
1F
100
AcDbEntity
  8
0
  6
Continuous
 62
     7
370
    15
100
AcDbSpline
210
0.0
220
0.0
230
1.0
 70
     8
 71
     3
 72
    10
 73
     6
 74
     0
 42
0.00000001
 43
0.00000001
 40
0.0334232567184225
 40
0.0334232567184225
 40
0.0334232567184225
 40
0.0334232567184225
 40
0.9086852682778841
 40
0.9086852682778841
 40
2.786221616342085
 40
2.786221616342085
 40
2.786221616342085
 40
2.786221616342085
 10
326.4774956933062
 20
392.5257025101182
 30
0.0
 10
324.0333152200641
 20
390.8748560651553
 30
0.0
 10
321.4410558080692
 20
388.5666749817976
 30
0.0
 10
315.4268664025155
 20
381.9053351303174
 30
0.0
 10
312.3825047574902
 20
376.5694744851651
 30
0.0
 10
310.4713748665988
 20
370.719177538695
 30
0.0
  0
LINE
  5
142
330
1F
100
AcDbEntity
  8
0
  6
Continuous
 62
     7
370
    15
100
AcDbLine
 10
326.4752353685
 20
392.5290536048
 30
0.0
 11
326.4774811057
 21
392.5257241623
 31
0.0
  0
LINE
  5
143
330
1F
100
AcDbEntity
  8
0
  6
Continuous
 62
     7
370
    15
100
AcDbLine
 10
362.9658560682
 20
501.4151439794
 30
0.0
 11
362.9694053859
 21
501.3984457521
 31
0.0
  0
LINE
  5
144
330
1F
100
AcDbEntity
  8
0
  6
Continuous
 62
     7
370
    15
100
AcDbLine
 10
311.6809507186
 20
468.1987551083
 30
0.0
 11
311.6809507186
 21
468.1718884991
 31
0.0
  0
LINE
  5
145
330
1F
100
AcDbEntity
  8
0
  6
Continuous
 62
     7
370
    15
100
AcDbLine
 10
311.7812507186
 20
468.1718884991
 30
0.0
 11
311.6809507186
 21
468.1718884991
 31
0.0
  0
LINE
  5
146
330
1F
100
AcDbEntity
  8
0
  6
Continuous
 62
     7
370
    15
100
AcDbLine
 10
311.7812507186
 20
462.2076217176
 30
0.0
 11
311.6809507186
 21
462.2076217176
 31
0.0
  0
LINE
  5
147
330
1F
100
AcDbEntity
  8
0
  6
Continuous
 62
     7
370
    15
100
AcDbLine
 10
311.6809507186
 20
462.2076217176
 30
0.0
 11
311.6809507186
 21
462.1807551083
 31
0.0
  0
LINE
  5
148
330
1F
100
AcDbEntity
  8
0
  6
Continuous
 62
     7
370
    15
100
AcDbLine
 10
311.6809507186
 20
462.1807551083
 30
0.0
 11
311.373390498
 21
462.1807551083
 31
0.0
  0
LINE
  5
149
330
1F
100
AcDbEntity
  8
0
  6
Continuous
 62
     7
370
    15
100
AcDbLine
 10
311.6809507186
 20
468.1987551083
 30
0.0
 11
311.373390498
 21
468.1987551083
 31
0.0
  0
LINE
  5
14A
330
1F
100
AcDbEntity
  8
0
  6
Continuous
 62
     7
370
    15
100
AcDbLine
 10
311.1794507186
 20
464.8106771538
 30
0.0
 11
311.1794507186
 21
465.5688330629
 31
0.0
  0
LINE
  5
14B
330
1F
100
AcDbEntity
  8
0
  6
Continuous
 62
     7
370
    15
100
AcDbLine
 10
312.3830507186
 20
467.5632863173
 30
0.0
 11
312.3830507186
 21
462.8162238994
 31
0.0
  0
SPLINE
  5
14C
330
1F
100
AcDbEntity
  8
0
  6
Continuous
 62
     7
370
    15
100
AcDbSpline
210
0.0
220
0.0
230
1.0
 70
     8
 71
     3
 72
    10
 73
     6
 74
     0
 42
0.00000001
 43
0.00000001
 40
0.0
 40
0.0
 40
0.0
 40
0.0
 40
0.5
 40
0.5
 40
1.0
 40
1.0
 40
1.0
 40
1.0
 10
312.3830507185597
 20
462.816223899363
 30
0.0
 10
312.3830507185597
 20
462.6563722786428
 30
0.0
 10
312.3190288508461
 20
462.4997642454509
 30
0.0
 10
312.0975743239582
 20
462.2744517621491
 30
0.0
 10
311.9411594160518
 20
462.2076217176304
 30
0.0
 10
311.7812507185596
 20
462.2076217176304
 30
0.0
  0
SPLINE
  5
14D
330
1F
100
AcDbEntity
  8
0
  6
Continuous
 62
     7
370
    15
100
AcDbSpline
210
0.0
220
0.0
230
1.0
 70
     8
 71
     3
 72
    10
 73
     6
 74
     0
 42
0.00000001
 43
0.00000001
 40
0.0
 40
0.0
 40
0.0
 40
0.0
 40
0.5
 40
0.5
 40
1.0
 40
1.0
 40
1.0
 40
1.0
 10
311.7812507185596
 20
468.1718884990547
 30
0.0
 10
311.9411277727451
 20
468.1718884990547
 30
0.0
 10
312.0972865401308
 20
468.105185034172
 30
0.0
 10
312.3186920499378
 20
467.8802543888037
 30
0.0
 10
312.3830507185597
 20
467.7231121786981
 30
0.0
 10
312.3830507185597
 20
467.5632863173221
 30
0.0
  0
SPLINE
  5
14E
330
1F
100
AcDbEntity
  8
0
  6
Continuous
 62
     7
370
    15
100
AcDbSpline
210
0.0
220
0.0
230
1.0
 70
     8
 71
     3
 72
    11
 73
     7
 74
     0
 42
0.00000001
 43
0.00000001
 40
0.0
 40
0.0
 40
0.0
 40
0.0
 40
0.7278782579051609
 40
0.8188627552582799
 40
0.9098470876015727
 40
1.0
 40
1.0
 40
1.0
 40
1.0
 10
326.4774811174281
 20
392.5257241702313
 30
0.0
 10
350.0112965910974
 20
408.4069528929124
 30
0.0
 10
376.486829788051
 20
426.2733289901581
 30
0.0
 10
405.9117508904534
 20
446.113466731173
 30
0.0
 10
414.7104149692962
 20
452.0501661169369
 30
0.0
 10
420.5723674026542
 20
455.9942867877343
 30
0.0
 10
423.4898904386361
 20
457.957295366286
 30
0.0
  0
LINE
  5
14F
330
1F
100
AcDbEntity
  8
0
  6
Continuous
 62
     7
370
    15
100
AcDbLine
 10
470.6126314044
 20
477.3630246514
 30
0.0
 11
472.4841017185
 21
477.794051471
 31
0.0
  0
SPLINE
  5
150
330
1F
100
AcDbEntity
  8
0
  6
Continuous
 62
     7
370
    15
100
AcDbSpline
210
0.0
220
0.0
230
1.0
 70
     8
 71
     3
 72
    14
 73
    10
 74
     0
 42
0.00000001
 43
0.00000001
 40
0.0
 40
0.0
 40
0.0
 40
0.0
 40
0.25
 40
0.25
 40
0.5
 40
0.5
 40
0.75
 40
0.75
 40
1.0
 40
1.0
 40
1.0
 40
1.0
 10
474.862461461967
 20
475.8229926278607
 30
0.0
 10
474.8624431610283
 20
476.0804054150181
 30
0.0
 10
474.8110974695284
 20
476.3633537639877
 30
0.0
 10
474.5697523184035
 20
476.9079478790314
 30
0.0
 10
474.3784274097246
 20
477.1669288818211
 30
0.0
 10
473.8944611819851
 20
477.5680266123892
 30
0.0
 10
473.6044713581168
 20
477.7079458941895
 30
0.0
 10
473.0245620301787
 20
477.843985668696
 30
0.0
 10
472.7370159393691
 20
477.8419016914332
 30
0.0
 10
472.4840879629286
 20
477.7941257167984
 30
0.0
  0
LINE
  5
151
330
1F
100
AcDbEntity
  8
0
  6
Continuous
 62
     8
370
     0
100
AcDbLine
 10
296.1633444685
 20
370.7027082878
 30
0.0
 11
296.1633444685
 21
409.7238519624
 31
0.0
  0
ARC
  5
152
330
1F
100
AcDbEntity
  8
0
  6
Continuous
 62
     8
370
     0
100
AcDbCircle
 10
307.9471722026
 20
489.5065952489
 30
0.0
 40
0.5949380819452348
100
AcDbArc
 50
0.3793136799
 51
95.5977844997
  0
LINE
  5
153
330
1F
100
AcDbEntity
  8
0
  6
Continuous
 62
     8
370
     0
100
AcDbLine
 10
362.2556429587
 20
501.8619358295
 30
0.0
 11
362.2520855865
 21
501.8786719499
 31
0.0
  0
SPLINE
  5
154
330
1F
100
AcDbEntity
  8
0
  6
Continuous
 62
     8
370
     0
100
AcDbSpline
210
0.0
220
0.0
230
1.0
 70
     8
 71
     3
 72
    26
 73
    22
 74
     0
 42
0.00000001
 43
0.00000001
 40
0.0
 40
0.0
 40
0.0
 40
0.0
 40
0.1249999999999971
 40
0.1249999999999971
 40
0.1874999999999956
 40
0.1874999999999956
 40
0.2499999999999941
 40
0.2499999999999941
 40
0.3749999999999954
 40
0.3749999999999954
 40
0.4999999999999968
 40
0.4999999999999968
 40
0.6249999999999981
 40
0.6249999999999981
 40
0.6874999999999984
 40
0.6874999999999984
 40
0.7499999999999987
 40
0.7499999999999987
 40
0.8749999999999993
 40
0.8749999999999993
 40
1.0
 40
1.0
 40
1.0
 40
1.0
 10
356.0080959162833
 20
500.3796870499255
 30
0.0
 10
356.4232154706608
 20
500.467923435086
 30
0.0
 10
356.8310449403309
 20
500.5561388451521
 30
0.0
 10
357.4323247039333
 20
500.688349201616
 30
0.0
 10
357.6309945568912
 20
500.7323988404323
 30
0.0
 10
358.0247488419274
 20
500.8204219808661
 30
0.0
 10
358.2203524442469
 20
500.8645173470974
 30
0.0
 10
358.7890341860008
 20
500.9937513030566
 30
0.0
 10
359.1482917792905
 20
501.0767872318968
 30
0.0
 10
359.8275855171583
 20
501.2362099039
 30
0.0
 10
360.1488306791856
 20
501.3129183090526
 30
0.0
 10
360.7240823120558
 20
501.4524608683121
 30
0.0
 10
360.9819325336587
 20
501.5161855788608
 30
0.0
 10
361.3231264219601
 20
501.6020734646772
 30
0.0
 10
361.4289844982849
 20
501.6290230338698
 30
0.0
 10
361.6207442702041
 20
501.6784152756909
 30
0.0
 10
361.7073085698678
 20
501.701023995782
 30
0.0
 10
361.9395049167088
 20
501.7626031534117
 30
0.0
 10
362.0583363891127
 20
501.7955125364923
 30
0.0
 10
362.217271957437
 20
501.8429493293406
 30
0.0
 10
362.2566440580507
 20
501.8572260274227
 30
0.0
 10
362.2556429587075
 20
501.8619358295348
 30
0.0
  0
LINE
  5
155
330
1F
100
AcDbEntity
  8
0
  6
Continuous
 62
     8
370
     0
100
AcDbLine
 10
310.1768556775
 20
490.6379562077
 30
0.0
 11
356.0080959163
 21
500.3796870499
 31
0.0
  0
SPLINE
  5
156
330
1F
100
AcDbEntity
  8
0
  6
Continuous
 62
     8
370
     0
100
AcDbSpline
210
0.0
220
0.0
230
1.0
 70
     8
 71
     3
 72
    16
 73
    12
 74
     0
 42
0.00000001
 43
0.00000001
 40
0.0
 40
0.0
 40
0.0
 40
0.0
 40
0.2499999999999996
 40
0.2499999999999996
 40
0.3749999999999987
 40
0.3749999999999987
 40
0.4999999999999978
 40
0.4999999999999978
 40
0.7499999999999989
 40
0.7499999999999989
 40
1.0
 40
1.0
 40
1.0
 40
1.0
 10
307.8891393145958
 20
490.0986961737915
 30
0.0
 10
308.0027074877785
 20
490.1314920963561
 30
0.0
 10
308.1411065344405
 20
490.1684642177834
 30
0.0
 10
308.3843008887142
 20
490.2300861621326
 30
0.0
 10
308.4720191771883
 20
490.2518194303451
 30
0.0
 10
308.6549296131247
 20
490.2962605338192
 30
0.0
 10
308.7504552512725
 20
490.3190588120118
 30
0.0
 10
309.048980876201
 20
490.3891920089196
 30
0.0
 10
309.2667881851086
 20
490.4388972259561
 30
0.0
 10
309.7120646135861
 20
490.5380226415256
 30
0.0
 10
309.9428794617312
 20
490.5882230277607
 30
0.0
 10
310.1768556775331
 20
490.6379562077041
 30
0.0
  0
SPLINE
  5
157
330
1F
100
AcDbEntity
  8
0
  6
Continuous
 62
     8
370
     0
100
AcDbSpline
210
0.0
220
0.0
230
1.0
 70
     8
 71
     3
 72
    20
 73
    16
 74
     0
 42
0.00000001
 43
0.00000001
 40
0.0
 40
0.0
 40
0.0
 40
0.0
 40
0.1249999999999999
 40
0.1249999999999999
 40
0.2499999999999998
 40
0.2499999999999998
 40
0.3749999999999998
 40
0.3749999999999998
 40
0.4999999999999997
 40
0.4999999999999997
 40
0.6249999999999996
 40
0.6249999999999996
 40
0.7499999999999996
 40
0.7499999999999996
 40
1.0
 40
1.0
 40
1.0
 40
1.0
 10
310.1603657878896
 20
483.0069420744039
 30
0.0
 10
310.0774036615808
 20
482.9877745262332
 30
0.0
 10
309.9912219941369
 20
482.9948348021233
 30
0.0
 10
309.8128621141534
 20
483.0593620293697
 30
0.0
 10
309.7195937302752
 20
483.1178631654814
 30
0.0
 10
309.5331666735
 20
483.2845865938392
 30
0.0
 10
309.4409173995547
 20
483.3913670597341
 30
0.0
 10
309.260239652628
 20
483.651434286839
 30
0.0
 10
309.1708103918919
 20
483.8071927647676
 30
0.0
 10
309.0063778795038
 20
484.1538188816182
 30
0.0
 10
308.9306974688844
 20
484.3449700831742
 30
0.0
 10
308.7950815061249
 20
484.7635552113712
 30
0.0
 10
308.735390130049
 20
484.9918260436705
 30
0.0
 10
308.5924720828087
 20
485.6979021439147
 30
0.0
 10
308.5420972471445
 20
486.2147684799717
 30
0.0
 10
308.5420972471445
 20
486.7346881965681
 30
0.0
  0
SPLINE
  5
158
330
1F
100
AcDbEntity
  8
0
  6
Continuous
 62
     8
370
     0
100
AcDbSpline
210
0.0
220
0.0
230
1.0
 70
     8
 71
     3
 72
    12
 73
     8
 74
     0
 42
0.00000001
 43
0.00000001
 40
0.0
 40
0.0
 40
0.0
 40
0.0
 40
0.0461831612192271
 40
0.3076808440390219
 40
0.5753513383669651
 40
0.7841447210987949
 40
0.9999999999999999
 40
0.9999999999999999
 40
0.9999999999999999
 40
0.9999999999999999
 10
310.8477802018875
 20
484.335110016735
 30
0.0
 10
310.8413509498045
 20
484.3023491569068
 30
0.0
 10
310.798518071864
 20
484.084090191144
 30
0.0
 10
310.6962521106089
 20
483.7169199964958
 30
0.0
 10
310.5380801883353
 20
483.3335159692554
 30
0.0
 10
310.3571938648208
 20
483.0895088660594
 30
0.0
 10
310.2266985249
 20
483.0347677858678
 30
0.0
 10
310.1603657878896
 20
483.0069420744039
 30
0.0
  0
LINE
  5
159
330
1F
100
AcDbEntity
  8
0
  6
Continuous
 62
     8
370
     0
100
AcDbLine
 10
308.5420972471
 20
486.7346881966
 30
0.0
 11
308.5420972471
 21
489.5105338724
 31
0.0
  0
LINE
  5
15A
330
1F
100
AcDbEntity
  8
0
  6
Continuous
 62
     8
370
    15
100
AcDbLine
 10
266.238390498
 20
445.3303551083
 30
0.0
 11
310.370390498
 21
445.3303551083
 31
0.0
  0
SPLINE
  5
15B
330
1F
100
AcDbEntity
  8
0
  6
Continuous
 62
     8
370
     0
100
AcDbSpline
210
0.0
220
0.0
230
1.0
 70
     8
 71
     3
 72
     8
 73
     4
 74
     0
 42
0.00000001
 43
0.00000001
 40
0.0
 40
0.0
 40
0.0
 40
0.0
 40
1.0
 40
1.0
 40
1.0
 40
1.0
 10
296.156556351839
 20
370.4062084975378
 30
0.0
 10
296.1612308990706
 20
370.5068716534568
 30
0.0
 10
296.1632858160858
 20
370.6059676844254
 30
0.0
 10
296.1633491755998
 20
370.7027082634798
 30
0.0
  0
SPLINE
  5
15C
330
1F
100
AcDbEntity
  8
0
  6
Continuous
 62
     8
370
     0
100
AcDbSpline
210
0.0
220
0.0
230
1.0
 70
     8
 71
     3
 72
    26
 73
    22
 74
     0
 42
0.00000001
 43
0.00000001
 40
0.0
 40
0.0
 40
0.0
 40
0.0
 40
0.125
 40
0.125
 40
0.2500000000000002
 40
0.2500000000000002
 40
0.3750000000000002
 40
0.3750000000000002
 40
0.5000000000000002
 40
0.5000000000000002
 40
0.6250000000000002
 40
0.6250000000000002
 40
0.7500000000000001
 40
0.7500000000000001
 40
0.8749999999999998
 40
0.8749999999999998
 40
0.9374999999999997
 40
0.9374999999999997
 40
0.9687499999999998
 40
0.9687499999999998
 40
1.0
 40
1.0
 40
1.0
 40
1.0
 10
296.1633444685187
 20
409.7238519624016
 30
0.0
 10
297.217692664664
 20
408.8414653851109
 30
0.0
 10
298.3199926199939
 20
408.0204075218043
 30
0.0
 10
300.5989495677347
 20
406.4875748023463
 30
0.0
 10
301.7753139924156
 20
405.7739391612492
 30
0.0
 10
304.2048291247937
 20
404.4852948119475
 30
0.0
 10
305.4598680786856
 20
403.913041609903
 30
0.0
 10
308.0494072376624
 20
402.9722920488363
 30
0.0
 10
309.383873164405
 20
402.6037590959883
 30
0.0
 10
312.1079529391789
 20
402.1294986337808
 30
0.0
 10
313.4968085833482
 20
402.0233560583808
 30
0.0
 10
316.2784748356131
 20
402.1109475489525
 30
0.0
 10
317.6705919936197
 20
402.3039003664506
 30
0.0
 10
320.3927322301548
 20
402.9928315737392
 30
0.0
 10
321.7230432000654
 20
403.4872805257401
 30
0.0
 10
323.6285327689455
 20
404.4316045075026
 30
0.0
 10
324.2488654483183
 20
404.7800520164323
 30
0.0
 10
325.1555790913889
 20
405.3448407189239
 30
0.0
 10
325.4541446495519
 20
405.5397266032056
 30
0.0
 10
326.0413115538103
 20
405.9454453791324
 30
0.0
 10
326.3286431819842
 20
406.158076281419
 30
0.0
 10
326.6209766447706
 20
406.3631124740592
 30
0.0
  0
SPLINE
  5
15D
330
1F
100
AcDbEntity
  8
0
  6
Continuous
 62
     8
370
     0
100
AcDbSpline
210
0.0
220
0.0
230
1.0
 70
     8
 71
     3
 72
     8
 73
     4
 74
     0
 42
0.00000001
 43
0.00000001
 40
2.0
 40
2.0
 40
2.0
 40
2.0
 40
3.09965581616584
 40
3.09965581616584
 40
3.09965581616584
 40
3.09965581616584
 10
326.6209718805324
 20
406.3631091325333
 30
0.0
 10
328.3741731052427
 20
407.5927615443423
 30
0.0
 10
330.1296930951831
 20
408.8226288116307
 30
0.0
 10
331.8858625164722
 20
410.0514347850828
 30
0.0
  0
SPLINE
  5
15E
330
1F
100
AcDbEntity
  8
0
  6
Continuous
 62
     8
370
     0
100
AcDbSpline
210
0.0
220
0.0
230
1.0
 70
     8
 71
     3
 72
     9
 73
     5
 74
     0
 42
0.00000001
 43
0.00000001
 40
2.0
 40
2.0
 40
2.0
 40
2.0
 40
2.89924943952887
 40
3.799141563875045
 40
3.799141563875045
 40
3.799141563875045
 40
3.799141563875045
 10
331.8858625164722
 20
402.2236848062911
 30
0.0
 10
330.5631815645212
 20
401.2671138721149
 30
0.0
 10
327.9178265369526
 20
399.3518284806905
 30
0.0
 10
325.2887525546631
 20
397.4184797805878
 30
0.0
 10
323.9781880979245
 20
396.447948089226
 30
0.0
  0
SPLINE
  5
15F
330
1F
100
AcDbEntity
  8
0
  6
Continuous
 62
     8
370
     0
100
AcDbSpline
210
0.0
220
0.0
230
1.0
 70
     8
 71
     3
 72
    18
 73
    14
 74
     0
 42
0.00000001
 43
0.00000001
 40
0.0
 40
0.0
 40
0.0
 40
0.0
 40
0.1249999999999993
 40
0.1249999999999993
 40
0.1874999999999992
 40
0.1874999999999992
 40
0.2499999999999992
 40
0.2499999999999992
 40
0.4999999999999994
 40
0.4999999999999994
 40
0.7499999999999997
 40
0.7499999999999997
 40
1.0
 40
1.0
 40
1.0
 40
1.0
 10
323.9781874844842
 20
396.4479489227772
 30
0.0
 10
322.7046976774068
 20
395.5048814464877
 30
0.0
 10
321.484254793249
 20
394.4883296222295
 30
0.0
 10
319.6819688321292
 20
392.9356623671965
 30
0.0
 10
319.083758743814
 20
392.4155836761282
 30
0.0
 10
317.8897704493538
 20
391.3743529503995
 30
0.0
 10
317.2970977516044
 20
390.8490965824695
 30
0.0
 10
314.3549992509014
 20
388.2015455985871
 30
0.0
 10
312.0704725005932
 20
386.0153714008149
 30
0.0
 10
307.5693711397808
 20
381.6058058988386
 30
0.0
 10
305.3494791061952
 20
379.3855380031844
 30
0.0
 10
300.9089591060012
 20
374.9998786648487
 30
0.0
 10
298.6879075732493
 20
372.8353440646906
 30
0.0
 10
296.4715696683038
 20
370.7026950551401
 30
0.0
  0
SPLINE
  5
160
330
1F
100
AcDbEntity
  8
0
  6
Continuous
 62
     8
370
     0
100
AcDbSpline
210
0.0
220
0.0
230
1.0
 70
     8
 71
     3
 72
    30
 73
    26
 74
     0
 42
0.00000001
 43
0.00000001
 40
0.0
 40
0.0
 40
0.0
 40
0.0
 40
0.0138685355520933
 40
0.0282482345057646
 40
0.0431475328025864
 40
0.0585746979461448
 40
0.0872015924885786
 40
0.119263826618205
 40
0.1505048394287697
 40
0.1663828461754689
 40
0.1820112701718344
 40
0.2126845264336649
 40
0.2438780484137142
 40
0.3054032513356024
 40
0.3684040647616907
 40
0.4941725609123315
 40
0.5574762134408288
 40
0.6209542115245797
 40
0.6527261174579282
 40
0.6845014420208515
 40
0.7480023100118685
 40
0.8142416024661935
 40
0.8744652268525509
 40
0.936733496874514
 40
1.0
 40
1.0
 40
1.0
 40
1.0
 10
325.9931279418254
 20
393.2438072588902
 30
0.0
 10
325.8491605984867
 20
393.1403763919613
 30
0.0
 10
325.5559195954603
 20
392.9297024261941
 30
0.0
 10
325.1130954557464
 20
392.6020081829933
 30
0.0
 10
324.6579625079909
 20
392.258495349801
 30
0.0
 10
324.0628711945366
 20
391.8002336669452
 30
0.0
 10
323.3027395827533
 20
391.2005836406567
 30
0.0
 10
322.3947722297053
 20
390.467406016025
 30
0.0
 10
321.6176656623621
 20
389.8328621199265
 30
0.0
 10
321.0025274018506
 20
389.3290635723624
 30
0.0
 10
320.3923922820463
 20
388.8333464631554
 30
0.0
 10
319.6360265366528
 20
388.2149559742508
 30
0.0
 10
318.4384941356116
 20
387.2288560889122
 30
0.0
 10
316.9388460104341
 20
385.9850063789548
 30
0.0
 10
314.5443859455439
 20
383.9994287641444
 30
0.0
 10
312.1387902288194
 20
382.040607709512
 30
0.0
 10
309.7021205465621
 20
380.1444152156599
 30
0.0
 10
308.156996494671
 20
378.9814874519292
 30
0.0
 10
306.9089948463794
 20
378.0648616227795
 30
0.0
 10
305.6542516212637
 20
377.156904959325
 30
0.0
 10
304.0477053846467
 20
376.0163204623503
 30
0.0
 10
302.1470736828069
 20
374.6832218139352
 30
0.0
 10
300.2556810117884
 20
373.3571350652833
 30
0.0
 10
298.3994392611038
 20
372.0395357697201
 30
0.0
 10
297.15681601507
 20
371.1334054308477
 30
0.0
 10
296.5305638181057
 20
370.6767375572456
 30
0.0
  0
ARC
  5
161
330
1F
100
AcDbEntity
  8
0
  6
Continuous
 62
     8
370
     0
100
AcDbCircle
 10
290.0776058614
 20
370.7022689034
 30
0.0
 40
6.39395257097367
100
AcDbArc
 50
357.3464921554
 51
0.0039372943
  0
SPLINE
  5
162
330
1F
100
AcDbEntity
  8
0
  6
Continuous
 62
     8
370
     0
100
AcDbSpline
210
0.0
220
0.0
230
1.0
 70
     8
 71
     3
 72
     8
 73
     4
 74
     0
 42
0.00000001
 43
0.00000001
 40
2.0
 40
2.0
 40
2.0
 40
2.0
 40
3.0
 40
3.0
 40
3.0
 40
3.0
 10
296.5305665394973
 20
370.6767374700475
 30
0.0
 10
296.5109830669474
 20
370.6854111978437
 30
0.0
 10
296.4913444993684
 20
370.6940899770626
 30
0.0
 10
296.4716513591507
 20
370.7027736613519
 30
0.0
  0
ARC
  5
163
330
1F
100
AcDbEntity
  8
0
  6
Continuous
 62
     8
370
     0
100
AcDbCircle
 10
290.3007842311
 20
370.7021041045
 30
0.0
 40
6.229833952559201
100
AcDbArc
 50
357.2780531924
 51
359.7667024317
  0
SPLINE
  5
164
330
1F
100
AcDbEntity
  8
0
  6
Continuous
 62
     8
370
     0
100
AcDbSpline
210
0.0
220
0.0
230
1.0
 70
     8
 71
     3
 72
     8
 73
     4
 74
     0
 42
0.00000001
 43
0.00000001
 40
0.0
 40
0.0
 40
0.0
 40
0.0
 40
0.0003302982675229
 40
0.0003302982675229
 40
0.0003302982675229
 40
0.0003302982675229
 10
309.8912965520308
 20
370.7260621471726
 30
0.0
 10
309.8560157360427
 20
370.621379255624
 30
0.0
 10
309.8273894066961
 20
370.514505842334
 30
0.0
 10
309.8055740584649
 20
370.4062546796741
 30
0.0
  0
SPLINE
  5
165
330
1F
100
AcDbEntity
  8
0
  6
Continuous
 62
     8
370
     0
100
AcDbSpline
210
0.0
220
0.0
230
1.0
 70
     8
 71
     3
 72
    14
 73
    10
 74
     0
 42
0.00000001
 43
0.00000001
 40
0.0
 40
0.0
 40
0.0
 40
0.0
 40
0.25
 40
0.25
 40
0.5
 40
0.5
 40
0.75
 40
0.75
 40
1.0
 40
1.0
 40
1.0
 40
1.0
 10
476.4413300191471
 20
478.8518941757873
 30
0.0
 10
477.1131875166117
 20
478.9820273309575
 30
0.0
 10
477.857035137036
 20
479.0691361693233
 30
0.0
 10
479.4869901639588
 20
479.1784218402445
 30
0.0
 10
480.3728602516858
 20
479.2011015481405
 30
0.0
 10
482.2908838114976
 20
479.1904740026476
 30
0.0
 10
483.3239401072188
 20
479.1577520320651
 30
0.0
 10
485.523197453647
 20
479.0309757038768
 30
0.0
 10
486.690546655149
 20
478.9369426794287
 30
0.0
 10
487.8983215265529
 20
478.8072217609215
 30
0.0
  0
ARC
  5
166
330
1F
100
AcDbEntity
  8
0
  6
Continuous
 62
     8
370
     0
100
AcDbCircle
 10
459.5757036668
 20
476.4473610343
 30
0.0
 40
28.420760459194
100
AcDbArc
 50
4.3718065013
 51
4.7629236102
  0
SPLINE
  5
167
330
1F
100
AcDbEntity
  8
0
  6
Continuous
 62
     8
370
     0
100
AcDbSpline
210
0.0
220
0.0
230
1.0
 70
     8
 71
     3
 72
    30
 73
    26
 74
     0
 42
0.00000001
 43
0.00000001
 40
0.0
 40
0.0
 40
0.0
 40
0.0
 40
0.0173432899560982
 40
0.0348514429219157
 40
0.0525251387127934
 40
0.0703650382121226
 40
0.0883717839960855
 40
0.1065460009363813
 40
0.1248882967816839
 40
0.185310887253516
 40
0.2498879222342486
 40
0.3081076778792799
 40
0.3749986309827654
 40
0.4375853565225006
 40
0.5001749021797217
 40
0.5627548975745402
 40
0.6253136635901926
 40
0.6904444528831173
 40
0.7503448159868145
 40
0.8142656637365095
 40
0.8752219714744324
 40
0.907064247008046
 40
0.9384704606753571
 40
0.9694468708110983
 40
1.0
 40
1.0
 40
1.0
 40
1.0
 10
487.9137705868567
 20
478.6138301231738
 30
0.0
 10
487.7993277623549
 20
478.6035598372814
 30
0.0
 10
487.5693542350689
 20
478.5829216375236
 30
0.0
 10
487.2239888249995
 20
478.5490315283779
 30
0.0
 10
486.8765573077029
 20
478.5128201933453
 30
0.0
 10
486.5273792755918
 20
478.4740814409174
 30
0.0
 10
486.1766939886457
 20
478.4328724290147
 30
0.0
 10
485.8247696169179
 20
478.3891733677161
 30
0.0
 10
485.2031484532989
 20
478.3078422286607
 30
0.0
 10
484.2978335435575
 20
478.1759346898826
 30
0.0
 10
483.1779459473324
 20
477.988241088703
 30
0.0
 10
482.0650354751469
 20
477.7775697092831
 30
0.0
 10
481.0172806379499
 20
477.5579741297566
 30
0.0
 10
480.0103225036395
 20
477.3259871236668
 30
0.0
 10
479.0939961676327
 20
477.0977696997404
 30
0.0
 10
478.2521871935543
 20
476.8732256026897
 30
0.0
 10
477.4804335263285
 20
476.6547358516984
 30
0.0
 10
476.8072524314322
 20
476.4543538659958
 30
0.0
 10
476.2216065907147
 20
476.2719255670951
 30
0.0
 10
475.7429366351552
 20
476.1178697149848
 30
0.0
 10
475.4215102654942
 20
476.0114469962078
 30
0.0
 10
475.2182724912892
 20
475.9434143332595
 30
0.0
 10
475.0916856158043
 20
475.9006400145205
 30
0.0
 10
474.991614835597
 20
475.8666038852653
 30
0.0
 10
474.9476966176944
 20
475.851743464628
 30
0.0
 10
474.9258885723221
 20
475.8443643690503
 30
0.0
  0
ARC
  5
168
330
1F
100
AcDbEntity
  8
0
  6
Continuous
 62
     8
370
     0
100
AcDbCircle
 10
472.9207120919
 20
475.8435662855
 30
0.0
 40
2.005176457360233
100
AcDbArc
 50
0.022813525
 51
100.4117414467
  0
SPLINE
  5
169
330
1F
100
AcDbEntity
  8
0
  6
Continuous
 62
     8
370
     0
100
AcDbSpline
210
0.0
220
0.0
230
1.0
 70
     8
 71
     3
 72
    10
 73
     6
 74
     0
 42
0.00000001
 43
0.00000001
 40
0.0
 40
0.0
 40
0.0
 40
0.0
 40
0.5
 40
0.5
 40
1.0
 40
1.0
 40
1.0
 40
1.0
 10
476.4413300191528
 20
478.8518941757886
 30
0.0
 10
475.3554589263788
 20
478.593904196335
 30
0.0
 10
474.4608697369341
 20
478.3551104692783
 30
0.0
 10
473.1420030078696
 20
477.9886750513314
 30
0.0
 10
472.7192127748684
 20
477.8624690762695
 30
0.0
 10
472.5583301057656
 20
477.8157260950424
 30
0.0
  0
SPLINE
  5
16A
330
1F
100
AcDbEntity
  8
0
  6
Continuous
 62
     8
370
     0
100
AcDbSpline
210
0.0
220
0.0
230
1.0
 70
    24
 71
     3
 72
     8
 73
     4
 74
     0
 42
0.00000001
 43
0.00000001
 40
2.0
 40
2.0
 40
2.0
 40
2.0
 40
3.0
 40
3.0
 40
3.0
 40
3.0
 10
488.6783716754822
 20
476.714936077891
 30
0.0
 10
488.9792200442322
 20
476.7420393101752
 30
0.0
 10
489.2802323442957
 20
476.769157310924
 30
0.0
 10
489.5807737916004
 20
476.7962328928564
 30
0.0
  0
SPLINE
  5
16B
330
1F
100
AcDbEntity
  8
0
  6
Continuous
 62
     8
370
     0
100
AcDbSpline
210
0.0
220
0.0
230
1.0
 70
    24
 71
     3
 72
     8
 73
     4
 74
     0
 42
0.00000001
 43
0.00000001
 40
2.0
 40
2.0
 40
2.0
 40
2.0
 40
3.0
 40
3.0
 40
3.0
 40
3.0
 10
487.9137705868566
 20
476.6460536671407
 30
0.0
 10
488.1682752157747
 20
476.6689818222894
 30
0.0
 10
488.4232709976401
 20
476.6919542250852
 30
0.0
 10
488.6783716754822
 20
476.714936077891
 30
0.0
  0
SPLINE
  5
16C
330
1F
100
AcDbEntity
  8
0
  6
Continuous
 62
     8
370
     0
100
AcDbSpline
210
0.0
220
0.0
230
1.0
 70
     8
 71
     3
 72
    33
 73
    29
 74
     0
 42
0.00000001
 43
0.00000001
 40
0.0
 40
0.0
 40
0.0
 40
0.0
 40
0.0176956672326345
 40
0.0354195811784446
 40
0.0531718445161849
 40
0.0709525594334317
 40
0.0887618276279539
 40
0.1065997503091069
 40
0.1244664281992374
 40
0.1423619615351099
 40
0.1602864500693452
 40
0.1782399930718741
 40
0.1962226893314087
 40
0.2142346371569291
 40
0.2322759343791808
 40
0.250346678352183
 40
0.3728904261965644
 40
0.500217243909196
 40
0.619774737987563
 40
0.7499882353839926
 40
0.7747675808466263
 40
0.801396132573933
 40
0.8298738908301223
 40
0.8602008431100131
 40
0.8923769662714892
 40
0.926402228088536
 40
0.9622765884040261
 40
1.0
 40
1.0
 40
1.0
 40
1.0
 10
474.8623763195609
 20
475.4702670026057
 30
0.0
 10
474.8633310036137
 20
475.4703537105592
 30
0.0
 10
474.865241895634
 20
475.4705272648736
 30
0.0
 10
474.8807131711108
 20
475.4719314141281
 30
0.0
 10
474.905455290226
 20
475.4741724256334
 30
0.0
 10
474.9404039404889
 20
475.477332800533
 30
0.0
 10
474.9853382322477
 20
475.4813903795547
 30
0.0
 10
475.0403386627341
 20
475.4863511144355
 30
0.0
 10
475.1053954063157
 20
475.4922134065999
 30
0.0
 10
475.1805133920916
 20
475.4989776849274
 30
0.0
 10
475.2656840624524
 20
475.5066438356948
 30
0.0
 10
475.3608925393116
 20
475.5152118835722
 30
0.0
 10
475.4661168126634
 20
475.5246818435547
 30
0.0
 10
475.5813233701256
 20
475.5350536303667
 30
0.0
 10
475.7064851470694
 20
475.5463275705204
 30
0.0
 10
476.1016543658865
 20
475.5819580919193
 30
0.0
 10
476.956050941692
 20
475.6591196351126
 30
0.0
 10
478.5472679766806
 20
475.8020937826311
 30
0.0
 10
480.528591987612
 20
475.9810569491157
 30
0.0
 10
482.1891808046863
 20
476.1302230029538
 30
0.0
 10
483.3479438557106
 20
476.2347830890465
 30
0.0
 10
483.8662086761356
 20
476.2816391626849
 30
0.0
 10
484.4292528930083
 20
476.3325016724677
 30
0.0
 10
485.0377790746561
 20
476.3873877611339
 30
0.0
 10
485.692078723219
 20
476.4462906567792
 30
0.0
 10
486.3921172858493
 20
476.5092223505186
 30
0.0
 10
487.1370341396376
 20
476.5761412553272
 30
0.0
 10
487.6505578920502
 20
476.622362446805
 30
0.0
 10
487.9137705868567
 20
476.6460536671406
 30
0.0
  0
LINE
  5
16D
330
1F
100
AcDbEntity
  8
0
  6
Continuous
 62
     8
370
     0
100
AcDbLine
 10
474.9258883903
 20
475.8443646889
 30
0.0
 11
474.8781552578
 21
475.8282962812
 31
0.0
  0
SPLINE
  5
16E
330
1F
100
AcDbEntity
  8
0
  6
Continuous
 62
     8
370
     0
100
AcDbSpline
210
0.0
220
0.0
230
1.0
 70
     8
 71
     3
 72
     8
 73
     4
 74
     0
 42
0.00000001
 43
0.00000001
 40
2.0
 40
2.0
 40
2.0
 40
2.0
 40
3.0
 40
3.0
 40
3.0
 40
3.0
 10
488.9043753011684
 20
478.6914422959394
 30
0.0
 10
488.5737254561411
 20
478.6686713078918
 30
0.0
 10
488.2432285774457
 20
478.6427616906545
 30
0.0
 10
487.9137705868566
 20
478.6138301231738
 30
0.0
  0
LINE
  5
16F
330
1F
100
AcDbEntity
  8
0
  6
Continuous
 62
     8
370
     0
100
AcDbLine
 10
488.9043752768
 20
491.4911054319
 30
0.0
 11
488.9043752768
 21
478.6914422959
 31
0.0
  0
SPLINE
  5
170
330
1F
100
AcDbEntity
  8
0
  6
Continuous
 62
     8
370
     0
100
AcDbSpline
210
0.0
220
0.0
230
1.0
 70
     8
 71
     3
 72
    26
 73
    22
 74
     0
 42
0.00000001
 43
0.00000001
 40
0.0
 40
0.0
 40
0.0
 40
0.0
 40
0.0439062466285201
 40
0.0865529513855669
 40
0.127940108802201
 40
0.1680677136524955
 40
0.206935760961544
 40
0.2445442460148625
 40
0.2808931643694024
 40
0.315982511866517
 40
0.3498122846473961
 40
0.382382479171413
 40
0.4136930922382307
 40
0.4437441210145033
 40
0.4725355630664169
 40
0.5000674163996791
 40
0.6348311431065904
 40
0.7500713350136254
 40
0.8372488050613864
 40
0.920557932021906
 40
1.0
 40
1.0
 40
1.0
 40
1.0
 10
496.8549118587937
 20
491.7384997359776
 30
0.0
 10
496.7524118538377
 20
491.7355606254609
 30
0.0
 10
496.5503522694456
 20
491.7297667189169
 30
0.0
 10
496.2451192087271
 20
491.7211480855665
 30
0.0
 10
495.9446496289639
 20
491.7127420782713
 30
0.0
 10
495.6490611044549
 20
491.7045451311173
 30
0.0
 10
495.359026658196
 20
491.69655816236
 30
0.0
 10
495.075025023775
 20
491.6887809437006
 30
0.0
 10
494.7975346897447
 20
491.6812135392134
 30
0.0
 10
494.52698660351
 20
491.6738559447501
 30
0.0
 10
494.2637785131025
 20
491.6667081557261
 30
0.0
 10
494.0082737837884
 20
491.6597702362375
 30
0.0
 10
493.760803585247
 20
491.6530419981644
 30
0.0
 10
493.5216702985095
 20
491.6465241506033
 30
0.0
 10
493.2911432910374
 20
491.6402142641994
 30
0.0
 10
492.7783243714658
 20
491.6261170884309
 30
0.0
 10
492.021837472266
 20
491.6046652824555
 30
0.0
 10
491.087527461539
 20
491.5757169961679
 30
0.0
 10
490.2886069052109
 20
491.5478356864362
 30
0.0
 10
489.5863372222097
 20
491.520953941
 30
0.0
 10
489.1280663347932
 20
491.500896072869
 30
0.0
 10
488.9043752767689
 20
491.4911054318592
 30
0.0
  0
SPLINE
  5
171
330
1F
100
AcDbEntity
  8
0
  6
Continuous
 62
     8
370
     0
100
AcDbSpline
210
0.0
220
0.0
230
1.0
 70
     8
 71
     3
 72
    27
 73
    23
 74
     0
 42
0.00000001
 43
0.00000001
 40
0.0
 40
0.0
 40
0.0
 40
0.0
 40
0.0264256553805731
 40
0.0531929658013813
 40
0.0803029041494714
 40
0.1077564068496664
 40
0.135554375569567
 40
0.1636976788318386
 40
0.192187153539339
 40
0.2210236064182804
 40
0.2502078153843058
 40
0.3091814050959994
 40
0.3751285881052546
 40
0.43755778414371
 40
0.4999876268469293
 40
0.6248517113172432
 40
0.6901010440885228
 40
0.7498421558917747
 40
0.8067633030576927
 40
0.8749058949365417
 40
0.9265879315846148
 40
1.0
 40
1.0
 40
1.0
 40
1.0
 10
502.946374184856
 20
492.3285342070306
 30
0.0
 10
502.9454849443833
 20
492.328316920747
 30
0.0
 10
502.9436949665239
 20
492.327879538904
 30
0.0
 10
502.9290896143924
 20
492.3243769948306
 30
0.0
 10
502.9053503862934
 20
492.3188002489342
 30
0.0
 10
502.871266857415
 20
492.3109372173579
 30
0.0
 10
502.826729588692
 20
492.30084578226
 30
0.0
 10
502.7713341300118
 20
492.2885102425261
 30
0.0
 10
502.704763868462
 20
492.2739344622215
 30
0.0
 10
502.6266850437233
 20
492.257118959185
 30
0.0
 10
502.5065526523663
 20
492.231647968414
 30
0.0
 10
502.3193844035868
 20
492.1928908252416
 30
0.0
 10
502.0428771434148
 20
492.1393015426447
 30
0.0
 10
501.7111472987827
 20
492.080496456488
 30
0.0
 10
501.2147896111908
 20
492.0043435322595
 30
0.0
 10
500.6201459325334
 20
491.9319353643774
 30
0.0
 10
499.9462892312984
 20
491.8707733474035
 30
0.0
 10
499.4161800735135
 20
491.8323535103384
 30
0.0
 10
498.8421432862679
 20
491.8026138728255
 30
0.0
 10
498.2577959424573
 20
491.7810044264512
 30
0.0
 10
497.58737814009
 20
491.7599979251613
 30
0.0
 10
497.1257944404895
 20
491.7464502521127
 30
0.0
 10
496.8549118587937
 20
491.7384997359776
 30
0.0
  0
SPLINE
  5
172
330
1F
100
AcDbEntity
  8
0
  6
Continuous
 62
     8
370
     0
100
AcDbSpline
210
0.0
220
0.0
230
1.0
 70
     8
 71
     3
 72
    10
 73
     6
 74
     0
 42
0.00000001
 43
0.00000001
 40
0.0
 40
0.0
 40
0.0
 40
0.0
 40
0.5
 40
0.5
 40
1.0
 40
1.0
 40
1.0
 40
1.0
 10
325.9931286035358
 20
393.2438062521735
 30
0.0
 10
327.3419535454959
 20
394.207889809855
 30
0.0
 10
328.6941502762072
 20
395.1673149286804
 30
0.0
 10
331.4098004664883
 20
397.0778794268028
 30
0.0
 10
332.7732554326168
 20
398.0290169941197
 30
0.0
 10
334.1403763489386
 20
398.9816015572654
 30
0.0
  0
SPLINE
  5
173
330
1F
100
AcDbEntity
  8
0
  6
Continuous
 62
     8
370
     0
100
AcDbSpline
210
0.0
220
0.0
230
1.0
 70
     8
 71
     3
 72
     8
 73
     4
 74
     0
 42
0.00000001
 43
0.00000001
 40
2.0
 40
2.0
 40
2.0
 40
2.0
 40
3.95813072814813
 40
3.95813072814813
 40
3.95813072814813
 40
3.95813072814813
 10
488.9043752889689
 20
478.6914422959394
 30
0.0
 10
488.6547005921623
 20
478.8613952836147
 30
0.0
 10
488.4034713065044
 20
479.0290706073836
 30
0.0
 10
488.1504533103764
 20
479.1940050364168
 30
0.0
  0
SPLINE
  5
174
330
1F
100
AcDbEntity
  8
0
  6
Continuous
 62
     8
370
     0
100
AcDbSpline
210
0.0
220
0.0
230
1.0
 70
     8
 71
     3
 72
    11
 73
     7
 74
     0
 42
0.00000001
 43
0.00000001
 40
2.0
 40
2.0
 40
2.0
 40
2.0
 40
2.50576614210079
 40
3.032611095272715
 40
3.58937541548558
 40
4.184763997251456
 40
4.184763997251456
 40
4.184763997251456
 40
4.184763997251456
 10
488.1504533103764
 20
479.1940050364168
 30
0.0
 10
487.3021486893663
 20
479.7469879880386
 30
0.0
 10
485.5273956767516
 20
480.8118327988289
 30
0.0
 10
482.6144548656143
 20
482.1140654090423
 30
0.0
 10
479.3436046725615
 20
482.9552272994833
 30
0.0
 10
477.0125608414703
 20
482.9875517234148
 30
0.0
 10
475.8342956824728
 20
482.8066963009214
 30
0.0
  0
SPLINE
  5
175
330
1F
100
AcDbEntity
  8
0
  6
Continuous
 62
     8
370
     0
100
AcDbSpline
210
0.0
220
0.0
230
1.0
 70
     8
 71
     3
 72
    12
 73
     8
 74
     0
 42
0.00000001
 43
0.00000001
 40
2.000023875300195
 40
2.000023875300195
 40
2.000023875300195
 40
2.000023875300195
 40
4.506643024757301
 40
4.506643024757301
 40
7.01299104810568
 40
7.01299104810568
 40
12.02521645143688
 40
12.02521645143688
 40
12.02521645143688
 40
12.02521645143688
 10
475.8342976712873
 20
482.8066833423184
 30
0.0
 10
470.8737017445039
 20
482.0453583941606
 30
0.0
 10
465.9550841301419
 20
481.0087730093014
 30
0.0
 10
456.2596103231844
 20
478.41350791971
 30
0.0
 10
451.4820108818616
 20
476.8530649585261
 30
0.0
 10
437.44733976153
 20
471.4092842568278
 30
0.0
 10
428.4839875993479
 20
466.7583452414264
 30
0.0
 10
420.1294479472269
 20
461.198716628363
 30
0.0
  0
SPLINE
  5
176
330
1F
100
AcDbEntity
  8
0
  6
Continuous
 62
     8
370
     0
100
AcDbSpline
210
0.0
220
0.0
230
1.0
 70
     8
 71
     3
 72
    16
 73
    12
 74
     0
 42
0.00000001
 43
0.00000001
 40
2.0
 40
2.0
 40
2.0
 40
2.0
 40
2.981221748834685
 40
2.981221748834685
 40
3.9620438096696
 40
3.9620438096696
 40
5.923678048085891
 40
5.923678048085891
 40
9.84690838137193
 40
9.84690838137193
 40
17.69322779990785
 40
17.69322779990785
 40
17.69322779990785
 40
17.69322779990785
 10
420.1294479472269
 20
461.198716628363
 30
0.0
 10
418.5254000205946
 20
460.1312836971701
 30
0.0
 10
416.9235845823637
 20
459.0604998586558
 30
0.0
 10
413.7186306267841
 20
456.9223339979152
 30
0.0
 10
412.1164748150515
 20
455.8534767565928
 30
0.0
 10
407.309991941109
 20
452.6469631447026
 30
0.0
 10
404.1056332365293
 20
450.5093542032734
 30
0.0
 10
394.4923689489381
 20
444.0969444524518
 30
0.0
 10
388.0832118807647
 20
439.8225206009185
 30
0.0
 10
368.8540099699828
 20
427.0023447848192
 30
0.0
 10
356.0319888427396
 20
418.459555356818
 30
0.0
 10
343.2049742825413
 20
409.9242685133839
 30
0.0
  0
SPLINE
  5
177
330
1F
100
AcDbEntity
  8
0
  6
Continuous
 62
     8
370
     0
100
AcDbSpline
210
0.0
220
0.0
230
1.0
 70
     8
 71
     3
 72
     8
 73
     4
 74
     0
 42
0.00000001
 43
0.00000001
 40
2.0
 40
2.0
 40
2.0
 40
2.0
 40
4.44925136236726
 40
4.44925136236726
 40
4.44925136236726
 40
4.44925136236726
 10
343.2049742825413
 20
409.9242685133839
 30
0.0
 10
339.4057430129162
 20
407.3962033491471
 30
0.0
 10
335.6324995455148
 20
404.8290605349206
 30
0.0
 10
331.8858625164722
 20
402.2236848062911
 30
0.0
  0
SPLINE
  5
178
330
1F
100
AcDbEntity
  8
0
  6
Continuous
 62
     8
370
     0
100
AcDbSpline
210
0.0
220
0.0
230
1.0
 70
     8
 71
     3
 72
    16
 73
    12
 74
     0
 42
0.00000001
 43
0.00000001
 40
2.0
 40
2.0
 40
2.0
 40
2.0
 40
3.078824268672255
 40
3.078824268672255
 40
4.15725468509968
 40
4.15725468509968
 40
6.31411205002075
 40
6.31411205002075
 40
10.6278129897439
 40
10.6278129897439
 40
19.2551597688957
 40
19.2551597688957
 40
19.2551597688957
 40
19.2551597688957
 10
331.8858625164722
 20
410.0514347850828
 30
0.0
 10
333.6396660196472
 20
411.2313872094845
 30
0.0
 10
335.3914340741654
 20
412.4143616649496
 30
0.0
 10
338.8956286863307
 20
414.7779508269199
 30
0.0
 10
340.6473971501305
 20
415.9595429303398
 30
0.0
 10
345.9026760417997
 20
419.5043463761081
 30
0.0
 10
349.4061656049772
 20
421.867588650809
 30
0.0
 10
359.9165764752628
 20
428.9573528728592
 30
0.0
 10
366.9234623774935
 20
433.6839273075355
 30
0.0
 10
387.9442724805928
 20
447.8632316281507
 30
0.0
 10
401.9584378959461
 20
457.3156040476857
 30
0.0
 10
415.9739498497345
 20
466.7659796186962
 30
0.0
  0
SPLINE
  5
179
330
1F
100
AcDbEntity
  8
0
  6
Continuous
 62
     8
370
     0
100
AcDbSpline
210
0.0
220
0.0
230
1.0
 70
     8
 71
     3
 72
    18
 73
    14
 74
     0
 42
0.00000001
 43
0.00000001
 40
2.034761606284555
 40
2.034761606284555
 40
2.034761606284555
 40
2.034761606284555
 40
2.863658754180095
 40
2.863658754180095
 40
3.692292586398465
 40
3.692292586398465
 40
5.34953753924821
 40
5.34953753924821
 40
8.66390393300398
 40
8.66390393300398
 40
11.9782818973204
 40
11.9782818973204
 40
15.2926652805246
 40
15.2926652805246
 40
15.2926652805246
 40
15.2926652805246
 10
415.9739498497345
 20
466.7659796186962
 30
0.0
 10
417.320508223845
 20
467.673936631297
 30
0.0
 10
418.6807658163912
 20
468.5616398804024
 30
0.0
 10
421.4311978561823
 20
470.2885428526999
 30
0.0
 10
422.8206200059796
 20
471.1289094074118
 30
0.0
 10
427.029700458911
 20
473.5797413479298
 30
0.0
 10
429.8903605875291
 20
475.1200491973865
 30
0.0
 10
438.6165997873317
 20
479.4488954246444
 30
0.0
 10
444.6279532738229
 20
481.9457840744165
 30
0.0
 10
456.9280386143554
 20
486.116012586385
 30
0.0
 10
463.2185026388537
 20
487.7896970057983
 30
0.0
 10
475.9645853806804
 20
490.2839192560039
 30
0.0
 10
482.4219652679556
 20
491.1046186166207
 30
0.0
 10
488.9043535152273
 20
491.49147008541
 30
0.0
  0
SPLINE
  5
17A
330
1F
100
AcDbEntity
  8
0
  6
Continuous
 62
     8
370
     0
100
AcDbSpline
210
0.0
220
0.0
230
1.0
 70
     8
 71
     3
 72
     8
 73
     4
 74
     0
 42
0.00000001
 43
0.00000001
 40
2.0
 40
2.0
 40
2.0
 40
2.0
 40
3.95813072814813
 40
3.95813072814813
 40
3.95813072814813
 40
3.95813072814813
 10
487.8983215265528
 20
478.8072217609215
 30
0.0
 10
488.23150751587
 20
478.7713646699265
 30
0.0
 10
488.5671578910235
 20
478.7327879689486
 30
0.0
 10
488.9043752889689
 20
478.6914422959394
 30
0.0
  0
LWPOLYLINE
  5
17B
330
1F
100
AcDbEntity
  8
0
  6
Continuous
 62
     8
370
     0
100
AcDbPolyline
 90
        9
 70
   128
 43
0.0
 10
488.6783716755
 20
476.7149360779
 10
488.6785592357
 20
476.7131512225
 10
488.6787468216
 20
476.7113663685
 10
488.678934433
 20
476.7095815173
 10
488.6791220698
 20
476.7077966704
 10
488.6793097319
 20
476.7060118293
 10
488.679497419
 20
476.7042269953
 10
488.6796851311
 20
476.7024421699
 10
488.679872868
 20
476.7006573544
  0
SPLINE
  5
17C
330
1F
100
AcDbEntity
  8
0
  6
Continuous
 62
     8
370
     0
100
AcDbSpline
210
0.0
220
0.0
230
1.0
 70
     8
 71
     3
 72
    12
 73
     8
 74
     0
 42
0.00000001
 43
0.00000001
 40
0.0
 40
0.0
 40
0.0
 40
0.0
 40
0.5
 40
0.5
 40
0.75
 40
0.75
 40
1.0
 40
1.0
 40
1.0
 40
1.0
 10
422.3404573404461
 20
457.8761987171023
 30
0.0
 10
430.4557253941966
 20
463.2737775070154
 30
0.0
 10
439.163629400036
 20
467.7897494508716
 30
0.0
 10
452.7947022699936
 20
473.0739961375061
 30
0.0
 10
457.4350868312146
 20
474.5887532695811
 30
0.0
 10
466.8510832918597
 20
477.1076469169216
 30
0.0
 10
471.6276883709568
 20
478.1133952306726
 30
0.0
 10
476.4413322597746
 20
478.851879445623
 30
0.0
  0
LINE
  5
17D
330
1F
100
AcDbEntity
  8
0
  6
Continuous
 62
     8
370
     0
100
AcDbLine
 10
422.1051633462
 20
457.7196697235
 30
0.0
 11
422.3404573404
 21
457.8761987171
 31
0.0
  0
SPLINE
  5
17E
330
1F
100
AcDbEntity
  8
0
  6
Continuous
 62
     8
370
     0
100
AcDbSpline
210
0.0
220
0.0
230
1.0
 70
     8
 71
     3
 72
    16
 73
    12
 74
     0
 42
0.00000001
 43
0.00000001
 40
0.0
 40
0.0
 40
0.0
 40
0.0
 40
0.5000000000000002
 40
0.5000000000000002
 40
0.7500000000000002
 40
0.8750000000000004
 40
0.9375000000000007
 40
0.9375000000000007
 40
0.9687500000000003
 40
0.9687500000000003
 40
1.0
 40
1.0
 40
1.0
 40
1.0
 10
345.3909863517721
 20
406.6390820685529
 30
0.0
 10
358.1839497011708
 20
415.1420384106797
 30
0.0
 10
370.9719497850885
 20
423.6518461819845
 30
0.0
 10
390.1489100202186
 20
436.4230950886359
 30
0.0
 10
399.7361424478897
 20
442.810335223671
 30
0.0
 10
410.9197461267649
 20
450.2638909197299
 30
0.0
 10
415.7124809028738
 20
453.4585246569738
 30
0.0
 10
418.1088157337772
 20
455.0558727107322
 30
0.0
 10
418.9155307337546
 20
455.5939765773534
 30
0.0
 10
420.5243892733341
 20
456.6668736963911
 30
0.0
 10
421.3247460861206
 20
457.2003964337759
 30
0.0
 10
422.105163346178
 20
457.7196697235239
 30
0.0
  0
SPLINE
  5
17F
330
1F
100
AcDbEntity
  8
0
  6
Continuous
 62
     8
370
     0
100
AcDbSpline
210
0.0
220
0.0
230
1.0
 70
     8
 71
     3
 72
     8
 73
     4
 74
     0
 42
0.00000001
 43
0.00000001
 40
0.0
 40
0.0
 40
0.0
 40
0.0
 40
1.0
 40
1.0
 40
1.0
 40
1.0
 10
334.1403763489386
 20
398.9816015572654
 30
0.0
 10
337.8626212617957
 20
401.575192952074
 30
0.0
 10
341.5900516240749
 20
404.1127571533463
 30
0.0
 10
345.3909863517731
 20
406.6390820685515
 30
0.0
  0
LINE
  5
180
330
1F
100
AcDbEntity
  8
0
  6
Continuous
 62
     8
370
     0
100
AcDbLine
 10
487.9137705869
 20
476.6460536671
 30
0.0
 11
487.916463093
 21
476.6204197538
 31
0.0
  0
LINE
  5
181
330
1F
100
AcDbEntity
  8
0
  6
Continuous
 62
     8
370
     0
100
AcDbLine
 10
487.8983215266
 20
478.8072217609
 30
0.0
 11
488.1504533104
 21
479.1940050364
 31
0.0
  0
SPLINE
  5
182
330
1F
100
AcDbEntity
  8
0
  6
Continuous
 62
     8
370
     0
100
AcDbSpline
210
0.0
220
0.0
230
1.0
 70
     8
 71
     3
 72
    18
 73
    14
 74
     0
 42
0.00000001
 43
0.00000001
 40
0.0
 40
0.0
 40
0.0
 40
0.0
 40
0.1250000000000004
 40
0.1250000000000004
 40
0.2500000000000008
 40
0.2500000000000008
 40
0.3750000000000012
 40
0.3750000000000012
 40
0.5000000000000016
 40
0.5000000000000016
 40
0.7500000000000008
 40
0.7500000000000008
 40
1.0
 40
1.0
 40
1.0
 40
1.0
 10
310.3018978340293
 20
486.7346881965681
 30
0.0
 10
310.2740695890413
 20
486.5919364451601
 30
0.0
 10
310.2601384836037
 20
486.4482536820349
 30
0.0
 10
310.2654658545048
 20
486.1640319171281
 30
0.0
 10
310.2844867652989
 20
486.0292515268341
 30
0.0
 10
310.3537521968306
 20
485.7744826086908
 30
0.0
 10
310.4040597037063
 20
485.6568702288416
 30
0.0
 10
310.5222747378861
 20
485.4538830366019
 30
0.0
 10
310.5913712806329
 20
485.3653728644603
 30
0.0
 10
310.8159097376831
 20
485.1393822426613
 30
0.0
 10
310.9806781576893
 20
485.0452488061892
 30
0.0
 10
311.3174357606873
 20
484.9416805369168
 30
0.0
 10
311.482982908919
 20
484.9349203458272
 30
0.0
 10
311.6438145265371
 20
484.9691061614758
 30
0.0
  0
ARC
  5
183
330
1F
100
AcDbEntity
  8
0
  6
Continuous
 62
     8
370
     0
100
AcDbCircle
 10
312.0852742196
 20
483.0935051955
 30
0.0
 40
1.926853820173669
100
AcDbArc
 50
103.2446248505
 51
182.5748560979
  0
LINE
  5
184
330
1F
100
AcDbEntity
  8
0
  6
Continuous
 62
     8
370
     0
100
AcDbLine
 10
310.301897834
 20
490.0496791133
 30
0.0
 11
310.1768556775
 21
490.6379562077
 31
0.0
  0
LINE
  5
185
330
1F
100
AcDbEntity
  8
0
  6
Continuous
 62
     8
370
     0
100
AcDbLine
 10
310.301897834
 20
490.0496791133
 30
0.0
 11
310.301897834
 21
486.7346881966
 31
0.0
  0
SPLINE
  5
186
330
1F
100
AcDbEntity
  8
0
  6
Continuous
 62
     8
370
     0
100
AcDbSpline
210
0.0
220
0.0
230
1.0
 70
     8
 71
     3
 72
    11
 73
     7
 74
     0
 42
0.00000001
 43
0.00000001
 40
0.0
 40
0.0
 40
0.0
 40
0.0
 40
0.5000000000000007
 40
0.7500000000000003
 40
0.7500000000000003
 40
1.0
 40
1.0
 40
1.0
 40
1.0
 10
472.5583351866598
 20
477.8157264771987
 30
0.0
 10
463.5705780541948
 20
476.1259803119941
 30
0.0
 10
450.4019285417287
 20
472.2188265440688
 30
0.0
 10
438.0256480968616
 20
466.3868929734422
 30
0.0
 10
429.9867531251112
 20
462.086099745477
 30
0.0
 10
426.0739744751753
 20
459.7281768830521
 30
0.0
 10
422.2837315574171
 20
457.1735005776447
 30
0.0
  0
ARC
  5
187
330
1F
100
AcDbEntity
  8
0
  6
Continuous
 62
     8
370
     0
100
AcDbCircle
 10
362.3807791331
 20
501.2733095764
 30
0.0
 40
0.6017806311066272
100
AcDbArc
 50
12.0018442687
 51
102.0018441499
  0
LINE
  5
188
330
1F
100
AcDbEntity
  8
0
  6
Continuous
 62
     8
370
     0
100
AcDbLine
 10
326.4684403478
 20
392.5391276372
 30
0.0
 11
326.4752353685
 21
392.5290536048
 31
0.0
  0
LINE
  5
189
330
1F
100
AcDbEntity
  8
0
  6
Continuous
 62
     8
370
     0
100
AcDbLine
 10
311.7812507186
 20
462.2076217176
 30
0.0
 11
311.7812507186
 21
468.1718884991
 31
0.0
  0
LINE
  5
18A
330
1F
100
AcDbEntity
  8
0
  6
Continuous
 62
     8
370
     0
100
AcDbLine
 10
472.5025336839
 20
477.7994878964
 30
0.0
 11
472.5583351955
 21
477.8157264236
 31
0.0
  0
SPLINE
  5
18B
330
1F
100
AcDbEntity
  8
0
  6
Continuous
 62
     7
370
    15
100
AcDbSpline
210
0.0
220
0.0
230
1.0
 70
     8
 71
     3
 72
    14
 73
    10
 74
     0
 42
0.00000001
 43
0.00000001
 40
0.0
 40
0.0
 40
0.0
 40
0.0
 40
0.1247247997498658
 40
0.2813677918198328
 40
0.4381502766108551
 40
0.5951343437703867
 40
0.7523501767724691
 40
0.9097951313511846
 40
1.0
 40
1.0
 40
1.0
 40
1.0
 10
144.2979682862195
 20
223.9287612576274
 30
0.0
 10
144.4274888671251
 20
223.6005731029737
 30
0.0
 10
144.7196755045678
 20
222.8602105081929
 30
0.0
 10
145.4492303984308
 20
221.8431844191405
 30
0.0
 10
146.4031623526805
 20
220.9048735716439
 30
0.0
 10
147.5284324858549
 20
220.1651556391253
 30
0.0
 10
148.7749569655176
 20
219.6522339747243
 30
0.0
 10
149.9116822261666
 20
219.4096624198149
 30
0.0
 10
150.6173643964318
 20
219.3867757126042
 30
0.0
 10
150.8744046262489
 20
219.3784393754697
 30
0.0
  0
SPLINE
  5
18C
330
1F
100
AcDbEntity
  8
0
  6
Continuous
 62
     7
370
    15
100
AcDbSpline
210
0.0
220
0.0
230
1.0
 70
     8
 71
     3
 72
    14
 73
    10
 74
     0
 42
0.00000001
 43
0.00000001
 40
0.0
 40
0.0
 40
0.0
 40
0.0
 40
0.0945643317836269
 40
0.2487811382718213
 40
0.4031760153051263
 40
0.557519262828334
 40
0.7117328896630164
 40
0.8657542132623441
 40
1.0
 40
1.0
 40
1.0
 40
1.0
 10
156.8924046262489
 20
219.3784393754697
 30
0.0
 10
157.1678800009732
 20
219.387973250444
 30
0.0
 10
157.8926043869772
 20
219.413055099208
 30
0.0
 10
159.0477487708183
 20
219.6694948484798
 30
0.0
 10
160.2941609455154
 20
220.1944900256789
 30
0.0
 10
161.4176161011351
 20
220.9483697051961
 30
0.0
 10
162.3674261066708
 20
221.9010252095376
 30
0.0
 10
163.1055755471371
 20
222.9608649268562
 30
0.0
 10
163.4004650398453
 20
223.7406099366108
 30
0.0
 10
163.5377948653082
 20
224.1037366289583
 30
0.0
  0
LINE
  5
18D
330
1F
100
AcDbEntity
  8
0
  6
Continuous
 62
     7
370
    15
100
AcDbLine
 10
150.8744046262
 20
219.3784393755
 30
0.0
 11
156.8924046262
 21
219.3784393755
 31
0.0
  0
LINE
  5
18E
330
1F
100
AcDbEntity
  8
0
  6
Continuous
 62
     7
370
    15
100
AcDbLine
 10
171.0911842759
 20
276.184277614
 30
0.0
 11
171.2750104862
 21
276.8395207888
 31
0.0
  0
ARC
  5
18F
330
1F
100
AcDbEntity
  8
0
  6
Continuous
 62
     7
370
    15
100
AcDbCircle
 10
156.9776031011
 20
226.3578872396
 30
0.0
 40
6.936135229187021
100
AcDbArc
 50
269.2962023332
 51
359.4379676322
  0
LINE
  5
190
330
1F
100
AcDbEntity
  8
0
  6
Continuous
 62
     7
370
    15
100
AcDbLine
 10
163.9134046262
 20
226.2898495931
 30
0.0
 11
163.9134046262
 21
226.9640137318
 31
0.0
  0
ARC
  5
191
330
1F
100
AcDbEntity
  8
0
  6
Continuous
 62
     7
370
    15
100
AcDbCircle
 10
150.7970528505
 20
226.3659092386
 30
0.0
 40
6.944064784533309
100
AcDbArc
 50
180.6275839806
 51
270.6382460541
  0
LINE
  5
192
330
1F
100
AcDbEntity
  8
0
  6
Continuous
 62
     7
370
    15
100
AcDbLine
 10
143.8534046262
 20
226.2898495931
 30
0.0
 11
143.8534046262
 21
226.9640137318
 31
0.0
  0
LINE
  5
193
330
1F
100
AcDbEntity
  8
0
  6
Continuous
 62
     7
370
    15
100
AcDbLine
 10
143.8534046262
 20
226.9640137318
 30
0.0
 11
143.8534046262
 21
272.7952539705
 31
0.0
  0
LINE
  5
194
330
1F
100
AcDbEntity
  8
0
  6
Continuous
 62
     7
370
    15
100
AcDbLine
 10
163.9134046262
 20
272.7952539705
 30
0.0
 11
163.9134046262
 21
226.9640137318
 31
0.0
  0
SPLINE
  5
195
330
1F
100
AcDbEntity
  8
0
  6
Continuous
 62
     7
370
    15
100
AcDbSpline
210
0.0
220
0.0
230
1.0
 70
     8
 71
     3
 72
    27
 73
    23
 74
     0
 42
0.00000001
 43
0.00000001
 40
0.0
 40
0.0
 40
0.0
 40
0.0
 40
0.0268892878633989
 40
0.0513637365790426
 40
0.0734233129486014
 40
0.0930679872034807
 40
0.1102977330729616
 40
0.1251125279078435
 40
0.1932524740901653
 40
0.2501761677189341
 40
0.3099130603838043
 40
0.3751665125204889
 40
0.5000304975984944
 40
0.5624602906073094
 40
0.6248894369518758
 40
0.6908334357108843
 40
0.7498101105046565
 40
0.8020862670317684
 40
0.8532384367292087
 40
0.9032713511889761
 40
0.9521900680844704
 40
0.9999999999999999
 40
0.9999999999999999
 40
0.9999999999999999
 40
0.9999999999999999
 10
165.4578031721285
 20
86.24223994578416
 30
0.0
 10
165.3879593479081
 20
86.14217152580032
 30
0.0
 10
165.2545441452759
 20
85.9510215039015
 30
0.0
 10
165.0551983753014
 20
85.6839722144921
 30
0.0
 10
164.8705780520949
 20
85.44707983987664
 30
0.0
 10
164.7018423415854
 20
85.23956204786438
 30
0.0
 10
164.5506429361299
 20
85.0602154102895
 30
0.0
 10
164.2522280124736
 20
84.71722101713907
 30
0.0
 10
163.8163160346642
 20
84.2551010641087
 30
0.0
 10
163.2048779270206
 20
83.68097034555501
 30
0.0
 10
162.5722100006742
 20
83.15088077200635
 30
0.0
 10
161.6612491231989
 20
82.47701195223677
 30
0.0
 10
160.6798954193491
 20
81.88236273557385
 30
0.0
 10
159.6630395273078
 20
81.38600448038287
 30
0.0
 10
158.8645279664348
 20
81.05427980219375
 30
0.0
 10
158.0614568225085
 20
80.77777291053202
 30
0.0
 10
157.287243362264
 20
80.56255185554993
 30
0.0
 10
156.5678080780053
 20
80.40379338115315
 30
0.0
 10
155.8810680120689
 20
80.28780611560947
 30
0.0
 10
155.2044060715232
 20
80.20802345697496
 30
0.0
 10
154.5396702116851
 20
80.15958307432673
 30
0.0
 10
154.1005452447258
 20
80.15369025510984
 30
0.0
 10
153.8834995707627
 20
80.15077761972191
 30
0.0
  0
SPLINE
  5
196
330
1F
100
AcDbEntity
  8
0
  6
Continuous
 62
     7
370
    15
100
AcDbSpline
210
0.0
220
0.0
230
1.0
 70
     8
 71
     3
 72
    27
 73
    23
 74
     0
 42
0.00000001
 43
0.00000001
 40
0.0
 40
0.0
 40
0.0
 40
0.0
 40
0.0264256553805731
 40
0.0531929658013813
 40
0.0803029041494714
 40
0.1077564068496664
 40
0.135554375569567
 40
0.1636976788318386
 40
0.192187153539339
 40
0.2210236064182804
 40
0.2502078153843058
 40
0.3091814050959994
 40
0.3751285881052546
 40
0.43755778414371
 40
0.4999876268469293
 40
0.6248517113172432
 40
0.6901010440885228
 40
0.7498421558917747
 40
0.8067633030576927
 40
0.8749058949365417
 40
0.9265879315846148
 40
1.0
 40
1.0
 40
1.0
 40
1.0
 10
153.8833096817335
 20
80.15077761972191
 30
0.0
 10
153.7633513436739
 20
80.15166686019455
 30
0.0
 10
153.5218837364528
 20
80.15345683805401
 30
0.0
 10
153.1576061727745
 20
80.16806219018548
 30
0.0
 10
152.7891900848231
 20
80.19180141828448
 30
0.0
 10
152.4169137357798
 20
80.22588494716283
 30
0.0
 10
152.0410747235563
 20
80.27042221588589
 30
0.0
 10
151.6619899063378
 20
80.32581767456608
 30
0.0
 10
151.2799972726041
 20
80.39238793611588
 30
0.0
 10
150.8954502923462
 20
80.47046676085452
 30
0.0
 10
150.3787049035146
 20
80.59059915221158
 30
0.0
 10
149.7053585998959
 20
80.77776740099108
 30
0.0
 10
148.9022962929774
 20
81.05427466116309
 30
0.0
 10
148.1037694091941
 20
81.38600450579516
 30
0.0
 10
147.0869131442275
 20
81.88236219338705
 30
0.0
 10
146.1055825013878
 20
82.47700587204444
 30
0.0
 10
145.1946033821587
 20
83.15086257327951
 30
0.0
 10
144.5619906170762
 20
83.6809717310643
 30
0.0
 10
143.9503612466346
 20
84.25500851830995
 30
0.0
 10
143.4002718339252
 20
84.83935586212058
 30
0.0
 10
142.834097650797
 20
85.50977366448788
 30
0.0
 10
142.5031968081276
 20
85.9713573640884
 30
0.0
 10
142.3090060803675
 20
86.2422399457841
 30
0.0
  0
SPLINE
  5
197
330
1F
100
AcDbEntity
  8
0
  6
Continuous
 62
     7
370
    15
100
AcDbSpline
210
0.0
220
0.0
230
1.0
 70
     8
 71
     3
 72
    22
 73
    18
 74
     0
 42
0.00000001
 43
0.00000001
 40
0.0
 40
0.0
 40
0.0
 40
0.0
 40
0.039239576048804
 40
0.0794464920671084
 40
0.1206209386258217
 40
0.1627630928505357
 40
0.2058731196190258
 40
0.2499511726277817
 40
0.3651871719408297
 40
0.4999577862311463
 40
0.5562768602331044
 40
0.6176346786138968
 40
0.684031114510237
 40
0.7554660264578871
 40
0.831939259185943
 40
0.9134506441657155
 40
1.0
 40
1.0
 40
1.0
 40
1.0
 10
167.925403559056
 20
94.19277652780902
 30
0.0
 10
167.9246494052988
 20
94.08229914850511
 30
0.0
 10
167.9231225062717
 20
93.85862088481676
 30
0.0
 10
167.9105419840066
 20
93.51916628696873
 30
0.0
 10
167.8897481448919
 20
93.17192186935016
 30
0.0
 10
167.8593974571344
 20
92.81713498416326
 30
0.0
 10
167.8190943112767
 20
92.45508393620268
 30
0.0
 10
167.7411508301358
 20
91.89024071988781
 30
0.0
 10
167.5886067468748
 20
91.07530841044068
 30
0.0
 10
167.3662173765746
 20
90.2404068484707
 30
0.0
 10
167.1439253662613
 20
89.56473399522758
 30
0.0
 10
166.9644867823328
 20
89.07805062910464
 30
0.0
 10
166.7501747921085
 20
88.5592590110511
 30
0.0
 10
166.4967572717787
 20
88.01102610238993
 30
0.0
 10
166.1991022478929
 20
87.4371002202116
 30
0.0
 10
165.8551470549559
 20
86.83966696784488
 30
0.0
 10
165.5928718813279
 20
86.44532271664839
 30
0.0
 10
165.4578031721285
 20
86.24223994578416
 30
0.0
  0
SPLINE
  5
198
330
1F
100
AcDbEntity
  8
0
  6
Continuous
 62
     7
370
    15
100
AcDbSpline
210
0.0
220
0.0
230
1.0
 70
     8
 71
     3
 72
    26
 73
    22
 74
     0
 42
0.00000001
 43
0.00000001
 40
0.0
 40
0.0
 40
0.0
 40
0.0
 40
0.0439062466285201
 40
0.0865529513855669
 40
0.127940108802201
 40
0.1680677136524955
 40
0.206935760961544
 40
0.2445442460148625
 40
0.2808931643694024
 40
0.315982511866517
 40
0.3498122846473961
 40
0.382382479171413
 40
0.4136930922382307
 40
0.4437441210145033
 40
0.4725355630664169
 40
0.5000674163996791
 40
0.6348311431065904
 40
0.7500713350136254
 40
0.8372488050613864
 40
0.920557932021906
 40
1.0
 40
1.0
 40
1.0
 40
1.0
 10
142.3090060803675
 20
86.2422399457841
 30
0.0
 10
142.2397406020696
 20
86.34473995074018
 30
0.0
 10
142.1031966695732
 20
86.54679953513235
 30
0.0
 10
141.9113450282909
 20
86.85203259585077
 30
0.0
 10
141.7321653178464
 20
87.15250217561395
 30
0.0
 10
141.5657787854612
 20
87.44809070012303
 30
0.0
 10
141.4114326221379
 20
87.73812514638192
 30
0.0
 10
141.2685969951681
 20
88.02212678080289
 30
0.0
 10
141.1366875250497
 20
88.29961711483321
 30
0.0
 10
141.0151391271383
 20
88.57016520106794
 30
0.0
 10
140.9033898755292
 20
88.83337329147535
 30
0.0
 10
140.800887594981
 20
89.08887802078945
 30
0.0
 10
140.7070904387587
 20
89.33634821933089
 30
0.0
 10
140.6214688504122
 20
89.57548150606839
 30
0.0
 10
140.543506785487
 20
89.80600851354049
 30
0.0
 10
140.3797018198074
 20
90.31882743311202
 30
0.0
 10
140.178261474014
 20
91.07531433231185
 30
0.0
 10
140.0031471234999
 20
92.00962434303895
 30
0.0
 10
139.9040379995526
 20
92.80854489936698
 30
0.0
 10
139.8508499762063
 20
93.5108145823682
 30
0.0
 10
139.8445035226054
 20
93.96908546978473
 30
0.0
 10
139.84140569344
 20
94.19277652780899
 30
0.0
  0
SPLINE
  5
199
330
1F
100
AcDbEntity
  8
0
  6
Continuous
 62
     7
370
    15
100
AcDbSpline
210
0.0
220
0.0
230
1.0
 70
    24
 71
     3
 72
    18
 73
    14
 74
     0
 42
0.00000001
 43
0.00000001
 40
2.034761606284555
 40
2.034761606284555
 40
2.034761606284555
 40
2.034761606284555
 40
2.863658754180095
 40
2.863658754180095
 40
3.692292586398465
 40
3.692292586398465
 40
5.34953753924821
 40
5.34953753924821
 40
8.66390393300398
 40
8.66390393300398
 40
11.9782818973204
 40
11.9782818973204
 40
15.2926652805246
 40
15.2926652805246
 40
15.2926652805246
 40
15.2926652805246
 10
167.9254035590561
 20
167.1232019548434
 30
0.0
 10
167.9254035590561
 20
165.7766435807329
 30
0.0
 10
167.9254035590561
 20
164.4163859881867
 30
0.0
 10
167.9254035590561
 20
161.6659539483956
 30
0.0
 10
167.9254035590561
 20
160.2765317985983
 30
0.0
 10
167.9254035590561
 20
156.0674513456669
 30
0.0
 10
167.9254035590561
 20
153.2067912170488
 30
0.0
 10
167.9254035590561
 20
144.4805520172463
 30
0.0
 10
167.9254035590561
 20
138.469198530755
 30
0.0
 10
167.9254035590561
 20
126.1691131902224
 30
0.0
 10
167.9254035590561
 20
119.8786491657242
 30
0.0
 10
167.9254035590561
 20
107.1325664238974
 30
0.0
 10
167.9254035590561
 20
100.6751865366223
 30
0.0
 10
167.9254035590561
 20
94.1927982893506
 30
0.0
  0
SPLINE
  5
19A
330
1F
100
AcDbEntity
  8
0
  6
Continuous
 62
     7
370
    15
100
AcDbSpline
210
0.0
220
0.0
230
1.0
 70
    24
 71
     3
 72
    18
 73
    14
 74
     0
 42
0.00000001
 43
0.00000001
 40
2.034761606284555
 40
2.034761606284555
 40
2.034761606284555
 40
2.034761606284555
 40
2.863658754180095
 40
2.863658754180095
 40
3.692292586398465
 40
3.692292586398465
 40
5.34953753924821
 40
5.34953753924821
 40
8.66390393300398
 40
8.66390393300398
 40
11.9782818973204
 40
11.9782818973204
 40
15.2926652805246
 40
15.2926652805246
 40
15.2926652805246
 40
15.2926652805246
 10
139.8414056934401
 20
167.1232019548434
 30
0.0
 10
139.8414056934401
 20
165.7766435807329
 30
0.0
 10
139.8414056934401
 20
164.4163859881867
 30
0.0
 10
139.8414056934401
 20
161.6659539483956
 30
0.0
 10
139.8414056934401
 20
160.2765317985983
 30
0.0
 10
139.8414056934401
 20
156.0674513456669
 30
0.0
 10
139.8414056934401
 20
153.2067912170488
 30
0.0
 10
139.8414056934401
 20
144.4805520172463
 30
0.0
 10
139.8414056934401
 20
138.469198530755
 30
0.0
 10
139.8414056934401
 20
126.1691131902224
 30
0.0
 10
139.8414056934401
 20
119.8786491657242
 30
0.0
 10
139.8414056934401
 20
107.1325664238974
 30
0.0
 10
139.8414056934401
 20
100.6751865366223
 30
0.0
 10
139.8414056934401
 20
94.1927982893506
 30
0.0
  0
SPLINE
  5
19B
330
1F
100
AcDbEntity
  8
0
  6
Continuous
 62
     7
370
    15
100
AcDbSpline
210
0.0
220
0.0
230
1.0
 70
     8
 71
     3
 72
   100
 73
    96
 74
     0
 42
0.00000001
 43
0.00000001
 40
0.0
 40
0.0
 40
0.0
 40
0.0
 40
0.0312500000000001
 40
0.0312500000000001
 40
0.0625000000000002
 40
0.0625000000000002
 40
0.0781250000000002
 40
0.0781250000000002
 40
0.0937500000000002
 40
0.0937500000000002
 40
0.1250000000000002
 40
0.1250000000000002
 40
0.1406250000000002
 40
0.1406250000000002
 40
0.1562500000000002
 40
0.1562500000000002
 40
0.1875000000000002
 40
0.1875000000000002
 40
0.2031250000000002
 40
0.2031250000000002
 40
0.2187500000000002
 40
0.2187500000000002
 40
0.2500000000000002
 40
0.2500000000000002
 40
0.2656250000000002
 40
0.2656250000000002
 40
0.2812500000000001
 40
0.2812500000000001
 40
0.3125000000000001
 40
0.3125000000000001
 40
0.3281250000000001
 40
0.3281250000000001
 40
0.3437500000000001
 40
0.3437500000000001
 40
0.3750000000000001
 40
0.3750000000000001
 40
0.3906250000000001
 40
0.3906250000000001
 40
0.4062500000000002
 40
0.4062500000000002
 40
0.4375000000000002
 40
0.4375000000000002
 40
0.4531250000000003
 40
0.4531250000000003
 40
0.4687500000000003
 40
0.4687500000000003
 40
0.5000000000000003
 40
0.5000000000000003
 40
0.5156250000000004
 40
0.5156250000000004
 40
0.5312500000000006
 40
0.5312500000000006
 40
0.5625000000000006
 40
0.5625000000000006
 40
0.5781250000000007
 40
0.5781250000000007
 40
0.5937500000000007
 40
0.5937500000000007
 40
0.6250000000000007
 40
0.6250000000000007
 40
0.6406250000000007
 40
0.6406250000000007
 40
0.6562500000000007
 40
0.6562500000000007
 40
0.6875000000000007
 40
0.6875000000000007
 40
0.7031250000000007
 40
0.7031250000000007
 40
0.7187500000000008
 40
0.7187500000000008
 40
0.7500000000000007
 40
0.7500000000000007
 40
0.7656250000000008
 40
0.7656250000000008
 40
0.7812500000000008
 40
0.7812500000000008
 40
0.8125000000000008
 40
0.8125000000000008
 40
0.8281250000000007
 40
0.8281250000000007
 40
0.8437500000000007
 40
0.8437500000000007
 40
0.8750000000000006
 40
0.8750000000000006
 40
0.8906250000000006
 40
0.8906250000000006
 40
0.9062500000000004
 40
0.9062500000000004
 40
0.9375000000000003
 40
0.9375000000000003
 40
0.9531250000000002
 40
0.9531250000000002
 40
0.9687500000000001
 40
0.9687500000000001
 40
1.0
 40
1.0
 40
1.0
 40
1.0
 10
142.8102846262489
 20
274.5550545574334
 30
0.0
 10
141.6822611130899
 20
275.1722558974291
 30
0.0
 10
140.6247138190286
 20
275.8725290917928
 30
0.0
 10
138.6419168324411
 20
277.430010406615
 30
0.0
 10
137.7167014964709
 20
278.287254289658
 30
0.0
 10
136.4302036456621
 20
279.6941402015376
 30
0.0
 10
136.0217282875786
 20
280.1799075617562
 30
0.0
 10
135.2514513516333
 20
281.1756656776428
 30
0.0
 10
134.8884481964909
 20
281.6869615700475
 30
0.0
 10
133.8645986304957
 20
283.2605217358497
 30
0.0
 10
133.2684614904641
 20
284.362186755835
 30
0.0
 10
132.5070826505909
 20
286.0962033075651
 30
0.0
 10
132.2765091891424
 20
286.686291016353
 30
0.0
 10
131.8676462381045
 20
287.8732834656367
 30
0.0
 10
131.6882704721432
 20
288.4725736872496
 30
0.0
 10
131.224131295329
 20
290.2876469057034
 30
0.0
 10
131.0128505799781
 20
291.520522444673
 30
0.0
 10
130.8475295507307
 20
293.4053256708552
 30
0.0
 10
130.8180241614074
 20
294.0412434200526
 30
0.0
 10
130.8114178416959
 20
295.3026445629685
 30
0.0
 10
130.8339503992946
 20
295.9306862927553
 30
0.0
 10
130.9777893686376
 20
297.8069544670599
 30
0.0
 10
131.1748284884611
 20
299.0473848520848
 30
0.0
 10
131.6262431412005
 20
300.8917896151455
 30
0.0
 10
131.8038524782998
 20
301.5067386545079
 30
0.0
 10
132.2077741517413
 20
302.7143241836364
 30
0.0
 10
132.4336521273248
 20
303.3066749150032
 30
0.0
 10
133.1815513615552
 20
305.0500229875995
 30
0.0
 10
133.7733761211323
 20
306.1675433862439
 30
0.0
 10
134.8034941383431
 20
307.775088331547
 30
0.0
 10
135.1719468057734
 20
308.3010181309296
 30
0.0
 10
135.9528999370888
 20
309.3216517594703
 30
0.0
 10
136.3623258723485
 20
309.8126324847211
 30
0.0
 10
137.6459749509362
 20
311.2289566744298
 30
0.0
 10
138.5752033226784
 20
312.0980574300671
 30
0.0
 10
140.080185433116
 20
313.2875926365809
 30
0.0
 10
140.6010543541234
 20
313.6653849759034
 30
0.0
 10
141.6789064392385
 20
314.3796696108182
 30
0.0
 10
142.2292365346201
 20
314.7118245568342
 30
0.0
 10
143.9134226847982
 20
315.6354587276452
 30
0.0
 10
145.0802517489168
 20
316.1545931854394
 30
0.0
 10
146.8967211380914
 20
316.7876735600498
 30
0.0
 10
147.5133369254528
 20
316.9743178463908
 30
0.0
 10
148.7693670328865
 20
317.2971127199232
 30
0.0
 10
149.3997418282954
 20
317.4309428098398
 30
0.0
 10
151.2977228434046
 20
317.7522896587737
 30
0.0
 10
152.5721392597596
 20
317.8602004812146
 30
0.0
 10
154.4974075501927
 20
317.8625166779439
 30
0.0
 10
155.1414491932341
 20
317.8365627932742
 30
0.0
 10
156.434252213759
 20
317.7294707409339
 30
0.0
 10
157.0740989819808
 20
317.649053017554
 30
0.0
 10
158.9727137523923
 20
317.3299540024327
 30
0.0
 10
160.2115472105978
 20
317.0138753203886
 30
0.0
 10
162.0294879935317
 20
316.3851493326836
 30
0.0
 10
162.6287157941732
 20
316.1496758390148
 30
0.0
 10
163.8132403356098
 20
315.6253470451439
 30
0.0
 10
164.3905879838325
 20
315.3399816399463
 30
0.0
 10
166.0767734627712
 20
314.4177997922525
 30
0.0
 10
167.1412136292606
 20
313.714818384177
 30
0.0
 10
168.6486980152889
 20
312.5289846302854
 30
0.0
 10
169.1362555789356
 20
312.1117035512065
 30
0.0
 10
170.0806135172595
 20
311.2319111264004
 30
0.0
 10
170.5312995762683
 20
310.7750478606981
 30
0.0
 10
171.8182711439561
 20
309.3580570141353
 30
0.0
 10
172.5911497917962
 20
308.3506537519129
 30
0.0
 10
173.6238798721675
 20
306.7467042544247
 30
0.0
 10
173.9469212319179
 20
306.1965032349482
 30
0.0
 10
174.5494769148032
 20
305.0642502307313
 30
0.0
 10
174.8254213571799
 20
304.4887807195862
 30
0.0
 10
175.5769441077539
 20
302.7411882343814
 30
0.0
 10
175.9780501662258
 20
301.545485893024
 30
0.0
 10
176.4317631224425
 20
299.7069003559671
 30
0.0
 10
176.5582223162589
 20
299.0864946202855
 30
0.0
 10
176.7604022995681
 20
297.8302735286609
 30
0.0
 10
176.835110281394
 20
297.1999893620238
 30
0.0
 10
176.9808545403241
 20
295.3159075878511
 30
0.0
 10
176.9749380451482
 20
294.063252094708
 30
0.0
 10
176.8135984140837
 20
292.1892908470219
 30
0.0
 10
176.734282135473
 20
291.5654761167252
 30
0.0
 10
176.5233745041454
 20
290.3195369028539
 30
0.0
 10
176.3919555875949
 20
289.6998291907612
 30
0.0
 10
175.926538996843
 20
287.875013133649
 30
0.0
 10
175.5203188010724
 20
286.6942086229631
 30
0.0
 10
174.7686373834562
 20
284.9755938907044
 30
0.0
 10
174.4942326138588
 20
284.4115301662716
 30
0.0
 10
173.8965069353807
 20
283.3013764340978
 30
0.0
 10
173.5722906994056
 20
282.7543521812207
 30
0.0
 10
172.5429003752942
 20
281.1696540370017
 30
0.0
 10
171.7766144933374
 20
280.1781312413831
 30
0.0
 10
170.508086655446
 20
278.7867433445775
 30
0.0
 10
170.065293398465
 20
278.3390112374566
 30
0.0
 10
169.1387017331502
 20
277.4764301202787
 30
0.0
 10
168.6529547325484
 20
277.0601295481963
 30
0.0
 10
167.1489004852184
 20
275.8762686532805
 30
0.0
 10
166.0844326159566
 20
275.1721926884374
 30
0.0
 10
164.9565246262489
 20
274.5550545574334
 30
0.0
  0
SPLINE
  5
19C
330
1F
100
AcDbEntity
  8
0
  6
Continuous
 62
     7
370
    15
100
AcDbSpline
210
0.0
220
0.0
230
1.0
 70
     8
 71
     3
 72
    14
 73
    10
 74
     0
 42
0.00000001
 43
0.00000001
 40
0.0
 40
0.0
 40
0.0
 40
0.0
 40
0.25
 40
0.25
 40
0.5
 40
0.5
 40
0.75
 40
0.75
 40
1.0
 40
1.0
 40
1.0
 40
1.0
 10
164.9565246262489
 20
274.5550545574334
 30
0.0
 10
164.7954902893939
 20
274.4669441525236
 30
0.0
 10
164.6512849982452
 20
274.359857522794
 30
0.0
 10
164.3941734799504
 20
274.1104655949605
 30
0.0
 10
164.2812430314625
 20
273.9666052446948
 30
0.0
 10
164.1007843825045
 20
273.6602728299499
 30
0.0
 10
164.0304738031132
 20
273.4935236755942
 30
0.0
 10
163.9371136923116
 20
273.1504481270412
 30
0.0
 10
163.9134046262489
 20
272.9749107631388
 30
0.0
 10
163.9134046262489
 20
272.7952539705486
 30
0.0
  0
SPLINE
  5
19D
330
1F
100
AcDbEntity
  8
0
  6
Continuous
 62
     7
370
    15
100
AcDbSpline
210
0.0
220
0.0
230
1.0
 70
     8
 71
     3
 72
    14
 73
    10
 74
     0
 42
0.00000001
 43
0.00000001
 40
0.0
 40
0.0
 40
0.0
 40
0.0
 40
0.25
 40
0.25
 40
0.5
 40
0.5
 40
0.75
 40
0.75
 40
1.0
 40
1.0
 40
1.0
 40
1.0
 10
143.8534046262489
 20
272.7952539705486
 30
0.0
 10
143.8534046262489
 20
272.9746565962161
 30
0.0
 10
143.8294183567459
 20
273.1516141917426
 30
0.0
 10
143.7363819229941
 20
273.4932051203501
 30
0.0
 10
143.6659701241068
 20
273.6603673202376
 30
0.0
 10
143.4856119029478
 20
273.9665261406183
 30
0.0
 10
143.3735421489076
 20
274.1095072480842
 30
0.0
 10
143.1155265958463
 20
274.3599341569779
 30
0.0
 10
142.971076839968
 20
274.4670766309003
 30
0.0
 10
142.8102846262489
 20
274.5550545574334
 30
0.0
  0
SPLINE
  5
19E
330
1F
100
AcDbEntity
  8
0
  6
Continuous
 62
     7
370
    15
100
AcDbSpline
210
0.0
220
0.0
230
1.0
 70
     8
 71
     3
 72
     9
 73
     5
 74
     0
 42
0.00000001
 43
0.00000001
 40
0.0
 40
0.0
 40
0.0
 40
0.0
 40
0.7885635432589851
 40
0.9999999999999999
 40
0.9999999999999999
 40
0.9999999999999999
 40
0.9999999999999999
 10
167.9091003148905
 20
93.51628593559023
 30
0.0
 10
167.9163105352078
 20
93.68440079015836
 30
0.0
 10
167.9254540219679
 20
93.89759204913202
 30
0.0
 10
167.9243114681272
 20
94.11092694123087
 30
0.0
 10
167.9240698905915
 20
94.15603371491545
 30
0.0
  0
SPLINE
  5
19F
330
1F
100
AcDbEntity
  8
0
  6
Continuous
 62
     7
370
    15
100
AcDbSpline
210
0.0
220
0.0
230
1.0
 70
     8
 71
     3
 72
     9
 73
     5
 74
     0
 42
0.00000001
 43
0.00000001
 40
0.0
 40
0.0
 40
0.0
 40
0.0
 40
0.7774762164377615
 40
1.0
 40
1.0
 40
1.0
 40
1.0
 10
139.857710734278
 20
93.51628602129337
 30
0.0
 10
139.8505301905839
 20
93.68440424345758
 30
0.0
 10
139.8412944820924
 20
93.90064008271507
 30
0.0
 10
139.8424918672397
 20
94.11702161403062
 30
0.0
 10
139.842758313913
 20
94.16517165107196
 30
0.0
  0
SPLINE
  5
1A0
330
1F
100
AcDbEntity
  8
0
  6
Continuous
 62
     7
370
    15
100
AcDbSpline
210
0.0
220
0.0
230
1.0
 70
    24
 71
     3
 72
    16
 73
    12
 74
     0
 42
0.00000001
 43
0.00000001
 40
2.0
 40
2.0
 40
2.0
 40
2.0
 40
3.078824268672255
 40
3.078824268672255
 40
4.15725468509968
 40
4.15725468509968
 40
6.31411205002075
 40
6.31411205002075
 40
10.6278129897439
 40
10.6278129897439
 40
19.2551597688957
 40
19.2551597688957
 40
19.2551597688957
 40
19.2551597688957
 10
139.8414056934401
 20
251.2112892881057
 30
0.0
 10
139.8414056934401
 20
249.4574857849307
 30
0.0
 10
139.8414056934401
 20
247.7057177304125
 30
0.0
 10
139.8414056934401
 20
244.2015231182472
 30
0.0
 10
139.8414056934401
 20
242.4497546544474
 30
0.0
 10
139.8414056934401
 20
237.1944757627781
 30
0.0
 10
139.8414056934401
 20
233.6909861996007
 30
0.0
 10
139.8414056934401
 20
223.1805753293151
 30
0.0
 10
139.8414056934401
 20
216.1736894270844
 30
0.0
 10
139.8414056934401
 20
195.1528793239851
 30
0.0
 10
139.8414056934401
 20
181.1387139086317
 30
0.0
 10
139.8414056934401
 20
167.1232019548434
 30
0.0
  0
SPLINE
  5
1A1
330
1F
100
AcDbEntity
  8
0
  6
Continuous
 62
     7
370
    15
100
AcDbSpline
210
0.0
220
0.0
230
1.0
 70
    24
 71
     3
 72
    16
 73
    12
 74
     0
 42
0.00000001
 43
0.00000001
 40
2.0
 40
2.0
 40
2.0
 40
2.0
 40
3.078824268672255
 40
3.078824268672255
 40
4.15725468509968
 40
4.15725468509968
 40
6.31411205002075
 40
6.31411205002075
 40
10.6278129897439
 40
10.6278129897439
 40
19.2551597688957
 40
19.2551597688957
 40
19.2551597688957
 40
19.2551597688957
 10
167.9254035590561
 20
251.2112892881057
 30
0.0
 10
167.9254035590561
 20
249.4574857849307
 30
0.0
 10
167.9254035590561
 20
247.7057177304125
 30
0.0
 10
167.9254035590561
 20
244.2015231182472
 30
0.0
 10
167.9254035590561
 20
242.4497546544474
 30
0.0
 10
167.9254035590561
 20
237.1944757627781
 30
0.0
 10
167.9254035590561
 20
233.6909861996007
 30
0.0
 10
167.9254035590561
 20
223.1805753293151
 30
0.0
 10
167.9254035590561
 20
216.1736894270844
 30
0.0
 10
167.9254035590561
 20
195.1528793239851
 30
0.0
 10
167.9254035590561
 20
181.1387139086317
 30
0.0
 10
167.9254035590561
 20
167.1232019548434
 30
0.0
  0
SPLINE
  5
1A2
330
1F
100
AcDbEntity
  8
0
  6
Continuous
 62
     7
370
    15
100
AcDbSpline
210
0.0
220
0.0
230
1.0
 70
     8
 71
     3
 72
     8
 73
     4
 74
     0
 42
0.00000001
 43
0.00000001
 40
2.0
 40
2.0
 40
2.0
 40
2.0
 40
3.09965581616584
 40
3.09965581616584
 40
3.09965581616584
 40
3.09965581616584
 10
168.063679709656
 20
256.4761799240455
 30
0.0
 10
167.9715246122931
 20
254.7229786993351
 30
0.0
 10
167.9254035590561
 20
252.9674587093947
 30
0.0
 10
167.9254035590561
 20
251.2112892881057
 30
0.0
  0
SPLINE
  5
1A3
330
1F
100
AcDbEntity
  8
0
  6
Continuous
 62
     7
370
    15
100
AcDbSpline
210
0.0
220
0.0
230
1.0
 70
     8
 71
     3
 72
     8
 73
     4
 74
     0
 42
0.00000001
 43
0.00000001
 40
2.0
 40
2.0
 40
2.0
 40
2.0
 40
3.09965581616584
 40
3.09965581616584
 40
3.09965581616584
 40
3.09965581616584
 10
139.7031295428402
 20
256.4761799240455
 30
0.0
 10
139.7952846402031
 20
254.7229786993351
 30
0.0
 10
139.8414056934401
 20
252.9674587093947
 30
0.0
 10
139.8414056934401
 20
251.2112892881057
 30
0.0
  0
SPLINE
  5
1A4
330
1F
100
AcDbEntity
  8
0
  6
Continuous
 62
     7
370
    15
100
AcDbSpline
210
0.0
220
0.0
230
1.0
 70
     8
 71
     3
 72
    15
 73
    11
 74
     0
 42
0.00000001
 43
0.00000001
 40
0.0
 40
0.0
 40
0.0
 40
0.0
 40
0.0515813316046375
 40
0.2100066321938281
 40
0.3678063737126123
 40
0.525181968795673
 40
0.6826131237775808
 40
0.787955536487426
 40
0.8933772939949164
 40
1.0
 40
1.0
 40
1.0
 40
1.0
 10
172.5456505984185
 20
281.2522835691833
 30
0.0
 10
172.4222292548211
 20
280.8734127418487
 30
0.0
 10
171.919735428016
 20
279.3308898171808
 30
0.0
 10
171.1125948723489
 20
276.3799057257646
 30
0.0
 10
170.154795259955
 20
272.3869456678464
 30
0.0
 10
169.3460240419491
 20
268.210172450428
 30
0.0
 10
168.7880620364177
 20
264.4908538772855
 30
0.0
 10
168.430289544037
 20
261.3709925994416
 30
0.0
 10
168.2017673086659
 20
258.8155957062443
 30
0.0
 10
168.1098822111337
 20
257.2589208361897
 30
0.0
 10
168.0636794592291
 20
256.476175159807
 30
0.0
  0
SPLINE
  5
1A5
330
1F
100
AcDbEntity
  8
0
  6
Continuous
 62
     7
370
    15
100
AcDbSpline
210
0.0
220
0.0
230
1.0
 70
     8
 71
     3
 72
    17
 73
    13
 74
     0
 42
0.00000001
 43
0.00000001
 40
0.0
 40
0.0
 40
0.0
 40
0.0
 40
0.0519094177248136
 40
0.2102285898419414
 40
0.3679226217708551
 40
0.4466876129194627
 40
0.5253973381219823
 40
0.6827230305207771
 40
0.7617011679011789
 40
0.8408859571176571
 40
0.9203146420809329
 40
1.0
 40
1.0
 40
1.0
 40
1.0
 10
135.2185698752461
 20
281.2603397685392
 30
0.0
 10
135.3428658898827
 20
280.8788147361354
 30
0.0
 10
135.8462538496271
 20
279.3336718108798
 30
0.0
 10
136.6540711591497
 20
276.3802062872383
 30
0.0
 10
137.4535749214243
 20
273.0485323826016
 30
0.0
 10
138.0165463723585
 20
270.295262042582
 30
0.0
 10
138.5250476663391
 20
267.516651204622
 30
0.0
 10
138.94358469952
 20
264.7235619094952
 30
0.0
 10
139.2622510705183
 20
262.0365075134957
 30
0.0
 10
139.4537419690004
 20
260.0869323531174
 30
0.0
 10
139.602893141477
 20
258.2210618320879
 30
0.0
 10
139.6696808451503
 20
257.0584291699801
 30
0.0
 10
139.7031285658882
 20
256.4761750952912
 30
0.0
  0
SPLINE
  5
1A6
330
1F
100
AcDbEntity
  8
0
  6
Continuous
 62
     8
370
     0
100
AcDbSpline
210
0.0
220
0.0
230
1.0
 70
     8
 71
     3
 72
    14
 73
    10
 74
     0
 42
0.00000001
 43
0.00000001
 40
0.0
 40
0.0
 40
0.0
 40
0.0
 40
0.25
 40
0.25
 40
0.5
 40
0.5
 40
0.75
 40
0.75
 40
1.0
 40
1.0
 40
1.0
 40
1.0
 10
163.332999936385
 20
272.9202961270448
 30
0.0
 10
163.332999936385
 20
273.1546112600583
 30
0.0
 10
163.364089418892
 20
273.3835095932383
 30
0.0
 10
163.4864897198995
 20
273.8308002243688
 30
0.0
 10
163.5786567016279
 20
274.0480261649925
 30
0.0
 10
163.8145946241142
 20
274.4463108000862
 30
0.0
 10
163.9620624346314
 20
274.6330316594292
 30
0.0
 10
164.2965907645244
 20
274.9559456634378
 30
0.0
 10
164.4837817957024
 20
275.0942745088957
 30
0.0
 10
164.6921332192897
 20
275.2080124899821
 30
0.0
  0
LINE
  5
1A7
330
1F
100
AcDbEntity
  8
0
  6
Continuous
 62
     8
370
     0
100
AcDbLine
 10
163.3329999364
 20
227.0890558883
 30
0.0
 11
163.3329999364
 21
272.920296127
 31
0.0
  0
SPLINE
  5
1A8
330
1F
100
AcDbEntity
  8
0
  6
Continuous
 62
     8
370
     0
100
AcDbSpline
210
0.0
220
0.0
230
1.0
 70
     8
 71
     3
 72
    26
 73
    22
 74
     0
 42
0.00000001
 43
0.00000001
 40
0.0
 40
0.0
 40
0.0
 40
0.0
 40
0.1249999999999992
 40
0.1249999999999992
 40
0.1874999999999987
 40
0.1874999999999987
 40
0.2499999999999982
 40
0.2499999999999982
 40
0.3749999999999984
 40
0.3749999999999984
 40
0.4999999999999984
 40
0.4999999999999984
 40
0.6249999999999984
 40
0.6249999999999984
 40
0.6874999999999984
 40
0.6874999999999984
 40
0.7499999999999986
 40
0.7499999999999986
 40
0.8749999999999992
 40
0.8749999999999992
 40
1.0
 40
1.0
 40
1.0
 40
1.0
 10
156.8992329167178
 20
220.8415088458704
 30
0.0
 10
157.3235688757567
 20
220.8405077480676
 30
0.0
 10
157.7408430974792
 20
220.8798807637262
 30
0.0
 10
158.3565940143052
 20
220.9970551532532
 30
0.0
 10
158.5601383921373
 20
221.0458711982385
 30
0.0
 10
158.9637380301173
 20
221.1634713090813
 30
0.0
 10
159.1643639341742
 20
221.23259511824
 30
0.0
 10
159.7480816338089
 20
221.4657906607145
 30
0.0
 10
160.1173111442434
 20
221.6563764582525
 30
0.0
 10
160.816279865573
 20
222.1073103855597
 30
0.0
 10
161.1473943786627
 20
222.3701165502126
 30
0.0
 10
161.7411715329752
 20
222.9449935193607
 30
0.0
 10
162.0077320965556
 20
223.2589860427764
 30
0.0
 10
162.3609622410278
 20
223.7708870087844
 30
0.0
 10
162.4707127010778
 20
223.9484128502846
 30
0.0
 10
162.6696566459445
 20
224.3094030772214
 30
0.0
 10
162.7595461939924
 20
224.4938161311367
 30
0.0
 10
163.0008968710893
 20
225.0586522525704
 30
0.0
 10
163.1247586413321
 20
225.45281065501
 30
0.0
 10
163.2912278760038
 20
226.2636846198488
 30
0.0
 10
163.332999936385
 20
226.6739378798017
 30
0.0
 10
163.332999936385
 20
227.0890558882946
 30
0.0
  0
LWPOLYLINE
  5
1A9
330
1F
100
AcDbEntity
  8
0
  6
Continuous
 62
     8
370
     0
100
AcDbPolyline
 90
        9
 70
   128
 43
0.0
 10
150.8675763358
 20
220.8415088459
 10
151.6215121741
 20
220.8430651868
 10
152.3754662132
 20
220.8441768679
 10
153.1294323862
 20
220.8448438801
 10
153.8834046262
 20
220.8450662181
 10
154.6373768663
 20
220.8448438801
 10
155.3913430393
 20
220.8441768679
 10
156.1452970784
 20
220.8430651868
 10
156.8992329167
 20
220.8415088459
  0
SPLINE
  5
1AA
330
1F
100
AcDbEntity
  8
0
  6
Continuous
 62
     8
370
     0
100
AcDbSpline
210
0.0
220
0.0
230
1.0
 70
     8
 71
     3
 72
    26
 73
    22
 74
     0
 42
0.00000001
 43
0.00000001
 40
0.0
 40
0.0
 40
0.0
 40
0.0
 40
0.1249999999999971
 40
0.1249999999999971
 40
0.1874999999999956
 40
0.1874999999999956
 40
0.2499999999999941
 40
0.2499999999999941
 40
0.3749999999999954
 40
0.3749999999999954
 40
0.4999999999999968
 40
0.4999999999999968
 40
0.6249999999999981
 40
0.6249999999999981
 40
0.6874999999999984
 40
0.6874999999999984
 40
0.7499999999999987
 40
0.7499999999999987
 40
0.8749999999999993
 40
0.8749999999999993
 40
1.0
 40
1.0
 40
1.0
 40
1.0
 10
144.4338093161127
 20
227.0890558882946
 30
0.0
 10
144.4338093161127
 20
226.6739363339171
 30
0.0
 10
144.4755764522028
 20
226.266106864247
 30
0.0
 10
144.5982846913477
 20
225.6648271006446
 30
0.0
 10
144.6492716356522
 20
225.4661572476867
 30
0.0
 10
144.7718699572259
 20
225.0724029626505
 30
0.0
 10
144.8438234314426
 20
224.876799360331
 30
0.0
 10
145.0862060164378
 20
224.3081176185771
 30
0.0
 10
145.2839268456275
 20
223.9488600252874
 30
0.0
 10
145.7509118896311
 20
223.2695662874196
 30
0.0
 10
146.0226275961607
 20
222.9483211253923
 30
0.0
 10
146.6159426007934
 20
222.3730694925221
 30
0.0
 10
146.9395967758174
 20
222.1152192709191
 30
0.0
 10
147.4664990602728
 20
221.7740253826178
 30
0.0
 10
147.6490118032595
 20
221.668167306293
 30
0.0
 10
148.019943667977
 20
221.4764075343738
 30
0.0
 10
148.2093308546043
 20
221.3898432347101
 30
0.0
 10
148.7890756954467
 20
221.1576468878691
 30
0.0
 10
149.1932563346561
 20
221.0388154154652
 30
0.0
 10
150.0235219754226
 20
220.8798798471409
 30
0.0
 10
150.4432397238404
 20
220.8405077465272
 30
0.0
 10
150.8675763357799
 20
220.8415088458704
 30
0.0
  0
LINE
  5
1AB
330
1F
100
AcDbEntity
  8
0
  6
Continuous
 62
     8
370
     0
100
AcDbLine
 10
144.4338093161
 20
272.920296127
 30
0.0
 11
144.4338093161
 21
227.0890558883
 31
0.0
  0
SPLINE
  5
1AC
330
1F
100
AcDbEntity
  8
0
  6
Continuous
 62
     8
370
     0
100
AcDbSpline
210
0.0
220
0.0
230
1.0
 70
     8
 71
     3
 72
    16
 73
    12
 74
     0
 42
0.00000001
 43
0.00000001
 40
0.0
 40
0.0
 40
0.0
 40
0.0
 40
0.2499999999999996
 40
0.2499999999999996
 40
0.3749999999999987
 40
0.3749999999999987
 40
0.4999999999999978
 40
0.4999999999999978
 40
0.7499999999999989
 40
0.7499999999999989
 40
1.0
 40
1.0
 40
1.0
 40
1.0
 10
143.074676033208
 20
275.2080124899821
 30
0.0
 10
143.2827163934359
 20
275.0944443167994
 30
0.0
 10
143.470221266156
 20
274.9560452701374
 30
0.0
 10
143.7220034178419
 20
274.7128509158637
 30
0.0
 10
143.8013593945586
 20
274.6251326273896
 30
0.0
 10
143.9457266065493
 20
274.4422221914532
 30
0.0
 10
144.0112234628884
 20
274.3466965533053
 30
0.0
 10
144.1880691364682
 20
274.0481709283769
 30
0.0
 10
144.2803845583095
 20
273.8303636194693
 30
0.0
 10
144.4023424378471
 20
273.3850871909917
 30
0.0
 10
144.4338093161127
 20
273.1542723428467
 30
0.0
 10
144.4338093161127
 20
272.9202961270448
 30
0.0
  0
SPLINE
  5
1AD
330
1F
100
AcDbEntity
  8
0
  6
Continuous
 62
     8
370
     0
100
AcDbSpline
210
0.0
220
0.0
230
1.0
 70
     8
 71
     3
 72
   100
 73
    96
 74
     0
 42
0.00000001
 43
0.00000001
 40
0.0
 40
0.0
 40
0.0
 40
0.0
 40
0.0312499999999999
 40
0.0312499999999999
 40
0.0468749999999998
 40
0.0468749999999998
 40
0.0624999999999998
 40
0.0624999999999998
 40
0.0937499999999997
 40
0.0937499999999997
 40
0.1093749999999997
 40
0.1093749999999997
 40
0.1249999999999997
 40
0.1249999999999997
 40
0.1562499999999997
 40
0.1562499999999997
 40
0.1718749999999997
 40
0.1718749999999997
 40
0.1874999999999997
 40
0.1874999999999997
 40
0.2187499999999997
 40
0.2187499999999997
 40
0.2343749999999997
 40
0.2343749999999997
 40
0.2499999999999997
 40
0.2499999999999997
 40
0.2812499999999998
 40
0.2812499999999998
 40
0.2968749999999999
 40
0.2968749999999999
 40
0.3124999999999999
 40
0.3124999999999999
 40
0.3437500000000001
 40
0.3437500000000001
 40
0.3593750000000001
 40
0.3593750000000001
 40
0.3750000000000002
 40
0.3750000000000002
 40
0.4062500000000001
 40
0.4062500000000001
 40
0.4218750000000001
 40
0.4218750000000001
 40
0.4375000000000001
 40
0.4375000000000001
 40
0.4687500000000002
 40
0.4687500000000002
 40
0.4843750000000002
 40
0.4843750000000002
 40
0.5000000000000002
 40
0.5000000000000002
 40
0.5312500000000003
 40
0.5312500000000003
 40
0.5468750000000003
 40
0.5468750000000003
 40
0.5625000000000004
 40
0.5625000000000004
 40
0.5937500000000004
 40
0.5937500000000004
 40
0.6093750000000004
 40
0.6093750000000004
 40
0.6250000000000006
 40
0.6250000000000006
 40
0.6562500000000006
 40
0.6562500000000006
 40
0.6718750000000006
 40
0.6718750000000006
 40
0.6875000000000007
 40
0.6875000000000007
 40
0.7187500000000007
 40
0.7187500000000007
 40
0.7343750000000006
 40
0.7343750000000006
 40
0.7500000000000006
 40
0.7500000000000006
 40
0.7812500000000004
 40
0.7812500000000004
 40
0.7968750000000003
 40
0.7968750000000003
 40
0.8125000000000003
 40
0.8125000000000003
 40
0.8437500000000003
 40
0.8437500000000003
 40
0.8593750000000002
 40
0.8593750000000002
 40
0.8750000000000002
 40
0.8750000000000002
 40
0.9062500000000001
 40
0.9062500000000001
 40
0.921875
 40
0.921875
 40
0.9375
 40
0.9375
 40
0.96875
 40
0.96875
 40
1.0
 40
1.0
 40
1.0
 40
1.0
 10
164.6921332192897
 20
275.2080124899821
 30
0.0
 10
165.7924428183642
 20
275.8086658966835
 30
0.0
 10
166.8309424237657
 20
276.4939066906662
 30
0.0
 10
168.298422057367
 20
277.6461051187419
 30
0.0
 10
168.7723920314057
 20
278.051283995943
 30
0.0
 10
169.6765749129297
 20
278.8908489051643
 30
0.0
 10
170.1086865554081
 20
279.3266451625752
 30
0.0
 10
171.3466896440423
 20
280.6809865359256
 30
0.0
 10
172.0946428369881
 20
281.6461675229489
 30
0.0
 10
173.0995534572444
 20
283.188911267752
 30
0.0
 10
173.4160942470147
 20
283.721485912975
 30
0.0
 10
173.9997504369854
 20
284.8024364475385
 30
0.0
 10
174.2677219739229
 20
285.3516903105307
 30
0.0
 10
175.0018486591799
 20
287.0252753815687
 30
0.0
 10
175.398681743391
 20
288.1752637623617
 30
0.0
 10
175.8534597626584
 20
289.9526861935829
 30
0.0
 10
175.9818992905549
 20
290.5563269566499
 30
0.0
 10
176.1880838763644
 20
291.7701329404313
 30
0.0
 10
176.2656482254684
 20
292.3778828346458
 30
0.0
 10
176.4235065777533
 20
294.2036563735641
 30
0.0
 10
176.4294573262718
 20
295.4241959664797
 30
0.0
 10
176.2872880905221
 20
297.2601202688497
 30
0.0
 10
176.2143677042275
 20
297.8743164540833
 30
0.0
 10
176.0169499830864
 20
299.0985356932333
 30
0.0
 10
175.8934474039878
 20
299.703131128835
 30
0.0
 10
175.4502942586024
 20
301.4948438712322
 30
0.0
 10
175.0584703270542
 20
302.6600383864606
 30
0.0
 10
174.3242902576591
 20
304.3629884711172
 30
0.0
 10
174.0546933666941
 20
304.9237739039904
 30
0.0
 10
173.4660500180704
 20
306.0270035833819
 30
0.0
 10
173.1504764587717
 20
306.5630669358554
 30
0.0
 10
172.1416632678792
 20
308.1257066778252
 30
0.0
 10
171.3867367964962
 20
309.1070335778934
 30
0.0
 10
170.1298043936673
 20
310.487164465879
 30
0.0
 10
169.6896208585134
 20
310.9321469681257
 30
0.0
 10
168.7674930204702
 20
311.7888490152471
 30
0.0
 10
168.2914443898525
 20
312.1951445611251
 30
0.0
 10
166.8196503851304
 20
313.3496728651762
 30
0.0
 10
165.780547080977
 20
314.0339738334278
 30
0.0
 10
164.1347559155583
 20
314.931517888013
 30
0.0
 10
163.5712375724027
 20
315.2092525969692
 30
0.0
 10
162.4153584933634
 20
315.7194450659542
 30
0.0
 10
161.8306584635895
 20
315.9485539801673
 30
0.0
 10
160.0569034001168
 20
316.5602541224753
 30
0.0
 10
158.8483260206939
 20
316.8677245487302
 30
0.0
 10
156.9963211532843
 20
317.1781245504266
 30
0.0
 10
156.3724051354359
 20
317.2563329136999
 30
0.0
 10
155.1111303376968
 20
317.3605463675823
 30
0.0
 10
154.4827978126656
 20
317.3858076784507
 30
0.0
 10
152.6044969420491
 20
317.383584922298
 30
0.0
 10
151.3611800061044
 20
317.278616092358
 30
0.0
 10
149.5095289549677
 20
316.9660157637771
 30
0.0
 10
148.8945439944617
 20
316.8358272175134
 30
0.0
 10
147.6691828217214
 20
316.5218187148891
 30
0.0
 10
147.0675165480701
 20
316.3402252267298
 30
0.0
 10
145.2950690084935
 20
315.7242537940959
 30
0.0
 10
144.1563652041268
 20
315.2190887038835
 30
0.0
 10
142.512578721087
 20
314.3201616477866
 30
0.0
 10
141.9754155629824
 20
313.9968712668064
 30
0.0
 10
140.9232865641852
 20
313.3015987614947
 30
0.0
 10
140.4147176698775
 20
312.933768632647
 30
0.0
 10
138.9452984650135
 20
311.7755867014542
 30
0.0
 10
138.0378903345749
 20
310.9292639285171
 30
0.0
 10
136.7842414362352
 20
309.5498290417552
 30
0.0
 10
136.3843581289813
 20
309.0716008711777
 30
0.0
 10
135.6215641379366
 20
308.0773976977562
 30
0.0
 10
135.2616177982688
 20
307.564993275309
 30
0.0
 10
134.2553209753033
 20
305.9987958386185
 30
0.0
 10
133.6771575444942
 20
304.9099266073086
 30
0.0
 10
132.946526951071
 20
303.21114572224
 30
0.0
 10
132.7258652059723
 20
302.6339171143154
 30
0.0
 10
132.331281047257
 20
301.4571178683933
 30
0.0
 10
132.1577820605094
 20
300.8578181481549
 30
0.0
 10
131.7168711958655
 20
299.0604152496643
 30
0.0
 10
131.5244886430193
 20
297.8516399330582
 30
0.0
 10
131.3841745292611
 20
296.0233311805061
 30
0.0
 10
131.3622374695699
 20
295.4113557190392
 30
0.0
 10
131.368851800061
 20
294.1822500291721
 30
0.0
 10
131.397762825059
 20
293.5626314908426
 30
0.0
 10
131.5595099254114
 20
291.726325440667
 30
0.0
 10
131.7660551491917
 20
290.5253201765491
 30
0.0
 10
132.2195869165413
 20
288.7573561376474
 30
0.0
 10
132.3948401431488
 20
288.1736523599076
 30
0.0
 10
132.7942549780388
 20
287.0175915557541
 30
0.0
 10
133.019484503252
 20
286.4428980899178
 30
0.0
 10
133.7630540915008
 20
284.7543798619254
 30
0.0
 10
134.3451379754018
 20
283.6817527155925
 30
0.0
 10
135.3446639563795
 20
282.1498062239446
 30
0.0
 10
135.6990160657269
 20
281.6520561562963
 30
0.0
 10
136.4508768470345
 20
280.6827191176247
 30
0.0
 10
136.8495724356611
 20
280.2098467919736
 30
0.0
 10
138.1050640729412
 20
278.8404747726163
 30
0.0
 10
139.0078827174866
 20
278.0061304107317
 30
0.0
 10
140.942493474098
 20
276.4902740705605
 30
0.0
 10
141.9742525517021
 20
275.8087280645229
 30
0.0
 10
143.074676033208
 20
275.2080124899821
 30
0.0
  0
SPLINE
  5
1AE
330
1F
100
AcDbEntity
  8
0
  6
Continuous
 62
     8
370
     0
100
AcDbSpline
210
0.0
220
0.0
230
1.0
 70
     8
 71
     3
 72
    26
 73
    22
 74
     0
 42
0.00000001
 43
0.00000001
 40
0.0
 40
0.0
 40
0.0
 40
0.0
 40
0.125000000000002
 40
0.125000000000002
 40
0.2500000000000039
 40
0.2500000000000039
 40
0.3125000000000049
 40
0.3125000000000049
 40
0.3750000000000059
 40
0.3750000000000059
 40
0.5000000000000051
 40
0.5000000000000051
 40
0.6250000000000043
 40
0.6250000000000043
 40
0.7500000000000034
 40
0.7500000000000034
 40
0.8125000000000023
 40
0.8125000000000023
 40
0.8750000000000012
 40
0.8750000000000012
 40
1.0
 40
1.0
 40
1.0
 40
1.0
 10
163.9134046262489
 20
226.9640137317984
 30
0.0
 10
163.9134046262489
 20
226.5105162173582
 30
0.0
 10
163.8679267719729
 20
226.0622737512856
 30
0.0
 10
163.6866665787709
 20
225.1761990174484
 30
0.0
 10
163.5517734075146
 20
224.7453402043418
 30
0.0
 10
163.2888561842996
 20
224.1277651430106
 30
0.0
 10
163.1909252334074
 20
223.9261060545404
 30
0.0
 10
162.9741603550903
 20
223.5313041531446
 30
0.0
 10
162.8545715840336
 20
223.337126410609
 30
0.0
 10
162.4695434483239
 20
222.7770115326622
 30
0.0
 10
162.1789104567514
 20
222.4333159410668
 30
0.0
 10
161.5313116460497
 20
221.8038552379758
 30
0.0
 10
161.170066069075
 20
221.5159570996236
 30
0.0
 10
160.4071945341875
 20
221.0217749944221
 30
0.0
 10
160.0041189215925
 20
220.812831611357
 30
0.0
 10
159.3667388455758
 20
220.5570899434942
 30
0.0
 10
159.1476304582091
 20
220.481260624706
 30
0.0
 10
158.7067982689043
 20
220.3522265444686
 30
0.0
 10
158.4844668374636
 20
220.2986532499735
 30
0.0
 10
157.8118533074521
 20
220.1700255722858
 30
0.0
 10
157.3560071579233
 20
220.1267464315256
 30
0.0
 10
156.8924046262489
 20
220.1277464186423
 30
0.0
  0
SPLINE
  5
1AF
330
1F
100
AcDbEntity
  8
0
  6
Continuous
 62
     8
370
     0
100
AcDbSpline
210
0.0
220
0.0
230
1.0
 70
     8
 71
     3
 72
    26
 73
    22
 74
     0
 42
0.00000001
 43
0.00000001
 40
0.0
 40
0.0
 40
0.0
 40
0.0
 40
0.1250000000000001
 40
0.1250000000000001
 40
0.2500000000000003
 40
0.2500000000000003
 40
0.3125000000000002
 40
0.3125000000000002
 40
0.3750000000000002
 40
0.3750000000000002
 40
0.4999999999999976
 40
0.4999999999999976
 40
0.6249999999999949
 40
0.6249999999999949
 40
0.7499999999999922
 40
0.7499999999999922
 40
0.8124999999999931
 40
0.8124999999999931
 40
0.874999999999994
 40
0.874999999999994
 40
1.0
 40
1.0
 40
1.0
 40
1.0
 10
150.8744046262489
 20
220.1277464186423
 30
0.0
 10
150.4108044837582
 20
220.1267464366791
 30
0.0
 10
149.952276742709
 20
220.1700246758842
 30
0.0
 10
149.0452897251855
 20
220.3445082894325
 30
0.0
 10
148.6038720087706
 20
220.4748906805198
 30
0.0
 10
147.9708201539819
 20
220.7295393035653
 30
0.0
 10
147.7640389384059
 20
220.8244589226232
 30
0.0
 10
147.3590780837827
 20
221.0346926189969
 30
0.0
 10
147.1598376830329
 20
221.1507371800388
 30
0.0
 10
146.584827612591
 20
221.5246158096556
 30
0.0
 10
146.2317281676893
 20
221.8070717344508
 30
0.0
 10
145.5845999091736
 20
222.4369747100026
 30
0.0
 10
145.2883580141743
 20
222.7886034189089
 30
0.0
 10
144.7793871030495
 20
223.5317921788205
 30
0.0
 10
144.5639501119398
 20
223.9247272432509
 30
0.0
 10
144.2999052687484
 20
224.5465164918222
 30
0.0
 10
144.2215376631846
 20
224.7603412024672
 30
0.0
 10
144.0880230335193
 20
225.1907065655487
 30
0.0
 10
144.0324989043076
 20
225.4078309664106
 30
0.0
 10
143.8988766573218
 20
226.0649106819539
 30
0.0
 10
143.8534046262488
 20
226.5105177202143
 30
0.0
 10
143.8534046262489
 20
226.9640137317985
 30
0.0
  0
LWPOLYLINE
  5
1B0
330
1F
100
AcDbEntity
  8
0
  6
Continuous
 62
     8
370
     0
100
AcDbPolyline
 90
        9
 70
   128
 43
0.0
 10
156.8924046262
 20
220.1277464186
 10
156.1401758125
 20
220.1292992358
 10
155.3879288391
 20
220.1304083998
 10
154.6356697593
 20
220.1310739018
 10
153.8834046262
 20
220.1312957364
 10
153.1311394932
 20
220.1310739018
 10
152.3788804134
 20
220.1304083998
 10
151.62663344
 20
220.1292992358
 10
150.8744046262
 20
220.1277464186
  0
LINE
  5
1B1
330
1F
100
AcDbEntity
  8
0
  6
Continuous
 62
     8
370
     0
100
AcDbLine
 10
150.8744046262
 20
219.4222752884
 30
0.0
 11
156.8924046262
 21
219.4222752884
 31
0.0
  0
LINE
  5
1B2
330
1F
100
AcDbEntity
  8
0
  6
Continuous
 62
     8
370
     0
100
AcDbLine
 10
150.8744046262
 20
219.4222752884
 30
0.0
 11
150.8744046262
 21
219.3784393803
 31
0.0
  0
LINE
  5
1B3
330
1F
100
AcDbEntity
  8
0
  6
Continuous
 62
     8
370
     0
100
AcDbLine
 10
156.8924046262
 20
219.4222752884
 30
0.0
 11
156.8924046262
 21
219.3784393805
 31
0.0
  0
SPLINE
  5
1B4
330
1F
100
AcDbEntity
  8
0
  6
Continuous
 62
     8
370
     0
100
AcDbSpline
210
0.0
220
0.0
230
1.0
 70
     8
 71
     3
 72
    20
 73
    16
 74
     0
 42
0.00000001
 43
0.00000001
 40
0.0
 40
0.0
 40
0.0
 40
0.0
 40
0.1249999999999981
 40
0.1249999999999981
 40
0.2499999999999963
 40
0.2499999999999963
 40
0.4999999999999988
 40
0.4999999999999988
 40
0.624999999999998
 40
0.624999999999998
 40
0.6874999999999979
 40
0.6874999999999979
 40
0.7499999999999977
 40
0.7499999999999977
 40
1.0
 40
1.0
 40
1.0
 40
1.0
 10
162.5858126052514
 20
88.37566078080879
 30
0.0
 10
162.3561934892175
 20
88.0199340190629
 30
0.0
 10
162.1068566913895
 20
87.67851018363348
 30
0.0
 10
161.5731023382257
 20
87.02926712737589
 30
0.0
 10
161.2978425644427
 20
86.7768933622516
 30
0.0
 10
160.4079759898941
 20
86.03493097200167
 30
0.0
 10
159.738405379416
 20
85.59806191086645
 30
0.0
 10
158.6479260004101
 20
85.05333067536795
 30
0.0
 10
158.2778055877818
 20
84.88547469018988
 30
0.0
 10
157.6664727027908
 20
84.68185273453167
 30
0.0
 10
157.4550357004665
 20
84.6211212744349
 30
0.0
 10
157.0294018136424
 20
84.50822370326942
 30
0.0
 10
156.8134912900413
 20
84.45695353944747
 30
0.0
 10
155.7208876060878
 20
84.22734611184184
 30
0.0
 10
154.8036140445007
 20
84.12891702995283
 30
0.0
 10
153.8834046261098
 20
84.12883517668931
 30
0.0
  0
SPLINE
  5
1B5
330
1F
100
AcDbEntity
  8
0
  6
Continuous
 62
     8
370
     0
100
AcDbSpline
210
0.0
220
0.0
230
1.0
 70
     8
 71
     3
 72
    12
 73
     8
 74
     0
 42
0.00000001
 43
0.00000001
 40
0.0
 40
0.0
 40
0.0
 40
0.0
 40
0.5000000000000063
 40
0.5000000000000063
 40
0.7500000000000031
 40
0.7500000000000031
 40
1.0
 40
1.0
 40
1.0
 40
1.0
 10
164.3714758700221
 20
94.22065675543227
 30
0.0
 10
164.3511060890744
 20
93.1545161238501
 30
0.0
 10
164.1787120082302
 20
92.10936835245604
 30
0.0
 10
163.7236575092568
 20
90.64355970769651
 30
0.0
 10
163.5392157875846
 20
90.17180530592526
 30
0.0
 10
163.1079236500591
 20
89.25102286780064
 30
0.0
 10
162.8610800145745
 20
88.80208593591145
 30
0.0
 10
162.5858220495615
 20
88.37565424279899
 30
0.0
  0
SPLINE
  5
1B6
330
1F
100
AcDbEntity
  8
0
  6
Continuous
 62
     8
370
     0
100
AcDbSpline
210
0.0
220
0.0
230
1.0
 70
     8
 71
     3
 72
    20
 73
    16
 74
     0
 42
0.00000001
 43
0.00000001
 40
0.0
 40
0.0
 40
0.0
 40
0.0
 40
0.049556758523517
 40
0.0987700999734321
 40
0.1476522204601817
 40
0.1962147247154008
 40
0.2444686010918518
 40
0.2924241973198681
 40
0.4384447964190208
 40
0.57767018661047
 40
0.6827724927518299
 40
0.7886002641547558
 40
0.8623045056515702
 40
0.9327577905820494
 40
1.0
 40
1.0
 40
1.0
 40
1.0
 10
143.3953344803025
 20
94.22065625921121
 30
0.0
 10
143.3980880600464
 20
94.11853194456175
 30
0.0
 10
143.4035761378522
 20
93.91499101355323
 30
0.0
 10
143.4222717128253
 20
93.61106262488579
 30
0.0
 10
143.4484190506248
 20
93.30972260898109
 30
0.0
 10
143.4826002259342
 20
93.0111228086217
 30
0.0
 10
143.5244515234804
 20
92.71539265275476
 30
0.0
 10
143.6075879841648
 20
92.22258647226116
 30
0.0
 10
143.7583507641978
 20
91.55090323575095
 30
0.0
 10
143.9977744942005
 20
90.78082414442281
 30
0.0
 10
144.2601569844374
 20
90.10705337301648
 30
0.0
 10
144.5044056382568
 20
89.57241518269369
 30
0.0
 10
144.7412525552645
 20
89.11392093304084
 30
0.0
 10
144.9555666991707
 20
88.73365088960601
 30
0.0
 10
145.1070295043054
 20
88.493119974229
 30
0.0
 10
145.1809948414436
 20
88.37565912149884
 30
0.0
  0
SPLINE
  5
1B7
330
1F
100
AcDbEntity
  8
0
  6
Continuous
 62
     8
370
     0
100
AcDbSpline
210
0.0
220
0.0
230
1.0
 70
     8
 71
     3
 72
    27
 73
    23
 74
     0
 42
0.00000001
 43
0.00000001
 40
0.0
 40
0.0
 40
0.0
 40
0.0
 40
0.0322828786666563
 40
0.0638630462284079
 40
0.0947451982461548
 40
0.1249333682695368
 40
0.1543960278771734
 40
0.1843065095663848
 40
0.2109090511427688
 40
0.241257575161208
 40
0.3624046526969461
 40
0.4766471491329682
 40
0.5431052970343495
 40
0.5996208350103844
 40
0.6306553659342141
 40
0.6644890023670298
 40
0.6976573430046601
 40
0.730331549835254
 40
0.8007560074177671
 40
0.8690724181928673
 40
0.9353911478019791
 40
1.0
 40
1.0
 40
1.0
 40
1.0
 10
145.1809948414436
 20
88.37565912149884
 30
0.0
 10
145.2409045632221
 20
88.28456983722917
 30
0.0
 10
145.359419933892
 20
88.1043740364676
 30
0.0
 10
145.545015045394
 20
87.84366354630065
 30
0.0
 10
145.73350589448
 20
87.59391304586718
 30
0.0
 10
145.9235298264308
 20
87.35435290127678
 30
0.0
 10
146.1219271158702
 20
87.12589382820028
 30
0.0
 10
146.3254778604312
 20
86.9187367456584
 30
0.0
 10
146.5411361473354
 20
86.72015424805683
 30
0.0
 10
146.9969877022248
 20
86.32889165086823
 30
0.0
 10
147.721096268322
 20
85.79789364464293
 30
0.0
 10
148.6068809721909
 20
85.29715284983867
 30
0.0
 10
149.3302110715676
 20
84.95955625144131
 30
0.0
 10
149.8137859219689
 20
84.77249257301204
 30
0.0
 10
150.2041316373459
 20
84.65229892480265
 30
0.0
 10
150.5220358419517
 20
84.56390295312157
 30
0.0
 10
150.8475742414512
 20
84.48203735899655
 30
0.0
 10
151.2956471998078
 20
84.38194956212945
 30
0.0
 10
151.8646311112271
 20
84.2785351941502
 30
0.0
 10
152.5514567175973
 20
84.19162294661979
 30
0.0
 10
153.2227178509384
 20
84.1386553185878
 30
0.0
 10
153.665101503189
 20
84.13208249232866
 30
0.0
 10
153.8834046262481
 20
84.12883899883072
 30
0.0
  0
SPLINE
  5
1B8
330
1F
100
AcDbEntity
  8
0
  6
Continuous
 62
     8
370
     0
100
AcDbSpline
210
0.0
220
0.0
230
1.0
 70
     8
 71
     3
 72
    18
 73
    14
 74
     0
 42
0.00000001
 43
0.00000001
 40
0.0
 40
0.0
 40
0.0
 40
0.0
 40
0.2499999999999999
 40
0.2499999999999999
 40
0.4999999999999999
 40
0.4999999999999999
 40
0.7499999999999998
 40
0.7499999999999998
 40
0.8749999999999999
 40
0.8749999999999999
 40
0.9375
 40
0.9375
 40
1.0
 40
1.0
 40
1.0
 40
1.0
 10
143.393165213567
 20
94.22064174753673
 30
0.0
 10
143.3949773955152
 20
100.8987199124424
 30
0.0
 10
143.3971716092497
 20
107.5508831974595
 30
0.0
 10
143.4022484038377
 20
120.6834236852313
 30
0.0
 10
143.4051354974696
 20
127.1642581771671
 30
0.0
 10
143.4115013582918
 20
139.837910740941
 30
0.0
 10
143.4149848194
 20
146.0312156232894
 30
0.0
 10
143.4205277699724
 20
155.0218839976924
 30
0.0
 10
143.4224302194696
 20
157.9689030187588
 30
0.0
 10
143.4253312529506
 20
162.3048762397806
 30
0.0
 10
143.4263063387744
 20
163.7361460305304
 30
0.0
 10
143.4282688167463
 20
166.5689508776417
 30
0.0
 10
143.4302872280931
 20
168.0039855312471
 30
0.0
 10
143.4301053616858
 20
169.3536413139695
 30
0.0
  0
SPLINE
  5
1B9
330
1F
100
AcDbEntity
  8
0
  6
Continuous
 62
     8
370
     0
100
AcDbSpline
210
0.0
220
0.0
230
1.0
 70
     8
 71
     3
 72
    15
 73
    11
 74
     0
 42
0.00000001
 43
0.00000001
 40
0.0
 40
0.0
 40
0.0
 40
0.0
 40
0.5000000000000003
 40
0.5000000000000003
 40
0.7500000000000002
 40
0.8750000000000001
 40
0.8750000000000001
 40
0.9375000000000001
 40
0.9375000000000001
 40
1.0
 40
1.0
 40
1.0
 40
1.0
 10
143.4301053616858
 20
169.3536413139695
 30
0.0
 10
143.4282166901267
 20
183.3697343898775
 30
0.0
 10
143.428032124917
 20
197.3844613445723
 30
0.0
 10
143.4283770822085
 20
218.4059280090722
 30
0.0
 10
143.4287048434281
 20
228.9165049513773
 30
0.0
 10
143.4289017411079
 20
239.4271131739219
 30
0.0
 10
143.4289479595699
 20
244.682444698471
 30
0.0
 10
143.4289553229868
 20
246.4342270464848
 30
0.0
 10
143.4289449045846
 20
249.9378021651065
 30
0.0
 10
143.4279804437121
 20
251.688730706896
 30
0.0
 10
143.4302018814031
 20
253.4383574582862
 30
0.0
  0
SPLINE
  5
1BA
330
1F
100
AcDbEntity
  8
0
  6
Continuous
 62
     8
370
     0
100
AcDbSpline
210
0.0
220
0.0
230
1.0
 70
     8
 71
     3
 72
     8
 73
     4
 74
     0
 42
0.00000001
 43
0.00000001
 40
2.0
 40
2.0
 40
2.0
 40
2.0
 40
3.09965581616584
 40
3.09965581616584
 40
3.09965581616584
 40
3.09965581616584
 10
143.4302018814031
 20
253.4383574582862
 30
0.0
 10
143.4325161014882
 20
255.2610605600406
 30
0.0
 10
143.3879327064359
 20
257.0832218739965
 30
0.0
 10
143.2963732376071
 20
258.9031248842604
 30
0.0
  0
SPLINE
  5
1BB
330
1F
100
AcDbEntity
  8
0
  6
Continuous
 62
     8
370
     0
100
AcDbSpline
210
0.0
220
0.0
230
1.0
 70
     8
 71
     3
 72
     8
 73
     4
 74
     0
 42
0.00000001
 43
0.00000001
 40
2.0
 40
2.0
 40
2.0
 40
2.0
 40
3.09965581616584
 40
3.09965581616584
 40
3.09965581616584
 40
3.09965581616584
 10
164.3366073710931
 20
253.4383574582862
 30
0.0
 10
164.334293151008
 20
255.2610605600406
 30
0.0
 10
164.3788765460603
 20
257.0832218739965
 30
0.0
 10
164.4704360148891
 20
258.9031248842604
 30
0.0
  0
LWPOLYLINE
  5
1BC
330
1F
100
AcDbEntity
  8
0
  6
Continuous
 62
     8
370
     0
100
AcDbPolyline
 90
        3
 70
   128
 43
0.0
 10
164.3367046866
 20
169.3536418454
 10
164.3385479506
 20
211.398771148
 10
164.3366081655
 20
253.4383543154
  0
SPLINE
  5
1BD
330
1F
100
AcDbEntity
  8
0
  6
Continuous
 62
     8
370
     0
100
AcDbSpline
210
0.0
220
0.0
230
1.0
 70
     8
 71
     3
 72
    73
 73
    69
 74
     0
 42
0.00000001
 43
0.00000001
 40
0.0
 40
0.0
 40
0.0
 40
0.0
 40
0.0151460093157309
 40
0.0302921264613639
 40
0.04543835693451
 40
0.0605847050758142
 40
0.0757311742652105
 40
0.0908777671181834
 40
0.1060244856820114
 40
0.1211713316320122
 40
0.1363183064677809
 40
0.1514654117094158
 40
0.1666126490937381
 40
0.1817600207705068
 40
0.196907529498621
 40
0.2120551788423128
 40
0.2272029733673353
 40
0.2423509188371322
 40
0.2574990236434554
 40
0.2726472967962119
 40
0.2877957428512233
 40
0.302944365114875
 40
0.3180931659196198
 40
0.3332421468208335
 40
0.3483913087936681
 40
0.3635406524298953
 40
0.378690178134734
 40
0.3938398863236696
 40
0.4089897776192679
 40
0.4241398530479653
 40
0.4392901142368607
 40
0.454440563610491
 40
0.4695912045875897
 40
0.48474204177784
 40
0.4998930822791823
 40
0.5150443391655979
 40
0.5301958169910219
 40
0.5453475175889382
 40
0.5604994416967665
 40
0.5756515891537409
 40
0.5908039590987753
 40
0.6059565501683082
 40
0.6211093606941482
 40
0.6362623889012895
 40
0.6514156331057311
 40
0.6665690919122688
 40
0.6817227644122843
 40
0.696876650381519
 40
0.7120307504778373
 40
0.727185066438974
 40
0.7423396015389001
 40
0.7574943742862241
 40
0.7726493929259429
 40
0.7878046546264679
 40
0.8029601553309641
 40
0.8181158899572513
 40
0.8332718525976821
 40
0.8484280367190227
 40
0.8635844353622949
 40
0.8787410413426253
 40
0.8938978474490675
 40
0.9090548466444256
 40
0.9242120322650567
 40
0.9393693982206767
 40
0.9545269391941517
 40
0.96968465084129
 40
0.9848425603774282
 40
1.0
 40
1.0
 40
1.0
 40
1.0
 10
164.3736440387837
 20
94.22064228344422
 30
0.0
 10
164.3735336039323
 20
94.6251575091558
 30
0.0
 10
164.3733127334431
 20
95.43419084046872
 30
0.0
 10
164.3729728535382
 20
96.64693696204705
 30
0.0
 10
164.372626672311
 20
97.858999267913
 30
0.0
 10
164.3722735572337
 20
99.07024617082615
 30
0.0
 10
164.371913654574
 20
100.2806124044255
 30
0.0
 10
164.3715469019103
 20
101.4900149315497
 30
0.0
 10
164.37117329273
 20
102.6983754767872
 30
0.0
 10
164.3707928055301
 20
103.9056144888219
 30
0.0
 10
164.3704054228139
 20
105.1116527582238
 30
0.0
 10
164.3700111260032
 20
106.31641098398
 30
0.0
 10
164.3696098967905
 20
107.5198098895305
 30
0.0
 10
164.3692017168186
 20
108.7217701920721
 30
0.0
 10
164.368786567609
 20
109.9222126092746
 30
0.0
 10
164.368364431167
 20
111.1210578630851
 30
0.0
 10
164.3679352876325
 20
112.3182266577633
 30
0.0
 10
164.3674991240589
 20
113.5136397963814
 30
0.0
 10
164.3670559016064
 20
114.7072178408428
 30
0.0
 10
164.3666055492062
 20
115.8988830302678
 30
0.0
 10
164.3661480825909
 20
117.0885580652974
 30
0.0
 10
164.3656834962427
 20
118.2761654383124
 30
0.0
 10
164.3652117903406
 20
119.4616276731001
 30
0.0
 10
164.3647329635304
 20
120.6448672844139
 30
0.0
 10
164.3642470148619
 20
121.8258067893539
 30
0.0
 10
164.3637539432697
 20
123.004368704312
 30
0.0
 10
164.3632537477132
 20
124.180475545771
 30
0.0
 10
164.3627464271361
 20
125.354049830127
 30
0.0
 10
164.3622319804882
 20
126.5250140735623
 30
0.0
 10
164.3617104066783
 20
127.6932907926945
 30
0.0
 10
164.3611817047411
 20
128.8588025020673
 30
0.0
 10
164.3606458732166
 20
130.0214717235033
 30
0.0
 10
164.3601029124664
 20
131.1812209511621
 30
0.0
 10
164.3595528160144
 20
132.3379728099275
 30
0.0
 10
164.3589956027617
 20
133.4916496798489
 30
0.0
 10
164.358431076272
 20
134.6421754607874
 30
0.0
 10
164.3578592917324
 20
135.7894764558336
 30
0.0
 10
164.3572802771815
 20
136.9334782830957
 30
0.0
 10
164.3566940679833
 20
138.074106650262
 30
0.0
 10
164.3561006975497
 20
139.2112872310949
 30
0.0
 10
164.3555001998225
 20
140.3449457081897
 30
0.0
 10
164.3548926086069
 20
141.4750077615061
 30
0.0
 10
164.3542779577561
 20
142.6013990714292
 30
0.0
 10
164.3536562811031
 20
143.7240453179436
 30
0.0
 10
164.3530276125487
 20
144.8428721808241
 30
0.0
 10
164.3523919857812
 20
145.9578053396478
 30
0.0
 10
164.3517494353096
 20
147.0687704735045
 30
0.0
 10
164.3510999926141
 20
148.1756932620884
 30
0.0
 10
164.3504437005124
 20
149.2784993815723
 30
0.0
 10
164.3497805595403
 20
150.3771145262155
 30
0.0
 10
164.3491107278523
 20
151.4714646820705
 30
0.0
 10
164.3484337394193
 20
152.5614760341567
 30
0.0
 10
164.3477495290555
 20
153.6470794535439
 30
0.0
 10
164.347058270073
 20
154.7282051544914
 30
0.0
 10
164.3463600721383
 20
155.8047831762832
 30
0.0
 10
164.3456550620589
 20
156.8767435421864
 30
0.0
 10
164.3449433620998
 20
157.9440162802986
 30
0.0
 10
164.3442250957908
 20
159.0065314125196
 30
0.0
 10
164.3435003863864
 20
160.0642189777414
 30
0.0
 10
164.3427693572273
 20
161.1170089500413
 30
0.0
 10
164.3420321318368
 20
162.1648315426479
 30
0.0
 10
164.3412888331824
 20
163.2076160737919
 30
0.0
 10
164.3405395865373
 20
164.2452951993342
 30
0.0
 10
164.3397845087784
 20
165.277789116059
 30
0.0
 10
164.3390237483399
 20
166.3050645167687
 30
0.0
 10
164.3382573355918
 20
167.3269152458588
 30
0.0
 10
164.3374857511355
 20
168.3437678752241
 30
0.0
 10
164.3369645082255
 20
169.0170203130485
 30
0.0
 10
164.3367038908103
 20
169.3536413139695
 30
0.0
  0
SPLINE
  5
1BE
330
1F
100
AcDbEntity
  8
0
  6
Continuous
 62
     8
370
     0
100
AcDbSpline
210
0.0
220
0.0
230
1.0
 70
     8
 71
     3
 72
    17
 73
    13
 74
     0
 42
0.00000001
 43
0.00000001
 40
0.0
 40
0.0
 40
0.0
 40
0.0
 40
0.0260060029697238
 40
0.2036983569987731
 40
0.3708826487094137
 40
0.5295594309523437
 40
0.6835167916783212
 40
0.7448142059853348
 40
0.8062038735437661
 40
0.8679317284331481
 40
0.9307546942872104
 40
1.0
 40
1.0
 40
1.0
 40
1.0
 10
171.4978023437792
 20
279.9006816913594
 30
0.0
 10
171.4154792359465
 20
279.7220139273653
 30
0.0
 10
170.770663428301
 20
278.3225551171589
 30
0.0
 10
169.3652206140513
 20
275.8327537003289
 30
0.0
 10
167.5963417800608
 20
272.3771784630696
 30
0.0
 10
166.1408078672822
 20
268.9296445703619
 30
0.0
 10
165.3243865144528
 20
266.146370557412
 30
0.0
 10
164.9129570326472
 20
264.122337065712
 30
0.0
 10
164.7093336919293
 20
262.7966713628567
 30
0.0
 10
164.5747288778748
 20
261.4985637824677
 30
0.0
 10
164.506626221773
 20
260.1914228639606
 30
0.0
 10
164.4828865541264
 20
259.3462554216151
 30
0.0
 10
164.4704395028838
 20
258.903121902645
 30
0.0
  0
SPLINE
  5
1BF
330
1F
100
AcDbEntity
  8
0
  6
Continuous
 62
     8
370
     0
100
AcDbSpline
210
0.0
220
0.0
230
1.0
 70
     8
 71
     3
 72
    17
 73
    13
 74
     0
 42
0.00000001
 43
0.00000001
 40
0.0
 40
0.0
 40
0.0
 40
0.0
 40
0.0285705645108835
 40
0.2057950491265726
 40
0.3725391375467814
 40
0.530798117064808
 40
0.6843501025421154
 40
0.7454861188333777
 40
0.8067141454751422
 40
0.8682794688931244
 40
0.9309370196610263
 40
1.0
 40
1.0
 40
1.0
 40
1.0
 10
136.2437276158239
 20
279.9550417911939
 30
0.0
 10
136.3343426876814
 20
279.7582202915439
 30
0.0
 10
136.9870470876039
 20
278.3405062602296
 30
0.0
 10
138.4012388968546
 20
275.8326664836993
 30
0.0
 10
140.1705575140388
 20
272.3772023849056
 30
0.0
 10
141.6259820093787
 20
268.9296412627625
 30
0.0
 10
142.4424283121629
 20
266.1463736727423
 30
0.0
 10
142.8538553091227
 20
264.1223396455495
 30
0.0
 10
143.0574791041545
 20
262.796674116321
 30
0.0
 10
143.1920837876665
 20
261.4985665733561
 30
0.0
 10
143.2601864513891
 20
260.1914257476376
 30
0.0
 10
143.2839260967255
 20
259.34625836229
 30
0.0
 10
143.2963731362671
 20
258.9031248733273
 30
0.0
  0
LINE
  5
1C0
330
1F
100
AcDbEntity
  8
0
  6
Continuous
 62
     8
370
     0
100
AcDbLine
 10
168.23761095
 20
259.1189643201
 30
0.0
 11
168.2715115505
 21
259.4658002528
 31
0.0
  0
LINE
  5
1C1
330
1F
100
AcDbEntity
  8
0
  6
Continuous
 62
     8
370
     0
100
AcDbLine
 10
168.6625256341
 20
263.287306961
 30
0.0
 11
168.8942360551
 21
265.0071338016
 31
0.0
  0
SPLINE
  5
1C2
330
1F
100
AcDbEntity
  8
0
  6
Continuous
 62
     8
370
     0
100
AcDbSpline
210
0.0
220
0.0
230
1.0
 70
     8
 71
     3
 72
     9
 73
     5
 74
     0
 42
0.00000001
 43
0.00000001
 40
0.0
 40
0.0
 40
0.0
 40
0.0
 40
0.7189517880585968
 40
1.0
 40
1.0
 40
1.0
 40
1.0
 10
170.9497248882936
 20
275.6037982573844
 30
0.0
 10
171.0290363052443
 20
275.9477945381345
 30
0.0
 10
171.1393516536002
 20
276.4262637296208
 30
0.0
 10
171.2747776480126
 20
276.9001613939265
 30
0.0
 10
171.3128388815927
 20
277.0333494851227
 30
0.0
  0
LINE
  5
1C3
330
1F
100
AcDbEntity
  8
0
  6
Continuous
 62
     8
370
     0
100
AcDbLine
 10
139.2614501621
 20
261.6887253804
 30
0.0
 11
139.0126856917
 21
264.076298907
 31
0.0
  0
LINE
  5
1C4
330
1F
100
AcDbEntity
  8
0
  6
Continuous
 62
     8
370
     0
100
AcDbLine
 10
138.9857715086
 20
264.2551009535
 30
0.0
 11
138.7609611537
 21
265.7243111953
 31
0.0
  0
ENDSEC
  0
SECTION
  2
OBJECTS
  0
DICTIONARY
  5
C
330
0
100
AcDbDictionary
281
     1
  3
ACAD_GROUP
350
D
  3
ACAD_LAYOUT
350
1A
  3
ACAD_MATERIAL
350
3B
  3
ACAD_MLEADERSTYLE
350
1C6
  3
ACAD_MLINESTYLE
350
17
  3
ACAD_PLOTSETTINGS
350
19
  3
ACAD_PLOTSTYLENAME
350
E
  3
ACAD_TABLESTYLE
350
1C5
  3
ACAD_VISUALSTYLE
350
2A
  0
DICTIONARY
  5
D
102
{ACAD_REACTORS
330
C
102
}
330
C
100
AcDbDictionary
281
     1
  0
DICTIONARY
  5
1A
102
{ACAD_REACTORS
330
C
102
}
330
C
100
AcDbDictionary
281
     1
  3
Layout1
350
1E
  3
Layout2
350
26
  3
Model
350
22
  0
DICTIONARY
  5
3B
102
{ACAD_REACTORS
330
C
102
}
330
C
100
AcDbDictionary
281
     1
  3
ByBlock
350
3D
  3
ByLayer
350
3C
  3
Global
350
3E
  0
DICTIONARY
  5
1C6
102
{ACAD_REACTORS
330
C
102
}
330
C
100
AcDbDictionary
281
     1
  0
DICTIONARY
  5
17
102
{ACAD_REACTORS
330
C
102
}
330
C
100
AcDbDictionary
281
     1
  3
Standard
350
18
  0
DICTIONARY
  5
19
102
{ACAD_REACTORS
330
C
102
}
330
C
100
AcDbDictionary
281
     1
  0
ACDBDICTIONARYWDFLT
  5
E
102
{ACAD_REACTORS
330
C
102
}
330
C
100
AcDbDictionary
281
     1
  3
Normal
350
F
100
AcDbDictionaryWithDefault
340
F
  0
DICTIONARY
  5
1C5
102
{ACAD_REACTORS
330
C
102
}
330
C
100
AcDbDictionary
281
     1
  0
DICTIONARY
  5
2A
102
{ACAD_REACTORS
330
C
102
}
330
C
100
AcDbDictionary
281
     1
  3
2dWireframe
350
2F
  3
3D Hidden
350
31
  3
3dWireframe
350
30
  3
Basic
350
32
  3
Brighten
350
36
  3
ColorChange
350
3A
  3
Conceptual
350
34
  3
Dim
350
35
  3
Facepattern
350
39
  3
Flat
350
2B
  3
FlatWithEdges
350
2C
  3
Gouraud
350
2D
  3
GouraudWithEdges
350
2E
  3
Linepattern
350
38
  3
Realistic
350
33
  3
Thicken
350
37
  0
LAYOUT
  5
1E
102
{ACAD_REACTORS
330
1A
102
}
330
1A
100
AcDbPlotSettings
  1

  2
none_device
  4

  6

 40
0.0
 41
0.0
 42
0.0
 43
0.0
 44
0.0
 45
0.0
 46
0.0
 47
0.0
 48
0.0
 49
0.0
140
0.0
141
0.0
142
1.0
143
1.0
 70
   688
 72
     0
 73
     0
 74
     5
  7

 75
    16
 76
     0
 77
     2
 78
   300
147
1.0
148
0.0
149
0.0
100
AcDbLayout
  1
Layout1
 70
     1
 71
     1
 10
0.0
 20
0.0
 11
420.0
 21
297.0
 12
0.0
 22
0.0
 32
0.0
 14
1.0000000000E+20
 24
1.0000000000E+20
 34
1.0000000000E+20
 15
-1.0000000000E+20
 25
-1.0000000000E+20
 35
-1.0000000000E+20
146
0.0
 13
0.0
 23
0.0
 33
0.0
 16
1.0
 26
0.0
 36
0.0
 17
0.0
 27
1.0
 37
0.0
 76
     0
330
1B
  0
LAYOUT
  5
26
102
{ACAD_REACTORS
330
1A
102
}
330
1A
100
AcDbPlotSettings
  1

  2
none_device
  4

  6

 40
0.0
 41
0.0
 42
0.0
 43
0.0
 44
0.0
 45
0.0
 46
0.0
 47
0.0
 48
0.0
 49
0.0
140
0.0
141
0.0
142
1.0
143
1.0
 70
   688
 72
     0
 73
     0
 74
     5
  7

 75
    16
 76
     0
 77
     2
 78
   300
147
1.0
148
0.0
149
0.0
100
AcDbLayout
  1
Layout2
 70
     1
 71
     2
 10
0.0
 20
0.0
 11
0.0
 21
0.0
 12
0.0
 22
0.0
 32
0.0
 14
0.0
 24
0.0
 34
0.0
 15
0.0
 25
0.0
 35
0.0
146
0.0
 13
0.0
 23
0.0
 33
0.0
 16
1.0
 26
0.0
 36
0.0
 17
0.0
 27
1.0
 37
0.0
 76
     0
330
23
  0
LAYOUT
  5
22
102
{ACAD_REACTORS
330
1A
102
}
330
1A
100
AcDbPlotSettings
  1

  2
none_device
  4

  6

 40
0.0
 41
0.0
 42
0.0
 43
0.0
 44
0.0
 45
0.0
 46
0.0
 47
0.0
 48
0.0
 49
0.0
140
0.0
141
0.0
142
1.0
143
1.0
 70
  1712
 72
     0
 73
     0
 74
     0
  7

 75
     0
 76
     0
 77
     2
 78
   300
147
1.0
148
0.0
149
0.0
100
AcDbLayout
  1
Model
 70
     1
 71
     0
 10
0.0
 20
0.0
 11
594.0
 21
841.0
 12
0.0
 22
0.0
 32
0.0
 14
0.0
 24
0.0
 34
0.0
 15
594.0
 25
841.0
 35
0.0
146
0.0
 13
0.0
 23
0.0
 33
0.0
 16
1.0
 26
0.0
 36
0.0
 17
0.0
 27
1.0
 37
0.0
 76
     0
330
1F
331
29
  0
MATERIAL
  5
3D
102
{ACAD_REACTORS
330
3B
102
}
330
3B
100
AcDbMaterial
  1
ByBlock
 72
     1
 94
      127
  0
MATERIAL
  5
3C
102
{ACAD_REACTORS
330
3B
102
}
330
3B
100
AcDbMaterial
  1
ByLayer
 72
     1
 94
      127
  0
MATERIAL
  5
3E
102
{ACAD_REACTORS
330
3B
102
}
330
3B
100
AcDbMaterial
  1
Global
 72
     1
 94
      127
  0
MLINESTYLE
  5
18
102
{ACAD_REACTORS
330
17
102
}
330
17
100
AcDbMlineStyle
  2
Standard
 70
     0
  3

 62
   256
 51
90.0
 52
90.0
 71
     2
 49
0.5
 62
   256
  6
BYLAYER
 49
-0.5
 62
   256
  6
BYLAYER
  0
ACDBPLACEHOLDER
  5
F
102
{ACAD_REACTORS
330
E
102
}
330
E
  0
VISUALSTYLE
  5
2F
102
{ACAD_REACTORS
330
2A
102
}
330
2A
100
AcDbVisualStyle
  2
2dWireframe
 70
     4
177
     2
291
     0
 71
     0
176
     1
 72
     2
176
     1
 73
     0
176
     1
 90
        0
176
     1
 40
-0.6
176
     1
 41
-30.0
176
     1
 62
     5
 63
     7
421
 16777215
176
     1
 74
     1
176
     1
 91
        4
176
     1
 64
     7
176
     1
 65
   257
176
     1
 75
     1
176
     1
175
     1
176
     1
 42
1.0
176
     1
 92
        0
176
     1
 66
   257
176
     1
 43
1.0
176
     1
 76
     1
176
     1
 77
     6
176
     1
 78
     2
176
     1
 67
     7
176
     1
 79
     5
176
     1
170
     0
176
     1
171
     0
176
     1
290
     0
176
     1
 93
        1
176
     1
 44
0.0
176
     1
173
     0
176
     1
  0
VISUALSTYLE
  5
31
102
{ACAD_REACTORS
330
2A
102
}
330
2A
100
AcDbVisualStyle
  2
3D Hidden
 70
     6
177
     2
291
     0
 71
     1
176
     1
 72
     2
176
     1
 73
     2
176
     1
 90
        0
176
     1
 40
-0.6
176
     1
 41
-30.0
176
     1
 62
     5
 63
     7
421
 16777215
176
     1
 74
     2
176
     1
 91
        2
176
     1
 64
     7
176
     1
 65
   257
176
     1
 75
     2
176
     1
175
     1
176
     1
 42
40.0
176
     1
 92
        0
176
     1
 66
   257
176
     1
 43
1.0
176
     1
 76
     1
176
     1
 77
     6
176
     1
 78
     2
176
     1
 67
     7
176
     1
 79
     3
176
     1
170
     0
176
     1
171
     0
176
     1
290
     0
176
     1
 93
        1
176
     1
 44
0.0
176
     1
173
     0
176
     1
  0
VISUALSTYLE
  5
30
102
{ACAD_REACTORS
330
2A
102
}
330
2A
100
AcDbVisualStyle
  2
3dWireframe
 70
     5
177
     2
291
     0
 71
     0
176
     1
 72
     2
176
     1
 73
     0
176
     1
 90
        0
176
     1
 40
-0.6
176
     1
 41
-30.0
176
     1
 62
     5
 63
     7
421
 16777215
176
     1
 74
     1
176
     1
 91
        4
176
     1
 64
     7
176
     1
 65
   257
176
     1
 75
     1
176
     1
175
     1
176
     1
 42
1.0
176
     1
 92
        0
176
     1
 66
   257
176
     1
 43
1.0
176
     1
 76
     1
176
     1
 77
     6
176
     1
 78
     2
176
     1
 67
     7
176
     1
 79
     5
176
     1
170
     0
176
     1
171
     0
176
     1
290
     0
176
     1
 93
        1
176
     1
 44
0.0
176
     1
173
     0
176
     1
  0
VISUALSTYLE
  5
32
102
{ACAD_REACTORS
330
2A
102
}
330
2A
100
AcDbVisualStyle
  2
Basic
 70
     7
177
     2
291
     1
 71
     1
176
     1
 72
     0
176
     1
 73
     1
176
     1
 90
        0
176
     1
 40
-0.6
176
     1
 41
-30.0
176
     1
 62
     5
 63
     7
421
 16777215
176
     1
 74
     0
176
     1
 91
        4
176
     1
 64
     7
176
     1
 65
   257
176
     1
 75
     1
176
     1
175
     1
176
     1
 42
1.0
176
     1
 92
        8
176
     1
 66
     7
176
     1
 43
1.0
176
     1
 76
     1
176
     1
 77
     6
176
     1
 78
     2
176
     1
 67
     7
176
     1
 79
     5
176
     1
170
     0
176
     1
171
     0
176
     1
290
     0
176
     1
 93
        1
176
     1
 44
0.0
176
     1
173
     0
176
     1
  0
VISUALSTYLE
  5
36
102
{ACAD_REACTORS
330
2A
102
}
330
2A
100
AcDbVisualStyle
  2
Brighten
 70
    12
177
     2
291
     1
 71
     2
176
     1
 72
     2
176
     1
 73
     0
176
     1
 90
        0
176
     1
 40
-0.6
176
     1
 41
-30.0
176
     1
 62
     5
 63
     7
421
 16777215
176
     1
 74
     1
176
     1
 91
        4
176
     1
 64
     7
176
     1
 65
   257
176
     1
 75
     1
176
     1
175
     1
176
     1
 42
1.0
176
     1
 92
        8
176
     1
 66
     7
176
     1
 43
1.0
176
     1
 76
     1
176
     1
 77
     6
176
     1
 78
     2
176
     1
 67
     7
176
     1
 79
     5
176
     1
170
     0
176
     1
171
     0
176
     1
290
     0
176
     1
 93
        1
176
     1
 44
50.0
176
     1
173
     0
176
     1
  0
VISUALSTYLE
  5
3A
102
{ACAD_REACTORS
330
2A
102
}
330
2A
100
AcDbVisualStyle
  2
ColorChange
 70
    16
177
     2
291
     1
 71
     2
176
     1
 72
     2
176
     1
 73
     3
176
     1
 90
        0
176
     1
 40
-0.6
176
     1
 41
-30.0
176
     1
 62
     5
 63
     8
421
  8421504
176
     1
 74
     1
176
     1
 91
        4
176
     1
 64
     7
176
     1
 65
   257
176
     1
 75
     1
176
     1
175
     1
176
     1
 42
1.0
176
     1
 92
        8
176
     1
 66
     8
424
  8421504
176
     1
 43
1.0
176
     1
 76
     1
176
     1
 77
     6
176
     1
 78
     2
176
     1
 67
     7
176
     1
 79
     5
176
     1
170
     0
176
     1
171
     0
176
     1
290
     0
176
     1
 93
        1
176
     1
 44
0.0
176
     1
173
     0
176
     1
  0
VISUALSTYLE
  5
34
102
{ACAD_REACTORS
330
2A
102
}
330
2A
100
AcDbVisualStyle
  2
Conceptual
 70
     9
177
     2
291
     0
 71
     3
176
     1
 72
     2
176
     1
 73
     0
176
     1
 90
        0
176
     1
 40
-0.6
176
     1
 41
-30.0
176
     1
 62
     5
 63
     7
421
 16777215
176
     1
 74
     2
176
     1
 91
        2
176
     1
 64
     7
176
     1
 65
   257
176
     1
 75
     1
176
     1
175
     1
176
     1
 42
40.0
176
     1
 92
        8
176
     1
 66
     7
176
     1
 43
1.0
176
     1
 76
     1
176
     1
 77
     6
176
     1
 78
     2
176
     1
 67
     7
176
     1
 79
     3
176
     1
170
     0
176
     1
171
     0
176
     1
290
     0
176
     1
 93
        1
176
     1
 44
0.0
176
     1
173
     0
176
     1
  0
VISUALSTYLE
  5
35
102
{ACAD_REACTORS
330
2A
102
}
330
2A
100
AcDbVisualStyle
  2
Dim
 70
    11
177
     2
291
     1
 71
     2
176
     1
 72
     2
176
     1
 73
     0
176
     1
 90
        0
176
     1
 40
-0.6
176
     1
 41
-30.0
176
     1
 62
     5
 63
     7
421
 16777215
176
     1
 74
     1
176
     1
 91
        4
176
     1
 64
     7
176
     1
 65
   257
176
     1
 75
     1
176
     1
175
     1
176
     1
 42
1.0
176
     1
 92
        8
176
     1
 66
     7
176
     1
 43
1.0
176
     1
 76
     1
176
     1
 77
     6
176
     1
 78
     2
176
     1
 67
     7
176
     1
 79
     5
176
     1
170
     0
176
     1
171
     0
176
     1
290
     0
176
     1
 93
        1
176
     1
 44
-50.0
176
     1
173
     0
176
     1
  0
VISUALSTYLE
  5
39
102
{ACAD_REACTORS
330
2A
102
}
330
2A
100
AcDbVisualStyle
  2
Facepattern
 70
    15
177
     2
291
     1
 71
     2
176
     1
 72
     2
176
     1
 73
     0
176
     1
 90
        0
176
     1
 40
-0.6
176
     1
 41
-30.0
176
     1
 62
     5
 63
     7
421
 16777215
176
     1
 74
     1
176
     1
 91
        4
176
     1
 64
     7
176
     1
 65
   257
176
     1
 75
     1
176
     1
175
     1
176
     1
 42
1.0
176
     1
 92
        8
176
     1
 66
     7
176
     1
 43
1.0
176
     1
 76
     1
176
     1
 77
     6
176
     1
 78
     2
176
     1
 67
     7
176
     1
 79
     5
176
     1
170
     0
176
     1
171
     0
176
     1
290
     0
176
     1
 93
        1
176
     1
 44
0.0
176
     1
173
     0
176
     1
  0
VISUALSTYLE
  5
2B
102
{ACAD_REACTORS
330
2A
102
}
330
2A
100
AcDbVisualStyle
  2
Flat
 70
     0
177
     2
291
     1
 71
     2
176
     1
 72
     1
176
     1
 73
     1
176
     1
 90
        2
176
     1
 40
-0.6
176
     1
 41
30.0
176
     1
 62
     5
 63
     7
421
 16777215
176
     1
 74
     0
176
     1
 91
        4
176
     1
 64
     7
176
     1
 65
   257
176
     1
 75
     1
176
     1
175
     1
176
     1
 42
1.0
176
     1
 92
        8
176
     1
 66
     7
176
     1
 43
1.0
176
     1
 76
     1
176
     1
 77
     6
176
     1
 78
     2
176
     1
 67
     7
176
     1
 79
     5
176
     1
170
     0
176
     1
171
     0
176
     1
290
     0
176
     1
 93
       13
176
     1
 44
0.0
176
     1
173
     0
176
     1
  0
VISUALSTYLE
  5
2C
102
{ACAD_REACTORS
330
2A
102
}
330
2A
100
AcDbVisualStyle
  2
FlatWithEdges
 70
     1
177
     2
291
     1
 71
     2
176
     1
 72
     1
176
     1
 73
     1
176
     1
 90
        2
176
     1
 40
-0.6
176
     1
 41
30.0
176
     1
 62
     5
 63
     7
421
 16777215
176
     1
 74
     1
176
     1
 91
        4
176
     1
 64
     7
176
     1
 65
   257
176
     1
 75
     1
176
     1
175
     1
176
     1
 42
1.0
176
     1
 92
        0
176
     1
 66
   257
176
     1
 43
1.0
176
     1
 76
     1
176
     1
 77
     6
176
     1
 78
     2
176
     1
 67
     7
176
     1
 79
     5
176
     1
170
     0
176
     1
171
     0
176
     1
290
     0
176
     1
 93
       13
176
     1
 44
0.0
176
     1
173
     0
176
     1
  0
VISUALSTYLE
  5
2D
102
{ACAD_REACTORS
330
2A
102
}
330
2A
100
AcDbVisualStyle
  2
Gouraud
 70
     2
177
     2
291
     1
 71
     2
176
     1
 72
     2
176
     1
 73
     1
176
     1
 90
        2
176
     1
 40
-0.6
176
     1
 41
30.0
176
     1
 62
     5
 63
     7
421
 16777215
176
     1
 74
     0
176
     1
 91
        4
176
     1
 64
     7
176
     1
 65
   257
176
     1
 75
     1
176
     1
175
     1
176
     1
 42
1.0
176
     1
 92
        0
176
     1
 66
     7
176
     1
 43
1.0
176
     1
 76
     1
176
     1
 77
     6
176
     1
 78
     2
176
     1
 67
     7
176
     1
 79
     5
176
     1
170
     0
176
     1
171
     0
176
     1
290
     0
176
     1
 93
       13
176
     1
 44
0.0
176
     1
173
     0
176
     1
  0
VISUALSTYLE
  5
2E
102
{ACAD_REACTORS
330
2A
102
}
330
2A
100
AcDbVisualStyle
  2
GouraudWithEdges
 70
     3
177
     2
291
     1
 71
     2
176
     1
 72
     2
176
     1
 73
     1
176
     1
 90
        2
176
     1
 40
-0.6
176
     1
 41
30.0
176
     1
 62
     5
 63
     7
421
 16777215
176
     1
 74
     1
176
     1
 91
        4
176
     1
 64
     7
176
     1
 65
   257
176
     1
 75
     1
176
     1
175
     1
176
     1
 42
1.0
176
     1
 92
        0
176
     1
 66
   257
176
     1
 43
1.0
176
     1
 76
     1
176
     1
 77
     6
176
     1
 78
     2
176
     1
 67
     7
176
     1
 79
     5
176
     1
170
     0
176
     1
171
     0
176
     1
290
     0
176
     1
 93
       13
176
     1
 44
0.0
176
     1
173
     0
176
     1
  0
VISUALSTYLE
  5
38
102
{ACAD_REACTORS
330
2A
102
}
330
2A
100
AcDbVisualStyle
  2
Linepattern
 70
    14
177
     2
291
     1
 71
     2
176
     1
 72
     2
176
     1
 73
     0
176
     1
 90
        0
176
     1
 40
-0.6
176
     1
 41
-30.0
176
     1
 62
     5
 63
     7
421
 16777215
176
     1
 74
     1
176
     1
 91
        4
176
     1
 64
     7
176
     1
 65
   257
176
     1
 75
     7
176
     1
175
     7
176
     1
 42
1.0
176
     1
 92
        8
176
     1
 66
     7
176
     1
 43
1.0
176
     1
 76
     1
176
     1
 77
     6
176
     1
 78
     2
176
     1
 67
     7
176
     1
 79
     5
176
     1
170
     0
176
     1
171
     0
176
     1
290
     0
176
     1
 93
        1
176
     1
 44
0.0
176
     1
173
     0
176
     1
  0
VISUALSTYLE
  5
33
102
{ACAD_REACTORS
330
2A
102
}
330
2A
100
AcDbVisualStyle
  2
Realistic
 70
     8
177
     2
291
     0
 71
     2
176
     1
 72
     2
176
     1
 73
     0
176
     1
 90
        0
176
     1
 40
-0.6
176
     1
 41
-30.0
176
     1
 62
     5
 63
     7
421
 16777215
176
     1
 74
     1
176
     1
 91
        0
176
     1
 64
     7
176
     1
 65
   257
176
     1
 75
     1
176
     1
175
     1
176
     1
 42
1.0
176
     1
 92
        8
176
     1
 66
     8
424
  7895160
176
     1
 43
1.0
176
     1
 76
     1
176
     1
 77
     6
176
     1
 78
     2
176
     1
 67
     7
176
     1
 79
     5
176
     1
170
     0
176
     1
171
     0
176
     1
290
     0
176
     1
 93
       13
176
     1
 44
0.0
176
     1
173
     0
176
     1
  0
VISUALSTYLE
  5
37
102
{ACAD_REACTORS
330
2A
102
}
330
2A
100
AcDbVisualStyle
  2
Thicken
 70
    13
177
     2
291
     1
 71
     2
176
     1
 72
     2
176
     1
 73
     0
176
     1
 90
        0
176
     1
 40
-0.6
176
     1
 41
-30.0
176
     1
 62
     5
 63
     7
421
 16777215
176
     1
 74
     1
176
     1
 91
        4
176
     1
 64
     7
176
     1
 65
   257
176
     1
 75
     1
176
     1
175
     1
176
     1
 42
1.0
176
     1
 92
       12
176
     1
 66
     7
176
     1
 43
1.0
176
     1
 76
     1
176
     1
 77
     6
176
     1
 78
     2
176
     1
 67
     7
176
     1
 79
     5
176
     1
170
     0
176
     1
171
     0
176
     1
290
     0
176
     1
 93
        1
176
     1
 44
0.0
176
     1
173
     0
176
     1
  0
ENDSEC
  0
EOF
