  0
SECTION
  2
HEADER
  9
$ACADVER
  1
AC1015
  9
$ACADMAINTVER
 70
     6
  9
$DWGCODEPAGE
  3
ANSI_1252
  9
$INSBASE
 10
0.0
 20
0.0
 30
0.0
  9
$EXTMIN
 10
0.0
 20
0.0
 30
0.0
  9
$EXTMAX
 10
594.0
 20
841.0
 30
0.0
  9
$LIMMIN
 10
0.0
 20
0.0
  9
$LIMMAX
 10
594.0
 20
841.0
  9
$ORTHOMODE
 70
     0
  9
$REGENMODE
 70
     1
  9
$FILLMODE
 70
     1
  9
$QTEXTMODE
 70
     0
  9
$MIRRTEXT
 70
     1
  9
$LTSCALE
 40
1.0
  9
$ATTMODE
 70
     1
  9
$TEXTSIZE
 40
10.0
  9
$TRACEWID
 40
1.0
  9
$TEXTSTYLE
  7
Standard
  9
$CLAYER
  8
0
  9
$CELTYPE
  6
ByLayer
  9
$CECOLOR
 62
   256
  9
$CELTSCALE
 40
1.0
  9
$DISPSILH
 70
     0
  9
$DIMSCALE
 40
1.0
  9
$DIMASZ
 40
2.5
  9
$DIMEXO
 40
0.0
  9
$DIMDLI
 40
3.75
  9
$DIMRND
 40
0.0
  9
$DIMDLE
 40
0.0
  9
$DIMEXE
 40
1.0
  9
$DIMTP
 40
0.0
  9
$DIMTM
 40
0.0
  9
$DIMTXT
 40
3.5
  9
$DIMCEN
 40
2.5
  9
$DIMTSZ
 40
0.0
  9
$DIMTOL
 70
     0
  9
$DIMLIM
 70
     0
  9
$DIMTIH
 70
     1
  9
$DIMTOH
 70
     1
  9
$DIMSE1
 70
     0
  9
$DIMSE2
 70
     0
  9
$DIMTAD
 70
     1
  9
$DIMZIN
 70
     0
  9
$DIMBLK
  1

  9
$DIMASO
 70
     1
  9
$DIMSHO
 70
     1
  9
$DIMPOST
  1

  9
$DIMAPOST
  1

  9
$DIMALT
 70
     0
  9
$DIMALTD
 70
     3
  9
$DIMALTF
 40
0.0393700787
  9
$DIMLFAC
 40
2.0
  9
$DIMTOFL
 70
     1
  9
$DIMTVP
 40
0.0
  9
$DIMTIX
 70
     0
  9
$DIMSOXD
 70
     0
  9
$DIMSAH
 70
     0
  9
$DIMBLK1
  1

  9
$DIMBLK2
  1

  9
$DIMSTYLE
  2
ISO-25
  9
$DIMCLRD
 70
     0
  9
$DIMCLRE
 70
     0
  9
$DIMCLRT
 70
     0
  9
$DIMTFAC
 40
1.0
  9
$DIMGAP
 40
1.5
  9
$DIMJUST
 70
     0
  9
$DIMSD1
 70
     0
  9
$DIMSD2
 70
     0
  9
$DIMTOLJ
 70
     0
  9
$DIMTZIN
 70
     0
  9
$DIMALTZ
 70
     0
  9
$DIMALTTZ
 70
     0
  9
$DIMUPT
 70
     0
  9
$DIMDEC
 70
     2
  9
$DIMTDEC
 70
     2
  9
$DIMALTU
 70
     2
  9
$DIMALTTD
 70
     3
  9
$DIMTXSTY
  7
Standard
  9
$DIMAUNIT
 70
     0
  9
$DIMADEC
 70
     2
  9
$DIMALTRND
 40
0.0
  9
$DIMAZIN
 70
     0
  9
$DIMDSEP
 70
    44
  9
$DIMATFIT
 70
     3
  9
$DIMFRAC
 70
     0
  9
$DIMLDRBLK
  1

  9
$DIMLUNIT
 70
     2
  9
$DIMLWD
 70
    -2
  9
$DIMLWE
 70
    -2
  9
$DIMTMOVE
 70
     0
  9
$LUNITS
 70
     2
  9
$LUPREC
 70
     2
  9
$SKETCHINC
 40
1.0
  9
$FILLETRAD
 40
10.0
  9
$AUNITS
 70
     0
  9
$AUPREC
 70
     2
  9
$MENU
  1
.
  9
$ELEVATION
 40
0.0
  9
$PELEVATION
 40
0.0
  9
$THICKNESS
 40
0.0
  9
$LIMCHECK
 70
     0
  9
$CHAMFERA
 40
0.0
  9
$CHAMFERB
 40
0.0
  9
$CHAMFERC
 40
0.0
  9
$CHAMFERD
 40
0.0
  9
$SKPOLY
 70
     0
  9
$TDCREATE
 40
2459992.382704792
  9
$TDUCREATE
 40
2459992.341038125
  9
$TDUPDATE
 40
2459992.382706041
  9
$TDUUPDATE
 40
2459992.341039375
  9
$TDINDWG
 40
0.0000000116
  9
$TDUSRTIMER
 40
0.0000000116
  9
$USRTIMER
 70
     1
  9
$ANGBASE
 50
0.0
  9
$ANGDIR
 70
     0
  9
$PDMODE
 70
     0
  9
$PDSIZE
 40
-1.0
  9
$PLINEWID
 40
0.0
  9
$SPLFRAME
 70
     0
  9
$SPLINETYPE
 70
     6
  9
$SPLINESEGS
 70
     8
  9
$HANDSEED
  5
15F
  9
$SURFTAB1
 70
     6
  9
$SURFTAB2
 70
     6
  9
$SURFTYPE
 70
     6
  9
$SURFU
 70
     6
  9
$SURFV
 70
     6
  9
$UCSBASE
  2

  9
$UCSNAME
  2

  9
$UCSORG
 10
0.0
 20
0.0
 30
0.0
  9
$UCSXDIR
 10
1.0
 20
0.0
 30
0.0
  9
$UCSYDIR
 10
0.0
 20
1.0
 30
0.0
  9
$UCSORTHOREF
  2

  9
$UCSORTHOVIEW
 70
     0
  9
$UCSORGTOP
 10
0.0
 20
0.0
 30
0.0
  9
$UCSORGBOTTOM
 10
0.0
 20
0.0
 30
0.0
  9
$UCSORGLEFT
 10
0.0
 20
0.0
 30
0.0
  9
$UCSORGRIGHT
 10
0.0
 20
0.0
 30
0.0
  9
$UCSORGFRONT
 10
0.0
 20
0.0
 30
0.0
  9
$UCSORGBACK
 10
0.0
 20
0.0
 30
0.0
  9
$PUCSBASE
  2

  9
$PUCSNAME
  2

  9
$PUCSORG
 10
0.0
 20
0.0
 30
0.0
  9
$PUCSXDIR
 10
1.0
 20
0.0
 30
0.0
  9
$PUCSYDIR
 10
0.0
 20
1.0
 30
0.0
  9
$PUCSORTHOREF
  2

  9
$PUCSORTHOVIEW
 70
     0
  9
$PUCSORGTOP
 10
0.0
 20
0.0
 30
0.0
  9
$PUCSORGBOTTOM
 10
0.0
 20
0.0
 30
0.0
  9
$PUCSORGLEFT
 10
0.0
 20
0.0
 30
0.0
  9
$PUCSORGRIGHT
 10
0.0
 20
0.0
 30
0.0
  9
$PUCSORGFRONT
 10
0.0
 20
0.0
 30
0.0
  9
$PUCSORGBACK
 10
0.0
 20
0.0
 30
0.0
  9
$USERI1
 70
     0
  9
$USERI2
 70
     0
  9
$USERI3
 70
     0
  9
$USERI4
 70
     0
  9
$USERI5
 70
     0
  9
$USERR1
 40
0.0
  9
$USERR2
 40
0.0
  9
$USERR3
 40
0.0
  9
$USERR4
 40
0.0
  9
$USERR5
 40
0.0
  9
$WORLDVIEW
 70
     1
  9
$SHADEDGE
 70
     3
  9
$SHADEDIF
 70
    70
  9
$TILEMODE
 70
     1
  9
$MAXACTVP
 70
    64
  9
$PINSBASE
 10
0.0
 20
0.0
 30
0.0
  9
$PLIMCHECK
 70
     0
  9
$PEXTMIN
 10
1.0000000000E+20
 20
1.0000000000E+20
 30
1.0000000000E+20
  9
$PEXTMAX
 10
-1.0000000000E+20
 20
-1.0000000000E+20
 30
-1.0000000000E+20
  9
$PLIMMIN
 10
0.0
 20
0.0
  9
$PLIMMAX
 10
420.0
 20
297.0
  9
$UNITMODE
 70
     0
  9
$VISRETAIN
 70
     1
  9
$PLINEGEN
 70
     0
  9
$PSLTSCALE
 70
     1
  9
$TREEDEPTH
 70
  3020
  9
$CMLSTYLE
  2
Standard
  9
$CMLJUST
 70
     0
  9
$CMLSCALE
 40
20.0
  9
$PROXYGRAPHICS
 70
     1
  9
$MEASUREMENT
 70
     1
  9
$CELWEIGHT
370
    -1
  9
$ENDCAPS
280
     0
  9
$JOINSTYLE
280
     0
  9
$LWDISPLAY
290
     1
  9
$INSUNITS
 70
     4
  9
$HYPERLINKBASE
  1

  9
$STYLESHEET
  1

  9
$XEDIT
290
     1
  9
$CEPSNTYPE
380
     0
  9
$PSTYLEMODE
290
     1
  9
$FINGERPRINTGUID
  2
{b4e9fb7d-5e42-41d8-a767-467af2025d2f}
  9
$VERSIONGUID
  2
{FAEB1C32-E019-11D5-929B-00C0DF256EC4}
  9
$EXTNAMES
290
     1
  9
$PSVPSCALE
 40
0.0
  9
$OLESTARTUP
290
     0
  0
ENDSEC
  0
SECTION
  2
CLASSES
  0
CLASS
  1
ACDBDICTIONARYWDFLT
  2
AcDbDictionaryWithDefault
  3
ObjectDBX Classes
 90
        0
280
     0
281
     0
  0
CLASS
  1
VISUALSTYLE
  2
AcDbVisualStyle
  3
ObjectDBX Classes
 90
     4095
280
     0
281
     0
  0
CLASS
  1
MATERIAL
  2
AcDbMaterial
  3
ObjectDBX Classes
 90
     1153
280
     0
281
     0
  0
CLASS
  1
SCALE
  2
AcDbScale
  3
ObjectDBX Classes
 90
     1153
280
     0
281
     0
  0
CLASS
  1
TABLESTYLE
  2
AcDbTableStyle
  3
ObjectDBX Classes
 90
     4095
280
     0
281
     0
  0
CLASS
  1
MLEADERSTYLE
  2
AcDbMLeaderStyle
  3
ACDB_MLEADERSTYLE_CLASS
 90
     4095
280
     0
281
     0
  0
CLASS
  1
SUN
  2
AcDbSun
  3
SCENEOE
 90
     1153
280
     0
281
     0
  0
CLASS
  1
ACDBPLACEHOLDER
  2
AcDbPlaceHolder
  3
ObjectDBX Classes
 90
        0
280
     0
281
     0
  0
CLASS
  1
LAYOUT
  2
AcDbLayout
  3
ObjectDBX Classes
 90
        0
280
     0
281
     0
  0
ENDSEC
  0
SECTION
  2
TABLES
  0
TABLE
  2
VPORT
  5
8
330
0
100
AcDbSymbolTable
 70
     1
  0
VPORT
  5
29
330
8
100
AcDbSymbolTableRecord
100
AcDbViewportTableRecord
  2
*Active
 70
     0
 10
0.0
 20
0.0
 11
1.0
 21
1.0
 12
297.0
 22
420.5
 13
0.0
 23
0.0
 14
10.0
 24
10.0
 15
10.0
 25
10.0
 16
0.0
 26
0.0
 36
1.0
 17
0.0
 27
0.0
 37
0.0
 40
841.0
 41
0.7063020214
 42
50.0
 43
0.0
 44
0.0
 50
0.0
 51
0.0
 71
     0
 72
  2000
 73
     1
 74
     3
 75
     0
 76
     0
 77
     0
 78
     0
281
     0
 65
     1
110
0.0
120
0.0
130
0.0
111
1.0
121
0.0
131
0.0
112
0.0
122
1.0
132
0.0
 79
     0
146
0.0
  0
ENDTAB
  0
TABLE
  2
LTYPE
  5
5
330
0
100
AcDbSymbolTable
 70
     6
  0
LTYPE
  5
14
330
5
100
AcDbSymbolTableRecord
100
AcDbLinetypeTableRecord
  2
ByBlock
 70
     0
  3

 72
    65
 73
     0
 40
0.0
  0
LTYPE
  5
15
330
5
100
AcDbSymbolTableRecord
100
AcDbLinetypeTableRecord
  2
ByLayer
 70
     0
  3

 72
    65
 73
     0
 40
0.0
  0
LTYPE
  5
16
330
5
100
AcDbSymbolTableRecord
100
AcDbLinetypeTableRecord
  2
Continuous
 70
     0
  3
Solid line
 72
    65
 73
     0
 40
0.0
  0
LTYPE
  5
6E
330
5
100
AcDbSymbolTableRecord
100
AcDbLinetypeTableRecord
  2
HIDDEN
 70
     0
  3
Hidden __ __ __ __ __ __ __ __ __ __ __ __ __ __
 72
    65
 73
     2
 40
1.905
 49
1.27
 74
     0
 49
-0.635
 74
     0
  0
LTYPE
  5
6F
330
5
100
AcDbSymbolTableRecord
100
AcDbLinetypeTableRecord
  2
PHANTOM
 70
     0
  3
Phantom ______  __  __  ______  __  __  ______
 72
    65
 73
     6
 40
12.7
 49
6.35
 74
     0
 49
-1.27
 74
     0
 49
1.27
 74
     0
 49
-1.27
 74
     0
 49
1.27
 74
     0
 49
-1.27
 74
     0
  0
LTYPE
  5
70
330
5
100
AcDbSymbolTableRecord
100
AcDbLinetypeTableRecord
  2
CENTER
 70
     0
  3
Center ____ _ ____ _ ____ _ ____ _ ____ _ ____
 72
    65
 73
     4
 40
10.16
 49
6.35
 74
     0
 49
-1.27
 74
     0
 49
1.27
 74
     0
 49
-1.27
 74
     0
  0
LTYPE
  5
71
330
5
100
AcDbSymbolTableRecord
100
AcDbLinetypeTableRecord
  2
CENTERX2
 70
     0
  3
Center (2x) ________  __  ________  __  _____
 72
    65
 73
     4
 40
20.32
 49
12.7
 74
     0
 49
-2.54
 74
     0
 49
2.54
 74
     0
 49
-2.54
 74
     0
  0
LTYPE
  5
72
330
5
100
AcDbSymbolTableRecord
100
AcDbLinetypeTableRecord
  2
DOT2
 70
     0
  3
Dot (.5x) ........................................
 72
    65
 73
     2
 40
0.635
 49
0.0
 74
     0
 49
-0.635
 74
     0
  0
ENDTAB
  0
TABLE
  2
LAYER
  5
2
330
0
100
AcDbSymbolTable
 70
     1
  0
LAYER
  5
10
330
2
100
AcDbSymbolTableRecord
100
AcDbLayerTableRecord
  2
0
 70
     0
 62
     7
  6
Continuous
370
    -3
390
F
  0
ENDTAB
  0
TABLE
  2
STYLE
  5
3
330
0
100
AcDbSymbolTable
 70
     3
  0
STYLE
  5
11
330
3
100
AcDbSymbolTableRecord
100
AcDbTextStyleTableRecord
  2
Standard
 70
     0
 40
0.0
 41
1.0
 50
0.0
 71
     0
 42
10.0
  3
txt
  4

  0
STYLE
  5
76
330
3
100
AcDbSymbolTableRecord
100
AcDbTextStyleTableRecord
  2
SLDTEXTSTYLE0
 70
     0
 40
0.0
 41
0.96
 50
0.0
 71
     0
 42
10.0
  3
ISOCP3
  4

  0
STYLE
  5
8D
330
3
100
AcDbSymbolTableRecord
100
AcDbTextStyleTableRecord
  2
SLDTEXTSTYLE1
 70
     0
 40
0.0
 41
0.605
 50
0.0
 71
     0
 42
10.0
  3
TXT
  4

  0
ENDTAB
  0
TABLE
  2
VIEW
  5
6
330
0
100
AcDbSymbolTable
 70
     0
  0
ENDTAB
  0
TABLE
  2
UCS
  5
7
330
0
100
AcDbSymbolTable
 70
     0
  0
ENDTAB
  0
TABLE
  2
APPID
  5
9
330
0
100
AcDbSymbolTable
 70
     1
  0
APPID
  5
12
330
9
100
AcDbSymbolTableRecord
100
AcDbRegAppTableRecord
  2
ACAD
 70
     0
  0
ENDTAB
  0
TABLE
  2
DIMSTYLE
  5
A
330
0
100
AcDbSymbolTable
 70
     2
100
AcDbDimStyleTable
  0
DIMSTYLE
105
27
330
A
100
AcDbSymbolTableRecord
100
AcDbDimStyleTableRecord
  2
ISO-25
 70
     0
 41
2.5
 42
0.625
 43
3.75
 44
1.25
 73
     0
 74
     0
 77
     1
 78
     8
140
2.5
141
2.5
143
0.0393700787
147
0.625
171
     3
172
     1
178
     0
271
     2
272
     2
274
     3
278
    44
283
     0
284
     8
340
11
  0
DIMSTYLE
105
77
102
{ACAD_REACTORS
330
75
330
82
102
}
330
A
100
AcDbSymbolTableRecord
100
AcDbDimStyleTableRecord
  2
SLDDIMSTYLE0
 70
     0
 41
2.5
 44
0.0
 45
0.000000001
 73
     0
 74
     0
 77
     1
 78
    12
 79
     3
140
6.0
144
2.0
147
1.5
173
     1
178
     0
271
     2
272
     2
276
     2
284
    12
340
76
  0
ENDTAB
  0
TABLE
  2
BLOCK_RECORD
  5
1
330
0
100
AcDbSymbolTable
 70
     3
  0
BLOCK_RECORD
  5
1F
330
1
100
AcDbSymbolTableRecord
100
AcDbBlockTableRecord
  2
*Model_Space
340
22
  0
BLOCK_RECORD
  5
1B
330
1
100
AcDbSymbolTableRecord
100
AcDbBlockTableRecord
  2
*Paper_Space
340
1E
  0
BLOCK_RECORD
  5
23
330
1
100
AcDbSymbolTableRecord
100
AcDbBlockTableRecord
  2
*Paper_Space0
340
26
  0
BLOCK_RECORD
  5
78
330
1
100
AcDbSymbolTableRecord
100
AcDbBlockTableRecord
  2
_D
340
0
  0
BLOCK_RECORD
  5
83
330
1
100
AcDbSymbolTableRecord
100
AcDbBlockTableRecord
  2
_D_1
340
0
  0
ENDTAB
  0
ENDSEC
  0
SECTION
  2
BLOCKS
  0
BLOCK
  5
20
330
1F
100
AcDbEntity
  8
0
100
AcDbBlockBegin
  2
*Model_Space
 70
     0
 10
0.0
 20
0.0
 30
0.0
  3
*Model_Space
  1

  0
ENDBLK
  5
21
330
1F
100
AcDbEntity
  8
0
100
AcDbBlockEnd
  0
BLOCK
  5
1C
330
1B
100
AcDbEntity
 67
     1
  8
0
100
AcDbBlockBegin
  2
*Paper_Space
 70
     0
 10
0.0
 20
0.0
 30
0.0
  3
*Paper_Space
  1

  0
ENDBLK
  5
1D
330
1B
100
AcDbEntity
 67
     1
  8
0
100
AcDbBlockEnd
  0
BLOCK
  5
24
330
23
100
AcDbEntity
  8
0
100
AcDbBlockBegin
  2
*Paper_Space0
 70
     0
 10
0.0
 20
0.0
 30
0.0
  3
*Paper_Space0
  1

  0
ENDBLK
  5
25
330
23
100
AcDbEntity
  8
0
100
AcDbBlockEnd
  0
BLOCK
  5
79
330
78
100
AcDbEntity
  8
0
100
AcDbBlockBegin
  2
_D
 70
     0
 10
0.0
 20
0.0
 30
0.0
  3
_D
  1

  0
SOLID
  5
7B
330
78
100
AcDbEntity
  8
0
  6
Continuous
 62
     7
370
    18
100
AcDbTrace
 10
42.7614395004
 20
152.0299240879
 30
0.0
 11
42.4614395004
 21
149.5299240879
 31
0.0
 12
43.0614395004
 22
149.5299240879
 32
0.0
 13
43.0614395004
 23
149.5299240879
 33
0.0
  0
SOLID
  5
7C
330
78
100
AcDbEntity
  8
0
  6
Continuous
 62
     7
370
    18
100
AcDbTrace
 10
42.7614395004
 20
52.0299240879
 30
0.0
 11
43.0614395004
 21
54.5299240879
 31
0.0
 12
42.4614395004
 22
54.5299240879
 32
0.0
 13
42.4614395004
 23
54.5299240879
 33
0.0
  0
LINE
  5
7D
330
78
100
AcDbEntity
  8
0
  6
Continuous
 62
     7
370
     0
100
AcDbLine
 10
56.6850079902
 20
152.0299240879
 30
0.0
 11
41.7614395004
 21
152.0299240879
 31
0.0
  0
LINE
  5
7E
330
78
100
AcDbEntity
  8
0
  6
Continuous
 62
     7
370
     0
100
AcDbLine
 10
56.6850079902
 20
52.0299240879
 30
0.0
 11
41.7614395004
 21
52.0299240879
 31
0.0
  0
LINE
  5
7F
330
78
100
AcDbEntity
  8
0
  6
Continuous
 62
     7
370
     0
100
AcDbLine
 10
42.7614395004
 20
152.0299240879
 30
0.0
 11
42.7614395004
 21
52.0299240879
 31
0.0
  0
MTEXT
  5
80
330
78
100
AcDbEntity
  8
0
  6
Continuous
 62
     7
370
    18
100
AcDbMText
 10
35.0270332946
 20
94.3680541463
 30
0.0
 40
6.0
 41
0.0
 71
     1
 72
     1
  1
100
  7
SLDTEXTSTYLE0
 11
-7.044195017643634E-15
 21
1.0
 31
0.0
 73
     1
 44
1.0
  0
MTEXT
  5
81
330
78
100
AcDbEntity
  8
0
  6
Continuous
 62
     7
370
    18
100
AcDbMText
 10
35.0270332946
 20
105.7430548466
 30
0.0
 40
6.0
 41
0.0
 71
     1
 72
     1
  1
mm
  7
SLDTEXTSTYLE0
 11
-7.044195017643634E-15
 21
1.0
 31
0.0
 73
     1
 44
1.0
  0
ENDBLK
  5
7A
330
78
100
AcDbEntity
  8
0
100
AcDbBlockEnd
  0
BLOCK
  5
84
330
83
100
AcDbEntity
  8
0
100
AcDbBlockBegin
  2
_D_1
 70
     0
 10
0.0
 20
0.0
 30
0.0
  3
_D_1
  1

  0
SOLID
  5
86
330
83
100
AcDbEntity
  8
0
  6
Continuous
 62
     7
370
    18
100
AcDbTrace
 10
56.6850079902
 20
38.4602342313
 30
0.0
 11
59.1850079902
 21
38.1602342313
 31
0.0
 12
59.1850079902
 22
38.7602342313
 32
0.0
 13
59.1850079902
 23
38.7602342313
 33
0.0
  0
SOLID
  5
87
330
83
100
AcDbEntity
  8
0
  6
Continuous
 62
     7
370
    18
100
AcDbTrace
 10
156.6850079902
 20
38.4602342313
 30
0.0
 11
154.1850079902
 21
38.7602342313
 31
0.0
 12
154.1850079902
 22
38.1602342313
 32
0.0
 13
154.1850079902
 23
38.1602342313
 33
0.0
  0
LINE
  5
88
330
83
100
AcDbEntity
  8
0
  6
Continuous
 62
     7
370
     0
100
AcDbLine
 10
56.6850079902
 20
52.0299240879
 30
0.0
 11
56.6850079902
 21
37.4602342313
 31
0.0
  0
LINE
  5
89
330
83
100
AcDbEntity
  8
0
  6
Continuous
 62
     7
370
     0
100
AcDbLine
 10
156.6850079902
 20
52.0299240879
 30
0.0
 11
156.6850079902
 21
37.4602342313
 31
0.0
  0
LINE
  5
8A
330
83
100
AcDbEntity
  8
0
  6
Continuous
 62
     7
370
     0
100
AcDbLine
 10
56.6850079902
 20
38.4602342313
 30
0.0
 11
156.6850079902
 21
38.4602342313
 31
0.0
  0
MTEXT
  5
8B
330
83
100
AcDbEntity
  8
0
  6
Continuous
 62
     7
370
    18
100
AcDbMText
 10
93.9626484861
 20
46.1946404371
 30
0.0
 40
6.0
 41
0.0
 71
     1
 72
     1
  1
100
  7
SLDTEXTSTYLE0
 73
     1
 44
1.0
  0
MTEXT
  5
8C
330
83
100
AcDbEntity
  8
0
  6
Continuous
 62
     7
370
    18
100
AcDbMText
 10
105.3376491864
 20
46.1946404371
 30
0.0
 40
6.0
 41
0.0
 71
     1
 72
     1
  1
mm
  7
SLDTEXTSTYLE0
 73
     1
 44
1.0
  0
ENDBLK
  5
85
330
83
100
AcDbEntity
  8
0
100
AcDbBlockEnd
  0
ENDSEC
  0
SECTION
  2
ENTITIES
  0
LINE
  5
73
330
1F
100
AcDbEntity
  8
0
  6
Continuous
 62
     7
370
    18
100
AcDbLine
 10
56.6850079902
 20
152.0299240879
 30
0.0
 11
56.6850079902
 21
52.0299240879
 31
0.0
  0
LINE
  5
74
330
1F
100
AcDbEntity
  8
0
  6
Continuous
 62
     7
370
    18
100
AcDbLine
 10
56.6850079902
 20
52.0299240879
 30
0.0
 11
156.6850079902
 21
52.0299240879
 31
0.0
  0
DIMENSION
  5
75
330
1F
100
AcDbEntity
  8
0
  6
Continuous
 62
     7
370
    18
100
AcDbDimension
  2
_D
 10
42.7614395004
 20
52.0299240879
 30
0.0
 11
42.7614395004
 21
105.4472211621
 31
0.0
 70
   160
  1
<>mm
 71
     2
 42
-1.0
  3
SLDDIMSTYLE0
100
AcDbAlignedDimension
 13
56.6850079902
 23
152.0299240879
 33
0.0
 14
56.6850079902
 24
52.0299240879
 34
0.0
 50
90.0
100
AcDbRotatedDimension
  0
DIMENSION
  5
82
330
1F
100
AcDbEntity
  8
0
  6
Continuous
 62
     7
370
    18
100
AcDbDimension
  2
_D_1
 10
156.6850079902
 20
38.4602342313
 30
0.0
 11
105.0418155019
 21
38.4602342313
 31
0.0
 70
   160
  1
<>mm
 71
     2
 42
-1.0
  3
SLDDIMSTYLE0
100
AcDbAlignedDimension
 13
56.6850079902
 23
52.0299240879
 33
0.0
 14
156.6850079902
 24
52.0299240879
 34
0.0
100
AcDbRotatedDimension
  0
MTEXT
  5
8E
330
1F
100
AcDbEntity
  8
0
  6
Continuous
 62
     7
370
     0
100
AcDbMText
 10
412.8252631579
 20
48.4342449499
 30
0.0
 40
10.0
 41
0.0
 71
     1
 72
     1
  1
KLUDI GmbH & Co KG
  7
SLDTEXTSTYLE1
 73
     1
 44
1.0
  0
MTEXT
  5
8F
330
1F
100
AcDbEntity
  8
0
  6
Continuous
 62
     7
370
     0
100
AcDbMText
 10
210.0873490389
 20
48.4342449499
 30
0.0
 40
10.0
 41
0.0
 71
     1
 72
     1
  1
34 759 .. 75
  7
SLDTEXTSTYLE1
 73
     1
 44
1.0
  0
SPLINE
  5
90
330
1F
100
AcDbEntity
  8
0
  6
Continuous
 62
     7
370
    25
100
AcDbSpline
210
0.0
220
0.0
230
1.0
 70
     8
 71
     3
 72
    14
 73
    10
 74
     0
 42
0.00000001
 43
0.00000001
 40
0.0
 40
0.0
 40
0.0
 40
0.0
 40
0.1701408692002729
 40
0.3357556391183394
 40
0.5033568720469715
 40
0.6345841922491083
 40
0.766487225580686
 40
0.8884748434949424
 40
1.0
 40
1.0
 40
1.0
 40
1.0
 10
147.9192645618005
 20
262.7568397941553
 30
0.0
 10
148.0390525480904
 20
262.0127646699648
 30
0.0
 10
148.275441912295
 20
260.5444083599912
 30
0.0
 10
148.6337454488545
 20
258.344420305072
 30
0.0
 10
149.1565564044301
 20
256.3443176038122
 30
0.0
 10
150.1084595869732
 20
254.6512576443612
 30
0.0
 10
151.4824927312448
 20
253.5695101999718
 30
0.0
 10
153.0222409610558
 20
253.0103102338902
 30
0.0
 10
154.0489367516507
 20
252.8792263967008
 30
0.0
 10
154.5392842669587
 20
252.81662106175
 30
0.0
  0
SPLINE
  5
91
330
1F
100
AcDbEntity
  8
0
  6
Continuous
 62
     7
370
    25
100
AcDbSpline
210
0.0
220
0.0
230
1.0
 70
     8
 71
     3
 72
    14
 73
    10
 74
     0
 42
0.00000001
 43
0.00000001
 40
0.0
 40
0.0
 40
0.0
 40
0.0
 40
0.1115251565050579
 40
0.2335127744193131
 40
0.3654158077508914
 40
0.496643127953029
 40
0.6642443608816608
 40
0.8298591307997265
 40
1.0
 40
1.0
 40
1.0
 40
1.0
 10
179.5152611944891
 20
252.8166210622648
 30
0.0
 10
180.0056087097944
 20
252.879226397236
 30
0.0
 10
181.032304500384
 20
253.0103102344677
 30
0.0
 10
182.5720527301719
 20
253.5695102006127
 30
0.0
 10
183.9460858743989
 20
254.6512576450587
 30
0.0
 10
184.8979890568721
 20
256.344317604549
 30
0.0
 10
185.4208000123654
 20
258.3444203058304
 30
0.0
 10
185.7791035488341
 20
260.5444083607642
 30
0.0
 10
186.0154929129782
 20
262.0127646707477
 30
0.0
 10
186.1352808992375
 20
262.7568397949431
 30
0.0
  0
SPLINE
  5
92
330
1F
100
AcDbEntity
  8
0
  6
Continuous
 62
     7
370
    25
100
AcDbSpline
210
0.0
220
0.0
230
1.0
 70
     8
 71
     3
 72
     9
 73
     5
 74
     0
 42
0.00000001
 43
0.00000001
 40
0.0
 40
0.0
 40
0.0
 40
0.0
 40
0.4996006185151853
 40
0.9999999999999999
 40
0.9999999999999999
 40
0.9999999999999999
 40
0.9999999999999999
 10
167.0272710335415
 20
252.2329457807824
 30
0.0
 10
169.1106880718834
 20
252.2525640128785
 30
0.0
 10
173.2808531219864
 20
252.2918318427593
 30
0.0
 10
177.4360183825678
 20
252.6416056415364
 30
0.0
 10
179.5152605089299
 20
252.816632234104
 30
0.0
  0
SPLINE
  5
93
330
1F
100
AcDbEntity
  8
0
  6
Continuous
 62
     7
370
    25
100
AcDbSpline
210
0.0
220
0.0
230
1.0
 70
     8
 71
     3
 72
     9
 73
     5
 74
     0
 42
0.00000001
 43
0.00000001
 40
0.0
 40
0.0
 40
0.0
 40
0.0
 40
0.5003993814848148
 40
0.9999999999999999
 40
0.9999999999999999
 40
0.9999999999999999
 40
0.9999999999999999
 10
154.5392849525178
 20
252.8166322335891
 30
0.0
 10
156.6185270788872
 20
252.6416056411072
 30
0.0
 10
160.773692339483
 20
252.2918318425014
 30
0.0
 10
164.9438573895876
 20
252.2525640127926
 30
0.0
 10
167.0272744279304
 20
252.2329457807824
 30
0.0
  0
LINE
  5
94
330
1F
100
AcDbEntity
  8
0
  6
Continuous
 62
     7
370
    25
100
AcDbLine
 10
190.04282146
 20
296.532300948
 30
0.0
 11
190.0780956781
 21
296.95177367
 31
0.0
  0
SPLINE
  5
95
330
1F
100
AcDbEntity
  8
0
  6
Continuous
 62
     7
370
    25
100
AcDbSpline
210
0.0
220
0.0
230
1.0
 70
     8
 71
     3
 72
    18
 73
    14
 74
     0
 42
0.00000001
 43
0.00000001
 40
0.0
 40
0.0
 40
0.0
 40
0.0
 40
0.1102816032517759
 40
0.2065628012463848
 40
0.2889277960440298
 40
0.3574028147124332
 40
0.4119866176280399
 40
0.4577831330064759
 40
0.5285392166879078
 40
0.6193864351353294
 40
0.7303485222358824
 40
0.861398212633859
 40
1.0
 40
1.0
 40
1.0
 40
1.0
 10
186.1352802618094
 20
262.7568337128383
 30
0.0
 10
186.3211336035091
 20
263.9931078556705
 30
0.0
 10
186.6692459427433
 20
266.3087093932078
 30
0.0
 10
187.1246042033704
 20
269.5522454726172
 30
0.0
 10
187.4974629200217
 20
272.3287093371561
 30
0.0
 10
187.7944218178919
 20
274.6384004369586
 30
0.0
 10
188.0300979131514
 20
276.5379906980219
 30
0.0
 10
188.2619579888189
 20
278.464096114003
 30
0.0
 10
188.5331294173133
 20
280.7995041483798
 30
0.0
 10
188.8718273628695
 20
283.8707166726493
 30
0.0
 10
189.2575226475033
 20
287.6242731349548
 30
0.0
 10
189.6652585799438
 20
291.9197130217498
 30
0.0
 10
189.914639043598
 20
294.9663295631897
 30
0.0
 10
190.0428214599648
 20
296.532300948046
 30
0.0
  0
SPLINE
  5
96
330
1F
100
AcDbEntity
  8
0
  6
Continuous
 62
     7
370
    25
100
AcDbSpline
210
0.0
220
0.0
230
1.0
 70
     8
 71
     3
 72
    18
 73
    14
 74
     0
 42
0.00000001
 43
0.00000001
 40
0.0
 40
0.0
 40
0.0
 40
0.0
 40
0.0986640714367756
 40
0.1949644054715801
 40
0.2774303133439918
 40
0.3460305483671839
 40
0.400762379183986
 40
0.4465355558222135
 40
0.517119862557772
 40
0.6077567427670768
 40
0.7184162812719931
 40
0.8491148117877989
 40
1.0
 40
1.0
 40
1.0
 40
1.0
 10
144.0083627351803
 20
296.5655833747011
 30
0.0
 10
144.0987765123681
 20
295.4496758997672
 30
0.0
 10
144.2774379851733
 20
293.2445952230468
 30
0.0
 10
144.5614577332316
 20
290.1093429990582
 30
0.0
 10
144.8306171760271
 20
287.3153592426813
 30
0.0
 10
145.0674668302737
 20
284.9921667929123
 30
0.0
 10
145.2704297500991
 20
283.0840609816188
 30
0.0
 10
145.4827254792203
 20
281.1543203910567
 30
0.0
 10
145.7493554678759
 20
278.820692563959
 30
0.0
 10
146.1172594952276
 20
275.7576035355047
 30
0.0
 10
146.5944724197679
 20
272.0207163737026
 30
0.0
 10
147.1938580534676
 20
267.6102890364269
 30
0.0
 10
147.6661760361416
 20
264.4501682115855
 30
0.0
 10
147.9192651992285
 20
262.7568337120505
 30
0.0
  0
LINE
  5
97
330
1F
100
AcDbEntity
  8
0
  6
Continuous
 62
     7
370
    25
100
AcDbLine
 10
143.9764497815
 20
296.951773669
 30
0.0
 11
144.0083627352
 21
296.5655833747
 31
0.0
  0
SPLINE
  5
98
330
1F
100
AcDbEntity
  8
0
  6
Continuous
 62
     7
370
    25
100
AcDbSpline
210
0.0
220
0.0
230
1.0
 70
     8
 71
     3
 72
    16
 73
    12
 74
     0
 42
0.00000001
 43
0.00000001
 40
0.0
 40
0.0
 40
0.0
 40
0.0
 40
0.0500486147731368
 40
0.2213399590565338
 40
0.4142674026779075
 40
0.6027082221600322
 40
0.7907255505227864
 40
0.9217326668846619
 40
0.9566996320020437
 40
0.9925840363401557
 40
1.0
 40
1.0
 40
1.0
 40
1.0
 10
191.405634979853
 20
321.3570314340751
 30
0.0
 10
191.4140835623132
 20
321.6206820262715
 30
0.0
 10
191.4514474115286
 20
322.7866765607155
 30
0.0
 10
191.5096073015448
 20
325.0020843961439
 30
0.0
 10
191.5782235199649
 20
327.9637452517862
 30
0.0
 10
191.6324117707381
 20
331.0228130387647
 30
0.0
 10
191.6664037085931
 20
333.6941323342874
 30
0.0
 10
191.6842083093712
 20
335.5928295577851
 30
0.0
 10
191.6905230193632
 20
336.5566731550215
 30
0.0
 10
191.6924860270583
 20
336.9161828378038
 30
0.0
 10
191.6923967514735
 20
337.0317594304368
 30
0.0
 10
191.6923814614304
 20
337.0515539922505
 30
0.0
  0
SPLINE
  5
99
330
1F
100
AcDbEntity
  8
0
  6
Continuous
 62
     7
370
    25
100
AcDbSpline
210
0.0
220
0.0
230
1.0
 70
     8
 71
     3
 72
    16
 73
    12
 74
     0
 42
0.00000001
 43
0.00000001
 40
0.0
 40
0.0
 40
0.0
 40
0.0
 40
0.0074614049776033
 40
0.0435656910054181
 40
0.0787469162036354
 40
0.1609173242178572
 40
0.2491121407951709
 40
0.3997868572529711
 40
0.6562605030486175
 40
0.9007858507100379
 40
1.0
 40
1.0
 40
1.0
 40
1.0
 10
142.3621639965445
 20
337.051553991235
 30
0.0
 10
142.362148657239
 20
337.0317620115885
 30
0.0
 10
142.3620590940209
 20
336.9162004957271
 30
0.0
 10
142.3640306889224
 20
336.5562407086959
 30
0.0
 10
142.3687486448418
 20
335.8307707090231
 30
0.0
 10
142.3783583806964
 20
334.7451233512231
 30
0.0
 10
142.3957244207307
 20
333.0799135252227
 30
0.0
 10
142.4304001943287
 20
330.4562484543467
 30
0.0
 10
142.4965672882046
 20
326.9837645296565
 30
0.0
 10
142.5737428387374
 20
323.7799812151046
 30
0.0
 10
142.6306311786517
 20
321.9772903793663
 30
0.0
 10
142.6470509625263
 20
321.4569764809437
 30
0.0
  0
SPLINE
  5
9A
330
1F
100
AcDbEntity
  8
0
  6
Continuous
 62
     7
370
    25
100
AcDbSpline
210
0.0
220
0.0
230
1.0
 70
     8
 71
     3
 72
     9
 73
     5
 74
     0
 42
0.00000001
 43
0.00000001
 40
0.0
 40
0.0
 40
0.0
 40
0.0
 40
0.671984503837851
 40
1.0
 40
1.0
 40
1.0
 40
1.0
 10
191.6987810837989
 20
337.914061136246
 30
0.0
 10
191.6985378282886
 20
338.0863816044043
 30
0.0
 10
191.6981758325746
 20
338.342816785832
 30
0.0
 10
191.6881745405764
 20
338.283610630232
 30
0.0
 10
191.6848939618194
 20
338.264190093727
 30
0.0
  0
SPLINE
  5
9B
330
1F
100
AcDbEntity
  8
0
  6
Continuous
 62
     7
370
    25
100
AcDbSpline
210
0.0
220
0.0
230
1.0
 70
     8
 71
     3
 72
     9
 73
     5
 74
     0
 42
0.00000001
 43
0.00000001
 40
0.0
 40
0.0
 40
0.0
 40
0.0
 40
0.3280154961657625
 40
1.0
 40
1.0
 40
1.0
 40
1.0
 10
142.3696514961055
 20
338.264190092713
 30
0.0
 10
142.3663709173477
 20
338.2836106292177
 30
0.0
 10
142.3563696253472
 20
338.3428167848162
 30
0.0
 10
142.3560076296437
 20
338.0863816033872
 30
0.0
 10
142.3557643741405
 20
337.9140611352289
 30
0.0
  0
LINE
  5
9C
330
1F
100
AcDbEntity
  8
0
  6
Continuous
 62
     7
370
    25
100
AcDbLine
 10
186.1215231945
 20
262.759100441
 30
0.0
 11
186.1402701122
 21
262.7562685012
 31
0.0
  0
LINE
  5
9D
330
1F
100
AcDbEntity
  8
0
  6
Continuous
 62
     7
370
    25
100
AcDbLine
 10
190.0859578338
 20
296.9505947955
 30
0.0
 11
190.0453207465
 21
296.5315837166
 31
0.0
  0
SPLINE
  5
9E
330
1F
100
AcDbEntity
  8
0
  6
Continuous
 62
     7
370
    25
100
AcDbSpline
210
0.0
220
0.0
230
1.0
 70
     8
 71
     3
 72
     8
 73
     4
 74
     0
 42
0.00000001
 43
0.00000001
 40
0.0
 40
0.0
 40
0.0
 40
0.0
 40
1.0
 40
1.0
 40
1.0
 40
1.0
 10
147.9142997093404
 20
262.756109047921
 30
0.0
 10
146.1808227022859
 20
274.1026115799178
 30
0.0
 10
144.8714986840675
 20
285.5148298772122
 30
0.0
 10
143.968587625825
 20
296.9505947945109
 30
0.0
  0
SPLINE
  5
9F
330
1F
100
AcDbEntity
  8
0
  6
Continuous
 62
     7
370
    25
100
AcDbSpline
210
0.0
220
0.0
230
1.0
 70
     8
 71
     3
 72
     9
 73
     5
 74
     0
 42
0.00000001
 43
0.00000001
 40
0.0
 40
0.0
 40
0.0
 40
0.0
 40
0.4896987330631425
 40
1.0
 40
1.0
 40
1.0
 40
1.0
 10
142.5389872800932
 20
325.5578432763338
 30
0.0
 10
142.6748722475187
 20
320.8833596799257
 30
0.0
 10
142.9523591149557
 20
311.3377282931167
 30
0.0
 10
143.6252238824801
 20
301.8117258897781
 30
0.0
 10
143.968587625825
 20
296.9505947945109
 30
0.0
  0
SPLINE
  5
A0
330
1F
100
AcDbEntity
  8
0
  6
Continuous
 62
     7
370
    25
100
AcDbSpline
210
0.0
220
0.0
230
1.0
 70
     8
 71
     3
 72
     9
 73
     5
 74
     0
 42
0.00000001
 43
0.00000001
 40
0.0
 40
0.0
 40
0.0
 40
0.0
 40
0.4896987330635601
 40
1.0
 40
1.0
 40
1.0
 40
1.0
 10
191.5155581783564
 20
325.5578432773669
 30
0.0
 10
191.3796732111234
 20
320.8833596809453
 30
0.0
 10
191.1021863440799
 20
311.337728294117
 30
0.0
 10
190.4293215769477
 20
301.8117258907429
 30
0.0
 10
190.0859578338032
 20
296.9505947954616
 30
0.0
  0
SPLINE
  5
A1
330
1F
100
AcDbEntity
  8
0
  6
Continuous
 62
     7
370
    25
100
AcDbSpline
210
0.0
220
0.0
230
1.0
 70
     8
 71
     3
 72
    22
 73
    18
 74
     0
 42
0.00000001
 43
0.00000001
 40
0.0
 40
0.0
 40
0.0
 40
0.0
 40
0.1249999999999999
 40
0.1249999999999999
 40
0.2499999999999998
 40
0.2499999999999998
 40
0.3749999999999998
 40
0.3749999999999998
 40
0.4999999999999998
 40
0.4999999999999998
 40
0.6249999999999998
 40
0.6249999999999998
 40
0.7499999999999998
 40
0.7499999999999998
 40
0.8749999999999999
 40
0.8749999999999999
 40
1.0
 40
1.0
 40
1.0
 40
1.0
 10
142.3665539026563
 20
340.8176301794768
 30
0.0
 10
142.3706202254301
 20
342.444653239222
 30
0.0
 10
142.5340891743267
 20
344.0443221525348
 30
0.0
 10
143.1667739679247
 20
347.1906148343855
 30
0.0
 10
143.6435749190721
 20
348.7535675563329
 30
0.0
 10
144.8858731008544
 20
351.7339332404213
 30
0.0
 10
145.6450717130727
 20
353.1471647626406
 30
0.0
 10
147.4370075559717
 20
355.8211551714627
 30
0.0
 10
148.4794297388742
 20
357.0871173553095
 30
0.0
 10
150.7555148312322
 20
359.355874965979
 30
0.0
 10
151.9968721543049
 20
360.3736195601587
 30
0.0
 10
154.6909992738346
 20
362.1704311596004
 30
0.0
 10
156.1259831836728
 20
362.9342239567362
 30
0.0
 10
159.0909356252203
 20
364.1595156047478
 30
0.0
 10
160.6424064466107
 20
364.6306321038349
 30
0.0
 10
163.822922561015
 20
365.2610199279496
 30
0.0
 10
165.4211331742107
 20
365.4164035767527
 30
0.0
 10
167.0272727284038
 20
365.416399007014
 30
0.0
  0
SPLINE
  5
A2
330
1F
100
AcDbEntity
  8
0
  6
Continuous
 62
     7
370
    25
100
AcDbSpline
210
0.0
220
0.0
230
1.0
 70
     8
 71
     3
 72
    12
 73
     8
 74
     0
 42
0.00000001
 43
0.00000001
 40
0.0
 40
0.0
 40
0.0
 40
0.0
 40
0.5000000000000026
 40
0.5000000000000026
 40
0.7500000000000012
 40
0.7500000000000012
 40
1.0
 40
1.0
 40
1.0
 40
1.0
 10
191.7772933016984
 20
337.1281102188008
 30
0.0
 10
191.9432267492263
 20
338.2926614286084
 30
0.0
 10
192.0231579945202
 20
339.4468878689041
 30
0.0
 10
192.0244376485824
 20
341.1625865084623
 30
0.0
 10
192.0050084321759
 20
341.7318641455068
 30
0.0
 10
191.927288047055
 20
342.8649545762518
 30
0.0
 10
191.8692929636246
 20
343.4236880818665
 30
0.0
 10
191.7938562038118
 20
343.9722685474642
 30
0.0
  0
LINE
  5
A3
330
1F
100
AcDbEntity
  8
0
  6
Continuous
 62
     7
370
    25
100
AcDbLine
 10
142.2772521563
 20
337.1281102178
 30
0.0
 11
142.3302533245
 21
336.7742865781
 31
0.0
  0
LINE
  5
A4
330
1F
100
AcDbEntity
  8
0
  6
Continuous
 62
     7
370
    25
100
AcDbLine
 10
191.6910794646
 20
336.5685006994
 30
0.0
 11
191.7772933017
 21
337.1281102188
 31
0.0
  0
SPLINE
  5
A5
330
1F
100
AcDbEntity
  8
0
  6
Continuous
 62
     7
370
    25
100
AcDbSpline
210
0.0
220
0.0
230
1.0
 70
     8
 71
     3
 72
    12
 73
     8
 74
     0
 42
0.00000001
 43
0.00000001
 40
0.0
 40
0.0
 40
0.0
 40
0.0
 40
0.5000000000000008
 40
0.5000000000000008
 40
0.7500000000000003
 40
0.7500000000000003
 40
1.0
 40
1.0
 40
1.0
 40
1.0
 10
142.2606892538778
 20
343.9722685464431
 30
0.0
 10
142.1098924728406
 20
342.8756656623502
 30
0.0
 10
142.030658191333
 20
341.7555307970624
 30
0.0
 10
142.0304623877038
 20
340.0401074532165
 30
0.0
 10
142.0502319742601
 20
339.4623975606984
 30
0.0
 10
142.1323013267004
 20
338.2947810563419
 30
0.0
 10
142.1942944372751
 20
337.7103226254244
 30
0.0
 10
142.2772521562733
 20
337.1281102177805
 30
0.0
  0
ELLIPSE
  5
A6
330
1F
100
AcDbEntity
  8
0
  6
Continuous
 62
     7
370
    25
100
AcDbEllipse
 10
167.0272727289
 20
340.5587403332
 30
0.0
 11
-5.170761596673401E-10
 21
25.0288301264693
 31
0.0
210
0.0
220
0.0
230
1.0
 40
0.9988554542
 41
4.849199211576146
 42
7.717171402782951
  0
SPLINE
  5
A7
330
1F
100
AcDbEntity
  8
0
  6
Continuous
 62
     7
370
    25
100
AcDbSpline
210
0.0
220
0.0
230
1.0
 70
    11
 71
     3
 72
    95
 73
    91
 74
     0
 42
0.00000001
 43
0.00000001
 40
0.0
 40
0.0
 40
0.0
 40
0.0
 40
0.0312500000000002
 40
0.0312500000000002
 40
0.0468750000000003
 40
0.0468750000000003
 40
0.0625000000000004
 40
0.0625000000000004
 40
0.0937500000000006
 40
0.0937500000000006
 40
0.1093750000000007
 40
0.1093750000000007
 40
0.1250000000000009
 40
0.1250000000000009
 40
0.1562500000000011
 40
0.1562500000000011
 40
0.1718750000000012
 40
0.1718750000000012
 40
0.1875000000000013
 40
0.2031250000000014
 40
0.2031250000000014
 40
0.2187500000000015
 40
0.2187500000000015
 40
0.2500000000000017
 40
0.2500000000000017
 40
0.2656250000000019
 40
0.2656250000000019
 40
0.2812500000000021
 40
0.2812500000000021
 40
0.3125000000000028
 40
0.3125000000000028
 40
0.328125000000003
 40
0.328125000000003
 40
0.3437500000000032
 40
0.3437500000000032
 40
0.3750000000000034
 40
0.3750000000000034
 40
0.4062500000000035
 40
0.4062500000000035
 40
0.4218750000000036
 40
0.4218750000000036
 40
0.4375000000000036
 40
0.4375000000000036
 40
0.4687500000000038
 40
0.4687500000000038
 40
0.5000000000000039
 40
0.5000000000000039
 40
0.531250000000004
 40
0.531250000000004
 40
0.546875000000004
 40
0.546875000000004
 40
0.562500000000004
 40
0.578125000000004
 40
0.578125000000004
 40
0.5937500000000041
 40
0.5937500000000041
 40
0.6250000000000041
 40
0.6250000000000041
 40
0.6406250000000041
 40
0.6406250000000041
 40
0.6562500000000041
 40
0.6562500000000041
 40
0.6875000000000041
 40
0.6875000000000041
 40
0.7031250000000041
 40
0.7031250000000041
 40
0.7187500000000041
 40
0.7187500000000041
 40
0.750000000000004
 40
0.750000000000004
 40
0.765625000000004
 40
0.765625000000004
 40
0.7812500000000039
 40
0.7968750000000036
 40
0.7968750000000036
 40
0.8125000000000032
 40
0.8125000000000032
 40
0.8437500000000028
 40
0.8437500000000028
 40
0.8750000000000023
 40
0.8750000000000023
 40
0.9062500000000019
 40
0.9062500000000019
 40
0.9218750000000018
 40
0.9218750000000018
 40
0.9375000000000016
 40
0.9375000000000016
 40
0.9687500000000008
 40
0.9687500000000008
 40
1.0
 40
1.0
 40
1.0
 40
1.0
 10
158.9764233821954
 20
416.8204449759538
 30
0.0
 10
159.5100240945074
 20
417.3523233038006
 30
0.0
 10
160.0868984725669
 20
417.822955700659
 30
0.0
 10
161.0144664687693
 20
418.4407917477064
 30
0.0
 10
161.334109027091
 20
418.6319424736494
 30
0.0
 10
161.9947777086333
 20
418.9839794143762
 30
0.0
 10
162.3369246205648
 20
419.1451177596687
 30
0.0
 10
163.3736070663069
 20
419.5722963130294
 30
0.0
 10
164.0848151777922
 20
419.7866298552174
 30
0.0
 10
165.18148735853
 20
420.0033979134139
 30
0.0
 10
165.5533499836824
 20
420.058192019626
 30
0.0
 10
166.3017222662398
 20
420.1306982435685
 30
0.0
 10
166.6747896565061
 20
420.1482142217363
 30
0.0
 10
167.7907403751752
 20
420.1463059877588
 30
0.0
 10
168.5304030318976
 20
420.0729411261345
 30
0.0
 10
169.6332861524432
 20
419.852173349833
 30
0.0
 10
169.9994674441878
 20
419.7597941030215
 30
0.0
 10
170.7134550786931
 20
419.5418666708101
 30
0.0
 10
171.4132341905676
 20
419.2900507767282
 30
0.0
 10
172.0850255918241
 20
418.9714819563377
 30
0.0
 10
172.7426325808423
 20
418.6190821792881
 30
0.0
 10
173.0659807162312
 20
418.4248272538956
 30
0.0
 10
174.0009922898911
 20
417.7979844747605
 30
0.0
 10
174.5746591715183
 20
417.3250689333524
 30
0.0
 10
175.3626364228361
 20
416.5353672464569
 30
0.0
 10
175.6131213167455
 20
416.258648912413
 30
0.0
 10
176.0890021843825
 20
415.6774231262946
 30
0.0
 10
176.3128006770112
 20
415.3745710978915
 30
0.0
 10
176.9326970968111
 20
414.4436423052051
 30
0.0
 10
177.2821179784853
 20
413.78822357178
 30
0.0
 10
177.7099501746517
 20
412.7526050774762
 30
0.0
 10
177.8369179698014
 20
412.39656446828
 30
0.0
 10
178.0533379457534
 20
411.679340759106
 30
0.0
 10
178.1432204972278
 20
411.317739362462
 30
0.0
 10
178.3592056373668
 20
410.2241818292388
 30
0.0
 10
178.432169514148
 20
409.4835577911758
 30
0.0
 10
178.4305025799924
 20
407.9782343062296
 30
0.0
 10
178.3556160369244
 20
407.2357661724905
 30
0.0
 10
178.1371080538544
 20
406.1430729225596
 30
0.0
 10
178.0464436899998
 20
405.7820063329026
 30
0.0
 10
177.8287077533266
 20
405.0663353475502
 30
0.0
 10
177.7008869002289
 20
404.7103301780195
 30
0.0
 10
177.2701017722133
 20
403.6743257135086
 30
0.0
 10
176.9189550098656
 20
403.0196860508108
 30
0.0
 10
176.0903286454397
 20
401.7815763036634
 30
0.0
 10
175.6078884237719
 20
401.1950326650991
 30
0.0
 10
174.5540641170857
 20
400.1438671595963
 30
0.0
 10
173.9794580856695
 20
399.6726204700348
 30
0.0
 10
173.0445528905336
 20
399.0489125410111
 30
0.0
 10
172.7201316566044
 20
398.8549621143585
 30
0.0
 10
172.0609322157146
 20
398.5036724074163
 30
0.0
 10
171.3879753455797
 20
398.1865277664543
 30
0.0
 10
170.6879648665533
 20
397.9365284652341
 30
0.0
 10
169.9742669101516
 20
397.7205006138962
 30
0.0
 10
169.6088643912186
 20
397.6291531239984
 30
0.0
 10
168.5036082198757
 20
397.4105004733171
 30
0.0
 10
167.7633802996758
 20
397.3389734394286
 30
0.0
 10
166.6481055612658
 20
397.3396980035142
 30
0.0
 10
166.2755192116887
 20
397.3580725597774
 30
0.0
 10
165.5286429345321
 20
397.4321250306398
 30
0.0
 10
165.1556369933071
 20
397.4879062272146
 30
0.0
 10
164.0583379039773
 20
397.707455842433
 30
0.0
 10
163.3477524802929
 20
397.9235753345254
 30
0.0
 10
162.3133617013297
 20
398.3526053122218
 30
0.0
 10
161.9720107180544
 20
398.5142681285678
 30
0.0
 10
161.3111215088173
 20
398.8683548792798
 30
0.0
 10
160.9916298875238
 20
399.060448757766
 30
0.0
 10
160.0651690749119
 20
399.6807209266263
 30
0.0
 10
159.4899038866193
 20
400.1524637128643
 30
0.0
 10
158.6928187878195
 20
400.9505111533332
 30
0.0
 10
158.4408008383066
 20
401.229260933739
 30
0.0
 10
157.9686086488124
 20
401.8057813449896
 30
0.0
 10
157.5265010942247
 20
402.4030753203546
 30
0.0
 10
157.1439753324072
 20
403.0415107686329
 30
0.0
 10
156.7918146723954
 20
403.7009134445704
 30
0.0
 10
156.6303027130206
 20
404.0428956555299
 30
0.0
 10
156.2015524003138
 20
405.0806150458118
 30
0.0
 10
155.9866772362909
 20
405.7918344760373
 30
0.0
 10
155.6966066997007
 20
407.2524745528636
 30
0.0
 10
155.6225946822977
 20
408.0083817487215
 30
0.0
 10
155.623817832253
 20
409.4974027863565
 30
0.0
 10
155.6966337939373
 20
410.2368218114369
 30
0.0
 10
155.9159864645376
 20
411.3381846196507
 30
0.0
 10
156.0080929221492
 20
411.7049700326468
 30
0.0
 10
156.2256218404237
 20
412.4200474914733
 30
0.0
 10
156.3513160856173
 20
412.7702729773857
 30
0.0
 10
156.7782475830165
 20
413.7994160186838
 30
0.0
 10
157.130218475362
 20
414.4590545027039
 30
0.0
 10
157.966951690574
 20
415.709839796037
 30
0.0
 10
158.4428226698835
 20
416.288566648107
 30
0.0
 10
158.9764233821954
 20
416.8204449759538
 30
0.0
  0
ARC
  5
A8
330
1F
100
AcDbEntity
  8
0
  6
Continuous
 62
     7
370
    25
100
AcDbCircle
 10
167.0272727273
 20
370.8424466368
 30
0.0
 40
74.5
100
AcDbArc
 50
288.2209877813
 51
251.7935331764
  0
SPLINE
  5
A9
330
1F
100
AcDbEntity
  8
0
  6
Continuous
 62
     8
370
    18
100
AcDbSpline
210
0.0
220
0.0
230
1.0
 70
     8
 71
     3
 72
     8
 73
     4
 74
     0
 42
0.00000001
 43
0.00000001
 40
0.0
 40
0.0
 40
0.0
 40
0.0
 40
1.0
 40
1.0
 40
1.0
 40
1.0
 10
154.5835775198244
 20
253.4257785814859
 30
0.0
 10
158.7183503182853
 20
252.9812400143501
 30
0.0
 10
162.8778991457982
 20
252.7911440801401
 30
0.0
 10
167.0272727307244
 20
252.7908753349304
 30
0.0
  0
SPLINE
  5
AA
330
1F
100
AcDbEntity
  8
0
  6
Continuous
 62
     8
370
    18
100
AcDbSpline
210
0.0
220
0.0
230
1.0
 70
     8
 71
     3
 72
    16
 73
    12
 74
     0
 42
0.00000001
 43
0.00000001
 40
0.0
 40
0.0
 40
0.0
 40
0.0
 40
0.2500000000000003
 40
0.2500000000000003
 40
0.5000000000000006
 40
0.5000000000000006
 40
0.6250000000000007
 40
0.6250000000000007
 40
0.7500000000000009
 40
0.7500000000000009
 40
1.0
 40
1.0
 40
1.0
 40
1.0
 10
148.655044108237
 20
262.8693538770661
 30
0.0
 10
148.8107341303425
 20
261.8623096549846
 30
0.0
 10
148.9733655886997
 20
260.8563919527747
 30
0.0
 10
149.3116825127453
 20
258.8460421670492
 30
0.0
 10
149.4806139688338
 20
257.8332273275776
 30
0.0
 10
149.9773628618776
 20
256.3840324067471
 30
0.0
 10
150.187395002148
 20
255.9026147647253
 30
0.0
 10
150.7642403819359
 20
255.0339546422346
 30
0.0
 10
151.1488811532098
 20
254.6430663742053
 30
0.0
 10
152.48044144826
 20
253.7684335777647
 30
0.0
 10
153.5667792541964
 20
253.5357415606857
 30
0.0
 10
154.5835767718918
 20
253.4257691978199
 30
0.0
  0
SPLINE
  5
AB
330
1F
100
AcDbEntity
  8
0
  6
Continuous
 62
     8
370
    18
100
AcDbSpline
210
0.0
220
0.0
230
1.0
 70
     8
 71
     3
 72
     8
 73
     4
 74
     0
 42
0.00000001
 43
0.00000001
 40
0.0
 40
0.0
 40
0.0
 40
0.0
 40
1.0
 40
1.0
 40
1.0
 40
1.0
 10
144.711901664019
 20
297.012290835479
 30
0.0
 10
145.6027067220947
 20
285.5938336785147
 30
0.0
 10
146.9070087118939
 20
274.1972555332923
 30
0.0
 10
148.6550687354369
 20
262.8691861305369
 30
0.0
  0
SPLINE
  5
AC
330
1F
100
AcDbEntity
  8
0
  6
Continuous
 62
     8
370
    18
100
AcDbSpline
210
0.0
220
0.0
230
1.0
 70
     8
 71
     3
 72
    10
 73
     6
 74
     0
 42
0.00000001
 43
0.00000001
 40
0.0
 40
0.0
 40
0.0
 40
0.0
 40
0.5
 40
0.5
 40
1.0
 40
1.0
 40
1.0
 40
1.0
 10
143.139937239286
 20
340.7587501577424
 30
0.0
 10
143.1220924087969
 20
333.4616987500816
 30
0.0
 10
143.2402550457564
 20
326.163648085604
 30
0.0
 10
143.7550332513358
 20
311.5778066460665
 30
0.0
 10
144.1442601517529
 20
304.2883948788754
 30
0.0
 10
144.711901664019
 20
297.012290835479
 30
0.0
  0
SPLINE
  5
AD
330
1F
100
AcDbEntity
  8
0
  6
Continuous
 62
     8
370
    18
100
AcDbSpline
210
0.0
220
0.0
230
1.0
 70
     8
 71
     3
 72
    22
 73
    18
 74
     0
 42
0.00000001
 43
0.00000001
 40
0.0
 40
0.0
 40
0.0
 40
0.0
 40
0.0496986198448279
 40
0.1018210881196827
 40
0.1563668303858148
 40
0.2133353501437025
 40
0.2727267394243053
 40
0.3345416275224402
 40
0.3987808881885747
 40
0.4654456339236862
 40
0.5345372113559648
 40
0.606057192107898
 40
0.6800073587772536
 40
0.7563894630318626
 40
0.835196531603062
 40
0.9164082746993197
 40
1.0
 40
1.0
 40
1.0
 40
1.0
 10
189.3426437956067
 20
297.012290836399
 30
0.0
 10
189.3980932098919
 20
297.7355409301998
 30
0.0
 10
189.5116963585456
 20
299.2173147050732
 30
0.0
 10
189.6727281737244
 20
301.4938759289016
 30
0.0
 10
189.8305955618967
 20
303.8770038132531
 30
0.0
 10
189.9829023924891
 20
306.3667973134798
 30
0.0
 10
190.1285730021247
 20
308.9632576336533
 30
0.0
 10
190.2661800826141
 20
311.6664214347411
 30
0.0
 10
190.394391996528
 20
314.4763201359524
 30
0.0
 10
190.511853618216
 20
317.3929851445741
 30
0.0
 10
190.6172239682785
 20
320.4164445345222
 30
0.0
 10
190.7091924339704
 20
323.5467233438054
 30
0.0
 10
190.7864122678803
 20
326.7838399924064
 30
0.0
 10
190.8478055288318
 20
330.1276747972023
 30
0.0
 10
190.8913446217575
 20
333.5777792193189
 30
0.0
 10
190.9168860032457
 20
337.1333128939668
 30
0.0
 10
190.9153747549207
 20
339.5386921076055
 30
0.0
 10
190.9146082185361
 20
340.7587501587272
 30
0.0
  0
SPLINE
  5
AE
330
1F
100
AcDbEntity
  8
0
  6
Continuous
 62
     8
370
    18
100
AcDbSpline
210
0.0
220
0.0
230
1.0
 70
     8
 71
     3
 72
    20
 73
    16
 74
     0
 42
0.00000001
 43
0.00000001
 40
0.0
 40
0.0
 40
0.0
 40
0.0
 40
0.0615753420527084
 40
0.1256564206383473
 40
0.1925609828555216
 40
0.2613659331639462
 40
0.3331307585823014
 40
0.4074729040926841
 40
0.4843931544707133
 40
0.5638903824486817
 40
0.6459634861128875
 40
0.7306114334040092
 40
0.8178335760528375
 40
0.9076297681093835
 40
1.0
 40
1.0
 40
1.0
 40
1.0
 10
185.3994767255964
 20
262.8691861312944
 30
0.0
 10
185.5060103408625
 20
263.5667143884619
 30
0.0
 10
185.7234128322776
 20
264.9901559994683
 30
0.0
 10
186.0426739003209
 20
267.173581053189
 30
0.0
 10
186.3631628295902
 20
269.4405194381447
 30
0.0
 10
186.6840822869137
 20
271.7962954663051
 30
0.0
 10
187.0034623117461
 20
274.2382621457103
 30
0.0
 10
187.3211311898193
 20
276.7742026968976
 30
0.0
 10
187.6349761467636
 20
279.3998808812943
 30
0.0
 10
187.9434694110439
 20
282.1153748194271
 30
0.0
 10
188.244962429564
 20
284.920735975286
 30
0.0
 10
188.5378649044614
 20
287.8159990672307
 30
0.0
 10
188.8200733440809
 20
290.8012264936829
 30
0.0
 10
189.0919563084375
 20
293.876277076537
 30
0.0
 10
189.2582978227484
 20
295.9571518884627
 30
0.0
 10
189.3426437956067
 20
297.012290836399
 30
0.0
  0
SPLINE
  5
AF
330
1F
100
AcDbEntity
  8
0
  6
Continuous
 62
     8
370
    18
100
AcDbSpline
210
0.0
220
0.0
230
1.0
 70
     8
 71
     3
 72
    26
 73
    22
 74
     0
 42
0.00000001
 43
0.00000001
 40
0.0
 40
0.0
 40
0.0
 40
0.0
 40
0.027968984745548
 40
0.0553867402764797
 40
0.0822602376276432
 40
0.1085856192703872
 40
0.1343519114958111
 40
0.1595454903757439
 40
0.1841551819039449
 40
0.2081750952651971
 40
0.2316003154805986
 40
0.2544360892074463
 40
0.3162079573721243
 40
0.3822983675307003
 40
0.4386918842249278
 40
0.5072539864567944
 40
0.5660779740307222
 40
0.6441591034104128
 40
0.7434157848064278
 40
0.8625634208394105
 40
1.0
 40
1.0
 40
1.0
 40
1.0
 10
179.4709686895308
 20
253.4257691983329
 30
0.0
 10
179.5859228040806
 20
253.4392080746101
 30
0.0
 10
179.8135654498259
 20
253.4658209658803
 30
0.0
 10
180.1498736756245
 20
253.5189257216298
 30
0.0
 10
180.4775647049829
 20
253.5817134456099
 30
0.0
 10
180.7959874926374
 20
253.655477121949
 30
0.0
 10
181.10442822424
 20
253.7404007459905
 30
0.0
 10
181.4019938963635
 20
253.8369712804513
 30
0.0
 10
181.6876860952636
 20
253.9455925629213
 30
0.0
 10
181.9603819284572
 20
254.066629666277
 30
0.0
 10
182.2188655874999
 20
254.2004543283256
 30
0.0
 10
182.6016129046124
 20
254.4320410125081
 30
0.0
 10
183.0901336913329
 20
254.8271476943522
 30
0.0
 10
183.5755366900981
 20
255.4225964347811
 30
0.0
 10
183.9590702622349
 20
256.1168724245838
 30
0.0
 10
184.2413684336389
 20
256.8251404405266
 30
0.0
 10
184.4814715407832
 20
257.6416409814667
 30
0.0
 10
184.6933806207315
 20
258.5964854335236
 30
0.0
 10
184.904078129791
 20
259.8055172295899
 30
0.0
 10
185.1466463777354
 20
261.2582123589397
 30
0.0
 10
185.3113041731194
 20
262.3073790225067
 30
0.0
 10
185.3995013527963
 20
262.8693538778236
 30
0.0
  0
SPLINE
  5
B0
330
1F
100
AcDbEntity
  8
0
  6
Continuous
 62
     8
370
    18
100
AcDbSpline
210
0.0
220
0.0
230
1.0
 70
     8
 71
     3
 72
    17
 73
    13
 74
     0
 42
0.00000001
 43
0.00000001
 40
0.0
 40
0.0
 40
0.0
 40
0.0
 40
0.0938446191407924
 40
0.1878934513635284
 40
0.2826456519926099
 40
0.3785824164454361
 40
0.476150980838034
 40
0.5757490972016015
 40
0.6777102662694221
 40
0.7822901096404844
 40
0.8897054128079375
 40
1.0
 40
1.0
 40
1.0
 40
1.0
 10
167.0272727307244
 20
252.7908753349304
 30
0.0
 10
167.4172461310702
 20
252.7918791803961
 30
0.0
 10
168.198041543762
 20
252.7938890557723
 30
0.0
 10
169.3724897329056
 20
252.8100751402599
 30
0.0
 10
170.5554373239517
 20
252.8364739247496
 30
0.0
 10
171.7526964951404
 20
252.8747723763093
 30
0.0
 10
172.9696326642275
 20
252.9257333121057
 30
0.0
 10
174.2109595985194
 20
252.9907084604473
 30
0.0
 10
175.4805573286392
 20
253.0711427333478
 30
0.0
 10
176.7814628681674
 20
253.1688700337876
 30
0.0
 10
178.1155737096262
 20
253.2851230251754
 30
0.0
 10
179.015203897114
 20
253.3784818295524
 30
0.0
 10
179.4709679415982
 20
253.425778581999
 30
0.0
  0
SPLINE
  5
B1
330
1F
100
AcDbEntity
  8
0
  6
Continuous
 62
     8
370
    18
100
AcDbSpline
210
0.0
220
0.0
230
1.0
 70
     8
 71
     3
 72
     8
 73
     4
 74
     0
 42
0.00000001
 43
0.00000001
 40
0.0
 40
0.0
 40
0.0
 40
0.0
 40
1.0
 40
1.0
 40
1.0
 40
1.0
 10
143.1400705599553
 20
340.8127973167906
 30
0.0
 10
143.1400256789109
 20
340.7947817209743
 30
0.0
 10
143.1399811105232
 20
340.7767660338118
 30
0.0
 10
143.1399372137581
 20
340.7587501577278
 30
0.0
  0
SPLINE
  5
B2
330
1F
100
AcDbEntity
  8
0
  6
Continuous
 62
     8
370
    18
100
AcDbSpline
210
0.0
220
0.0
230
1.0
 70
     8
 71
     3
 72
    22
 73
    18
 74
     0
 42
0.00000001
 43
0.00000001
 40
0.0
 40
0.0
 40
0.0
 40
0.0
 40
0.125
 40
0.125
 40
0.25
 40
0.25
 40
0.3750000000000001
 40
0.3750000000000001
 40
0.5000000000000001
 40
0.5000000000000001
 40
0.6250000000000002
 40
0.6250000000000002
 40
0.7500000000000001
 40
0.7500000000000001
 40
0.875
 40
0.875
 40
1.0
 40
1.0
 40
1.0
 40
1.0
 10
167.0272727284179
 20
364.6701047190269
 30
0.0
 10
165.4751082101378
 20
364.6702045567043
 30
0.0
 10
163.9203842661606
 20
364.5195868536503
 30
0.0
 10
160.8361090040164
 20
363.9078539134343
 30
0.0
 10
159.3315476920561
 20
363.4505031247065
 30
0.0
 10
156.4568922471648
 20
362.2608190929455
 30
0.0
 10
155.0659614151377
 20
361.5191576573744
 30
0.0
 10
152.4555747555008
 20
359.7747353865327
 30
0.0
 10
151.2533398161319
 20
358.7868137175618
 30
0.0
 10
149.0499253921444
 20
356.5852867492677
 30
0.0
 10
148.041301104342
 20
355.3571893685403
 30
0.0
 10
146.3081073121469
 20
352.7641023089179
 30
0.0
 10
145.5741538976095
 20
351.3940551575532
 30
0.0
 10
144.3735036637283
 20
348.505635204825
 30
0.0
 10
143.9128969484343
 20
346.9913208818051
 30
0.0
 10
143.3018248220215
 20
343.9436374261531
 30
0.0
 10
143.1440337415781
 20
342.3944407404851
 30
0.0
 10
143.1401213229145
 20
340.8190227597306
 30
0.0
  0
SPLINE
  5
B3
330
1F
100
AcDbEntity
  8
0
  6
Continuous
 62
     8
370
    18
100
AcDbSpline
210
0.0
220
0.0
230
1.0
 70
     8
 71
     3
 72
    47
 73
    43
 74
     0
 42
0.00000001
 43
0.00000001
 40
0.0
 40
0.0
 40
0.0
 40
0.0
 40
0.0129367756171577
 40
0.0264017104099082
 40
0.0403894262963741
 40
0.0548948429553961
 40
0.0699132177394601
 40
0.0854401814155911
 40
0.1014717693264208
 40
0.1180044476553114
 40
0.1350351345932111
 40
0.1525612163415454
 40
0.1705805580452987
 40
0.1890915099333908
 40
0.2080929091489739
 40
0.2275840779792626
 40
0.2475648194416007
 40
0.2680354114477333
 40
0.2889966010495995
 40
0.3104496005649974
 40
0.3323960876875899
 40
0.3548382120001487
 40
0.3777786106296405
 40
0.4012204361042872
 40
0.4251673997919262
 40
0.4496238346106721
 40
0.4745947810001269
 40
0.5000861004149144
 40
0.5929949437369753
 40
0.6656254009329693
 40
0.7180082910758665
 40
0.749968161534173
 40
0.7743614007945022
 40
0.7988480739527294
 40
0.8234422718697255
 40
0.8481590173699929
 40
0.8730143035057704
 40
0.8980251256445357
 40
0.9232095070150759
 40
0.9485865174125323
 40
0.9741762848447973
 40
1.0
 40
1.0
 40
1.0
 40
1.0
 10
190.9144241349051
 20
340.8190227607155
 30
0.0
 10
190.9130797724049
 20
340.9806331377414
 30
0.0
 10
190.9103361622143
 20
341.3104518267056
 30
0.0
 10
190.8930471217978
 20
341.8147694037715
 30
0.0
 10
190.864663539051
 20
342.3381880933297
 30
0.0
 10
190.8229637047645
 20
342.880197383962
 30
0.0
 10
190.7669359035352
 20
343.440242318257
 30
0.0
 10
190.695194859322
 20
344.017716598228
 30
0.0
 10
190.6064343187613
 20
344.6119604406344
 30
0.0
 10
190.4993037054819
 20
345.2222569425564
 30
0.0
 10
190.3724474938568
 20
345.8478287240047
 30
0.0
 10
190.2244989059641
 20
346.4878343514299
 30
0.0
 10
190.0540865980242
 20
347.1413646841062
 30
0.0
 10
189.8598378480914
 20
347.8074391057137
 30
0.0
 10
189.6403828656674
 20
348.4850016537905
 30
0.0
 10
189.3943589249359
 20
349.1729170453859
 30
0.0
 10
189.1204146799347
 20
349.8699666012026
 30
0.0
 10
188.8172145572931
 20
350.5748440684854
 30
0.0
 10
188.4834432489052
 20
351.2861513456844
 30
0.0
 10
188.1178103003674
 20
352.0023941010643
 30
0.0
 10
187.7190547641057
 20
352.7219773177067
 30
0.0
 10
187.2859500261203
 20
353.4432006403662
 30
0.0
 10
186.8173083651795
 20
354.1642540040607
 30
0.0
 10
186.3119869291478
 20
354.8832116906414
 30
0.0
 10
185.7688886158953
 20
355.5980319566043
 30
0.0
 10
185.1869829426129
 20
356.3065346963327
 30
0.0
 10
184.5652502587104
 20
357.0064632104021
 30
0.0
 10
183.3236467434683
 20
358.297611726973
 30
0.0
 10
181.5100924961974
 20
359.8639916314514
 30
0.0
 10
179.2315031435894
 20
361.3639033993398
 30
0.0
 10
177.4931077666111
 20
362.2763375975615
 30
0.0
 10
176.2505490554224
 20
362.826475985424
 30
0.0
 10
175.3100107347431
 20
363.1949019208374
 30
0.0
 10
174.4428262099154
 20
363.4963988055899
 30
0.0
 10
173.5607797296889
 20
363.7653532671944
 30
0.0
 10
172.664491559149
 20
364.0010040028672
 30
0.0
 10
171.7546168394315
 20
364.2026850960161
 30
0.0
 10
170.8318007595934
 20
364.369626122562
 30
0.0
 10
169.8966918112845
 20
364.501359239974
 30
0.0
 10
168.9499357753378
 20
364.5962762715886
 30
0.0
 10
167.9921884274186
 20
364.6570514277451
 30
0.0
 10
167.349885522357
 20
364.6657404425963
 30
0.0
 10
167.0272727284181
 20
364.6701047189147
 30
0.0
  0
SPLINE
  5
B4
330
1F
100
AcDbEntity
  8
0
  6
Continuous
 62
     8
370
    18
100
AcDbSpline
210
0.0
220
0.0
230
1.0
 70
     8
 71
     3
 72
     8
 73
     4
 74
     0
 42
0.00000001
 43
0.00000001
 40
0.0
 40
0.0
 40
0.0
 40
0.0
 40
1.0
 40
1.0
 40
1.0
 40
1.0
 10
190.9146082440641
 20
340.7587501587126
 30
0.0
 10
190.9145831768559
 20
340.7767705959943
 30
0.0
 10
190.9145387133818
 20
340.7947863222119
 30
0.0
 10
190.9144748731569
 20
340.8127973172282
 30
0.0
  0
SPLINE
  5
B5
330
1F
100
AcDbEntity
  8
0
  6
Continuous
 62
     8
370
    18
100
AcDbSpline
210
0.0
220
0.0
230
1.0
 70
     8
 71
     3
 72
    13
 73
     9
 74
     0
 42
0.00000001
 43
0.00000001
 40
0.0
 40
0.0
 40
0.0
 40
0.0
 40
0.1555987214373947
 40
0.3281104730654759
 40
0.5140789016381477
 40
0.7075864334889397
 40
0.9010939653395995
 40
1.0
 40
1.0
 40
1.0
 40
1.0
 10
154.5835775198244
 20
253.4257785814859
 30
0.0
 10
154.5784811835136
 20
253.373757602788
 30
0.0
 10
154.5677345571764
 20
253.2640611491653
 30
0.0
 10
154.5538415579599
 20
253.1079312922647
 30
0.0
 10
154.5427048787884
 20
252.9673882849956
 30
0.0
 10
154.5367103605953
 20
252.8664308095092
 30
0.0
 10
154.5357233921909
 20
252.815847099532
 30
0.0
 10
154.5388800141957
 20
252.8212642443641
 30
0.0
 10
154.5399477107774
 20
252.8230965407275
 30
0.0
  0
SPLINE
  5
B6
330
1F
100
AcDbEntity
  8
0
  6
Continuous
 62
     8
370
    18
100
AcDbSpline
210
0.0
220
0.0
230
1.0
 70
     8
 71
     3
 72
    14
 73
    10
 74
     0
 42
0.00000001
 43
0.00000001
 40
0.0
 40
0.0
 40
0.0
 40
0.0
 40
0.25
 40
0.25
 40
0.5
 40
0.5
 40
0.75
 40
0.75
 40
1.0
 40
1.0
 40
1.0
 40
1.0
 10
147.9142996284779
 20
262.7561090511499
 30
0.0
 10
147.9067102650956
 20
262.754931285387
 30
0.0
 10
147.9158809110555
 20
262.7563178152243
 30
0.0
 10
147.9777215668085
 20
262.765750340795
 30
0.0
 10
148.0306502762651
 20
262.7738360221753
 30
0.0
 10
148.1733103872074
 20
262.7956458633152
 30
0.0
 10
148.2626420579626
 20
262.8093089123435
 30
0.0
 10
148.4548826500928
 20
262.8387202627265
 30
0.0
 10
148.5572331865509
 20
262.8543830626297
 30
0.0
 10
148.655044108237
 20
262.8693538770661
 30
0.0
  0
SPLINE
  5
B7
330
1F
100
AcDbEntity
  8
0
  6
Continuous
 62
     8
370
    18
100
AcDbSpline
210
0.0
220
0.0
230
1.0
 70
     8
 71
     3
 72
    13
 73
     9
 74
     0
 42
0.00000001
 43
0.00000001
 40
0.0
 40
0.0
 40
0.0
 40
0.0
 40
0.1555986463159205
 40
0.3281101449669029
 40
0.5140781556771004
 40
0.7075851682842262
 40
0.9010921808914207
 40
1.0
 40
1.0
 40
1.0
 40
1.0
 10
179.4709686740294
 20
253.4257691966564
 30
0.0
 10
179.4760649852856
 20
253.3737482425717
 30
0.0
 10
179.4868115532324
 20
253.264051897583
 30
0.0
 10
179.5007044834433
 20
253.1079221728777
 30
0.0
 10
179.5118411255516
 20
252.9673791713784
 30
0.0
 10
179.517835682079
 20
252.8664212313125
 30
0.0
 10
179.5188227278972
 20
252.8158366929596
 30
0.0
 10
179.5156661725127
 20
252.8212531755643
 30
0.0
 10
179.5145984838214
 20
252.8230852730626
 30
0.0
  0
SPLINE
  5
B8
330
1F
100
AcDbEntity
  8
0
  6
Continuous
 62
     8
370
    18
100
AcDbSpline
210
0.0
220
0.0
230
1.0
 70
     8
 71
     3
 72
    11
 73
     7
 74
     0
 42
0.00000001
 43
0.00000001
 40
0.0
 40
0.0
 40
0.0
 40
0.0
 40
0.2798651450163543
 40
0.5807093508241256
 40
0.8815535566454326
 40
1.0
 40
1.0
 40
1.0
 40
1.0
 10
185.3995012910624
 20
262.869345324708
 30
0.0
 10
185.5019375052028
 20
262.853689197209
 30
0.0
 10
185.7144886873476
 20
262.8212033382221
 30
0.0
 10
185.9651431355475
 20
262.7829246037139
 30
0.0
 10
186.1097681326103
 20
262.7608592528238
 30
0.0
 10
186.1189339268269
 20
262.7594878514938
 30
0.0
 10
186.1215231945046
 20
262.7591004409702
 30
0.0
  0
LWPOLYLINE
  5
B9
330
1F
100
AcDbEntity
  8
0
  6
Continuous
 62
     8
370
    18
100
AcDbPolyline
 90
        7
 70
   128
 43
0.0
 10
167.0272747524
 20
252.7908753351
 10
167.0272750885
 20
252.6243108993
 10
167.0272751319
 20
252.4776218422
 10
167.02727488
 20
252.3597496129
 10
167.0272743481
 20
252.2778791275
 10
167.0272735686
 20
252.2370008114
 10
167.0272730638
 20
252.2329422419
  0
ARC
  5
BA
330
1F
100
AcDbEntity
  8
0
  6
Continuous
 62
     8
370
    18
100
AcDbCircle
 10
185.8387833
 20
250.2891991939
 30
0.0
 40
46.85428828835283
100
AcDbArc
 50
84.7992024847
 51
85.7112995384
  0
ARC
  5
BB
330
1F
100
AcDbEntity
  8
0
  6
Continuous
 62
     8
370
    18
100
AcDbCircle
 10
148.2157621613
 20
250.2891991968
 30
0.0
 40
46.85428828464894
100
AcDbArc
 50
94.2887004639
 51
95.2007975177
  0
SPLINE
  5
BC
330
1F
100
AcDbEntity
  8
0
  6
Continuous
 62
     8
370
    18
100
AcDbSpline
210
0.0
220
0.0
230
1.0
 70
     8
 71
     3
 72
     9
 73
     5
 74
     0
 42
0.00000001
 43
0.00000001
 40
0.0
 40
0.0
 40
0.0
 40
0.0
 40
0.9613860211357712
 40
1.0
 40
1.0
 40
1.0
 40
1.0
 10
142.3663544434526
 20
340.7572191034411
 30
0.0
 10
142.3573094782332
 20
335.8849111651576
 30
0.0
 10
142.347901222839
 20
330.8169074380725
 30
0.0
 10
142.5318830112058
 20
325.7533667302055
 30
0.0
 10
142.5389872800932
 20
325.5578432763338
 30
0.0
  0
ARC
  5
BD
330
1F
100
AcDbEntity
  8
0
  6
Continuous
 62
     8
370
    18
100
AcDbCircle
 10
142.864843372
 20
284.321522526
 30
0.0
 40
56.43789807737157
100
AcDbArc
 50
89.7207234764
 51
90.5060727647
  0
SPLINE
  5
BE
330
1F
100
AcDbEntity
  8
0
  6
Continuous
 62
     8
370
    18
100
AcDbSpline
210
0.0
220
0.0
230
1.0
 70
     8
 71
     3
 72
     9
 73
     5
 74
     0
 42
0.00000001
 43
0.00000001
 40
0.0
 40
0.0
 40
0.0
 40
0.0
 40
0.9613860211372551
 40
1.0
 40
1.0
 40
1.0
 40
1.0
 10
191.6881910143696
 20
340.7572191044578
 30
0.0
 10
191.6972359797899
 20
335.8849111661747
 30
0.0
 10
191.7066442353931
 20
330.8169074390979
 30
0.0
 10
191.5226624472355
 20
325.753366731231
 30
0.0
 10
191.5155581783564
 20
325.5578432773669
 30
0.0
  0
ARC
  5
BF
330
1F
100
AcDbEntity
  8
0
  6
Continuous
 62
     8
370
    18
100
AcDbCircle
 10
191.1890735924
 20
284.6442556874
 30
0.0
 40
56.11516653754665
100
AcDbArc
 50
89.4903748409
 51
90.2802409736
  0
SPLINE
  5
C0
330
1F
100
AcDbEntity
  8
0
  6
Continuous
 62
     8
370
    18
100
AcDbSpline
210
0.0
220
0.0
230
1.0
 70
     8
 71
     3
 72
    14
 73
    10
 74
     0
 42
0.00000001
 43
0.00000001
 40
0.0
 40
0.0
 40
0.0
 40
0.0
 40
0.25
 40
0.25
 40
0.5
 40
0.5
 40
0.75
 40
0.75
 40
1.0
 40
1.0
 40
1.0
 40
1.0
 10
190.9144871846383
 20
340.8065672345097
 30
0.0
 10
191.0128630961654
 20
340.8066967070127
 30
0.0
 10
191.1142750745798
 20
340.8067699607449
 30
0.0
 10
191.3046935001039
 20
340.8067556044882
 30
0.0
 10
191.393302225845
 20
340.8066669521558
 30
0.0
 10
191.5388748102823
 20
340.8063280898118
 30
0.0
 10
191.5955538607239
 20
340.8060785427842
 30
0.0
 10
191.6695320045663
 20
340.8054774399418
 30
0.0
 10
191.6869677081965
 20
340.805127534287
 30
0.0
 10
191.6880233999401
 20
340.804766606641
 30
0.0
  0
SPLINE
  5
C1
330
1F
100
AcDbEntity
  8
0
  6
Continuous
 62
     8
370
    18
100
AcDbSpline
210
0.0
220
0.0
230
1.0
 70
     8
 71
     3
 72
    14
 73
    10
 74
     0
 42
0.00000001
 43
0.00000001
 40
0.0
 40
0.0
 40
0.0
 40
0.0
 40
0.25
 40
0.25
 40
0.5
 40
0.5
 40
0.75
 40
0.75
 40
1.0
 40
1.0
 40
1.0
 40
1.0
 10
142.3664468737648
 20
340.8047620572475
 30
0.0
 10
142.3675082127862
 20
340.8051231835051
 30
0.0
 10
142.3849503368461
 20
340.8054734541624
 30
0.0
 10
142.4589417821689
 20
340.8060756493858
 30
0.0
 10
142.5156276847783
 20
340.8063259244857
 30
0.0
 10
142.6612132878436
 20
340.8066665030619
 30
0.0
 10
142.7498281719375
 20
340.8067561402474
 30
0.0
 10
142.9402577391028
 20
340.806772523579
 30
0.0
 10
143.041674714593
 20
340.8067003083202
 30
0.0
 10
143.1400550507755
 20
340.8065718129234
 30
0.0
  0
LWPOLYLINE
  5
C2
330
1F
100
AcDbEntity
  8
0
  6
Continuous
 62
     8
370
    18
100
AcDbPolyline
 90
        9
 70
   128
 43
0.0
 10
167.0271084412
 20
365.416399006
 10
167.0271626747
 20
365.4018327204
 10
167.0272155963
 20
365.3609098829
 10
167.027265752
 20
365.2947548915
 10
167.0273117636
 20
365.2051854243
 10
167.027352367
 20
365.0946624966
 10
167.0273864465
 20
364.9662228422
 10
167.0274130657
 20
364.8233954757
 10
167.0274314934
 20
364.6701047293
  0
SPLINE
  5
C3
330
1F
100
AcDbEntity
  8
0
  6
Continuous
 62
     8
370
    18
100
AcDbSpline
210
0.0
220
0.0
230
1.0
 70
     8
 71
     3
 72
    22
 73
    18
 74
     0
 42
0.00000001
 43
0.00000001
 40
0.0
 40
0.0
 40
0.0
 40
0.0
 40
0.125
 40
0.125
 40
0.2499999999999999
 40
0.2499999999999999
 40
0.3749999999999999
 40
0.3749999999999999
 40
0.5
 40
0.5
 40
0.6250000000000001
 40
0.6250000000000001
 40
0.75
 40
0.75
 40
0.875
 40
0.875
 40
1.0
 40
1.0
 40
1.0
 40
1.0
 10
167.0272727284017
 20
365.416399007014
 30
0.0
 10
168.6387312560771
 20
365.4164049884298
 30
0.0
 10
170.2501518726099
 20
365.2579555167596
 30
0.0
 10
173.4113447653687
 20
364.6301992836595
 30
0.0
 10
174.9610393714159
 20
364.1609079443026
 30
0.0
 10
177.9394108135022
 20
362.9294297429644
 30
0.0
 10
179.3680144709339
 20
362.1672731364745
 30
0.0
 10
182.049470342095
 20
360.3792462785682
 30
0.0
 10
183.3022566720818
 20
359.3534199570823
 30
0.0
 10
185.5840766863894
 20
357.0773377981244
 30
0.0
 10
186.613054305684
 20
355.8271378822079
 30
0.0
 10
188.4078269847901
 20
353.1501900616998
 30
0.0
 10
189.1735779460191
 20
351.7235079281028
 30
0.0
 10
190.4125491595751
 20
348.7482403977273
 30
0.0
 10
190.8857389690912
 20
347.1997281018855
 30
0.0
 10
191.5214457671511
 20
344.0401148859957
 30
0.0
 10
191.6839471348694
 20
342.4290915965329
 30
0.0
 10
191.6879915551634
 20
340.8176301804936
 30
0.0
  0
LINE
  5
C4
330
1F
100
AcDbEntity
  8
0
  6
Continuous
 62
     8
370
    18
100
AcDbLine
 10
191.6771360527
 20
337.9144009475
 30
0.0
 11
191.7190362225
 21
340.6092856817
 31
0.0
  0
SPLINE
  5
C5
330
1F
100
AcDbEntity
  8
0
  6
Continuous
 62
     8
370
    18
100
AcDbSpline
210
0.0
220
0.0
230
1.0
 70
     8
 71
     3
 72
    12
 73
     8
 74
     0
 42
0.00000001
 43
0.00000001
 40
0.0
 40
0.0
 40
0.0
 40
0.0
 40
0.2051337860431248
 40
0.4076306900546861
 40
0.6075593083221628
 40
0.8049910100044799
 40
1.0
 40
1.0
 40
1.0
 40
1.0
 10
191.6879925832012
 20
340.8176277675151
 30
0.0
 10
191.6901551251433
 20
340.8115177507132
 30
0.0
 10
191.6944524107399
 20
340.7993762580161
 30
0.0
 10
191.7008561326782
 20
340.7675135230141
 30
0.0
 10
191.7071239909599
 20
340.7254504828663
 30
0.0
 10
191.7132297336755
 20
340.673318322382
 30
0.0
 10
191.7171109312255
 20
340.6290709336604
 30
0.0
 10
191.7190395498174
 20
340.6070838187472
 30
0.0
  0
LINE
  5
C6
330
1F
100
AcDbEntity
  8
0
  6
Continuous
 62
     8
370
    18
100
AcDbLine
 10
142.3774094052
 20
337.9144009465
 30
0.0
 11
142.3355092353
 21
340.6092856806
 31
0.0
  0
SPLINE
  5
C7
330
1F
100
AcDbEntity
  8
0
  6
Continuous
 62
     8
370
    18
100
AcDbSpline
210
0.0
220
0.0
230
1.0
 70
     8
 71
     3
 72
     8
 73
     4
 74
     0
 42
0.00000001
 43
0.00000001
 40
0.0710343064154336
 40
0.0710343064154336
 40
0.0710343064154336
 40
0.0710343064154336
 40
0.0720501795059847
 40
0.0720501795059847
 40
0.0720501795059847
 40
0.0720501795059847
 10
142.3355092353082
 20
340.609285680647
 30
0.0
 10
142.3356828212846
 20
340.6113221834675
 30
0.0
 10
142.335856738245
 20
340.6133395713659
 30
0.0
 10
142.3360309677111
 20
340.6153378211692
 30
0.0
  0
SPLINE
  5
C8
330
1F
100
AcDbEntity
  8
0
  6
Continuous
 62
     8
370
    18
100
AcDbSpline
210
0.0
220
0.0
230
1.0
 70
     8
 71
     3
 72
    65
 73
    61
 74
     0
 42
0.00000001
 43
0.00000001
 40
0.0
 40
0.0
 40
0.0
 40
0.0
 40
0.0312500000000001
 40
0.0312500000000001
 40
0.0468750000000001
 40
0.0468750000000001
 40
0.0625000000000001
 40
0.0625000000000001
 40
0.1250000000000001
 40
0.1250000000000001
 40
0.140625
 40
0.140625
 40
0.1562499999999999
 40
0.1562499999999999
 40
0.1874999999999999
 40
0.1874999999999999
 40
0.2499999999999999
 40
0.2499999999999999
 40
0.28125
 40
0.28125
 40
0.3125
 40
0.3125
 40
0.3437500000000001
 40
0.3437500000000001
 40
0.3750000000000001
 40
0.3750000000000001
 40
0.4375000000000001
 40
0.4375000000000001
 40
0.4687500000000002
 40
0.4687500000000002
 40
0.5000000000000001
 40
0.5000000000000001
 40
0.5625000000000002
 40
0.5625000000000002
 40
0.5937500000000002
 40
0.5937500000000002
 40
0.6250000000000001
 40
0.6250000000000001
 40
0.6875000000000001
 40
0.6875000000000001
 40
0.7031250000000001
 40
0.7031250000000001
 40
0.71875
 40
0.71875
 40
0.7499999999999999
 40
0.7499999999999999
 40
0.8124999999999999
 40
0.8124999999999999
 40
0.8281249999999999
 40
0.8281249999999999
 40
0.84375
 40
0.84375
 40
0.875
 40
0.9062500000000001
 40
0.9062500000000001
 40
0.9218750000000002
 40
0.9218750000000002
 40
0.9375000000000002
 40
0.9375000000000002
 40
1.0
 40
1.0
 40
1.0
 40
1.0
 10
191.7190395498174
 20
340.6070838187479
 30
0.0
 10
191.7238905081588
 20
341.4150319878903
 30
0.0
 10
191.6891962543736
 20
342.2250511212561
 30
0.0
 10
191.5761308976843
 20
343.4432716042398
 30
0.0
 10
191.5281005254192
 20
343.8505953239199
 30
0.0
 10
191.41258915078
 20
344.6575652796632
 30
0.0
 10
191.3450543393054
 20
345.0581879772906
 30
0.0
 10
190.9593355402654
 20
347.0472374427437
 30
0.0
 10
190.4983950403319
 20
348.5938746831685
 30
0.0
 10
189.7312175016296
 20
350.4712393700659
 30
0.0
 10
189.5681456241483
 20
350.8438905072381
 30
0.0
 10
189.2223585811826
 20
351.5834404344034
 30
0.0
 10
189.0396293670629
 20
351.9501946426921
 30
0.0
 10
188.4680980490183
 20
353.0295648370179
 30
0.0
 10
188.0541245846223
 20
353.725530548588
 30
0.0
 10
186.7158224983361
 20
355.7443607908164
 30
0.0
 10
185.6960583856331
 20
356.998833632798
 30
0.0
 10
183.9678767877066
 20
358.7383157041173
 30
0.0
 10
183.3649501033668
 20
359.2874557748665
 30
0.0
 10
182.1162369470528
 20
360.3176330324011
 30
0.0
 10
181.4689979205044
 20
360.800133919093
 30
0.0
 10
180.1291227761182
 20
361.7005142590191
 30
0.0
 10
179.4364881449193
 20
362.1183957034855
 30
0.0
 10
178.0048536876711
 20
362.8882003665382
 30
0.0
 10
177.2623224777754
 20
363.2412527820948
 30
0.0
 10
175.01009948429
 20
364.1782738860296
 30
0.0
 10
173.4651269143911
 20
364.6487273491408
 30
0.0
 10
171.0831210813416
 20
365.1259236789548
 30
0.0
 10
170.2772947532861
 20
365.2467331547545
 30
0.0
 10
168.647275963433
 20
365.4082816376589
 30
0.0
 10
167.8300016829513
 20
365.4484184422765
 30
0.0
 10
165.3724397004917
 20
365.4467801932695
 30
0.0
 10
163.7617234788429
 20
365.2842415547583
 30
0.0
 10
161.3853989109091
 20
364.8081920187379
 30
0.0
 10
160.5999646983817
 20
364.6105115205913
 30
0.0
 10
159.0427419899718
 20
364.1353448346073
 30
0.0
 10
158.2693875524288
 20
363.8566952797918
 30
0.0
 10
156.0207297395524
 20
362.9184795867615
 30
0.0
 10
154.5991253459109
 20
362.1533426760341
 30
0.0
 10
152.9181551005369
 20
361.0236151955744
 30
0.0
 10
152.5868067473042
 20
360.788925572319
 30
0.0
 10
151.93395997825
 20
360.3017674454367
 30
0.0
 10
151.6115900525145
 20
360.0485512853364
 30
0.0
 10
150.6678494814228
 20
359.2685614523542
 30
0.0
 10
150.06915739946
 20
358.7213812589156
 30
0.0
 10
148.3617388624577
 20
357.0007045541078
 30
0.0
 10
147.3408181256014
 20
355.7488303015728
 30
0.0
 10
146.2153601655154
 20
354.0494339496689
 30
0.0
 10
145.9974824292723
 20
353.702021747012
 30
0.0
 10
145.5816167907261
 20
353.0008540734514
 30
0.0
 10
145.383101184475
 20
352.6463763273954
 30
0.0
 10
144.8153119967933
 20
351.5714655542338
 30
0.0
 10
144.132148754526
 20
350.1076985973684
 30
0.0
 10
143.5948243854476
 20
348.5836312034642
 30
0.0
 10
143.2473899825014
 20
347.4176111190882
 30
0.0
 10
143.1408548726006
 20
347.0251026741034
 30
0.0
 10
142.946692632607
 20
346.2322693207523
 30
0.0
 10
142.8591166165158
 20
345.8318259086254
 30
0.0
 10
142.4734445474317
 20
343.8324033573282
 30
0.0
 10
142.3257975918618
 20
342.2240460038195
 30
0.0
 10
142.335505908011
 20
340.6070838177297
 30
0.0
  0
SPLINE
  5
C9
330
1F
100
AcDbEntity
  8
0
  6
Continuous
 62
     8
370
    18
100
AcDbSpline
210
0.0
220
0.0
230
1.0
 70
     8
 71
     3
 72
    12
 73
     8
 74
     0
 42
0.00000001
 43
0.00000001
 40
0.0
 40
0.0
 40
0.0
 40
0.0
 40
0.2870126890017863
 40
0.5317193483840958
 40
0.7688203761572802
 40
0.9986799692688711
 40
1.0
 40
1.0
 40
1.0
 40
1.0
 10
191.7190395498174
 20
340.6070838187472
 30
0.0
 10
191.7267271125392
 20
340.4826801080382
 30
0.0
 10
191.7409690816149
 20
340.252209949298
 30
0.0
 10
191.7503005114938
 20
339.6581249764106
 30
0.0
 10
191.716928203831
 20
338.8798662562981
 30
0.0
 10
191.7041449511877
 20
338.3222795487104
 30
0.0
 10
191.650564347787
 20
337.9260934749229
 30
0.0
 10
191.6502584036822
 20
337.9238312608749
 30
0.0
  0
SPLINE
  5
CA
330
1F
100
AcDbEntity
  8
0
  6
Continuous
 62
     8
370
    18
100
AcDbSpline
210
0.0
220
0.0
230
1.0
 70
     8
 71
     3
 72
    11
 73
     7
 74
     0
 42
0.00000001
 43
0.00000001
 40
0.0
 40
0.0
 40
0.0
 40
0.0
 40
0.3154942486891906
 40
0.5841094690962798
 40
0.8442402940285477
 40
1.0
 40
1.0
 40
1.0
 40
1.0
 10
142.335505908011
 20
340.6070838177291
 30
0.0
 10
142.3273288939594
 20
340.4835670333666
 30
0.0
 10
142.3121898815803
 20
340.2548867210051
 30
0.0
 10
142.3086142248209
 20
339.6425350614784
 30
0.0
 10
142.3205278697185
 20
339.0082522317561
 30
0.0
 10
142.3623608341628
 20
338.4777520971655
 30
0.0
 10
142.3780281546656
 20
338.2790686965069
 30
0.0
  0
CIRCLE
  5
CB
330
1F
100
AcDbEntity
  8
0
  6
Continuous
 62
     8
370
    18
100
AcDbCircle
 10
167.0272727244
 20
408.7424466368
 30
0.0
 40
10.77434613606391
  0
CIRCLE
  5
CC
330
1F
100
AcDbEntity
  8
0
  6
Continuous
 62
     8
370
    18
100
AcDbCircle
 10
167.0272727244
 20
408.7424466368
 30
0.0
 40
11.25844862367728
  0
ARC
  5
CD
330
1F
100
AcDbEntity
  8
0
  6
Continuous
 62
     8
370
    18
100
AcDbCircle
 10
167.0272727273
 20
370.8424466368
 30
0.0
 40
73.35275294427505
100
AcDbArc
 50
288.5789300193
 51
251.4108067899
  0
ARC
  5
CE
330
1F
100
AcDbEntity
  8
0
  6
Continuous
 62
     8
370
    18
100
AcDbCircle
 10
167.0272727273
 20
370.8424466368
 30
0.0
 40
74.34193130454267
100
AcDbArc
 50
288.2696194005
 51
251.7372597053
  0
LINE
  5
CF
330
1F
100
AcDbEntity
  8
0
  6
Continuous
 62
     7
370
    25
100
AcDbLine
 10
328.6064171477
 20
296.3424466368
 30
0.0
 11
334.6428170903
 21
296.5005153323
 31
0.0
  0
LINE
  5
D0
330
1F
100
AcDbEntity
  8
0
  6
Continuous
 62
     7
370
    25
100
AcDbLine
 10
334.6428170903
 20
445.1843779413
 30
0.0
 11
328.6064171477
 21
445.3424466368
 31
0.0
  0
ARC
  5
D1
330
1F
100
AcDbEntity
  8
0
  6
Continuous
 62
     7
370
    25
100
AcDbCircle
 10
334.616640142
 20
444.1847206164
 30
0.0
 40
0.999999999999589
100
AcDbArc
 50
0.6004114401
 51
88.5
  0
ARC
  5
D2
330
1F
100
AcDbEntity
  8
0
  6
Continuous
 62
     7
370
    25
100
AcDbCircle
 10
334.616640142
 20
297.5001726572
 30
0.0
 40
0.999999999999589
100
AcDbArc
 50
271.5
 51
359.3995885599
  0
ARC
  5
D3
330
1F
100
AcDbEntity
  8
0
  6
Continuous
 62
     7
370
    25
100
AcDbCircle
 10
-6663.999073758
 20
370.8424466368
 30
0.0
 40
7000.000000000001
100
AcDbArc
 50
0.4032799674
 51
0.6004114401
  0
ARC
  5
D4
330
1F
100
AcDbEntity
  8
0
  6
Continuous
 62
     7
370
    25
100
AcDbCircle
 10
-6663.999073758
 20
370.8424466368
 30
0.0
 40
7000.000000000001
100
AcDbArc
 50
359.9534995239
 51
0.2171566936
  0
ARC
  5
D5
330
1F
100
AcDbEntity
  8
0
  6
Continuous
 62
     7
370
    25
100
AcDbCircle
 10
-6663.999073758
 20
370.8424466368
 30
0.0
 40
7000.000000000001
100
AcDbArc
 50
359.3995885599
 51
359.5531778236
  0
LINE
  5
D6
330
1F
100
AcDbEntity
  8
0
  6
Continuous
 62
     7
370
    25
100
AcDbLine
 10
369.6609583031
 20
315.6547557997
 30
0.0
 11
376.1607112762
 21
315.7435968333
 31
0.0
  0
LINE
  5
D7
330
1F
100
AcDbEntity
  8
0
  6
Continuous
 62
     7
370
    25
100
AcDbLine
 10
397.485745461
 20
365.447877845
 30
0.0
 11
378.5686612002
 21
365.5875704597
 31
0.0
  0
LINE
  5
D8
330
1F
100
AcDbEntity
  8
0
  6
Continuous
 62
     7
370
    25
100
AcDbLine
 10
401.7485895016
 20
365.416399007
 30
0.0
 11
397.485745461
 21
365.447877845
 31
0.0
  0
LINE
  5
D9
330
1F
100
AcDbEntity
  8
0
  6
Continuous
 62
     7
370
    25
100
AcDbLine
 10
360.6064171476
 20
365.2424466353
 30
0.0
 11
335.998337175
 21
365.2424466353
 31
0.0
  0
LINE
  5
DA
330
1F
100
AcDbEntity
  8
0
  6
Continuous
 62
     7
370
    25
100
AcDbLine
 10
335.7880301053
 20
316.2424466353
 30
0.0
 11
360.6064171476
 21
316.2424466353
 31
0.0
  0
ARC
  5
DB
330
1F
100
AcDbEntity
  8
0
  6
Continuous
 62
     7
370
    25
100
AcDbCircle
 10
360.6064171476
 20
340.7424466353
 30
0.0
 40
24.50000000000001
100
AcDbArc
 50
49.9444761358
 51
90.0
  0
ARC
  5
DC
330
1F
100
AcDbEntity
  8
0
  6
Continuous
 62
     7
370
    25
100
AcDbCircle
 10
360.6064171476
 20
340.7424466353
 30
0.0
 40
24.50000000000006
100
AcDbArc
 50
270.0
 51
291.67095481
  0
SPLINE
  5
DD
330
1F
100
AcDbEntity
  8
0
  6
Continuous
 62
     7
370
    25
100
AcDbSpline
210
0.0
220
0.0
230
1.0
 70
     8
 71
     3
 72
    17
 73
    13
 74
     0
 42
0.00000001
 43
0.00000001
 40
0.0
 40
0.0
 40
0.0
 40
0.0
 40
0.0159490652845147
 40
0.0578401685150671
 40
0.2272229366510712
 40
0.3856445983217484
 40
0.527355898791185
 40
0.6508245715487426
 40
0.770672548007668
 40
0.8674873799783521
 40
0.9433205503502108
 40
0.9999999999999999
 40
0.9999999999999999
 40
0.9999999999999999
 40
0.9999999999999999
 10
403.1173293275205
 20
252.8342771054087
 30
0.0
 10
403.1398951452612
 20
252.9345982234266
 30
0.0
 10
403.2217313329951
 20
253.2984183137117
 30
0.0
 10
403.5222672238967
 20
254.8056524669706
 30
0.0
 10
403.8745263417327
 20
257.272595008478
 30
0.0
 10
404.121269271322
 20
260.4342963266583
 30
0.0
 10
404.2730002713547
 20
263.2867087527521
 30
0.0
 10
404.3798037733018
 20
265.8748356377863
 30
0.0
 10
404.4561174828623
 20
268.1556282262515
 30
0.0
 10
404.5138022528375
 20
270.083050628087
 30
0.0
 10
404.5554432375034
 20
271.5815511725287
 30
0.0
 10
404.5736638305149
 20
272.3333845606501
 30
0.0
 10
404.5814573009332
 20
272.654965272435
 30
0.0
  0
SPLINE
  5
DE
330
1F
100
AcDbEntity
  8
0
  6
Continuous
 62
     7
370
    25
100
AcDbSpline
210
0.0
220
0.0
230
1.0
 70
     8
 71
     3
 72
    14
 73
    10
 74
     0
 42
0.00000001
 43
0.00000001
 40
0.0
 40
0.0
 40
0.0
 40
0.0
 40
0.2109470606466782
 40
0.3800725004772502
 40
0.5325847775166169
 40
0.6638656593502517
 40
0.7499023326812034
 40
0.83174466703721
 40
1.0
 40
1.0
 40
1.0
 40
1.0
 10
396.4498487415209
 20
274.2233931082506
 30
0.0
 10
396.4724155040152
 20
273.375736821233
 30
0.0
 10
396.5130750222023
 20
271.848477595319
 30
0.0
 10
396.5796179598049
 20
269.7691276788964
 30
0.0
 10
396.6433152285155
 20
267.9703891804628
 30
0.0
 10
396.7031142592944
 20
266.4529419062072
 30
0.0
 10
396.7569299194753
 20
265.2086694942353
 30
0.0
 10
396.8163537457507
 20
263.9348634681589
 30
0.0
 10
396.8579797493144
 20
263.2205695727273
 30
0.0
 10
396.8859839972732
 20
262.7400222789537
 30
0.0
  0
LINE
  5
DF
330
1F
100
AcDbEntity
  8
0
  6
Continuous
 62
     7
370
    25
100
AcDbLine
 10
399.9916035412
 20
254.0101534264
 30
0.0
 11
400.1327652274
 21
253.8786219325
 31
0.0
  0
ARC
  5
E0
330
1F
100
AcDbEntity
  8
0
  6
Continuous
 62
     7
370
    25
100
AcDbCircle
 10
416.7879480729
 20
272.5208245677
 30
0.0
 40
25.0
100
AcDbArc
 50
228.2250049942
 51
233.7045525836
  0
SPLINE
  5
E1
330
1F
100
AcDbEntity
  8
0
  6
Continuous
 62
     7
370
    25
100
AcDbSpline
210
0.0
220
0.0
230
1.0
 70
     8
 71
     3
 72
    11
 73
     7
 74
     0
 42
0.00000001
 43
0.00000001
 40
0.0
 40
0.0
 40
0.0
 40
0.0
 40
0.2415296538417726
 40
0.4941461464805614
 40
0.7502608232490603
 40
1.0
 40
1.0
 40
1.0
 40
1.0
 10
401.9888683432534
 20
252.3798282014919
 30
0.0
 10
402.0677865922793
 20
252.3323872495351
 30
0.0
 10
402.2292456430537
 20
252.2353276826376
 30
0.0
 10
402.555135109093
 20
252.2241317694405
 30
0.0
 10
402.8660155044007
 20
252.356767761363
 30
0.0
 10
402.9853598636981
 20
252.525311646168
 30
0.0
 10
403.0442799684546
 20
252.6085214719798
 30
0.0
  0
LINE
  5
E2
330
1F
100
AcDbEntity
  8
0
  6
Continuous
 62
     7
370
    25
100
AcDbLine
 10
335.9511819136
 20
397.3394611489
 30
0.0
 11
344.2316933215
 21
397.4839980132
 31
0.0
  0
LINE
  5
E3
330
1F
100
AcDbEntity
  8
0
  6
Continuous
 62
     7
370
    25
100
AcDbLine
 10
344.2316933215
 20
420.0008952605
 30
0.0
 11
335.8280940223
 21
420.1475806319
 31
0.0
  0
ARC
  5
E4
330
1F
100
AcDbEntity
  8
0
  6
Continuous
 62
     7
370
    25
100
AcDbCircle
 10
344.2229671183
 20
397.9839218607
 30
0.0
 40
0.5000000000000058
100
AcDbArc
 50
271.0
 51
358.1867030123
  0
ARC
  5
E5
330
1F
100
AcDbEntity
  8
0
  6
Continuous
 62
     7
370
    25
100
AcDbCircle
 10
344.2229671183
 20
419.5009714129
 30
0.0
 40
0.5000000000000058
100
AcDbArc
 50
1.8132969877
 51
89.0
  0
ARC
  5
E6
330
1F
100
AcDbEntity
  8
0
  6
Continuous
 62
     7
370
    25
100
AcDbCircle
 10
4.3932242401
 20
408.7424466368
 30
0.0
 40
340.5000000000001
100
AcDbArc
 50
359.9998039195
 51
1.8132969877
  0
ARC
  5
E7
330
1F
100
AcDbEntity
  8
0
  6
Continuous
 62
     7
370
    25
100
AcDbCircle
 10
4.3932242401
 20
408.7424466368
 30
0.0
 40
340.5000000000001
100
AcDbArc
 50
358.1867030123
 51
359.9998039195
  0
LINE
  5
E8
330
1F
100
AcDbEntity
  8
0
  6
Continuous
 62
     7
370
    25
100
AcDbLine
 10
376.1606844076
 20
315.752149339
 30
0.0
 11
376.1607691475
 21
315.7251758716
 31
0.0
  0
LINE
  5
E9
330
1F
100
AcDbEntity
  8
0
  6
Continuous
 62
     7
370
    25
100
AcDbLine
 10
376.1607691475
 20
315.7251758716
 30
0.0
 11
376.3812361079
 21
315.1253181577
 31
0.0
  0
LINE
  5
EA
330
1F
100
AcDbEntity
  8
0
  6
Continuous
 62
     7
370
    25
100
AcDbLine
 10
383.944036053
 20
315.1490774726
 30
0.0
 11
384.048852964
 21
315.4398990838
 31
0.0
  0
ARC
  5
EB
330
1F
100
AcDbEntity
  8
0
  6
Continuous
 62
     7
370
    25
100
AcDbCircle
 10
383.755883559
 20
315.2168907384
 30
0.0
 40
0.1999999999999814
100
AcDbArc
 50
270.18
 51
340.18
  0
ARC
  5
EC
330
1F
100
AcDbEntity
  8
0
  6
Continuous
 62
     7
370
    25
100
AcDbCircle
 10
376.5689588074
 20
315.1943122741
 30
0.0
 40
0.1999999999999858
100
AcDbArc
 50
200.18
 51
270.18
  0
LINE
  5
ED
330
1F
100
AcDbEntity
  8
0
  6
Continuous
 62
     7
370
    25
100
AcDbLine
 10
376.5695871249
 20
314.9943132611
 30
0.0
 11
383.7565118765
 21
315.0168917254
 31
0.0
  0
LINE
  5
EE
330
1F
100
AcDbEntity
  8
0
  6
Continuous
 62
     7
370
    25
100
AcDbLine
 10
376.5695871249
 20
314.9943132611
 30
0.0
 11
383.7565118765
 21
315.0168917254
 31
0.0
  0
LINE
  5
EF
330
1F
100
AcDbEntity
  8
0
  6
Continuous
 62
     7
370
    25
100
AcDbLine
 10
399.9916035197
 20
254.0101534463
 30
0.0
 11
400.1113400638
 21
253.8985854498
 31
0.0
  0
LINE
  5
F0
330
1F
100
AcDbEntity
  8
0
  6
Continuous
 62
     7
370
    25
100
AcDbLine
 10
404.5570082894
 20
271.6693579214
 30
0.0
 11
404.5814572999
 21
272.6549652254
 31
0.0
  0
LINE
  5
F1
330
1F
100
AcDbEntity
  8
0
  6
Continuous
 62
     7
370
    25
100
AcDbLine
 10
328.6064171477
 20
445.3424466368
 30
0.0
 11
328.6064171477
 21
296.3424466368
 31
0.0
  0
SPLINE
  5
F2
330
1F
100
AcDbEntity
  8
0
  6
Continuous
 62
     7
370
    25
100
AcDbSpline
210
0.0
220
0.0
230
1.0
 70
     8
 71
     3
 72
    21
 73
    17
 74
     0
 42
0.00000001
 43
0.00000001
 40
0.0
 40
0.0
 40
0.0
 40
0.0
 40
0.0705703797870622
 40
0.1431873171588972
 40
0.2137576928763039
 40
0.2863745939675216
 40
0.3569453254741151
 40
0.429562603625655
 40
0.5001334786992555
 40
0.5727509283853186
 40
0.643321528449486
 40
0.7159387126207424
 40
0.7865087396183391
 40
0.8591253375822988
 40
0.9296947446162952
 40
1.0
 40
1.0
 40
1.0
 40
1.0
 10
335.9678283942837
 20
358.0662211733197
 30
0.0
 10
335.9635007830744
 20
357.0598052133356
 30
0.0
 10
335.9547200589143
 20
355.017786994207
 30
0.0
 10
335.9393145215703
 20
351.4351314485609
 30
0.0
 10
335.9226098793134
 20
347.5503695122984
 30
0.0
 10
335.9051887027815
 20
343.4989833699105
 30
0.0
 10
335.8872817654903
 20
339.3346416146667
 30
0.0
 10
335.869704524022
 20
335.2469826213335
 30
0.0
 10
335.852641743841
 20
331.2789735991836
 30
0.0
 10
335.8368829436999
 20
327.6142183643948
 30
0.0
 10
335.8225893053862
 20
324.2901980066271
 30
0.0
 10
335.8104283406732
 20
321.4621414867943
 30
0.0
 10
335.8005041131428
 20
319.1542463166693
 30
0.0
 10
335.7933554441811
 20
317.4918138249647
 30
0.0
 10
335.788808709621
 20
316.4344655484521
 30
0.0
 10
335.78828951754
 20
316.3137268914569
 30
0.0
 10
335.7880304082635
 20
316.2534707604461
 30
0.0
  0
SPLINE
  5
F3
330
1F
100
AcDbEntity
  8
0
  6
Continuous
 62
     7
370
    25
100
AcDbSpline
210
0.0
220
0.0
230
1.0
 70
     8
 71
     3
 72
    13
 73
     9
 74
     0
 42
0.00000001
 43
0.00000001
 40
0.0
 40
0.0
 40
0.0
 40
0.0
 40
0.0845917795821868
 40
0.3023783510364774
 40
0.5140266792233963
 40
0.7318127777888698
 40
0.8651620595767975
 40
1.0
 40
1.0
 40
1.0
 40
1.0
 10
335.9983370773899
 20
365.1612456716954
 30
0.0
 10
335.9984239691066
 20
365.181453040348
 30
0.0
 10
335.9987345687197
 20
365.2536854823433
 30
0.0
 10
335.9961394641238
 20
364.6501729939364
 30
0.0
 10
335.9906457410358
 20
363.3725641684755
 30
0.0
 10
335.9832590272305
 20
361.6547271362982
 30
0.0
 10
335.9754454139319
 20
359.8376133122615
 30
0.0
 10
335.9703767791905
 20
358.6588662234092
 30
0.0
 10
335.9678283942837
 20
358.0662211733197
 30
0.0
  0
SPLINE
  5
F4
330
1F
100
AcDbEntity
  8
0
  6
Continuous
 62
     7
370
    25
100
AcDbSpline
210
0.0
220
0.0
230
1.0
 70
     8
 71
     3
 72
    12
 73
     8
 74
     0
 42
0.00000001
 43
0.00000001
 40
0.0
 40
0.0
 40
0.0
 40
0.0
 40
0.2121553078231825
 40
0.4304630797905221
 40
0.6426184069886642
 40
0.8609263515728791
 40
1.0
 40
1.0
 40
1.0
 40
1.0
 10
335.8452964757955
 20
416.8204449759538
 30
0.0
 10
335.8429983288294
 20
417.2448831963499
 30
0.0
 10
335.8383353890662
 20
418.1060682659441
 30
0.0
 10
335.8331137763226
 20
419.0704318703382
 30
0.0
 10
335.829417899467
 20
419.7530116697715
 30
0.0
 10
335.827457433014
 20
420.1150838361545
 30
0.0
 10
335.8274693475084
 20
420.1128833865524
 30
0.0
 10
335.8274739839871
 20
420.1120270902005
 30
0.0
  0
SPLINE
  5
F5
330
1F
100
AcDbEntity
  8
0
  6
Continuous
 62
     7
370
    25
100
AcDbSpline
210
0.0
220
0.0
230
1.0
 70
     8
 71
     3
 72
    21
 73
    17
 74
     0
 42
0.00000001
 43
0.00000001
 40
0.0
 40
0.0
 40
0.0
 40
0.0
 40
0.052158821254816
 40
0.1226839808456735
 40
0.1952543632020411
 40
0.2657797621856566
 40
0.3383503584748842
 40
0.408876556193982
 40
0.4814479612806082
 40
0.5519751670499414
 40
0.6245476213611896
 40
0.6950756027277846
 40
0.7676488868809829
 40
0.8381770714666978
 40
0.9107506023820612
 40
1.0
 40
1.0
 40
1.0
 40
1.0
 10
335.9505941363585
 20
397.3731673995006
 30
0.0
 10
335.9505768748436
 20
397.3763554293571
 30
0.0
 10
335.9505362736315
 20
397.3838540687905
 30
0.0
 10
335.9484241568366
 20
397.7739408734514
 30
0.0
 10
335.9446640901801
 20
398.4683871980305
 30
0.0
 10
335.9392203916373
 20
399.4737826581106
 30
0.0
 10
335.9324240342444
 20
400.7289992692565
 30
0.0
 10
335.9243238758393
 20
402.225012773569
 30
0.0
 10
335.9153005389881
 20
403.891525508591
 30
0.0
 10
335.9054456843722
 20
405.7116081006453
 30
0.0
 10
335.8952153420668
 20
407.6010363787524
 30
0.0
 10
335.8847172375123
 20
409.5399144094792
 30
0.0
 10
335.8744287022028
 20
411.440084585846
 30
0.0
 10
335.8644886340783
 20
413.2758943242115
 30
0.0
 10
335.8544241016362
 20
415.1346886175539
 30
0.0
 10
335.8485410990499
 20
416.221204343487
 30
0.0
 10
335.8452964757954
 20
416.8204449759538
 30
0.0
  0
LINE
  5
F6
330
1F
100
AcDbEntity
  8
0
  6
Continuous
 62
     7
370
    25
100
AcDbLine
 10
369.5934975487
 20
337.1281102178
 30
0.0
 11
369.6609583031
 21
315.6547557997
 31
0.0
  0
SPLINE
  5
F7
330
1F
100
AcDbEntity
  8
0
  6
Continuous
 62
     7
370
    25
100
AcDbSpline
210
0.0
220
0.0
230
1.0
 70
     8
 71
     3
 72
    12
 73
     8
 74
     0
 42
0.00000001
 43
0.00000001
 40
0.0
 40
0.0
 40
0.0
 40
0.0
 40
0.5000000000000008
 40
0.5000000000000008
 40
0.7500000000000003
 40
0.7500000000000003
 40
1.0
 40
1.0
 40
1.0
 40
1.0
 10
370.7781494568148
 20
343.9722685464431
 30
0.0
 10
370.3829156691592
 20
342.8756656623502
 30
0.0
 10
370.0866870986661
 20
341.7555307970624
 30
0.0
 10
369.7888772807407
 20
340.0401074532165
 30
0.0
 10
369.7141693449365
 20
339.4623975606984
 30
0.0
 10
369.6152904437396
 20
338.2947810563419
 30
0.0
 10
369.5916684684316
 20
337.7103226254244
 30
0.0
 10
369.5934975486717
 20
337.1281102177805
 30
0.0
  0
LINE
  5
F8
330
1F
100
AcDbEntity
  8
0
  6
Continuous
 62
     7
370
    25
100
AcDbLine
 10
370.7781494568
 20
343.9722685464
 30
0.0
 11
378.5686612002
 21
365.5875704597
 31
0.0
  0
SPLINE
  5
F9
330
1F
100
AcDbEntity
  8
0
  6
Continuous
 62
     7
370
    25
100
AcDbSpline
210
0.0
220
0.0
230
1.0
 70
     8
 71
     3
 72
    13
 73
     9
 74
     0
 42
0.00000001
 43
0.00000001
 40
0.0
 40
0.0
 40
0.0
 40
0.0
 40
0.145922710236161
 40
0.3541197484155268
 40
0.505483821717113
 40
0.7165049939303961
 40
0.9276017195074777
 40
1.0
 40
1.0
 40
1.0
 40
1.0
 10
380.2607198764892
 20
316.1229788779707
 30
0.0
 10
379.9497368891384
 20
316.1164376068512
 30
0.0
 10
379.1950550643287
 20
316.1005634959647
 30
0.0
 10
378.1784338504526
 20
316.0208934542188
 30
0.0
 10
377.2131678823135
 20
315.9098431028434
 30
0.0
 10
376.5145827149691
 20
315.8051704713418
 30
0.0
 10
376.1435600308834
 20
315.7406477864663
 30
0.0
 10
376.1974837736249
 20
315.7499539861225
 30
0.0
 10
376.2112546908144
 20
315.7523305812604
 30
0.0
  0
SPLINE
  5
FA
330
1F
100
AcDbEntity
  8
0
  6
Continuous
 62
     7
370
    25
100
AcDbSpline
210
0.0
220
0.0
230
1.0
 70
     8
 71
     3
 72
    20
 73
    16
 74
     0
 42
0.00000001
 43
0.00000001
 40
0.4390945062430414
 40
0.4390945062430414
 40
0.4390945062430414
 40
0.4390945062430414
 40
0.4391092342256455
 40
0.5
 40
0.529296875
 40
0.578125
 40
0.625
 40
0.673828125
 40
0.703125
 40
0.7299107142857143
 40
0.75
 40
0.80859375
 40
0.84375
 40
0.892578125
 40
0.9070344154676356
 40
0.9070344154676356
 40
0.9070344154676356
 40
0.9070344154676356
 10
395.9196959387685
 20
296.9317632565871
 30
0.0
 10
395.9196802131364
 20
296.9321251233235
 30
0.0
 10
395.8546414152686
 20
298.4285516923696
 30
0.0
 10
395.711354720065
 20
300.5084857355627
 30
0.0
 10
395.2297824171697
 20
303.3974506204707
 30
0.0
 10
394.6016238907605
 20
305.7499362564077
 30
0.0
 10
393.6177080047763
 20
308.1258515500213
 30
0.0
 10
392.5595575400609
 20
309.8856894955067
 30
0.0
 10
391.5468083260851
 20
311.1654349035184
 30
0.0
 10
390.7519239224156
 20
311.9933161668711
 30
0.0
 10
389.5881058539578
 20
313.0239922749177
 30
0.0
 10
388.225177759498
 20
313.9291705138258
 30
0.0
 10
386.4061237754775
 20
314.7795837429755
 30
0.0
 10
385.0984138769555
 20
315.2011938808523
 30
0.0
 10
384.2444402314464
 20
315.3985592126621
 30
0.0
 10
384.0488529640074
 20
315.4398990838296
 30
0.0
  0
SPLINE
  5
FB
330
1F
100
AcDbEntity
  8
0
  6
Continuous
 62
     7
370
    25
100
AcDbSpline
210
0.0
220
0.0
230
1.0
 70
     8
 71
     3
 72
    10
 73
     6
 74
     0
 42
0.00000001
 43
0.00000001
 40
0.0
 40
0.0
 40
0.0
 40
0.0
 40
0.5
 40
0.5
 40
1.0
 40
1.0
 40
1.0
 40
1.0
 10
383.008087500075
 20
315.7466874273162
 30
0.0
 10
383.342073770151
 20
315.6546261371352
 30
0.0
 10
383.5971206067113
 20
315.5714861040582
 30
0.0
 10
383.9558993962363
 20
315.4614887396889
 30
0.0
 10
384.0488786830841
 20
315.4399704431285
 30
0.0
 10
384.0488529640103
 20
315.4398990838289
 30
0.0
  0
SPLINE
  5
FC
330
1F
100
AcDbEntity
  8
0
  6
Continuous
 62
     7
370
    25
100
AcDbSpline
210
0.0
220
0.0
230
1.0
 70
     8
 71
     3
 72
    14
 73
    10
 74
     0
 42
0.00000001
 43
0.00000001
 40
0.0
 40
0.0
 40
0.0
 40
0.0
 40
0.25
 40
0.25
 40
0.5
 40
0.5
 40
0.75
 40
0.75
 40
1.0
 40
1.0
 40
1.0
 40
1.0
 10
380.2605971850857
 20
316.1227583525881
 30
0.0
 10
380.5208218492214
 20
316.1252816829889
 30
0.0
 10
380.7755898377818
 20
316.1155262571368
 30
0.0
 10
381.2750794905404
 20
316.0777847346278
 30
0.0
 10
381.5223125899747
 20
316.0480608113502
 30
0.0
 10
381.9906135792372
 20
315.9751322741374
 30
0.0
 10
382.2120806110977
 20
315.9322936463688
 30
0.0
 10
382.6311166585768
 20
315.8415260874663
 30
0.0
 10
382.828402937786
 20
315.7935968335205
 30
0.0
 10
383.0080875000752
 20
315.7466874273161
 30
0.0
  0
ARC
  5
FD
330
1F
100
AcDbEntity
  8
0
  6
Continuous
 62
     7
370
    25
100
AcDbCircle
 10
401.7413983934
 20
364.4425773556
 30
0.0
 40
0.9738482015590842
100
AcDbArc
 50
13.5113164979
 51
89.5769077917
  0
SPLINE
  5
FE
330
1F
100
AcDbEntity
  8
0
  6
Continuous
 62
     7
370
    25
100
AcDbSpline
210
0.0
220
0.0
230
1.0
 70
     8
 71
     3
 72
     9
 73
     5
 74
     0
 42
0.00000001
 43
0.00000001
 40
0.0378814472290426
 40
0.0378814472290426
 40
0.0378814472290426
 40
0.0378814472290426
 40
0.5
 40
1.0
 40
1.0
 40
1.0
 40
1.0
 10
402.6882942264422
 20
364.6701047188212
 30
0.0
 10
403.4194594973854
 20
361.6272303623397
 30
0.0
 10
404.5618222165014
 20
354.5076910279731
 30
0.0
 10
404.9132349920041
 20
345.7551438665907
 30
0.0
 10
404.8822444175769
 20
340.7655304679504
 30
0.0
  0
LINE
  5
FF
330
1F
100
AcDbEntity
  8
0
  6
Continuous
 62
     7
370
    25
100
AcDbLine
 10
403.1129852708
 20
252.7908753716
 30
0.0
 11
403.1641453009
 21
253.0447118719
 31
0.0
  0
SPLINE
  5
100
330
1F
100
AcDbEntity
  8
0
  6
Continuous
 62
     7
370
    25
100
AcDbSpline
210
0.0
220
0.0
230
1.0
 70
     8
 71
     3
 72
    11
 73
     7
 74
     0
 42
0.00000001
 43
0.00000001
 40
0.0
 40
0.0
 40
0.0
 40
0.0
 40
0.155420099024966
 40
0.3240640059757574
 40
0.6617071307416043
 40
1.0
 40
1.0
 40
1.0
 40
1.0
 10
404.4984716610951
 20
269.5990385742069
 30
0.0
 10
404.5829652105722
 20
273.285180754596
 30
0.0
 10
404.7591413827304
 20
280.971097885438
 30
0.0
 10
404.8867280755334
 20
296.6687447576146
 30
0.0
 10
404.9449880706981
 20
316.7047991722218
 30
0.0
 10
404.9031723670867
 20
332.7401487014102
 30
0.0
 10
404.8822444175769
 20
340.7655304679504
 30
0.0
  0
SPLINE
  5
101
330
1F
100
AcDbEntity
  8
0
  6
Continuous
 62
     7
370
    25
100
AcDbSpline
210
0.0
220
0.0
230
1.0
 70
     8
 71
     3
 72
    12
 73
     8
 74
     0
 42
0.00000001
 43
0.00000001
 40
0.0
 40
0.0
 40
0.0
 40
0.0
 40
0.1786313504542418
 40
0.3876635472258234
 40
0.6010923883185827
 40
0.8089249674058651
 40
0.9999999999999999
 40
0.9999999999999999
 40
0.9999999999999999
 40
0.9999999999999999
 10
396.5321909453656
 20
271.2993635744022
 30
0.0
 10
396.4887543721996
 20
272.8254416673448
 30
0.0
 10
396.3944888583914
 20
276.1373174682574
 30
0.0
 10
396.2824973117638
 20
281.2734249422693
 30
0.0
 10
396.1658412223164
 20
286.6590177619902
 30
0.0
 10
396.0687248335207
 20
291.8915771200507
 30
0.0
 10
395.9679612584326
 20
295.2994207806457
 30
0.0
 10
395.9196959387685
 20
296.9317632565871
 30
0.0
  0
SPLINE
  5
102
330
1F
100
AcDbEntity
  8
0
  6
Continuous
 62
     7
370
    25
100
AcDbSpline
210
0.0
220
0.0
230
1.0
 70
     8
 71
     3
 72
    15
 73
    11
 74
     0
 42
0.00000001
 43
0.00000001
 40
0.0
 40
0.0
 40
0.0
 40
0.0
 40
0.1596803118983927
 40
0.3373126008487473
 40
0.4021156126461097
 40
0.474449398958506
 40
0.5493735116100251
 40
0.651859135218783
 40
0.7979470857374332
 40
1.0
 40
1.0
 40
1.0
 40
1.0
 10
399.9971308499784
 20
254.0155505050077
 30
0.0
 10
399.6259722388221
 20
254.3662134353653
 30
0.0
 10
398.8419277002807
 20
255.1069623959224
 30
0.0
 10
398.1521572110896
 20
256.2092250663984
 30
0.0
 10
397.7553598126753
 20
257.1315348365071
 30
0.0
 10
397.532915669958
 20
257.7710011598612
 30
0.0
 10
397.3235856981916
 20
258.5403773028507
 30
0.0
 10
397.1483105354553
 20
259.5586117151747
 30
0.0
 10
397.0019320313191
 20
260.9889431663355
 30
0.0
 10
396.9285703485838
 20
262.0969585223696
 30
0.0
 10
396.8859929229168
 20
262.740025034757
 30
0.0
  0
LINE
  5
103
330
1F
100
AcDbEntity
  8
0
  6
Continuous
 62
     7
370
    25
100
AcDbLine
 10
401.9880054282
 20
252.3918355693
 30
0.0
 11
401.9884686035
 21
252.3719931516
 31
0.0
  0
LWPOLYLINE
  5
104
330
1F
100
AcDbEntity
  8
0
  6
Continuous
 62
     7
370
    25
100
AcDbPolyline
 90
        3
 70
   128
 43
0.0
 10
403.1129852625
 20
252.7908753351
 10
403.0525822094
 20
252.6243108993
 10
403.022772202
 20
252.5715039927
  0
ARC
  5
105
330
1F
100
AcDbEntity
  8
0
  6
Continuous
 62
     7
370
    25
100
AcDbCircle
 10
402.4132959691
 20
252.9503766678
 30
0.0
 40
0.7176390334726459
100
AcDbArc
 50
233.7024171003
 51
280.2240958519
  0
LINE
  5
106
330
1F
100
AcDbEntity
  8
0
  6
Continuous
 62
     7
370
    25
100
AcDbLine
 10
376.1607691475
 20
315.7251758716
 30
0.0
 11
383.0080875001
 21
315.7466874273
 31
0.0
  0
LINE
  5
107
330
1F
100
AcDbEntity
  8
0
  6
Continuous
 62
     8
370
    18
100
AcDbLine
 10
335.6165852361
 20
444.1951995811
 30
0.0
 11
335.6165852361
 21
297.4896936925
 31
0.0
  0
SPLINE
  5
108
330
1F
100
AcDbEntity
  8
0
  6
Continuous
 62
     8
370
    18
100
AcDbSpline
210
0.0
220
0.0
230
1.0
 70
     8
 71
     3
 72
    21
 73
    17
 74
     0
 42
0.00000001
 43
0.00000001
 40
0.0720501795059842
 40
0.0720501795059842
 40
0.0720501795059842
 40
0.0720501795059842
 40
0.1208008169098189
 40
0.1830677501141405
 40
0.2457742046091484
 40
0.3082371069758629
 40
0.3709140131794401
 40
0.4334994637159919
 40
0.4962741118593251
 40
0.5587824454117635
 40
0.6214836440140845
 40
0.6839217430749192
 40
0.74646775605808
 40
0.8071694746345077
 40
0.8712164847256423
 40
0.9230844321559053
 40
0.9230844321559053
 40
0.9230844321559053
 40
0.9230844321559053
 10
380.2605971939248
 20
316.1227609490667
 30
0.0
 10
380.2610608415895
 20
316.2589557253951
 30
0.0
 10
380.2640370933495
 20
316.667328254088
 30
0.0
 10
380.286934437186
 20
317.6476021609651
 30
0.0
 10
380.3631614700068
 20
319.1012327982572
 30
0.0
 10
380.5339722497851
 20
320.9294361994709
 30
0.0
 10
380.8544272455502
 20
323.0904706273919
 30
0.0
 10
381.396124997722
 20
325.5365417704009
 30
0.0
 10
382.2429058290319
 20
328.1829279897896
 30
0.0
 10
383.4880837666055
 20
330.91536254243
 30
0.0
 10
385.2050711694285
 20
333.5626523882519
 30
0.0
 10
387.417405427745
 20
335.9363696316499
 30
0.0
 10
390.0354820642215
 20
337.850670978459
 30
0.0
 10
392.9810561790655
 20
339.282109584812
 30
0.0
 10
395.9377758999919
 20
340.1615735038547
 30
0.0
 10
397.9307000306817
 20
340.5053069236369
 30
0.0
 10
398.8273876689522
 20
340.609285680647
 30
0.0
  0
SPLINE
  5
109
330
1F
100
AcDbEntity
  8
0
  6
Continuous
 62
     8
370
    18
100
AcDbSpline
210
0.0
220
0.0
230
1.0
 70
     8
 71
     3
 72
     8
 73
     4
 74
     0
 42
0.00000001
 43
0.00000001
 40
0.0710343064154336
 40
0.0710343064154336
 40
0.0710343064154336
 40
0.0710343064154336
 40
0.0720501795059847
 40
0.0720501795059847
 40
0.0720501795059847
 40
0.0720501795059847
 10
398.8273876689522
 20
340.609285680647
 30
0.0
 10
398.8449499764558
 20
340.6113221834675
 30
0.0
 10
398.8625141723526
 20
340.6133395713659
 30
0.0
 10
398.8800802147945
 20
340.6153378211692
 30
0.0
  0
SPLINE
  5
10A
330
1F
100
AcDbEntity
  8
0
  6
Continuous
 62
     8
370
    18
100
AcDbSpline
210
0.0
220
0.0
230
1.0
 70
     8
 71
     3
 72
    22
 73
    18
 74
     0
 42
0.00000001
 43
0.00000001
 40
0.0
 40
0.0
 40
0.0
 40
0.0
 40
0.1249999999999999
 40
0.1249999999999999
 40
0.2499999999999998
 40
0.2499999999999998
 40
0.3749999999999998
 40
0.3749999999999998
 40
0.4999999999999998
 40
0.4999999999999998
 40
0.6249999999999998
 40
0.6249999999999998
 40
0.7499999999999998
 40
0.7499999999999998
 40
0.8749999999999999
 40
0.8749999999999999
 40
1.0
 40
1.0
 40
1.0
 40
1.0
 10
401.8064296389422
 20
340.8176301794768
 30
0.0
 10
401.8005051416545
 20
342.444653239222
 30
0.0
 10
401.7956376724773
 20
344.0443221525348
 30
0.0
 10
401.7863571083876
 20
347.1906148343855
 30
0.0
 10
401.7819338181271
 20
348.7535675563329
 30
0.0
 10
401.7736325772951
 20
351.7339332404213
 30
0.0
 10
401.7697890100426
 20
353.1471647626406
 30
0.0
 10
401.7630365703459
 20
355.8211551714627
 30
0.0
 10
401.7601476266589
 20
357.0871173553095
 30
0.0
 10
401.7557741191036
 20
359.355874965979
 30
0.0
 10
401.7542530933187
 20
360.3736195601587
 30
0.0
 10
401.752083982315
 20
362.1704311596004
 30
0.0
 10
401.7514272276464
 20
362.9342239567362
 30
0.0
 10
401.750209579949
 20
364.1595156047478
 30
0.0
 10
401.7495936306277
 20
364.6306321038349
 30
0.0
 10
401.7484832742746
 20
365.2610199279496
 30
0.0
 10
401.7479706660928
 20
365.4164035767527
 30
0.0
 10
401.7485895016319
 20
365.416399007014
 30
0.0
  0
SPLINE
  5
10B
330
1F
100
AcDbEntity
  8
0
  6
Continuous
 62
     8
370
    18
100
AcDbSpline
210
0.0
220
0.0
230
1.0
 70
     8
 71
     3
 72
    10
 73
     6
 74
     0
 42
0.00000001
 43
0.00000001
 40
0.0
 40
0.0
 40
0.0
 40
0.0
 40
0.5
 40
0.5
 40
1.0
 40
1.0
 40
1.0
 40
1.0
 10
401.9211777907093
 20
296.9505947945109
 30
0.0
 10
401.9041997383807
 20
304.2386020313277
 30
0.0
 10
401.8905265867445
 20
311.5376525756262
 30
0.0
 10
401.8505214011327
 20
326.1427603364517
 30
0.0
 10
401.8266150246605
 20
333.4512255179931
 30
0.0
 10
401.8066421236846
 20
340.7572191034411
 30
0.0
  0
LINE
  5
10C
330
1F
100
AcDbEntity
  8
0
  6
Continuous
 62
     8
370
    18
100
AcDbLine
 10
399.9463765884
 20
296.9443414905
 30
0.0
 11
399.946375497
 21
296.9444073683
 31
0.0
  0
SPLINE
  5
10D
330
1F
100
AcDbEntity
  8
0
  6
Continuous
 62
     8
370
    18
100
AcDbSpline
210
0.0
220
0.0
230
1.0
 70
     8
 71
     3
 72
    10
 73
     6
 74
     0
 42
0.00000001
 43
0.00000001
 40
0.0
 40
0.0
 40
0.0
 40
0.0
 40
0.5
 40
0.5
 40
1.0
 40
1.0
 40
1.0
 40
1.0
 10
402.7240119040148
 20
340.7587501577424
 30
0.0
 10
402.747222964514
 20
333.4616987500816
 30
0.0
 10
402.7708828103408
 20
326.163648085604
 30
0.0
 10
402.8178414742633
 20
311.5778066460665
 30
0.0
 10
402.8388671549596
 20
304.2883948788754
 30
0.0
 10
402.8612191936021
 20
297.012290835479
 30
0.0
  0
SPLINE
  5
10E
330
1F
100
AcDbEntity
  8
0
  6
Continuous
 62
     8
370
    18
100
AcDbSpline
210
0.0
220
0.0
230
1.0
 70
     8
 71
     3
 72
     8
 73
     4
 74
     0
 42
0.00000001
 43
0.00000001
 40
0.0
 40
0.0
 40
0.0
 40
0.0
 40
1.0
 40
1.0
 40
1.0
 40
1.0
 10
402.7238287624065
 20
340.8127973167906
 30
0.0
 10
402.7238924841689
 20
340.7947817209743
 30
0.0
 10
402.7239542247843
 20
340.7767660338118
 30
0.0
 10
402.724011899364
 20
340.7587501577278
 30
0.0
  0
SPLINE
  5
10F
330
1F
100
AcDbEntity
  8
0
  6
Continuous
 62
     8
370
    18
100
AcDbSpline
210
0.0
220
0.0
230
1.0
 70
     8
 71
     3
 72
    14
 73
    10
 74
     0
 42
0.00000001
 43
0.00000001
 40
0.0
 40
0.0
 40
0.0
 40
0.0
 40
0.25
 40
0.25
 40
0.5
 40
0.5
 40
0.75
 40
0.75
 40
1.0
 40
1.0
 40
1.0
 40
1.0
 10
401.8065029129552
 20
340.8047620572475
 30
0.0
 10
401.9064966284943
 20
340.8051231835051
 30
0.0
 10
402.0123764200163
 20
340.8054734541624
 30
0.0
 10
402.2182483106567
 20
340.8060756493858
 30
0.0
 10
402.3178603046612
 20
340.8063259244857
 30
0.0
 10
402.4904963324805
 20
340.8066665030619
 30
0.0
 10
402.5631826298412
 20
340.8067561402474
 30
0.0
 10
402.6708623013524
 20
340.806772523579
 30
0.0
 10
402.7059261360166
 20
340.8067003083202
 30
0.0
 10
402.723850782221
 20
340.8065718129234
 30
0.0
  0
SPLINE
  5
110
330
1F
100
AcDbEntity
  8
0
  6
Continuous
 62
     8
370
    18
100
AcDbSpline
210
0.0
220
0.0
230
1.0
 70
     8
 71
     3
 72
    22
 73
    18
 74
     0
 42
0.00000001
 43
0.00000001
 40
0.0
 40
0.0
 40
0.0
 40
0.0
 40
0.125
 40
0.125
 40
0.25
 40
0.25
 40
0.3750000000000001
 40
0.3750000000000001
 40
0.5000000000000001
 40
0.5000000000000001
 40
0.6250000000000002
 40
0.6250000000000002
 40
0.7500000000000001
 40
0.7500000000000001
 40
0.875
 40
0.875
 40
1.0
 40
1.0
 40
1.0
 40
1.0
 10
402.688294226887
 20
364.6701047190269
 30
0.0
 10
402.6877497044471
 20
364.6702045567043
 30
0.0
 10
402.688260252547
 20
364.5195868536503
 30
0.0
 10
402.688994333205
 20
363.9078539134343
 30
0.0
 10
402.6892318712779
 20
363.4505031247065
 30
0.0
 10
402.6891801370398
 20
362.2608190929455
 30
0.0
 10
402.688933328065
 20
361.5191576573744
 30
0.0
 10
402.6887956365057
 20
359.7747353865327
 30
0.0
 10
402.6889362788448
 20
358.7868137175618
 30
0.0
 10
402.6902836948735
 20
356.5852867492677
 30
0.0
 10
402.6915119659182
 20
355.3571893685403
 30
0.0
 10
402.6950716649256
 20
352.7641023089179
 30
0.0
 10
402.6973755963307
 20
351.3940551575532
 30
0.0
 10
402.702956370842
 20
348.505635204825
 30
0.0
 10
402.7062108301656
 20
346.9913208818051
 30
0.0
 10
402.713784136167
 20
343.9436374261531
 30
0.0
 10
402.7180962213603
 20
342.3944407404851
 30
0.0
 10
402.7238126053392
 20
340.8190227597306
 30
0.0
  0
LINE
  5
111
330
1F
100
AcDbEntity
  8
0
  6
Continuous
 62
     8
370
    18
100
AcDbLine
 10
360.6064171476
 20
365.2424466353
 30
0.0
 11
360.6064171476
 21
316.2424466353
 31
0.0
  0
SPLINE
  5
112
330
1F
100
AcDbEntity
  8
0
  6
Continuous
 62
     8
370
    18
100
AcDbSpline
210
0.0
220
0.0
230
1.0
 70
     8
 71
     3
 72
     8
 73
     4
 74
     0
 42
0.00000001
 43
0.00000001
 40
0.0
 40
0.0
 40
0.0
 40
0.0
 40
1.0
 40
1.0
 40
1.0
 40
1.0
 10
403.0101260129204
 20
253.4257785814859
 30
0.0
 10
403.1156327712604
 20
252.9812400143501
 30
0.0
 10
403.1130200520772
 20
252.7911440801401
 30
0.0
 10
403.1129852624359
 20
252.7908753349304
 30
0.0
  0
SPLINE
  5
113
330
1F
100
AcDbEntity
  8
0
  6
Continuous
 62
     8
370
    18
100
AcDbSpline
210
0.0
220
0.0
230
1.0
 70
     8
 71
     3
 72
    16
 73
    12
 74
     0
 42
0.00000001
 43
0.00000001
 40
0.0
 40
0.0
 40
0.0
 40
0.0
 40
0.2500000000000003
 40
0.2500000000000003
 40
0.5000000000000006
 40
0.5000000000000006
 40
0.6250000000000007
 40
0.6250000000000007
 40
0.7500000000000009
 40
0.7500000000000009
 40
1.0
 40
1.0
 40
1.0
 40
1.0
 10
402.9431155432188
 20
262.8693538770661
 30
0.0
 10
402.9431750327266
 20
261.8623096549846
 30
0.0
 10
402.9429518589604
 20
260.8563919527747
 30
0.0
 10
402.9406735167493
 20
258.8460421670492
 30
0.0
 10
402.9384388147256
 20
257.8332273275776
 30
0.0
 10
402.9365783448209
 20
256.3840324067471
 30
0.0
 10
402.9362441644512
 20
255.9026147647253
 30
0.0
 10
402.9390815400062
 20
255.0339546422346
 30
0.0
 10
402.9428925816153
 20
254.6430663742053
 30
0.0
 10
402.9623683325316
 20
253.7684335777647
 30
0.0
 10
402.9842565071261
 20
253.5357415606857
 30
0.0
 10
403.010124879164
 20
253.4257691978199
 30
0.0
  0
SPLINE
  5
114
330
1F
100
AcDbEntity
  8
0
  6
Continuous
 62
     8
370
    18
100
AcDbSpline
210
0.0
220
0.0
230
1.0
 70
     8
 71
     3
 72
     8
 73
     4
 74
     0
 42
0.00000001
 43
0.00000001
 40
0.0
 40
0.0
 40
0.0
 40
0.0
 40
1.0
 40
1.0
 40
1.0
 40
1.0
 10
402.8612191936021
 20
297.012290835479
 30
0.0
 10
402.8962964538326
 20
285.5938336785147
 30
0.0
 10
402.9429199600881
 20
274.1972555332923
 30
0.0
 10
402.9431153644977
 20
262.8691861305369
 30
0.0
  0
SPLINE
  5
115
330
1F
100
AcDbEntity
  8
0
  6
Continuous
 62
     8
370
    18
100
AcDbSpline
210
0.0
220
0.0
230
1.0
 70
     8
 71
     3
 72
     8
 73
     4
 74
     0
 42
0.00000001
 43
0.00000001
 40
0.0
 40
0.0
 40
0.0
 40
0.0
 40
1.0
 40
1.0
 40
1.0
 40
1.0
 10
402.0058454869475
 20
262.756109047921
 30
0.0
 10
401.9919029584071
 20
274.1026115799178
 30
0.0
 10
401.947818409059
 20
285.5148298772122
 30
0.0
 10
401.9211777907094
 20
296.9505947945109
 30
0.0
  0
SPLINE
  5
116
330
1F
100
AcDbEntity
  8
0
  6
Continuous
 62
     8
370
    18
100
AcDbSpline
210
0.0
220
0.0
230
1.0
 70
     8
 71
     3
 72
    16
 73
    12
 74
     0
 42
0.00000001
 43
0.00000001
 40
0.0
 40
0.0
 40
0.0
 40
0.0
 40
0.2500000000000003
 40
0.2500000000000003
 40
0.3750000000000002
 40
0.3750000000000002
 40
0.5000000000000002
 40
0.5000000000000002
 40
0.7500000000000001
 40
0.7500000000000001
 40
1.0
 40
1.0
 40
1.0
 40
1.0
 10
401.9082074859214
 20
252.9510355744108
 30
0.0
 10
401.8849029975313
 20
253.0568509460299
 30
0.0
 10
401.8663404944318
 20
253.274552335245
 30
0.0
 10
401.880168173608
 20
254.1932162304372
 30
0.0
 10
401.8945945945219
 20
254.617512555131
 30
0.0
 10
401.9294399873365
 20
255.5728615717006
 30
0.0
 10
401.9473547556038
 20
256.102039021681
 30
0.0
 10
401.985520435268
 20
257.6612408310212
 30
0.0
 10
401.9958361025482
 20
258.7177508545137
 30
0.0
 10
402.0048736305966
 20
260.7333080924337
 30
0.0
 10
402.0072075030297
 20
261.7433215129495
 30
0.0
 10
402.0058465182801
 20
262.7561090511499
 30
0.0
  0
LINE
  5
117
330
1F
100
AcDbEntity
  8
0
  6
Continuous
 62
     8
370
    18
100
AcDbLine
 10
400.1327634022
 20
253.8766451714
 30
0.0
 11
399.99713085
 21
254.015550505
 31
0.0
  0
SPLINE
  5
118
330
1F
100
AcDbEntity
  8
0
  6
Continuous
 62
     8
370
    18
100
AcDbSpline
210
0.0
220
0.0
230
1.0
 70
     8
 71
     3
 72
    10
 73
     6
 74
     0
 42
0.00000001
 43
0.00000001
 40
0.0
 40
0.0
 40
0.0
 40
0.0
 40
0.5654896530051404
 40
0.7656672381366458
 40
1.0
 40
1.0
 40
1.0
 40
1.0
 10
401.9082062902364
 20
252.9510503442675
 30
0.0
 10
401.940974011783
 20
252.7784580052034
 30
0.0
 10
401.9853411734514
 20
252.5447697336807
 30
0.0
 10
401.9873388373566
 20
252.4137281569517
 30
0.0
 10
401.9877718845634
 20
252.3995057545472
 30
0.0
 10
401.9880054282493
 20
252.3918355693402
 30
0.0
  0
LINE
  5
119
330
1F
100
AcDbEntity
  8
0
  6
Continuous
 62
     8
370
    18
100
AcDbLine
 10
344.7227167401
 20
419.5167927729
 30
0.0
 11
344.7227167401
 21
397.9681005008
 31
0.0
  0
LINE
  5
11A
330
1F
100
AcDbEntity
  8
0
  6
Continuous
 62
     8
370
    18
100
AcDbLine
 10
376.3812361079
 20
315.1253181577
 30
0.0
 11
383.944036053
 21
315.1490774726
 31
0.0
  0
LINE
  5
11B
330
1F
100
AcDbEntity
  8
0
  6
Continuous
 62
     7
370
    25
100
AcDbLine
 10
92.5272727273
 20
175.8513298879
 30
0.0
 11
92.6853414227
 21
169.8149299453
 31
0.0
  0
LINE
  5
11C
330
1F
100
AcDbEntity
  8
0
  6
Continuous
 62
     7
370
    25
100
AcDbLine
 10
241.3692040318
 20
169.8149299453
 30
0.0
 11
241.5272727273
 21
175.8513298879
 31
0.0
  0
ARC
  5
11D
330
1F
100
AcDbEntity
  8
0
  6
Continuous
 62
     7
370
    25
100
AcDbCircle
 10
240.3695467068
 20
169.8411068936
 30
0.0
 40
0.9999999999996076
100
AcDbArc
 50
270.6004114401
 51
358.5
  0
ARC
  5
11E
330
1F
100
AcDbEntity
  8
0
  6
Continuous
 62
     7
370
    25
100
AcDbCircle
 10
93.6849987477
 20
169.8411068936
 30
0.0
 40
0.9999999999996076
100
AcDbArc
 50
181.5
 51
269.3995885599
  0
ARC
  5
11F
330
1F
100
AcDbEntity
  8
0
  6
Continuous
 62
     7
370
    25
100
AcDbCircle
 10
167.0272727273
 20
7168.4568207936
 30
0.0
 40
7000.000000000002
100
AcDbArc
 50
269.3995885599
 51
269.9066710329
  0
ARC
  5
120
330
1F
100
AcDbEntity
  8
0
  6
Continuous
 62
     7
370
    25
100
AcDbCircle
 10
167.0272727273
 20
7168.4568207936
 30
0.0
 40
7000.0
100
AcDbArc
 50
270.093328967
 51
270.6004114401
  0
LINE
  5
121
330
1F
100
AcDbEntity
  8
0
  6
Continuous
 62
     7
370
    25
100
AcDbLine
 10
155.6232146269
 20
168.5680148865
 30
0.0
 11
155.7688241007
 21
160.2260537141
 31
0.0
  0
LINE
  5
122
330
1F
100
AcDbEntity
  8
0
  6
Continuous
 62
     7
370
    25
100
AcDbLine
 10
178.2857213481
 20
160.2260537141
 30
0.0
 11
178.4313409984
 21
168.5685978909
 31
0.0
  0
ARC
  5
123
330
1F
100
AcDbEntity
  8
0
  6
Continuous
 62
     7
370
    25
100
AcDbCircle
 10
156.2687479483
 20
160.2347799173
 30
0.0
 40
0.4999999999999992
100
AcDbArc
 50
181.0
 51
268.1867030123
  0
ARC
  5
124
330
1F
100
AcDbEntity
  8
0
  6
Continuous
 62
     7
370
    25
100
AcDbCircle
 10
177.7857975005
 20
160.2347799173
 30
0.0
 40
0.5000000000000347
100
AcDbArc
 50
271.8132969877
 51
359.0
  0
ARC
  5
125
330
1F
100
AcDbEntity
  8
0
  6
Continuous
 62
     7
370
    25
100
AcDbCircle
 10
167.0272727244
 20
500.0645227955
 30
0.0
 40
340.5000000000001
100
AcDbArc
 50
268.1867030123
 51
270.0
  0
ARC
  5
126
330
1F
100
AcDbEntity
  8
0
  6
Continuous
 62
     7
370
    25
100
AcDbCircle
 10
167.0272727244
 20
500.0645227955
 30
0.0
 40
340.5000000000001
100
AcDbArc
 50
270.0
 51
271.8132969877
  0
LINE
  5
127
330
1F
100
AcDbEntity
  8
0
  6
Continuous
 62
     7
370
    25
100
AcDbLine
 10
142.03098318
 20
134.5228360054
 30
0.0
 11
142.3356342376
 21
105.5811283753
 31
0.0
  0
LINE
  5
128
330
1F
100
AcDbEntity
  8
0
  6
Continuous
 62
     7
370
    25
100
AcDbLine
 10
191.7194832904
 20
105.6354747739
 30
0.0
 11
192.0235305811
 21
134.51982483
 31
0.0
  0
LINE
  5
129
330
1F
100
AcDbEntity
  8
0
  6
Continuous
 62
     7
370
    25
100
AcDbLine
 10
191.6978250242
 20
103.5779496393
 30
0.0
 11
191.7194832904
 21
105.6354747739
 31
0.0
  0
LINE
  5
12A
330
1F
100
AcDbEntity
  8
0
  6
Continuous
 62
     7
370
    25
100
AcDbLine
 10
191.5272727294
 20
143.8513298879
 30
0.0
 11
191.5272727294
 21
168.4996959249
 31
0.0
  0
LINE
  5
12B
330
1F
100
AcDbEntity
  8
0
  6
Continuous
 62
     7
370
    25
100
AcDbLine
 10
142.5272727294
 20
168.4996959249
 30
0.0
 11
142.5272727294
 21
143.8513298879
 31
0.0
  0
ARC
  5
12C
330
1F
100
AcDbEntity
  8
0
  6
Continuous
 62
     7
370
    25
100
AcDbCircle
 10
167.0272727294
 20
143.8513298879
 30
0.0
 40
24.5
100
AcDbArc
 50
180.0
 51
202.4068283725
  0
ARC
  5
12D
330
1F
100
AcDbEntity
  8
0
  6
Continuous
 62
     7
370
    25
100
AcDbCircle
 10
167.0272727294
 20
143.8513298879
 30
0.0
 40
24.50000000000003
100
AcDbArc
 50
337.6075239612
 51
0.0
  0
SPLINE
  5
12E
330
1F
100
AcDbEntity
  8
0
  6
Continuous
 62
     7
370
    25
100
AcDbSpline
210
0.0
220
0.0
230
1.0
 70
     8
 71
     3
 72
     9
 73
     5
 74
     0
 42
0.00000001
 43
0.00000001
 40
0.0
 40
0.0
 40
0.0
 40
0.0
 40
0.4892425604426325
 40
0.9999999999999999
 40
0.9999999999999999
 40
0.9999999999999999
 40
0.9999999999999999
 10
191.6741206724413
 20
102.6354816968744
 30
0.0
 10
191.6808439994019
 20
102.8557601290301
 30
0.0
 10
191.6945863176388
 20
103.3060039343857
 30
0.0
 10
191.7001959048039
 20
103.8297042333514
 30
0.0
 10
191.7030610431814
 20
104.0971880571464
 30
0.0
  0
LINE
  5
12F
330
1F
100
AcDbEntity
  8
0
  6
Continuous
 62
     7
370
    25
100
AcDbLine
 10
191.7040568346
 20
104.1699687032
 30
0.0
 11
191.7044402049
 21
104.1979885633
 31
0.0
  0
SPLINE
  5
130
330
1F
100
AcDbEntity
  8
0
  6
Continuous
 62
     7
370
    25
100
AcDbSpline
210
0.0
220
0.0
230
1.0
 70
     8
 71
     3
 72
     9
 73
     5
 74
     0
 42
0.00000001
 43
0.00000001
 40
0.0
 40
0.0
 40
0.0
 40
0.0
 40
0.5107574407319505
 40
1.0
 40
1.0
 40
1.0
 40
1.0
 10
142.3514844147159
 20
104.0971880501052
 30
0.0
 10
142.3543495531119
 20
103.8297042270586
 30
0.0
 10
142.3599591403004
 20
103.3060039307629
 30
0.0
 10
142.373701458566
 20
102.8557601275118
 30
0.0
 10
142.3804247855246
 20
102.6354816969146
 30
0.0
  0
LINE
  5
131
330
1F
100
AcDbEntity
  8
0
  6
Continuous
 62
     7
370
    25
100
AcDbLine
 10
191.6711607431
 20
102.6062421464
 30
0.0
 11
191.685753914
 21
102.6420605043
 31
0.0
  0
LINE
  5
132
330
1F
100
AcDbEntity
  8
0
  6
Continuous
 62
     7
370
    25
100
AcDbLine
 10
142.3687915439
 20
102.6420605043
 30
0.0
 11
142.3833847148
 21
102.6062421465
 31
0.0
  0
SPLINE
  5
133
330
1F
100
AcDbEntity
  8
0
  6
Continuous
 62
     7
370
    25
100
AcDbSpline
210
0.0
220
0.0
230
1.0
 70
     8
 71
     3
 72
    13
 73
     9
 74
     0
 42
0.00000001
 43
0.00000001
 40
0.0
 40
0.0
 40
0.0
 40
0.0
 40
0.1122597884004518
 40
0.2272183086670909
 40
0.348509650219257
 40
0.4757444480804237
 40
0.7375242433493331
 40
1.0
 40
1.0
 40
1.0
 40
1.0
 10
167.0272727293856
 20
99.53476635424127
 30
0.0
 10
168.0306228655873
 20
99.5414768841155
 30
0.0
 10
170.0614437338345
 20
99.55505926539374
 30
0.0
 10
173.1068924054536
 20
99.66540517247549
 30
0.0
 10
176.0867219792193
 20
99.83636091335593
 30
0.0
 10
180.0689378637947
 20
100.1586645127967
 30
0.0
 10
185.0022626190963
 20
100.7090305592938
 30
0.0
 10
188.9811179168342
 20
101.3849107581784
 30
0.0
 10
190.9731865769625
 20
101.7232994809261
 30
0.0
  0
SPLINE
  5
134
330
1F
100
AcDbEntity
  8
0
  6
Continuous
 62
     7
370
    25
100
AcDbSpline
210
0.0
220
0.0
230
1.0
 70
     8
 71
     3
 72
    13
 73
     9
 74
     0
 42
0.00000001
 43
0.00000001
 40
0.0
 40
0.0
 40
0.0
 40
0.0
 40
0.2624757566039285
 40
0.5242555518800956
 40
0.6514903497660748
 40
0.7727816913419259
 40
0.8877402116143475
 40
0.9999999999999999
 40
0.9999999999999999
 40
0.9999999999999999
 40
0.9999999999999999
 10
143.0813588809361
 20
101.7232994810005
 30
0.0
 10
145.0734275412333
 20
101.3849107582303
 30
0.0
 10
149.0522828397174
 20
100.709030559231
 30
0.0
 10
153.9856075949912
 20
100.1586645127825
 30
0.0
 10
157.9678234792911
 20
99.83636091336692
 30
0.0
 10
160.947653052917
 20
99.66540517249348
 30
0.0
 10
163.9931017245563
 20
99.55505926539973
 30
0.0
 10
166.02392259312
 20
99.54147688411699
 30
0.0
 10
167.0272727293856
 20
99.53476635424121
 30
0.0
  0
LINE
  5
135
330
1F
100
AcDbEntity
  8
0
  6
Continuous
 62
     7
370
    25
100
AcDbLine
 10
241.5272727273
 20
175.8513298879
 30
0.0
 11
92.5272727273
 21
175.8513298879
 31
0.0
  0
SPLINE
  5
136
330
1F
100
AcDbEntity
  8
0
  6
Continuous
 62
     7
370
    25
100
AcDbSpline
210
0.0
220
0.0
230
1.0
 70
     8
 71
     3
 72
    21
 73
    17
 74
     0
 42
0.00000001
 43
0.00000001
 40
0.0
 40
0.0
 40
0.0
 40
0.0
 40
0.0716371410778238
 40
0.1432742775033324
 40
0.2149114492831377
 40
0.286548618459977
 40
0.3581851975245758
 40
0.4298217771764926
 40
0.501458108099112
 40
0.5730944425417417
 40
0.6447312048220883
 40
0.716367972012411
 40
0.7880056561006373
 40
0.8596433443370777
 40
0.9312820367039161
 40
1.0
 40
1.0
 40
1.0
 40
1.0
 10
158.9764233821954
 20
168.6124505597778
 30
0.0
 10
159.453029860415
 20
168.6147786189396
 30
0.0
 10
160.4062427859019
 20
168.6194347371121
 30
0.0
 10
162.0826529933368
 20
168.6246693550856
 30
0.0
 10
163.8855731172304
 20
168.6283739473985
 30
0.0
 10
165.7803243125791
 20
168.6303955887552
 30
0.0
 10
167.7099951955188
 20
168.6306368621684
 30
0.0
 10
169.620996829575
 20
168.629154924576
 30
0.0
 10
171.4567748890554
 20
168.6259225330359
 30
0.0
 10
173.1693919655525
 20
168.6210996407837
 30
0.0
 10
174.7041951719572
 20
168.614759241053
 30
0.0
 10
176.0250729157957
 20
168.6071387717277
 30
0.0
 10
177.0871525743254
 20
168.5984052510859
 30
0.0
 10
177.8625537528275
 20
168.5888461098785
 30
0.0
 10
178.3435382076163
 20
168.5788423599577
 30
0.0
 10
178.3982017132507
 20
168.5720397268588
 30
0.0
 10
178.4249647103888
 20
168.5687091894546
 30
0.0
  0
SPLINE
  5
137
330
1F
100
AcDbEntity
  8
0
  6
Continuous
 62
     7
370
    25
100
AcDbSpline
210
0.0
220
0.0
230
1.0
 70
     8
 71
     3
 72
    12
 73
     8
 74
     0
 42
0.00000001
 43
0.00000001
 40
0.0
 40
0.0
 40
0.0
 40
0.0
 40
0.0895554452789227
 40
0.3039074144359614
 40
0.518260063561246
 40
0.7326127019331036
 40
1.0
 40
1.0
 40
1.0
 40
1.0
 10
155.6633108320474
 20
168.5687147683924
 30
0.0
 10
155.6540303430642
 20
168.5701643894694
 30
0.0
 10
155.6225368989436
 20
168.5750836949574
 30
0.0
 10
155.9051930256311
 20
168.5834163968694
 30
0.0
 10
156.5103324489914
 20
168.5933005905066
 30
0.0
 10
157.4835763443687
 20
168.6033620785862
 30
0.0
 10
158.443578869961
 20
168.6092065922413
 30
0.0
 10
158.9764233821954
 20
168.6124505597778
 30
0.0
  0
SPLINE
  5
138
330
1F
100
AcDbEntity
  8
0
  6
Continuous
 62
     7
370
    25
100
AcDbSpline
210
0.0
220
0.0
230
1.0
 70
     8
 71
     3
 72
    12
 73
     8
 74
     0
 42
0.00000001
 43
0.00000001
 40
0.0
 40
0.0
 40
0.0
 40
0.0
 40
0.5000000000000026
 40
0.5000000000000026
 40
0.7500000000000012
 40
0.7500000000000012
 40
1.0
 40
1.0
 40
1.0
 40
1.0
 10
191.7772933016984
 20
134.8642494869015
 30
0.0
 10
191.9432267492263
 20
134.8679080444631
 30
0.0
 10
192.0231579945202
 20
134.7705761740429
 30
0.0
 10
192.0244376485824
 20
134.4746220420926
 30
0.0
 10
192.0050084321759
 20
134.3508407376797
 30
0.0
 10
191.927288047055
 20
134.0515560890088
 30
0.0
 10
191.8692929636246
 20
133.8773150372826
 30
0.0
 10
191.7938562038118
 20
133.6795975787583
 30
0.0
  0
SPLINE
  5
139
330
1F
100
AcDbEntity
  8
0
  6
Continuous
 62
     7
370
    25
100
AcDbSpline
210
0.0
220
0.0
230
1.0
 70
     8
 71
     3
 72
    12
 73
     8
 74
     0
 42
0.00000001
 43
0.00000001
 40
0.0
 40
0.0
 40
0.0
 40
0.0
 40
0.5000000000000008
 40
0.5000000000000008
 40
0.7500000000000003
 40
0.7500000000000003
 40
1.0
 40
1.0
 40
1.0
 40
1.0
 10
142.2606892538778
 20
133.6795975787583
 30
0.0
 10
142.1098924728406
 20
134.074831366414
 30
0.0
 10
142.030658191333
 20
134.3710599369072
 30
0.0
 10
142.0304623877038
 20
134.6688697548325
 30
0.0
 10
142.0502319742601
 20
134.7435776906367
 30
0.0
 10
142.1323013267004
 20
134.8424565918336
 30
0.0
 10
142.1942944372751
 20
134.8660785671416
 30
0.0
 10
142.2772521562733
 20
134.8642494869015
 30
0.0
  0
ELLIPSE
  5
13A
330
1F
100
AcDbEntity
  8
0
  6
Continuous
 62
     7
370
    25
100
AcDbEllipse
 10
167.0272727289
 20
134.9098895147
 30
0.0
 11
25.0001834844735
 21
2.140154720109422E-10
 31
0.0
210
0.0
220
0.0
230
1.0
 40
0.3608294989
 41
3.278402884757596
 42
6.14637507596441
  0
SPLINE
  5
13B
330
1F
100
AcDbEntity
  8
0
  6
Continuous
 62
     7
370
    25
100
AcDbSpline
210
0.0
220
0.0
230
1.0
 70
     8
 71
     3
 72
     8
 73
     4
 74
     0
 42
0.00000001
 43
0.00000001
 40
0.0710343064154336
 40
0.0710343064154336
 40
0.0710343064154336
 40
0.0710343064154336
 40
0.0720501795059847
 40
0.0720501795059847
 40
0.0720501795059847
 40
0.0720501795059847
 10
142.3355092353082
 20
105.6303593666211
 30
0.0
 10
142.3356828212846
 20
105.6127970591174
 30
0.0
 10
142.335856738245
 20
105.5952328632206
 30
0.0
 10
142.3360309677111
 20
105.5776668207787
 30
0.0
  0
LINE
  5
13C
330
1F
100
AcDbEntity
  8
0
  6
Continuous
 62
     7
370
    25
100
AcDbLine
 10
191.6976493411
 20
103.5779514895
 30
0.0
 11
191.7040310538
 21
104.1902576636
 31
0.0
  0
LWPOLYLINE
  5
13D
330
1F
100
AcDbEntity
  8
0
  6
Continuous
 62
     7
370
    25
100
AcDbPolyline
 90
       25
 70
   128
 43
0.0
 10
144.9738350778
 20
133.6795975788
 10
145.7932997026
 20
132.8931826555
 10
146.8559047629
 20
132.1409598371
 10
148.1494828583
 20
131.4315424803
 10
149.6592218223
 20
130.7730537963
 10
151.3678343301
 20
130.1730338352
 10
153.2557558475
 20
129.6383531492
 10
155.3013686557
 20
129.1751341201
 10
157.4812493855
 20
128.7886808556
 10
159.7704372276
 20
128.4834184539
 10
162.1427197474
 20
128.2628423339
 10
164.5709330315
 20
128.1294782111
 10
167.0272727291
 20
128.0848531766
 10
169.4836124266
 20
128.1294782111
 10
171.9118257107
 20
128.2628423339
 10
174.2841082306
 20
128.4834184539
 10
176.5732960727
 20
128.7886808556
 10
178.7531768025
 20
129.1751341201
 10
180.7987896108
 20
129.6383531492
 10
182.6867111283
 20
130.1730338352
 10
184.3953236361
 20
130.7730537963
 10
185.9050626002
 20
131.4315424803
 10
187.1986406956
 20
132.1409598371
 10
188.2612457561
 20
132.8931826555
 10
189.0807103809
 20
133.6795975788
  0
SPLINE
  5
13E
330
1F
100
AcDbEntity
  8
0
  6
Continuous
 62
     7
370
    25
100
AcDbSpline
210
0.0
220
0.0
230
1.0
 70
     8
 71
     3
 72
    14
 73
    10
 74
     0
 42
0.00000001
 43
0.00000001
 40
0.0
 40
0.0
 40
0.0
 40
0.0
 40
0.25
 40
0.25
 40
0.5
 40
0.5
 40
0.75
 40
0.75
 40
1.0
 40
1.0
 40
1.0
 40
1.0
 10
190.9144871846383
 20
101.7338950876308
 30
0.0
 10
191.0128630961654
 20
101.7518224177332
 30
0.0
 10
191.1142750745798
 20
101.7868886410736
 30
0.0
 10
191.3046935001039
 20
101.8945719166176
 30
0.0
 10
191.393302225845
 20
101.9672594183005
 30
0.0
 10
191.5388748102823
 20
102.1398959129718
 30
0.0
 10
191.5955538607239
 20
102.2395071450228
 30
0.0
 10
191.6695320045663
 20
102.4453751963078
 30
0.0
 10
191.6869677081965
 20
102.5512519094175
 30
0.0
 10
191.6880233999401
 20
102.6512416585461
 30
0.0
  0
SPLINE
  5
13F
330
1F
100
AcDbEntity
  8
0
  6
Continuous
 62
     7
370
    25
100
AcDbSpline
210
0.0
220
0.0
230
1.0
 70
     8
 71
     3
 72
    14
 73
    10
 74
     0
 42
0.00000001
 43
0.00000001
 40
0.0
 40
0.0
 40
0.0
 40
0.0
 40
0.25
 40
0.25
 40
0.5
 40
0.5
 40
0.75
 40
0.75
 40
1.0
 40
1.0
 40
1.0
 40
1.0
 10
142.3664468737648
 20
102.651244122618
 30
0.0
 10
142.3675082127862
 20
102.5512504070789
 30
0.0
 10
142.3849503368461
 20
102.445370615557
 30
0.0
 10
142.4589417821689
 20
102.2394987249165
 30
0.0
 10
142.5156276847783
 20
102.139886730912
 30
0.0
 10
142.6612132878436
 20
101.9672507030927
 30
0.0
 10
142.7498281719375
 20
101.894564405732
 30
0.0
 10
142.9402577391028
 20
101.7868847342208
 30
0.0
 10
143.041674714593
 20
101.7518208995566
 30
0.0
 10
143.1400550507755
 20
101.7338962533522
 30
0.0
  0
SPLINE
  5
140
330
1F
100
AcDbEntity
  8
0
  6
Continuous
 62
     7
370
    25
100
AcDbSpline
210
0.0
220
0.0
230
1.0
 70
     8
 71
     3
 72
     9
 73
     5
 74
     0
 42
0.00000001
 43
0.00000001
 40
0.0
 40
0.0
 40
0.0
 40
0.0
 40
0.6108847384692385
 40
1.0
 40
1.0
 40
1.0
 40
1.0
 10
144.9738350778472
 20
133.6795975787584
 30
0.0
 10
144.7935427008365
 20
133.8959310113094
 30
0.0
 10
144.498409485588
 20
134.2500623538162
 30
0.0
 10
144.4260058407145
 20
134.4439704775543
 30
0.0
 10
144.3978324775038
 20
134.5194230878356
 30
0.0
  0
SPLINE
  5
141
330
1F
100
AcDbEntity
  8
0
  6
Continuous
 62
     7
370
    25
100
AcDbSpline
210
0.0
220
0.0
230
1.0
 70
     8
 71
     3
 72
     9
 73
     5
 74
     0
 42
0.00000001
 43
0.00000001
 40
0.0
 40
0.0
 40
0.0
 40
0.0
 40
0.1661964639757919
 40
1.0
 40
1.0
 40
1.0
 40
1.0
 10
189.6628743455744
 20
134.5243643249296
 30
0.0
 10
189.6576683071947
 20
134.497386989618
 30
0.0
 10
189.6263437034389
 20
134.3350650324223
 30
0.0
 10
189.3288018393215
 20
133.9776290035416
 30
0.0
 10
189.0807103809052
 20
133.6795975787583
 30
0.0
  0
LINE
  5
142
330
1F
100
AcDbEntity
  8
0
  6
Continuous
 62
     7
370
    25
100
AcDbLine
 10
189.819428965
 20
134.8642494869
 30
0.0
 11
191.7772933017
 21
134.8642494869
 31
0.0
  0
LINE
  5
143
330
1F
100
AcDbEntity
  8
0
  6
Continuous
 62
     7
370
    25
100
AcDbLine
 10
142.2772521563
 20
134.8642494869
 30
0.0
 11
144.2351164939
 21
134.8642494869
 31
0.0
  0
ARC
  5
144
330
1F
100
AcDbEntity
  8
0
  6
Continuous
 62
     7
370
    25
100
AcDbCircle
 10
190.7456554234
 20
102.6610578482
 30
0.0
 40
0.9425881720762948
100
AcDbArc
 50
280.3256998943
 51
359.3949918621
  0
ARC
  5
145
330
1F
100
AcDbEntity
  8
0
  6
Continuous
 62
     7
370
    25
100
AcDbCircle
 10
143.3088900591
 20
102.6610578327
 30
0.0
 40
0.942588164271797
100
AcDbArc
 50
180.6050054273
 51
259.6742999451
  0
LINE
  5
146
330
1F
100
AcDbEntity
  8
0
  6
Continuous
 62
     7
370
    25
100
AcDbLine
 10
191.6540131381
 20
102.6414408885
 30
0.0
 11
191.6311294027
 21
102.6349703591
 31
0.0
  0
LINE
  5
147
330
1F
100
AcDbEntity
  8
0
  6
Continuous
 62
     7
370
    25
100
AcDbLine
 10
142.4005323197
 20
102.6414408885
 30
0.0
 11
142.4234160553
 21
102.6349703591
 31
0.0
  0
LINE
  5
148
330
1F
100
AcDbEntity
  8
0
  6
Continuous
 62
     7
370
    25
100
AcDbLine
 10
190.7961114922
 20
101.6958811045
 30
0.0
 11
190.8041812193
 21
101.6984589957
 31
0.0
  0
LINE
  5
149
330
1F
100
AcDbEntity
  8
0
  6
Continuous
 62
     8
370
    18
100
AcDbLine
 10
240.3800256715
 20
168.8411617995
 30
0.0
 11
93.674519783
 21
168.8411617995
 31
0.0
  0
LINE
  5
14A
330
1F
100
AcDbEntity
  8
0
  6
Continuous
 62
     8
370
    18
100
AcDbLine
 10
177.8016188605
 20
159.7350302954
 30
0.0
 11
156.2529265884
 21
159.7350302954
 31
0.0
  0
LINE
  5
14B
330
1F
100
AcDbEntity
  8
0
  6
Continuous
 62
     8
370
    18
100
AcDbLine
 10
191.6879925832
 20
102.6514145513
 30
0.0
 11
191.6976493411
 21
103.5779514895
 31
0.0
  0
SPLINE
  5
14C
330
1F
100
AcDbEntity
  8
0
  6
Continuous
 62
     8
370
    18
100
AcDbSpline
210
0.0
220
0.0
230
1.0
 70
     8
 71
     3
 72
    22
 73
    18
 74
     0
 42
0.00000001
 43
0.00000001
 40
0.0
 40
0.0
 40
0.0
 40
0.0
 40
0.125
 40
0.125
 40
0.2499999999999999
 40
0.2499999999999999
 40
0.3749999999999999
 40
0.3749999999999999
 40
0.5
 40
0.5
 40
0.6250000000000001
 40
0.6250000000000001
 40
0.75
 40
0.75
 40
0.875
 40
0.875
 40
1.0
 40
1.0
 40
1.0
 40
1.0
 10
167.0272727284017
 20
102.7091575339412
 30
0.0
 10
168.6387312560771
 20
102.7099675289141
 30
0.0
 10
170.2501518726099
 20
102.7102797197621
 30
0.0
 10
173.4113447653687
 20
102.7099275112671
 30
0.0
 10
174.9610393714159
 20
102.7092631603743
 30
0.0
 10
177.9394108135022
 20
102.7070142971396
 30
0.0
 10
179.3680144709339
 20
102.7054298798484
 30
0.0
 10
182.049470342095
 20
102.7014325616904
 30
0.0
 10
183.3022566720818
 20
102.6990197988343
 30
0.0
 10
185.5840766863894
 20
102.693489204684
 30
0.0
 10
186.613054305684
 20
102.690371549073
 30
0.0
 10
188.4078269847901
 20
102.6835815941619
 30
0.0
 10
189.1735779460191
 20
102.6799095014885
 30
0.0
 10
190.4125491595751
 20
102.6721823444854
 30
0.0
 10
190.8857389690912
 20
102.6681275098099
 30
0.0
 10
191.5214457671511
 20
102.6598212118504
 30
0.0
 10
191.6839471348694
 20
102.6555699924505
 30
0.0
 10
191.6879915551634
 20
102.6513173966309
 30
0.0
  0
SPLINE
  5
14D
330
1F
100
AcDbEntity
  8
0
  6
Continuous
 62
     8
370
    18
100
AcDbSpline
210
0.0
220
0.0
230
1.0
 70
     8
 71
     3
 72
    22
 73
    18
 74
     0
 42
0.00000001
 43
0.00000001
 40
0.0
 40
0.0
 40
0.0
 40
0.0
 40
0.1249999999999999
 40
0.1249999999999999
 40
0.2499999999999998
 40
0.2499999999999998
 40
0.3749999999999998
 40
0.3749999999999998
 40
0.4999999999999998
 40
0.4999999999999998
 40
0.6249999999999998
 40
0.6249999999999998
 40
0.7499999999999998
 40
0.7499999999999998
 40
0.8749999999999999
 40
0.8749999999999999
 40
1.0
 40
1.0
 40
1.0
 40
1.0
 10
142.3665539026563
 20
102.6513173966309
 30
0.0
 10
142.3706202254301
 20
102.6572418939187
 30
0.0
 10
142.5340891743267
 20
102.6621093630959
 30
0.0
 10
143.1667739679247
 20
102.6713899271856
 30
0.0
 10
143.6435749190721
 20
102.6758132174461
 30
0.0
 10
144.8858731008544
 20
102.684114458278
 30
0.0
 10
145.6450717130727
 20
102.6879580255306
 30
0.0
 10
147.4370075559717
 20
102.6947104652272
 30
0.0
 10
148.4794297388742
 20
102.6975994089143
 30
0.0
 10
150.7555148312322
 20
102.7019729164696
 30
0.0
 10
151.9968721543049
 20
102.7034939422545
 30
0.0
 10
154.6909992738346
 20
102.7056630532582
 30
0.0
 10
156.1259831836728
 20
102.7063198079267
 30
0.0
 10
159.0909356252203
 20
102.7075374556242
 30
0.0
 10
160.6424064466107
 20
102.7081534049455
 30
0.0
 10
163.822922561015
 20
102.7092637612985
 30
0.0
 10
165.4211331742107
 20
102.7097763694803
 30
0.0
 10
167.0272727284038
 20
102.7091575339413
 30
0.0
  0
LINE
  5
14E
330
1F
100
AcDbEntity
  8
0
  6
Continuous
 62
     8
370
    18
100
AcDbLine
 10
191.7938562038
 20
133.6795975788
 30
0.0
 11
189.0807103809
 21
133.6795975788
 31
0.0
  0
LINE
  5
14F
330
1F
100
AcDbEntity
  8
0
  6
Continuous
 62
     8
370
    18
100
AcDbLine
 10
144.9738350778
 20
133.6795975788
 30
0.0
 11
142.2606892539
 21
133.6795975788
 31
0.0
  0
LWPOLYLINE
  5
150
330
1F
100
AcDbEntity
  8
0
  6
Continuous
 62
     8
370
    18
100
AcDbPolyline
 90
        9
 70
   128
 43
0.0
 10
167.0271084412
 20
102.7091574695
 10
167.0271626747
 20
102.5483918943
 10
167.0272155963
 20
102.392241107
 10
167.027265752
 20
102.2449955149
 10
167.0273117636
 20
102.1107008456
 10
167.027352367
 20
101.9930469863
 10
167.0273864465
 20
101.8952666008
 10
167.0274130657
 20
101.8200463079
 10
167.0274314934
 20
101.7694528644
  0
SPLINE
  5
151
330
1F
100
AcDbEntity
  8
0
  6
Continuous
 62
     8
370
    18
100
AcDbSpline
210
0.0
220
0.0
230
1.0
 70
     8
 71
     3
 72
    47
 73
    43
 74
     0
 42
0.00000001
 43
0.00000001
 40
0.0
 40
0.0
 40
0.0
 40
0.0
 40
0.0129367756171577
 40
0.0264017104099082
 40
0.0403894262963741
 40
0.0548948429553961
 40
0.0699132177394601
 40
0.0854401814155911
 40
0.1014717693264208
 40
0.1180044476553114
 40
0.1350351345932111
 40
0.1525612163415454
 40
0.1705805580452987
 40
0.1890915099333908
 40
0.2080929091489739
 40
0.2275840779792626
 40
0.2475648194416007
 40
0.2680354114477333
 40
0.2889966010495995
 40
0.3104496005649974
 40
0.3323960876875899
 40
0.3548382120001487
 40
0.3777786106296405
 40
0.4012204361042872
 40
0.4251673997919262
 40
0.4496238346106721
 40
0.4745947810001269
 40
0.5000861004149144
 40
0.5929949437369753
 40
0.6656254009329693
 40
0.7180082910758665
 40
0.749968161534173
 40
0.7743614007945022
 40
0.7988480739527294
 40
0.8234422718697255
 40
0.8481590173699929
 40
0.8730143035057704
 40
0.8980251256445357
 40
0.9232095070150759
 40
0.9485865174125323
 40
0.9741762848447973
 40
1.0
 40
1.0
 40
1.0
 40
1.0
 10
190.9144241349051
 20
101.7339344302339
 30
0.0
 10
190.9130797724049
 20
101.7345131066041
 30
0.0
 10
190.9103361622143
 20
101.7356940844921
 30
0.0
 10
190.8930471217978
 20
101.7374023150467
 30
0.0
 10
190.864663539051
 20
101.7391083215593
 30
0.0
 10
190.8229637047645
 20
101.7408017793517
 30
0.0
 10
190.7669359035352
 20
101.7424822994552
 30
0.0
 10
190.695194859322
 20
101.7441464817825
 30
0.0
 10
190.6064343187613
 20
101.7457915716638
 30
0.0
 10
190.4993037054819
 20
101.7474144190121
 30
0.0
 10
190.3724474938568
 20
101.7490117637004
 30
0.0
 10
190.2244989059641
 20
101.7505801478051
 30
0.0
 10
190.0540865980242
 20
101.7521159332242
 30
0.0
 10
189.8598378480914
 20
101.7536152902981
 30
0.0
 10
189.6403828656674
 20
101.7550741952271
 30
0.0
 10
189.3943589249359
 20
101.756488425796
 30
0.0
 10
189.1204146799347
 20
101.7578535584478
 30
0.0
 10
188.8172145572931
 20
101.7591649659403
 30
0.0
 10
188.4834432489052
 20
101.7604178160234
 30
0.0
 10
188.1178103003674
 20
101.7616070706651
 30
0.0
 10
187.7190547641057
 20
101.7627274878885
 30
0.0
 10
187.2859500261203
 20
101.7637736187425
 30
0.0
 10
186.8173083651795
 20
101.7647398287332
 30
0.0
 10
186.3119869291478
 20
101.7656202310324
 30
0.0
 10
185.7688886158953
 20
101.7664089664392
 30
0.0
 10
185.1869829426129
 20
101.7670991542199
 30
0.0
 10
184.5652502587104
 20
101.7676869703742
 30
0.0
 10
183.3236467434683
 20
101.7685661956021
 30
0.0
 10
181.5100924961974
 20
101.7691909389782
 30
0.0
 10
179.2315031435894
 20
101.7691667320765
 30
0.0
 10
177.4931077666111
 20
101.7687898719342
 30
0.0
 10
176.2505490554224
 20
101.7685056519808
 30
0.0
 10
175.3100107347431
 20
101.7685403500271
 30
0.0
 10
174.4428262099154
 20
101.7685464096701
 30
0.0
 10
173.5607797296889
 20
101.7685860784938
 30
0.0
 10
172.664491559149
 20
101.7686438237924
 30
0.0
 10
171.7546168394315
 20
101.7687241077668
 30
0.0
 10
170.8318007595934
 20
101.7688259384874
 30
0.0
 10
169.8966918112845
 20
101.7689495502256
 30
0.0
 10
168.9499357753378
 20
101.7690952429022
 30
0.0
 10
167.9921884274186
 20
101.7692611969444
 30
0.0
 10
167.349885522357
 20
101.7693887449556
 30
0.0
 10
167.0272727284181
 20
101.7694528091534
 30
0.0
  0
SPLINE
  5
152
330
1F
100
AcDbEntity
  8
0
  6
Continuous
 62
     8
370
    18
100
AcDbSpline
210
0.0
220
0.0
230
1.0
 70
     8
 71
     3
 72
    22
 73
    18
 74
     0
 42
0.00000001
 43
0.00000001
 40
0.0
 40
0.0
 40
0.0
 40
0.0
 40
0.125
 40
0.125
 40
0.25
 40
0.25
 40
0.3750000000000001
 40
0.3750000000000001
 40
0.5000000000000001
 40
0.5000000000000001
 40
0.6250000000000002
 40
0.6250000000000002
 40
0.7500000000000001
 40
0.7500000000000001
 40
0.875
 40
0.875
 40
1.0
 40
1.0
 40
1.0
 40
1.0
 10
167.0272727284179
 20
101.7694528086862
 30
0.0
 10
165.4751082101378
 20
101.769997331126
 30
0.0
 10
163.9203842661606
 20
101.7694867830263
 30
0.0
 10
160.8361090040164
 20
101.7687527023681
 30
0.0
 10
159.3315476920561
 20
101.7685151642953
 30
0.0
 10
156.4568922471648
 20
101.7685668985333
 30
0.0
 10
155.0659614151377
 20
101.7688137075081
 30
0.0
 10
152.4555747555008
 20
101.7689513990675
 30
0.0
 10
151.2533398161319
 20
101.7688107567284
 30
0.0
 10
149.0499253921444
 20
101.7674633406997
 30
0.0
 10
148.041301104342
 20
101.766235069655
 30
0.0
 10
146.3081073121469
 20
101.7626753706476
 30
0.0
 10
145.5741538976095
 20
101.7603714392425
 30
0.0
 10
144.3735036637283
 20
101.7547906647312
 30
0.0
 10
143.9128969484343
 20
101.7515362054076
 30
0.0
 10
143.3018248220215
 20
101.7439628994062
 30
0.0
 10
143.1440337415781
 20
101.7396508142129
 30
0.0
 10
143.1401213229145
 20
101.733934430234
 30
0.0
  0
LINE
  5
153
330
1F
100
AcDbEntity
  8
0
  6
Continuous
 62
     8
370
    18
100
AcDbLine
 10
190.6014021353
 20
143.8513298879
 30
0.0
 11
142.5272727294
 21
143.8513298879
 31
0.0
  0
LINE
  5
154
330
1F
100
AcDbEntity
  8
0
  6
Continuous
 62
     8
370
    18
100
AcDbLine
 10
191.5272727294
 20
143.8513298879
 30
0.0
 11
190.6014021353
 21
143.8513298879
 31
0.0
  0
SPLINE
  5
155
330
1F
100
AcDbEntity
  8
0
  6
Continuous
 62
     8
370
    18
100
AcDbSpline
210
0.0
220
0.0
230
1.0
 70
     8
 71
     3
 72
     8
 73
     4
 74
     0
 42
0.00000001
 43
0.00000001
 40
0.0
 40
0.0
 40
0.0
 40
0.0
 40
1.0
 40
1.0
 40
1.0
 40
1.0
 10
143.1400705599553
 20
101.7339182731667
 30
0.0
 10
143.1400256789109
 20
101.7338545514043
 30
0.0
 10
143.1399811105232
 20
101.7337928107889
 30
0.0
 10
143.1399372137581
 20
101.7337351362092
 30
0.0
  0
SPLINE
  5
156
330
1F
100
AcDbEntity
  8
0
  6
Continuous
 62
     8
370
    18
100
AcDbSpline
210
0.0
220
0.0
230
1.0
 70
     8
 71
     3
 72
     9
 73
     5
 74
     0
 42
0.00000001
 43
0.00000001
 40
0.0313714002565766
 40
0.0313714002565766
 40
0.0313714002565766
 40
0.0313714002565766
 40
0.5
 40
1.0
 40
1.0
 40
1.0
 40
1.0
 10
143.1399186354697
 20
101.7337385209626
 30
0.0
 10
146.952783421659
 20
101.0390775219335
 30
0.0
 10
154.8887301005848
 20
99.9484067527249
 30
0.0
 10
162.8916418421346
 20
99.57550261799628
 30
0.0
 10
167.0272727289109
 20
99.57550261799628
 30
0.0
  0
SPLINE
  5
157
330
1F
100
AcDbEntity
  8
0
  6
Continuous
 62
     8
370
    18
100
AcDbSpline
210
0.0
220
0.0
230
1.0
 70
     8
 71
     3
 72
     8
 73
     4
 74
     0
 42
0.00000001
 43
0.00000001
 40
0.0
 40
0.0
 40
0.0
 40
0.0
 40
1.0
 40
1.0
 40
1.0
 40
1.0
 10
190.9146082440641
 20
101.7337351362093
 30
0.0
 10
190.9145831768559
 20
101.7337962579854
 30
0.0
 10
190.9145387133818
 20
101.7338573488471
 30
0.0
 10
190.9144748731569
 20
101.7339184087795
 30
0.0
  0
SPLINE
  5
158
330
1F
100
AcDbEntity
  8
0
  6
Continuous
 62
     8
370
    18
100
AcDbSpline
210
0.0
220
0.0
230
1.0
 70
     8
 71
     3
 72
     9
 73
     5
 74
     0
 42
0.00000001
 43
0.00000001
 40
0.0313714002565766
 40
0.0313714002565766
 40
0.0313714002565766
 40
0.0313714002565766
 40
0.5
 40
1.0
 40
1.0
 40
1.0
 40
1.0
 10
190.9146268223524
 20
101.7337385209626
 30
0.0
 10
187.101762036163
 20
101.0390775219334
 30
0.0
 10
179.165815357237
 20
99.9484067527249
 30
0.0
 10
171.1629036156872
 20
99.57550261799628
 30
0.0
 10
167.0272727289109
 20
99.57550261799628
 30
0.0
  0
LINE
  5
159
330
1F
100
AcDbEntity
  8
0
  6
Continuous
 62
     8
370
    18
100
AcDbLine
 10
191.6881910144
 20
102.6511049119
 30
0.0
 11
191.6540131381
 21
102.6414408885
 31
0.0
  0
LINE
  5
15A
330
1F
100
AcDbEntity
  8
0
  6
Continuous
 62
     8
370
    18
100
AcDbLine
 10
142.3663544435
 20
102.6511049119
 30
0.0
 11
142.4005323197
 21
102.6414408885
 31
0.0
  0
LINE
  5
15B
330
1F
100
AcDbEntity
  8
0
  6
Continuous
 62
     8
370
    18
100
AcDbLine
 10
190.8041812193
 20
101.6984589957
 30
0.0
 11
190.9146082185
 21
101.7337351316
 31
0.0
  0
LINE
  5
15C
330
1F
100
AcDbEntity
  8
0
  6
Continuous
 62
     8
370
    18
100
AcDbLine
 10
143.2584339659
 20
101.6958811045
 30
0.0
 11
143.1399372393
 21
101.7337351316
 31
0.0
  0
LINE
  5
15D
330
1F
100
AcDbEntity
  8
0
  6
Continuous
 62
     8
370
    18
100
AcDbLine
 10
167.0272727294
 20
99.536639752
 30
0.0
 11
167.0272727289
 21
99.575502618
 31
0.0
  0
ENDSEC
  0
SECTION
  2
OBJECTS
  0
DICTIONARY
  5
C
330
0
100
AcDbDictionary
281
     1
  3
ACAD_GROUP
350
D
  3
ACAD_LAYOUT
350
1A
  3
ACAD_MLINESTYLE
350
17
  3
ACAD_PLOTSETTINGS
350
19
  3
ACAD_PLOTSTYLENAME
350
E
  3
ACAD_SCALELIST
350
47
  3
DWGPROPS
350
15E
  0
DICTIONARY
  5
D
102
{ACAD_REACTORS
330
C
102
}
330
C
100
AcDbDictionary
281
     1
  0
DICTIONARY
  5
1A
102
{ACAD_REACTORS
330
C
102
}
330
C
100
AcDbDictionary
281
     1
  3
Layout1
350
1E
  3
Layout2
350
26
  3
Model
350
22
  0
DICTIONARY
  5
17
102
{ACAD_REACTORS
330
C
102
}
330
C
100
AcDbDictionary
281
     1
  3
Standard
350
18
  0
DICTIONARY
  5
19
102
{ACAD_REACTORS
330
C
102
}
330
C
100
AcDbDictionary
281
     1
  0
ACDBDICTIONARYWDFLT
  5
E
102
{ACAD_REACTORS
330
C
102
}
330
C
100
AcDbDictionary
281
     1
  3
Normal
350
F
100
AcDbDictionaryWithDefault
340
F
  0
DICTIONARY
  5
47
102
{ACAD_REACTORS
330
C
102
}
330
C
100
AcDbDictionary
281
     1
  3
A0
350
48
  3
A1
350
49
  3
A2
350
4A
  3
A3
350
4B
  3
A4
350
4C
  3
A5
350
4D
  3
A6
350
4E
  3
A7
350
4F
  3
A8
350
50
  3
A9
350
51
  3
B0
350
52
  3
B1
350
53
  3
B2
350
54
  3
B3
350
55
  3
B4
350
56
  3
B5
350
57
  3
B6
350
58
  3
B7
350
59
  3
B8
350
5A
  3
B9
350
5B
  3
C0
350
5C
  3
C1
350
5D
  3
C2
350
5E
  3
C3
350
5F
  3
C4
350
60
  3
C5
350
61
  3
C6
350
62
  3
C7
350
63
  3
C8
350
64
  3
C9
350
65
  3
D0
350
66
  3
D1
350
67
  3
D2
350
68
  0
XRECORD
  5
15E
102
{ACAD_REACTORS
330
C
102
}
330
C
100
AcDbXrecord
280
     1
  1
DWGPROPS COOKIE
  2

  3

  4

  6

  7

  8
estudent
  9

300
=
301
=
302
=
303
=
304
=
305
=
306
=
307
=
308
=
309
=
 40
0.0
 41
2459992.341038125
 42
2459992.341039375
  1

 90
        0
  0
LAYOUT
  5
1E
102
{ACAD_REACTORS
330
1A
102
}
330
1A
100
AcDbPlotSettings
  1

  2
none_device
  4

  6

 40
0.0
 41
0.0
 42
0.0
 43
0.0
 44
0.0
 45
0.0
 46
0.0
 47
0.0
 48
0.0
 49
0.0
140
0.0
141
0.0
142
1.0
143
1.0
 70
   688
 72
     1
 73
     0
 74
     5
  7

 75
    16
147
1.0
148
0.0
149
0.0
100
AcDbLayout
  1
Layout1
 70
     1
 71
     1
 10
0.0
 20
0.0
 11
420.0
 21
297.0
 12
0.0
 22
0.0
 32
0.0
 14
1.0000000000E+20
 24
1.0000000000E+20
 34
1.0000000000E+20
 15
-1.0000000000E+20
 25
-1.0000000000E+20
 35
-1.0000000000E+20
146
0.0
 13
0.0
 23
0.0
 33
0.0
 16
1.0
 26
0.0
 36
0.0
 17
0.0
 27
1.0
 37
0.0
 76
     0
330
1B
  0
LAYOUT
  5
26
102
{ACAD_REACTORS
330
1A
102
}
330
1A
100
AcDbPlotSettings
  1

  2
none_device
  4

  6

 40
0.0
 41
0.0
 42
0.0
 43
0.0
 44
0.0
 45
0.0
 46
0.0
 47
0.0
 48
0.0
 49
0.0
140
0.0
141
0.0
142
1.0
143
1.0
 70
   688
 72
     1
 73
     0
 74
     5
  7

 75
    16
147
1.0
148
0.0
149
0.0
100
AcDbLayout
  1
Layout2
 70
     1
 71
     2
 10
0.0
 20
0.0
 11
0.0
 21
0.0
 12
0.0
 22
0.0
 32
0.0
 14
0.0
 24
0.0
 34
0.0
 15
0.0
 25
0.0
 35
0.0
146
0.0
 13
0.0
 23
0.0
 33
0.0
 16
1.0
 26
0.0
 36
0.0
 17
0.0
 27
1.0
 37
0.0
 76
     0
330
23
  0
LAYOUT
  5
22
102
{ACAD_REACTORS
330
1A
102
}
330
1A
100
AcDbPlotSettings
  1

  2
none_device
  4
Letter_(8.50_x_11.00_Inches)
  6

 40
6.35
 41
6.35
 42
6.35000508
 43
6.35000508
 44
215.9
 45
279.4
 46
0.0
 47
0.0
 48
0.0
 49
0.0
140
0.0
141
0.0
142
1.0
143
1.0
 70
  1712
 72
     1
 73
     0
 74
     0
  7

 75
     0
147
1.0
148
0.0
149
0.0
100
AcDbLayout
  1
Model
 70
     1
 71
     0
 10
0.0
 20
0.0
 11
594.0
 21
841.0
 12
0.0
 22
0.0
 32
0.0
 14
0.0
 24
0.0
 34
0.0
 15
594.0
 25
841.0
 35
0.0
146
0.0
 13
0.0
 23
0.0
 33
0.0
 16
1.0
 26
0.0
 36
0.0
 17
0.0
 27
1.0
 37
0.0
 76
     0
330
1F
331
29
  0
MLINESTYLE
  5
18
102
{ACAD_REACTORS
330
17
102
}
330
17
100
AcDbMlineStyle
  2
Standard
 70
     0
  3

 62
   256
 51
90.0
 52
90.0
 71
     2
 49
0.5
 62
   256
  6
BYLAYER
 49
-0.5
 62
   256
  6
BYLAYER
  0
ACDBPLACEHOLDER
  5
F
102
{ACAD_REACTORS
330
E
102
}
330
E
  0
SCALE
  5
48
102
{ACAD_REACTORS
330
47
102
}
330
47
100
AcDbScale
 70
     0
300
1:1
140
1.0
141
1.0
290
     1
  0
SCALE
  5
49
102
{ACAD_REACTORS
330
47
102
}
330
47
100
AcDbScale
 70
     0
300
1:2
140
1.0
141
2.0
290
     0
  0
SCALE
  5
4A
102
{ACAD_REACTORS
330
47
102
}
330
47
100
AcDbScale
 70
     0
300
1:4
140
1.0
141
4.0
290
     0
  0
SCALE
  5
4B
102
{ACAD_REACTORS
330
47
102
}
330
47
100
AcDbScale
 70
     0
300
1:5
140
1.0
141
5.0
290
     0
  0
SCALE
  5
4C
102
{ACAD_REACTORS
330
47
102
}
330
47
100
AcDbScale
 70
     0
300
1:8
140
1.0
141
8.0
290
     0
  0
SCALE
  5
4D
102
{ACAD_REACTORS
330
47
102
}
330
47
100
AcDbScale
 70
     0
300
1:10
140
1.0
141
10.0
290
     0
  0
SCALE
  5
4E
102
{ACAD_REACTORS
330
47
102
}
330
47
100
AcDbScale
 70
     0
300
1:16
140
1.0
141
16.0
290
     0
  0
SCALE
  5
4F
102
{ACAD_REACTORS
330
47
102
}
330
47
100
AcDbScale
 70
     0
300
1:20
140
1.0
141
20.0
290
     0
  0
SCALE
  5
50
102
{ACAD_REACTORS
330
47
102
}
330
47
100
AcDbScale
 70
     0
300
1:30
140
1.0
141
30.0
290
     0
  0
SCALE
  5
51
102
{ACAD_REACTORS
330
47
102
}
330
47
100
AcDbScale
 70
     0
300
1:40
140
1.0
141
40.0
290
     0
  0
SCALE
  5
52
102
{ACAD_REACTORS
330
47
102
}
330
47
100
AcDbScale
 70
     0
300
1:50
140
1.0
141
50.0
290
     0
  0
SCALE
  5
53
102
{ACAD_REACTORS
330
47
102
}
330
47
100
AcDbScale
 70
     0
300
1:100
140
1.0
141
100.0
290
     0
  0
SCALE
  5
54
102
{ACAD_REACTORS
330
47
102
}
330
47
100
AcDbScale
 70
     0
300
2:1
140
2.0
141
1.0
290
     0
  0
SCALE
  5
55
102
{ACAD_REACTORS
330
47
102
}
330
47
100
AcDbScale
 70
     0
300
4:1
140
4.0
141
1.0
290
     0
  0
SCALE
  5
56
102
{ACAD_REACTORS
330
47
102
}
330
47
100
AcDbScale
 70
     0
300
8:1
140
8.0
141
1.0
290
     0
  0
SCALE
  5
57
102
{ACAD_REACTORS
330
47
102
}
330
47
100
AcDbScale
 70
     0
300
10:1
140
10.0
141
1.0
290
     0
  0
SCALE
  5
58
102
{ACAD_REACTORS
330
47
102
}
330
47
100
AcDbScale
 70
     0
300
100:1
140
100.0
141
1.0
290
     0
  0
SCALE
  5
59
102
{ACAD_REACTORS
330
47
102
}
330
47
100
AcDbScale
 70
     0
300
1/128" = 1'-0"
140
0.0078125
141
12.0
290
     0
  0
SCALE
  5
5A
102
{ACAD_REACTORS
330
47
102
}
330
47
100
AcDbScale
 70
     0
300
1/64" = 1'-0"
140
0.015625
141
12.0
290
     0
  0
SCALE
  5
5B
102
{ACAD_REACTORS
330
47
102
}
330
47
100
AcDbScale
 70
     0
300
1/32" = 1'-0"
140
0.03125
141
12.0
290
     0
  0
SCALE
  5
5C
102
{ACAD_REACTORS
330
47
102
}
330
47
100
AcDbScale
 70
     0
300
1/16" = 1'-0"
140
0.0625
141
12.0
290
     0
  0
SCALE
  5
5D
102
{ACAD_REACTORS
330
47
102
}
330
47
100
AcDbScale
 70
     0
300
3/32" = 1'-0"
140
0.09375
141
12.0
290
     0
  0
SCALE
  5
5E
102
{ACAD_REACTORS
330
47
102
}
330
47
100
AcDbScale
 70
     0
300
1/8" = 1'-0"
140
0.125
141
12.0
290
     0
  0
SCALE
  5
5F
102
{ACAD_REACTORS
330
47
102
}
330
47
100
AcDbScale
 70
     0
300
3/16" = 1'-0"
140
0.1875
141
12.0
290
     0
  0
SCALE
  5
60
102
{ACAD_REACTORS
330
47
102
}
330
47
100
AcDbScale
 70
     0
300
1/4" = 1'-0"
140
0.25
141
12.0
290
     0
  0
SCALE
  5
61
102
{ACAD_REACTORS
330
47
102
}
330
47
100
AcDbScale
 70
     0
300
3/8" = 1'-0"
140
0.375
141
12.0
290
     0
  0
SCALE
  5
62
102
{ACAD_REACTORS
330
47
102
}
330
47
100
AcDbScale
 70
     0
300
1/2" = 1'-0"
140
0.5
141
12.0
290
     0
  0
SCALE
  5
63
102
{ACAD_REACTORS
330
47
102
}
330
47
100
AcDbScale
 70
     0
300
3/4" = 1'-0"
140
0.75
141
12.0
290
     0
  0
SCALE
  5
64
102
{ACAD_REACTORS
330
47
102
}
330
47
100
AcDbScale
 70
     0
300
1" = 1'-0"
140
1.0
141
12.0
290
     0
  0
SCALE
  5
65
102
{ACAD_REACTORS
330
47
102
}
330
47
100
AcDbScale
 70
     0
300
1-1/2" = 1'-0"
140
1.5
141
12.0
290
     0
  0
SCALE
  5
66
102
{ACAD_REACTORS
330
47
102
}
330
47
100
AcDbScale
 70
     0
300
3" = 1'-0"
140
3.0
141
12.0
290
     0
  0
SCALE
  5
67
102
{ACAD_REACTORS
330
47
102
}
330
47
100
AcDbScale
 70
     0
300
6" = 1'-0"
140
6.0
141
12.0
290
     0
  0
SCALE
  5
68
102
{ACAD_REACTORS
330
47
102
}
330
47
100
AcDbScale
 70
     0
300
1'-0" = 1'-0"
140
12.0
141
12.0
290
     0
  0
ENDSEC
  0
EOF
