  0
SECTION
  2
HEADER
  9
$ACADVER
  1
AC1015
  9
$ACADMAINTVER
 70
     6
  9
$DWGCODEPAGE
  3
ANSI_1252
  9
$INSBASE
 10
0.0
 20
0.0
 30
0.0
  9
$EXTMIN
 10
0.0
 20
0.0
 30
0.0
  9
$EXTMAX
 10
594.0
 20
841.0
 30
0.0
  9
$LIMMIN
 10
0.0
 20
0.0
  9
$LIMMAX
 10
594.0
 20
841.0
  9
$ORTHOMODE
 70
     0
  9
$REGENMODE
 70
     1
  9
$FILLMODE
 70
     1
  9
$QTEXTMODE
 70
     0
  9
$MIRRTEXT
 70
     1
  9
$LTSCALE
 40
1.0
  9
$ATTMODE
 70
     1
  9
$TEXTSIZE
 40
10.0
  9
$TRACEWID
 40
1.0
  9
$TEXTSTYLE
  7
Standard
  9
$CLAYER
  8
0
  9
$CELTYPE
  6
ByLayer
  9
$CECOLOR
 62
   256
  9
$CELTSCALE
 40
1.0
  9
$DISPSILH
 70
     0
  9
$DIMSCALE
 40
1.0
  9
$DIMASZ
 40
2.5
  9
$DIMEXO
 40
0.0
  9
$DIMDLI
 40
3.75
  9
$DIMRND
 40
0.0
  9
$DIMDLE
 40
0.0
  9
$DIMEXE
 40
1.0
  9
$DIMTP
 40
0.0
  9
$DIMTM
 40
0.0
  9
$DIMTXT
 40
3.5
  9
$DIMCEN
 40
2.5
  9
$DIMTSZ
 40
0.0
  9
$DIMTOL
 70
     0
  9
$DIMLIM
 70
     0
  9
$DIMTIH
 70
     1
  9
$DIMTOH
 70
     1
  9
$DIMSE1
 70
     0
  9
$DIMSE2
 70
     0
  9
$DIMTAD
 70
     1
  9
$DIMZIN
 70
     0
  9
$DIMBLK
  1

  9
$DIMASO
 70
     1
  9
$DIMSHO
 70
     1
  9
$DIMPOST
  1

  9
$DIMAPOST
  1

  9
$DIMALT
 70
     0
  9
$DIMALTD
 70
     3
  9
$DIMALTF
 40
0.0393700787
  9
$DIMLFAC
 40
2.0
  9
$DIMTOFL
 70
     1
  9
$DIMTVP
 40
0.0
  9
$DIMTIX
 70
     0
  9
$DIMSOXD
 70
     0
  9
$DIMSAH
 70
     0
  9
$DIMBLK1
  1

  9
$DIMBLK2
  1

  9
$DIMSTYLE
  2
ISO-25
  9
$DIMCLRD
 70
     0
  9
$DIMCLRE
 70
     0
  9
$DIMCLRT
 70
     0
  9
$DIMTFAC
 40
1.0
  9
$DIMGAP
 40
1.5
  9
$DIMJUST
 70
     0
  9
$DIMSD1
 70
     0
  9
$DIMSD2
 70
     0
  9
$DIMTOLJ
 70
     0
  9
$DIMTZIN
 70
     0
  9
$DIMALTZ
 70
     0
  9
$DIMALTTZ
 70
     0
  9
$DIMUPT
 70
     0
  9
$DIMDEC
 70
     2
  9
$DIMTDEC
 70
     2
  9
$DIMALTU
 70
     2
  9
$DIMALTTD
 70
     3
  9
$DIMTXSTY
  7
Standard
  9
$DIMAUNIT
 70
     0
  9
$DIMADEC
 70
     2
  9
$DIMALTRND
 40
0.0
  9
$DIMAZIN
 70
     0
  9
$DIMDSEP
 70
    44
  9
$DIMATFIT
 70
     3
  9
$DIMFRAC
 70
     0
  9
$DIMLDRBLK
  1

  9
$DIMLUNIT
 70
     2
  9
$DIMLWD
 70
    -2
  9
$DIMLWE
 70
    -2
  9
$DIMTMOVE
 70
     0
  9
$LUNITS
 70
     2
  9
$LUPREC
 70
     2
  9
$SKETCHINC
 40
1.0
  9
$FILLETRAD
 40
10.0
  9
$AUNITS
 70
     0
  9
$AUPREC
 70
     2
  9
$MENU
  1
.
  9
$ELEVATION
 40
0.0
  9
$PELEVATION
 40
0.0
  9
$THICKNESS
 40
0.0
  9
$LIMCHECK
 70
     0
  9
$CHAMFERA
 40
0.0
  9
$CHAMFERB
 40
0.0
  9
$CHAMFERC
 40
0.0
  9
$CHAMFERD
 40
0.0
  9
$SKPOLY
 70
     0
  9
$TDCREATE
 40
2460006.329726018
  9
$TDUCREATE
 40
2460006.288059352
  9
$TDUPDATE
 40
2460006.329727789
  9
$TDUUPDATE
 40
2460006.288061123
  9
$TDINDWG
 40
0.0000000116
  9
$TDUSRTIMER
 40
0.0000000116
  9
$USRTIMER
 70
     1
  9
$ANGBASE
 50
0.0
  9
$ANGDIR
 70
     0
  9
$PDMODE
 70
     0
  9
$PDSIZE
 40
-1.0
  9
$PLINEWID
 40
0.0
  9
$SPLFRAME
 70
     0
  9
$SPLINETYPE
 70
     6
  9
$SPLINESEGS
 70
     8
  9
$HANDSEED
  5
1A4
  9
$SURFTAB1
 70
     6
  9
$SURFTAB2
 70
     6
  9
$SURFTYPE
 70
     6
  9
$SURFU
 70
     6
  9
$SURFV
 70
     6
  9
$UCSBASE
  2

  9
$UCSNAME
  2

  9
$UCSORG
 10
0.0
 20
0.0
 30
0.0
  9
$UCSXDIR
 10
1.0
 20
0.0
 30
0.0
  9
$UCSYDIR
 10
0.0
 20
1.0
 30
0.0
  9
$UCSORTHOREF
  2

  9
$UCSORTHOVIEW
 70
     0
  9
$UCSORGTOP
 10
0.0
 20
0.0
 30
0.0
  9
$UCSORGBOTTOM
 10
0.0
 20
0.0
 30
0.0
  9
$UCSORGLEFT
 10
0.0
 20
0.0
 30
0.0
  9
$UCSORGRIGHT
 10
0.0
 20
0.0
 30
0.0
  9
$UCSORGFRONT
 10
0.0
 20
0.0
 30
0.0
  9
$UCSORGBACK
 10
0.0
 20
0.0
 30
0.0
  9
$PUCSBASE
  2

  9
$PUCSNAME
  2

  9
$PUCSORG
 10
0.0
 20
0.0
 30
0.0
  9
$PUCSXDIR
 10
1.0
 20
0.0
 30
0.0
  9
$PUCSYDIR
 10
0.0
 20
1.0
 30
0.0
  9
$PUCSORTHOREF
  2

  9
$PUCSORTHOVIEW
 70
     0
  9
$PUCSORGTOP
 10
0.0
 20
0.0
 30
0.0
  9
$PUCSORGBOTTOM
 10
0.0
 20
0.0
 30
0.0
  9
$PUCSORGLEFT
 10
0.0
 20
0.0
 30
0.0
  9
$PUCSORGRIGHT
 10
0.0
 20
0.0
 30
0.0
  9
$PUCSORGFRONT
 10
0.0
 20
0.0
 30
0.0
  9
$PUCSORGBACK
 10
0.0
 20
0.0
 30
0.0
  9
$USERI1
 70
     0
  9
$USERI2
 70
     0
  9
$USERI3
 70
     0
  9
$USERI4
 70
     0
  9
$USERI5
 70
     0
  9
$USERR1
 40
0.0
  9
$USERR2
 40
0.0
  9
$USERR3
 40
0.0
  9
$USERR4
 40
0.0
  9
$USERR5
 40
0.0
  9
$WORLDVIEW
 70
     1
  9
$SHADEDGE
 70
     3
  9
$SHADEDIF
 70
    70
  9
$TILEMODE
 70
     1
  9
$MAXACTVP
 70
    64
  9
$PINSBASE
 10
0.0
 20
0.0
 30
0.0
  9
$PLIMCHECK
 70
     0
  9
$PEXTMIN
 10
1.0000000000E+20
 20
1.0000000000E+20
 30
1.0000000000E+20
  9
$PEXTMAX
 10
-1.0000000000E+20
 20
-1.0000000000E+20
 30
-1.0000000000E+20
  9
$PLIMMIN
 10
0.0
 20
0.0
  9
$PLIMMAX
 10
420.0
 20
297.0
  9
$UNITMODE
 70
     0
  9
$VISRETAIN
 70
     1
  9
$PLINEGEN
 70
     0
  9
$PSLTSCALE
 70
     1
  9
$TREEDEPTH
 70
  3020
  9
$CMLSTYLE
  2
Standard
  9
$CMLJUST
 70
     0
  9
$CMLSCALE
 40
20.0
  9
$PROXYGRAPHICS
 70
     1
  9
$MEASUREMENT
 70
     1
  9
$CELWEIGHT
370
    -1
  9
$ENDCAPS
280
     0
  9
$JOINSTYLE
280
     0
  9
$LWDISPLAY
290
     1
  9
$INSUNITS
 70
     4
  9
$HYPERLINKBASE
  1

  9
$STYLESHEET
  1

  9
$XEDIT
290
     1
  9
$CEPSNTYPE
380
     0
  9
$PSTYLEMODE
290
     1
  9
$FINGERPRINTGUID
  2
{3c431792-5abc-4392-8c73-5e79e25dbc39}
  9
$VERSIONGUID
  2
{FAEB1C32-E019-11D5-929B-00C0DF256EC4}
  9
$EXTNAMES
290
     1
  9
$PSVPSCALE
 40
0.0
  9
$OLESTARTUP
290
     0
  0
ENDSEC
  0
SECTION
  2
CLASSES
  0
CLASS
  1
ACDBDICTIONARYWDFLT
  2
AcDbDictionaryWithDefault
  3
ObjectDBX Classes
 90
        0
280
     0
281
     0
  0
CLASS
  1
VISUALSTYLE
  2
AcDbVisualStyle
  3
ObjectDBX Classes
 90
     4095
280
     0
281
     0
  0
CLASS
  1
MATERIAL
  2
AcDbMaterial
  3
ObjectDBX Classes
 90
     1153
280
     0
281
     0
  0
CLASS
  1
SCALE
  2
AcDbScale
  3
ObjectDBX Classes
 90
     1153
280
     0
281
     0
  0
CLASS
  1
TABLESTYLE
  2
AcDbTableStyle
  3
ObjectDBX Classes
 90
     4095
280
     0
281
     0
  0
CLASS
  1
MLEADERSTYLE
  2
AcDbMLeaderStyle
  3
ACDB_MLEADERSTYLE_CLASS
 90
     4095
280
     0
281
     0
  0
CLASS
  1
SUN
  2
AcDbSun
  3
SCENEOE
 90
     1153
280
     0
281
     0
  0
CLASS
  1
ACDBPLACEHOLDER
  2
AcDbPlaceHolder
  3
ObjectDBX Classes
 90
        0
280
     0
281
     0
  0
CLASS
  1
LAYOUT
  2
AcDbLayout
  3
ObjectDBX Classes
 90
        0
280
     0
281
     0
  0
ENDSEC
  0
SECTION
  2
TABLES
  0
TABLE
  2
VPORT
  5
8
330
0
100
AcDbSymbolTable
 70
     1
  0
VPORT
  5
29
330
8
100
AcDbSymbolTableRecord
100
AcDbViewportTableRecord
  2
*Active
 70
     0
 10
0.0
 20
0.0
 11
1.0
 21
1.0
 12
297.0
 22
420.5
 13
0.0
 23
0.0
 14
10.0
 24
10.0
 15
10.0
 25
10.0
 16
0.0
 26
0.0
 36
1.0
 17
0.0
 27
0.0
 37
0.0
 40
841.0
 41
0.7063020214
 42
50.0
 43
0.0
 44
0.0
 50
0.0
 51
0.0
 71
     0
 72
  2000
 73
     1
 74
     3
 75
     0
 76
     0
 77
     0
 78
     0
281
     0
 65
     1
110
0.0
120
0.0
130
0.0
111
1.0
121
0.0
131
0.0
112
0.0
122
1.0
132
0.0
 79
     0
146
0.0
  0
ENDTAB
  0
TABLE
  2
LTYPE
  5
5
330
0
100
AcDbSymbolTable
 70
     6
  0
LTYPE
  5
14
330
5
100
AcDbSymbolTableRecord
100
AcDbLinetypeTableRecord
  2
ByBlock
 70
     0
  3

 72
    65
 73
     0
 40
0.0
  0
LTYPE
  5
15
330
5
100
AcDbSymbolTableRecord
100
AcDbLinetypeTableRecord
  2
ByLayer
 70
     0
  3

 72
    65
 73
     0
 40
0.0
  0
LTYPE
  5
16
330
5
100
AcDbSymbolTableRecord
100
AcDbLinetypeTableRecord
  2
Continuous
 70
     0
  3
Solid line
 72
    65
 73
     0
 40
0.0
  0
LTYPE
  5
6E
330
5
100
AcDbSymbolTableRecord
100
AcDbLinetypeTableRecord
  2
HIDDEN
 70
     0
  3
Hidden __ __ __ __ __ __ __ __ __ __ __ __ __ __
 72
    65
 73
     2
 40
1.905
 49
1.27
 74
     0
 49
-0.635
 74
     0
  0
LTYPE
  5
6F
330
5
100
AcDbSymbolTableRecord
100
AcDbLinetypeTableRecord
  2
PHANTOM
 70
     0
  3
Phantom ______  __  __  ______  __  __  ______
 72
    65
 73
     6
 40
12.7
 49
6.35
 74
     0
 49
-1.27
 74
     0
 49
1.27
 74
     0
 49
-1.27
 74
     0
 49
1.27
 74
     0
 49
-1.27
 74
     0
  0
LTYPE
  5
70
330
5
100
AcDbSymbolTableRecord
100
AcDbLinetypeTableRecord
  2
CENTER
 70
     0
  3
Center ____ _ ____ _ ____ _ ____ _ ____ _ ____
 72
    65
 73
     4
 40
10.16
 49
6.35
 74
     0
 49
-1.27
 74
     0
 49
1.27
 74
     0
 49
-1.27
 74
     0
  0
LTYPE
  5
71
330
5
100
AcDbSymbolTableRecord
100
AcDbLinetypeTableRecord
  2
CENTERX2
 70
     0
  3
Center (2x) ________  __  ________  __  _____
 72
    65
 73
     4
 40
20.32
 49
12.7
 74
     0
 49
-2.54
 74
     0
 49
2.54
 74
     0
 49
-2.54
 74
     0
  0
LTYPE
  5
72
330
5
100
AcDbSymbolTableRecord
100
AcDbLinetypeTableRecord
  2
DOT2
 70
     0
  3
Dot (.5x) ........................................
 72
    65
 73
     2
 40
0.635
 49
0.0
 74
     0
 49
-0.635
 74
     0
  0
ENDTAB
  0
TABLE
  2
LAYER
  5
2
330
0
100
AcDbSymbolTable
 70
     1
  0
LAYER
  5
10
330
2
100
AcDbSymbolTableRecord
100
AcDbLayerTableRecord
  2
0
 70
     0
 62
     7
  6
Continuous
370
    -3
390
F
  0
ENDTAB
  0
TABLE
  2
STYLE
  5
3
330
0
100
AcDbSymbolTable
 70
     3
  0
STYLE
  5
11
330
3
100
AcDbSymbolTableRecord
100
AcDbTextStyleTableRecord
  2
Standard
 70
     0
 40
0.0
 41
1.0
 50
0.0
 71
     0
 42
10.0
  3
txt
  4

  0
STYLE
  5
76
330
3
100
AcDbSymbolTableRecord
100
AcDbTextStyleTableRecord
  2
SLDTEXTSTYLE0
 70
     0
 40
0.0
 41
0.96
 50
0.0
 71
     0
 42
10.0
  3
ISOCP3
  4

  0
STYLE
  5
8D
330
3
100
AcDbSymbolTableRecord
100
AcDbTextStyleTableRecord
  2
SLDTEXTSTYLE1
 70
     0
 40
0.0
 41
0.605
 50
0.0
 71
     0
 42
10.0
  3
TXT
  4

  0
ENDTAB
  0
TABLE
  2
VIEW
  5
6
330
0
100
AcDbSymbolTable
 70
     0
  0
ENDTAB
  0
TABLE
  2
UCS
  5
7
330
0
100
AcDbSymbolTable
 70
     0
  0
ENDTAB
  0
TABLE
  2
APPID
  5
9
330
0
100
AcDbSymbolTable
 70
     1
  0
APPID
  5
12
330
9
100
AcDbSymbolTableRecord
100
AcDbRegAppTableRecord
  2
ACAD
 70
     0
  0
ENDTAB
  0
TABLE
  2
DIMSTYLE
  5
A
330
0
100
AcDbSymbolTable
 70
     2
100
AcDbDimStyleTable
  0
DIMSTYLE
105
27
330
A
100
AcDbSymbolTableRecord
100
AcDbDimStyleTableRecord
  2
ISO-25
 70
     0
 41
2.5
 42
0.625
 43
3.75
 44
1.25
 73
     0
 74
     0
 77
     1
 78
     8
140
2.5
141
2.5
143
0.0393700787
147
0.625
171
     3
172
     1
178
     0
271
     2
272
     2
274
     3
278
    44
283
     0
284
     8
340
11
  0
DIMSTYLE
105
77
102
{ACAD_REACTORS
330
75
330
82
102
}
330
A
100
AcDbSymbolTableRecord
100
AcDbDimStyleTableRecord
  2
SLDDIMSTYLE0
 70
     0
 41
2.5
 44
0.0
 45
0.000000001
 73
     0
 74
     0
 77
     1
 78
    12
 79
     3
140
6.0
144
2.0
147
1.5
173
     1
178
     0
271
     2
272
     2
276
     2
284
    12
340
76
  0
ENDTAB
  0
TABLE
  2
BLOCK_RECORD
  5
1
330
0
100
AcDbSymbolTable
 70
     3
  0
BLOCK_RECORD
  5
1F
330
1
100
AcDbSymbolTableRecord
100
AcDbBlockTableRecord
  2
*Model_Space
340
22
  0
BLOCK_RECORD
  5
1B
330
1
100
AcDbSymbolTableRecord
100
AcDbBlockTableRecord
  2
*Paper_Space
340
1E
  0
BLOCK_RECORD
  5
23
330
1
100
AcDbSymbolTableRecord
100
AcDbBlockTableRecord
  2
*Paper_Space0
340
26
  0
BLOCK_RECORD
  5
78
330
1
100
AcDbSymbolTableRecord
100
AcDbBlockTableRecord
  2
_D
340
0
  0
BLOCK_RECORD
  5
83
330
1
100
AcDbSymbolTableRecord
100
AcDbBlockTableRecord
  2
_D_1
340
0
  0
ENDTAB
  0
ENDSEC
  0
SECTION
  2
BLOCKS
  0
BLOCK
  5
20
330
1F
100
AcDbEntity
  8
0
100
AcDbBlockBegin
  2
*Model_Space
 70
     0
 10
0.0
 20
0.0
 30
0.0
  3
*Model_Space
  1

  0
ENDBLK
  5
21
330
1F
100
AcDbEntity
  8
0
100
AcDbBlockEnd
  0
BLOCK
  5
1C
330
1B
100
AcDbEntity
 67
     1
  8
0
100
AcDbBlockBegin
  2
*Paper_Space
 70
     0
 10
0.0
 20
0.0
 30
0.0
  3
*Paper_Space
  1

  0
ENDBLK
  5
1D
330
1B
100
AcDbEntity
 67
     1
  8
0
100
AcDbBlockEnd
  0
BLOCK
  5
24
330
23
100
AcDbEntity
  8
0
100
AcDbBlockBegin
  2
*Paper_Space0
 70
     0
 10
0.0
 20
0.0
 30
0.0
  3
*Paper_Space0
  1

  0
ENDBLK
  5
25
330
23
100
AcDbEntity
  8
0
100
AcDbBlockEnd
  0
BLOCK
  5
79
330
78
100
AcDbEntity
  8
0
100
AcDbBlockBegin
  2
_D
 70
     0
 10
0.0
 20
0.0
 30
0.0
  3
_D
  1

  0
SOLID
  5
7B
330
78
100
AcDbEntity
  8
0
  6
Continuous
 62
     7
370
    18
100
AcDbTrace
 10
42.7614395004
 20
152.0299240879
 30
0.0
 11
42.4614395004
 21
149.5299240879
 31
0.0
 12
43.0614395004
 22
149.5299240879
 32
0.0
 13
43.0614395004
 23
149.5299240879
 33
0.0
  0
SOLID
  5
7C
330
78
100
AcDbEntity
  8
0
  6
Continuous
 62
     7
370
    18
100
AcDbTrace
 10
42.7614395004
 20
52.0299240879
 30
0.0
 11
43.0614395004
 21
54.5299240879
 31
0.0
 12
42.4614395004
 22
54.5299240879
 32
0.0
 13
42.4614395004
 23
54.5299240879
 33
0.0
  0
LINE
  5
7D
330
78
100
AcDbEntity
  8
0
  6
Continuous
 62
     7
370
     0
100
AcDbLine
 10
56.6850079902
 20
152.0299240879
 30
0.0
 11
41.7614395004
 21
152.0299240879
 31
0.0
  0
LINE
  5
7E
330
78
100
AcDbEntity
  8
0
  6
Continuous
 62
     7
370
     0
100
AcDbLine
 10
56.6850079902
 20
52.0299240879
 30
0.0
 11
41.7614395004
 21
52.0299240879
 31
0.0
  0
LINE
  5
7F
330
78
100
AcDbEntity
  8
0
  6
Continuous
 62
     7
370
     0
100
AcDbLine
 10
42.7614395004
 20
152.0299240879
 30
0.0
 11
42.7614395004
 21
52.0299240879
 31
0.0
  0
MTEXT
  5
80
330
78
100
AcDbEntity
  8
0
  6
Continuous
 62
     7
370
    18
100
AcDbMText
 10
35.0270332946
 20
94.3680541463
 30
0.0
 40
6.0
 41
0.0
 71
     1
 72
     1
  1
100
  7
SLDTEXTSTYLE0
 11
-7.044195017643634E-15
 21
1.0
 31
0.0
 73
     1
 44
1.0
  0
MTEXT
  5
81
330
78
100
AcDbEntity
  8
0
  6
Continuous
 62
     7
370
    18
100
AcDbMText
 10
35.0270332946
 20
105.7430548466
 30
0.0
 40
6.0
 41
0.0
 71
     1
 72
     1
  1
mm
  7
SLDTEXTSTYLE0
 11
-7.044195017643634E-15
 21
1.0
 31
0.0
 73
     1
 44
1.0
  0
ENDBLK
  5
7A
330
78
100
AcDbEntity
  8
0
100
AcDbBlockEnd
  0
BLOCK
  5
84
330
83
100
AcDbEntity
  8
0
100
AcDbBlockBegin
  2
_D_1
 70
     0
 10
0.0
 20
0.0
 30
0.0
  3
_D_1
  1

  0
SOLID
  5
86
330
83
100
AcDbEntity
  8
0
  6
Continuous
 62
     7
370
    18
100
AcDbTrace
 10
56.6850079902
 20
38.4602342313
 30
0.0
 11
59.1850079902
 21
38.1602342313
 31
0.0
 12
59.1850079902
 22
38.7602342313
 32
0.0
 13
59.1850079902
 23
38.7602342313
 33
0.0
  0
SOLID
  5
87
330
83
100
AcDbEntity
  8
0
  6
Continuous
 62
     7
370
    18
100
AcDbTrace
 10
156.6850079902
 20
38.4602342313
 30
0.0
 11
154.1850079902
 21
38.7602342313
 31
0.0
 12
154.1850079902
 22
38.1602342313
 32
0.0
 13
154.1850079902
 23
38.1602342313
 33
0.0
  0
LINE
  5
88
330
83
100
AcDbEntity
  8
0
  6
Continuous
 62
     7
370
     0
100
AcDbLine
 10
56.6850079902
 20
52.0299240879
 30
0.0
 11
56.6850079902
 21
37.4602342313
 31
0.0
  0
LINE
  5
89
330
83
100
AcDbEntity
  8
0
  6
Continuous
 62
     7
370
     0
100
AcDbLine
 10
156.6850079902
 20
52.0299240879
 30
0.0
 11
156.6850079902
 21
37.4602342313
 31
0.0
  0
LINE
  5
8A
330
83
100
AcDbEntity
  8
0
  6
Continuous
 62
     7
370
     0
100
AcDbLine
 10
56.6850079902
 20
38.4602342313
 30
0.0
 11
156.6850079902
 21
38.4602342313
 31
0.0
  0
MTEXT
  5
8B
330
83
100
AcDbEntity
  8
0
  6
Continuous
 62
     7
370
    18
100
AcDbMText
 10
93.9626484861
 20
46.1946404371
 30
0.0
 40
6.0
 41
0.0
 71
     1
 72
     1
  1
100
  7
SLDTEXTSTYLE0
 73
     1
 44
1.0
  0
MTEXT
  5
8C
330
83
100
AcDbEntity
  8
0
  6
Continuous
 62
     7
370
    18
100
AcDbMText
 10
105.3376491864
 20
46.1946404371
 30
0.0
 40
6.0
 41
0.0
 71
     1
 72
     1
  1
mm
  7
SLDTEXTSTYLE0
 73
     1
 44
1.0
  0
ENDBLK
  5
85
330
83
100
AcDbEntity
  8
0
100
AcDbBlockEnd
  0
ENDSEC
  0
SECTION
  2
ENTITIES
  0
LINE
  5
73
330
1F
100
AcDbEntity
  8
0
  6
Continuous
 62
     7
370
    18
100
AcDbLine
 10
56.6850079902
 20
152.0299240879
 30
0.0
 11
56.6850079902
 21
52.0299240879
 31
0.0
  0
LINE
  5
74
330
1F
100
AcDbEntity
  8
0
  6
Continuous
 62
     7
370
    18
100
AcDbLine
 10
56.6850079902
 20
52.0299240879
 30
0.0
 11
156.6850079902
 21
52.0299240879
 31
0.0
  0
DIMENSION
  5
75
330
1F
100
AcDbEntity
  8
0
  6
Continuous
 62
     7
370
    18
100
AcDbDimension
  2
_D
 10
42.7614395004
 20
52.0299240879
 30
0.0
 11
42.7614395004
 21
105.4472211621
 31
0.0
 70
   160
  1
<>mm
 71
     2
 42
-1.0
  3
SLDDIMSTYLE0
100
AcDbAlignedDimension
 13
56.6850079902
 23
152.0299240879
 33
0.0
 14
56.6850079902
 24
52.0299240879
 34
0.0
 50
90.0
100
AcDbRotatedDimension
  0
DIMENSION
  5
82
330
1F
100
AcDbEntity
  8
0
  6
Continuous
 62
     7
370
    18
100
AcDbDimension
  2
_D_1
 10
156.6850079902
 20
38.4602342313
 30
0.0
 11
105.0418155019
 21
38.4602342313
 31
0.0
 70
   160
  1
<>mm
 71
     2
 42
-1.0
  3
SLDDIMSTYLE0
100
AcDbAlignedDimension
 13
56.6850079902
 23
52.0299240879
 33
0.0
 14
156.6850079902
 24
52.0299240879
 34
0.0
100
AcDbRotatedDimension
  0
MTEXT
  5
8E
330
1F
100
AcDbEntity
  8
0
  6
Continuous
 62
     7
370
     0
100
AcDbMText
 10
412.8252631579
 20
48.4342449499
 30
0.0
 40
10.0
 41
0.0
 71
     1
 72
     1
  1
KLUDI GmbH & Co KG
  7
SLDTEXTSTYLE1
 73
     1
 44
1.0
  0
MTEXT
  5
8F
330
1F
100
AcDbEntity
  8
0
  6
Continuous
 62
     7
370
     0
100
AcDbMText
 10
210.0873490389
 20
48.4342449499
 30
0.0
 40
10.0
 41
0.0
 71
     1
 72
     1
  1
41 759 .. 75
  7
SLDTEXTSTYLE1
 73
     1
 44
1.0
  0
SPLINE
  5
90
330
1F
100
AcDbEntity
  8
0
  6
Continuous
 62
     7
370
    25
100
AcDbSpline
210
0.0
220
0.0
230
1.0
 70
     8
 71
     3
 72
    19
 73
    15
 74
     0
 42
0.00000001
 43
0.00000001
 40
0.0
 40
0.0
 40
0.0
 40
0.0
 40
0.1420009645900517
 40
0.2626419178843745
 40
0.3620080061169936
 40
0.440933234164806
 40
0.510349416464188
 40
0.5910304144693184
 40
0.6284154270001728
 40
0.6741959540716063
 40
0.7358171751203594
 40
0.8119957693232355
 40
0.9009325816845406
 40
1.0
 40
1.0
 40
1.0
 40
1.0
 10
178.1978142568094
 20
231.5184838544186
 30
0.0
 10
179.7015383063283
 20
231.5242172326359
 30
0.0
 10
182.4827938384626
 20
231.5348215651858
 30
0.0
 10
186.3157477092581
 20
231.6179546113627
 30
0.0
 10
189.4782372542988
 20
231.7463034190991
 30
0.0
 10
192.0986879116279
 20
231.8737095249565
 30
0.0
 10
194.5064044458022
 20
232.1868558573642
 30
0.0
 10
196.4174866876358
 20
232.8236431983665
 30
0.0
 10
197.8878090893531
 20
233.7585785977452
 30
0.0
 10
199.0222380598135
 20
234.8033126296475
 30
0.0
 10
200.1575851462861
 20
236.403515018981
 30
0.0
 10
201.0394627776408
 20
238.6619062818613
 30
0.0
 10
201.4761047820422
 20
241.4421907066089
 30
0.0
 10
201.4924367663806
 20
243.434251518588
 30
0.0
 10
201.5010427829503
 20
244.4839530123245
 30
0.0
  0
SPLINE
  5
91
330
1F
100
AcDbEntity
  8
0
  6
Continuous
 62
     7
370
    25
100
AcDbSpline
210
0.0
220
0.0
230
1.0
 70
     8
 71
     3
 72
     9
 73
     5
 74
     0
 42
0.00000001
 43
0.00000001
 40
0.0
 40
0.0
 40
0.0
 40
0.0
 40
0.4524477726911069
 40
1.0
 40
1.0
 40
1.0
 40
1.0
 10
153.9939115166214
 20
286.7208394795902
 30
0.0
 10
154.120072103635
 20
280.3506378532213
 30
0.0
 10
154.3989122143137
 20
266.2712191647844
 30
0.0
 10
154.7192312537784
 20
252.1926808538036
 30
0.0
 10
154.8946226572866
 20
244.4839458443724
 30
0.0
  0
SPLINE
  5
92
330
1F
100
AcDbEntity
  8
0
  6
Continuous
 62
     7
370
    25
100
AcDbSpline
210
0.0
220
0.0
230
1.0
 70
     8
 71
     3
 72
     9
 73
     5
 74
     0
 42
0.00000001
 43
0.00000001
 40
0.0
 40
0.0
 40
0.0
 40
0.0
 40
0.4525040573674301
 40
1.0
 40
1.0
 40
1.0
 40
1.0
 10
201.5011598459391
 20
244.4839439999959
 30
0.0
 10
201.6469070758816
 20
250.8543202164416
 30
0.0
 10
201.9689975136789
 20
264.9323734686204
 30
0.0
 10
202.2487065408496
 20
279.0113340619587
 30
0.0
 10
202.4018460983433
 20
286.7195078632952
 30
0.0
  0
SPLINE
  5
93
330
1F
100
AcDbEntity
  8
0
  6
Continuous
 62
     7
370
    25
100
AcDbSpline
210
0.0
220
0.0
230
1.0
 70
     8
 71
     3
 72
    19
 73
    15
 74
     0
 42
0.00000001
 43
0.00000001
 40
0.0
 40
0.0
 40
0.0
 40
0.0
 40
0.099258176154877
 40
0.1883794022069148
 40
0.2646299830952207
 40
0.3262253816636255
 40
0.3718907650952334
 40
0.4088299673304225
 40
0.4892972463757663
 40
0.5587412101156938
 40
0.6378628037823035
 40
0.7372954147770904
 40
0.8579898403604578
 40
1.0
 40
1.0
 40
1.0
 40
1.0
 10
154.8947417488258
 20
244.4839541821486
 30
0.0
 10
154.9035756097423
 20
243.4322821771031
 30
0.0
 10
154.9203411549408
 20
241.4363423834978
 30
0.0
 10
155.3566598374321
 20
238.6507009312934
 30
0.0
 10
156.2449928535512
 20
236.3923393773834
 30
0.0
 10
157.3796862432548
 20
234.7925009551654
 30
0.0
 10
158.5128105325726
 20
233.755318930856
 30
0.0
 10
159.977034235289
 20
232.8267099814448
 30
0.0
 10
161.8807732495905
 20
232.1901770598257
 30
0.0
 10
164.2883101839654
 20
231.8737367783241
 30
0.0
 10
166.9119118784705
 20
231.7467343504654
 30
0.0
 10
170.0777352875183
 20
231.6179446042354
 30
0.0
 10
173.9120834951232
 20
231.534845256845
 30
0.0
 10
176.6940141626048
 20
231.5242245080358
 30
0.0
 10
178.197841809389
 20
231.5184832521965
 30
0.0
  0
SPLINE
  5
94
330
1F
100
AcDbEntity
  8
0
  6
Continuous
 62
     7
370
    25
100
AcDbSpline
210
0.0
220
0.0
230
1.0
 70
     8
 71
     3
 72
    18
 73
    14
 74
     0
 42
0.00000001
 43
0.00000001
 40
0.0
 40
0.0
 40
0.0
 40
0.0
 40
0.1105180598838041
 40
0.2255258645717308
 40
0.3231317190354225
 40
0.4202816982918831
 40
0.5109493425486085
 40
0.6016664032610247
 40
0.7012948979957163
 40
0.7676198387726327
 40
0.8396699888985623
 40
0.9183432885181771
 40
1.0
 40
1.0
 40
1.0
 40
1.0
 10
153.0529489973095
 20
324.5939972341761
 30
0.0
 10
153.0788545781675
 20
323.1985492681778
 30
0.0
 10
153.1317181420626
 20
320.3509639112913
 30
0.0
 10
153.2118544584837
 20
316.2705943514821
 30
0.0
 10
153.2859227907768
 20
312.3589636100912
 30
0.0
 10
153.3573140492922
 20
308.7547592154619
 30
0.0
 10
153.4275736046478
 20
305.2375566297575
 30
0.0
 10
153.4989508030191
 20
301.6890583022822
 30
0.0
 10
153.56534234062
 20
298.4480021294648
 30
0.0
 10
153.6270344695238
 20
295.4426465763485
 30
0.0
 10
153.6928684080348
 20
292.7023353046699
 30
0.0
 10
153.7594020228074
 20
289.7673046657517
 30
0.0
 10
153.9154633912957
 20
287.7479712676524
 30
0.0
 10
153.9949460661396
 20
286.7195167472452
 30
0.0
  0
SPLINE
  5
95
330
1F
100
AcDbEntity
  8
0
  6
Continuous
 62
     7
370
    25
100
AcDbSpline
210
0.0
220
0.0
230
1.0
 70
     8
 71
     3
 72
    17
 73
    13
 74
     0
 42
0.00000001
 43
0.00000001
 40
0.0
 40
0.0
 40
0.0
 40
0.0
 40
0.1220588316465365
 40
0.2325649979212324
 40
0.3298146553255582
 40
0.4144283334075961
 40
0.4947597521470807
 40
0.5750685487864531
 40
0.6714456509191277
 40
0.7682751944072183
 40
0.8823853736736172
 40
1.0
 40
1.0
 40
1.0
 40
1.0
 10
202.4007959045817
 20
286.7172756887576
 30
0.0
 10
202.5035833474758
 20
288.2679683932603
 30
0.0
 10
202.6994295727799
 20
291.2225833173447
 30
0.0
 10
202.7620329337182
 20
295.4215774916003
 30
0.0
 10
202.8458379561492
 20
299.1422386922613
 30
0.0
 10
202.9121098238683
 20
302.4793746507499
 30
0.0
 10
202.9752355545789
 20
305.6008091252652
 30
0.0
 10
203.0403525584265
 20
308.8719983138797
 30
0.0
 10
203.1092859897707
 20
312.3531688676948
 30
0.0
 10
203.1832652763846
 20
316.2646204232187
 30
0.0
 10
203.2653752149748
 20
320.4463001414724
 30
0.0
 10
203.3202159626144
 20
323.3953130477976
 30
0.0
 10
203.348051023365
 20
324.8921189254499
 30
0.0
  0
SPLINE
  5
96
330
1F
100
AcDbEntity
  8
0
  6
Continuous
 62
     7
370
    25
100
AcDbSpline
210
0.0
220
0.0
230
1.0
 70
     8
 71
     3
 72
     9
 73
     5
 74
     0
 42
0.00000001
 43
0.00000001
 40
0.0
 40
0.0
 40
0.0
 40
0.0
 40
0.5158420346283549
 40
1.0
 40
1.0
 40
1.0
 40
1.0
 10
153.4917507423423
 20
348.7402578273835
 30
0.0
 10
153.4581283086856
 20
348.7439567336627
 30
0.0
 10
153.3929485997832
 20
348.7511273518577
 30
0.0
 10
153.3280724417837
 20
348.6905970632396
 30
0.0
 10
153.2966621331256
 20
348.6612908418589
 30
0.0
  0
SPLINE
  5
97
330
1F
100
AcDbEntity
  8
0
  6
Continuous
 62
     7
370
    25
100
AcDbSpline
210
0.0
220
0.0
230
1.0
 70
     8
 71
     3
 72
     9
 73
     5
 74
     0
 42
0.00000001
 43
0.00000001
 40
0.0
 40
0.0
 40
0.0
 40
0.0
 40
0.4841461378981913
 40
1.0
 40
1.0
 40
1.0
 40
1.0
 10
203.0990318395721
 20
348.6613803692215
 30
0.0
 10
203.0673919059326
 20
348.6908940439758
 30
0.0
 10
203.0020398744636
 20
348.7518543046161
 30
0.0
 10
202.9363782084077
 20
348.7448843820871
 30
0.0
 10
202.9025063843807
 20
348.7412889206319
 30
0.0
  0
SPLINE
  5
98
330
1F
100
AcDbEntity
  8
0
  6
Continuous
 62
     7
370
    25
100
AcDbSpline
210
0.0
220
0.0
230
1.0
 70
     8
 71
     3
 72
    18
 73
    14
 74
     0
 42
0.00000001
 43
0.00000001
 40
0.0
 40
0.0
 40
0.0
 40
0.0
 40
0.0135189405859878
 40
0.0432632920879611
 40
0.1011953665969862
 40
0.1646331034897658
 40
0.225595079601329
 40
0.3181801066805812
 40
0.405081491095315
 40
0.5055704003078344
 40
0.6371442882299437
 40
0.8017277008261274
 40
1.0
 40
1.0
 40
1.0
 40
1.0
 10
152.7068283476824
 20
346.4367536041886
 30
0.0
 10
152.7065820060064
 20
346.4410913121325
 30
0.0
 10
152.7057936637682
 20
346.4549728381721
 30
0.0
 10
152.7055310953163
 20
346.210904114164
 30
0.0
 10
152.7064411285979
 20
345.5537609364079
 30
0.0
 10
152.7092879317533
 20
344.6237187175253
 30
0.0
 10
152.7155634970508
 20
343.5032560844165
 30
0.0
 10
152.727725461649
 20
342.2057264747771
 30
0.0
 10
152.7507581824439
 20
340.5106330656239
 30
0.0
 10
152.7813530226623
 20
338.8372560560915
 30
0.0
 10
152.8211463069002
 20
337.2077121672424
 30
0.0
 10
152.8708744425546
 20
335.4403411638328
 30
0.0
 10
152.8913625881526
 20
334.3249535836352
 30
0.0
 10
152.9025577591303
 20
333.715481408271
 30
0.0
  0
SPLINE
  5
99
330
1F
100
AcDbEntity
  8
0
  6
Continuous
 62
     7
370
    25
100
AcDbSpline
210
0.0
220
0.0
230
1.0
 70
     8
 71
     3
 72
    18
 73
    14
 74
     0
 42
0.00000001
 43
0.00000001
 40
0.0
 40
0.0
 40
0.0
 40
0.0
 40
0.1982720937822507
 40
0.3628533785763146
 40
0.4944205306109748
 40
0.5948924415265366
 40
0.6817695535662276
 40
0.7743333547594115
 40
0.8477669772857915
 40
0.9234850275244646
 40
0.9567541977008277
 40
0.9864932973795572
 40
1.0
 40
1.0
 40
1.0
 40
1.0
 10
203.493102740009
 20
333.7071070421373
 30
0.0
 10
203.5043163597552
 20
334.317804264503
 30
0.0
 10
203.5248381575199
 20
335.4354277595469
 30
0.0
 10
203.5746063374087
 20
337.2054678728312
 30
0.0
 10
203.6144229281315
 20
338.8365399727194
 30
0.0
 10
203.6450291063377
 20
340.5109444447981
 30
0.0
 10
203.6680547413492
 20
342.2050817461548
 30
0.0
 10
203.6808746225116
 20
343.5737734613209
 30
0.0
 10
203.6873576514594
 20
344.8060085279082
 30
0.0
 10
203.6897689258057
 20
345.7583872537596
 30
0.0
 10
203.6901756776029
 20
346.2679567411342
 30
0.0
 10
203.6899904082509
 20
346.4551740899407
 30
0.0
 10
203.6892010658802
 20
346.4410924091708
 30
0.0
 10
203.6889545353014
 20
346.4366943620901
 30
0.0
  0
SPLINE
  5
9A
330
1F
100
AcDbEntity
  8
0
  6
Continuous
 62
     7
370
    25
100
AcDbSpline
210
0.0
220
0.0
230
1.0
 70
     8
 71
     3
 72
    13
 73
     9
 74
     0
 42
0.00000001
 43
0.00000001
 40
0.0
 40
0.0
 40
0.0
 40
0.0
 40
0.1851003964281483
 40
0.3620235419007331
 40
0.5314872326825143
 40
0.6940329999866787
 40
0.8500874651005357
 40
0.9999999999999999
 40
0.9999999999999999
 40
0.9999999999999999
 40
0.9999999999999999
 10
178.1978920599487
 20
357.2090364649087
 30
0.0
 10
176.5504760282777
 20
357.1513208498296
 30
0.0
 10
173.3284224925841
 20
357.0384393444567
 30
0.0
 10
168.6654744096995
 20
356.1577484851342
 30
0.0
 10
164.3196529291927
 20
354.8528078742653
 30
0.0
 10
160.3188537486757
 20
353.1383426611322
 30
0.0
 10
156.6520237540028
 20
351.1256073762877
 30
0.0
 10
154.4467828403195
 20
349.5206175855369
 30
0.0
 10
153.3662962014994
 20
348.7342318380257
 30
0.0
  0
LINE
  5
9B
330
1F
100
AcDbEntity
  8
0
  6
Continuous
 62
     7
370
    25
100
AcDbLine
 10
203.0294879191
 20
348.7342318375
 30
0.0
 11
202.8968149207
 21
348.8266408996
 31
0.0
  0
LINE
  5
9C
330
1F
100
AcDbEntity
  8
0
  6
Continuous
 62
     7
370
    25
100
AcDbLine
 10
202.9881325795
 20
348.7351408618
 30
0.0
 11
202.9010920557
 21
348.8353336851
 31
0.0
  0
SPLINE
  5
9D
330
1F
100
AcDbEntity
  8
0
  6
Continuous
 62
     7
370
    25
100
AcDbSpline
210
0.0
220
0.0
230
1.0
 70
     8
 71
     3
 72
     9
 73
     5
 74
     0
 42
0.00000001
 43
0.00000001
 40
0.0
 40
0.0
 40
0.0
 40
0.0
 40
0.5371050048362037
 40
1.0
 40
1.0
 40
1.0
 40
1.0
 10
153.4946937061888
 20
348.8353393414286
 30
0.0
 10
153.2974751472758
 20
348.68095220171
 30
0.0
 10
152.9302870608919
 20
348.3935090791765
 30
0.0
 10
152.7717727133125
 20
347.590953690038
 30
0.0
 10
152.6983972151563
 20
347.219454817064
 30
0.0
  0
SPLINE
  5
9E
330
1F
100
AcDbEntity
  8
0
  6
Continuous
 62
     7
370
    25
100
AcDbSpline
210
0.0
220
0.0
230
1.0
 70
     8
 71
     3
 72
     8
 73
     4
 74
     0
 42
0.00000001
 43
0.00000001
 40
0.0
 40
0.0
 40
0.0
 40
0.0
 40
0.0156494897640154
 40
0.0156494897640154
 40
0.0156494897640154
 40
0.0156494897640154
 10
178.1978920599487
 20
357.2084291038262
 30
0.0
 10
178.0532175974135
 20
357.2084754170371
 30
0.0
 10
177.9086398583995
 20
357.2077616021884
 30
0.0
 10
177.7641618308118
 20
357.2062883876597
 30
0.0
  0
SPLINE
  5
9F
330
1F
100
AcDbEntity
  8
0
  6
Continuous
 62
     7
370
    25
100
AcDbSpline
210
0.0
220
0.0
230
1.0
 70
     8
 71
     3
 72
     9
 73
     5
 74
     0
 42
0.00000001
 43
0.00000001
 40
0.0
 40
0.0
 40
0.0
 40
0.0
 40
0.9997578679932535
 40
1.0
 40
1.0
 40
1.0
 40
1.0
 10
153.4939542682392
 20
348.8335601602832
 30
0.0
 10
153.4903004210022
 20
348.8628938042749
 30
0.0
 10
153.4866456888376
 20
348.8922345526008
 30
0.0
 10
153.4917514046991
 20
348.740278495966
 30
0.0
 10
153.4917526409563
 20
348.7402417025411
 30
0.0
  0
SPLINE
  5
A0
330
1F
100
AcDbEntity
  8
0
  6
Continuous
 62
     7
370
    25
100
AcDbSpline
210
0.0
220
0.0
230
1.0
 70
     8
 71
     3
 72
     8
 73
     4
 74
     0
 42
0.00000001
 43
0.00000001
 40
0.0
 40
0.0
 40
0.0
 40
0.0
 40
1.0
 40
1.0
 40
1.0
 40
1.0
 10
178.197892516838
 20
357.2108264319164
 30
0.0
 10
178.3425464559906
 20
357.2107987541572
 30
0.0
 10
178.4871326913704
 20
357.209998864497
 30
0.0
 10
178.6316455421606
 20
357.2084287698447
 30
0.0
  0
SPLINE
  5
A1
330
1F
100
AcDbEntity
  8
0
  6
Continuous
 62
     7
370
    25
100
AcDbSpline
210
0.0
220
0.0
230
1.0
 70
     8
 71
     3
 72
     9
 73
     5
 74
     0
 42
0.00000001
 43
0.00000001
 40
0.0
 40
0.0
 40
0.0
 40
0.0
 40
0.0004955435040302
 40
1.0
 40
1.0
 40
1.0
 40
1.0
 10
202.9040275945882
 20
348.7401260612313
 30
0.0
 10
202.9040301257019
 20
348.7402013887737
 30
0.0
 10
202.9091378784887
 20
348.8922113371312
 30
0.0
 10
202.9054829606005
 20
348.8628784800699
 30
0.0
 10
202.901829853883
 20
348.8335601587154
 30
0.0
  0
LINE
  5
A2
330
1F
100
AcDbEntity
  8
0
  6
Continuous
 62
     7
370
    25
100
AcDbLine
 10
153.0692277532
 20
324.5945728003
 30
0.0
 11
152.9095088598
 21
333.8085701631
 31
0.0
  0
LINE
  5
A3
330
1F
100
AcDbEntity
  8
0
  6
Continuous
 62
     7
370
    25
100
AcDbLine
 10
203.4861209798
 20
333.7996855496
 30
0.0
 11
203.3317230695
 21
324.8926944932
 31
0.0
  0
SPLINE
  5
A4
330
1F
100
AcDbEntity
  8
0
  6
Continuous
 62
     7
370
    25
100
AcDbSpline
210
0.0
220
0.0
230
1.0
 70
     8
 71
     3
 72
    10
 73
     6
 74
     0
 42
0.00000001
 43
0.00000001
 40
0.0
 40
0.0
 40
0.0
 40
0.0
 40
0.5
 40
0.5
 40
1.0
 40
1.0
 40
1.0
 40
1.0
 10
153.4932570502461
 20
348.8330263527629
 30
0.0
 10
153.2550329027708
 20
348.6505678492481
 30
0.0
 10
153.0464834329366
 20
348.4023547667731
 30
0.0
 10
152.7670169229455
 20
347.8344419556609
 30
0.0
 10
152.6977705002867
 20
347.5178475686492
 30
0.0
 10
152.6983636273373
 20
347.2178088019792
 30
0.0
  0
SPLINE
  5
A5
330
1F
100
AcDbEntity
  8
0
  6
Continuous
 62
     7
370
    25
100
AcDbSpline
210
0.0
220
0.0
230
1.0
 70
     8
 71
     3
 72
    10
 73
     6
 74
     0
 42
0.00000001
 43
0.00000001
 40
0.0
 40
0.0
 40
0.0
 40
0.0
 40
0.5
 40
0.5
 40
1.0
 40
1.0
 40
1.0
 40
1.0
 10
202.9015231111102
 20
348.8330887573675
 30
0.0
 10
203.1396314529412
 20
348.6506926178251
 30
0.0
 10
203.3482733201396
 20
348.4028814831524
 30
0.0
 10
203.6280987042782
 20
347.8354381651433
 30
0.0
 10
203.6978310187955
 20
347.5189818887811
 30
0.0
 10
203.6974223799929
 20
347.219007319951
 30
0.0
  0
SPLINE
  5
A6
330
1F
100
AcDbEntity
  8
0
  6
Continuous
 62
     7
370
    25
100
AcDbSpline
210
0.0
220
0.0
230
1.0
 70
     8
 71
     3
 72
     9
 73
     5
 74
     0
 42
0.00000001
 43
0.00000001
 40
0.0
 40
0.0
 40
0.0
 40
0.0
 40
0.3858420544636105
 40
1.0
 40
1.0
 40
1.0
 40
1.0
 10
152.6994827488503
 20
347.217241438108
 30
0.0
 10
152.6998450320681
 20
347.2168322682448
 30
0.0
 10
152.7007839738282
 20
347.2157718087678
 30
0.0
 10
152.7066919805209
 20
347.2164336416401
 30
0.0
 10
152.7103204297736
 20
347.2168401115572
 30
0.0
  0
LINE
  5
A7
330
1F
100
AcDbEntity
  8
0
  6
Continuous
 62
     7
370
    25
100
AcDbLine
 10
153.4949608643
 20
348.835383267
 30
0.0
 11
153.4943749513
 21
348.8342396587
 31
0.0
  0
LINE
  5
A8
330
1F
100
AcDbEntity
  8
0
  6
Continuous
 62
     7
370
    25
100
AcDbLine
 10
154.5136101446
 20
349.5478222437
 30
0.0
 11
153.4972028959
 21
348.8358532806
 31
0.0
  0
LINE
  5
A9
330
1F
100
AcDbEntity
  8
0
  6
Continuous
 62
     7
370
    25
100
AcDbLine
 10
202.8991968772
 20
348.8359256414
 30
0.0
 11
202.899086131
 21
348.8359126244
 31
0.0
  0
SPLINE
  5
AA
330
1F
100
AcDbEntity
  8
0
  6
Continuous
 62
     7
370
    25
100
AcDbSpline
210
0.0
220
0.0
230
1.0
 70
    11
 71
     3
 72
    95
 73
    91
 74
     0
 42
0.00000001
 43
0.00000001
 40
0.0
 40
0.0
 40
0.0
 40
0.0
 40
0.0312500000000001
 40
0.0312500000000001
 40
0.0468750000000003
 40
0.0468750000000003
 40
0.0625000000000005
 40
0.0625000000000005
 40
0.0937500000000006
 40
0.0937500000000006
 40
0.1093750000000006
 40
0.1093750000000006
 40
0.1250000000000007
 40
0.1250000000000007
 40
0.1562500000000005
 40
0.1562500000000005
 40
0.1718750000000004
 40
0.1718750000000004
 40
0.1875000000000003
 40
0.2031250000000002
 40
0.2031250000000002
 40
0.2187500000000001
 40
0.2187500000000001
 40
0.2499999999999997
 40
0.2499999999999997
 40
0.2656249999999996
 40
0.2656249999999996
 40
0.2812499999999995
 40
0.2812499999999995
 40
0.3124999999999992
 40
0.3124999999999992
 40
0.3281249999999991
 40
0.3281249999999991
 40
0.343749999999999
 40
0.343749999999999
 40
0.3749999999999987
 40
0.3749999999999987
 40
0.4062499999999985
 40
0.4062499999999985
 40
0.4218749999999984
 40
0.4218749999999984
 40
0.4374999999999983
 40
0.4374999999999983
 40
0.468749999999998
 40
0.468749999999998
 40
0.4999999999999977
 40
0.4999999999999977
 40
0.5312499999999973
 40
0.5312499999999973
 40
0.546874999999997
 40
0.546874999999997
 40
0.5624999999999968
 40
0.5781249999999964
 40
0.5781249999999964
 40
0.5937499999999962
 40
0.5937499999999962
 40
0.624999999999996
 40
0.624999999999996
 40
0.640624999999996
 40
0.640624999999996
 40
0.6562499999999961
 40
0.6562499999999961
 40
0.6874999999999964
 40
0.6874999999999964
 40
0.7031249999999966
 40
0.7031249999999966
 40
0.7187499999999968
 40
0.7187499999999968
 40
0.749999999999997
 40
0.749999999999997
 40
0.7656249999999973
 40
0.7656249999999973
 40
0.7812499999999976
 40
0.7968749999999979
 40
0.7968749999999979
 40
0.8124999999999981
 40
0.8124999999999981
 40
0.8437499999999984
 40
0.8437499999999984
 40
0.8749999999999988
 40
0.8749999999999988
 40
0.9062499999999991
 40
0.9062499999999991
 40
0.9218749999999993
 40
0.9218749999999993
 40
0.9374999999999994
 40
0.9374999999999994
 40
0.9687499999999998
 40
0.9687499999999998
 40
1.0
 40
1.0
 40
1.0
 40
1.0
 10
169.7162487118484
 20
408.3109426513211
 30
0.0
 10
169.1824539169619
 20
407.7792590406388
 30
0.0
 10
168.7097505931571
 20
407.2040833136138
 30
0.0
 10
168.0885843513404
 20
406.2787501465488
 30
0.0
 10
167.8962859861037
 20
405.9597999493063
 30
0.0
 10
167.5418766182073
 20
405.3004086288004
 30
0.0
 10
167.3795091806393
 20
404.9588471376787
 30
0.0
 10
166.9486052091719
 20
403.923719123724
 30
0.0
 10
166.7317146560151
 20
403.2132958296002
 30
0.0
 10
166.511000404508
 20
402.1174274977161
 30
0.0
 10
166.4548677597808
 20
401.7457717733787
 30
0.0
 10
166.3796657885311
 20
400.9976749937119
 30
0.0
 10
166.3608054070213
 20
400.6246780616198
 30
0.0
 10
166.3586902973168
 20
399.508743129156
 30
0.0
 10
166.4293860159697
 20
398.7688320650894
 30
0.0
 10
166.6461690200106
 20
397.6651785999051
 30
0.0
 10
166.7372251939105
 20
397.2986695231946
 30
0.0
 10
166.9525719503685
 20
396.5839068853505
 30
0.0
 10
167.2018574484641
 20
395.8832304913461
 30
0.0
 10
167.517994691388
 20
395.2103008532135
 30
0.0
 10
167.8680128365241
 20
394.5514334527217
 30
0.0
 10
168.0610951627752
 20
394.2273909364392
 30
0.0
 10
168.6845561235471
 20
393.2901207854679
 30
0.0
 10
169.1553955236347
 20
392.7147501659942
 30
0.0
 10
169.942242652893
 20
391.9239274767065
 30
0.0
 10
170.2180530564864
 20
391.6724454518962
 30
0.0
 10
170.7975526621833
 20
391.1944699267932
 30
0.0
 10
171.0995998255125
 20
390.9695741523261
 30
0.0
 10
172.0282923386241
 20
390.346312637054
 30
0.0
 10
172.6824495794535
 20
389.994524644999
 30
0.0
 10
173.7165209270173
 20
389.5629536011394
 30
0.0
 10
174.0721027801219
 20
389.4347000890566
 30
0.0
 10
174.7885543949883
 20
389.2156880024983
 30
0.0
 10
175.1498352494618
 20
389.124499422513
 30
0.0
 10
176.2426228402513
 20
388.9045663135215
 30
0.0
 10
176.9829872934623
 20
388.8289309189924
 30
0.0
 10
178.4883182603996
 20
388.8251692630201
 30
0.0
 10
179.2310756208503
 20
388.8973810122565
 30
0.0
 10
180.3245634178753
 20
389.1119536795202
 30
0.0
 10
180.6859581689473
 20
389.201317859103
 30
0.0
 10
181.4024148549362
 20
389.4164765843456
 30
0.0
 10
181.7588823057106
 20
389.543015993132
 30
0.0
 10
182.7964461816266
 20
389.97007433611
 30
0.0
 10
183.4523514626911
 20
390.3188663020346
 30
0.0
 10
184.693440970067
 20
391.1430355857057
 30
0.0
 10
185.2817186634556
 20
391.6233638793217
 30
0.0
 10
186.3366708665656
 20
392.6734009996915
 30
0.0
 10
186.8099804914531
 20
393.246306638636
 30
0.0
 10
187.4370444676278
 20
394.1789550940472
 30
0.0
 10
187.6321600009193
 20
394.5026742683908
 30
0.0
 10
187.9858175911295
 20
395.1606005891111
 30
0.0
 10
188.3053798048491
 20
395.8324059893642
 30
0.0
 10
188.557894960419
 20
396.5315039890313
 30
0.0
 10
188.7764887034888
 20
397.2444102533471
 30
0.0
 10
188.8691501957101
 20
397.6094754260972
 30
0.0
 10
189.0917803740757
 20
398.7139234560273
 30
0.0
 10
189.1659733116087
 20
399.4538787119215
 30
0.0
 10
189.169269409125
 20
400.5691315473932
 30
0.0
 10
189.1522387348805
 20
400.941775579268
 30
0.0
 10
189.0808818041305
 20
401.6889008928985
 30
0.0
 10
189.0264471764172
 20
402.0621021101269
 30
0.0
 10
188.8108605876414
 20
403.1601734078309
 30
0.0
 10
188.5973097623241
 20
403.8715250892374
 30
0.0
 10
188.1720233231539
 20
404.9074434663704
 30
0.0
 10
188.0115968904948
 20
405.2493707568192
 30
0.0
 10
187.6599005168628
 20
405.9115322671631
 30
0.0
 10
187.4689625928769
 20
406.2317143061873
 30
0.0
 10
186.8520437946707
 20
407.1604051194637
 30
0.0
 10
186.3823850277026
 20
407.7373670914353
 30
0.0
 10
185.5872290599172
 20
408.5373242961584
 30
0.0
 10
185.3093866533102
 20
408.7903526061451
 30
0.0
 10
184.734572154356
 20
409.2646275749133
 30
0.0
 10
184.1388759622492
 20
409.7088921992803
 30
0.0
 10
183.5018244387722
 20
410.0937225752792
 30
0.0
 10
182.8436968437133
 20
410.4482632538805
 30
0.0
 10
182.5022978742152
 20
410.6110106117524
 30
0.0
 10
181.4661157336761
 20
411.0435127608274
 30
0.0
 10
180.7556669746556
 20
411.2609561961522
 30
0.0
 10
179.2960687776186
 20
411.5562983165015
 30
0.0
 10
178.5404218572632
 20
411.6330381839202
 30
0.0
 10
177.0513791076213
 20
411.6371838712413
 30
0.0
 10
176.3116924849687
 20
411.5670318215343
 30
0.0
 10
175.2095364893469
 20
411.3516467227827
 30
0.0
 10
174.8424158147718
 20
411.2608608006101
 30
0.0
 10
174.1265476606186
 20
411.0459051006643
 30
0.0
 10
173.7758669607097
 20
410.9214709488627
 30
0.0
 10
172.7451816788648
 20
410.4982424187846
 30
0.0
 10
172.0842794440931
 20
410.1486472839931
 30
0.0
 10
170.8304810142924
 20
409.3164141171624
 30
0.0
 10
170.2500435067348
 20
408.8426262620033
 30
0.0
 10
169.7162487118484
 20
408.3109426513211
 30
0.0
  0
ARC
  5
AB
330
1F
100
AcDbEntity
  8
0
  6
Continuous
 62
     7
370
    25
100
AcDbCircle
 10
177.7641501976
 20
10287.8300070411
 30
0.0
 40
10000.0
100
AcDbArc
 50
270.1415790371
 51
270.4168095398
  0
ARC
  5
AC
330
1F
100
AcDbEntity
  8
0
  6
Continuous
 62
     7
370
    25
100
AcDbCircle
 10
177.7641501976
 20
10287.8300070411
 30
0.0
 40
10000.0
100
AcDbArc
 50
269.5831904602
 51
269.8633542112
  0
ARC
  5
AD
330
1F
100
AcDbEntity
  8
0
  6
Continuous
 62
     7
370
    25
100
AcDbCircle
 10
177.7641501976
 20
-9563.1699929589
 30
0.0
 40
10000.0
100
AcDbArc
 50
89.5831904602
 51
90.4168095398
  0
ARC
  5
AE
330
1F
100
AcDbEntity
  8
0
  6
Continuous
 62
     7
370
    25
100
AcDbCircle
 10
10103.2641501976
 20
362.3300070411
 30
0.0
 40
10000.0
100
AcDbArc
 50
179.5831904602
 51
180.4168095398
  0
ARC
  5
AF
330
1F
100
AcDbEntity
  8
0
  6
Continuous
 62
     7
370
    25
100
AcDbCircle
 10
-9747.7358498024
 20
362.3300070411
 30
0.0
 40
10000.0
100
AcDbArc
 50
359.5831904602
 51
0.4168095398
  0
ARC
  5
B0
330
1F
100
AcDbEntity
  8
0
  6
Continuous
 62
     7
370
    25
100
AcDbCircle
 10
105.0287155548
 20
289.5945723983
 30
0.0
 40
1.500000000000095
100
AcDbArc
 50
180.4168095398
 51
269.5831904602
  0
ARC
  5
B1
330
1F
100
AcDbEntity
  8
0
  6
Continuous
 62
     7
370
    25
100
AcDbCircle
 10
105.0287155548
 20
435.0654416839
 30
0.0
 40
1.500000000000095
100
AcDbArc
 50
90.4168095398
 51
179.5831904602
  0
ARC
  5
B2
330
1F
100
AcDbEntity
  8
0
  6
Continuous
 62
     7
370
    25
100
AcDbCircle
 10
250.4995848404
 20
435.0654416839
 30
0.0
 40
1.500000000000095
100
AcDbArc
 50
0.4168095398
 51
89.5831904602
  0
ARC
  5
B3
330
1F
100
AcDbEntity
  8
0
  6
Continuous
 62
     7
370
    25
100
AcDbCircle
 10
250.4995848404
 20
289.5945723983
 30
0.0
 40
1.500000000000095
100
AcDbArc
 50
270.4168095398
 51
359.5831904602
  0
SPLINE
  5
B4
330
1F
100
AcDbEntity
  8
0
  6
Continuous
 62
     8
370
    18
100
AcDbSpline
210
0.0
220
0.0
230
1.0
 70
     8
 71
     3
 72
    33
 73
    29
 74
     0
 42
0.00000001
 43
0.00000001
 40
0.0
 40
0.0
 40
0.0
 40
0.0
 40
0.004369720328519
 40
0.0093990804892981
 40
0.0150899954929099
 40
0.0227841746923436
 40
0.0304638356354934
 40
0.0378104133850168
 40
0.0483573891277821
 40
0.0621074927730442
 40
0.0856424316323794
 40
0.1249090691707356
 40
0.1580574630300629
 40
0.2499541731918115
 40
0.3749598070109103
 40
0.499964173514009
 40
0.5240392243461014
 40
0.5513164197345192
 40
0.5817955459600854
 40
0.6154762330949657
 40
0.6523579070666276
 40
0.6924398601830217
 40
0.7357229524431612
 40
0.7822111983381399
 40
0.8319072679584713
 40
0.8848173005972901
 40
0.9409146764423898
 40
1.0
 40
1.0
 40
1.0
 40
1.0
 10
201.4648346951277
 20
286.7407789759143
 30
0.0
 10
201.4669905517045
 20
286.813851981412
 30
0.0
 10
201.47162770648
 20
286.9710288734398
 30
0.0
 10
201.4863927806092
 20
287.2230671107363
 30
0.0
 10
201.5094369073074
 20
287.5302485745736
 30
0.0
 10
201.5376422495119
 20
287.8814938171839
 30
0.0
 10
201.5704656210508
 20
288.260156850462
 30
0.0
 10
201.5964460483963
 20
288.6872253006858
 30
0.0
 10
201.6157393582515
 20
289.2162717205923
 30
0.0
 10
201.6380016523333
 20
290.0161510614705
 30
0.0
 10
201.6625130180472
 20
291.2965763272729
 30
0.0
 10
201.6906262892633
 20
292.9014873339915
 30
0.0
 10
201.737610710277
 20
295.6498861825168
 30
0.0
 10
201.8084589616912
 20
299.8324250440144
 30
0.0
 10
201.9021552186312
 20
305.551472684265
 30
0.0
 10
201.9739053832341
 20
310.1361256900586
 30
0.0
 10
202.0191897967647
 20
313.0860771261154
 30
0.0
 10
202.0402993574443
 20
314.4548849496207
 30
0.0
 10
202.0638414644479
 20
315.9843686430672
 30
0.0
 10
202.0897849733348
 20
317.6745092864316
 30
0.0
 10
202.1180635271859
 20
319.5252801745276
 30
0.0
 10
202.1486209350028
 20
321.5366747604
 30
0.0
 10
202.1813758122452
 20
323.7087637014297
 30
0.0
 10
202.216217203083
 20
326.0416766445841
 30
0.0
 10
202.2531693243227
 20
328.535627542212
 30
0.0
 10
202.2923434018841
 20
331.1903115367141
 30
0.0
 10
202.332970770909
 20
334.0020411625503
 30
0.0
 10
202.3604202826975
 20
335.9287540635424
 30
0.0
 10
202.374501071687
 20
336.9171008877448
 30
0.0
  0
SPLINE
  5
B5
330
1F
100
AcDbEntity
  8
0
  6
Continuous
 62
     8
370
    18
100
AcDbSpline
210
0.0
220
0.0
230
1.0
 70
     8
 71
     3
 72
    31
 73
    27
 74
     0
 42
0.00000001
 43
0.00000001
 40
0.0
 40
0.0
 40
0.0
 40
0.0
 40
0.0308171162239634
 40
0.0625847024433226
 40
0.0953210063608999
 40
0.1290246131081424
 40
0.1636851545147577
 40
0.1993268400566998
 40
0.2359389395654163
 40
0.2734940301820759
 40
0.3119674621555064
 40
0.3513532052889577
 40
0.3916575217473373
 40
0.4328869686496953
 40
0.4750439600757915
 40
0.5181286127718671
 40
0.5621410164831244
 40
0.6070811600769914
 40
0.652949029182108
 40
0.6997446294404495
 40
0.7474679616946729
 40
0.7961190143931764
 40
0.8456977695550826
 40
0.8962042057616352
 40
0.9476382944053299
 40
1.0
 40
1.0
 40
1.0
 40
1.0
 10
200.5798322248672
 20
244.5035857376614
 30
0.0
 10
200.5903973328028
 20
244.9373986274164
 30
0.0
 10
200.611853400646
 20
245.818404183682
 30
0.0
 10
200.6394890369412
 20
247.1603591179448
 30
0.0
 10
200.6706134996431
 20
248.5428937061364
 30
0.0
 10
200.7030166908708
 20
249.9661465768936
 30
0.0
 10
200.7367495759904
 20
251.430290929145
 30
0.0
 10
200.7709505257047
 20
252.9353905760301
 30
0.0
 10
200.8056063113481
 20
254.48124924333
 30
0.0
 10
200.8407186893644
 20
256.0669821816863
 30
0.0
 10
200.8763011645758
 20
257.6917706257966
 30
0.0
 10
200.9123663264803
 20
259.3552703024181
 30
0.0
 10
200.9489314101203
 20
261.0575763895637
 30
0.0
 10
200.986028567648
 20
262.798902694408
 30
0.0
 10
201.0236534163141
 20
264.5793772575256
 30
0.0
 10
201.0617870356765
 20
266.3990373327423
 30
0.0
 10
201.1004124847417
 20
268.2578859687735
 30
0.0
 10
201.1395112716077
 20
270.155924394194
 30
0.0
 10
201.1790646937674
 20
272.093152651294
 30
0.0
 10
201.2190534726692
 20
274.0695709564687
 30
0.0
 10
201.2594580829101
 20
276.0851795644897
 30
0.0
 10
201.3002576033343
 20
278.1399784175456
 30
0.0
 10
201.3414339761258
 20
280.2339670831953
 30
0.0
 10
201.3829557279613
 20
282.3671451360062
 30
0.0
 10
201.4248403836179
 20
284.5395109670183
 30
0.0
 10
201.452641591131
 20
286.0008219220273
 30
0.0
 10
201.4666664237715
 20
286.7380072248608
 30
0.0
  0
SPLINE
  5
B6
330
1F
100
AcDbEntity
  8
0
  6
Continuous
 62
     8
370
    18
100
AcDbSpline
210
0.0
220
0.0
230
1.0
 70
     8
 71
     3
 72
    29
 73
    25
 74
     0
 42
0.00000001
 43
0.00000001
 40
0.0
 40
0.0
 40
0.0
 40
0.0
 40
0.0505235595428708
 40
0.1003383347248635
 40
0.1496344180937436
 40
0.1985925194174817
 40
0.2473804052974958
 40
0.3314646689965216
 40
0.4011165657756497
 40
0.4559142715253879
 40
0.4953575690740658
 40
0.5391041514140326
 40
0.5815631641080575
 40
0.6222952184717603
 40
0.6493087293868994
 40
0.679686453801371
 40
0.7132678632480451
 40
0.7500877474479918
 40
0.8070499433906531
 40
0.8758538305037333
 40
0.906408002315302
 40
0.9380010519904582
 40
0.9689922349506553
 40
1.0
 40
1.0
 40
1.0
 40
1.0
 10
178.19789205995
 20
232.2976601806555
 30
0.0
 10
178.7096313678044
 20
232.2985012465529
 30
0.0
 10
179.7259309006946
 20
232.3001715792116
 30
0.0
 10
181.241467554424
 20
232.3154168826279
 30
0.0
 10
182.7409985994096
 20
232.3402365807048
 30
0.0
 10
184.2298982231056
 20
232.3756466514296
 30
0.0
 10
186.0706090298096
 20
232.4338663697704
 30
0.0
 10
188.1200694867654
 20
232.5170280668715
 30
0.0
 10
190.2288516051259
 20
232.6318727549013
 30
0.0
 10
191.8837142935477
 20
232.7571108461337
 30
0.0
 10
193.2734023895663
 20
232.9085302394946
 30
0.0
 10
194.5228983261802
 20
233.162721970756
 30
0.0
 10
195.7472886680141
 20
233.5658529179316
 30
0.0
 10
196.7466568776747
 20
234.078205115699
 30
0.0
 10
197.5429165830373
 20
234.677382851954
 30
0.0
 10
198.2078006642029
 20
235.3188546084038
 30
0.0
 10
198.8429539612447
 20
236.1221825676793
 30
0.0
 10
199.4957105322976
 20
237.2396820836409
 30
0.0
 10
200.0804621882639
 20
238.7893516333195
 30
0.0
 10
200.3794365306633
 20
240.3510364249018
 30
0.0
 10
200.509018999598
 20
241.6712530920299
 30
0.0
 10
200.5549015364161
 20
242.6138087316671
 30
0.0
 10
200.573094792268
 20
243.561589997466
 30
0.0
 10
200.5774081088486
 20
244.1895299405425
 30
0.0
 10
200.5795653439535
 20
244.5035838857324
 30
0.0
  0
SPLINE
  5
B7
330
1F
100
AcDbEntity
  8
0
  6
Continuous
 62
     8
370
    18
100
AcDbSpline
210
0.0
220
0.0
230
1.0
 70
     8
 71
     3
 72
    30
 73
    26
 74
     0
 42
0.00000001
 43
0.00000001
 40
0.0
 40
0.0
 40
0.0
 40
0.0
 40
0.0313109823712317
 40
0.0620496668015792
 40
0.0726767192119588
 40
0.0866136027670687
 40
0.1038675513182854
 40
0.1244546759528469
 40
0.1716984787393391
 40
0.2136039795852413
 40
0.2503219221306917
 40
0.2984958029379765
 40
0.3410136766690186
 40
0.3776810521914249
 40
0.4182498330948264
 40
0.460530392752091
 40
0.504087169067057
 40
0.5435191090468234
 40
0.5983723229033795
 40
0.6681425018240303
 40
0.7524045551416323
 40
0.813457227921798
 40
0.8748439574646069
 40
0.9369029829267619
 40
1.0
 40
1.0
 40
1.0
 40
1.0
 10
155.8162187759467
 20
244.5035838857584
 30
0.0
 10
155.8234342817433
 20
244.1865164014405
 30
0.0
 10
155.8377334092881
 20
243.5581767498039
 30
0.0
 10
155.8397691062191
 20
242.8220573415095
 30
0.0
 10
155.8535717670223
 20
242.2620609614581
 30
0.0
 10
155.8777978156817
 20
241.839132255966
 30
0.0
 10
155.9199384377397
 20
241.3163339745101
 30
0.0
 10
156.0140044160393
 20
240.4596174257735
 30
0.0
 10
156.2018669742039
 20
239.3621445464153
 30
0.0
 10
156.5538349921091
 20
238.1337721494273
 30
0.0
 10
157.0526866085328
 20
236.9472962552121
 30
0.0
 10
157.7317918922341
 20
235.8404316482558
 30
0.0
 10
158.6027640376298
 20
234.8800717674672
 30
0.0
 10
159.5596749018606
 20
234.1250144561116
 30
0.0
 10
160.642655524537
 20
233.5682865471821
 30
0.0
 10
161.8616839921865
 20
233.1658174762001
 30
0.0
 10
163.1070894265245
 20
232.9108582601434
 30
0.0
 10
164.4952686237987
 20
232.7587286831988
 30
0.0
 10
166.1517614333603
 20
232.632925840884
 30
0.0
 10
168.2641223239544
 20
232.5175917000934
 30
0.0
 10
170.4407209661376
 20
232.4290793369795
 30
0.0
 10
172.5333251018213
 20
232.3647280597904
 30
0.0
 10
174.4016641273778
 20
232.3257115802115
 30
0.0
 10
176.2910010218615
 20
232.3016641028944
 30
0.0
 10
177.5586962226724
 20
232.2990021669531
 30
0.0
 10
178.1978006886563
 20
232.2976601604936
 30
0.0
  0
SPLINE
  5
B8
330
1F
100
AcDbEntity
  8
0
  6
Continuous
 62
     8
370
    18
100
AcDbSpline
210
0.0
220
0.0
230
1.0
 70
     8
 71
     3
 72
    15
 73
    11
 74
     0
 42
0.00000001
 43
0.00000001
 40
0.0
 40
0.0
 40
0.0
 40
0.0
 40
0.154302245670386
 40
0.3002553997914289
 40
0.437859025494814
 40
0.567113084778383
 40
0.6880326011345456
 40
0.8006732305392646
 40
0.9046790703229826
 40
1.0
 40
1.0
 40
1.0
 40
1.0
 10
154.9291176961273
 20
286.7380072248602
 30
0.0
 10
154.9706927195959
 20
284.5656353968756
 30
0.0
 10
155.0515931966995
 20
280.3384359230554
 30
0.0
 10
155.1741696560045
 20
274.1740485736676
 30
0.0
 10
155.2927498881888
 20
268.3623625128242
 30
0.0
 10
155.4071438382581
 20
262.9031704007501
 30
0.0
 10
155.5167846816907
 20
257.7954667472064
 30
0.0
 10
155.6216880605537
 20
253.0432716500899
 30
0.0
 10
155.7231535464547
 20
248.6515469956458
 30
0.0
 10
155.7859308737085
 20
245.8454849770998
 30
0.0
 10
155.8159518950326
 20
244.5035857376608
 30
0.0
  0
SPLINE
  5
B9
330
1F
100
AcDbEntity
  8
0
  6
Continuous
 62
     8
370
    18
100
AcDbSpline
210
0.0
220
0.0
230
1.0
 70
     8
 71
     3
 72
    32
 73
    28
 74
     0
 42
0.00000001
 43
0.00000001
 40
0.0
 40
0.0
 40
0.0
 40
0.0
 40
0.0498523964761498
 40
0.0979546309430495
 40
0.1441687371123059
 40
0.1884414663644094
 40
0.2307798481706024
 40
0.2711854212270401
 40
0.3096602419397986
 40
0.3462071781803176
 40
0.3808268579762586
 40
0.4135187934904011
 40
0.4442825427704661
 40
0.4731177855768614
 40
0.5000243224992714
 40
0.6250263773527522
 40
0.7500292631305913
 40
0.8125512954294201
 40
0.8750731673841626
 40
0.9157171967605885
 40
0.9378792209998056
 40
0.9562508699347992
 40
0.9695300257164302
 40
0.9773100910971435
 40
0.9849080694171204
 40
0.9924543386081811
 40
1.0
 40
1.0
 40
1.0
 40
1.0
 10
154.0212830471569
 20
336.9171009606152
 30
0.0
 10
154.0331833563022
 20
336.0832006730565
 30
0.0
 10
154.0565661918897
 20
334.4446757337349
 30
0.0
 10
154.0911464124861
 20
332.0331135678521
 30
0.0
 10
154.1251507237461
 20
329.7149000422191
 30
0.0
 10
154.1579711150885
 20
327.4930861309346
 30
0.0
 10
154.1894878168476
 20
325.3684372568133
 30
0.0
 10
154.2197968222862
 20
323.3407754036847
 30
0.0
 10
154.2488981527707
 20
321.4099932267301
 30
0.0
 10
154.2767268417016
 20
319.5759953590466
 30
0.0
 10
154.303237005406
 20
317.8387310911041
 30
0.0
 10
154.3283990025162
 20
316.198205273808
 30
0.0
 10
154.3521775288408
 20
314.6544383775429
 30
0.0
 10
154.3745521449726
 20
313.2074462144096
 30
0.0
 10
154.4213475119816
 20
310.1841151773229
 30
0.0
 10
154.4943536885268
 20
305.5521929546866
 30
0.0
 10
154.579355174879
 20
300.3245687262271
 30
0.0
 10
154.6494792949548
 20
296.1420831353266
 30
0.0
 10
154.6967306035208
 20
293.3706647014478
 30
0.0
 10
154.7342258877044
 20
291.2743695292944
 30
0.0
 10
154.7599187301256
 20
289.916575028022
 30
0.0
 10
154.7855580269576
 20
289.0166680353519
 30
0.0
 10
154.8181787088551
 20
288.3577520993242
 30
0.0
 10
154.85479977249
 20
287.8797275003952
 30
0.0
 10
154.8891207714083
 20
287.4978165413708
 30
0.0
 10
154.9197374063997
 20
287.1193837846249
 30
0.0
 10
154.9272121856556
 20
286.8669771905467
 30
0.0
 10
154.9309494247672
 20
286.740778976109
 30
0.0
  0
SPLINE
  5
BA
330
1F
100
AcDbEntity
  8
0
  6
Continuous
 62
     8
370
    18
100
AcDbSpline
210
0.0
220
0.0
230
1.0
 70
     8
 71
     3
 72
    15
 73
    11
 74
     0
 42
0.00000001
 43
0.00000001
 40
0.0
 40
0.0
 40
0.0
 40
0.0
 40
0.1447533890112608
 40
0.2913590091137036
 40
0.4362780779443372
 40
0.5096118661583923
 40
0.5816118990108577
 40
0.7249554000384051
 40
0.8672465151480548
 40
1.0
 40
1.0
 40
1.0
 40
1.0
 10
153.4917526409563
 20
348.7402417025411
 30
0.0
 10
153.4952902023306
 20
348.6175974366288
 30
0.0
 10
153.5024105909013
 20
348.37073957697
 30
0.0
 10
153.5490804130984
 20
347.245240224226
 30
0.0
 10
153.6187091451631
 20
345.9162648674052
 30
0.0
 10
153.6940214362578
 20
344.6778611522246
 30
0.0
 10
153.7741215839836
 20
343.3242413939087
 30
0.0
 10
153.8816086927901
 20
341.4805311431313
 30
0.0
 10
153.9711893920794
 20
339.1775812912618
 30
0.0
 10
154.0041247687915
 20
337.6471227336157
 30
0.0
 10
154.0200214125869
 20
336.9084290563817
 30
0.0
  0
SPLINE
  5
BB
330
1F
100
AcDbEntity
  8
0
  6
Continuous
 62
     8
370
    18
100
AcDbSpline
210
0.0
220
0.0
230
1.0
 70
     8
 71
     3
 72
    10
 73
     6
 74
     0
 42
0.00000001
 43
0.00000001
 40
0.0156494897640154
 40
0.0156494897640154
 40
0.0156494897640154
 40
0.0156494897640154
 40
0.5078199924081792
 40
0.7539099962040896
 40
0.9632152332698326
 40
0.9632152332698326
 40
0.9632152332698326
 40
0.9632152332698326
 10
177.7641618308118
 20
357.2062883876597
 30
0.0
 10
173.2203827983235
 20
357.1599563508965
 30
0.0
 10
166.5526049809636
 20
355.9637916558257
 30
0.0
 10
158.5476632167905
 20
352.3247856821048
 30
0.0
 10
155.0350127425934
 20
350.0124665652218
 30
0.0
 10
153.4997278881686
 20
348.8379791916969
 30
0.0
  0
SPLINE
  5
BC
330
1F
100
AcDbEntity
  8
0
  6
Continuous
 62
     8
370
    25
100
AcDbSpline
210
0.0
220
0.0
230
1.0
 70
     8
 71
     3
 72
    28
 73
    24
 74
     0
 42
0.00000001
 43
0.00000001
 40
0.0
 40
0.0
 40
0.0
 40
0.0
 40
0.0235196921542154
 40
0.048361972674095
 40
0.0745238838684614
 40
0.102002763276902
 40
0.1307963118137088
 40
0.1609026610985709
 40
0.1923204404412776
 40
0.2250488440515076
 40
0.2590876992114274
 40
0.3843851299351732
 40
0.470447707118608
 40
0.517429752275042
 40
0.6028610375627786
 40
0.6896804735906801
 40
0.7779629079247965
 40
0.8439239531352616
 40
0.8873966338874498
 40
0.9082842180799855
 40
0.9406367023364445
 40
0.9712095603875232
 40
1.0
 40
1.0
 40
1.0
 40
1.0
 10
178.6316455421606
 20
357.2084287698447
 30
0.0
 10
178.8364202008617
 20
357.2053059557608
 30
0.0
 10
179.2574846596783
 20
357.198884721656
 30
0.0
 10
179.9060263366365
 20
357.176273678091
 30
0.0
 10
180.5885465404498
 20
357.1420255626608
 30
0.0
 10
181.304680572244
 20
357.0934732396955
 30
0.0
 10
182.0540214140121
 20
357.0290910194409
 30
0.0
 10
182.8360980708565
 20
356.9469280440136
 30
0.0
 10
183.6503679862638
 20
356.8450648491632
 30
0.0
 10
184.4962364987772
 20
356.7214783728961
 30
0.0
 10
186.1451712406363
 20
356.4443035870538
 30
0.0
 10
188.2337107360084
 20
355.9821912372014
 30
0.0
 10
190.3926277648816
 20
355.3481186974477
 30
0.0
 10
192.1932673527026
 20
354.7346233824844
 30
0.0
 10
193.9733196860267
 20
354.0423463826478
 30
0.0
 10
196.0399152915148
 20
353.103886666068
 30
0.0
 10
197.9002931469742
 20
352.1292565579873
 30
0.0
 10
199.3842044379732
 20
351.2554511558071
 30
0.0
 10
200.3412662334257
 20
350.6455145304203
 30
0.0
 10
201.0419619808163
 20
350.1783748355724
 30
0.0
 10
201.6420724342829
 20
349.7630087006272
 30
0.0
 10
202.2901007090838
 20
349.296216439265
 30
0.0
 10
202.7020854385079
 20
348.9842021061164
 30
0.0
 10
202.9018927595394
 20
348.8328791478189
 30
0.0
  0
SPLINE
  5
BD
330
1F
100
AcDbEntity
  8
0
  6
Continuous
 62
     8
370
    18
100
AcDbSpline
210
0.0
220
0.0
230
1.0
 70
     8
 71
     3
 72
    14
 73
    10
 74
     0
 42
0.00000001
 43
0.00000001
 40
0.0
 40
0.0
 40
0.0
 40
0.0
 40
0.1327946150069591
 40
0.2751298152216649
 40
0.4185177278978153
 40
0.5636207276230184
 40
0.7085846947399528
 40
0.8552357367013222
 40
1.0
 40
1.0
 40
1.0
 40
1.0
 10
202.375762707311
 20
336.9084290563823
 30
0.0
 10
202.3916465978918
 20
337.6471494589017
 30
0.0
 10
202.4245555519203
 20
339.1776633870079
 30
0.0
 10
202.5143458609197
 20
341.4801732873553
 30
0.0
 10
202.6429739132273
 20
343.7022323558787
 30
0.0
 10
202.7629049295087
 20
345.6590659471325
 30
0.0
 10
202.8468338043679
 20
347.2441411734777
 30
0.0
 10
202.8933384002915
 20
348.3709384610843
 30
0.0
 10
202.900479942545
 20
348.6175958585194
 30
0.0
 10
202.9040275945882
 20
348.7401260612313
 30
0.0
  0
SPLINE
  5
BE
330
1F
100
AcDbEntity
  8
0
  6
Continuous
 62
     8
370
    18
100
AcDbSpline
210
0.0
220
0.0
230
1.0
 70
     8
 71
     3
 72
    13
 73
     9
 74
     0
 42
0.00000001
 43
0.00000001
 40
0.0
 40
0.0
 40
0.0
 40
0.0
 40
0.1628882845211887
 40
0.339205610992665
 40
0.5257680441283423
 40
0.7179093839767298
 40
0.9100507238252573
 40
1.0
 40
1.0
 40
1.0
 40
1.0
 10
178.1978552746801
 20
232.2976601887805
 30
0.0
 10
178.1978566257029
 20
232.2245294535947
 30
0.0
 10
178.1978594391314
 20
232.0722388466675
 30
0.0
 10
178.1978580449241
 20
231.8684040881944
 30
0.0
 10
178.197851807884
 20
231.6934515887395
 30
0.0
 10
178.197839986576
 20
231.5733328073098
 30
0.0
 10
178.1978269191572
 20
231.515580480678
 30
0.0
 10
178.1978170488496
 20
231.5238573943064
 30
0.0
 10
178.1978139015381
 20
231.5264966256297
 30
0.0
  0
SPLINE
  5
BF
330
1F
100
AcDbEntity
  8
0
  6
Continuous
 62
     8
370
    18
100
AcDbSpline
210
0.0
220
0.0
230
1.0
 70
     8
 71
     3
 72
    13
 73
     9
 74
     0
 42
0.00000001
 43
0.00000001
 40
0.0
 40
0.0
 40
0.0
 40
0.0
 40
0.1510068274474124
 40
0.3154631967150144
 40
0.4902921122994797
 40
0.6708130917585098
 40
0.8513407326055391
 40
1.0
 40
1.0
 40
1.0
 40
1.0
 10
200.5795655094327
 20
244.5035901367504
 30
0.0
 10
200.6564433525893
 20
244.5016563696586
 30
0.0
 10
200.8170462244509
 20
244.4976166029885
 30
0.0
 10
201.0428560851209
 20
244.4922283517722
 30
0.0
 10
201.245786792528
 20
244.4876630529865
 30
0.0
 10
201.3991669710153
 20
244.4846011215562
 30
0.0
 10
201.4903708103665
 20
244.4832329407208
 30
0.0
 10
201.4948343728524
 20
244.4838012023242
 30
0.0
 10
201.4968500967846
 20
244.4840578266053
 30
0.0
  0
SPLINE
  5
C0
330
1F
100
AcDbEntity
  8
0
  6
Continuous
 62
     8
370
    18
100
AcDbSpline
210
0.0
220
0.0
230
1.0
 70
     8
 71
     3
 72
    13
 73
     9
 74
     0
 42
0.00000001
 43
0.00000001
 40
0.0
 40
0.0
 40
0.0
 40
0.0
 40
0.1490282122823373
 40
0.3106888551758406
 40
0.4820354739162255
 40
0.6586894193712228
 40
0.8353816523540643
 40
1.0
 40
1.0
 40
1.0
 40
1.0
 10
154.9309760369687
 20
286.7393757422231
 30
0.0
 10
154.8542792350896
 20
286.7378692789179
 30
0.0
 10
154.6943843990279
 20
286.7347286563976
 30
0.0
 10
154.4692491813511
 20
286.7302961865371
 30
0.0
 10
154.2660822773973
 20
286.7262864409156
 30
0.0
 10
154.1095727198664
 20
286.7231840060421
 30
0.0
 10
154.0104348664136
 20
286.7212024161617
 30
0.0
 10
154.0001304077072
 20
286.7209740787018
 30
0.0
 10
153.9951604388228
 20
286.7208639486985
 30
0.0
  0
SPLINE
  5
C1
330
1F
100
AcDbEntity
  8
0
  6
Continuous
 62
     8
370
    18
100
AcDbSpline
210
0.0
220
0.0
230
1.0
 70
     8
 71
     3
 72
    13
 73
     9
 74
     0
 42
0.00000001
 43
0.00000001
 40
0.0
 40
0.0
 40
0.0
 40
0.0
 40
0.1510877826787471
 40
0.3156169715138648
 40
0.4905065569314324
 40
0.6710740483417553
 40
0.8516348804869246
 40
1.0
 40
1.0
 40
1.0
 40
1.0
 10
155.8159520819536
 20
244.5035781724972
 30
0.0
 10
155.7390696978875
 20
244.5016452617688
 30
0.0
 10
155.5784651487208
 20
244.4976074804239
 30
0.0
 10
155.3526999194221
 20
244.4922234357959
 30
0.0
 10
155.1498543512498
 20
244.4876631935012
 30
0.0
 10
154.9965887879364
 20
244.4846065231892
 30
0.0
 10
154.9055193214608
 20
244.4832426995279
 30
0.0
 10
154.9010873758259
 20
244.4838114693869
 30
0.0
 10
154.8990883053953
 20
244.4840680183387
 30
0.0
  0
SPLINE
  5
C2
330
1F
100
AcDbEntity
  8
0
  6
Continuous
 62
     8
370
    18
100
AcDbSpline
210
0.0
220
0.0
230
1.0
 70
     8
 71
     3
 72
    13
 73
     9
 74
     0
 42
0.00000001
 43
0.00000001
 40
0.0
 40
0.0
 40
0.0
 40
0.0
 40
0.1493911911382339
 40
0.311346913194926
 40
0.4829017348597976
 40
0.6596732947511692
 40
0.8364066579175141
 40
1.0
 40
1.0
 40
1.0
 40
1.0
 10
201.4666697978072
 20
286.7381875244189
 30
0.0
 10
201.5433544797832
 20
286.7365087344912
 30
0.0
 10
201.703173401104
 20
286.7330099601798
 30
0.0
 10
201.9279006388727
 20
286.7280532802654
 30
0.0
 10
202.1304163696556
 20
286.7235517959376
 30
0.0
 10
202.2861488860162
 20
286.7200422215977
 30
0.0
 10
202.3844740584161
 20
286.7177683381346
 30
0.0
 10
202.3945384933488
 20
286.7174564393204
 30
0.0
 10
202.3993764167953
 20
286.717306511123
 30
0.0
  0
LINE
  5
C3
330
1F
100
AcDbEntity
  8
0
  6
Continuous
 62
     8
370
    18
100
AcDbLine
 10
152.9095088598
 20
333.8085701631
 30
0.0
 11
152.8559459032
 21
336.8985548941
 31
0.0
  0
SPLINE
  5
C4
330
1F
100
AcDbEntity
  8
0
  6
Continuous
 62
     8
370
    18
100
AcDbSpline
210
0.0
220
0.0
230
1.0
 70
     8
 71
     3
 72
    14
 73
    10
 74
     0
 42
0.00000001
 43
0.00000001
 40
0.0
 40
0.0
 40
0.0
 40
0.0
 40
0.25
 40
0.25
 40
0.5
 40
0.5
 40
0.75
 40
0.75
 40
1.0
 40
1.0
 40
1.0
 40
1.0
 10
154.0195052813436
 20
336.9084249994979
 30
0.0
 10
153.8712318119535
 20
336.9076880580311
 30
0.0
 10
153.7176969264577
 20
336.9068454339883
 30
0.0
 10
153.4290189516514
 20
336.9053502993648
 30
0.0
 10
153.2945275290616
 20
336.9047068392769
 30
0.0
 10
153.0744554221236
 20
336.9040602376751
 30
0.0
 10
152.9893420209924
 20
336.9040643645716
 30
0.0
 10
152.8799612953687
 20
336.9049206039446
 30
0.0
 10
152.8559313794911
 20
336.9057771848578
 30
0.0
 10
152.855821530144
 20
336.9069823092689
 30
0.0
  0
LINE
  5
C5
330
1F
100
AcDbEntity
  8
0
  6
Continuous
 62
     8
370
    18
100
AcDbLine
 10
203.5398382157
 20
336.8985548232
 30
0.0
 11
203.4861209798
 21
333.7996855496
 31
0.0
  0
SPLINE
  5
C6
330
1F
100
AcDbEntity
  8
0
  6
Continuous
 62
     8
370
    18
100
AcDbSpline
210
0.0
220
0.0
230
1.0
 70
     8
 71
     3
 72
    14
 73
    10
 74
     0
 42
0.00000001
 43
0.00000001
 40
0.0
 40
0.0
 40
0.0
 40
0.0
 40
0.25
 40
0.25
 40
0.5
 40
0.5
 40
0.75
 40
0.75
 40
1.0
 40
1.0
 40
1.0
 40
1.0
 10
202.3736833569772
 20
336.900102325572
 30
0.0
 10
202.5214220283845
 20
336.898245779149
 30
0.0
 10
202.674342715411
 20
336.8965990297802
 30
0.0
 10
202.9622899291311
 20
336.894211781855
 30
0.0
 10
203.0966394541847
 20
336.893480111736
 30
0.0
 10
203.3171161546913
 20
336.8931820046051
 30
0.0
 10
203.4027774555191
 20
336.8936162603572
 30
0.0
 10
203.5137166741333
 20
336.8954669564516
 30
0.0
 10
203.5392195844796
 20
336.8968733427974
 30
0.0
 10
203.5398303475051
 20
336.8985352534418
 30
0.0
  0
SPLINE
  5
C7
330
1F
100
AcDbEntity
  8
0
  6
Continuous
 62
     8
370
    18
100
AcDbSpline
210
0.0
220
0.0
230
1.0
 70
     8
 71
     3
 72
    26
 73
    22
 74
     0
 42
0.00000001
 43
0.00000001
 40
0.0
 40
0.0
 40
0.0
 40
0.0
 40
0.0391441919742901
 40
0.0732308129565428
 40
0.102273328539785
 40
0.1262943028075477
 40
0.16950466408487
 40
0.2115003967988089
 40
0.2525253847940799
 40
0.3167201024980928
 40
0.3795005359922223
 40
0.4416524690316938
 40
0.5039841765578768
 40
0.5886244310776757
 40
0.6702625335768129
 40
0.750985444500339
 40
0.7892628442480641
 40
0.8303746429577323
 40
0.8745475609971421
 40
0.9308374889163562
 40
1.0
 40
1.0
 40
1.0
 40
1.0
 10
152.8558215332446
 20
336.9069823093137
 30
0.0
 10
152.852717619639
 20
337.1223766680724
 30
0.0
 10
152.8469108292769
 20
337.5253356564333
 30
0.0
 10
152.8387695639036
 20
338.0880211896994
 30
0.0
 10
152.831783070323
 20
338.5672239258131
 30
0.0
 10
152.8240211574411
 20
339.0956226142295
 30
0.0
 10
152.8151676273731
 20
339.691734870322
 30
0.0
 10
152.8049300953866
 20
340.37224961144
 30
0.0
 10
152.7930845115405
 20
341.1496846341682
 30
0.0
 10
152.7798003843393
 20
342.0098886825503
 30
0.0
 10
152.7654542752194
 20
342.9308461512547
 30
0.0
 10
152.7521587786692
 20
343.7818474738754
 30
0.0
 10
152.738625368285
 20
344.6495030822626
 30
0.0
 10
152.72577113054
 20
345.4891306140648
 30
0.0
 10
152.7147048313318
 20
346.2272439005271
 30
0.0
 10
152.7081148707327
 20
346.668947188589
 30
0.0
 10
152.704279860176
 20
346.9129866637483
 30
0.0
 10
152.7020111996524
 20
347.0465235808057
 30
0.0
 10
152.7001713025299
 20
347.1471943949446
 30
0.0
 10
152.6988473605526
 20
347.2063668695982
 30
0.0
 10
152.6985341490026
 20
347.2144651894441
 30
0.0
 10
152.6983614740233
 20
347.2189298307102
 30
0.0
  0
SPLINE
  5
C8
330
1F
100
AcDbEntity
  8
0
  6
Continuous
 62
     8
370
    18
100
AcDbSpline
210
0.0
220
0.0
230
1.0
 70
     8
 71
     3
 72
    26
 73
    22
 74
     0
 42
0.00000001
 43
0.00000001
 40
0.0
 40
0.0
 40
0.0
 40
0.0
 40
0.0361840556932276
 40
0.0691447567772481
 40
0.0988965038996126
 40
0.1254582205147876
 40
0.1905114427254367
 40
0.2489811498089057
 40
0.2974403567799794
 40
0.3459272912302717
 40
0.3949088096940827
 40
0.4448374779688435
 40
0.4961401610658799
 40
0.579110977651831
 40
0.6622633674488667
 40
0.7474908306706549
 40
0.7884938780371697
 40
0.8304885588207084
 40
0.8737186896672372
 40
0.9267541424379735
 40
1.0
 40
1.0
 40
1.0
 40
1.0
 10
203.6974226456443
 20
347.2189298279288
 30
0.0
 10
203.6973449989211
 20
347.2173086371669
 30
0.0
 10
203.6971966224143
 20
347.2142106748525
 30
0.0
 10
203.6967551575415
 20
347.1973015966989
 30
0.0
 10
203.6961591319707
 20
347.1714438214106
 30
0.0
 10
203.6950358739356
 20
347.1167455160056
 30
0.0
 10
203.6929142072002
 20
346.9993973524288
 30
0.0
 10
203.689056637292
 20
346.7594856839729
 30
0.0
 10
203.6843277321896
 20
346.4443990375417
 30
0.0
 10
203.6788461097962
 20
346.0786119846156
 30
0.0
 10
203.6722593459535
 20
345.6397983535622
 30
0.0
 10
203.6645077476566
 20
345.1286706862043
 30
0.0
 10
203.6538054030568
 20
344.4337598786265
 30
0.0
 10
203.639457216575
 20
343.51507161745
 30
0.0
 10
203.6209046331425
 20
342.3271812003343
 30
0.0
 10
203.6043923228818
 20
341.2607635387687
 30
0.0
 10
203.5908576892228
 20
340.3724953612925
 30
0.0
 10
203.5806198942934
 20
339.6919581742287
 30
0.0
 10
203.5694122231384
 20
338.9373539221671
 30
0.0
 10
203.5557804286953
 20
338.0049041662197
 30
0.0
 10
203.5457692716143
 20
337.3100263097559
 30
0.0
 10
203.5399625866532
 20
336.9069823093142
 30
0.0
  0
LINE
  5
C9
330
1F
100
AcDbEntity
  8
0
  6
Continuous
 62
     8
370
    18
100
AcDbLine
 10
152.6983612638
 20
347.2178376666
 30
0.0
 11
152.6994827489
 21
347.2172414381
 31
0.0
  0
LINE
  5
CA
330
1F
100
AcDbEntity
  8
0
  6
Continuous
 62
     8
370
    18
100
AcDbLine
 10
153.497202894
 20
348.8358532781
 30
0.0
 11
153.4965872428
 21
348.8359256414
 31
0.0
  0
SPLINE
  5
CB
330
1F
100
AcDbEntity
  8
0
  6
Continuous
 62
     8
370
    18
100
AcDbSpline
210
0.0
220
0.0
230
1.0
 70
    24
 71
     3
 72
     9
 73
     5
 74
     0
 42
0.00000001
 43
0.00000001
 40
0.0
 40
0.0
 40
0.0
 40
0.0
 40
0.3267761627941034
 40
1.0
 40
1.0
 40
1.0
 40
1.0
 10
178.1978920599487
 20
357.2108267299783
 30
0.0
 10
178.1978920599487
 20
357.2100630738091
 30
0.0
 10
178.1978920599487
 20
357.2077261341662
 30
0.0
 10
178.1978920599487
 20
357.2081462630482
 30
0.0
 10
178.1978920599487
 20
357.2084291038262
 30
0.0
  0
SPLINE
  5
CC
330
1F
100
AcDbEntity
  8
0
  6
Continuous
 62
     8
370
    18
100
AcDbSpline
210
0.0
220
0.0
230
1.0
 70
    24
 71
     3
 72
     9
 73
     5
 74
     0
 42
0.00000001
 43
0.00000001
 40
0.0
 40
0.0
 40
0.0
 40
0.0
 40
0.378469088283831
 40
1.0
 40
1.0
 40
1.0
 40
1.0
 10
178.1978920599487
 20
357.2080199486389
 30
0.0
 10
178.1978920599487
 20
357.20747508297
 30
0.0
 10
178.1978920599487
 20
357.2060354259789
 30
0.0
 10
178.1978920599487
 20
357.2071433144084
 30
0.0
 10
178.1978920599487
 20
357.2078319013142
 30
0.0
  0
CIRCLE
  5
CD
330
1F
100
AcDbEntity
  8
0
  6
Continuous
 62
     8
370
    18
100
AcDbCircle
 10
177.7641502011
 20
400.2300070465
 30
0.0
 40
10.77434613606391
  0
CIRCLE
  5
CE
330
1F
100
AcDbEntity
  8
0
  6
Continuous
 62
     8
370
    18
100
AcDbCircle
 10
177.7641502011
 20
400.2300070465
 30
0.0
 40
11.25844862367722
  0
SPLINE
  5
CF
330
1F
100
AcDbEntity
  8
0
  6
Continuous
 62
     8
370
    18
100
AcDbSpline
210
0.0
220
0.0
230
1.0
 70
     8
 71
     3
 72
     8
 73
     4
 74
     0
 42
0.00000001
 43
0.00000001
 40
0.0
 40
0.0
 40
0.0
 40
0.0
 40
1.0
 40
1.0
 40
1.0
 40
1.0
 10
105.1500720582218
 20
434.9440851805281
 30
0.0
 10
104.8116199006796
 20
386.534699754255
 30
0.0
 10
104.8116199006796
 20
338.1253143279818
 30
0.0
 10
105.1500720582219
 20
289.7159289017087
 30
0.0
  0
SPLINE
  5
D0
330
1F
100
AcDbEntity
  8
0
  6
Continuous
 62
     8
370
    18
100
AcDbSpline
210
0.0
220
0.0
230
1.0
 70
     8
 71
     3
 72
     8
 73
     4
 74
     0
 42
0.00000001
 43
0.00000001
 40
0.0
 40
0.0
 40
0.0
 40
0.0
 40
1.0
 40
1.0
 40
1.0
 40
1.0
 10
250.3782283370365
 20
434.9440851805268
 30
0.0
 10
201.9688429107646
 20
435.2825373380691
 30
0.0
 10
153.5594574844927
 20
435.2825373380691
 30
0.0
 10
105.1500720582208
 20
434.9440851805269
 30
0.0
  0
SPLINE
  5
D1
330
1F
100
AcDbEntity
  8
0
  6
Continuous
 62
     8
370
    18
100
AcDbSpline
210
0.0
220
0.0
230
1.0
 70
     8
 71
     3
 72
     8
 73
     4
 74
     0
 42
0.00000001
 43
0.00000001
 40
0.0
 40
0.0
 40
0.0
 40
0.0
 40
1.0
 40
1.0
 40
1.0
 40
1.0
 10
250.3782283370373
 20
289.7159289017096
 30
0.0
 10
250.7166804945795
 20
338.1253143279822
 30
0.0
 10
250.7166804945796
 20
386.5346997542547
 30
0.0
 10
250.3782283370373
 20
434.9440851805273
 30
0.0
  0
LINE
  5
D2
330
1F
100
AcDbEntity
  8
0
  6
Continuous
 62
     8
370
    18
100
AcDbLine
 10
105.1500720582
 20
289.7159289017
 30
0.0
 11
153.8027839757
 21
289.5458409378
 31
0.0
  0
LINE
  5
D3
330
1F
100
AcDbEntity
  8
0
  6
Continuous
 62
     8
370
    18
100
AcDbLine
 10
202.5629886737
 20
289.5487946169
 30
0.0
 11
250.378228337
 21
289.7159289017
 31
0.0
  0
SPLINE
  5
D4
330
1F
100
AcDbEntity
  8
0
  6
Continuous
 62
     8
370
    18
100
AcDbSpline
210
0.0
220
0.0
230
1.0
 70
     8
 71
     3
 72
    26
 73
    22
 74
     0
 42
0.00000001
 43
0.00000001
 40
0.0
 40
0.0
 40
0.0
 40
0.0
 40
0.03125
 40
0.03125
 40
0.0625
 40
0.0625
 40
0.125
 40
0.125
 40
0.25
 40
0.25
 40
0.375
 40
0.375
 40
0.5
 40
0.5
 40
0.625
 40
0.625
 40
0.75
 40
0.75
 40
0.875
 40
0.875
 40
1.0
 40
1.0
 40
1.0
 40
1.0
 10
103.6671370318751
 20
289.5846671498865
 30
0.0
 10
103.6677732398162
 20
289.584502348139
 30
0.0
 10
103.6690025260165
 20
289.5843959284799
 30
0.0
 10
103.6726290574318
 20
289.5842985543823
 30
0.0
 10
103.6750263026468
 20
289.5843075999439
 30
0.0
 10
103.6839426805585
 20
289.5845059860268
 30
0.0
 10
103.6921864555216
 20
289.5848665759462
 30
0.0
 10
103.7235979794324
 20
289.5866177558303
 30
0.0
 10
103.7534459274016
 20
289.588677755921
 30
0.0
 10
103.8297910471604
 20
289.5944997166199
 30
0.0
 10
103.8770155429075
 20
289.5983187233726
 30
0.0
 10
103.9859238610522
 20
289.6074830528513
 30
0.0
 10
104.0472969532758
 20
289.6127980369146
 30
0.0
 10
104.1837316392393
 20
289.6248778237064
 30
0.0
 10
104.2594580200349
 20
289.6317053579888
 30
0.0
 10
104.4186607444498
 20
289.6462792125639
 30
0.0
 10
104.5027172493171
 20
289.6540753338694
 30
0.0
 10
104.6798752352477
 20
289.6707013588131
 30
0.0
 10
104.7723724201029
 20
289.6794766680317
 30
0.0
 10
104.9588012687622
 20
289.6973403145269
 30
0.0
 10
105.0536125192323
 20
289.7065109343362
 30
0.0
 10
105.1500720582208
 20
289.7159289017094
 30
0.0
  0
SPLINE
  5
D5
330
1F
100
AcDbEntity
  8
0
  6
Continuous
 62
     8
370
    18
100
AcDbSpline
210
0.0
220
0.0
230
1.0
 70
     8
 71
     3
 72
     8
 73
     4
 74
     0
 42
0.00000001
 43
0.00000001
 40
0.0
 40
0.0
 40
0.0
 40
0.0
 40
1.0
 40
1.0
 40
1.0
 40
1.0
 10
103.6671370318753
 20
289.5846671498865
 30
0.0
 10
103.3274363020285
 20
338.0815604107077
 30
0.0
 10
103.3274363020295
 20
386.5784536715288
 30
0.0
 10
103.6671370318763
 20
435.0753469323499
 30
0.0
  0
SPLINE
  5
D6
330
1F
100
AcDbEntity
  8
0
  6
Continuous
 62
     8
370
    18
100
AcDbSpline
210
0.0
220
0.0
230
1.0
 70
     8
 71
     3
 72
    26
 73
    22
 74
     0
 42
0.00000001
 43
0.00000001
 40
0.0
 40
0.0
 40
0.0
 40
0.0
 40
0.03125
 40
0.03125
 40
0.0625
 40
0.0625
 40
0.125
 40
0.125
 40
0.25
 40
0.25
 40
0.375
 40
0.375
 40
0.5
 40
0.5
 40
0.625
 40
0.625
 40
0.75
 40
0.75
 40
0.875
 40
0.875
 40
1.0
 40
1.0
 40
1.0
 40
1.0
 10
103.6671370318748
 20
435.07534693235
 30
0.0
 10
103.6677732398159
 20
435.0755117340974
 30
0.0
 10
103.6690025260162
 20
435.0756181537566
 30
0.0
 10
103.6726290574316
 20
435.0757155278542
 30
0.0
 10
103.6750263026466
 20
435.0757064822926
 30
0.0
 10
103.6839426805582
 20
435.0755080962096
 30
0.0
 10
103.6921864555213
 20
435.0751475062903
 30
0.0
 10
103.723597979432
 20
435.0733963264062
 30
0.0
 10
103.7534459274013
 20
435.0713363263155
 30
0.0
 10
103.8297910471599
 20
435.0655143656167
 30
0.0
 10
103.8770155429071
 20
435.061695358864
 30
0.0
 10
103.9859238610517
 20
435.0525310293853
 30
0.0
 10
104.0472969532757
 20
435.0472160453221
 30
0.0
 10
104.183731639239
 20
435.0351362585304
 30
0.0
 10
104.2594580200351
 20
435.028308724248
 30
0.0
 10
104.4186607444499
 20
435.013734869673
 30
0.0
 10
104.5027172493173
 20
435.0059387483674
 30
0.0
 10
104.6798752352477
 20
434.9893127234239
 30
0.0
 10
104.7723724201031
 20
434.9805374142054
 30
0.0
 10
104.9588012687623
 20
434.9626737677103
 30
0.0
 10
105.0536125192323
 20
434.953503147901
 30
0.0
 10
105.1500720582208
 20
434.9440851805278
 30
0.0
  0
SPLINE
  5
D7
330
1F
100
AcDbEntity
  8
0
  6
Continuous
 62
     8
370
    18
100
AcDbSpline
210
0.0
220
0.0
230
1.0
 70
     8
 71
     3
 72
     8
 73
     4
 74
     0
 42
0.00000001
 43
0.00000001
 40
0.0
 40
0.0
 40
0.0
 40
0.0
 40
1.0
 40
1.0
 40
1.0
 40
1.0
 10
105.0188103063998
 20
436.4270202068734
 30
0.0
 10
153.5157035672193
 20
436.7667209367202
 30
0.0
 10
202.0125968280389
 20
436.7667209367209
 30
0.0
 10
250.5094900888584
 20
436.4270202068741
 30
0.0
  0
SPLINE
  5
D8
330
1F
100
AcDbEntity
  8
0
  6
Continuous
 62
     8
370
    18
100
AcDbSpline
210
0.0
220
0.0
230
1.0
 70
     8
 71
     3
 72
    26
 73
    22
 74
     0
 42
0.00000001
 43
0.00000001
 40
0.0
 40
0.0
 40
0.0
 40
0.0
 40
0.03125
 40
0.03125
 40
0.0625
 40
0.0625
 40
0.125
 40
0.125
 40
0.25
 40
0.25
 40
0.375
 40
0.375
 40
0.5
 40
0.5
 40
0.625
 40
0.625
 40
0.75
 40
0.75
 40
0.875
 40
0.875
 40
1.0
 40
1.0
 40
1.0
 40
1.0
 10
250.5094900888585
 20
436.4270202068745
 30
0.0
 10
250.509654890606
 20
436.4263839989334
 30
0.0
 10
250.5097613102651
 20
436.425154712733
 30
0.0
 10
250.5098586843627
 20
436.4215281813177
 30
0.0
 10
250.5098496388011
 20
436.4191309361028
 30
0.0
 10
250.5096512527181
 20
436.4102145581911
 30
0.0
 10
250.5092906627988
 20
436.4019707832281
 30
0.0
 10
250.5075394829148
 20
436.3705592593175
 30
0.0
 10
250.505479482824
 20
436.3407113113483
 30
0.0
 10
250.4996575221252
 20
436.2643661915895
 30
0.0
 10
250.4958385153725
 20
436.2171416958419
 30
0.0
 10
250.4866741858938
 20
436.1082333776972
 30
0.0
 10
250.4813592018305
 20
436.0468602854735
 30
0.0
 10
250.4692794150388
 20
435.9104255995101
 30
0.0
 10
250.4624518807563
 20
435.8346992187128
 30
0.0
 10
250.4478780261812
 20
435.6754964942978
 30
0.0
 10
250.4400819048759
 20
435.5914399894319
 30
0.0
 10
250.4234558799323
 20
435.4142820035013
 30
0.0
 10
250.4146805707136
 20
435.3217848186455
 30
0.0
 10
250.3968169242185
 20
435.1353559699862
 30
0.0
 10
250.3876463044092
 20
435.0405447195162
 30
0.0
 10
250.3782283370361
 20
434.9440851805278
 30
0.0
  0
SPLINE
  5
D9
330
1F
100
AcDbEntity
  8
0
  6
Continuous
 62
     8
370
    18
100
AcDbSpline
210
0.0
220
0.0
230
1.0
 70
     8
 71
     3
 72
    21
 73
    17
 74
     0
 42
0.00000001
 43
0.00000001
 40
0.0
 40
0.0
 40
0.0
 40
0.0
 40
0.052701584906223
 40
0.106121829019153
 40
0.1602636673753516
 40
0.2151299185915314
 40
0.2707232904328883
 40
0.3270463850642452
 40
0.3841017040108042
 40
0.4418916528425503
 40
0.5004185455965816
 40
0.6190205570883492
 40
0.7500271669231543
 40
0.8150462880617892
 40
0.8983758744110745
 40
1.0
 40
1.0
 40
1.0
 40
1.0
 10
105.0188103063998
 20
436.4270202068737
 30
0.0
 10
105.0186334957436
 20
436.4250110110299
 30
0.0
 10
105.0182774633727
 20
436.4209652211703
 30
0.0
 10
105.0190243787176
 20
436.4022047206773
 30
0.0
 10
105.020711431601
 20
436.3737979349515
 30
0.0
 10
105.0234449510064
 20
436.3346222470898
 30
0.0
 10
105.0272099113915
 20
436.2848113307968
 30
0.0
 10
105.032024148835
 20
436.2242703104489
 30
0.0
 10
105.0378962858101
 20
436.1530952563395
 30
0.0
 10
105.044836077705
 20
436.0714536380281
 30
0.0
 10
105.0555649860508
 20
435.9486650235584
 30
0.0
 10
105.0721835542433
 20
435.7649419299189
 30
0.0
 10
105.0918892672764
 20
435.5513565206237
 30
0.0
 10
105.1110108757841
 20
435.3499108209876
 30
0.0
 10
105.1288221183833
 20
435.1632976171301
 30
0.0
 10
105.1425365608026
 20
435.0218206829663
 30
0.0
 10
105.1500720582207
 20
434.9440851805276
 30
0.0
  0
SPLINE
  5
DA
330
1F
100
AcDbEntity
  8
0
  6
Continuous
 62
     8
370
    18
100
AcDbSpline
210
0.0
220
0.0
230
1.0
 70
     8
 71
     3
 72
    26
 73
    22
 74
     0
 42
0.00000001
 43
0.00000001
 40
0.0
 40
0.0
 40
0.0
 40
0.0
 40
0.03125
 40
0.03125
 40
0.0625
 40
0.0625
 40
0.125
 40
0.125
 40
0.25
 40
0.25
 40
0.375
 40
0.375
 40
0.5
 40
0.5
 40
0.625
 40
0.625
 40
0.75
 40
0.75
 40
0.875
 40
0.875
 40
1.0
 40
1.0
 40
1.0
 40
1.0
 10
250.5094900888631
 20
288.2329938753623
 30
0.0
 10
250.5096548906105
 20
288.2336300833034
 30
0.0
 10
250.5097613102697
 20
288.2348593695038
 30
0.0
 10
250.5098586843673
 20
288.2384859009191
 30
0.0
 10
250.5098496388056
 20
288.240883146134
 30
0.0
 10
250.5096512527227
 20
288.2497995240457
 30
0.0
 10
250.5092906628033
 20
288.2580432990088
 30
0.0
 10
250.5075394829192
 20
288.2894548229195
 30
0.0
 10
250.5054794828283
 20
288.3193027708888
 30
0.0
 10
250.4996575221292
 20
288.3956478906476
 30
0.0
 10
250.4958385153764
 20
288.4428723863952
 30
0.0
 10
250.4866741858973
 20
288.55178070454
 30
0.0
 10
250.4813592018339
 20
288.6131537967638
 30
0.0
 10
250.4692794150417
 20
288.7495884827273
 30
0.0
 10
250.4624518807591
 20
288.8253148635245
 30
0.0
 10
250.4478780261834
 20
288.9845175879395
 30
0.0
 10
250.4400819048779
 20
289.0685740928054
 30
0.0
 10
250.4234558799337
 20
289.245732078736
 30
0.0
 10
250.4146805707148
 20
289.3382292635916
 30
0.0
 10
250.3968169242191
 20
289.5246581122511
 30
0.0
 10
250.3876463044095
 20
289.6194693627213
 30
0.0
 10
250.378228337036
 20
289.7159289017097
 30
0.0
  0
LINE
  5
DB
330
1F
100
AcDbEntity
  8
0
  6
Continuous
 62
     8
370
    18
100
AcDbLine
 10
250.5094900889
 20
288.2329938754
 30
0.0
 11
202.4779815348
 21
288.0647622267
 31
0.0
  0
LINE
  5
DC
330
1F
100
AcDbEntity
  8
0
  6
Continuous
 62
     8
370
    18
100
AcDbLine
 10
153.9036840863
 20
288.0617999245
 30
0.0
 11
105.0188103064
 21
288.2329938754
 31
0.0
  0
SPLINE
  5
DD
330
1F
100
AcDbEntity
  8
0
  6
Continuous
 62
     8
370
    18
100
AcDbSpline
210
0.0
220
0.0
230
1.0
 70
     8
 71
     3
 72
    21
 73
    17
 74
     0
 42
0.00000001
 43
0.00000001
 40
0.0
 40
0.0
 40
0.0
 40
0.0
 40
0.0527050586770356
 40
0.1061279071733555
 40
0.160271480570331
 40
0.2151385976737027
 40
0.2707319665647935
 40
0.3270541898388294
 40
0.3841077695545386
 40
0.4418951119056873
 40
0.5004185316339577
 40
0.6190410166262819
 40
0.7500271579266006
 40
0.8150588969040994
 40
0.898388478829984
 40
1.0
 40
1.0
 40
1.0
 40
1.0
 10
105.0188103063987
 20
288.2329938753614
 30
0.0
 10
105.0186334768408
 20
288.2350032652619
 30
0.0
 10
105.0182774094845
 20
288.2390494109297
 30
0.0
 10
105.0190242879323
 20
288.2578117593449
 30
0.0
 10
105.0207113263175
 20
288.2862207518428
 30
0.0
 10
105.0234448455702
 20
288.3253985920397
 30
0.0
 10
105.0272098183305
 20
288.3752110863538
 30
0.0
 10
105.0320240701214
 20
288.4357526280203
 30
0.0
 10
105.0378962342993
 20
288.5069266847473
 30
0.0
 10
105.0448359953309
 20
288.588565384293
 30
0.0
 10
105.0555663952592
 20
288.7113617908828
 30
0.0
 10
105.0721847889974
 20
288.8950856919758
 30
0.0
 10
105.0918913780132
 20
289.1086808470118
 30
0.0
 10
105.1110127875433
 20
289.3101217245356
 30
0.0
 10
105.1288239822013
 20
289.4967357927837
 30
0.0
 10
105.1425374933855
 20
289.6382030554173
 30
0.0
 10
105.1500720582209
 20
289.7159289017074
 30
0.0
  0
SPLINE
  5
DE
330
1F
100
AcDbEntity
  8
0
  6
Continuous
 62
     8
370
    18
100
AcDbSpline
210
0.0
220
0.0
230
1.0
 70
     8
 71
     3
 72
     8
 73
     4
 74
     0
 42
0.00000001
 43
0.00000001
 40
0.0
 40
0.0
 40
0.0
 40
0.0
 40
1.0
 40
1.0
 40
1.0
 40
1.0
 10
251.8611633633818
 20
435.0753469323497
 30
0.0
 10
252.2008640932286
 20
386.5784536715288
 30
0.0
 10
252.2008640932277
 20
338.0815604107078
 30
0.0
 10
251.8611633633809
 20
289.5846671498868
 30
0.0
  0
SPLINE
  5
DF
330
1F
100
AcDbEntity
  8
0
  6
Continuous
 62
     8
370
    18
100
AcDbSpline
210
0.0
220
0.0
230
1.0
 70
     8
 71
     3
 72
    21
 73
    17
 74
     0
 42
0.00000001
 43
0.00000001
 40
0.0
 40
0.0
 40
0.0
 40
0.0
 40
0.0527050579359086
 40
0.1061279058764244
 40
0.1602714789035554
 40
0.2151385958225444
 40
0.2707319647145484
 40
0.327054188174635
 40
0.3841077682621485
 40
0.4418951111705778
 40
0.5004185316410601
 40
0.6190410088380612
 40
0.7500271579315491
 40
0.8150588915866435
 40
0.8983884735139103
 40
1.0
 40
1.0
 40
1.0
 40
1.0
 10
251.8611633633826
 20
289.5846671498868
 30
0.0
 10
251.8591539735224
 20
289.5844903203329
 30
0.0
 10
251.8551078279283
 20
289.5841342529839
 30
0.0
 10
251.8363454799146
 20
289.5848811314393
 30
0.0
 10
251.8079364878835
 20
289.5865681698276
 30
0.0
 10
251.7687586481472
 20
289.5893016890802
 30
0.0
 10
251.7189461541702
 20
289.593066661838
 30
0.0
 10
251.658404612619
 20
289.5978809136262
 30
0.0
 10
251.5872305556752
 20
289.6037530777974
 30
0.0
 10
251.505591855509
 20
289.6106928388395
 30
0.0
 10
251.3827954523645
 20
289.6214232382749
 30
0.0
 10
251.1990715519351
 20
289.6380416321485
 30
0.0
 10
250.985476400951
 20
289.6577482206804
 30
0.0
 10
250.7840355219919
 20
289.6768696301735
 30
0.0
 10
250.5974214541096
 20
289.6946808248591
 30
0.0
 10
250.4559541873996
 20
289.708394336465
 30
0.0
 10
250.3782283370383
 20
289.7159289017097
 30
0.0
  0
SPLINE
  5
E0
330
1F
100
AcDbEntity
  8
0
  6
Continuous
 62
     8
370
    18
100
AcDbSpline
210
0.0
220
0.0
230
1.0
 70
     8
 71
     3
 72
    21
 73
    17
 74
     0
 42
0.00000001
 43
0.00000001
 40
0.0
 40
0.0
 40
0.0
 40
0.0
 40
0.0527015852613774
 40
0.1061218296413047
 40
0.1602636681736827
 40
0.2151299194781601
 40
0.2707232913178373
 40
0.3270463858587256
 40
0.384101704626015
 40
0.4418916531890572
 40
0.5004185455850236
 40
0.6190205634991358
 40
0.750027166911156
 40
0.815046298210609
 40
0.8983758845579717
 40
1.0
 40
1.0
 40
1.0
 40
1.0
 10
251.8611633633831
 20
435.0753469323497
 30
0.0
 10
251.8591541675189
 20
435.0755237430079
 30
0.0
 10
251.8551083776217
 20
435.0758797753824
 30
0.0
 10
251.8363478769409
 20
435.0751328600414
 30
0.0
 10
251.8079410909891
 20
435.0734458071594
 30
0.0
 10
251.7687654029057
 20
435.0707122877541
 30
0.0
 10
251.7189544864497
 20
435.0669473273675
 30
0.0
 10
251.658413466049
 20
435.0621330899229
 30
0.0
 10
251.5872384120427
 20
435.0562609529436
 30
0.0
 10
251.5055967940286
 20
435.0493211610566
 30
0.0
 10
251.3828081765075
 20
435.0385922523359
 30
0.0
 10
251.1990850821656
 20
435.0219736842933
 30
0.0
 10
250.9854996656282
 20
435.0022679704148
 30
0.0
 10
250.7840539626295
 20
434.983146361476
 30
0.0
 10
250.5974407580737
 20
434.9653351188973
 30
0.0
 10
250.4559638316994
 20
434.9516206772067
 30
0.0
 10
250.3782283370371
 20
434.9440851805278
 30
0.0
  0
LINE
  5
E1
330
1F
100
AcDbEntity
  8
0
  6
Continuous
 62
     8
370
    18
100
AcDbLine
 10
105.0178036028
 20
288.0946120891
 30
0.0
 11
105.0188103064
 21
288.2329938754
 31
0.0
  0
LINE
  5
E2
330
1F
100
AcDbEntity
  8
0
  6
Continuous
 62
     8
370
    18
100
AcDbLine
 10
250.5104967924
 20
288.0946120891
 30
0.0
 11
250.5094900889
 21
288.2329938754
 31
0.0
  0
LINE
  5
E3
330
1F
100
AcDbEntity
  8
0
  6
Continuous
 62
     8
370
    18
100
AcDbLine
 10
250.5104967924
 20
436.5654019932
 30
0.0
 11
250.5094900889
 21
436.4270202069
 31
0.0
  0
LINE
  5
E4
330
1F
100
AcDbEntity
  8
0
  6
Continuous
 62
     8
370
    18
100
AcDbLine
 10
105.0178036028
 20
436.5654019932
 30
0.0
 11
105.0188103064
 21
436.4270202069
 31
0.0
  0
LINE
  5
E5
330
1F
100
AcDbEntity
  8
0
  6
Continuous
 62
     8
370
    18
100
AcDbLine
 10
103.5287552456
 20
435.0763536359
 30
0.0
 11
103.6671370319
 21
435.0753469323
 31
0.0
  0
LINE
  5
E6
330
1F
100
AcDbEntity
  8
0
  6
Continuous
 62
     8
370
    18
100
AcDbLine
 10
103.5287552456
 20
289.5836604463
 30
0.0
 11
103.6671370319
 21
289.5846671499
 31
0.0
  0
LINE
  5
E7
330
1F
100
AcDbEntity
  8
0
  6
Continuous
 62
     8
370
    18
100
AcDbLine
 10
251.9995451497
 20
289.5836604463
 30
0.0
 11
251.8611633634
 21
289.5846671499
 31
0.0
  0
LINE
  5
E8
330
1F
100
AcDbEntity
  8
0
  6
Continuous
 62
     8
370
    18
100
AcDbLine
 10
251.9995451497
 20
435.0763536359
 30
0.0
 11
251.8611633634
 21
435.0753469323
 31
0.0
  0
SPLINE
  5
E9
330
1F
100
AcDbEntity
  8
0
  6
Continuous
 62
     8
370
    18
100
AcDbSpline
210
0.0
220
0.0
230
1.0
 70
     8
 71
     3
 72
    25
 73
    21
 74
     0
 42
0.00000001
 43
0.00000001
 40
0.0
 40
0.0
 40
0.0
 40
0.0
 40
0.0555740769952394
 40
0.1111416178227194
 40
0.1667034389955598
 40
0.2222603572299375
 40
0.277813189416198
 40
0.3333627525898603
 40
0.3889098639026277
 40
0.4444553405933714
 40
0.499999999959071
 40
0.5555446593257898
 40
0.6110901360195594
 40
0.6666372473373772
 40
0.7221868105181174
 40
0.7777396427134698
 40
0.8332965609589699
 40
0.888858382144941
 40
0.9444259229875819
 40
1.0
 40
1.0
 40
1.0
 40
1.0
 10
105.0188103063986
 20
288.2329938753635
 30
0.0
 10
104.9795800940876
 20
288.2342848094235
 30
0.0
 10
104.9011242834019
 20
288.2368665257143
 30
0.0
 10
104.7844168805862
 20
288.2535947699147
 30
0.0
 10
104.6695382623965
 20
288.2796007027563
 30
0.0
 10
104.5573507596433
 20
288.3156145492323
 30
0.0
 10
104.4486883048044
 20
288.3611195052174
 30
0.0
 10
104.3443607854965
 20
288.415842345713
 30
0.0
 10
104.245145205357
 20
288.4793571349071
 30
0.0
 10
104.1517806837516
 20
288.5511951097976
 30
0.0
 10
104.0649627269155
 20
288.6308195702812
 30
0.0
 10
103.9853382664195
 20
288.7176375271088
 30
0.0
 10
103.9135002915136
 20
288.8110020487105
 30
0.0
 10
103.8499855023022
 20
288.9102176288517
 30
0.0
 10
103.7952626617884
 20
289.014545148167
 30
0.0
 10
103.7497577057857
 20
289.1232076030195
 30
0.0
 10
103.7137438592935
 20
289.2353951057923
 30
0.0
 10
103.687737926439
 20
289.3502737240077
 30
0.0
 10
103.6710096822294
 20
289.4669811268547
 30
0.0
 10
103.6684279659373
 20
289.5454369375633
 30
0.0
 10
103.6671370318767
 20
289.5846671498865
 30
0.0
  0
SPLINE
  5
EA
330
1F
100
AcDbEntity
  8
0
  6
Continuous
 62
     8
370
    18
100
AcDbSpline
210
0.0
220
0.0
230
1.0
 70
     8
 71
     3
 72
    25
 73
    21
 74
     0
 42
0.00000001
 43
0.00000001
 40
0.0
 40
0.0
 40
0.0
 40
0.0
 40
0.0555740769933564
 40
0.1111416178191766
 40
0.166703438990585
 40
0.2222603572237527
 40
0.2778131894090246
 40
0.3333627525819136
 40
0.3889098638941328
 40
0.444455340584549
 40
0.4999999999501494
 40
0.5555446593169773
 40
0.6110901360110875
 40
0.6666372473294615
 40
0.7221868105109716
 40
0.7777396427073173
 40
0.8332965609540269
 40
0.8888583821414353
 40
0.9444259229857195
 40
1.0
 40
1.0
 40
1.0
 40
1.0
 10
250.5094900888585
 20
436.4270202068732
 30
0.0
 10
250.5487203011683
 20
436.4257292728134
 30
0.0
 10
250.6271761118515
 20
436.4231475565227
 30
0.0
 10
250.7438835146638
 20
436.4064193123232
 30
0.0
 10
250.8587621328508
 20
436.3804133794832
 30
0.0
 10
250.9709496356018
 20
436.3443995330089
 30
0.0
 10
251.0796120904393
 20
436.2988945770257
 30
0.0
 10
251.1839396097464
 20
436.2441717365321
 30
0.0
 10
251.2831551898858
 20
436.1806569473399
 30
0.0
 10
251.3765197114915
 20
436.108818972451
 30
0.0
 10
251.4633376683286
 20
436.0291945119687
 30
0.0
 10
251.542962128826
 20
435.9423765551419
 30
0.0
 10
251.6148001037336
 20
435.8490120335406
 30
0.0
 10
251.6783148929468
 20
435.7497964533993
 30
0.0
 10
251.7330377334626
 20
435.645468934083
 30
0.0
 10
251.7785426894673
 20
435.536806479229
 30
0.0
 10
251.8145565359612
 20
435.424618976454
 30
0.0
 10
251.840562468817
 20
435.3097403582358
 30
0.0
 10
251.8572907130277
 20
435.1930329553854
 30
0.0
 10
251.8598724293198
 20
435.1145771446743
 30
0.0
 10
251.8611633633805
 20
435.0753469323498
 30
0.0
  0
SPLINE
  5
EB
330
1F
100
AcDbEntity
  8
0
  6
Continuous
 62
     8
370
    18
100
AcDbSpline
210
0.0
220
0.0
230
1.0
 70
     8
 71
     3
 72
    25
 73
    21
 74
     0
 42
0.00000001
 43
0.00000001
 40
0.0
 40
0.0
 40
0.0
 40
0.0
 40
0.0555740770111256
 40
0.1111416178526283
 40
0.1667034390376246
 40
0.2222603572822917
 40
0.2778131894769694
 40
0.3333627526571794
 40
0.388909863974627
 40
0.4444553406681826
 40
0.5000000000348253
 40
0.5555446594006129
 40
0.611090136091585
 40
0.666637247404733
 40
0.7221868105789204
 40
0.7777396427658618
 40
0.8332965610010726
 40
0.8888583821748844
 40
0.9444259230034925
 40
1.0
 40
1.0
 40
1.0
 40
1.0
 10
251.8611633633805
 20
289.5846671498867
 30
0.0
 10
251.8598724293199
 20
289.5454369375645
 30
0.0
 10
251.8572907130279
 20
289.4669811268579
 30
0.0
 10
251.8405624688192
 20
289.3502737240133
 30
0.0
 10
251.8145565359658
 20
289.2353951058001
 30
0.0
 10
251.7785426894751
 20
289.1232076030289
 30
0.0
 10
251.7330377334738
 20
289.0145451481777
 30
0.0
 10
251.6783148929616
 20
288.9102176288629
 30
0.0
 10
251.6148001037517
 20
288.811002048722
 30
0.0
 10
251.5429621288473
 20
288.7176375271201
 30
0.0
 10
251.4633376683526
 20
288.6308195702919
 30
0.0
 10
251.3765197115174
 20
288.5511951098073
 30
0.0
 10
251.2831551899127
 20
288.4793571349157
 30
0.0
 10
251.1839396097733
 20
288.4158423457201
 30
0.0
 10
251.0796120904652
 20
288.3611195052231
 30
0.0
 10
250.9709496356256
 20
288.3156145492366
 30
0.0
 10
250.8587621328713
 20
288.2796007027591
 30
0.0
 10
250.74388351468
 20
288.2535947699162
 30
0.0
 10
250.6271761118622
 20
288.2368665257148
 30
0.0
 10
250.548720301175
 20
288.2342848094236
 30
0.0
 10
250.5094900888631
 20
288.2329938753635
 30
0.0
  0
SPLINE
  5
EC
330
1F
100
AcDbEntity
  8
0
  6
Continuous
 62
     8
370
    18
100
AcDbSpline
210
0.0
220
0.0
230
1.0
 70
     8
 71
     3
 72
    25
 73
    21
 74
     0
 42
0.00000001
 43
0.00000001
 40
0.0
 40
0.0
 40
0.0
 40
0.0
 40
0.0555740770039922
 40
0.1111416178392036
 40
0.166703439018742
 40
0.2222603572587847
 40
0.2778131894496884
 40
0.3333627526269553
 40
0.3889098639422989
 40
0.4444553406345922
 40
0.5000000000008086
 40
0.5555446593670121
 40
0.6110901360592383
 40
0.6666372473744842
 40
0.722186810551614
 40
0.7777396427423311
 40
0.8332965609821633
 40
0.8888583821614406
 40
0.944425922996349
 40
1.0
 40
1.0
 40
1.0
 40
1.0
 10
103.6671370318767
 20
435.07534693235
 30
0.0
 10
103.668427965937
 20
435.1145771446672
 30
0.0
 10
103.6710096822284
 20
435.1930329553646
 30
0.0
 10
103.6877379264334
 20
435.3097403581964
 30
0.0
 10
103.7137438592816
 20
435.4246189763993
 30
0.0
 10
103.7497577057658
 20
435.5368064791626
 30
0.0
 10
103.7952626617599
 20
435.6454689340085
 30
0.0
 10
103.8499855022648
 20
435.7497964533202
 30
0.0
 10
103.9135002914677
 20
435.8490120334608
 30
0.0
 10
103.9853382663661
 20
435.9423765550643
 30
0.0
 10
104.064962726856
 20
436.0291945118962
 30
0.0
 10
104.1517806836881
 20
436.1088189723858
 30
0.0
 10
104.2451452052916
 20
436.180656947284
 30
0.0
 10
104.3443607854321
 20
436.2441717364866
 30
0.0
 10
104.4486883047437
 20
436.2988945769911
 30
0.0
 10
104.5573507595893
 20
436.3443995329849
 30
0.0
 10
104.6695382623523
 20
436.3804133794688
 30
0.0
 10
104.7844168805546
 20
436.4064193123166
 30
0.0
 10
104.9011242833857
 20
436.4231475565215
 30
0.0
 10
104.9795800940827
 20
436.425729272813
 30
0.0
 10
105.0188103063997
 20
436.4270202068732
 30
0.0
  0
ARC
  5
ED
330
1F
100
AcDbEntity
  8
0
  6
Continuous
 62
     7
370
    25
100
AcDbCircle
 10
-6651.3068543262
 20
362.3300070411
 30
0.0
 40
7000.000000000001
100
AcDbArc
 50
0.4032650928
 51
0.5964433862
  0
ARC
  5
EE
330
1F
100
AcDbEntity
  8
0
  6
Continuous
 62
     7
370
    25
100
AcDbCircle
 10
-6651.3068543262
 20
362.3300070411
 30
0.0
 40
6999.999999999999
100
AcDbArc
 50
359.9535482865
 51
0.2169074662
  0
ARC
  5
EF
330
1F
100
AcDbEntity
  8
0
  6
Continuous
 62
     7
370
    25
100
AcDbCircle
 10
-6651.3068543262
 20
362.3300070411
 30
0.0
 40
6999.999999999999
100
AcDbArc
 50
359.4035570819
 51
359.5536933259
  0
ARC
  5
F0
330
1F
100
AcDbEntity
  8
0
  6
Continuous
 62
     7
370
    25
100
AcDbCircle
 10
346.8139500329
 20
435.1823069103
 30
0.0
 40
1.499999999999984
100
AcDbArc
 50
0.6099342096
 51
88.489888219
  0
ARC
  5
F1
330
1F
100
AcDbEntity
  8
0
  6
Continuous
 62
     7
370
    25
100
AcDbCircle
 10
346.8139500329
 20
289.477707172
 30
0.0
 40
1.500000000000012
100
AcDbArc
 50
271.5235157125
 51
359.4065979697
  0
LINE
  5
F2
330
1F
100
AcDbEntity
  8
0
  6
Continuous
 62
     7
370
    25
100
AcDbLine
 10
341.1931456738
 20
287.8300070411
 30
0.0
 11
346.8531868007
 21
287.9782204341
 31
0.0
  0
LINE
  5
F3
330
1F
100
AcDbEntity
  8
0
  6
Continuous
 62
     7
370
    25
100
AcDbLine
 10
346.8531868007
 20
436.6817936481
 30
0.0
 11
341.1931456738
 21
436.8300070411
 31
0.0
  0
LINE
  5
F4
330
1F
100
AcDbEntity
  8
0
  6
Continuous
 62
     7
370
    25
100
AcDbLine
 10
373.1931456738
 20
356.730007045
 30
0.0
 11
348.6905823301
 21
356.730007045
 31
0.0
  0
LINE
  5
F5
330
1F
100
AcDbEntity
  8
0
  6
Continuous
 62
     7
370
    25
100
AcDbLine
 10
348.4805202917
 20
307.730007045
 30
0.0
 11
373.1931456738
 21
307.730007045
 31
0.0
  0
ARC
  5
F6
330
1F
100
AcDbEntity
  8
0
  6
Continuous
 62
     7
370
    25
100
AcDbCircle
 10
373.1931456738
 20
332.230007045
 30
0.0
 40
24.49999999999999
100
AcDbArc
 50
56.1849979756
 51
90.0
  0
ARC
  5
F7
330
1F
100
AcDbEntity
  8
0
  6
Continuous
 62
     7
370
    25
100
AcDbCircle
 10
373.1931456738
 20
332.230007045
 30
0.0
 40
24.50000000000006
100
AcDbArc
 50
270.0
 51
288.0676155114
  0
SPLINE
  5
F8
330
1F
100
AcDbEntity
  8
0
  6
Continuous
 62
     7
370
    25
100
AcDbSpline
210
0.0
220
0.0
230
1.0
 70
     8
 71
     3
 72
    13
 73
     9
 74
     0
 42
0.00000001
 43
0.00000001
 40
0.0
 40
0.0
 40
0.0
 40
0.0
 40
0.1926394823989969
 40
0.3746400283619947
 40
0.5461420466486808
 40
0.7073617400714038
 40
0.8585484910388144
 40
1.0
 40
1.0
 40
1.0
 40
1.0
 10
414.3914894579863
 20
256.3959403822748
 30
0.0
 10
414.3908771732647
 20
260.117842943719
 30
0.0
 10
414.3896864185832
 20
267.3560978633001
 30
0.0
 10
414.3849230538036
 20
277.92947297631
 30
0.0
 10
414.3832248241995
 20
287.9038796127542
 30
0.0
 10
414.384913201773
 20
297.2812330598431
 30
0.0
 10
414.3896893200285
 20
306.0690996559721
 30
0.0
 10
414.3909499673483
 20
311.7058198365769
 30
0.0
 10
414.391559321934
 20
314.4304211082393
 30
0.0
  0
SPLINE
  5
F9
330
1F
100
AcDbEntity
  8
0
  6
Continuous
 62
     7
370
    25
100
AcDbSpline
210
0.0
220
0.0
230
1.0
 70
     8
 71
     3
 72
    11
 73
     7
 74
     0
 42
0.00000001
 43
0.00000001
 40
0.0
 40
0.0
 40
0.0
 40
0.0
 40
0.2503545111248958
 40
0.4994784154067234
 40
0.7491969740607382
 40
1.0
 40
1.0
 40
1.0
 40
1.0
 10
404.7904252616368
 20
286.5410505124227
 30
0.0
 10
404.8931792875611
 20
283.0821668417046
 30
0.0
 10
405.0981822564102
 20
276.1814014943422
 30
0.0
 10
405.4203775544435
 20
265.6852524476955
 30
0.0
 10
405.7088493067154
 20
255.1049736093929
 30
0.0
 10
405.9657374851176
 20
248.0330799606167
 30
0.0
 10
406.0944598708339
 20
244.4894718908969
 30
0.0
  0
SPLINE
  5
FA
330
1F
100
AcDbEntity
  8
0
  6
Continuous
 62
     7
370
    25
100
AcDbSpline
210
0.0
220
0.0
230
1.0
 70
     8
 71
     3
 72
    21
 73
    17
 74
     0
 42
0.00000001
 43
0.00000001
 40
0.0
 40
0.0
 40
0.0
 40
0.0
 40
0.1736745655705151
 40
0.3279899388737353
 40
0.4444854949082142
 40
0.4844687782387989
 40
0.4998673684035715
 40
0.512805407120722
 40
0.5187417719654712
 40
0.5246027563442258
 40
0.5370868644035688
 40
0.5521128691769845
 40
0.5704908479599085
 40
0.677945171149756
 40
0.8283854114582843
 40
1.0
 40
1.0
 40
1.0
 40
1.0
 10
406.1026528369949
 20
244.489471890897
 30
0.0
 10
406.1197149498143
 20
244.220633499218
 30
0.0
 10
406.1519372923451
 20
243.7129236491082
 30
0.0
 10
406.207571621558
 20
242.9735635687536
 30
0.0
 10
406.2613818229793
 20
242.3854025062894
 30
0.0
 10
406.3100482687221
 20
241.9362685746642
 30
0.0
 10
406.3363367551314
 20
241.7084570074216
 30
0.0
 10
406.3523295156666
 20
241.5741006960662
 30
0.0
 10
406.3648010015823
 20
241.4714647525524
 30
0.0
 10
406.377145184985
 20
241.3710699037818
 30
0.0
 10
406.3930141362202
 20
241.2442664396252
 30
0.0
 10
406.4102051277201
 20
241.1097032830347
 30
0.0
 10
406.4524001973207
 20
240.7863610606724
 30
0.0
 10
406.5004723171401
 20
240.4496127196776
 30
0.0
 10
406.5611929297289
 20
240.0635817546547
 30
0.0
 10
406.5991193562998
 20
239.8412344594242
 30
0.0
 10
406.6193293562991
 20
239.7227514057139
 30
0.0
  0
LINE
  5
FB
330
1F
100
AcDbEntity
  8
0
  6
Continuous
 62
     7
370
    25
100
AcDbLine
 10
348.6430353612
 20
388.8270151703
 30
0.0
 11
356.9239127533
 21
388.9715584228
 31
0.0
  0
LINE
  5
FC
330
1F
100
AcDbEntity
  8
0
  6
Continuous
 62
     7
370
    25
100
AcDbLine
 10
356.9239127533
 20
411.4884556702
 30
0.0
 11
348.5203554799
 21
411.635140308
 31
0.0
  0
ARC
  5
FD
330
1F
100
AcDbEntity
  8
0
  6
Continuous
 62
     7
370
    25
100
AcDbCircle
 10
356.9151865501
 20
389.4714822704
 30
0.0
 40
0.5000000000000058
100
AcDbArc
 50
271.0
 51
358.1867030123
  0
ARC
  5
FE
330
1F
100
AcDbEntity
  8
0
  6
Continuous
 62
     7
370
    25
100
AcDbCircle
 10
356.9151865501
 20
410.9885318226
 30
0.0
 40
0.5000000000000058
100
AcDbArc
 50
1.8132969877
 51
89.0
  0
ARC
  5
FF
330
1F
100
AcDbEntity
  8
0
  6
Continuous
 62
     7
370
    25
100
AcDbCircle
 10
17.0854436719
 20
400.2300070465
 30
0.0
 40
340.5000000000001
100
AcDbArc
 50
0.0000630293
 51
1.8132969877
  0
ARC
  5
100
330
1F
100
AcDbEntity
  8
0
  6
Continuous
 62
     7
370
    25
100
AcDbCircle
 10
17.0854436719
 20
400.2300070465
 30
0.0
 40
340.5000000000001
100
AcDbArc
 50
358.1867030123
 51
0.0000630293
  0
LINE
  5
101
330
1F
100
AcDbEntity
  8
0
  6
Continuous
 62
     7
370
    25
100
AcDbLine
 10
385.9472223662
 20
307.2061410062
 30
0.0
 11
385.9484657025
 21
306.8082734114
 31
0.0
  0
LINE
  5
102
330
1F
100
AcDbEntity
  8
0
  6
Continuous
 62
     7
370
    25
100
AcDbLine
 10
385.9484657025
 20
306.8082734114
 30
0.0
 11
386.1689227035
 21
306.2084120372
 31
0.0
  0
ARC
  5
103
330
1F
100
AcDbEntity
  8
0
  6
Continuous
 62
     7
370
    25
100
AcDbCircle
 10
393.5435716739
 20
306.2998621779
 30
0.0
 40
0.2000000000000245
100
AcDbArc
 50
263.3452667081
 51
270.1790487281
  0
ARC
  5
104
330
1F
100
AcDbEntity
  8
0
  6
Continuous
 62
     7
370
    25
100
AcDbCircle
 10
386.3566465484
 20
306.2774030369
 30
0.0
 40
0.200000000000009
100
AcDbArc
 50
200.1790487281
 51
270.1790487282
  0
LINE
  5
105
330
1F
100
AcDbEntity
  8
0
  6
Continuous
 62
     7
370
    25
100
AcDbLine
 10
386.3572715454
 20
306.0774040135
 30
0.0
 11
393.5441966709
 21
306.0998631545
 31
0.0
  0
LINE
  5
106
330
1F
100
AcDbEntity
  8
0
  6
Continuous
 62
     7
370
    25
100
AcDbLine
 10
393.488483967
 20
306.0996890523
 30
0.0
 11
393.5441966709
 21
306.0998631545
 31
0.0
  0
LINE
  5
107
330
1F
100
AcDbEntity
  8
0
  6
Continuous
 62
     7
370
    25
100
AcDbLine
 10
386.3572715454
 20
306.0774040135
 30
0.0
 11
393.488483967
 21
306.0996890523
 31
0.0
  0
SPLINE
  5
108
330
1F
100
AcDbEntity
  8
0
  6
Continuous
 62
     7
370
    25
100
AcDbSpline
210
0.0
220
0.0
230
1.0
 70
     8
 71
     3
 72
    21
 73
    17
 74
     0
 42
0.00000001
 43
0.00000001
 40
0.0
 40
0.0
 40
0.0
 40
0.0
 40
0.1736778974232162
 40
0.327994927711562
 40
0.4444890156819574
 40
0.484469835893011
 40
0.4998666753370524
 40
0.5128026946712683
 40
0.5187380490151994
 40
0.5245981053983306
 40
0.5370808449418205
 40
0.5521061516995641
 40
0.5704838753260922
 40
0.6779393801327781
 40
0.8283822326253333
 40
1.0
 40
1.0
 40
1.0
 40
1.0
 10
406.1026528369949
 20
244.489471890897
 30
0.0
 10
406.1197152130707
 20
244.2206251785735
 30
0.0
 10
406.1519379247143
 20
243.7129016323862
 30
0.0
 10
406.2075726556746
 20
242.9735291637501
 30
0.0
 10
406.2613846233493
 20
242.3853683237037
 30
0.0
 10
406.310053817502
 20
241.9362293918609
 30
0.0
 10
406.3363435817037
 20
241.708415661375
 30
0.0
 10
406.3523370286555
 20
241.5740576853769
 30
0.0
 10
406.3648088422923
 20
241.4714212625155
 30
0.0
 10
406.3771534135242
 20
241.3710248090981
 30
0.0
 10
406.3930224319909
 20
241.244221435641
 30
0.0
 10
406.4102127237818
 20
241.1096627008453
 30
0.0
 10
406.4524069714914
 20
240.7863215044869
 30
0.0
 10
406.5004760916775
 20
240.4495851684041
 30
0.0
 10
406.5611957326732
 20
240.063562522393
 30
0.0
 10
406.5991203971373
 20
239.8412273854398
 30
0.0
 10
406.6193294691016
 20
239.7227507463879
 30
0.0
  0
LINE
  5
109
330
1F
100
AcDbEntity
  8
0
  6
Continuous
 62
     7
370
    25
100
AcDbLine
 10
414.3914894581
 20
256.3959427815
 30
0.0
 11
414.3907498921
 21
259.8581433219
 31
0.0
  0
LINE
  5
10A
330
1F
100
AcDbEntity
  8
0
  6
Continuous
 62
     7
370
    25
100
AcDbLine
 10
341.1931456738
 20
435.0763536359
 30
0.0
 11
341.1931456738
 21
289.5836604463
 31
0.0
  0
SPLINE
  5
10B
330
1F
100
AcDbEntity
  8
0
  6
Continuous
 62
     7
370
    25
100
AcDbSpline
210
0.0
220
0.0
230
1.0
 70
     8
 71
     3
 72
    12
 73
     8
 74
     0
 42
0.00000001
 43
0.00000001
 40
0.0
 40
0.0
 40
0.0
 40
0.0
 40
0.2116778339823512
 40
0.4294943041182772
 40
0.641172150309342
 40
0.8589887292926341
 40
1.0
 40
1.0
 40
1.0
 40
1.0
 10
348.6600377615953
 20
349.5514410040224
 30
0.0
 10
348.66396642255
 20
350.4650792560361
 30
0.0
 10
348.6719376752368
 20
352.3188511785943
 30
0.0
 10
348.680873248904
 20
354.3968872264392
 30
0.0
 10
348.6872102529111
 20
355.870607250992
 30
0.0
 10
348.6905897411424
 20
356.656534429457
 30
0.0
 10
348.6905842429293
 20
356.6552557783207
 30
0.0
 10
348.6905820822552
 20
356.654753297196
 30
0.0
  0
SPLINE
  5
10C
330
1F
100
AcDbEntity
  8
0
  6
Continuous
 62
     7
370
    25
100
AcDbSpline
210
0.0
220
0.0
230
1.0
 70
     8
 71
     3
 72
    22
 73
    18
 74
     0
 42
0.00000001
 43
0.00000001
 40
0.0
 40
0.0
 40
0.0
 40
0.0
 40
0.0514414638966565
 40
0.1220114690521074
 40
0.194628001918325
 40
0.2651981559306564
 40
0.3378148214830846
 40
0.4083854780735828
 40
0.4810026524345001
 40
0.5515739450627267
 40
0.6241917813618085
 40
0.6947635647371934
 40
0.7673819260031159
 40
0.8379538397588738
 40
0.910572358947092
 40
0.955037952000785
 40
1.0
 40
1.0
 40
1.0
 40
1.0
 10
348.4805206979486
 20
307.804019446137
 30
0.0
 10
348.4805432076463
 20
307.8092540973466
 30
0.0
 10
348.4805965972873
 20
307.8216699081669
 30
0.0
 10
348.4841641238393
 20
308.6513021312506
 30
0.0
 10
348.4905486908726
 20
310.1360413189064
 30
0.0
 10
348.4998101255822
 20
312.2898021649568
 30
0.0
 10
348.5113822277627
 20
314.980916317546
 30
0.0
 10
348.5251826059172
 20
318.1902261252811
 30
0.0
 10
348.5405624367241
 20
321.7668488088341
 30
0.0
 10
348.5573658709295
 20
325.6745435262416
 30
0.0
 10
348.5748140325355
 20
329.7321817665958
 30
0.0
 10
348.5927278621676
 20
333.8981235548164
 30
0.0
 10
348.6102755147928
 20
337.978919668955
 30
0.0
 10
348.6272848750798
 20
341.9345429941388
 30
0.0
 10
348.6410242900689
 20
345.1297295554726
 30
0.0
 10
348.6519384876354
 20
347.6678984254322
 30
0.0
 10
348.6573280303123
 20
348.9212741182706
 30
0.0
 10
348.6600377615953
 20
349.5514410040224
 30
0.0
  0
SPLINE
  5
10D
330
1F
100
AcDbEntity
  8
0
  6
Continuous
 62
     7
370
    25
100
AcDbSpline
210
0.0
220
0.0
230
1.0
 70
     8
 71
     3
 72
    21
 73
    17
 74
     0
 42
0.00000001
 43
0.00000001
 40
0.0
 40
0.0
 40
0.0
 40
0.0
 40
0.0705104216143462
 40
0.1430656683053722
 40
0.2135760834581795
 40
0.2861312724999483
 40
0.3566422640972702
 40
0.429198064193401
 40
0.499709287182013
 40
0.5722653631128481
 40
0.6427761538956875
 40
0.7153318128721053
 40
0.7858416972795497
 40
0.8583964292546897
 40
0.9289053303623275
 40
0.9999999999999999
 40
0.9999999999999999
 40
0.9999999999999999
 40
0.9999999999999999
 10
348.5375000035909
 20
408.3109426513211
 30
0.0
 10
348.540031895591
 20
407.8433344464004
 30
0.0
 10
348.5451691052797
 20
406.8945572470817
 30
0.0
 10
348.5541881128879
 20
405.228859000363
 30
0.0
 10
348.5639714192318
 20
403.422001935036
 30
0.0
 10
348.5741781470904
 20
401.5369413616574
 30
0.0
 10
348.5846730180402
 20
399.5986613120487
 30
0.0
 10
348.5949781333175
 20
397.6954240627205
 30
0.0
 10
348.6049851558265
 20
395.8472384399038
 30
0.0
 10
348.6142310511671
 20
394.1396221564589
 30
0.0
 10
348.6226212292585
 20
392.5900455709371
 30
0.0
 10
348.6297639641075
 20
391.2708569928877
 30
0.0
 10
348.6355977766248
 20
390.1934117014599
 30
0.0
 10
348.6398073724704
 20
389.4159419952633
 30
0.0
 10
348.6424999599391
 20
388.9186481177857
 30
0.0
 10
348.6428184399963
 20
388.8598280333164
 30
0.0
 10
348.6429783387499
 20
388.8302963311751
 30
0.0
  0
SPLINE
  5
10E
330
1F
100
AcDbEntity
  8
0
  6
Continuous
 62
     7
370
    25
100
AcDbSpline
210
0.0
220
0.0
230
1.0
 70
     8
 71
     3
 72
    12
 73
     8
 74
     0
 42
0.00000001
 43
0.00000001
 40
0.0
 40
0.0
 40
0.0
 40
0.0
 40
0.0822981659559907
 40
0.300719925175519
 40
0.5129852819025731
 40
0.7314062766350501
 40
1.0
 40
1.0
 40
1.0
 40
1.0
 10
348.5197033097578
 20
411.5977602125857
 30
0.0
 10
348.5196519310256
 20
411.607249183017
 30
0.0
 10
348.5194641916229
 20
411.6419221607792
 30
0.0
 10
348.520960290156
 20
411.3656126126385
 30
0.0
 10
348.5241852003776
 20
410.7700142212302
 30
0.0
 10
348.5294213454582
 20
409.8029668974971
 30
0.0
 10
348.5346283087439
 20
408.8413077526632
 30
0.0
 10
348.5375000035909
 20
408.3109426513211
 30
0.0
  0
LINE
  5
10F
330
1F
100
AcDbEntity
  8
0
  6
Continuous
 62
     7
370
    18
100
AcDbLine
 10
341.1931456738
 20
288.0946120891
 30
0.0
 11
346.4778727243
 21
288.2329938754
 31
0.0
  0
LINE
  5
110
330
1F
100
AcDbEntity
  8
0
  6
Continuous
 62
     7
370
    25
100
AcDbLine
 10
341.1931456738
 20
288.0946120891
 30
0.0
 11
341.1931456738
 21
289.5836604463
 31
0.0
  0
LINE
  5
111
330
1F
100
AcDbEntity
  8
0
  6
Continuous
 62
     7
370
    18
100
AcDbLine
 10
341.1931456738
 20
436.5654019932
 30
0.0
 11
346.4778727243
 21
436.4270202069
 31
0.0
  0
LINE
  5
112
330
1F
100
AcDbEntity
  8
0
  6
Continuous
 62
     7
370
    25
100
AcDbLine
 10
341.1931456738
 20
436.5654019932
 30
0.0
 11
341.1931456738
 21
435.0763536359
 31
0.0
  0
LINE
  5
113
330
1F
100
AcDbEntity
  8
0
  6
Continuous
 62
     7
370
    25
100
AcDbLine
 10
341.1931456738
 20
287.8300070411
 30
0.0
 11
341.1931456738
 21
288.0946120891
 31
0.0
  0
LINE
  5
114
330
1F
100
AcDbEntity
  8
0
  6
Continuous
 62
     7
370
    25
100
AcDbLine
 10
341.1931456738
 20
436.8300070411
 30
0.0
 11
341.1931456738
 21
436.5654019932
 31
0.0
  0
SPLINE
  5
115
330
1F
100
AcDbEntity
  8
0
  6
Continuous
 62
     7
370
    25
100
AcDbSpline
210
0.0
220
0.0
230
1.0
 70
     8
 71
     3
 72
    14
 73
    10
 74
     0
 42
0.00000001
 43
0.00000001
 40
0.0
 40
0.0
 40
0.0
 40
0.0
 40
0.25
 40
0.25
 40
0.5
 40
0.5
 40
0.75
 40
0.75
 40
1.0
 40
1.0
 40
1.0
 40
1.0
 10
412.598024149014
 20
232.2976601887805
 30
0.0
 10
412.5510422273447
 20
232.1552077432579
 30
0.0
 10
412.4696893750149
 20
232.007047687712
 30
0.0
 10
412.2298044657796
 20
231.7501215990661
 30
0.0
 10
412.0709309685514
 20
231.6434117018416
 30
0.0
 10
411.7190061035315
 20
231.5202856983243
 30
0.0
 10
411.5282598591198
 20
231.5046760727825
 30
0.0
 10
411.1805241238116
 20
231.5560145808443
 30
0.0
 10
411.0245494994855
 20
231.621142186484
 30
0.0
 10
410.8990073193959
 20
231.703234579986
 30
0.0
  0
SPLINE
  5
116
330
1F
100
AcDbEntity
  8
0
  6
Continuous
 62
     7
370
    25
100
AcDbSpline
210
0.0
220
0.0
230
1.0
 70
     8
 71
     3
 72
    10
 73
     6
 74
     0
 42
0.00000001
 43
0.00000001
 40
0.0
 40
0.0
 40
0.0
 40
0.0
 40
0.5
 40
0.5
 40
1.0
 40
1.0
 40
1.0
 40
1.0
 10
380.7915544416182
 20
323.1776412332235
 30
0.0
 10
380.7915544416182
 20
324.6145078355342
 30
0.0
 10
380.8534379868111
 20
326.0797174441438
 30
0.0
 10
381.1162339146508
 20
329.0598221154237
 30
0.0
 10
381.3183549303944
 20
330.5761688160161
 30
0.0
 10
381.5904645323026
 20
332.0800426921247
 30
0.0
  0
SPLINE
  5
117
330
1F
100
AcDbEntity
  8
0
  6
Continuous
 62
     7
370
    25
100
AcDbSpline
210
0.0
220
0.0
230
1.0
 70
     8
 71
     3
 72
    10
 73
     6
 74
     0
 42
0.00000001
 43
0.00000001
 40
0.0
 40
0.0
 40
0.0
 40
0.0
 40
0.5
 40
0.5
 40
1.0
 40
1.0
 40
1.0
 40
1.0
 10
381.5904645323026
 20
332.0800426921247
 30
0.0
 10
382.0140299132643
 20
334.4209704167814
 30
0.0
 10
382.4938313774117
 20
336.7546086036139
 30
0.0
 10
383.5645456443632
 20
341.3980577503335
 30
0.0
 10
384.1550606576516
 20
343.7064423840694
 30
0.0
 10
384.8006978939428
 20
346.0010434064472
 30
0.0
  0
SPLINE
  5
118
330
1F
100
AcDbEntity
  8
0
  6
Continuous
 62
     7
370
    25
100
AcDbSpline
210
0.0
220
0.0
230
1.0
 70
     8
 71
     3
 72
    12
 73
     8
 74
     0
 42
0.00000001
 43
0.00000001
 40
0.0
 40
0.0
 40
0.0
 40
0.0
 40
0.5000000000000071
 40
0.5000000000000071
 40
0.7500000000000036
 40
0.7500000000000036
 40
1.0
 40
1.0
 40
1.0
 40
1.0
 10
385.1568047166782
 20
347.2460150239099
 30
0.0
 10
385.2427737576875
 20
347.5417345674492
 30
0.0
 10
385.3291268538118
 20
347.8351843399842
 30
0.0
 10
385.4469893427271
 20
348.2318204445658
 30
0.0
 10
385.4850236129384
 20
348.3591257904954
 30
0.0
 10
385.5540498956012
 20
348.5892183399728
 30
0.0
 10
385.5853969198137
 20
348.6932113847887
 30
0.0
 10
385.6132720898642
 20
348.7854042720492
 30
0.0
  0
SPLINE
  5
119
330
1F
100
AcDbEntity
  8
0
  6
Continuous
 62
     7
370
    25
100
AcDbSpline
210
0.0
220
0.0
230
1.0
 70
     8
 71
     3
 72
     8
 73
     4
 74
     0
 42
0.00000001
 43
0.00000001
 40
0.0
 40
0.0
 40
0.0
 40
0.0
 40
0.0012950023396037
 40
0.0012950023396037
 40
0.0012950023396037
 40
0.0012950023396037
 10
384.8006978252054
 20
346.0010431621538
 30
0.0
 10
384.9176069640285
 20
346.4165393822146
 30
0.0
 10
385.0363115680606
 20
346.8315381553593
 30
0.0
 10
385.1568047163628
 20
347.246015022825
 30
0.0
  0
SPLINE
  5
11A
330
1F
100
AcDbEntity
  8
0
  6
Continuous
 62
     7
370
    25
100
AcDbSpline
210
0.0
220
0.0
230
1.0
 70
     8
 71
     3
 72
     9
 73
     5
 74
     0
 42
0.00000001
 43
0.00000001
 40
0.0243599003348268
 40
0.0243599003348268
 40
0.0243599003348268
 40
0.0243599003348268
 40
0.5
 40
1.0
 40
1.0
 40
1.0
 40
1.0
 10
380.8915607986543
 20
307.2084323241084
 30
0.0
 10
381.542452572653
 20
307.2084737015337
 30
0.0
 10
382.8775410245843
 20
307.209354675358
 30
0.0
 10
384.2126808545093
 20
307.2092648791888
 30
0.0
 10
384.8969636924436
 20
307.2082450274045
 30
0.0
  0
SPLINE
  5
11B
330
1F
100
AcDbEntity
  8
0
  6
Continuous
 62
     7
370
    25
100
AcDbSpline
210
0.0
220
0.0
230
1.0
 70
     8
 71
     3
 72
    31
 73
    27
 74
     0
 42
0.00000001
 43
0.00000001
 40
0.0
 40
0.0
 40
0.0
 40
0.0
 40
0.1250000000000001
 40
0.1250000000000001
 40
0.1875000000000001
 40
0.1875000000000001
 40
0.2500000000000001
 40
0.2500000000000001
 40
0.3750000000000002
 40
0.3750000000000002
 40
0.4374999999999999
 40
0.4374999999999999
 40
0.4999999999999999
 40
0.4999999999999999
 40
0.6249999999999999
 40
0.6249999999999999
 40
0.6875
 40
0.6875
 40
0.75
 40
0.75
 40
0.8125
 40
0.8125
 40
0.875
 40
0.9375000000000001
 40
0.9375000000000001
 40
1.0
 40
1.0
 40
1.0
 40
1.0
 10
380.8914922626153
 20
323.1420747126885
 30
0.0
 10
380.8914967753424
 20
321.965432106723
 30
0.0
 10
380.8915019489964
 20
320.8338222437786
 30
0.0
 10
380.8915100268335
 20
319.2024334867855
 30
0.0
 10
380.8915127823457
 20
318.6679811334674
 30
0.0
 10
380.8915182310241
 20
317.6341794399491
 30
0.0
 10
380.8915209285356
 20
317.1338119123779
 30
0.0
 10
380.8915288146828
 20
315.6805277533734
 30
0.0
 10
380.8915337904452
 20
314.7751528125929
 30
0.0
 10
380.8915404641024
 20
313.5104191982927
 30
0.0
 10
380.8915425587057
 20
313.1044652933601
 30
0.0
 10
380.8915464453424
 20
312.3243610415721
 30
0.0
 10
380.891548228166
 20
311.9519195278924
 30
0.0
 10
380.891553014889
 20
310.8993534632351
 30
0.0
 10
380.8915554791876
 20
310.2780591140466
 30
0.0
 10
380.8915581587495
 20
309.4649207357016
 30
0.0
 10
380.8915588838755
 20
309.2137715040028
 30
0.0
 10
380.8915600293533
 20
308.7521428144266
 30
0.0
 10
380.8915604500159
 20
308.5412488883567
 30
0.0
 10
380.8915610302262
 20
308.164657153243
 30
0.0
 10
380.8915611906305
 20
307.9986476382767
 30
0.0
 10
380.8915613282023
 20
307.7137257237371
 30
0.0
 10
380.8915612838402
 20
307.475301478077
 30
0.0
 10
380.891561067608
 20
307.3302964108542
 30
0.0
 10
380.8915608789566
 20
307.2330575336184
 30
0.0
 10
380.8915607986543
 20
307.2084323241084
 30
0.0
 10
380.8915607986543
 20
307.2084323241084
 30
0.0
  0
SPLINE
  5
11C
330
1F
100
AcDbEntity
  8
0
  6
Continuous
 62
     7
370
    25
100
AcDbSpline
210
0.0
220
0.0
230
1.0
 70
     8
 71
     3
 72
    27
 73
    23
 74
     0
 42
0.00000001
 43
0.00000001
 40
0.2
 40
0.2
 40
0.2
 40
0.2
 40
0.2309251705363866
 40
0.2639144806130132
 40
0.2639144806130132
 40
0.2925689821971661
 40
0.3212234837813192
 40
0.349877985365472
 40
0.378532486949625
 40
0.4358414901179309
 40
0.4931504932862368
 40
0.4931504932862368
 40
0.524828587455847
 40
0.5565066816254572
 40
0.5881847757950674
 40
0.6198628699646777
 40
0.6832190583038982
 40
0.7465752466431184
 40
0.8099314349823385
 40
0.873287623321559
 40
0.9366438116607796
 40
1.0
 40
1.0
 40
1.0
 40
1.0
 10
414.3915544416182
 20
342.287272513927
 30
0.0
 10
414.3915544416182
 20
342.5647430319363
 30
0.0
 10
414.3915544416182
 20
343.1383167352207
 30
0.0
 10
414.3915544416182
 20
343.7121594801875
 30
0.0
 10
414.3915544416182
 20
344.2657688937476
 30
0.0
 10
414.3911406984627
 20
344.7766602022037
 30
0.0
 10
414.375753983168
 20
345.5356620036059
 30
0.0
 10
414.3320762962158
 20
346.2913582966044
 30
0.0
 10
414.224677654131
 20
347.2967053152976
 30
0.0
 10
413.9768003076104
 20
348.5532227147811
 30
0.0
 10
413.6247643606739
 20
349.5592857480277
 30
0.0
 10
413.2794147074483
 20
350.3419394630951
 30
0.0
 10
413.0089809214189
 20
350.8898418527569
 30
0.0
 10
412.5342700032481
 20
351.6792561583074
 30
0.0
 10
411.9951007862232
 20
352.4317703408031
 30
0.0
 10
411.1964000187477
 20
353.3799746279078
 30
0.0
 10
410.0598880136305
 20
354.4506754585899
 30
0.0
 10
408.5131997140975
 20
355.5316060109997
 30
0.0
 10
406.8125123549043
 20
356.373607256476
 30
0.0
 10
404.9925458346912
 20
356.9401919805227
 30
0.0
 10
403.099683569287
 20
357.2029839594295
 30
0.0
 10
401.8271518812474
 20
357.2084291038262
 30
0.0
 10
401.1915544416181
 20
357.2084291038262
 30
0.0
  0
SPLINE
  5
11D
330
1F
100
AcDbEntity
  8
0
  6
Continuous
 62
     7
370
    25
100
AcDbSpline
210
0.0
220
0.0
230
1.0
 70
     8
 71
     3
 72
    17
 73
    13
 74
     0
 42
0.00000001
 43
0.00000001
 40
0.0485795298932049
 40
0.0485795298932049
 40
0.0485795298932049
 40
0.0485795298932049
 40
0.0625
 40
0.0706381005237446
 40
0.09375
 40
0.1019804533022912
 40
0.109375
 40
0.1115339358586515
 40
0.1163184025023086
 40
0.125
 40
0.1285162576861448
 40
0.1285945955875893
 40
0.1285945955875893
 40
0.1285945955875893
 40
0.1285945955875893
 10
388.5043798887523
 20
357.2078319013142
 30
0.0
 10
389.2413424932099
 20
357.2076746246132
 30
0.0
 10
390.4093110089925
 20
357.2073602766096
 30
0.0
 10
392.8017019437824
 20
357.2064505390055
 30
0.0
 10
394.8912175349023
 20
357.2062409779982
 30
0.0
 10
396.9333094869988
 20
357.2091687332266
 30
0.0
 10
397.8732799855101
 20
357.2095350035638
 30
0.0
 10
398.634228569425
 20
357.2085975929919
 30
0.0
 10
399.464235418777
 20
357.207116968305
 30
0.0
 10
400.359910068593
 20
357.2069564430211
 30
0.0
 10
400.9936368466566
 20
357.2106600714488
 30
0.0
 10
401.1877220923512
 20
357.2108236164193
 30
0.0
 10
401.1919559905592
 20
357.2108267299784
 30
0.0
  0
ARC
  5
11E
330
1F
100
AcDbEntity
  8
0
  6
Continuous
 62
     7
370
    25
100
AcDbCircle
 10
388.5043585475
 20
357.1078319035
 30
0.0
 40
0.1000000000886092
100
AcDbArc
 50
89.9877723717
 51
159.8102656673
  0
SPLINE
  5
11F
330
1F
100
AcDbEntity
  8
0
  6
Continuous
 62
     7
370
    25
100
AcDbSpline
210
0.0
220
0.0
230
1.0
 70
     8
 71
     3
 72
    18
 73
    14
 74
     0
 42
0.00000001
 43
0.00000001
 40
0.0
 40
0.0
 40
0.0
 40
0.0
 40
0.2499999999999999
 40
0.2499999999999999
 40
0.4999999999999998
 40
0.4999999999999998
 40
0.5624999999999999
 40
0.5624999999999999
 40
0.6249999999999999
 40
0.6249999999999999
 40
0.7499999999999999
 40
0.7499999999999999
 40
1.0
 40
1.0
 40
1.0
 40
1.0
 10
385.6132720085292
 20
348.7854040030466
 30
0.0
 10
386.0190111673972
 20
350.1273245981814
 30
0.0
 10
386.3972977951834
 20
351.3114690215317
 30
0.0
 10
387.0776187246628
 20
353.3748149762822
 30
0.0
 10
387.3797606605506
 20
354.2540922173748
 30
0.0
 10
387.6945709853804
 20
355.1525836764582
 30
0.0
 10
387.7542716886993
 20
355.3218760520242
 30
0.0
 10
387.865951024923
 20
355.6369968096218
 30
0.0
 10
387.918077059993
 20
355.7832465785171
 30
0.0
 10
388.0630945315662
 20
356.1884347818414
 30
0.0
 10
388.1446281198532
 20
356.4138684151778
 30
0.0
 10
388.3419405083322
 20
356.9569500501735
 30
0.0
 10
388.4104856077749
 20
357.1422974477912
 30
0.0
 10
388.4105030600483
 20
357.1423449079199
 30
0.0
  0
SPLINE
  5
120
330
1F
100
AcDbEntity
  8
0
  6
Continuous
 62
     7
370
    25
100
AcDbSpline
210
0.0
220
0.0
230
1.0
 70
     8
 71
     3
 72
    15
 73
    11
 74
     0
 42
0.00000001
 43
0.00000001
 40
0.0
 40
0.0
 40
0.0
 40
0.0
 40
0.0115700627198425
 40
0.1018253587496642
 40
0.2096313802111239
 40
0.3237950979130739
 40
0.4391947035908757
 40
0.5548900548338976
 40
0.6703055422733752
 40
1.0
 40
1.0
 40
1.0
 40
1.0
 10
412.5980241457493
 20
232.2976601883781
 30
0.0
 10
412.6267963326816
 20
232.3866560584362
 30
0.0
 10
412.8800134782864
 20
233.1698874561683
 30
0.0
 10
413.2972696266808
 20
234.8154853046406
 30
0.0
 10
413.7173958255572
 20
237.3058456992008
 30
0.0
 10
414.0315930759712
 20
240.0159443871786
 30
0.0
 10
414.230453751198
 20
242.8004946157431
 30
0.0
 10
414.3476378040812
 20
245.5995316874578
 30
0.0
 10
414.4157622124933
 20
250.1327785842087
 30
0.0
 10
414.4004062771415
 20
253.7310327243543
 30
0.0
 10
414.3890320833415
 20
256.3962718644396
 30
0.0
  0
SPLINE
  5
121
330
1F
100
AcDbEntity
  8
0
  6
Continuous
 62
     7
370
    25
100
AcDbSpline
210
0.0
220
0.0
230
1.0
 70
     8
 71
     3
 72
    13
 73
     9
 74
     0
 42
0.00000001
 43
0.00000001
 40
0.0
 40
0.0
 40
0.0
 40
0.0
 40
0.080631665988152
 40
0.2541394428036911
 40
0.4162629421072875
 40
0.605758343843439
 40
0.7861057697521215
 40
1.0
 40
1.0
 40
1.0
 40
1.0
 10
406.63194450374
 20
239.7248695775911
 30
0.0
 10
406.671365656052
 20
239.4766482813926
 30
0.0
 10
406.7956154723053
 20
238.6942903685949
 30
0.0
 10
407.1058905810092
 20
237.4325874226984
 30
0.0
 10
407.6152110737558
 20
235.8745248756627
 30
0.0
 10
408.3362688860271
 20
234.3768194064964
 30
0.0
 10
409.3932366896242
 20
232.871812559356
 30
0.0
 10
410.3693959917308
 20
232.1142481312201
 30
0.0
 10
410.8990073081983
 20
231.7032345873978
 30
0.0
  0
ARC
  5
122
330
1F
100
AcDbEntity
  8
0
  6
Continuous
 62
     7
370
    25
100
AcDbCircle
 10
380.8915544416
 20
307.3084323239
 30
0.0
 40
0.1000000000000039
100
AcDbArc
 50
180.0
 51
270.0036423134
  0
SPLINE
  5
123
330
1F
100
AcDbEntity
  8
0
  6
Continuous
 62
     7
370
    25
100
AcDbSpline
210
0.0
220
0.0
230
1.0
 70
    24
 71
     3
 72
    28
 73
    24
 74
     0
 42
0.00000001
 43
0.00000001
 40
0.0
 40
0.0
 40
0.0
 40
0.0
 40
0.1250000000000005
 40
0.1250000000000005
 40
0.250000000000001
 40
0.250000000000001
 40
0.3125000000000013
 40
0.3125000000000013
 40
0.3750000000000016
 40
0.3750000000000016
 40
0.500000000000002
 40
0.500000000000002
 40
0.562500000000002
 40
0.562500000000002
 40
0.6250000000000021
 40
0.6250000000000021
 40
0.7500000000000018
 40
0.7500000000000018
 40
0.8125000000000014
 40
0.8125000000000014
 40
0.875000000000001
 40
0.875000000000001
 40
1.0
 40
1.0
 40
1.0
 40
1.0
 10
380.7915544416182
 20
307.3084323239063
 30
0.0
 10
380.7915544416182
 20
307.3084323239062
 30
0.0
 10
380.7915544416182
 20
307.4060536627151
 30
0.0
 10
380.7915544416182
 20
307.7840791441984
 30
0.0
 10
380.7915544416182
 20
308.0645028916779
 30
0.0
 10
380.7915544416182
 20
308.6229532768658
 30
0.0
 10
380.7915544416181
 20
308.8327480199781
 30
0.0
 10
380.791554441618
 20
309.2917344293903
 30
0.0
 10
380.7915544416182
 20
309.5415642435638
 30
0.0
 10
380.7915544416182
 20
310.3507237643771
 30
0.0
 10
380.7915544416181
 20
310.9693370669061
 30
0.0
 10
380.7915544416181
 20
312.0177643012667
 30
0.0
 10
380.7915544416181
 20
312.388746969894
 30
0.0
 10
380.7915544416182
 20
313.1662789248983
 30
0.0
 10
380.7915544416182
 20
313.5709440600586
 30
0.0
 10
380.7915544416181
 20
314.8317929694985
 30
0.0
 10
380.7915544416182
 20
315.7345526670082
 30
0.0
 10
380.7915544416182
 20
317.1838552216514
 30
0.0
 10
380.7915544416182
 20
317.6828860086191
 30
0.0
 10
380.7915544416181
 20
318.713994462679
 30
0.0
 10
380.7915544416182
 20
319.2471325305534
 30
0.0
 10
380.7915544416182
 20
320.8746228929974
 30
0.0
 10
380.7915544416182
 20
322.0036212595025
 30
0.0
 10
380.7915544416182
 20
323.1776412332235
 30
0.0
  0
SPLINE
  5
124
330
1F
100
AcDbEntity
  8
0
  6
Continuous
 62
     7
370
    25
100
AcDbSpline
210
0.0
220
0.0
230
1.0
 70
     8
 71
     3
 72
    33
 73
    29
 74
     0
 42
0.00000001
 43
0.00000001
 40
0.0
 40
0.0
 40
0.0
 40
0.0
 40
0.03125
 40
0.0625
 40
0.09375
 40
0.125
 40
0.15625
 40
0.1875
 40
0.1945013883333333
 40
0.21875
 40
0.25
 40
0.28125
 40
0.3125
 40
0.34375
 40
0.375
 40
0.40625
 40
0.4375
 40
0.4630009255555555
 40
0.46875
 40
0.5
 40
0.5369990744444445
 40
0.5625
 40
0.59375
 40
0.625
 40
0.65625
 40
0.6875
 40
0.71875
 40
0.734925012353054
 40
0.734925012353054
 40
0.734925012353054
 40
0.734925012353054
 10
404.7904252616368
 20
286.5410505124227
 30
0.0
 10
404.7763323346024
 20
286.8861293800151
 30
0.0
 10
404.744676639728
 20
287.5762381164219
 30
0.0
 10
404.682938419423
 20
288.6106400666153
 30
0.0
 10
404.6031003655469
 20
289.6436667043089
 30
0.0
 10
404.5013173225226
 20
290.6747038714203
 30
0.0
 10
404.3737441347725
 20
291.7031374098663
 30
0.0
 10
404.2572401034352
 20
292.4624161549041
 30
0.0
 10
404.1388583013705
 20
293.1428037367441
 30
0.0
 10
404.0090713746757
 20
293.8211050895482
 30
0.0
 10
403.79840123525
 20
294.7563819662059
 30
0.0
 10
403.529785000679
 20
295.7579667029839
 30
0.0
 10
403.2160169251533
 20
296.7461037097553
 30
0.0
 10
402.8528882996108
 20
297.7165225999818
 30
0.0
 10
402.4361904149898
 20
298.6649529871248
 30
0.0
 10
401.9617145622285
 20
299.5871244846459
 30
0.0
 10
401.4590707455699
 20
300.4206515613237
 30
0.0
 10
401.0632000804085
 20
300.9871408536616
 30
0.0
 10
400.6461684263853
 20
301.5377306599631
 30
0.0
 10
400.1228311455512
 20
302.1667375508082
 30
0.0
 10
399.3916688235232
 20
302.9027198117527
 30
0.0
 10
398.6038592036214
 20
303.5766935935913
 30
0.0
 10
397.8194547562372
 20
304.1528318337695
 30
0.0
 10
396.9387988327351
 20
304.7003749722904
 30
0.0
 10
396.0208158551267
 20
305.1817447603957
 30
0.0
 10
395.072040669178
 20
305.599752876686
 30
0.0
 10
394.2554716262445
 20
305.8997317806716
 30
0.0
 10
393.7560732299103
 20
306.0593399109216
 30
0.0
 10
393.5850401571982
 20
306.1114303355441
 30
0.0
  0
SPLINE
  5
125
330
1F
100
AcDbEntity
  8
0
  6
Continuous
 62
     7
370
    25
100
AcDbSpline
210
0.0
220
0.0
230
1.0
 70
     8
 71
     3
 72
     9
 73
     5
 74
     0
 42
0.00000001
 43
0.00000001
 40
0.0
 40
0.0
 40
0.0
 40
0.0
 40
0.272444221553321
 40
1.0
 40
1.0
 40
1.0
 40
1.0
 10
393.4403049296337
 20
306.2311351066693
 30
0.0
 10
393.4780295153906
 20
306.2100059713782
 30
0.0
 10
393.6164967052686
 20
306.1324519855727
 30
0.0
 10
393.5999465728412
 20
306.1249293430938
 30
0.0
 10
393.5879054283595
 20
306.1194562010891
 30
0.0
  0
SPLINE
  5
126
330
1F
100
AcDbEntity
  8
0
  6
Continuous
 62
     7
370
    25
100
AcDbSpline
210
0.0
220
0.0
230
1.0
 70
     8
 71
     3
 72
    12
 73
     8
 74
     0
 42
0.00000001
 43
0.00000001
 40
0.0
 40
0.0
 40
0.0
 40
0.0
 40
0.4999999999999997
 40
0.4999999999999997
 40
0.7499999999999997
 40
0.7499999999999997
 40
1.0
 40
1.0
 40
1.0
 40
1.0
 10
392.0496508280775
 20
306.827339614836
 30
0.0
 10
392.3711793945038
 20
306.7156683065024
 30
0.0
 10
392.6469220925372
 20
306.6038287694472
 30
0.0
 10
392.9985961579408
 20
306.4484130625312
 30
0.0
 10
393.10549665804
 20
306.3985509362493
 30
0.0
 10
393.2921555286598
 20
306.3079740134704
 30
0.0
 10
393.3727494188905
 20
306.2669025632066
 30
0.0
 10
393.4403049296263
 20
306.2311351066693
 30
0.0
  0
SPLINE
  5
127
330
1F
100
AcDbEntity
  8
0
  6
Continuous
 62
     7
370
    25
100
AcDbSpline
210
0.0
220
0.0
230
1.0
 70
     8
 71
     3
 72
    14
 73
    10
 74
     0
 42
0.00000001
 43
0.00000001
 40
0.0
 40
0.0
 40
0.0
 40
0.0
 40
0.1061023513867888
 40
0.2628186346488599
 40
0.4206203973787523
 40
0.5783706614765438
 40
0.7322660526271109
 40
0.8836269707868061
 40
1.0
 40
1.0
 40
1.0
 40
1.0
 10
385.9962955238801
 20
307.2062943597828
 30
0.0
 10
385.9967516858087
 20
307.2119041762627
 30
0.0
 10
385.9978816122781
 20
307.2257998561288
 30
0.0
 10
386.5097704751296
 20
307.3140087686606
 30
0.0
 10
387.4052451231267
 20
307.4079755630617
 30
0.0
 10
388.6016238450977
 20
307.4348998295515
 30
0.0
 10
389.9165542884522
 20
307.3308171317117
 30
0.0
 10
391.1114768941924
 20
307.1091504798083
 30
0.0
 10
391.7654119330035
 20
306.9127199542235
 30
0.0
 10
392.0496508280775
 20
306.827339614836
 30
0.0
  0
SPLINE
  5
128
330
1F
100
AcDbEntity
  8
0
  6
Continuous
 62
     7
370
    25
100
AcDbSpline
210
0.0
220
0.0
230
1.0
 70
     8
 71
     3
 72
     9
 73
     5
 74
     0
 42
0.00000001
 43
0.00000001
 40
0.0
 40
0.0
 40
0.0
 40
0.0
 40
0.5501174295661945
 40
1.0
 40
1.0
 40
1.0
 40
1.0
 10
385.9472557540028
 20
307.1954569170573
 30
0.0
 10
385.7546790224615
 20
307.1993442167686
 30
0.0
 10
385.4046142523031
 20
307.2064105257099
 30
0.0
 10
385.0544820621441
 20
307.2076758017619
 30
0.0
 10
384.8969636924438
 20
307.2082450274045
 30
0.0
  0
LINE
  5
129
330
1F
100
AcDbEntity
  8
0
  6
Continuous
 62
     7
370
    25
100
AcDbLine
 10
385.9484657025
 20
306.8082734114
 30
0.0
 11
392.0496508281
 21
306.8273396148
 31
0.0
  0
SPLINE
  5
12A
330
1F
100
AcDbEntity
  8
0
  6
Continuous
 62
     8
370
    18
100
AcDbSpline
210
0.0
220
0.0
230
1.0
 70
     8
 71
     3
 72
     8
 73
     4
 74
     0
 42
0.00000001
 43
0.00000001
 40
0.0
 40
0.0
 40
0.0
 40
0.0
 40
1.0
 40
1.0
 40
1.0
 40
1.0
 10
347.9398473776697
 20
434.9440851805281
 30
0.0
 10
348.4385619755937
 20
386.534699754255
 30
0.0
 10
348.4385619755946
 20
338.1253143279818
 30
0.0
 10
347.9398473776709
 20
289.7159289017087
 30
0.0
  0
LINE
  5
12B
330
1F
100
AcDbEntity
  8
0
  6
Continuous
 62
     8
370
    18
100
AcDbLine
 10
348.3138367668
 20
435.1978997511
 30
0.0
 11
347.9398473777
 21
434.9440851805
 31
0.0
  0
SPLINE
  5
12C
330
1F
100
AcDbEntity
  8
0
  6
Continuous
 62
     8
370
    18
100
AcDbSpline
210
0.0
220
0.0
230
1.0
 70
    24
 71
     3
 72
     9
 73
     5
 74
     0
 42
0.00000001
 43
0.00000001
 40
0.0
 40
0.0
 40
0.0
 40
0.0
 40
0.9999210739007195
 40
1.0
 40
1.0
 40
1.0
 40
1.0
 10
347.93984737767
 20
289.7159289017094
 30
0.0
 10
348.1891754631621
 20
289.5467179486952
 30
0.0
 10
348.4385232287007
 20
289.3774936394663
 30
0.0
 10
348.3138490793202
 20
289.4621059750537
 30
0.0
 10
348.3138392392758
 20
289.4621126531753
 30
0.0
  0
SPLINE
  5
12D
330
1F
100
AcDbEntity
  8
0
  6
Continuous
 62
     8
370
    18
100
AcDbSpline
210
0.0
220
0.0
230
1.0
 70
     8
 71
     3
 72
    21
 73
    17
 74
     0
 42
0.00000001
 43
0.00000001
 40
0.0
 40
0.0
 40
0.0
 40
0.0
 40
0.052701584906223
 40
0.106121829019153
 40
0.1602636673753516
 40
0.2151299185915314
 40
0.2707232904328883
 40
0.3270463850642452
 40
0.3841017040108042
 40
0.4418916528425503
 40
0.5004185455965816
 40
0.6190205570883492
 40
0.7500271669231543
 40
0.8150462880617892
 40
0.8983758744110745
 40
1.0
 40
1.0
 40
1.0
 40
1.0
 10
346.4778727242876
 20
436.4270202068737
 30
0.0
 10
346.5183270212156
 20
436.4250110110299
 30
0.0
 10
346.5997872655199
 20
436.4209652211703
 30
0.0
 10
346.7216652325372
 20
436.4022047206773
 30
0.0
 10
346.8432608928058
 20
436.3737979349515
 30
0.0
 10
346.9636160796367
 20
436.3346222470898
 30
0.0
 10
347.0817540221328
 20
436.2848113307968
 30
0.0
 10
347.1966488932813
 20
436.2242703104489
 30
0.0
 10
347.3072421316733
 20
436.1530952563395
 30
0.0
 10
347.4124572213331
 20
436.0714536380281
 30
0.0
 10
347.5445412237809
 20
435.9486650235584
 30
0.0
 10
347.6949596447467
 20
435.7649419299189
 30
0.0
 10
347.8102782831005
 20
435.5513565206237
 30
0.0
 10
347.8821763878249
 20
435.3499108209876
 30
0.0
 10
347.9276193073944
 20
435.1632976171301
 30
0.0
 10
347.9355111492993
 20
435.0218206829663
 30
0.0
 10
347.9398473776696
 20
434.9440851805276
 30
0.0
  0
SPLINE
  5
12E
330
1F
100
AcDbEntity
  8
0
  6
Continuous
 62
     8
370
    18
100
AcDbSpline
210
0.0
220
0.0
230
1.0
 70
     8
 71
     3
 72
    21
 73
    17
 74
     0
 42
0.00000001
 43
0.00000001
 40
0.0
 40
0.0
 40
0.0
 40
0.0
 40
0.0527050586770356
 40
0.1061279071733555
 40
0.160271480570331
 40
0.2151385976737027
 40
0.2707319665647935
 40
0.3270541898388294
 40
0.3841077695545386
 40
0.4418951119056873
 40
0.5004185316339577
 40
0.6190410166262819
 40
0.7500271579266006
 40
0.8150588969040994
 40
0.898388478829984
 40
1.0
 40
1.0
 40
1.0
 40
1.0
 10
346.4778727242881
 20
288.2329938753614
 30
0.0
 10
346.5183296897321
 20
288.2350032652619
 30
0.0
 10
346.5997946037447
 20
288.2390494109297
 30
0.0
 10
346.7216783979602
 20
288.2578117593449
 30
0.0
 10
346.8432776661326
 20
288.2862207518428
 30
0.0
 10
346.9636342674975
 20
288.3253985920397
 30
0.0
 10
347.0817715443396
 20
288.3752110863538
 30
0.0
 10
347.1966638694536
 20
288.4357526280203
 30
0.0
 10
347.3072529663252
 20
288.5069266847473
 30
0.0
 10
347.4124626972878
 20
288.588565384293
 30
0.0
 10
347.5445544075391
 20
288.7113617908828
 30
0.0
 10
347.6949686245879
 20
288.8950856919758
 30
0.0
 10
347.8102881496105
 20
289.1086808470118
 30
0.0
 10
347.882182319624
 20
289.3101217245356
 30
0.0
 10
347.9276215073849
 20
289.4967357927837
 30
0.0
 10
347.9355120857477
 20
289.6382030554173
 30
0.0
 10
347.93984737767
 20
289.7159289017074
 30
0.0
  0
SPLINE
  5
12F
330
1F
100
AcDbEntity
  8
0
  6
Continuous
 62
     8
370
    18
100
AcDbSpline
210
0.0
220
0.0
230
1.0
 70
    24
 71
     3
 72
     9
 73
     5
 74
     0
 42
0.00000001
 43
0.00000001
 40
0.0
 40
0.0
 40
0.0
 40
0.0
 40
0.9999208183683701
 40
1.0
 40
1.0
 40
1.0
 40
1.0
 10
346.4778727242876
 20
436.4270202068734
 30
0.0
 10
346.7280815742046
 20
436.5968553380113
 30
0.0
 10
346.9783102376355
 20
436.766703918037
 30
0.0
 10
346.8531956419378
 20
436.6817794488824
 30
0.0
 10
346.85318573516
 20
436.6817727244244
 30
0.0
  0
LINE
  5
130
330
1F
100
AcDbEntity
  8
0
  6
Continuous
 62
     8
370
    18
100
AcDbLine
 10
346.8531858288
 20
287.9782412943
 30
0.0
 11
346.4778727243
 21
288.2329938754
 31
0.0
  0
SPLINE
  5
131
330
1F
100
AcDbEntity
  8
0
  6
Continuous
 62
     8
370
    18
100
AcDbSpline
210
0.0
220
0.0
230
1.0
 70
     8
 71
     3
 72
    26
 73
    22
 74
     0
 42
0.00000001
 43
0.00000001
 40
0.0
 40
0.0
 40
0.0
 40
0.0
 40
0.0665449018087114
 40
0.1301397258004539
 40
0.190967755098558
 40
0.2555381483314573
 40
0.3167502693789599
 40
0.3746548278016582
 40
0.4292349768923573
 40
0.4804533852234671
 40
0.5524832015995893
 40
0.6124342910951621
 40
0.6614567037837664
 40
0.70700505269152
 40
0.7479584224035573
 40
0.8181063668312744
 40
0.8776354031048589
 40
0.9129084789697952
 40
0.9450780863863817
 40
0.9741247558642319
 40
1.0
 40
1.0
 40
1.0
 40
1.0
 10
410.8990072802877
 20
231.7032346056487
 30
0.0
 10
410.8986471903734
 20
231.7042715782343
 30
0.0
 10
410.8979429741009
 20
231.7062995521931
 30
0.0
 10
410.8929046424732
 20
231.7236787605137
 30
0.0
 10
410.8840833292758
 20
231.753584542061
 30
0.0
 10
410.8689877392908
 20
231.8005549913349
 30
0.0
 10
410.8450779854463
 20
231.8667561260317
 30
0.0
 10
410.8148864465004
 20
231.9518887390406
 30
0.0
 10
410.780227646388
 20
232.0488466398277
 30
0.0
 10
410.7402312430856
 20
232.2345864396786
 30
0.0
 10
410.7066468820865
 20
232.6531736094816
 30
0.0
 10
410.6977288988622
 20
233.4619308195764
 30
0.0
 10
410.7012718841123
 20
234.4804341161494
 30
0.0
 10
410.7074625779104
 20
235.5716735988244
 30
0.0
 10
410.721499190839
 20
236.9843031292956
 30
0.0
 10
410.7286646192599
 20
238.6824913484519
 30
0.0
 10
410.7473636998944
 20
240.3885640431107
 30
0.0
 10
410.759797082683
 20
241.7158576497847
 30
0.0
 10
410.7762500495761
 20
242.727427835194
 30
0.0
 10
410.7905388790887
 20
243.6414184124644
 30
0.0
 10
410.7932943273781
 20
244.2178832434014
 30
0.0
 10
410.7945924958596
 20
244.4894718908967
 30
0.0
  0
SPLINE
  5
132
330
1F
100
AcDbEntity
  8
0
  6
Continuous
 62
     8
370
    18
100
AcDbSpline
210
0.0
220
0.0
230
1.0
 70
     8
 71
     3
 72
    30
 73
    26
 74
     0
 42
0.00000001
 43
0.00000001
 40
0.0
 40
0.0
 40
0.0
 40
0.0
 40
0.0313109823712317
 40
0.0620496668015792
 40
0.0726767192119588
 40
0.0866136027670687
 40
0.1038675513182854
 40
0.1244546759528469
 40
0.1716984787393391
 40
0.2136039795852413
 40
0.2503219221306917
 40
0.2984958029379765
 40
0.3410136766690186
 40
0.3776810521914249
 40
0.4182498330948264
 40
0.460530392752091
 40
0.504087169067057
 40
0.5435191090468234
 40
0.5983723229033795
 40
0.6681425018240303
 40
0.7524045551416323
 40
0.813457227921798
 40
0.8748439574646069
 40
0.9369029829267619
 40
1.0
 40
1.0
 40
1.0
 40
1.0
 10
412.4128427089989
 20
244.5035838857584
 30
0.0
 10
412.4112535103499
 20
244.1865164014405
 30
0.0
 10
412.408104160212
 20
243.5581767498039
 30
0.0
 10
412.3994301965001
 20
242.8220573415095
 30
0.0
 10
412.3931584468536
 20
242.2620609614581
 30
0.0
 10
412.389739963945
 20
241.839132255966
 30
0.0
 10
412.3858105786566
 20
241.3163339745101
 30
0.0
 10
412.3795093430462
 20
240.4596174257735
 30
0.0
 10
412.3716730017335
 20
239.3621445464153
 30
0.0
 10
412.3641351568293
 20
238.1337721494273
 30
0.0
 10
412.3580124873629
 20
236.9472962552121
 30
0.0
 10
412.3545320344566
 20
235.8404316482558
 30
0.0
 10
412.3535083737299
 20
234.8800717674672
 30
0.0
 10
412.3550197170244
 20
234.1250144561116
 30
0.0
 10
412.3657033138256
 20
233.5682865471821
 30
0.0
 10
412.3835005104875
 20
233.1658174762001
 30
0.0
 10
412.4068309200827
 20
232.9108582601434
 30
0.0
 10
412.4424367645353
 20
232.7587286831988
 30
0.0
 10
412.4825543354183
 20
232.632925840884
 30
0.0
 10
412.5250407344588
 20
232.5175917000934
 30
0.0
 10
412.5563042182159
 20
232.4290793369795
 30
0.0
 10
412.5763164343588
 20
232.3647280597904
 30
0.0
 10
412.5886271022914
 20
232.3257115802115
 30
0.0
 10
412.5963248426777
 20
232.3016641028944
 30
0.0
 10
412.597454576887
 20
232.2990021669531
 30
0.0
 10
412.5980241287619
 20
232.2976601604936
 30
0.0
  0
SPLINE
  5
133
330
1F
100
AcDbEntity
  8
0
  6
Continuous
 62
     8
370
    18
100
AcDbSpline
210
0.0
220
0.0
230
1.0
 70
     8
 71
     3
 72
    10
 73
     6
 74
     0
 42
0.00000001
 43
0.00000001
 40
0.0
 40
0.0
 40
0.0
 40
0.0
 40
0.5
 40
0.5
 40
1.0
 40
1.0
 40
1.0
 40
1.0
 10
381.6887617659128
 20
332.0555197238626
 30
0.0
 10
381.4165737331805
 20
330.5495998728351
 30
0.0
 10
381.2148997798716
 20
329.0311731021115
 30
0.0
 10
380.9530516536673
 20
326.0473558766688
 30
0.0
 10
380.8914867460151
 20
324.5804658674143
 30
0.0
 10
380.8914922626153
 20
323.1420747126885
 30
0.0
  0
LWPOLYLINE
  5
134
330
1F
100
AcDbEntity
  8
0
  6
Continuous
 62
     8
370
    18
100
AcDbPolyline
 90
        9
 70
   128
 43
0.0
 10
380.8914922626
 20
323.1420747127
 10
380.8719920511
 20
323.1427618869
 10
380.8532430181
 20
323.1447883973
 10
380.83596511
 20
323.1480764277
 10
380.8208217833
 20
323.1524997205
 10
380.8083945283
 20
323.1578884253
 10
380.7991605408
 20
323.1640356205
 10
380.7934743976
 20
323.1707052592
 10
380.7915544416
 20
323.1776412332
  0
ARC
  5
135
330
1F
100
AcDbEntity
  8
0
  6
Continuous
 62
     8
370
    18
100
AcDbCircle
 10
381.7328235329
 20
332.4414033068
 30
0.0
 40
0.388391012883696
100
AcDbArc
 50
248.4979042369
 51
263.4859457065
  0
SPLINE
  5
136
330
1F
100
AcDbEntity
  8
0
  6
Continuous
 62
     8
370
    18
100
AcDbSpline
210
0.0
220
0.0
230
1.0
 70
     8
 71
     3
 72
    10
 73
     6
 74
     0
 42
0.00000001
 43
0.00000001
 40
0.0
 40
0.0
 40
0.0
 40
0.0
 40
0.5
 40
0.5
 40
1.0
 40
1.0
 40
1.0
 40
1.0
 10
384.8969636924434
 20
345.9729269049767
 30
0.0
 10
384.2514672519148
 20
343.6789649723996
 30
0.0
 10
383.6611762774703
 20
341.3712008877025
 30
0.0
 10
382.5911785059704
 20
336.7289313310804
 30
0.0
 10
382.1117710901334
 20
334.3958802904846
 30
0.0
 10
381.6887617659128
 20
332.0555197238626
 30
0.0
  0
SPLINE
  5
137
330
1F
100
AcDbEntity
  8
0
  6
Continuous
 62
     8
370
    18
100
AcDbSpline
210
0.0
220
0.0
230
1.0
 70
     8
 71
     3
 72
    10
 73
     6
 74
     0
 42
0.00000001
 43
0.00000001
 40
0.0
 40
0.0
 40
0.0
 40
0.0
 40
0.5
 40
0.5
 40
1.0
 40
1.0
 40
1.0
 40
1.0
 10
384.8969636924434
 20
345.9729269049767
 30
0.0
 10
384.8717028828339
 20
345.9799801967973
 30
0.0
 10
384.8466072757478
 20
345.9871330945411
 30
0.0
 10
384.8109551073099
 20
345.9975579821022
 30
0.0
 10
384.8006194757282
 20
346.0007647073492
 30
0.0
 10
384.8006978939428
 20
346.0010434064472
 30
0.0
  0
SPLINE
  5
138
330
1F
100
AcDbEntity
  8
0
  6
Continuous
 62
     8
370
    18
100
AcDbSpline
210
0.0
220
0.0
230
1.0
 70
     8
 71
     3
 72
    12
 73
     8
 74
     0
 42
0.00000001
 43
0.00000001
 40
0.0
 40
0.0
 40
0.0
 40
0.0
 40
0.4999999999999923
 40
0.4999999999999923
 40
0.7499999999999961
 40
0.7499999999999961
 40
1.0
 40
1.0
 40
1.0
 40
1.0
 10
385.7090189404313
 20
348.8359003056339
 30
0.0
 10
385.6542050083626
 20
348.6450884004055
 30
0.0
 10
385.5822830002625
 20
348.3933232132187
 30
0.0
 10
385.4644802841487
 20
347.9761378207498
 30
0.0
 10
385.4234470286699
 20
347.8301226143346
 30
0.0
 10
385.3385542896562
 20
347.5262905067004
 30
0.0
 10
385.2952313185025
 20
347.3703723033498
 30
0.0
 10
385.2528154374177
 20
347.2168466653222
 30
0.0
  0
ARC
  5
139
330
1F
100
AcDbEntity
  8
0
  6
Continuous
 62
     8
370
    18
100
AcDbCircle
 10
385.8097223156
 20
349.2225595355
 30
0.0
 40
2.081593043676041
100
AcDbArc
 50
251.7199132776
 51
254.4821339328
  0
ARC
  5
13A
330
1F
100
AcDbEntity
  8
0
  6
Continuous
 62
     8
370
    18
100
AcDbCircle
 10
385.6917417368
 20
348.7525558694
 30
0.0
 40
0.0850676236365838
100
AcDbArc
 50
78.2908819988
 51
157.2852820301
  0
SPLINE
  5
13B
330
1F
100
AcDbEntity
  8
0
  6
Continuous
 62
     8
370
    18
100
AcDbSpline
210
0.0
220
0.0
230
1.0
 70
     8
 71
     3
 72
     8
 73
     4
 74
     0
 42
0.00000001
 43
0.00000001
 40
0.0
 40
0.0
 40
0.0
 40
0.0
 40
0.0012942325988752
 40
0.0012942325988752
 40
0.0012942325988752
 40
0.0012942325988752
 10
385.2528134191589
 20
347.2168401115574
 30
0.0
 10
385.132369341127
 20
346.8026162052476
 30
0.0
 10
385.0137101329821
 20
346.3878712987467
 30
0.0
 10
384.8968584323325
 20
345.9726254889033
 30
0.0
  0
SPLINE
  5
13C
330
1F
100
AcDbEntity
  8
0
  6
Continuous
 62
     8
370
    18
100
AcDbSpline
210
0.0
220
0.0
230
1.0
 70
     8
 71
     3
 72
    26
 73
    22
 74
     0
 42
0.00000001
 43
0.00000001
 40
0.0
 40
0.0
 40
0.0
 40
0.0
 40
0.0391441919742901
 40
0.0732308129565428
 40
0.102273328539785
 40
0.1262943028075477
 40
0.16950466408487
 40
0.2115003967988089
 40
0.2525253847940799
 40
0.3167201024980928
 40
0.3795005359922223
 40
0.4416524690316938
 40
0.5039841765578768
 40
0.5886244310776757
 40
0.6702625335768129
 40
0.750985444500339
 40
0.7892628442480641
 40
0.8303746429577323
 40
0.8745475609971421
 40
0.9308374889163562
 40
1.0
 40
1.0
 40
1.0
 40
1.0
 10
411.0174713461898
 20
336.9069823093137
 30
0.0
 10
411.0175922208394
 20
337.1223766680724
 30
0.0
 10
411.0178183526972
 20
337.5253356564333
 30
0.0
 10
411.0067546879785
 20
338.0880211896994
 30
0.0
 10
410.9872848405385
 20
338.5672239258131
 30
0.0
 10
410.9478962549319
 20
339.0956226142295
 30
0.0
 10
410.8667605775738
 20
339.691734870322
 30
0.0
 10
410.7243346158434
 20
340.37224961144
 30
0.0
 10
410.494093207154
 20
341.1496846341682
 30
0.0
 10
410.150289077833
 20
342.0098886825503
 30
0.0
 10
409.6613028052459
 20
342.9308461512547
 30
0.0
 10
409.0759648438448
 20
343.7818474738754
 30
0.0
 10
408.3168380893145
 20
344.6495030822626
 30
0.0
 10
407.3734011228387
 20
345.4891306140648
 30
0.0
 10
406.2255873944883
 20
346.2272439005271
 30
0.0
 10
405.2074048381471
 20
346.668947188589
 30
0.0
 10
404.3598748590574
 20
346.9129866637483
 30
0.0
 10
403.6924397892677
 20
347.0465235808057
 30
0.0
 10
402.9193773293837
 20
347.1471943949446
 30
0.0
 10
401.987146253559
 20
347.2063668695982
 30
0.0
 10
401.2967630470536
 20
347.2144651894441
 30
0.0
 10
400.9161515854398
 20
347.2189298307102
 30
0.0
  0
SPLINE
  5
13D
330
1F
100
AcDbEntity
  8
0
  6
Continuous
 62
     8
370
    18
100
AcDbSpline
210
0.0
220
0.0
230
1.0
 70
     8
 71
     3
 72
    29
 73
    25
 74
     0
 42
0.00000001
 43
0.00000001
 40
0.0
 40
0.0
 40
0.0
 40
0.0
 40
0.0059620704291394
 40
0.0118102353772888
 40
0.0175600692626478
 40
0.0232234217182618
 40
0.0288096616575171
 40
0.045030178229169
 40
0.0559346821325068
 40
0.0614533437992566
 40
0.072145740452401
 40
0.083834511090014
 40
0.0965214632099508
 40
0.1102052133404329
 40
0.124881980922103
 40
0.1530499389259927
 40
0.1947668561293645
 40
0.2500329260765891
 40
0.3749979578860997
 40
0.4999775972229069
 40
0.6170347113343481
 40
0.7393882123413165
 40
0.867050267963072
 40
1.0
 40
1.0
 40
1.0
 40
1.0
 10
410.8148480259786
 20
286.721715062074
 30
0.0
 10
410.814686025351
 20
286.8214366212731
 30
0.0
 10
410.8143651191215
 20
287.0189745571848
 30
0.0
 10
410.8115768834924
 20
287.3121664996553
 30
0.0
 10
410.8090755289057
 20
287.599927723935
 30
0.0
 10
410.8077381141628
 20
287.8829762786276
 30
0.0
 10
410.810721448191
 20
288.3399316649914
 30
0.0
 10
410.81964149838
 20
288.8843447635091
 30
0.0
 10
410.8353756863286
 20
289.428722179851
 30
0.0
 10
410.8495897345766
 20
289.8811818952482
 30
0.0
 10
410.8570925913298
 20
290.3472546552187
 30
0.0
 10
410.8674176532421
 20
290.9332645272775
 30
0.0
 10
410.8764942472984
 20
291.5695421433157
 30
0.0
 10
410.8849950685388
 20
292.2559411908701
 30
0.0
 10
410.8942043451137
 20
293.2013779022375
 30
0.0
 10
410.9021348174604
 20
294.6158825347997
 30
0.0
 10
410.9125676253328
 20
296.709499363336
 30
0.0
 10
410.9276583858489
 20
300.422543327371
 30
0.0
 10
410.9481098164819
 20
305.5285790888928
 30
0.0
 10
410.9771937637582
 20
311.6682991638147
 30
0.0
 10
411.0035051319201
 20
317.7645615976978
 30
0.0
 10
411.0173838546276
 20
323.9059780673401
 30
0.0
 10
411.026208070272
 20
330.3135435507299
 30
0.0
 10
411.0234084244483
 20
334.6740602478069
 30
0.0
 10
411.0219801998642
 20
336.8985548941434
 30
0.0
  0
SPLINE
  5
13E
330
1F
100
AcDbEntity
  8
0
  6
Continuous
 62
     8
370
    18
100
AcDbSpline
210
0.0
220
0.0
230
1.0
 70
     8
 71
     3
 72
    10
 73
     6
 74
     0
 42
0.00000001
 43
0.00000001
 40
0.0
 40
0.0
 40
0.0
 40
0.0
 40
0.5
 40
0.5
 40
1.0
 40
1.0
 40
1.0
 40
1.0
 10
400.9084444123095
 20
347.2178376665577
 30
0.0
 10
398.2972915804648
 20
347.2167036783305
 30
0.0
 10
395.6873924194087
 20
347.2162146922942
 30
0.0
 10
390.4697068042572
 20
347.2163236143093
 30
0.0
 10
387.863176066552
 20
347.217567573896
 30
0.0
 10
385.2528134188162
 20
347.2168401115573
 30
0.0
  0
SPLINE
  5
13F
330
1F
100
AcDbEntity
  8
0
  6
Continuous
 62
     8
370
    18
100
AcDbSpline
210
0.0
220
0.0
230
1.0
 70
     8
 71
     3
 72
    20
 73
    16
 74
     0
 42
0.00000001
 43
0.00000001
 40
0.0
 40
0.0
 40
0.0
 40
0.0
 40
0.2500000000000028
 40
0.2500000000000028
 40
0.5000000000000056
 40
0.5000000000000056
 40
0.6250000000000041
 40
0.6250000000000041
 40
0.7500000000000028
 40
0.7500000000000028
 40
0.8125000000000021
 40
0.8125000000000021
 40
0.8750000000000014
 40
0.8750000000000014
 40
1.0
 40
1.0
 40
1.0
 40
1.0
 10
385.7090122508754
 20
348.8358532781017
 30
0.0
 10
386.9724136541089
 20
348.8353690327494
 30
0.0
 10
388.2370801108332
 20
348.8349930386147
 30
0.0
 10
390.7763004903103
 20
348.8351014507984
 30
0.0
 10
392.0547814759248
 20
348.8359314219647
 30
0.0
 10
393.9609267561981
 20
348.8361545281788
 30
0.0
 10
394.5939259839885
 20
348.8360184525911
 30
0.0
 10
395.8494382695316
 20
348.8348211677908
 30
0.0
 10
396.4686025395883
 20
348.8334530342027
 30
0.0
 10
397.4110794315103
 20
348.8327009374649
 30
0.0
 10
397.7277959216924
 20
348.8326918118706
 30
0.0
 10
398.3717211587688
 20
348.8336556533158
 30
0.0
 10
398.6997189965009
 20
348.8347124801718
 30
0.0
 10
399.6810015170594
 20
348.8373303419363
 30
0.0
 10
400.3304369579015
 20
348.83811492948
 30
0.0
 10
400.9225991363089
 20
348.8326101745259
 30
0.0
  0
SPLINE
  5
140
330
1F
100
AcDbEntity
  8
0
  6
Continuous
 62
     8
370
    18
100
AcDbSpline
210
0.0
220
0.0
230
1.0
 70
     8
 71
     3
 72
    30
 73
    26
 74
     0
 42
0.00000001
 43
0.00000001
 40
0.0
 40
0.0
 40
0.0
 40
0.0
 40
0.0275919290117156
 40
0.0567410204379689
 40
0.1176473710991021
 40
0.1639021923118891
 40
0.2454238878778177
 40
0.292097643141769
 40
0.341105935619341
 40
0.3925036785832597
 40
0.4463543630583075
 40
0.5028310409935074
 40
0.546789983526188
 40
0.5879987003072036
 40
0.6259015420200988
 40
0.6601157559136203
 40
0.6904062957287955
 40
0.7166784119151599
 40
0.738968946622744
 40
0.7574389479853336
 40
0.7945151741636243
 40
0.8373289821725849
 40
0.8858738073382315
 40
0.9401219360275758
 40
1.0
 40
1.0
 40
1.0
 40
1.0
 10
400.9229243018731
 20
348.8334780714355
 30
0.0
 10
401.0969883295448
 20
348.8329688520082
 30
0.0
 10
401.4549397633659
 20
348.8319216751354
 30
0.0
 10
402.1969862046559
 20
348.8182864633471
 30
0.0
 10
403.0561459828828
 20
348.7658157035765
 30
0.0
 10
404.2367571902039
 20
348.6099633813811
 30
0.0
 10
405.3102814257593
 20
348.3435350899157
 30
0.0
 10
406.3492951194611
 20
347.9272822752591
 30
0.0
 10
407.1761937881669
 20
347.5036209996881
 30
0.0
 10
407.9964059641399
 20
346.9781419644419
 30
0.0
 10
408.8016647436659
 20
346.3488675239722
 30
0.0
 10
409.4903207097743
 20
345.6598253027421
 30
0.0
 10
410.0810294632117
 20
344.9894868904851
 30
0.0
 10
410.5349094192844
 20
344.3593176200021
 30
0.0
 10
410.9123629652142
 20
343.752755840591
 30
0.0
 10
411.2194426839598
 20
343.184854808649
 30
0.0
 10
411.4600053089715
 20
342.6656267222629
 30
0.0
 10
411.6425599361935
 20
342.2034374897746
 30
0.0
 10
411.7839588292497
 20
341.8054529037765
 30
0.0
 10
411.9360523506067
 20
341.3391317962933
 30
0.0
 10
412.098135440089
 20
340.7401613442197
 30
0.0
 10
412.2510804238975
 20
339.9442920979429
 30
0.0
 10
412.3579001833383
 20
339.0315609194522
 30
0.0
 10
412.4012903972678
 20
338.0058788607275
 30
0.0
 10
412.3940767507977
 20
337.2860817119101
 30
0.0
 10
412.390292000122
 20
336.9084290563817
 30
0.0
  0
SPLINE
  5
141
330
1F
100
AcDbEntity
  8
0
  6
Continuous
 62
     8
370
    18
100
AcDbSpline
210
0.0
220
0.0
230
1.0
 70
     8
 71
     3
 72
    32
 73
    28
 74
     0
 42
0.00000001
 43
0.00000001
 40
0.0
 40
0.0
 40
0.0
 40
0.0
 40
0.0498523964761498
 40
0.0979546309430495
 40
0.1441687371123059
 40
0.1884414663644094
 40
0.2307798481706024
 40
0.2711854212270401
 40
0.3096602419397986
 40
0.3462071781803176
 40
0.3808268579762586
 40
0.4135187934904011
 40
0.4442825427704661
 40
0.4731177855768614
 40
0.5000243224992714
 40
0.6250263773527522
 40
0.7500292631305913
 40
0.8125512954294201
 40
0.8750731673841626
 40
0.9157171967605885
 40
0.9378792209998056
 40
0.9562508699347992
 40
0.9695300257164302
 40
0.9773100910971435
 40
0.9849080694171204
 40
0.9924543386081811
 40
1.0
 40
1.0
 40
1.0
 40
1.0
 10
412.3937103877533
 20
336.9171009606152
 30
0.0
 10
412.3897999261447
 20
336.0832006730565
 30
0.0
 10
412.3821162870267
 20
334.4446757337349
 30
0.0
 10
412.3946002563314
 20
332.0331135678521
 30
0.0
 10
412.4025466076661
 20
329.7149000422191
 30
0.0
 10
412.4046417861329
 20
327.4930861309346
 30
0.0
 10
412.4047028878508
 20
325.3684372568133
 30
0.0
 10
412.40313144994
 20
323.3407754036847
 30
0.0
 10
412.4010091396437
 20
321.4099932267301
 30
0.0
 10
412.3995400339074
 20
319.5759953590466
 30
0.0
 10
412.3987287178716
 20
317.8387310911041
 30
0.0
 10
412.3983184195558
 20
316.198205273808
 30
0.0
 10
412.3981524011464
 20
314.6544383775429
 30
0.0
 10
412.398103662144
 20
313.2074462144096
 30
0.0
 10
412.3980801034776
 20
310.1841151773229
 30
0.0
 10
412.3978466322422
 20
305.5521929546866
 30
0.0
 10
412.3971263973049
 20
300.3245687262271
 30
0.0
 10
412.3964790556932
 20
296.1420831353266
 30
0.0
 10
412.3960028299113
 20
293.3706647014478
 30
0.0
 10
412.3958411713649
 20
291.2743695292944
 30
0.0
 10
412.395940097798
 20
289.916575028022
 30
0.0
 10
412.3974696023014
 20
289.0166680353519
 30
0.0
 10
412.4009608316753
 20
288.3577520993242
 30
0.0
 10
412.4057127853336
 20
287.8797275003952
 30
0.0
 10
412.410373084793
 20
287.4978165413708
 30
0.0
 10
412.4144046767696
 20
287.1193837846249
 30
0.0
 10
412.414874450349
 20
286.8669771905467
 30
0.0
 10
412.4151093276791
 20
286.740778976109
 30
0.0
  0
LINE
  5
142
330
1F
100
AcDbEntity
  8
0
  6
Continuous
 62
     8
370
    18
100
AcDbLine
 10
373.1931456738
 20
356.730007045
 30
0.0
 11
373.1931456738
 21
307.730007045
 31
0.0
  0
SPLINE
  5
143
330
1F
100
AcDbEntity
  8
0
  6
Continuous
 62
     8
370
    18
100
AcDbSpline
210
0.0
220
0.0
230
1.0
 70
     8
 71
     3
 72
     8
 73
     4
 74
     0
 42
0.00000001
 43
0.00000001
 40
0.0
 40
0.0
 40
0.0
 40
0.0
 40
0.0156494897640154
 40
0.0156494897640154
 40
0.0156494897640154
 40
0.0156494897640154
 10
401.1915544416181
 20
357.2084291038262
 30
0.0
 10
401.1915621980101
 20
357.2084754170371
 30
0.0
 10
401.1914124274432
 20
357.2077616021884
 30
0.0
 10
401.1911129363349
 20
357.2062883876597
 30
0.0
  0
LINE
  5
144
330
1F
100
AcDbEntity
  8
0
  6
Continuous
 62
     8
370
    25
100
AcDbLine
 10
414.3915544416
 20
336.9084291038
 30
0.0
 11
414.3915544416
 21
342.2872725139
 31
0.0
  0
SPLINE
  5
145
330
1F
100
AcDbEntity
  8
0
  6
Continuous
 62
     8
370
    18
100
AcDbSpline
210
0.0
220
0.0
230
1.0
 70
     8
 71
     3
 72
    25
 73
    21
 74
     0
 42
0.00000001
 43
0.00000001
 40
0.0
 40
0.0
 40
0.0
 40
0.0
 40
0.015625
 40
0.015625
 40
0.03125
 40
0.0625
 40
0.0625
 40
0.1249999999999999
 40
0.1249999999999999
 40
0.2499999999999997
 40
0.2499999999999997
 40
0.3749999999999996
 40
0.3749999999999996
 40
0.4374999999999994
 40
0.4374999999999994
 40
0.4999999999999992
 40
0.4999999999999992
 40
0.7499999999999997
 40
0.7499999999999997
 40
1.0
 40
1.0
 40
1.0
 40
1.0
 10
388.5043798887523
 20
357.2078319013142
 30
0.0
 10
388.5043786562692
 20
357.2078289868205
 30
0.0
 10
388.5041097465084
 20
357.2070961779719
 30
0.0
 10
388.503039346386
 20
357.2041787038234
 30
0.0
 10
388.5006349319034
 20
357.1976244706897
 30
0.0
 10
388.4958470463893
 20
357.1845694213116
 30
0.0
 10
388.4831272474755
 20
357.1498693768916
 30
0.0
 10
388.4704555596524
 20
357.1152864082663
 30
0.0
 10
388.4201284066118
 20
356.9776757253614
 30
0.0
 10
388.3701639060978
 20
356.8408420055901
 30
0.0
 10
388.2387349011433
 20
356.4782113530997
 30
0.0
 10
388.1572700209748
 20
356.2524152844456
 30
0.0
 10
388.012371610664
 20
355.8465662612531
 30
0.0
 10
387.9602879314343
 20
355.7000766702806
 30
0.0
 10
387.8486982331453
 20
355.3844359380153
 30
0.0
 10
387.7890453160061
 20
355.2148638264246
 30
0.0
 10
387.4744767697068
 20
354.3148582646052
 30
0.0
 10
387.1725457069409
 20
353.434039433854
 30
0.0
 10
386.4926396984838
 20
351.3668811101547
 30
0.0
 10
386.114557591848
 20
350.1804672240049
 30
0.0
 10
385.709005626221
 20
348.8358532806408
 30
0.0
  0
SPLINE
  5
146
330
1F
100
AcDbEntity
  8
0
  6
Continuous
 62
     8
370
    18
100
AcDbSpline
210
0.0
220
0.0
230
1.0
 70
     8
 71
     3
 72
    15
 73
    11
 74
     0
 42
0.00000001
 43
0.00000001
 40
0.0
 40
0.0
 40
0.0
 40
0.0
 40
0.0619871899620013
 40
0.1372724095793198
 40
0.2255516449604542
 40
0.3265386537088983
 40
0.4492496873116376
 40
0.5714328542639238
 40
0.7864888531423785
 40
0.9999999999999999
 40
0.9999999999999999
 40
0.9999999999999999
 40
0.9999999999999999
 10
410.7943709592383
 20
244.4894718908967
 30
0.0
 10
410.7969655402206
 20
245.3620139352393
 30
0.0
 10
410.8027113142026
 20
247.2942833115347
 30
0.0
 10
410.806543263962
 20
250.4693215064955
 30
0.0
 10
410.8093288523314
 20
254.1934149947086
 30
0.0
 10
410.8081920033546
 20
258.5852118254811
 30
0.0
 10
410.8059694031202
 20
263.4543298915439
 30
0.0
 10
410.8069285475644
 20
269.9292663257031
 30
0.0
 10
410.8099055106673
 20
277.682519188012
 30
0.0
 10
410.8123035367012
 20
283.7158604755963
 30
0.0
 10
410.8134982276471
 20
286.7216569546592
 30
0.0
  0
SPLINE
  5
147
330
1F
100
AcDbEntity
  8
0
  6
Continuous
 62
     8
370
    18
100
AcDbSpline
210
0.0
220
0.0
230
1.0
 70
     8
 71
     3
 72
    15
 73
    11
 74
     0
 42
0.00000001
 43
0.00000001
 40
0.0
 40
0.0
 40
0.0
 40
0.0
 40
0.154302245670386
 40
0.3002553997914289
 40
0.437859025494814
 40
0.567113084778383
 40
0.6880326011345456
 40
0.8006732305392646
 40
0.9046790703229826
 40
1.0
 40
1.0
 40
1.0
 40
1.0
 10
412.4147866672054
 20
286.7380072248602
 30
0.0
 10
412.4148684192637
 20
284.5656353968756
 30
0.0
 10
412.4150274998839
 20
280.3384359230554
 30
0.0
 10
412.4154422809065
 20
274.1740485736676
 30
0.0
 10
412.4161560816837
 20
268.3623625128242
 30
0.0
 10
412.4170933011703
 20
262.9031704007501
 30
0.0
 10
412.4187553205519
 20
257.7954667472064
 30
0.0
 10
412.4193759041463
 20
253.0432716500899
 30
0.0
 10
412.4236550805043
 20
248.6515469956458
 30
0.0
 10
412.4163100357479
 20
245.8454849770998
 30
0.0
 10
412.4127975296425
 20
244.5035857376608
 30
0.0
  0
SPLINE
  5
148
330
1F
100
AcDbEntity
  8
0
  6
Continuous
 62
     8
370
    25
100
AcDbSpline
210
0.0
220
0.0
230
1.0
 70
     8
 71
     3
 72
    10
 73
     6
 74
     0
 42
0.00000001
 43
0.00000001
 40
0.0
 40
0.0
 40
0.0
 40
0.0
 40
0.0634610510608153
 40
0.55632221726821
 40
1.0
 40
1.0
 40
1.0
 40
1.0
 10
414.3890320833415
 20
256.3962718644396
 30
0.0
 10
414.3899321650082
 20
258.0994003617852
 30
0.0
 10
414.3978226020584
 20
273.029632466325
 30
0.0
 10
414.3892232921925
 20
299.8670205167961
 30
0.0
 10
414.3911026349701
 20
325.0012773833421
 30
0.0
 10
414.3919929584718
 20
336.908429103825
 30
0.0
  0
LINE
  5
149
330
1F
100
AcDbEntity
  8
0
  6
Continuous
 62
     8
370
    18
100
AcDbLine
 10
357.414936172
 20
411.0043531825
 30
0.0
 11
357.414936172
 21
389.4556609104
 31
0.0
  0
LINE
  5
14A
330
1F
100
AcDbEntity
  8
0
  6
Continuous
 62
     8
370
    18
100
AcDbLine
 10
386.1689227035
 20
306.2084120372
 30
0.0
 11
393.4403049296
 21
306.2311351067
 31
0.0
  0
SPLINE
  5
14B
330
1F
100
AcDbEntity
  8
0
  6
Continuous
 62
     8
370
    18
100
AcDbSpline
210
0.0
220
0.0
230
1.0
 70
     8
 71
     3
 72
     8
 73
     4
 74
     0
 42
0.00000001
 43
0.00000001
 40
0.0
 40
0.0
 40
0.0
 40
0.0
 40
1.0
 40
1.0
 40
1.0
 40
1.0
 10
401.1915526623435
 20
357.2108264319164
 30
0.0
 10
401.1914055090533
 20
357.2107987541572
 30
0.0
 10
401.1912583998221
 20
357.209998864497
 30
0.0
 10
401.1911113419703
 20
357.2084287698447
 30
0.0
  0
ARC
  5
14C
330
1F
100
AcDbEntity
  8
0
  6
Continuous
 62
     7
370
    25
100
AcDbCircle
 10
177.7641501976
 20
7163.1108859467
 30
0.0
 40
7000.000000000001
100
AcDbArc
 50
269.4035580146
 51
269.906671033
  0
ARC
  5
14D
330
1F
100
AcDbEntity
  8
0
  6
Continuous
 62
     7
370
    25
100
AcDbCircle
 10
177.7641501976
 20
7163.1108859467
 30
0.0
 40
7000.000000000001
100
AcDbArc
 50
270.0933289671
 51
270.5964434517
  0
ARC
  5
14E
330
1F
100
AcDbEntity
  8
0
  6
Continuous
 62
     7
370
    25
100
AcDbCircle
 10
250.6164500668
 20
164.9900815876
 30
0.0
 40
1.500000000000014
100
AcDbArc
 50
270.6099342097
 51
358.4898882191
  0
ARC
  5
14F
330
1F
100
AcDbEntity
  8
0
  6
Continuous
 62
     7
370
    25
100
AcDbCircle
 10
104.9118503285
 20
164.9900815876
 30
0.0
 40
1.500000000000018
100
AcDbArc
 50
181.5235157126
 51
269.4065979697
  0
LINE
  5
150
330
1F
100
AcDbEntity
  8
0
  6
Continuous
 62
     7
370
    25
100
AcDbLine
 10
103.2641501976
 20
170.6108859467
 30
0.0
 11
103.4123635907
 21
164.9508448198
 31
0.0
  0
LINE
  5
151
330
1F
100
AcDbEntity
  8
0
  6
Continuous
 62
     7
370
    25
100
AcDbLine
 10
252.1159368046
 20
164.9508448198
 30
0.0
 11
252.2641501976
 21
170.6108859467
 31
0.0
  0
LINE
  5
152
330
1F
100
AcDbEntity
  8
0
  6
Continuous
 62
     7
370
    25
100
AcDbLine
 10
166.3600912103
 20
163.2221312093
 30
0.0
 11
166.5057015774
 21
154.8801188673
 31
0.0
  0
LINE
  5
153
330
1F
100
AcDbEntity
  8
0
  6
Continuous
 62
     7
370
    25
100
AcDbLine
 10
189.0225988248
 20
154.8801188673
 30
0.0
 11
189.1682099178
 21
163.2221727995
 31
0.0
  0
ARC
  5
154
330
1F
100
AcDbEntity
  8
0
  6
Continuous
 62
     7
370
    25
100
AcDbCircle
 10
167.005625425
 20
154.8888450705
 30
0.0
 40
0.4999999999999774
100
AcDbArc
 50
181.0
 51
268.1867030123
  0
ARC
  5
155
330
1F
100
AcDbEntity
  8
0
  6
Continuous
 62
     7
370
    25
100
AcDbCircle
 10
188.5226749772
 20
154.8888450705
 30
0.0
 40
0.5000000000000058
100
AcDbArc
 50
271.8132969877
 51
359.0
  0
ARC
  5
156
330
1F
100
AcDbEntity
  8
0
  6
Continuous
 62
     7
370
    25
100
AcDbCircle
 10
177.7641502011
 20
494.7185879486
 30
0.0
 40
340.5
100
AcDbArc
 50
268.1867030123
 51
270.0
  0
ARC
  5
157
330
1F
100
AcDbEntity
  8
0
  6
Continuous
 62
     7
370
    25
100
AcDbCircle
 10
177.7641502011
 20
494.7185879486
 30
0.0
 40
340.5
100
AcDbArc
 50
270.0
 51
271.8132969877
  0
SPLINE
  5
158
330
1F
100
AcDbEntity
  8
0
  6
Continuous
 62
     7
370
    25
100
AcDbSpline
210
0.0
220
0.0
230
1.0
 70
     8
 71
     3
 72
    12
 73
     8
 74
     0
 42
0.00000001
 43
0.00000001
 40
0.0
 40
0.0
 40
0.0
 40
0.0
 40
0.230161810556067
 40
0.4848389077565489
 40
0.6598778681846418
 40
0.8332972723933009
 40
0.9999999999999999
 40
0.9999999999999999
 40
0.9999999999999999
 40
0.9999999999999999
 10
153.9958870680828
 20
99.41883015524678
 30
0.0
 10
155.8605385804946
 20
99.10786937695937
 30
0.0
 10
159.7884517318562
 20
98.4528263716244
 30
0.0
 10
164.9736338861979
 20
97.94606272530243
 30
0.0
 10
169.704503307668
 20
97.64633766674451
 30
0.0
 10
173.9624505545351
 20
97.45172293481069
 30
0.0
 10
176.8047882323737
 20
97.42538572994619
 30
0.0
 10
178.1978920599489
 20
97.4124771789353
 30
0.0
  0
SPLINE
  5
159
330
1F
100
AcDbEntity
  8
0
  6
Continuous
 62
     7
370
    25
100
AcDbSpline
210
0.0
220
0.0
230
1.0
 70
     8
 71
     3
 72
    12
 73
     8
 74
     0
 42
0.00000001
 43
0.00000001
 40
0.0
 40
0.0
 40
0.0
 40
0.0
 40
0.1660738950763752
 40
0.3402270396981539
 40
0.5161438014996614
 40
0.7716034985047846
 40
0.9999999999999999
 40
0.9999999999999999
 40
0.9999999999999999
 40
0.9999999999999999
 10
178.1978920599489
 20
97.4124771789353
 30
0.0
 10
179.5873164192041
 20
97.4256910949905
 30
0.0
 10
182.4337585792829
 20
97.45276176458734
 30
0.0
 10
186.6610145630773
 20
97.64192324874787
 30
0.0
 10
191.5096454904732
 20
97.96021623334767
 30
0.0
 10
196.7460494533029
 20
98.47569422610547
 30
0.0
 10
200.5873450856815
 20
99.11648789860072
 30
0.0
 10
202.400566630354
 20
99.41896419926977
 30
0.0
  0
LINE
  5
15A
330
1F
100
AcDbEntity
  8
0
  6
Continuous
 62
     7
370
    25
100
AcDbLine
 10
202.2641502053
 20
138.6108859467
 30
0.0
 11
202.2641502053
 21
163.153761078
 31
0.0
  0
LINE
  5
15B
330
1F
100
AcDbEntity
  8
0
  6
Continuous
 62
     7
370
    25
100
AcDbLine
 10
153.2641502053
 20
163.153761078
 30
0.0
 11
153.2641502053
 21
138.6108859467
 31
0.0
  0
ARC
  5
15C
330
1F
100
AcDbEntity
  8
0
  6
Continuous
 62
     7
370
    25
100
AcDbCircle
 10
177.7641502053
 20
138.6108859467
 30
0.0
 40
24.5
100
AcDbArc
 50
180.0
 51
200.128539101
  0
ARC
  5
15D
330
1F
100
AcDbEntity
  8
0
  6
Continuous
 62
     7
370
    25
100
AcDbCircle
 10
177.7641502053
 20
138.6108859467
 30
0.0
 40
24.5
100
AcDbArc
 50
339.8738025812
 51
0.0
  0
SPLINE
  5
15E
330
1F
100
AcDbEntity
  8
0
  6
Continuous
 62
     7
370
    25
100
AcDbSpline
210
0.0
220
0.0
230
1.0
 70
     8
 71
     3
 72
    18
 73
    14
 74
     0
 42
0.00000001
 43
0.00000001
 40
0.0
 40
0.0
 40
0.0
 40
0.0
 40
0.0351377570400244
 40
0.0718818092124529
 40
0.1085193595253652
 40
0.14819053979716
 40
0.2466851943557446
 40
0.367786085038888
 40
0.4937292396470716
 40
0.6140477405116306
 40
0.7309432742443108
 40
0.9622048264218116
 40
1.0
 40
1.0
 40
1.0
 40
1.0
 10
152.7991047692717
 20
117.6446615164699
 30
0.0
 10
152.8035880576439
 20
117.5707166521901
 30
0.0
 10
152.812759584416
 20
117.4194465918858
 30
0.0
 10
152.8244895222537
 20
117.0156742594917
 30
0.0
 10
152.8321248681452
 20
116.4583197856998
 30
0.0
 10
152.8352726009134
 20
115.4397915325293
 30
0.0
 10
152.8257484839507
 20
113.8137458150057
 30
0.0
 10
152.8147912840254
 20
111.7532076124755
 30
0.0
 10
152.8081082695778
 20
109.6502957792803
 30
0.0
 10
152.8012853508531
 20
107.7185326380098
 30
0.0
 10
152.7895023551933
 20
105.4573496584137
 30
0.0
 10
152.7623393700594
 20
103.8181872465563
 30
0.0
 10
152.7581805762419
 20
102.8319968864482
 30
0.0
 10
152.7575963784904
 20
102.6934638847671
 30
0.0
  0
SPLINE
  5
15F
330
1F
100
AcDbEntity
  8
0
  6
Continuous
 62
     7
370
    25
100
AcDbSpline
210
0.0
220
0.0
230
1.0
 70
     8
 71
     3
 72
    20
 73
    16
 74
     0
 42
0.00000001
 43
0.00000001
 40
0.0
 40
0.0
 40
0.0
 40
0.0
 40
0.0723900967982099
 40
0.2039978198002127
 40
0.3107123317848636
 40
0.4216044309460137
 40
0.5263471991069754
 40
0.6152606197277245
 40
0.65195176299217
 40
0.6842464718938365
 40
0.7143305680833704
 40
0.744394939731811
 40
0.810563003709583
 40
0.8901825862933908
 40
1.0
 40
1.0
 40
1.0
 40
1.0
 10
203.6392924947387
 20
102.6554193326386
 30
0.0
 10
203.6359809763384
 20
102.9589625129773
 30
0.0
 10
203.6266490018866
 20
103.81435779138
 30
0.0
 10
203.6097260309861
 20
105.3481505418827
 30
0.0
 10
203.5989787743134
 20
107.2575492791973
 30
0.0
 10
203.5926694915844
 20
109.1642317146332
 30
0.0
 10
203.5867924091236
 20
111.0740784970914
 30
0.0
 10
203.580716469216
 20
112.6180599199529
 30
0.0
 10
203.578987048006
 20
113.7102148008437
 30
0.0
 10
203.5806090298512
 20
114.3823271842732
 30
0.0
 10
203.5855083895431
 20
114.9507188827121
 30
0.0
 10
203.5967046435117
 20
115.588902070264
 30
0.0
 10
203.618355355894
 20
116.137309557965
 30
0.0
 10
203.648500760526
 20
116.4934409587182
 30
0.0
 10
203.6621452256373
 20
116.5071618171766
 30
0.0
 10
203.6700549787441
 20
116.515115855824
 30
0.0
  0
SPLINE
  5
160
330
1F
100
AcDbEntity
  8
0
  6
Continuous
 62
     7
370
    25
100
AcDbSpline
210
0.0
220
0.0
230
1.0
 70
     8
 71
     3
 72
    15
 73
    11
 74
     0
 42
0.00000001
 43
0.00000001
 40
0.0
 40
0.0
 40
0.0
 40
0.0
 40
0.1631489660275876
 40
0.313833945763296
 40
0.4544650272186332
 40
0.5843370405973473
 40
0.7052521409919406
 40
0.8154634937471353
 40
0.9143387549582269
 40
1.0
 40
1.0
 40
1.0
 40
1.0
 10
152.7108621959671
 20
110.8881526763121
 30
0.0
 10
152.7118755592856
 20
110.0463391599268
 30
0.0
 10
152.7138248686588
 20
108.4270236112189
 30
0.0
 10
152.7334086215884
 20
106.1148996173244
 30
0.0
 10
152.7738102056842
 20
104.1739893976233
 30
0.0
 10
152.8505605113673
 20
102.5825885775168
 30
0.0
 10
152.9833487694275
 20
101.3257304003619
 30
0.0
 10
153.2093006759929
 20
100.4037276979947
 30
0.0
 10
153.5213339018135
 20
99.7585258784109
 30
0.0
 10
153.8233540584995
 20
99.56350923970963
 30
0.0
 10
153.9635508313483
 20
99.4729831513263
 30
0.0
  0
SPLINE
  5
161
330
1F
100
AcDbEntity
  8
0
  6
Continuous
 62
     7
370
    25
100
AcDbSpline
210
0.0
220
0.0
230
1.0
 70
     8
 71
     3
 72
    19
 73
    15
 74
     0
 42
0.00000001
 43
0.00000001
 40
0.0
 40
0.0
 40
0.0
 40
0.0
 40
0.0133378057400594
 40
0.0269928296900927
 40
0.0413432063928384
 40
0.0567592122612497
 40
0.0919943594355298
 40
0.1683204500824949
 40
0.2675453731442523
 40
0.3760695601141753
 40
0.5160693906357873
 40
0.6663422384143934
 40
0.8268660660417129
 40
1.0
 40
1.0
 40
1.0
 40
1.0
 10
202.4319619158296
 20
99.47215901532486
 30
0.0
 10
202.498686960875
 20
99.4894625832164
 30
0.0
 10
202.6337239986062
 20
99.52448125646963
 30
0.0
 10
202.8152217306405
 20
99.61454480770648
 30
0.0
 10
202.9744894815129
 20
99.72449537488359
 30
0.0
 10
203.1614249604893
 20
99.9013680972592
 30
0.0
 10
203.3831682298877
 20
100.2410354605401
 30
0.0
 10
203.4963018516945
 20
100.7109153997308
 30
0.0
 10
203.5448862214594
 20
101.3112752095034
 30
0.0
 10
203.5998874721991
 20
102.3319918650791
 30
0.0
 10
203.6389774402948
 20
103.8045626174967
 30
0.0
 10
203.6675011998786
 20
105.7963820675299
 30
0.0
 10
203.6826166472704
 20
108.24850516443
 30
0.0
 10
203.6841331596492
 20
109.9811907505423
 30
0.0
 10
203.6849200730204
 20
110.8802757003748
 30
0.0
  0
LINE
  5
162
330
1F
100
AcDbEntity
  8
0
  6
Continuous
 62
     7
370
    25
100
AcDbLine
 10
250.5104967924
 20
170.6108859467
 30
0.0
 11
105.0178036028
 21
170.6108859467
 31
0.0
  0
SPLINE
  5
163
330
1F
100
AcDbEntity
  8
0
  6
Continuous
 62
     7
370
    25
100
AcDbSpline
210
0.0
220
0.0
230
1.0
 70
     8
 71
     3
 72
    12
 73
     8
 74
     0
 42
0.00000001
 43
0.00000001
 40
0.0
 40
0.0
 40
0.0
 40
0.0
 40
0.2142015688295937
 40
0.4284031516052101
 40
0.6426046281577945
 40
0.8568061125825932
 40
1.0
 40
1.0
 40
1.0
 40
1.0
 10
169.7162487118484
 20
163.2665316169625
 30
0.0
 10
169.2847396471588
 20
163.2639593333373
 30
0.0
 10
168.4217214896852
 20
163.2588147659193
 30
0.0
 10
167.4463260282746
 20
163.2497566747679
 30
0.0
 10
166.7655393727167
 20
163.240007327476
 30
0.0
 10
166.3945332080503
 20
163.2308903296083
 30
0.0
 10
166.3961335332775
 20
163.2250939124813
 30
0.0
 10
166.3967747189461
 20
163.2227715223025
 30
0.0
  0
SPLINE
  5
164
330
1F
100
AcDbEntity
  8
0
  6
Continuous
 62
     7
370
    25
100
AcDbSpline
210
0.0
220
0.0
230
1.0
 70
     8
 71
     3
 72
    21
 73
    17
 74
     0
 42
0.00000001
 43
0.00000001
 40
0.0
 40
0.0
 40
0.0
 40
0.0
 40
0.0508011220689719
 40
0.1224548239076226
 40
0.1941085230560332
 40
0.2657620059525586
 40
0.337415484162185
 40
0.4090681665675059
 40
0.4807208443434829
 40
0.5523724955452456
 40
0.6240241442041913
 40
0.6956749854450059
 40
0.7673258273438122
 40
0.8389764348374078
 40
0.9106270459012029
 40
0.9999999999999999
 40
0.9999999999999999
 40
0.9999999999999999
 40
0.9999999999999999
 10
189.1339607070443
 20
163.2227706217461
 30
0.0
 10
189.1320142009301
 20
163.2252340387722
 30
0.0
 10
189.1273221970187
 20
163.2311720434039
 30
0.0
 10
188.7406123957476
 20
163.2404095907538
 30
0.0
 10
188.0503589726583
 20
163.2501528143424
 30
0.0
 10
187.0505192814594
 20
163.2591021771046
 30
0.0
 10
185.7955918618551
 20
163.2670419820551
 30
0.0
 10
184.3071469310337
 20
163.2736994122441
 30
0.0
 10
182.637014383451
 20
163.2789412371908
 30
0.0
 10
180.8256745560001
 20
163.2825558886584
 30
0.0
 10
178.9291587019636
 20
163.2845091873544
 30
0.0
 10
176.9992223691484
 20
163.2846723317955
 30
0.0
 10
175.0893344593075
 20
163.2831217303586
 30
0.0
 10
173.2615278729178
 20
163.2797973518068
 30
0.0
 10
171.3999998770824
 20
163.2745869834351
 30
0.0
 10
170.3172227830861
 20
163.2694067843175
 30
0.0
 10
169.7162487118484
 20
163.2665316169625
 30
0.0
  0
LINE
  5
165
330
1F
100
AcDbEntity
  8
0
  6
Continuous
 62
     7
370
    18
100
AcDbLine
 10
251.9995451497
 20
170.6108859467
 30
0.0
 11
251.8611633634
 21
165.3261588963
 31
0.0
  0
LINE
  5
166
330
1F
100
AcDbEntity
  8
0
  6
Continuous
 62
     7
370
    25
100
AcDbLine
 10
250.5104967924
 20
170.6108859467
 30
0.0
 11
251.9995451497
 21
170.6108859467
 31
0.0
  0
LINE
  5
167
330
1F
100
AcDbEntity
  8
0
  6
Continuous
 62
     7
370
    18
100
AcDbLine
 10
103.5287552456
 20
170.6108859467
 30
0.0
 11
103.6671370319
 21
165.3261588963
 31
0.0
  0
LINE
  5
168
330
1F
100
AcDbEntity
  8
0
  6
Continuous
 62
     7
370
    25
100
AcDbLine
 10
105.0178036028
 20
170.6108859467
 30
0.0
 11
103.5287552456
 21
170.6108859467
 31
0.0
  0
LINE
  5
169
330
1F
100
AcDbEntity
  8
0
  6
Continuous
 62
     7
370
    25
100
AcDbLine
 10
103.5287552456
 20
170.6108859467
 30
0.0
 11
103.2641501976
 21
170.6108859467
 31
0.0
  0
LINE
  5
16A
330
1F
100
AcDbEntity
  8
0
  6
Continuous
 62
     7
370
    25
100
AcDbLine
 10
251.9995451497
 20
170.6108859467
 30
0.0
 11
252.2641501976
 21
170.6108859467
 31
0.0
  0
SPLINE
  5
16B
330
1F
100
AcDbEntity
  8
0
  6
Continuous
 62
     7
370
    18
100
AcDbSpline
210
0.0
220
0.0
230
1.0
 70
     8
 71
     3
 72
    10
 73
     6
 74
     0
 42
0.00000001
 43
0.00000001
 40
0.0
 40
0.0
 40
0.0
 40
0.0
 40
0.5
 40
0.5
 40
1.0
 40
1.0
 40
1.0
 40
1.0
 10
203.5692077891302
 20
127.0032500526548
 30
0.0
 10
203.5382316457598
 20
127.6489223148856
 30
0.0
 10
203.5022018652857
 20
128.2397605143449
 30
0.0
 10
203.3753850752914
 20
129.3104382826427
 30
0.0
 10
203.2851433213609
 20
129.7899595706718
 30
0.0
 10
203.1271638722633
 20
130.2135670882508
 30
0.0
  0
SPLINE
  5
16C
330
1F
100
AcDbEntity
  8
0
  6
Continuous
 62
     7
370
    18
100
AcDbSpline
210
0.0
220
0.0
230
1.0
 70
     8
 71
     3
 72
    10
 73
     6
 74
     0
 42
0.00000001
 43
0.00000001
 40
0.0
 40
0.0
 40
0.0
 40
0.0
 40
0.5
 40
0.5
 40
1.0
 40
1.0
 40
1.0
 40
1.0
 10
153.2686202476346
 20
130.2135670882508
 30
0.0
 10
153.1106565128936
 20
129.7900017072892
 30
0.0
 10
153.0203595502272
 20
129.3102002431417
 30
0.0
 10
152.8935610419688
 20
128.2394859761902
 30
0.0
 10
152.8575555897311
 20
127.6489709629019
 30
0.0
 10
152.8265803450783
 20
127.0033337266106
 30
0.0
  0
SPLINE
  5
16D
330
1F
100
AcDbEntity
  8
0
  6
Continuous
 62
     7
370
    25
100
AcDbSpline
210
0.0
220
0.0
230
1.0
 70
     8
 71
     3
 72
    56
 73
    52
 74
     0
 42
0.00000001
 43
0.00000001
 40
0.0
 40
0.0
 40
0.0
 40
0.0
 40
0.0624999999999996
 40
0.0624999999999996
 40
0.0937499999999993
 40
0.0937499999999993
 40
0.1249999999999991
 40
0.1249999999999991
 40
0.1874999999999986
 40
0.1874999999999986
 40
0.2187499999999984
 40
0.2187499999999984
 40
0.2499999999999983
 40
0.2499999999999983
 40
0.3124999999999983
 40
0.3124999999999983
 40
0.3437499999999983
 40
0.3437499999999983
 40
0.3749999999999983
 40
0.3749999999999983
 40
0.4062499999999983
 40
0.4062499999999983
 40
0.4374999999999984
 40
0.4374999999999984
 40
0.4999999999999984
 40
0.4999999999999984
 40
0.5312499999999984
 40
0.5312499999999984
 40
0.5624999999999984
 40
0.5624999999999984
 40
0.6249999999999986
 40
0.6249999999999986
 40
0.6562499999999986
 40
0.6562499999999986
 40
0.6718749999999986
 40
0.6718749999999986
 40
0.6874999999999986
 40
0.6874999999999986
 40
0.749999999999999
 40
0.749999999999999
 40
0.7812499999999991
 40
0.7812499999999991
 40
0.8124999999999992
 40
0.8124999999999992
 40
0.8749999999999993
 40
0.8749999999999993
 40
0.9062499999999994
 40
0.9062499999999994
 40
0.9374999999999996
 40
0.9374999999999996
 40
1.0
 40
1.0
 40
1.0
 40
1.0
 10
200.7796351379081
 20
130.2135670882508
 30
0.0
 10
200.6948510228847
 20
129.9557424816692
 30
0.0
 10
200.4687284804538
 20
129.683226092308
 30
0.0
 10
199.9273426418715
 20
129.2559897025317
 30
0.0
 10
199.7129318527229
 20
129.1105056024346
 30
0.0
 10
199.2149387817025
 20
128.8140893948706
 30
0.0
 10
198.9300958267717
 20
128.6627055557579
 30
0.0
 10
197.9897425271683
 20
128.2116361120891
 30
0.0
 10
197.244885992761
 20
127.9119416242364
 30
0.0
 10
195.9543883880661
 20
127.4711820241003
 30
0.0
 10
195.4934673747239
 20
127.3252538371248
 30
0.0
 10
194.5192920792403
 20
127.0400525894596
 30
0.0
 10
194.0102486704446
 20
126.9019389729562
 30
0.0
 10
192.4196123430877
 20
126.5026068519466
 30
0.0
 10
191.2750564686002
 20
126.2562718336751
 30
0.0
 10
189.4310030571381
 20
125.9246949462254
 30
0.0
 10
188.7944774906033
 20
125.8205806851005
 30
0.0
 10
187.5046475890849
 20
125.6304090617665
 30
0.0
 10
186.8482029961369
 20
125.54374923207
 30
0.0
 10
185.5127280993319
 20
125.3879075781874
 30
0.0
 10
184.8336970199477
 20
125.3187248890532
 30
0.0
 10
183.4529247361511
 20
125.1987285313918
 30
0.0
 10
182.7498497772492
 20
125.1478373740568
 30
0.0
 10
180.6139264347343
 20
125.0249949729117
 30
0.0
 10
179.1871594951479
 20
124.9844575429399
 30
0.0
 10
177.0429500636075
 20
124.9846422867759
 30
0.0
 10
176.3275325326513
 20
124.9949058329187
 30
0.0
 10
174.895309465684
 20
125.0361019086237
 30
0.0
 10
174.1749555189875
 20
125.067291025358
 30
0.0
 10
172.0492356103327
 20
125.1902478665948
 30
0.0
 10
170.6731360800024
 20
125.3109653361565
 30
0.0
 10
168.6695668332541
 20
125.5450836203049
 30
0.0
 10
168.0118718449884
 20
125.631999524593
 30
0.0
 10
167.0410563527616
 20
125.7753580755836
 30
0.0
 10
166.7192744489921
 20
125.8254485991553
 30
0.0
 10
166.0868501952285
 20
125.9289633404027
 30
0.0
 10
165.7758434914471
 20
125.9824268595384
 30
0.0
 10
164.2464425162028
 20
126.257775177621
 30
0.0
 10
163.104272519865
 20
126.50360222683
 30
0.0
 10
161.5137185775586
 20
126.9030837491169
 30
0.0
 10
161.0036999981397
 20
127.0415187152103
 30
0.0
 10
160.0283406302696
 20
127.3272435865442
 30
0.0
 10
159.5702986603018
 20
127.4723688365275
 30
0.0
 10
158.2825979017109
 20
127.9123155513562
 30
0.0
 10
157.5385813472978
 20
128.2116436144718
 30
0.0
 10
156.5986474763789
 20
128.6624837367532
 30
0.0
 10
156.3137418947475
 20
128.813877509896
 30
0.0
 10
155.8155906510187
 20
129.110358967878
 30
0.0
 10
155.6011213165512
 20
129.2558711826117
 30
0.0
 10
155.0596046638966
 20
129.6831791822181
 30
0.0
 10
154.8334547038052
 20
129.9557263158091
 30
0.0
 10
154.7486652727333
 20
130.2135670882508
 30
0.0
  0
SPLINE
  5
16E
330
1F
100
AcDbEntity
  8
0
  6
Continuous
 62
     7
370
    25
100
AcDbSpline
210
0.0
220
0.0
230
1.0
 70
     8
 71
     3
 72
     9
 73
     5
 74
     0
 42
0.00000001
 43
0.00000001
 40
0.0
 40
0.0
 40
0.0
 40
0.0
 40
0.0709583619467875
 40
1.0
 40
1.0
 40
1.0
 40
1.0
 10
153.9624303853544
 20
99.48367778897266
 30
0.0
 10
153.963731902141
 20
99.47722284291
 30
0.0
 10
153.9820738811688
 20
99.38625476126956
 30
0.0
 10
153.9905256009112
 20
99.41118410821032
 30
0.0
 10
153.9983776004652
 20
99.43434450952776
 30
0.0
  0
SPLINE
  5
16F
330
1F
100
AcDbEntity
  8
0
  6
Continuous
 62
     7
370
    25
100
AcDbSpline
210
0.0
220
0.0
230
1.0
 70
     8
 71
     3
 72
     9
 73
     5
 74
     0
 42
0.00000001
 43
0.00000001
 40
0.0
 40
0.0
 40
0.0
 40
0.0
 40
0.940073215133565
 40
1.0
 40
1.0
 40
1.0
 40
1.0
 10
202.3979905963246
 20
99.43490054780845
 30
0.0
 10
202.4056665175409
 20
99.41177293418096
 30
0.0
 10
202.4138317551976
 20
99.38717100610222
 30
0.0
 10
202.4315933018334
 20
99.47502189606433
 30
0.0
 10
202.4326576942176
 20
99.48028651744734
 30
0.0
  0
SPLINE
  5
170
330
1F
100
AcDbEntity
  8
0
  6
Continuous
 62
     7
370
    25
100
AcDbSpline
210
0.0
220
0.0
230
1.0
 70
     8
 71
     3
 72
    12
 73
     8
 74
     0
 42
0.00000001
 43
0.00000001
 40
0.0
 40
0.0
 40
0.0
 40
0.0
 40
0.1262878459554274
 40
0.3441360877787104
 40
0.5612925508657666
 40
0.7788076853411747
 40
1.0
 40
1.0
 40
1.0
 40
1.0
 10
152.7548484104603
 20
102.6934425508056
 30
0.0
 10
152.7498420471439
 20
102.925177433305
 30
0.0
 10
152.7361996394152
 20
103.5566581214257
 30
0.0
 10
152.719569504434
 20
104.9584217263063
 30
0.0
 10
152.7060047902374
 20
106.7934289893808
 30
0.0
 10
152.6995976742191
 20
108.8287408206703
 30
0.0
 10
152.6987758293171
 20
110.1976755615872
 30
0.0
 10
152.6983614625755
 20
110.8878800351101
 30
0.0
  0
SPLINE
  5
171
330
1F
100
AcDbEntity
  8
0
  6
Continuous
 62
     7
370
    25
100
AcDbSpline
210
0.0
220
0.0
230
1.0
 70
     8
 71
     3
 72
     8
 73
     4
 74
     0
 42
0.00000001
 43
0.00000001
 40
0.0
 40
0.0
 40
0.0
 40
0.0
 40
0.0012942325988752
 40
0.0012942325988752
 40
0.0012942325988752
 40
0.0012942325988752
 10
152.7103204297735
 20
126.5512182013944
 30
0.0
 10
152.7155276423787
 20
126.6716622794264
 30
0.0
 10
152.7209188104345
 20
126.7903214875713
 30
0.0
 10
152.7265697410976
 20
126.9071731882209
 30
0.0
  0
SPLINE
  5
172
330
1F
100
AcDbEntity
  8
0
  6
Continuous
 62
     7
370
    25
100
AcDbSpline
210
0.0
220
0.0
230
1.0
 70
     8
 71
     3
 72
    10
 73
     6
 74
     0
 42
0.00000001
 43
0.00000001
 40
0.0
 40
0.0
 40
0.0
 40
0.0
 40
0.5
 40
0.5
 40
1.0
 40
1.0
 40
1.0
 40
1.0
 10
152.6983612637688
 20
110.8955872082439
 30
0.0
 10
152.6975641755167
 20
113.5067400400886
 30
0.0
 10
152.6986268693415
 20
116.1166392011447
 30
0.0
 10
152.7038860731773
 20
121.3343248162963
 30
0.0
 10
152.7099453790761
 20
123.9408555540014
 30
0.0
 10
152.7103204297736
 20
126.5512182017373
 30
0.0
  0
SPLINE
  5
173
330
1F
100
AcDbEntity
  8
0
  6
Continuous
 62
     7
370
    25
100
AcDbSpline
210
0.0
220
0.0
230
1.0
 70
     8
 71
     3
 72
    12
 73
     8
 74
     0
 42
0.00000001
 43
0.00000001
 40
0.0
 40
0.0
 40
0.0
 40
0.0
 40
0.2197385977246566
 40
0.4358241807042244
 40
0.6515534521203499
 40
0.8679699549672362
 40
1.0
 40
1.0
 40
1.0
 40
1.0
 10
203.6974226570899
 20
110.8878793079607
 30
0.0
 10
203.6970084629735
 20
110.1976634260702
 30
0.0
 10
203.6961869604552
 20
108.8287060633274
 30
0.0
 10
203.689777304794
 20
106.7935622285085
 30
0.0
 10
203.6762221950635
 20
104.9579197284343
 30
0.0
 10
203.6593647348483
 20
103.5417057061209
 30
0.0
 10
203.6454468614286
 20
102.8989589483491
 30
0.0
 10
203.6401732334775
 20
102.655415472629
 30
0.0
  0
SPLINE
  5
174
330
1F
100
AcDbEntity
  8
0
  6
Continuous
 62
     7
370
    25
100
AcDbSpline
210
0.0
220
0.0
230
1.0
 70
     8
 71
     3
 72
    10
 73
     6
 74
     0
 42
0.00000001
 43
0.00000001
 40
0.0
 40
0.0
 40
0.0
 40
0.0
 40
0.5
 40
0.5
 40
1.0
 40
1.0
 40
1.0
 40
1.0
 10
203.6854636904131
 20
126.5512161813197
 30
0.0
 10
203.685838740087
 20
123.9408536272841
 30
0.0
 10
203.6918980493899
 20
121.3343229862626
 30
0.0
 10
203.6971572513286
 20
116.1166375586109
 30
0.0
 10
203.698219945338
 20
113.5067384920686
 30
0.0
 10
203.6974228556551
 20
110.8955857536492
 30
0.0
  0
SPLINE
  5
175
330
1F
100
AcDbEntity
  8
0
  6
Continuous
 62
     7
370
    25
100
AcDbSpline
210
0.0
220
0.0
230
1.0
 70
     8
 71
     3
 72
     8
 73
     4
 74
     0
 42
0.00000001
 43
0.00000001
 40
0.0
 40
0.0
 40
0.0
 40
0.0
 40
0.0012942325987722
 40
0.0012942325987722
 40
0.0012942325987722
 40
0.0012942325987722
 10
203.6692143788
 20
126.9071731882209
 30
0.0
 10
203.6748653094626
 20
126.7903214875806
 30
0.0
 10
203.6802564775181
 20
126.6716622794454
 30
0.0
 10
203.6854636901228
 20
126.5512182014233
 30
0.0
  0
ARC
  5
176
330
1F
100
AcDbEntity
  8
0
  6
Continuous
 62
     7
370
    25
100
AcDbCircle
 10
203.5878094803
 20
126.5495889931
 30
0.0
 40
0.097667799249111
100
AcDbArc
 50
0.9558021511
 51
91.3716861013
  0
SPLINE
  5
177
330
1F
100
AcDbEntity
  8
0
  6
Continuous
 62
     7
370
    25
100
AcDbSpline
210
0.0
220
0.0
230
1.0
 70
     8
 71
     3
 72
    10
 73
     6
 74
     0
 42
0.00000001
 43
0.00000001
 40
0.0
 40
0.0
 40
0.0
 40
0.0
 40
0.5
 40
0.5
 40
1.0
 40
1.0
 40
1.0
 40
1.0
 10
203.5692077891302
 20
127.0032500526547
 30
0.0
 10
203.5954326602402
 20
127.0033424155029
 30
0.0
 10
203.6214948937796
 20
126.9930207339991
 30
0.0
 10
203.6585299655383
 20
126.9573964613463
 30
0.0
 10
203.6692731250654
 20
126.932314799602
 30
0.0
 10
203.6691989361535
 20
126.90706792811
 30
0.0
  0
ARC
  5
178
330
1F
100
AcDbEntity
  8
0
  6
Continuous
 62
     7
370
    25
100
AcDbCircle
 10
203.1292140841
 20
130.1158629875
 30
0.0
 40
0.0977256090540914
100
AcDbArc
 50
359.6522485707
 51
91.2021117418
  0
SPLINE
  5
179
330
1F
100
AcDbEntity
  8
0
  6
Continuous
 62
     7
370
    25
100
AcDbSpline
210
0.0
220
0.0
230
1.0
 70
     8
 71
     3
 72
    10
 73
     6
 74
     0
 42
0.00000001
 43
0.00000001
 40
0.0
 40
0.0
 40
0.0
 40
0.0
 40
0.5
 40
0.5
 40
1.0
 40
1.0
 40
1.0
 40
1.0
 10
203.226937893134
 20
130.1152698546406
 30
0.0
 10
203.3849805354617
 20
129.6922276009884
 30
0.0
 10
203.4752793343291
 20
129.2131126750228
 30
0.0
 10
203.6021657139781
 20
128.1431799393283
 30
0.0
 10
203.6382113799653
 20
127.5525808388855
 30
0.0
 10
203.6691989361535
 20
126.90706792811
 30
0.0
  0
ARC
  5
17A
330
1F
100
AcDbEntity
  8
0
  6
Continuous
 62
     7
370
    25
100
AcDbCircle
 10
153.2665700358
 20
130.1158629875
 30
0.0
 40
0.0977256090540349
100
AcDbArc
 50
88.7978882582
 51
180.3477514294
  0
SPLINE
  5
17B
330
1F
100
AcDbEntity
  8
0
  6
Continuous
 62
     7
370
    25
100
AcDbSpline
210
0.0
220
0.0
230
1.0
 70
     8
 71
     3
 72
    10
 73
     6
 74
     0
 42
0.00000001
 43
0.00000001
 40
0.0
 40
0.0
 40
0.0
 40
0.0
 40
0.5
 40
0.5
 40
1.0
 40
1.0
 40
1.0
 40
1.0
 10
152.7265851837441
 20
126.90706792811
 30
0.0
 10
152.7575719492856
 20
127.5525643686387
 30
0.0
 10
152.7935928194497
 20
128.1428553430831
 30
0.0
 10
152.9204611022743
 20
129.212853114583
 30
0.0
 10
153.0108158864092
 20
129.6922605304201
 30
0.0
 10
153.1688462267639
 20
130.1152698546406
 30
0.0
  0
SPLINE
  5
17C
330
1F
100
AcDbEntity
  8
0
  6
Continuous
 62
     7
370
    25
100
AcDbSpline
210
0.0
220
0.0
230
1.0
 70
     8
 71
     3
 72
    10
 73
     6
 74
     0
 42
0.00000001
 43
0.00000001
 40
0.0
 40
0.0
 40
0.0
 40
0.0
 40
0.5
 40
0.5
 40
1.0
 40
1.0
 40
1.0
 40
1.0
 10
203.1271638722633
 20
130.2135670882508
 30
0.0
 10
203.025687675927
 20
130.4860298009732
 30
0.0
 10
202.8919425843934
 20
130.686768010286
 30
0.0
 10
202.3740211131132
 20
130.9498761190769
 30
0.0
 10
201.9785106771283
 20
131.0124771789353
 30
0.0
 10
201.429723612779
 20
131.0124771789353
 30
0.0
  0
LINE
  5
17D
330
1F
100
AcDbEntity
  8
0
  6
Continuous
 62
     7
370
    25
100
AcDbLine
 10
201.0560840923
 20
131.0124771789
 30
0.0
 11
201.4297236128
 21
131.0124771789
 31
0.0
  0
SPLINE
  5
17E
330
1F
100
AcDbEntity
  8
0
  6
Continuous
 62
     7
370
    25
100
AcDbSpline
210
0.0
220
0.0
230
1.0
 70
     8
 71
     3
 72
     9
 73
     5
 74
     0
 42
0.00000001
 43
0.00000001
 40
0.0
 40
0.0
 40
0.0
 40
0.0
 40
0.5799614015546498
 40
1.0
 40
1.0
 40
1.0
 40
1.0
 10
202.8153659594368
 20
130.5999247574972
 30
0.0
 10
202.9169460576402
 20
130.5450294914343
 30
0.0
 10
203.0920958140397
 20
130.4503761818937
 30
0.0
 10
203.1611083412331
 20
130.2672153460174
 30
0.0
 10
203.1900962664306
 20
130.1902807252258
 30
0.0
  0
SPLINE
  5
17F
330
1F
100
AcDbEntity
  8
0
  6
Continuous
 62
     7
370
    25
100
AcDbSpline
210
0.0
220
0.0
230
1.0
 70
     8
 71
     3
 72
    10
 73
     6
 74
     0
 42
0.00000001
 43
0.00000001
 40
0.0
 40
0.0
 40
0.0
 40
0.0
 40
0.2822955321516286
 40
0.7627127347108809
 40
0.9999999999999999
 40
0.9999999999999999
 40
0.9999999999999999
 40
0.9999999999999999
 10
154.5609166217426
 20
130.9649261725072
 30
0.0
 10
154.3382866627934
 20
130.9487977205687
 30
0.0
 10
153.7367797826648
 20
130.9052214882743
 30
0.0
 10
153.4503807561904
 20
130.6198732626974
 30
0.0
 10
153.3137823705266
 20
130.3145221831057
 30
0.0
 10
153.2686202476346
 20
130.2135670882508
 30
0.0
  0
SPLINE
  5
180
330
1F
100
AcDbEntity
  8
0
  6
Continuous
 62
     7
370
    25
100
AcDbSpline
210
0.0
220
0.0
230
1.0
 70
     8
 71
     3
 72
     9
 73
     5
 74
     0
 42
0.00000001
 43
0.00000001
 40
0.0
 40
0.0
 40
0.0
 40
0.0
 40
0.7080373818830041
 40
1.0
 40
1.0
 40
1.0
 40
1.0
 10
153.2059378641733
 20
130.1906934046715
 30
0.0
 10
153.2309936997238
 20
130.2713155304021
 30
0.0
 10
153.2663814295127
 20
130.3851825772468
 30
0.0
 10
153.3635732205559
 20
130.44715624505
 30
0.0
 10
153.3919495903284
 20
130.4652502393561
 30
0.0
  0
SPLINE
  5
181
330
1F
100
AcDbEntity
  8
0
  6
Continuous
 62
     8
370
    18
100
AcDbSpline
210
0.0
220
0.0
230
1.0
 70
     8
 71
     3
 72
     8
 73
     4
 74
     0
 42
0.00000001
 43
0.00000001
 40
0.0
 40
0.0
 40
0.0
 40
0.0
 40
1.0
 40
1.0
 40
1.0
 40
1.0
 10
250.3782283370365
 20
163.8641842428837
 30
0.0
 10
201.9688429107646
 20
163.3654696449599
 30
0.0
 10
153.5594574844927
 20
163.3654696449602
 30
0.0
 10
105.1500720582208
 20
163.8641842428841
 30
0.0
  0
SPLINE
  5
182
330
1F
100
AcDbEntity
  8
0
  6
Continuous
 62
     8
370
    18
100
AcDbSpline
210
0.0
220
0.0
230
1.0
 70
    24
 71
     3
 72
     9
 73
     5
 74
     0
 42
0.00000001
 43
0.00000001
 40
0.0
 40
0.0
 40
0.0
 40
0.0
 40
0.9999193367314797
 40
1.0
 40
1.0
 40
1.0
 40
1.0
 10
105.1500720582208
 20
163.8641842428838
 30
0.0
 10
104.9808612521955
 20
163.6148563738509
 30
0.0
 10
104.8116367959724
 20
163.3655083915949
 30
0.0
 10
104.896249425514
 20
163.4901829743597
 30
0.0
 10
104.8962562506453
 20
163.490193031019
 30
0.0
  0
LINE
  5
183
330
1F
100
AcDbEntity
  8
0
  6
Continuous
 62
     8
370
    18
100
AcDbLine
 10
250.6320435883
 20
163.4901938508
 30
0.0
 11
250.378228337
 21
163.8641842429
 31
0.0
  0
SPLINE
  5
184
330
1F
100
AcDbEntity
  8
0
  6
Continuous
 62
     8
370
    18
100
AcDbSpline
210
0.0
220
0.0
230
1.0
 70
     8
 71
     3
 72
    21
 73
    17
 74
     0
 42
0.00000001
 43
0.00000001
 40
0.0
 40
0.0
 40
0.0
 40
0.0
 40
0.0527015852613774
 40
0.1061218296413047
 40
0.1602636681736827
 40
0.2151299194781601
 40
0.2707232913178373
 40
0.3270463858587256
 40
0.384101704626015
 40
0.4418916531890572
 40
0.5004185455850236
 40
0.6190205634991358
 40
0.750027166911156
 40
0.815046298210609
 40
0.8983758845579717
 40
1.0
 40
1.0
 40
1.0
 40
1.0
 10
251.8611633633831
 20
165.3261588962655
 30
0.0
 10
251.8591541675189
 20
165.2857045990639
 30
0.0
 10
251.8551083776217
 20
165.2042443542801
 30
0.0
 10
251.8363478769409
 20
165.0823663866648
 30
0.0
 10
251.8079410909891
 20
164.9607707260253
 30
0.0
 10
251.7687654029057
 20
164.8404155390501
 30
0.0
 10
251.7189544864497
 20
164.7222775966224
 30
0.0
 10
251.658413466049
 20
164.6073827257346
 30
0.0
 10
251.5872384120427
 20
164.4967894877675
 30
0.0
 10
251.5055967940286
 20
164.3915743986573
 30
0.0
 10
251.3828081765075
 20
164.2594903929921
 30
0.0
 10
251.1990850821656
 20
164.109071972982
 30
0.0
 10
250.9854996656282
 20
163.9937533320908
 30
0.0
 10
250.7840539626295
 20
163.921855227954
 30
0.0
 10
250.5974407580737
 20
163.8764123113857
 30
0.0
 10
250.4559638316994
 20
163.8685204704997
 30
0.0
 10
250.3782283370371
 20
163.8641842428844
 30
0.0
  0
SPLINE
  5
185
330
1F
100
AcDbEntity
  8
0
  6
Continuous
 62
     8
370
    18
100
AcDbSpline
210
0.0
220
0.0
230
1.0
 70
     8
 71
     3
 72
    26
 73
    22
 74
     0
 42
0.00000001
 43
0.00000001
 40
0.0
 40
0.0
 40
0.0
 40
0.0
 40
0.03125
 40
0.03125
 40
0.0625
 40
0.0625
 40
0.125
 40
0.125
 40
0.25
 40
0.25
 40
0.375
 40
0.375
 40
0.5
 40
0.5
 40
0.625
 40
0.625
 40
0.75
 40
0.75
 40
0.875
 40
0.875
 40
1.0
 40
1.0
 40
1.0
 40
1.0
 10
103.6671370318748
 20
165.3261588962658
 30
0.0
 10
103.6677732398159
 20
165.3019095211753
 30
0.0
 10
103.6690025260162
 20
165.2777042474962
 30
0.0
 10
103.6726290574316
 20
165.2294331526986
 30
0.0
 10
103.6750263026466
 20
165.20536733158
 30
0.0
 10
103.6839426805582
 20
165.1334559216711
 30
0.0
 10
103.6921864555213
 20
165.0858963863276
 30
0.0
 10
103.723597979432
 20
164.9449769909342
 30
0.0
 10
103.7534459274013
 20
164.8533763415213
 30
0.0
 10
103.8297910471599
 20
164.6781462542593
 30
0.0
 10
103.8770155429071
 20
164.5930163952713
 30
0.0
 10
103.9859238610517
 20
164.434830513176
 30
0.0
 10
104.0472969532757
 20
164.3617780209915
 30
0.0
 10
104.183731639239
 20
164.2276235341351
 30
0.0
 10
104.2594580200351
 20
164.1662815143615
 30
0.0
 10
104.4186607444499
 20
164.0608274051409
 30
0.0
 10
104.5027172493173
 20
164.0159775662061
 30
0.0
 10
104.6798752352477
 20
163.9422704689804
 30
0.0
 10
104.7723724201031
 20
163.9138908909179
 30
0.0
 10
104.9588012687623
 20
163.8755941491221
 30
0.0
 10
105.0536125192323
 20
163.8652826750219
 30
0.0
 10
105.1500720582208
 20
163.8641842428839
 30
0.0
  0
SPLINE
  5
186
330
1F
100
AcDbEntity
  8
0
  6
Continuous
 62
     8
370
    18
100
AcDbSpline
210
0.0
220
0.0
230
1.0
 70
     8
 71
     3
 72
     9
 73
     5
 74
     0
 42
0.00000001
 43
0.00000001
 40
0.0
 40
0.0
 40
0.0
 40
0.0
 40
0.9999208183587901
 40
1.0
 40
1.0
 40
1.0
 40
1.0
 10
251.8611633633818
 20
165.3261588962658
 30
0.0
 10
252.030998494474
 20
165.0759500463135
 30
0.0
 10
252.2008470744555
 20
164.8257213828449
 30
0.0
 10
252.1159226053893
 20
164.9508359786177
 30
0.0
 10
252.1159158809304
 20
164.9508458853967
 30
0.0
  0
LINE
  5
187
330
1F
100
AcDbEntity
  8
0
  6
Continuous
 62
     8
370
    18
100
AcDbLine
 10
103.4123844508
 20
164.9508457918
 30
0.0
 11
103.6671370319
 21
165.3261588963
 31
0.0
  0
LINE
  5
188
330
1F
100
AcDbEntity
  8
0
  6
Continuous
 62
     8
370
    18
100
AcDbLine
 10
177.7641502011
 20
154.8801188673
 30
0.0
 11
189.0225988248
 21
154.8801188673
 31
0.0
  0
LINE
  5
189
330
1F
100
AcDbEntity
  8
0
  6
Continuous
 62
     8
370
    18
100
AcDbLine
 10
166.5057015774
 20
154.8801188673
 30
0.0
 11
177.7641502011
 21
154.8801188673
 31
0.0
  0
LINE
  5
18A
330
1F
100
AcDbEntity
  8
0
  6
Continuous
 62
     8
370
    18
100
AcDbLine
 10
188.5384963372
 20
154.3890954486
 30
0.0
 11
166.989804065
 21
154.3890954486
 31
0.0
  0
SPLINE
  5
18B
330
1F
100
AcDbEntity
  8
0
  6
Continuous
 62
     8
370
    18
100
AcDbSpline
210
0.0
220
0.0
230
1.0
 70
     8
 71
     3
 72
    18
 73
    14
 74
     0
 42
0.00000001
 43
0.00000001
 40
0.0
 40
0.0
 40
0.0
 40
0.0
 40
0.2500000000000005
 40
0.2500000000000005
 40
0.3750000000000007
 40
0.3750000000000007
 40
0.4375000000000008
 40
0.4375000000000008
 40
0.5000000000000009
 40
0.5000000000000009
 40
0.7500000000000004
 40
0.7500000000000004
 40
1.0
 40
1.0
 40
1.0
 40
1.0
 10
178.1978899576318
 20
123.3935285604725
 30
0.0
 10
180.4430003125123
 20
123.3935459270613
 30
0.0
 10
182.654447104885
 20
123.4620908577775
 30
0.0
 10
185.9236604803873
 20
123.6594158848325
 30
0.0
 10
187.005367866249
 20
123.7409558017754
 30
0.0
 10
188.6158673067045
 20
123.8859873637988
 30
0.0
 10
189.1506878827286
 20
123.938118861004
 30
0.0
 10
190.2162725579504
 20
124.0498108818731
 30
0.0
 10
190.7482616808999
 20
124.1095217587839
 30
0.0
 10
193.3816904438245
 20
124.4243145601847
 30
0.0
 10
195.3950011021057
 20
124.7264386378467
 30
0.0
 10
199.2475134301077
 20
125.4067315697696
 30
0.0
 10
201.0866568578764
 20
125.7850079402956
 30
0.0
 10
202.8377167818451
 20
126.190745501077
 30
0.0
  0
ARC
  5
18C
330
1F
100
AcDbEntity
  8
0
  6
Continuous
 62
     8
370
    18
100
AcDbCircle
 10
202.7800954199
 20
126.0869721941
 30
0.0
 40
0.1186976206015791
100
AcDbArc
 50
3.8841466187
 51
60.9581979607
  0
SPLINE
  5
18D
330
1F
100
AcDbEntity
  8
0
  6
Continuous
 62
     8
370
    25
100
AcDbSpline
210
0.0
220
0.0
230
1.0
 70
     8
 71
     3
 72
    18
 73
    14
 74
     0
 42
0.00000001
 43
0.00000001
 40
0.0
 40
0.0
 40
0.0
 40
0.0
 40
0.2499999999999994
 40
0.2499999999999994
 40
0.4999999999999988
 40
0.4999999999999988
 40
0.5624999999999988
 40
0.5624999999999988
 40
0.6249999999999987
 40
0.6249999999999987
 40
0.7499999999999989
 40
0.7499999999999989
 40
1.0
 40
1.0
 40
1.0
 40
1.0
 10
202.8985812239952
 20
126.0950259943328
 30
0.0
 10
201.1428340744004
 20
125.6894739525197
 30
0.0
 10
199.2988464219463
 20
125.3114004095429
 30
0.0
 10
195.4364084770838
 20
124.6315191547083
 30
0.0
 10
193.418015566107
 20
124.3296043978273
 30
0.0
 10
190.7781235723945
 20
124.0150516626506
 30
0.0
 10
190.2448435396475
 20
123.9553882232429
 30
0.0
 10
189.1766749163957
 20
123.8437852285627
 30
0.0
 10
188.6405611400555
 20
123.7916957995314
 30
0.0
 10
187.0261787527812
 20
123.646782491683
 30
0.0
 10
185.9418782810706
 20
123.5653108193055
 30
0.0
 10
182.6648746558142
 20
123.3681535180321
 30
0.0
 10
180.4482197522421
 20
123.2996711286191
 30
0.0
 10
178.1978920599487
 20
123.2996517318011
 30
0.0
  0
LWPOLYLINE
  5
18E
330
1F
100
AcDbEntity
  8
0
  6
Continuous
 62
     8
370
    18
100
AcDbPolyline
 90
        9
 70
   128
 43
0.0
 10
178.1978899576
 20
123.3935285605
 10
178.1978902975
 20
123.3872047218
 10
178.1978906295
 20
123.378853711
 10
178.1978909459
 20
123.3686689316
 10
178.1978912395
 20
123.3568862562
 10
178.1978915033
 20
123.3437785631
 10
178.1978917314
 20
123.3296494176
 10
178.1978919184
 20
123.3148260408
 10
178.1978920599
 20
123.2996517318
  0
SPLINE
  5
18F
330
1F
100
AcDbEntity
  8
0
  6
Continuous
 62
     8
370
    18
100
AcDbSpline
210
0.0
220
0.0
230
1.0
 70
     8
 71
     3
 72
    18
 73
    14
 74
     0
 42
0.00000001
 43
0.00000001
 40
0.0
 40
0.0
 40
0.0
 40
0.0
 40
0.2499999999999999
 40
0.2499999999999999
 40
0.4999999999999998
 40
0.4999999999999998
 40
0.5624999999999999
 40
0.5624999999999999
 40
0.6249999999999999
 40
0.6249999999999999
 40
0.7499999999999999
 40
0.7499999999999999
 40
1.0
 40
1.0
 40
1.0
 40
1.0
 10
153.5580064388838
 20
126.1907596120242
 30
0.0
 10
155.3090684501685
 20
125.7850204531563
 30
0.0
 10
157.1482509171452
 20
125.40673382537
 30
0.0
 10
161.0009357943752
 20
124.7264128958906
 30
0.0
 10
163.0143796098492
 20
124.4242709600029
 30
0.0
 10
165.6480534874889
 20
124.109460635173
 30
0.0
 10
166.1799777012266
 20
124.0497599318541
 30
0.0
 10
167.245481262856
 20
123.9380805956304
 30
0.0
 10
167.7802639984958
 20
123.8859545605604
 30
0.0
 10
169.3906582191593
 20
123.7409370889872
 30
0.0
 10
170.4723065148147
 20
123.6594035007002
 30
0.0
 10
173.7413774051358
 20
123.4620911122211
 30
0.0
 10
175.9527753069298
 20
123.3935460127785
 30
0.0
 10
178.1978899576318
 20
123.3935285605051
 30
0.0
  0
SPLINE
  5
190
330
1F
100
AcDbEntity
  8
0
  6
Continuous
 62
     8
370
    25
100
AcDbSpline
210
0.0
220
0.0
230
1.0
 70
     8
 71
     3
 72
    25
 73
    21
 74
     0
 42
0.00000001
 43
0.00000001
 40
0.0
 40
0.0
 40
0.0
 40
0.0
 40
0.015625
 40
0.015625
 40
0.03125
 40
0.0625
 40
0.0625
 40
0.1249999999999999
 40
0.1249999999999999
 40
0.2499999999999997
 40
0.2499999999999997
 40
0.3749999999999996
 40
0.3749999999999996
 40
0.4374999999999994
 40
0.4374999999999994
 40
0.4999999999999992
 40
0.4999999999999992
 40
0.7499999999999997
 40
0.7499999999999997
 40
1.0
 40
1.0
 40
1.0
 40
1.0
 10
178.1978920599487
 20
123.2996517318011
 30
0.0
 10
178.0592470900746
 20
123.2996529642843
 30
0.0
 10
177.9167347008585
 20
123.2999218740451
 30
0.0
 10
177.6359727058031
 20
123.3009922741674
 30
0.0
 10
177.2152252613758
 20
123.30339668865
 30
0.0
 10
176.7956583782703
 20
123.3081845741641
 30
0.0
 10
175.9580842523259
 20
123.3209043730779
 30
0.0
 10
175.4017804230123
 20
123.333576060901
 30
0.0
 10
173.7390123695599
 20
123.3839032139417
 30
0.0
 10
172.6386824529881
 20
123.4338677144557
 30
0.0
 10
170.4541141807166
 20
123.5652967194101
 30
0.0
 10
169.3698757079673
 20
123.6467615995786
 30
0.0
 10
167.7556028994017
 20
123.7916600098894
 30
0.0
 10
167.2195284156994
 20
123.8437436891191
 30
0.0
 10
166.1514438086434
 20
123.9553333874081
 30
0.0
 10
165.6182304165883
 20
124.0149863045473
 30
0.0
 10
162.9780990328225
 20
124.3295548508467
 30
0.0
 10
160.9595769643676
 20
124.6314859136125
 30
0.0
 10
157.0969734391601
 20
125.3113919220696
 30
0.0
 10
155.2529497156683
 20
125.6894740287055
 30
0.0
 10
153.4972028959043
 20
126.0950259943324
 30
0.0
  0
ARC
  5
191
330
1F
100
AcDbEntity
  8
0
  6
Continuous
 62
     8
370
    18
100
AcDbCircle
 10
153.6156284965
 20
126.086986022
 30
0.0
 40
0.1186982056471417
100
AcDbArc
 50
119.0420290466
 51
176.1161211077
  0
SPLINE
  5
192
330
1F
100
AcDbEntity
  8
0
  6
Continuous
 62
     8
370
    18
100
AcDbSpline
210
0.0
220
0.0
230
1.0
 70
     8
 71
     3
 72
     8
 73
     4
 74
     0
 42
0.00000001
 43
0.00000001
 40
0.0000000000000227
 40
0.0000000000000227
 40
0.0000000000000227
 40
0.0000000000000227
 40
0.0012946865845493
 40
0.0012946865845493
 40
0.0012946865845493
 40
0.0012946865845493
 10
203.5854715405361
 20
126.6472288049207
 30
0.0
 10
203.5802658944939
 20
126.7676925550603
 30
0.0
 10
203.5748764089757
 20
126.8863686327433
 30
0.0
 10
203.5692273485712
 20
127.0032501220079
 30
0.0
  0
SPLINE
  5
193
330
1F
100
AcDbEntity
  8
0
  6
Continuous
 62
     8
370
    18
100
AcDbSpline
210
0.0
220
0.0
230
1.0
 70
     8
 71
     3
 72
    12
 73
     8
 74
     0
 42
0.00000001
 43
0.00000001
 40
0.0
 40
0.0
 40
0.0
 40
0.0
 40
0.4999999999999953
 40
0.4999999999999953
 40
0.7499999999999977
 40
0.7499999999999977
 40
1.0
 40
1.0
 40
1.0
 40
1.0
 10
202.8377170078688
 20
126.19074541937
 30
0.0
 10
203.0782547625748
 20
126.2464805318241
 30
0.0
 10
203.2689871669708
 20
126.3180039466644
 30
0.0
 10
203.4601802575496
 20
126.4359461740289
 30
0.0
 10
203.509060889916
 20
126.4777631057113
 30
0.0
 10
203.5722047737512
 20
126.5617589037328
 30
0.0
 10
203.5873287152598
 20
126.6042479736447
 30
0.0
 10
203.5854714468861
 20
126.6472288046053
 30
0.0
  0
SPLINE
  5
194
330
1F
100
AcDbEntity
  8
0
  6
Continuous
 62
     8
370
    18
100
AcDbSpline
210
0.0
220
0.0
230
1.0
 70
     8
 71
     3
 72
    12
 73
     8
 74
     0
 42
0.00000001
 43
0.00000001
 40
0.0
 40
0.0
 40
0.0
 40
0.0
 40
0.5000000000000071
 40
0.5000000000000071
 40
0.7500000000000036
 40
0.7500000000000036
 40
1.0
 40
1.0
 40
1.0
 40
1.0
 10
152.810312590878
 20
126.6472269038752
 30
0.0
 10
152.8065977362956
 20
126.561257862866
 30
0.0
 10
152.8722600072937
 20
126.4749047667416
 30
0.0
 10
153.0636080164743
 20
126.3570422778263
 30
0.0
 10
153.1442813949568
 20
126.3190080076149
 30
0.0
 10
153.3312728058751
 20
126.2499817249523
 30
0.0
 10
153.4377143513312
 20
126.2186347007397
 30
0.0
 10
153.5580062138698
 20
126.1907595306893
 30
0.0
  0
SPLINE
  5
195
330
1F
100
AcDbEntity
  8
0
  6
Continuous
 62
     8
370
    18
100
AcDbSpline
210
0.0
220
0.0
230
1.0
 70
     8
 71
     3
 72
     8
 73
     4
 74
     0
 42
0.00000001
 43
0.00000001
 40
0.0
 40
0.0
 40
0.0
 40
0.0
 40
0.0012950023396037
 40
0.0012950023396037
 40
0.0012950023396037
 40
0.0012950023396037
 10
152.8265608154432
 20
127.003333795348
 30
0.0
 10
152.8209102598018
 20
126.8864246565249
 30
0.0
 10
152.8155194111107
 20
126.7677200524928
 30
0.0
 10
152.8103124972246
 20
126.6472269041906
 30
0.0
  0
LINE
  5
196
330
1F
100
AcDbEntity
  8
0
  6
Continuous
 62
     8
370
    18
100
AcDbLine
 10
154.7486652727
 20
130.2135670883
 30
0.0
 11
153.2686202476
 21
130.2135670883
 31
0.0
  0
LINE
  5
197
330
1F
100
AcDbEntity
  8
0
  6
Continuous
 62
     8
370
    18
100
AcDbLine
 10
203.1271638723
 20
130.2135670883
 30
0.0
 11
200.7796351379
 21
130.2135670883
 31
0.0
  0
SPLINE
  5
198
330
1F
100
AcDbEntity
  8
0
  6
Continuous
 62
     8
370
    18
100
AcDbSpline
210
0.0
220
0.0
230
1.0
 70
     8
 71
     3
 72
    20
 73
    16
 74
     0
 42
0.00000001
 43
0.00000001
 40
0.0
 40
0.0
 40
0.0
 40
0.0
 40
0.2500000000000028
 40
0.2500000000000028
 40
0.5000000000000056
 40
0.5000000000000056
 40
0.6250000000000041
 40
0.6250000000000041
 40
0.7500000000000028
 40
0.7500000000000028
 40
0.8125000000000021
 40
0.8125000000000021
 40
0.8750000000000014
 40
0.8750000000000014
 40
1.0
 40
1.0
 40
1.0
 40
1.0
 10
153.497202894039
 20
126.095019369678
 30
0.0
 10
153.4968471668016
 20
124.8316179664445
 30
0.0
 10
153.4964902751023
 20
123.5669515097202
 30
0.0
 10
153.4958450425508
 20
121.0277311302432
 30
0.0
 10
153.4955681873967
 20
119.7492501446286
 30
0.0
 10
153.4951764293075
 20
117.8431048643553
 30
0.0
 10
153.495048867138
 20
117.2101056365649
 30
0.0
 10
153.4947900494597
 20
115.9545933510219
 30
0.0
 10
153.4946630636694
 20
115.3354290809652
 30
0.0
 10
153.4944300868405
 20
114.3929521890431
 30
0.0
 10
153.4943445974752
 20
114.0762356988611
 30
0.0
 10
153.4941424859331
 20
113.4323104617846
 30
0.0
 10
153.4940188460347
 20
113.1043126240525
 30
0.0
 10
153.4936978013085
 20
112.123030103494
 30
0.0
 10
153.4936350150656
 20
111.4735946626519
 30
0.0
 10
153.4935401061046
 20
110.8814324842445
 30
0.0
  0
SPLINE
  5
199
330
1F
100
AcDbEntity
  8
0
  6
Continuous
 62
     8
370
    18
100
AcDbSpline
210
0.0
220
0.0
230
1.0
 70
     8
 71
     3
 72
    15
 73
    11
 74
     0
 42
0.00000001
 43
0.00000001
 40
0.0
 40
0.0
 40
0.0
 40
0.0
 40
0.134585274547868
 40
0.2800757224587215
 40
0.4273948203201371
 40
0.5730191590605425
 40
0.6467098369138582
 40
0.7190602684894399
 40
0.8631013716948912
 40
1.0
 40
1.0
 40
1.0
 40
1.0
 10
153.4939542682392
 20
110.8888015864947
 30
0.0
 10
153.4921846118728
 20
110.1440252014614
 30
0.0
 10
153.4885019074539
 20
108.5941247029921
 30
0.0
 10
153.5033927906078
 20
106.249635305858
 30
0.0
 10
153.5488216361489
 20
104.0549880610363
 30
0.0
 10
153.6187141543585
 20
102.5067537024462
 30
0.0
 10
153.6940650713344
 20
101.4686221960601
 30
0.0
 10
153.7738618370221
 20
100.6079677792623
 30
0.0
 10
153.8818579601057
 20
99.81507279884511
 30
0.0
 10
153.9360320084781
 20
99.59225451777925
 30
0.0
 10
153.9624303853544
 20
99.48367778897266
 30
0.0
  0
SPLINE
  5
19A
330
1F
100
AcDbEntity
  8
0
  6
Continuous
 62
     8
370
    18
100
AcDbSpline
210
0.0
220
0.0
230
1.0
 70
     8
 71
     3
 72
    14
 73
    10
 74
     0
 42
0.00000001
 43
0.00000001
 40
0.0
 40
0.0
 40
0.0
 40
0.0
 40
0.137884075351487
 40
0.2818069262813876
 40
0.4274512627471724
 40
0.5729560479147983
 40
0.7201542019083697
 40
0.8655252093687632
 40
1.0
 40
1.0
 40
1.0
 40
1.0
 10
202.4326576942176
 20
99.48028651744734
 30
0.0
 10
202.4593210211392
 20
99.59014553597551
 30
0.0
 10
202.5138154229407
 20
99.81467496228369
 30
0.0
 10
202.6435474830508
 20
100.7657286278698
 30
0.0
 10
202.762685408355
 20
102.1975009259629
 30
0.0
 10
202.8471375093797
 20
104.0563171069326
 30
0.0
 10
202.8923449436945
 20
106.249282447497
 30
0.0
 10
202.9072927421706
 20
108.594203985008
 30
0.0
 10
202.9036029271473
 20
110.1440504355292
 30
0.0
 10
202.901829853883
 20
110.8888008601047
 30
0.0
  0
SPLINE
  5
19B
330
1F
100
AcDbEntity
  8
0
  6
Continuous
 62
     8
370
    18
100
AcDbSpline
210
0.0
220
0.0
230
1.0
 70
     8
 71
     3
 72
    20
 73
    16
 74
     0
 42
0.00000001
 43
0.00000001
 40
0.0
 40
0.0
 40
0.0
 40
0.0
 40
0.125
 40
0.125
 40
0.1875
 40
0.1875
 40
0.25
 40
0.25
 40
0.375
 40
0.375
 40
0.5
 40
0.5
 40
0.75
 40
0.75
 40
1.0
 40
1.0
 40
1.0
 40
1.0
 10
202.9022440143935
 20
110.8814310023214
 30
0.0
 10
202.9021491052852
 20
111.4735931476589
 30
0.0
 10
202.9020863192906
 20
112.1230286087426
 30
0.0
 10
202.9017652746919
 20
113.1043112226726
 30
0.0
 10
202.9016416347311
 20
113.4323091046759
 30
0.0
 10
202.9014395230684
 20
114.0762344373426
 30
0.0
 10
202.9013540336566
 20
114.3929509705811
 30
0.0
 10
202.901121056722
 20
115.3354279799793
 30
0.0
 10
202.9009940708983
 20
115.9545923091567
 30
0.0
 10
202.9007352531591
 20
117.2101047146819
 30
0.0
 10
202.9006076909621
 20
117.8431040050482
 30
0.0
 10
202.9002159327944
 20
119.7492494781195
 30
0.0
 10
202.8999390775965
 20
121.0277305996646
 30
0.0
 10
202.8992938449316
 20
123.5669512459796
 30
0.0
 10
202.898936953165
 20
124.8316178347056
 30
0.0
 10
202.8985812258605
 20
126.0950193696783
 30
0.0
  0
LINE
  5
19C
330
1F
100
AcDbEntity
  8
0
  6
Continuous
 62
     8
370
    18
100
AcDbLine
 10
202.2641502053
 20
138.6108859467
 30
0.0
 11
153.2641502053
 21
138.6108859467
 31
0.0
  0
SPLINE
  5
19D
330
1F
100
AcDbEntity
  8
0
  6
Continuous
 62
     8
370
    25
100
AcDbSpline
210
0.0
220
0.0
230
1.0
 70
     8
 71
     3
 72
    14
 73
    10
 74
     0
 42
0.00000001
 43
0.00000001
 40
0.0
 40
0.0
 40
0.0
 40
0.0
 40
0.25
 40
0.25
 40
0.5
 40
0.5
 40
0.75
 40
0.75
 40
1.0
 40
1.0
 40
1.0
 40
1.0
 10
203.6854636788603
 20
126.5512161831356
 30
0.0
 10
203.6873937918912
 20
126.5087886068704
 30
0.0
 10
203.6714707713689
 20
126.4657145717398
 30
0.0
 10
203.6049104730753
 20
126.3817057854724
 30
0.0
 10
203.5533865369959
 20
126.339888885442
 30
0.0
 10
203.4191310586056
 20
126.2613045036906
 30
0.0
 10
203.3360121381462
 20
126.223954361495
 30
0.0
 10
203.1374737624939
 20
126.1542361211695
 30
0.0
 10
203.0231320907217
 20
126.1224272030526
 30
0.0
 10
202.8985203992208
 20
126.0950126801223
 30
0.0
  0
SPLINE
  5
19E
330
1F
100
AcDbEntity
  8
0
  6
Continuous
 62
     8
370
    25
100
AcDbSpline
210
0.0
220
0.0
230
1.0
 70
     8
 71
     3
 72
    12
 73
     8
 74
     0
 42
0.00000001
 43
0.00000001
 40
0.0
 40
0.0
 40
0.0
 40
0.0
 40
0.4999999999999923
 40
0.4999999999999923
 40
0.7499999999999961
 40
0.7499999999999961
 40
1.0
 40
1.0
 40
1.0
 40
1.0
 10
153.4972637206764
 20
126.0950126801222
 30
0.0
 10
153.2481090361784
 20
126.1498266121908
 30
0.0
 10
153.0444383478215
 20
126.2217486202909
 30
0.0
 10
152.8428713530749
 20
126.3395513364047
 30
0.0
 10
152.7919593321951
 20
126.3805845918836
 30
0.0
 10
152.7243070857033
 20
126.4654773308972
 30
0.0
 10
152.7083908600429
 20
126.5088003020509
 30
0.0
 10
152.7103204410374
 20
126.5512161831357
 30
0.0
  0
ARC
  5
19F
330
1F
100
AcDbEntity
  8
0
  6
Continuous
 62
     8
370
    18
100
AcDbCircle
 10
152.8079745569
 20
126.5495870929
 30
0.0
 40
0.0976677987034455
100
AcDbArc
 50
88.6283135654
 51
179.0441977005
  0
SPLINE
  5
1A0
330
1F
100
AcDbEntity
  8
0
  6
Continuous
 62
     8
370
    18
100
AcDbSpline
210
0.0
220
0.0
230
1.0
 70
     8
 71
     3
 72
    10
 73
     6
 74
     0
 42
0.00000001
 43
0.00000001
 40
0.0
 40
0.0
 40
0.0
 40
0.0
 40
0.5
 40
0.5
 40
1.0
 40
1.0
 40
1.0
 40
1.0
 10
202.9015231111102
 20
110.8733995905514
 30
0.0
 10
203.1396314529412
 20
110.874969338877
 30
0.0
 10
203.3482733201396
 20
110.8771396060039
 30
0.0
 10
203.6280987042782
 20
110.8821738194074
 30
0.0
 10
203.6978310187955
 20
110.8850095522733
 30
0.0
 10
203.6974223799929
 20
110.8877193314004
 30
0.0
  0
SPLINE
  5
1A1
330
1F
100
AcDbEntity
  8
0
  6
Continuous
 62
     8
370
    18
100
AcDbSpline
210
0.0
220
0.0
230
1.0
 70
     8
 71
     3
 72
    10
 73
     6
 74
     0
 42
0.00000001
 43
0.00000001
 40
0.0
 40
0.0
 40
0.0
 40
0.0
 40
0.5
 40
0.5
 40
1.0
 40
1.0
 40
1.0
 40
1.0
 10
153.4932570502461
 20
110.8890180379319
 30
0.0
 10
153.2550329027708
 20
110.8888635869111
 30
0.0
 10
153.0464834329366
 20
110.8886880613827
 30
0.0
 10
152.7670169229455
 20
110.8883456449574
 30
0.0
 10
152.6977705002867
 20
110.8881806690351
 30
0.0
 10
152.6983636273373
 20
110.8880441447482
 30
0.0
  0
SPLINE
  5
1A2
330
1F
100
AcDbEntity
  8
0
  6
Continuous
 62
     8
370
    18
100
AcDbSpline
210
0.0
220
0.0
230
1.0
 70
     8
 71
     3
 72
    10
 73
     6
 74
     0
 42
0.00000001
 43
0.00000001
 40
0.0
 40
0.0
 40
0.0
 40
0.0
 40
0.5
 40
0.5
 40
1.0
 40
1.0
 40
1.0
 40
1.0
 10
152.7265851837441
 20
126.90706792811
 30
0.0
 10
152.7265116639253
 20
126.9323287377196
 30
0.0
 10
152.7372554934523
 20
126.9574243448056
 30
0.0
 10
152.7742919039715
 20
126.9930765132435
 30
0.0
 10
152.8003548061413
 20
127.0034121448252
 30
0.0
 10
152.8265803450783
 20
127.0033337266106
 30
0.0
  0
ENDSEC
  0
SECTION
  2
OBJECTS
  0
DICTIONARY
  5
C
330
0
100
AcDbDictionary
281
     1
  3
ACAD_GROUP
350
D
  3
ACAD_LAYOUT
350
1A
  3
ACAD_MLINESTYLE
350
17
  3
ACAD_PLOTSETTINGS
350
19
  3
ACAD_PLOTSTYLENAME
350
E
  3
ACAD_SCALELIST
350
47
  3
DWGPROPS
350
1A3
  0
DICTIONARY
  5
D
102
{ACAD_REACTORS
330
C
102
}
330
C
100
AcDbDictionary
281
     1
  0
DICTIONARY
  5
1A
102
{ACAD_REACTORS
330
C
102
}
330
C
100
AcDbDictionary
281
     1
  3
Layout1
350
1E
  3
Layout2
350
26
  3
Model
350
22
  0
DICTIONARY
  5
17
102
{ACAD_REACTORS
330
C
102
}
330
C
100
AcDbDictionary
281
     1
  3
Standard
350
18
  0
DICTIONARY
  5
19
102
{ACAD_REACTORS
330
C
102
}
330
C
100
AcDbDictionary
281
     1
  0
ACDBDICTIONARYWDFLT
  5
E
102
{ACAD_REACTORS
330
C
102
}
330
C
100
AcDbDictionary
281
     1
  3
Normal
350
F
100
AcDbDictionaryWithDefault
340
F
  0
DICTIONARY
  5
47
102
{ACAD_REACTORS
330
C
102
}
330
C
100
AcDbDictionary
281
     1
  3
A0
350
48
  3
A1
350
49
  3
A2
350
4A
  3
A3
350
4B
  3
A4
350
4C
  3
A5
350
4D
  3
A6
350
4E
  3
A7
350
4F
  3
A8
350
50
  3
A9
350
51
  3
B0
350
52
  3
B1
350
53
  3
B2
350
54
  3
B3
350
55
  3
B4
350
56
  3
B5
350
57
  3
B6
350
58
  3
B7
350
59
  3
B8
350
5A
  3
B9
350
5B
  3
C0
350
5C
  3
C1
350
5D
  3
C2
350
5E
  3
C3
350
5F
  3
C4
350
60
  3
C5
350
61
  3
C6
350
62
  3
C7
350
63
  3
C8
350
64
  3
C9
350
65
  3
D0
350
66
  3
D1
350
67
  3
D2
350
68
  0
XRECORD
  5
1A3
102
{ACAD_REACTORS
330
C
102
}
330
C
100
AcDbXrecord
280
     1
  1
DWGPROPS COOKIE
  2

  3

  4

  6

  7

  8
estudent
  9

300
=
301
=
302
=
303
=
304
=
305
=
306
=
307
=
308
=
309
=
 40
0.0
 41
2460006.288059352
 42
2460006.288061123
  1

 90
        0
  0
LAYOUT
  5
1E
102
{ACAD_REACTORS
330
1A
102
}
330
1A
100
AcDbPlotSettings
  1

  2
none_device
  4

  6

 40
0.0
 41
0.0
 42
0.0
 43
0.0
 44
0.0
 45
0.0
 46
0.0
 47
0.0
 48
0.0
 49
0.0
140
0.0
141
0.0
142
1.0
143
1.0
 70
   688
 72
     1
 73
     0
 74
     5
  7

 75
    16
147
1.0
148
0.0
149
0.0
100
AcDbLayout
  1
Layout1
 70
     1
 71
     1
 10
0.0
 20
0.0
 11
420.0
 21
297.0
 12
0.0
 22
0.0
 32
0.0
 14
1.0000000000E+20
 24
1.0000000000E+20
 34
1.0000000000E+20
 15
-1.0000000000E+20
 25
-1.0000000000E+20
 35
-1.0000000000E+20
146
0.0
 13
0.0
 23
0.0
 33
0.0
 16
1.0
 26
0.0
 36
0.0
 17
0.0
 27
1.0
 37
0.0
 76
     0
330
1B
  0
LAYOUT
  5
26
102
{ACAD_REACTORS
330
1A
102
}
330
1A
100
AcDbPlotSettings
  1

  2
none_device
  4

  6

 40
0.0
 41
0.0
 42
0.0
 43
0.0
 44
0.0
 45
0.0
 46
0.0
 47
0.0
 48
0.0
 49
0.0
140
0.0
141
0.0
142
1.0
143
1.0
 70
   688
 72
     1
 73
     0
 74
     5
  7

 75
    16
147
1.0
148
0.0
149
0.0
100
AcDbLayout
  1
Layout2
 70
     1
 71
     2
 10
0.0
 20
0.0
 11
0.0
 21
0.0
 12
0.0
 22
0.0
 32
0.0
 14
0.0
 24
0.0
 34
0.0
 15
0.0
 25
0.0
 35
0.0
146
0.0
 13
0.0
 23
0.0
 33
0.0
 16
1.0
 26
0.0
 36
0.0
 17
0.0
 27
1.0
 37
0.0
 76
     0
330
23
  0
LAYOUT
  5
22
102
{ACAD_REACTORS
330
1A
102
}
330
1A
100
AcDbPlotSettings
  1

  2
none_device
  4
Letter_(8.50_x_11.00_Inches)
  6

 40
6.35
 41
6.35
 42
6.35000508
 43
6.35000508
 44
215.9
 45
279.4
 46
0.0
 47
0.0
 48
0.0
 49
0.0
140
0.0
141
0.0
142
1.0
143
1.0
 70
  1712
 72
     1
 73
     0
 74
     0
  7

 75
     0
147
1.0
148
0.0
149
0.0
100
AcDbLayout
  1
Model
 70
     1
 71
     0
 10
0.0
 20
0.0
 11
594.0
 21
841.0
 12
0.0
 22
0.0
 32
0.0
 14
0.0
 24
0.0
 34
0.0
 15
594.0
 25
841.0
 35
0.0
146
0.0
 13
0.0
 23
0.0
 33
0.0
 16
1.0
 26
0.0
 36
0.0
 17
0.0
 27
1.0
 37
0.0
 76
     0
330
1F
331
29
  0
MLINESTYLE
  5
18
102
{ACAD_REACTORS
330
17
102
}
330
17
100
AcDbMlineStyle
  2
Standard
 70
     0
  3

 62
   256
 51
90.0
 52
90.0
 71
     2
 49
0.5
 62
   256
  6
BYLAYER
 49
-0.5
 62
   256
  6
BYLAYER
  0
ACDBPLACEHOLDER
  5
F
102
{ACAD_REACTORS
330
E
102
}
330
E
  0
SCALE
  5
48
102
{ACAD_REACTORS
330
47
102
}
330
47
100
AcDbScale
 70
     0
300
1:1
140
1.0
141
1.0
290
     1
  0
SCALE
  5
49
102
{ACAD_REACTORS
330
47
102
}
330
47
100
AcDbScale
 70
     0
300
1:2
140
1.0
141
2.0
290
     0
  0
SCALE
  5
4A
102
{ACAD_REACTORS
330
47
102
}
330
47
100
AcDbScale
 70
     0
300
1:4
140
1.0
141
4.0
290
     0
  0
SCALE
  5
4B
102
{ACAD_REACTORS
330
47
102
}
330
47
100
AcDbScale
 70
     0
300
1:5
140
1.0
141
5.0
290
     0
  0
SCALE
  5
4C
102
{ACAD_REACTORS
330
47
102
}
330
47
100
AcDbScale
 70
     0
300
1:8
140
1.0
141
8.0
290
     0
  0
SCALE
  5
4D
102
{ACAD_REACTORS
330
47
102
}
330
47
100
AcDbScale
 70
     0
300
1:10
140
1.0
141
10.0
290
     0
  0
SCALE
  5
4E
102
{ACAD_REACTORS
330
47
102
}
330
47
100
AcDbScale
 70
     0
300
1:16
140
1.0
141
16.0
290
     0
  0
SCALE
  5
4F
102
{ACAD_REACTORS
330
47
102
}
330
47
100
AcDbScale
 70
     0
300
1:20
140
1.0
141
20.0
290
     0
  0
SCALE
  5
50
102
{ACAD_REACTORS
330
47
102
}
330
47
100
AcDbScale
 70
     0
300
1:30
140
1.0
141
30.0
290
     0
  0
SCALE
  5
51
102
{ACAD_REACTORS
330
47
102
}
330
47
100
AcDbScale
 70
     0
300
1:40
140
1.0
141
40.0
290
     0
  0
SCALE
  5
52
102
{ACAD_REACTORS
330
47
102
}
330
47
100
AcDbScale
 70
     0
300
1:50
140
1.0
141
50.0
290
     0
  0
SCALE
  5
53
102
{ACAD_REACTORS
330
47
102
}
330
47
100
AcDbScale
 70
     0
300
1:100
140
1.0
141
100.0
290
     0
  0
SCALE
  5
54
102
{ACAD_REACTORS
330
47
102
}
330
47
100
AcDbScale
 70
     0
300
2:1
140
2.0
141
1.0
290
     0
  0
SCALE
  5
55
102
{ACAD_REACTORS
330
47
102
}
330
47
100
AcDbScale
 70
     0
300
4:1
140
4.0
141
1.0
290
     0
  0
SCALE
  5
56
102
{ACAD_REACTORS
330
47
102
}
330
47
100
AcDbScale
 70
     0
300
8:1
140
8.0
141
1.0
290
     0
  0
SCALE
  5
57
102
{ACAD_REACTORS
330
47
102
}
330
47
100
AcDbScale
 70
     0
300
10:1
140
10.0
141
1.0
290
     0
  0
SCALE
  5
58
102
{ACAD_REACTORS
330
47
102
}
330
47
100
AcDbScale
 70
     0
300
100:1
140
100.0
141
1.0
290
     0
  0
SCALE
  5
59
102
{ACAD_REACTORS
330
47
102
}
330
47
100
AcDbScale
 70
     0
300
1/128" = 1'-0"
140
0.0078125
141
12.0
290
     0
  0
SCALE
  5
5A
102
{ACAD_REACTORS
330
47
102
}
330
47
100
AcDbScale
 70
     0
300
1/64" = 1'-0"
140
0.015625
141
12.0
290
     0
  0
SCALE
  5
5B
102
{ACAD_REACTORS
330
47
102
}
330
47
100
AcDbScale
 70
     0
300
1/32" = 1'-0"
140
0.03125
141
12.0
290
     0
  0
SCALE
  5
5C
102
{ACAD_REACTORS
330
47
102
}
330
47
100
AcDbScale
 70
     0
300
1/16" = 1'-0"
140
0.0625
141
12.0
290
     0
  0
SCALE
  5
5D
102
{ACAD_REACTORS
330
47
102
}
330
47
100
AcDbScale
 70
     0
300
3/32" = 1'-0"
140
0.09375
141
12.0
290
     0
  0
SCALE
  5
5E
102
{ACAD_REACTORS
330
47
102
}
330
47
100
AcDbScale
 70
     0
300
1/8" = 1'-0"
140
0.125
141
12.0
290
     0
  0
SCALE
  5
5F
102
{ACAD_REACTORS
330
47
102
}
330
47
100
AcDbScale
 70
     0
300
3/16" = 1'-0"
140
0.1875
141
12.0
290
     0
  0
SCALE
  5
60
102
{ACAD_REACTORS
330
47
102
}
330
47
100
AcDbScale
 70
     0
300
1/4" = 1'-0"
140
0.25
141
12.0
290
     0
  0
SCALE
  5
61
102
{ACAD_REACTORS
330
47
102
}
330
47
100
AcDbScale
 70
     0
300
3/8" = 1'-0"
140
0.375
141
12.0
290
     0
  0
SCALE
  5
62
102
{ACAD_REACTORS
330
47
102
}
330
47
100
AcDbScale
 70
     0
300
1/2" = 1'-0"
140
0.5
141
12.0
290
     0
  0
SCALE
  5
63
102
{ACAD_REACTORS
330
47
102
}
330
47
100
AcDbScale
 70
     0
300
3/4" = 1'-0"
140
0.75
141
12.0
290
     0
  0
SCALE
  5
64
102
{ACAD_REACTORS
330
47
102
}
330
47
100
AcDbScale
 70
     0
300
1" = 1'-0"
140
1.0
141
12.0
290
     0
  0
SCALE
  5
65
102
{ACAD_REACTORS
330
47
102
}
330
47
100
AcDbScale
 70
     0
300
1-1/2" = 1'-0"
140
1.5
141
12.0
290
     0
  0
SCALE
  5
66
102
{ACAD_REACTORS
330
47
102
}
330
47
100
AcDbScale
 70
     0
300
3" = 1'-0"
140
3.0
141
12.0
290
     0
  0
SCALE
  5
67
102
{ACAD_REACTORS
330
47
102
}
330
47
100
AcDbScale
 70
     0
300
6" = 1'-0"
140
6.0
141
12.0
290
     0
  0
SCALE
  5
68
102
{ACAD_REACTORS
330
47
102
}
330
47
100
AcDbScale
 70
     0
300
1'-0" = 1'-0"
140
12.0
141
12.0
290
     0
  0
ENDSEC
  0
EOF
