  0
SECTION
  2
HEADER
  9
$ACADVER
  1
AC1024
  9
$ACADMAINTVER
 70
     6
  9
$DWGCODEPAGE
  3
ANSI_1252
  9
$INSBASE
 10
0.0
 20
0.0
 30
0.0
  9
$EXTMIN
 10
0.0
 20
0.0
 30
0.0
  9
$EXTMAX
 10
594.0
 20
841.0
 30
0.0
  9
$LIMMIN
 10
0.0
 20
0.0
  9
$LIMMAX
 10
594.0
 20
841.0
  9
$ORTHOMODE
 70
     0
  9
$REGENMODE
 70
     1
  9
$FILLMODE
 70
     1
  9
$QTEXTMODE
 70
     0
  9
$MIRRTEXT
 70
     1
  9
$LTSCALE
 40
1.0
  9
$ATTMODE
 70
     1
  9
$TEXTSIZE
 40
10.0
  9
$TRACEWID
 40
1.0
  9
$TEXTSTYLE
  7
Standard
  9
$CLAYER
  8
0
  9
$CELTYPE
  6
ByLayer
  9
$CECOLOR
 62
   256
  9
$CELTSCALE
 40
1.0
  9
$DISPSILH
 70
     0
  9
$DIMSCALE
 40
1.0
  9
$DIMASZ
 40
2.5
  9
$DIMEXO
 40
0.0
  9
$DIMDLI
 40
3.75
  9
$DIMRND
 40
0.0
  9
$DIMDLE
 40
0.0
  9
$DIMEXE
 40
1.0
  9
$DIMTP
 40
0.0
  9
$DIMTM
 40
0.0
  9
$DIMTXT
 40
3.5
  9
$DIMCEN
 40
2.5
  9
$DIMTSZ
 40
0.0
  9
$DIMTOL
 70
     0
  9
$DIMLIM
 70
     0
  9
$DIMTIH
 70
     1
  9
$DIMTOH
 70
     1
  9
$DIMSE1
 70
     0
  9
$DIMSE2
 70
     0
  9
$DIMTAD
 70
     1
  9
$DIMZIN
 70
     0
  9
$DIMBLK
  1

  9
$DIMASO
 70
     1
  9
$DIMSHO
 70
     1
  9
$DIMPOST
  1

  9
$DIMAPOST
  1

  9
$DIMALT
 70
     0
  9
$DIMALTD
 70
     3
  9
$DIMALTF
 40
0.0393700787
  9
$DIMLFAC
 40
1.0
  9
$DIMTOFL
 70
     1
  9
$DIMTVP
 40
0.0
  9
$DIMTIX
 70
     0
  9
$DIMSOXD
 70
     0
  9
$DIMSAH
 70
     0
  9
$DIMBLK1
  1

  9
$DIMBLK2
  1

  9
$DIMSTYLE
  2
ISO-25
  9
$DIMCLRD
 70
     0
  9
$DIMCLRE
 70
     0
  9
$DIMCLRT
 70
     0
  9
$DIMTFAC
 40
1.0
  9
$DIMGAP
 40
1.5
  9
$DIMJUST
 70
     0
  9
$DIMSD1
 70
     0
  9
$DIMSD2
 70
     0
  9
$DIMTOLJ
 70
     0
  9
$DIMTZIN
 70
     0
  9
$DIMALTZ
 70
     0
  9
$DIMALTTZ
 70
     0
  9
$DIMUPT
 70
     0
  9
$DIMDEC
 70
     2
  9
$DIMTDEC
 70
     2
  9
$DIMALTU
 70
     2
  9
$DIMALTTD
 70
     3
  9
$DIMTXSTY
  7
Standard
  9
$DIMAUNIT
 70
     0
  9
$DIMADEC
 70
     2
  9
$DIMALTRND
 40
0.0
  9
$DIMAZIN
 70
     0
  9
$DIMDSEP
 70
    44
  9
$DIMATFIT
 70
     3
  9
$DIMFRAC
 70
     0
  9
$DIMLDRBLK
  1

  9
$DIMLUNIT
 70
     2
  9
$DIMLWD
 70
    -2
  9
$DIMLWE
 70
    -2
  9
$DIMTMOVE
 70
     0
  9
$DIMFXL
 40
1.0
  9
$DIMFXLON
 70
     0
  9
$DIMJOGANG
 40
0.7853981634
  9
$DIMTFILL
 70
     0
  9
$DIMTFILLCLR
 70
     0
  9
$DIMARCSYM
 70
     0
  9
$DIMLTYPE
  6

  9
$DIMLTEX1
  6

  9
$DIMLTEX2
  6

  9
$DIMTXTDIRECTION
 70
     0
  9
$LUNITS
 70
     2
  9
$LUPREC
 70
     2
  9
$SKETCHINC
 40
1.0
  9
$FILLETRAD
 40
10.0
  9
$AUNITS
 70
     0
  9
$AUPREC
 70
     2
  9
$MENU
  1
.
  9
$ELEVATION
 40
0.0
  9
$PELEVATION
 40
0.0
  9
$THICKNESS
 40
0.0
  9
$LIMCHECK
 70
     0
  9
$CHAMFERA
 40
10.0
  9
$CHAMFERB
 40
10.0
  9
$CHAMFERC
 40
20.0
  9
$CHAMFERD
 40
0.0
  9
$SKPOLY
 70
     0
  9
$TDCREATE
 40
2456814.274384803
  9
$TDUCREATE
 40
2456814.19105147
  9
$TDUPDATE
 40
2456814.274386319
  9
$TDUUPDATE
 40
2456814.191052986
  9
$TDINDWG
 40
0.0000000116
  9
$TDUSRTIMER
 40
0.0000000116
  9
$USRTIMER
 70
     1
  9
$ANGBASE
 50
0.0
  9
$ANGDIR
 70
     0
  9
$PDMODE
 70
     0
  9
$PDSIZE
 40
-1.0
  9
$PLINEWID
 40
0.0
  9
$SPLFRAME
 70
     0
  9
$SPLINETYPE
 70
     6
  9
$SPLINESEGS
 70
     8
  9
$HANDSEED
  5
15B
  9
$SURFTAB1
 70
     6
  9
$SURFTAB2
 70
     6
  9
$SURFTYPE
 70
     6
  9
$SURFU
 70
     6
  9
$SURFV
 70
     6
  9
$UCSBASE
  2

  9
$UCSNAME
  2

  9
$UCSORG
 10
0.0
 20
0.0
 30
0.0
  9
$UCSXDIR
 10
1.0
 20
0.0
 30
0.0
  9
$UCSYDIR
 10
0.0
 20
1.0
 30
0.0
  9
$UCSORTHOREF
  2

  9
$UCSORTHOVIEW
 70
     0
  9
$UCSORGTOP
 10
0.0
 20
0.0
 30
0.0
  9
$UCSORGBOTTOM
 10
0.0
 20
0.0
 30
0.0
  9
$UCSORGLEFT
 10
0.0
 20
0.0
 30
0.0
  9
$UCSORGRIGHT
 10
0.0
 20
0.0
 30
0.0
  9
$UCSORGFRONT
 10
0.0
 20
0.0
 30
0.0
  9
$UCSORGBACK
 10
0.0
 20
0.0
 30
0.0
  9
$PUCSBASE
  2

  9
$PUCSNAME
  2

  9
$PUCSORG
 10
0.0
 20
0.0
 30
0.0
  9
$PUCSXDIR
 10
1.0
 20
0.0
 30
0.0
  9
$PUCSYDIR
 10
0.0
 20
1.0
 30
0.0
  9
$PUCSORTHOREF
  2

  9
$PUCSORTHOVIEW
 70
     0
  9
$PUCSORGTOP
 10
0.0
 20
0.0
 30
0.0
  9
$PUCSORGBOTTOM
 10
0.0
 20
0.0
 30
0.0
  9
$PUCSORGLEFT
 10
0.0
 20
0.0
 30
0.0
  9
$PUCSORGRIGHT
 10
0.0
 20
0.0
 30
0.0
  9
$PUCSORGFRONT
 10
0.0
 20
0.0
 30
0.0
  9
$PUCSORGBACK
 10
0.0
 20
0.0
 30
0.0
  9
$USERI1
 70
     0
  9
$USERI2
 70
     0
  9
$USERI3
 70
     0
  9
$USERI4
 70
     0
  9
$USERI5
 70
     0
  9
$USERR1
 40
0.0
  9
$USERR2
 40
0.0
  9
$USERR3
 40
0.0
  9
$USERR4
 40
0.0
  9
$USERR5
 40
0.0
  9
$WORLDVIEW
 70
     1
  9
$SHADEDGE
 70
     3
  9
$SHADEDIF
 70
    70
  9
$TILEMODE
 70
     1
  9
$MAXACTVP
 70
    64
  9
$PINSBASE
 10
0.0
 20
0.0
 30
0.0
  9
$PLIMCHECK
 70
     0
  9
$PEXTMIN
 10
1.0000000000E+20
 20
1.0000000000E+20
 30
1.0000000000E+20
  9
$PEXTMAX
 10
-1.0000000000E+20
 20
-1.0000000000E+20
 30
-1.0000000000E+20
  9
$PLIMMIN
 10
0.0
 20
0.0
  9
$PLIMMAX
 10
420.0
 20
297.0
  9
$UNITMODE
 70
     0
  9
$VISRETAIN
 70
     1
  9
$PLINEGEN
 70
     0
  9
$PSLTSCALE
 70
     1
  9
$TREEDEPTH
 70
  3020
  9
$CMLSTYLE
  2
Standard
  9
$CMLJUST
 70
     0
  9
$CMLSCALE
 40
20.0
  9
$PROXYGRAPHICS
 70
     1
  9
$MEASUREMENT
 70
     1
  9
$CELWEIGHT
370
    -1
  9
$ENDCAPS
280
     0
  9
$JOINSTYLE
280
     0
  9
$LWDISPLAY
290
     1
  9
$INSUNITS
 70
     4
  9
$HYPERLINKBASE
  1

  9
$STYLESHEET
  1

  9
$XEDIT
290
     1
  9
$CEPSNTYPE
380
     0
  9
$PSTYLEMODE
290
     1
  9
$FINGERPRINTGUID
  2
{C7C94A12-486F-4C6B-86A4-B59018EF17EA}
  9
$VERSIONGUID
  2
{FAEB1C32-E019-11D5-929B-00C0DF256EC4}
  9
$EXTNAMES
290
     1
  9
$PSVPSCALE
 40
0.0
  9
$OLESTARTUP
290
     0
  9
$SORTENTS
280
   127
  9
$INDEXCTL
280
     0
  9
$HIDETEXT
280
     1
  9
$XCLIPFRAME
280
     2
  9
$HALOGAP
280
     0
  9
$OBSCOLOR
 70
   257
  9
$OBSLTYPE
280
     0
  9
$INTERSECTIONDISPLAY
280
     0
  9
$INTERSECTIONCOLOR
 70
   257
  9
$DIMASSOC
280
     2
  9
$PROJECTNAME
  1

  9
$CAMERADISPLAY
290
     0
  9
$LENSLENGTH
 40
50.0
  9
$CAMERAHEIGHT
 40
0.0
  9
$STEPSPERSEC
 40
2.0
  9
$STEPSIZE
 40
6.0
  9
$3DDWFPREC
 40
2.0
  9
$PSOLWIDTH
 40
5.0
  9
$PSOLHEIGHT
 40
80.0
  9
$LOFTANG1
 40
1.5707963268
  9
$LOFTANG2
 40
1.5707963268
  9
$LOFTMAG1
 40
0.0
  9
$LOFTMAG2
 40
0.0
  9
$LOFTPARAM
 70
     7
  9
$LOFTNORMALS
280
     1
  9
$LATITUDE
 40
37.795
  9
$LONGITUDE
 40
-122.394
  9
$NORTHDIRECTION
 40
0.0
  9
$TIMEZONE
 70
 -8000
  9
$LIGHTGLYPHDISPLAY
280
     1
  9
$TILEMODELIGHTSYNCH
280
     1
  9
$SOLIDHIST
280
     1
  9
$SHOWHIST
280
     1
  9
$DWFFRAME
280
     2
  9
$DGNFRAME
280
     2
  9
$REALWORLDSCALE
290
     1
  9
$INTERFERECOLOR
 62
   256
  9
$CSHADOW
280
     0
  9
$SHADOWPLANELOCATION
 40
0.0
  0
ENDSEC
  0
SECTION
  2
CLASSES
  0
CLASS
  1
ACDBDICTIONARYWDFLT
  2
AcDbDictionaryWithDefault
  3
ObjectDBX Classes
 90
        0
 91
        4
280
     0
281
     0
  0
CLASS
  1
VISUALSTYLE
  2
AcDbVisualStyle
  3
ObjectDBX Classes
 90
     4095
 91
        4
280
     0
281
     0
  0
CLASS
  1
MATERIAL
  2
AcDbMaterial
  3
ObjectDBX Classes
 90
     1153
 91
        4
280
     0
281
     0
  0
ENDSEC
  0
SECTION
  2
TABLES
  0
TABLE
  2
VPORT
  5
8
330
0
100
AcDbSymbolTable
 70
     1
  0
VPORT
  5
29
330
8
100
AcDbSymbolTableRecord
100
AcDbViewportTableRecord
  2
*Active
 70
     0
 10
0.0
 20
0.0
 11
1.0
 21
1.0
 12
297.0
 22
420.5
 13
0.0
 23
0.0
 14
10.0
 24
10.0
 15
10.0
 25
10.0
 16
0.0
 26
0.0
 36
1.0
 17
0.0
 27
0.0
 37
0.0
 40
841.0
 41
0.7063020214
 42
50.0
 43
0.0
 44
0.0
 50
0.0
 51
0.0
 71
     0
 72
  2000
 73
     1
 74
     3
 75
     0
 76
     0
 77
     0
 78
     0
281
     0
 65
     1
110
0.0
120
0.0
130
0.0
111
1.0
121
0.0
131
0.0
112
0.0
122
1.0
132
0.0
 79
     0
146
0.0
 60
     3
 61
     5
292
     1
282
     1
141
0.0
142
0.0
 63
   250
  0
ENDTAB
  0
TABLE
  2
LTYPE
  5
5
330
0
100
AcDbSymbolTable
 70
     6
  0
LTYPE
  5
14
330
5
100
AcDbSymbolTableRecord
100
AcDbLinetypeTableRecord
  2
ByBlock
 70
     0
  3

 72
    65
 73
     0
 40
0.0
  0
LTYPE
  5
15
330
5
100
AcDbSymbolTableRecord
100
AcDbLinetypeTableRecord
  2
ByLayer
 70
     0
  3

 72
    65
 73
     0
 40
0.0
  0
LTYPE
  5
16
330
5
100
AcDbSymbolTableRecord
100
AcDbLinetypeTableRecord
  2
Continuous
 70
     0
  3
Solid line
 72
    65
 73
     0
 40
0.0
  0
LTYPE
  5
3F
330
5
100
AcDbSymbolTableRecord
100
AcDbLinetypeTableRecord
  2
HIDDEN
 70
     0
  3
Hidden __ __ __ __ __ __ __ __ __ __ __ __ __ __
 72
    65
 73
     2
 40
1.905
 49
1.27
 74
     0
 49
-0.635
 74
     0
  0
LTYPE
  5
40
330
5
100
AcDbSymbolTableRecord
100
AcDbLinetypeTableRecord
  2
PHANTOM
 70
     0
  3
Phantom ______  __  __  ______  __  __  ______
 72
    65
 73
     6
 40
12.7
 49
6.35
 74
     0
 49
-1.27
 74
     0
 49
1.27
 74
     0
 49
-1.27
 74
     0
 49
1.27
 74
     0
 49
-1.27
 74
     0
  0
LTYPE
  5
41
330
5
100
AcDbSymbolTableRecord
100
AcDbLinetypeTableRecord
  2
CENTER
 70
     0
  3
Center ____ _ ____ _ ____ _ ____ _ ____ _ ____
 72
    65
 73
     4
 40
10.16
 49
6.35
 74
     0
 49
-1.27
 74
     0
 49
1.27
 74
     0
 49
-1.27
 74
     0
  0
LTYPE
  5
42
330
5
100
AcDbSymbolTableRecord
100
AcDbLinetypeTableRecord
  2
CENTERX2
 70
     0
  3
Center (2x) ________  __  ________  __  _____
 72
    65
 73
     4
 40
20.32
 49
12.7
 74
     0
 49
-2.54
 74
     0
 49
2.54
 74
     0
 49
-2.54
 74
     0
  0
LTYPE
  5
43
330
5
100
AcDbSymbolTableRecord
100
AcDbLinetypeTableRecord
  2
DOT2
 70
     0
  3
Dot (.5x) ........................................
 72
    65
 73
     2
 40
0.635
 49
0.0
 74
     0
 49
-0.635
 74
     0
  0
ENDTAB
  0
TABLE
  2
LAYER
  5
2
330
0
100
AcDbSymbolTable
 70
     1
  0
LAYER
  5
10
330
2
100
AcDbSymbolTableRecord
100
AcDbLayerTableRecord
  2
0
 70
     0
 62
     7
  6
Continuous
370
    -3
390
F
347
3E
  0
ENDTAB
  0
TABLE
  2
STYLE
  5
3
330
0
100
AcDbSymbolTable
 70
     3
  0
STYLE
  5
11
330
3
100
AcDbSymbolTableRecord
100
AcDbTextStyleTableRecord
  2
Standard
 70
     0
 40
0.0
 41
1.0
 50
0.0
 71
     0
 42
10.0
  3
txt
  4

  0
STYLE
  5
47
330
3
100
AcDbSymbolTableRecord
100
AcDbTextStyleTableRecord
  2
SLDTEXTSTYLE0
 70
     0
 40
0.0
 41
0.96
 50
0.0
 71
     0
 42
0.2
  3
ISOCP3
  4

  0
STYLE
  5
5E
330
3
100
AcDbSymbolTableRecord
100
AcDbTextStyleTableRecord
  2
SLDTEXTSTYLE1
 70
     0
 40
0.0
 41
0.605
 50
0.0
 71
     0
 42
0.2
  3
TXT
  4

  0
ENDTAB
  0
TABLE
  2
VIEW
  5
6
330
0
100
AcDbSymbolTable
 70
     0
  0
ENDTAB
  0
TABLE
  2
UCS
  5
7
330
0
100
AcDbSymbolTable
 70
     0
  0
ENDTAB
  0
TABLE
  2
APPID
  5
9
330
0
100
AcDbSymbolTable
 70
     1
  0
APPID
  5
12
330
9
100
AcDbSymbolTableRecord
100
AcDbRegAppTableRecord
  2
ACAD
 70
     0
  0
ENDTAB
  0
TABLE
  2
DIMSTYLE
  5
A
330
0
100
AcDbSymbolTable
 70
     2
100
AcDbDimStyleTable
  0
DIMSTYLE
105
27
330
A
100
AcDbSymbolTableRecord
100
AcDbDimStyleTableRecord
  2
ISO-25
 70
     0
 41
2.5
 42
0.625
 43
3.75
 44
1.25
 73
     0
 74
     0
 77
     1
 78
     8
140
2.5
141
2.5
143
0.0393700787
147
0.625
171
     3
172
     1
178
     0
271
     2
272
     2
274
     3
278
    44
283
     0
284
     8
340
11
  0
DIMSTYLE
105
48
102
{ACAD_REACTORS
330
46
330
53
102
}
330
A
100
AcDbSymbolTableRecord
100
AcDbDimStyleTableRecord
  2
SLDDIMSTYLE0
 70
     0
 41
2.5
 44
0.0
 45
0.000000001
 73
     0
 74
     0
 77
     1
 78
    12
 79
     3
140
6.0
147
1.5
173
     1
178
     0
271
     2
272
     2
276
     2
284
    12
340
47
  0
ENDTAB
  0
TABLE
  2
BLOCK_RECORD
  5
1
330
0
100
AcDbSymbolTable
 70
     3
  0
BLOCK_RECORD
  5
1F
330
1
100
AcDbSymbolTableRecord
100
AcDbBlockTableRecord
  2
*Model_Space
340
22
 70
     0
280
     1
281
     0
  0
BLOCK_RECORD
  5
1B
330
1
100
AcDbSymbolTableRecord
100
AcDbBlockTableRecord
  2
*Paper_Space
340
1E
 70
     0
280
     1
281
     0
  0
BLOCK_RECORD
  5
23
330
1
100
AcDbSymbolTableRecord
100
AcDbBlockTableRecord
  2
*Paper_Space0
340
26
 70
     0
280
     1
281
     0
  0
BLOCK_RECORD
  5
49
330
1
100
AcDbSymbolTableRecord
100
AcDbBlockTableRecord
  2
_D
340
0
 70
     0
280
     1
281
     0
  0
BLOCK_RECORD
  5
54
330
1
100
AcDbSymbolTableRecord
100
AcDbBlockTableRecord
  2
_D_1
340
0
 70
     0
280
     1
281
     0
  0
ENDTAB
  0
ENDSEC
  0
SECTION
  2
BLOCKS
  0
BLOCK
  5
20
330
1F
100
AcDbEntity
  8
0
100
AcDbBlockBegin
  2
*Model_Space
 70
     0
 10
0.0
 20
0.0
 30
0.0
  3
*Model_Space
  1

  0
ENDBLK
  5
21
330
1F
100
AcDbEntity
  8
0
100
AcDbBlockEnd
  0
BLOCK
  5
1C
330
1B
100
AcDbEntity
 67
     1
  8
0
100
AcDbBlockBegin
  2
*Paper_Space
 70
     0
 10
0.0
 20
0.0
 30
0.0
  3
*Paper_Space
  1

  0
ENDBLK
  5
1D
330
1B
100
AcDbEntity
 67
     1
  8
0
100
AcDbBlockEnd
  0
BLOCK
  5
24
330
23
100
AcDbEntity
  8
0
100
AcDbBlockBegin
  2
*Paper_Space0
 70
     0
 10
0.0
 20
0.0
 30
0.0
  3
*Paper_Space0
  1

  0
ENDBLK
  5
25
330
23
100
AcDbEntity
  8
0
100
AcDbBlockEnd
  0
BLOCK
  5
4A
330
49
100
AcDbEntity
  8
0
100
AcDbBlockBegin
  2
_D
 70
     0
 10
0.0
 20
0.0
 30
0.0
  3
_D
  1

  0
SOLID
  5
4C
330
49
100
AcDbEntity
  8
0
  6
Continuous
 62
     7
370
     0
100
AcDbTrace
 10
42.7614395004
 20
152.0299240879
 30
0.0
 11
42.4614395004
 21
149.5299240879
 31
0.0
 12
43.0614395004
 22
149.5299240879
 32
0.0
 13
43.0614395004
 23
149.5299240879
 33
0.0
  0
SOLID
  5
4D
330
49
100
AcDbEntity
  8
0
  6
Continuous
 62
     7
370
     0
100
AcDbTrace
 10
42.7614395004
 20
52.0299240879
 30
0.0
 11
43.0614395004
 21
54.5299240879
 31
0.0
 12
42.4614395004
 22
54.5299240879
 32
0.0
 13
42.4614395004
 23
54.5299240879
 33
0.0
  0
LINE
  5
4E
330
49
100
AcDbEntity
  8
0
  6
Continuous
 62
     7
370
     0
100
AcDbLine
 10
56.6850079902
 20
152.0299240879
 30
0.0
 11
41.7614395004
 21
152.0299240879
 31
0.0
  0
LINE
  5
4F
330
49
100
AcDbEntity
  8
0
  6
Continuous
 62
     7
370
     0
100
AcDbLine
 10
56.6850079902
 20
52.0299240879
 30
0.0
 11
41.7614395004
 21
52.0299240879
 31
0.0
  0
LINE
  5
50
330
49
100
AcDbEntity
  8
0
  6
Continuous
 62
     7
370
     0
100
AcDbLine
 10
42.7614395004
 20
152.0299240879
 30
0.0
 11
42.7614395004
 21
52.0299240879
 31
0.0
  0
MTEXT
  5
51
330
49
100
AcDbEntity
  8
0
  6
Continuous
 62
     7
370
     0
100
AcDbMText
 10
35.0270332946
 20
91.6722208134
 30
0.1
 40
6.0
 41
0.0
 46
0.0
 71
     1
 72
     1
  1
100
  7
SLDTEXTSTYLE0
 11
-7.044195017643634E-15
 21
1.0
 31
0.0
 73
     1
 44
1.0
  0
MTEXT
  5
52
330
49
100
AcDbEntity
  8
0
  6
Continuous
 62
     7
370
     0
100
AcDbMText
 10
35.0270332946
 20
108.4388881795
 30
0.1
 40
6.0
 41
0.0
 46
0.0
 71
     1
 72
     1
  1
mm
  7
SLDTEXTSTYLE0
 11
-7.044195017643634E-15
 21
1.0
 31
0.0
 73
     1
 44
1.0
  0
ENDBLK
  5
4B
330
49
100
AcDbEntity
  8
0
100
AcDbBlockEnd
  0
BLOCK
  5
55
330
54
100
AcDbEntity
  8
0
100
AcDbBlockBegin
  2
_D_1
 70
     0
 10
0.0
 20
0.0
 30
0.0
  3
_D_1
  1

  0
SOLID
  5
57
330
54
100
AcDbEntity
  8
0
  6
Continuous
 62
     7
370
     0
100
AcDbTrace
 10
56.6850079902
 20
38.4602342313
 30
0.0
 11
59.1850079902
 21
38.1602342313
 31
0.0
 12
59.1850079902
 22
38.7602342313
 32
0.0
 13
59.1850079902
 23
38.7602342313
 33
0.0
  0
SOLID
  5
58
330
54
100
AcDbEntity
  8
0
  6
Continuous
 62
     7
370
     0
100
AcDbTrace
 10
156.6850079902
 20
38.4602342313
 30
0.0
 11
154.1850079902
 21
38.7602342313
 31
0.0
 12
154.1850079902
 22
38.1602342313
 32
0.0
 13
154.1850079902
 23
38.1602342313
 33
0.0
  0
LINE
  5
59
330
54
100
AcDbEntity
  8
0
  6
Continuous
 62
     7
370
     0
100
AcDbLine
 10
56.6850079902
 20
52.0299240879
 30
0.0
 11
56.6850079902
 21
37.4602342313
 31
0.0
  0
LINE
  5
5A
330
54
100
AcDbEntity
  8
0
  6
Continuous
 62
     7
370
     0
100
AcDbLine
 10
156.6850079902
 20
52.0299240879
 30
0.0
 11
156.6850079902
 21
37.4602342313
 31
0.0
  0
LINE
  5
5B
330
54
100
AcDbEntity
  8
0
  6
Continuous
 62
     7
370
     0
100
AcDbLine
 10
56.6850079902
 20
38.4602342313
 30
0.0
 11
156.6850079902
 21
38.4602342313
 31
0.0
  0
MTEXT
  5
5C
330
54
100
AcDbEntity
  8
0
  6
Continuous
 62
     7
370
     0
100
AcDbMText
 10
91.2668151533
 20
46.1946404371
 30
0.1
 40
6.0
 41
0.0
 46
0.0
 71
     1
 72
     1
  1
100
  7
SLDTEXTSTYLE0
 73
     1
 44
1.0
  0
MTEXT
  5
5D
330
54
100
AcDbEntity
  8
0
  6
Continuous
 62
     7
370
     0
100
AcDbMText
 10
108.0334825193
 20
46.1946404371
 30
0.1
 40
6.0
 41
0.0
 46
0.0
 71
     1
 72
     1
  1
mm
  7
SLDTEXTSTYLE0
 73
     1
 44
1.0
  0
ENDBLK
  5
56
330
54
100
AcDbEntity
  8
0
100
AcDbBlockEnd
  0
ENDSEC
  0
SECTION
  2
ENTITIES
  0
LINE
  5
44
330
1F
100
AcDbEntity
  8
0
  6
Continuous
 62
     7
370
     0
100
AcDbLine
 10
56.6850079902
 20
152.0299240879
 30
0.0
 11
56.6850079902
 21
52.0299240879
 31
0.0
  0
LINE
  5
45
330
1F
100
AcDbEntity
  8
0
  6
Continuous
 62
     7
370
     0
100
AcDbLine
 10
56.6850079902
 20
52.0299240879
 30
0.0
 11
156.6850079902
 21
52.0299240879
 31
0.0
  0
DIMENSION
  5
46
330
1F
100
AcDbEntity
  8
0
  6
Continuous
 62
     7
370
     0
100
AcDbDimension
280
     0
  2
_D
 10
42.7614395004
 20
52.0299240879
 30
0.0
 11
42.7614395004
 21
105.4472211621
 31
0.0
 70
   160
  1
<>mm
 71
     2
 42
-1.0
 73
     0
 74
     0
 75
     0
  3
SLDDIMSTYLE0
100
AcDbAlignedDimension
 13
56.6850079902
 23
152.0299240879
 33
0.0
 14
56.6850079902
 24
52.0299240879
 34
0.0
 50
90.0
100
AcDbRotatedDimension
  0
DIMENSION
  5
53
330
1F
100
AcDbEntity
  8
0
  6
Continuous
 62
     7
370
     0
100
AcDbDimension
280
     0
  2
_D_1
 10
156.6850079902
 20
38.4602342313
 30
0.0
 11
105.0418155019
 21
38.4602342313
 31
0.0
 70
   160
  1
<>mm
 71
     2
 42
-1.0
 73
     0
 74
     0
 75
     0
  3
SLDDIMSTYLE0
100
AcDbAlignedDimension
 13
56.6850079902
 23
52.0299240879
 33
0.0
 14
156.6850079902
 24
52.0299240879
 34
0.0
100
AcDbRotatedDimension
  0
MTEXT
  5
5F
330
1F
100
AcDbEntity
  8
0
  6
Continuous
 62
     7
370
     0
100
AcDbMText
 10
281.0862304305
 20
47.19982212
 30
0.0
 40
10.0
 41
0.0
 46
0.0
 71
     1
 72
     1
  1
38 265 05 75
  7
SLDTEXTSTYLE1
 73
     1
 44
1.0
  0
MTEXT
  5
60
330
1F
100
AcDbEntity
  8
0
  6
Continuous
 62
     7
370
     0
100
AcDbMText
 10
412.8252631579
 20
48.4342449499
 30
0.0
 40
10.0
 41
0.0
 46
0.0
 71
     1
 72
     1
  1
KLUDI GmbH & Co KG
  7
SLDTEXTSTYLE1
 73
     1
 44
1.0
  0
LINE
  5
61
330
1F
100
AcDbEntity
  8
0
  6
Continuous
 62
     7
370
    15
100
AcDbLine
 10
169.9476319668
 20
414.7099701199
 30
0.0
 11
169.9476319668
 21
415.898285728
 31
0.0
  0
LINE
  5
62
330
1F
100
AcDbEntity
  8
0
  6
Continuous
 62
     7
370
    15
100
AcDbLine
 10
145.9476319668
 20
415.898285728
 30
0.0
 11
145.9476319668
 21
414.7099701199
 31
0.0
  0
LINE
  5
63
330
1F
100
AcDbEntity
  8
0
  6
Continuous
 62
     7
370
    15
100
AcDbLine
 10
146.9476319668
 20
410.5597233628
 30
0.0
 11
147.2785118821
 21
410.3762392475
 31
0.0
  0
LINE
  5
64
330
1F
100
AcDbEntity
  8
0
  6
Continuous
 62
     7
370
    15
100
AcDbLine
 10
168.6167520515
 20
410.3762392475
 30
0.0
 11
168.9476319668
 21
410.5597233628
 31
0.0
  0
SPLINE
  5
65
330
1F
100
AcDbEntity
  8
0
  6
Continuous
 62
     7
370
    15
100
AcDbSpline
210
0.0
220
0.0
230
1.0
 70
     8
 71
     3
 72
    10
 73
     6
 74
     0
 42
0.00000001
 43
0.00000001
 12
1.0
 22
0.0
 32
0.0
 13
1.0
 23
0.0
 33
0.0
 40
0.0
 40
0.0
 40
0.0
 40
0.0
 40
0.0736621339880151
 40
0.9046697426316096
 40
1.0
 40
1.0
 40
1.0
 40
1.0
 10
171.4005142672708
 20
434.0917345696671
 30
0.0
 10
171.4366276352447
 20
434.0900772168702
 30
0.0
 10
171.8801482005848
 20
434.0697227029964
 30
0.0
 10
172.3882983562201
 20
434.0556322532117
 30
0.0
 10
172.8372060562174
 20
434.0173281474918
 30
0.0
 10
172.8834035486719
 20
434.0133862377518
 30
0.0
  0
SPLINE
  5
66
330
1F
100
AcDbEntity
  8
0
  6
Continuous
 62
     7
370
    15
100
AcDbSpline
210
0.0
220
0.0
230
1.0
 70
     8
 71
     3
 72
    19
 73
    15
 74
     0
 42
0.00000001
 43
0.00000001
 12
1.0
 22
0.0
 32
0.0
 13
1.0
 23
0.0
 33
0.0
 40
0.0
 40
0.0
 40
0.0
 40
0.0
 40
0.0418585845302059
 40
0.1417447497992779
 40
0.2504971594280948
 40
0.3683890786815541
 40
0.4895472034334872
 40
0.6086655564782543
 40
0.7276699467886859
 40
0.8056815738524887
 40
0.8727751878650074
 40
0.9285965620761474
 40
0.9659771773865441
 40
0.9999999999999999
 40
0.9999999999999999
 40
0.9999999999999999
 40
0.9999999999999999
 10
144.9731340796403
 20
434.1121644794916
 30
0.0
 10
145.3045544574817
 20
434.1274506102025
 30
0.0
 10
146.4268355633232
 20
434.1792136785749
 30
0.0
 10
148.5511458198994
 20
434.2599782313755
 30
0.0
 10
151.4904708577765
 20
434.3693864335546
 30
0.0
 10
154.655550117701
 20
434.488582899016
 30
0.0
 10
157.9324898854389
 20
434.5270211410606
 30
0.0
 10
161.2172546377872
 20
434.4882609127533
 30
0.0
 10
164.0944502444208
 20
434.3929359147697
 30
0.0
 10
166.4706230807691
 20
434.2946053229829
 30
0.0
 10
168.247639423005
 20
434.2251600476694
 30
0.0
 10
169.5953587800594
 20
434.1708507136577
 30
0.0
 10
170.6005767203229
 20
434.1285583561486
 30
0.0
 10
171.1423610033407
 20
434.1036182232182
 30
0.0
 10
171.4005142672708
 20
434.0917345696671
 30
0.0
  0
LINE
  5
67
330
1F
100
AcDbEntity
  8
0
  6
Continuous
 62
     7
370
    15
100
AcDbLine
 10
134.9476319668
 20
481.0999152542
 30
0.0
 11
134.9476319668
 21
447.7997717924
 31
0.0
  0
LINE
  5
68
330
1F
100
AcDbEntity
  8
0
  6
Continuous
 62
     7
370
    15
100
AcDbLine
 10
180.9476319668
 20
447.7997956212
 30
0.0
 11
180.9476319668
 21
481.0999152542
 31
0.0
  0
ARC
  5
69
330
1F
100
AcDbEntity
  8
0
  6
Continuous
 62
     7
370
    15
100
AcDbCircle
 10
136.4476319668
 20
481.0999152542
 30
0.0
 40
1.5
100
AcDbArc
 50
90.0
 51
180.0
  0
ARC
  5
6A
330
1F
100
AcDbEntity
  8
0
  6
Continuous
 62
     7
370
    15
100
AcDbCircle
 10
179.4476319668
 20
481.0999152542
 30
0.0
 40
1.5
100
AcDbArc
 50
0.0
 51
90.0
  0
LINE
  5
6B
330
1F
100
AcDbEntity
  8
0
  6
Continuous
 62
     7
370
    15
100
AcDbLine
 10
135.4476319668
 20
439.9999152542
 30
0.0
 11
135.4476319668
 21
290.5499152542
 31
0.0
  0
LINE
  5
6C
330
1F
100
AcDbEntity
  8
0
  6
Continuous
 62
     7
370
    15
100
AcDbLine
 10
180.4476319668
 20
290.5499152542
 30
0.0
 11
180.4476319668
 21
439.9999152542
 31
0.0
  0
LINE
  5
6D
330
1F
100
AcDbEntity
  8
0
  6
Continuous
 62
     7
370
    15
100
AcDbLine
 10
135.9476319668
 20
441.9999152542
 30
0.0
 11
135.9476319668
 21
439.9999152542
 31
0.0
  0
LINE
  5
6E
330
1F
100
AcDbEntity
  8
0
  6
Continuous
 62
     7
370
    15
100
AcDbLine
 10
179.9476319668
 20
439.9999152542
 30
0.0
 11
179.9476319668
 21
441.9999152542
 31
0.0
  0
ARC
  5
6F
330
1F
100
AcDbEntity
  8
0
  6
Continuous
 62
     7
370
    15
100
AcDbCircle
 10
157.9477546317
 20
442.0733811593
 30
0.0
 40
22.00000000000002
100
AcDbArc
 50
165.4511058388
 51
180.191817975
  0
ARC
  5
70
330
1F
100
AcDbEntity
  8
0
  6
Continuous
 62
     7
370
    15
100
AcDbCircle
 10
157.9477546317
 20
442.0733811593
 30
0.0
 40
22.0
100
AcDbArc
 50
0.0
 51
14.5488941612
  0
SPLINE
  5
71
330
1F
100
AcDbEntity
  8
0
  6
Continuous
 62
     7
370
    15
100
AcDbSpline
210
0.0
220
0.0
230
1.0
 70
     8
 71
     3
 72
     8
 73
     4
 74
     0
 42
0.00000001
 43
0.00000001
 12
1.0
 22
0.0
 32
0.0
 13
1.0
 23
0.0
 33
0.0
 40
0.0945042821237992
 40
0.0945042821237992
 40
0.0945042821237992
 40
0.0945042821237992
 40
0.8991156930500583
 40
0.8991156930500583
 40
0.8991156930500583
 40
0.8991156930500583
 10
140.2348809256342
 20
417.0240430964843
 30
0.0
 10
140.0464693874136
 20
422.049272417227
 30
0.0
 10
140.0476716982779
 20
427.0699949742469
 30
0.0
 10
140.238487303241
 20
432.0953196281446
 30
0.0
  0
SPLINE
  5
72
330
1F
100
AcDbEntity
  8
0
  6
Continuous
 62
     7
370
    15
100
AcDbSpline
210
0.0
220
0.0
230
1.0
 70
     8
 71
     3
 72
     8
 73
     4
 74
     0
 42
0.00000001
 43
0.00000001
 12
1.0
 22
0.0
 32
0.0
 13
1.0
 23
0.0
 33
0.0
 40
0.0945042821237991
 40
0.0945042821237991
 40
0.0945042821237991
 40
0.0945042821237991
 40
0.8991156930500586
 40
0.8991156930500586
 40
0.8991156930500586
 40
0.8991156930500586
 10
175.6567766303584
 20
432.0953196281446
 30
0.0
 10
175.8475922353215
 20
427.0699949742469
 30
0.0
 10
175.8487945461858
 20
422.049272417227
 30
0.0
 10
175.6603830079652
 20
417.0240430964843
 30
0.0
  0
LWPOLYLINE
  5
73
330
1F
100
AcDbEntity
  8
0
  6
Continuous
 62
     7
370
    15
100
AcDbPolyline
 90
        9
 70
   128
 43
0.0
 10
157.9481647057
 20
415.987829262
 10
157.9481639385
 20
416.0149008699
 10
157.9481631989
 20
416.0914461546
 10
157.9481625136
 20
416.2147067268
 10
157.9481619074
 20
416.3802407633
 10
157.9481614019
 20
416.5820830725
 10
157.9481610155
 20
416.8129600563
 10
157.9481607621
 20
417.064551822
 10
157.9481606508
 20
417.3277919978
  0
SPLINE
  5
74
330
1F
100
AcDbEntity
  8
0
  6
Continuous
 62
     7
370
    15
100
AcDbSpline
210
0.0
220
0.0
230
1.0
 70
     8
 71
     3
 72
    14
 73
    10
 74
     0
 42
0.00000001
 43
0.00000001
 12
1.0
 22
0.0
 32
0.0
 13
1.0
 23
0.0
 33
0.0
 40
0.0
 40
0.0
 40
0.0
 40
0.0
 40
0.125
 40
0.125
 40
0.2500000000000001
 40
0.2500000000000001
 40
0.5000000000000001
 40
0.5000000000000001
 40
1.0
 40
1.0
 40
1.0
 40
1.0
 10
148.3226934521266
 20
415.9878325540315
 30
0.0
 10
148.723755265994
 20
415.9879053265892
 30
0.0
 10
149.1248160534142
 20
415.9878318267549
 30
0.0
 10
149.9269384742353
 20
415.9878053823539
 30
0.0
 10
150.3279999114236
 20
415.9878244768236
 30
0.0
 10
151.5311840703239
 20
415.9878600049044
 30
0.0
 10
152.3333067254968
 20
415.9878669564447
 30
0.0
 10
154.7396745272603
 20
415.9878644754785
 30
0.0
 10
156.3439194927087
 20
415.9878292295219
 30
0.0
 10
157.9481647057189
 20
415.9878292620003
 30
0.0
  0
SPLINE
  5
75
330
1F
100
AcDbEntity
  8
0
  6
Continuous
 62
     7
370
    15
100
AcDbSpline
210
0.0
220
0.0
230
1.0
 70
     8
 71
     3
 72
    20
 73
    16
 74
     0
 42
0.00000001
 43
0.00000001
 12
1.0
 22
0.0
 32
0.0
 13
1.0
 23
0.0
 33
0.0
 40
0.0
 40
0.0
 40
0.0
 40
0.0
 40
0.5000000000000007
 40
0.5000000000000007
 40
0.6250000000000009
 40
0.6250000000000009
 40
0.6875000000000007
 40
0.6875000000000007
 40
0.7500000000000006
 40
0.7500000000000006
 40
0.8125000000000004
 40
0.8125000000000004
 40
0.8750000000000002
 40
0.8750000000000002
 40
1.0
 40
1.0
 40
1.0
 40
1.0
 10
157.9490274952312
 20
433.1880769379141
 30
0.0
 10
159.9922440704662
 20
433.1880353192364
 30
0.0
 10
162.0308964377287
 20
433.187804360995
 30
0.0
 10
164.5774610518625
 20
433.1815242324681
 30
0.0
 10
165.0830606659497
 20
433.1799911960015
 30
0.0
 10
165.8553976475594
 20
433.1764723140669
 30
0.0
 10
166.1160518418091
 20
433.1750237694897
 30
0.0
 10
166.6430937595616
 20
433.1707593193212
 30
0.0
 10
166.9040202697322
 20
433.1678444882539
 30
0.0
 10
167.3927952871274
 20
433.1619075694135
 30
0.0
 10
167.6225236867491
 20
433.1589169727574
 30
0.0
 10
168.06658745774
 20
433.1533978453377
 30
0.0
 10
168.2826279907057
 20
433.1507660102941
 30
0.0
 10
168.9043989473116
 20
433.1432050386879
 30
0.0
 10
169.2904573141113
 20
433.1387756288323
 30
0.0
 10
169.6822827220093
 20
433.132354607137
 30
0.0
  0
SPLINE
  5
76
330
1F
100
AcDbEntity
  8
0
  6
Continuous
 62
     7
370
    15
100
AcDbSpline
210
0.0
220
0.0
230
1.0
 70
     8
 71
     3
 72
    20
 73
    16
 74
     0
 42
0.00000001
 43
0.00000001
 12
1.0
 22
0.0
 32
0.0
 13
1.0
 23
0.0
 33
0.0
 40
0.0
 40
0.0
 40
0.0
 40
0.0
 40
0.1250000000000013
 40
0.1250000000000013
 40
0.1875000000000013
 40
0.1875000000000013
 40
0.2500000000000013
 40
0.2500000000000013
 40
0.3125000000000012
 40
0.3125000000000012
 40
0.3750000000000012
 40
0.3750000000000012
 40
0.500000000000001
 40
0.500000000000001
 40
1.0
 40
1.0
 40
1.0
 40
1.0
 10
146.2129842163937
 20
433.1323547628691
 30
0.0
 10
146.6047891155745
 20
433.1387677441508
 30
0.0
 10
146.9905970567172
 20
433.1431641131765
 30
0.0
 10
147.6122993639727
 20
433.150775945569
 30
0.0
 10
147.8283371988746
 20
433.1534432580107
 30
0.0
 10
148.2725728571001
 20
433.1590569724304
 30
0.0
 10
148.5021919087356
 20
433.1620959355368
 30
0.0
 10
148.9908832991066
 20
433.1680658433963
 30
0.0
 10
149.252210796079
 20
433.1709712691872
 30
0.0
 10
149.7791033977191
 20
433.1752185195726
 30
0.0
 10
150.0397860093305
 20
433.1766617108432
 30
0.0
 10
150.8122676198218
 20
433.1801726872271
 30
0.0
 10
151.3176446572008
 20
433.1817064343521
 30
0.0
 10
153.8645130141955
 20
433.1879502183609
 30
0.0
 10
155.9029098439524
 20
433.1881192594892
 30
0.0
 10
157.9462979035348
 20
433.1880769939435
 30
0.0
  0
SPLINE
  5
77
330
1F
100
AcDbEntity
  8
0
  6
Continuous
 62
     7
370
    15
100
AcDbSpline
210
0.0
220
0.0
230
1.0
 70
     8
 71
     3
 72
    14
 73
    10
 74
     0
 42
0.00000001
 43
0.00000001
 12
1.0
 22
0.0
 32
0.0
 13
1.0
 23
0.0
 33
0.0
 40
0.0
 40
0.0
 40
0.0
 40
0.0
 40
0.5
 40
0.5
 40
0.7500000000000001
 40
0.7500000000000001
 40
0.875
 40
0.875
 40
1.0
 40
1.0
 40
1.0
 40
1.0
 10
157.9481647057189
 20
415.9878292619788
 30
0.0
 10
159.5521318880895
 20
415.9878292295059
 30
0.0
 10
161.156098814611
 20
415.9878644791133
 30
0.0
 10
163.5620495698598
 20
415.9878669549848
 30
0.0
 10
164.3640332113353
 20
415.9878600036097
 30
0.0
 10
165.5670088554959
 20
415.987824485694
 30
0.0
 10
165.968000789483
 20
415.9878053927531
 30
0.0
 10
166.7699841891273
 20
415.9878317903857
 30
0.0
 10
167.17097545187
 20
415.9879052632717
 30
0.0
 10
167.571967773865
 20
415.9878326632723
 30
0.0
  0
SPLINE
  5
78
330
1F
100
AcDbEntity
  8
0
  6
Continuous
 62
     7
370
    15
100
AcDbSpline
210
0.0
220
0.0
230
1.0
 70
     8
 71
     3
 72
    18
 73
    14
 74
     0
 42
0.00000001
 43
0.00000001
 12
1.0
 22
0.0
 32
0.0
 13
1.0
 23
0.0
 33
0.0
 40
0.0
 40
0.0
 40
0.0
 40
0.0
 40
0.0567084669097962
 40
0.1172714360956142
 40
0.1816663594242849
 40
0.2498596922748375
 40
0.3621014054951411
 40
0.4994904410009816
 40
0.6248823732680836
 40
0.6947925898251265
 40
0.7497973743765778
 40
0.8852015984355243
 40
1.0
 40
1.0
 40
1.0
 40
1.0
 10
175.4249319198511
 20
416.1713887873965
 30
0.0
 10
175.4022871198814
 20
416.13229842669
 30
0.0
 10
175.3554583417948
 20
416.0514607143102
 30
0.0
 10
175.2743728228387
 20
415.9366449961319
 30
0.0
 10
175.1820309763912
 20
415.8230943138428
 30
0.0
 10
175.0569245258889
 20
415.6916329771701
 30
0.0
 10
174.8829738453846
 20
415.5425138870398
 30
0.0
 10
174.6618452790735
 20
415.4000118579654
 30
0.0
 10
174.4557435862752
 20
415.3045746557513
 30
0.0
 10
174.2965184672457
 20
415.2494272688855
 30
0.0
 10
174.1289420597171
 20
415.2034108657805
 30
0.0
 10
173.9290738515921
 20
415.1671982744739
 30
0.0
 10
173.7642341524872
 20
415.1637971382639
 30
0.0
 10
173.6886021165544
 20
415.1622366230637
 30
0.0
  0
SPLINE
  5
79
330
1F
100
AcDbEntity
  8
0
  6
Continuous
 62
     7
370
    15
100
AcDbSpline
210
0.0
220
0.0
230
1.0
 70
     8
 71
     3
 72
    40
 73
    36
 74
     0
 42
0.00000001
 43
0.00000001
 12
1.0
 22
0.0
 32
0.0
 13
1.0
 23
0.0
 33
0.0
 40
0.0
 40
0.0
 40
0.0
 40
0.0
 40
0.499999999999991
 40
0.499999999999991
 40
0.7499999999999865
 40
0.7499999999999865
 40
0.8124999999999851
 40
0.8124999999999851
 40
0.8437499999999845
 40
0.8437499999999845
 40
0.8749999999999838
 40
0.8749999999999838
 40
0.8906249999999831
 40
0.8906249999999831
 40
0.898437499999983
 40
0.898437499999983
 40
0.9023437499999835
 40
0.9023437499999835
 40
0.9062499999999838
 40
0.9062499999999838
 40
0.9140624999999851
 40
0.9140624999999851
 40
0.9218749999999865
 40
0.9218749999999865
 40
0.9374999999999891
 40
0.9374999999999891
 40
0.9531249999999919
 40
0.9531249999999919
 40
0.9687499999999946
 40
0.9687499999999946
 40
0.9843749999999973
 40
0.9843749999999973
 40
0.9921874999999987
 40
0.9921874999999987
 40
1.0
 40
1.0
 40
1.0
 40
1.0
 10
173.6886021217777
 20
415.1622366063654
 30
0.0
 10
173.6412425412313
 20
415.3060347653413
 30
0.0
 10
173.5894970305674
 20
415.4498330116423
 30
0.0
 10
173.463649927813
 20
415.6655304622376
 30
0.0
 10
173.4138276095562
 20
415.7374311243558
 30
0.0
 10
173.3361318869255
 20
415.8273060126963
 30
0.0
 10
173.3194331713697
 20
415.8452785069813
 30
0.0
 10
173.2945728260994
 20
415.8722468374733
 30
0.0
 10
173.2872153613846
 20
415.8812457177896
 30
0.0
 10
173.2735213205275
 20
415.8992259758327
 30
0.0
 10
173.2672417993526
 20
415.9081978958346
 30
0.0
 10
173.2460619404992
 20
415.9215996987629
 30
0.0
 10
173.2350908022834
 20
415.9260617563276
 30
0.0
 10
173.2243095160351
 20
415.9328577343069
 30
0.0
 10
173.2216895400469
 20
415.9351415183941
 30
0.0
 10
173.2213859900334
 20
415.9385921565604
 30
0.0
 10
173.2221147882439
 20
415.9397486329997
 30
0.0
 10
173.2236345363401
 20
415.9420057408828
 30
0.0
 10
173.224343844622
 20
415.9431080078566
 30
0.0
 10
173.2230375896269
 20
415.9463431260452
 30
0.0
 10
173.2176196895797
 20
415.9483989706945
 30
0.0
 10
173.1830051447562
 20
415.9522576294082
 30
0.0
 10
173.1541360844546
 20
415.9540468076244
 30
0.0
 10
173.0110408354328
 20
415.9592955529152
 30
0.0
 10
172.8411714135496
 20
415.9627469020191
 30
0.0
 10
172.3721574639675
 20
415.9692453822125
 30
0.0
 10
172.0732252046224
 20
415.9722926251672
 30
0.0
 10
171.3753309320304
 20
415.9776744779461
 30
0.0
 10
170.9748572161231
 20
415.9800197764777
 30
0.0
 10
170.096844557631
 20
415.9838545549512
 30
0.0
 10
169.6196612376141
 20
415.9853459422818
 30
0.0
 10
168.8886838475205
 20
415.9868041378196
 30
0.0
 10
168.6426800955347
 20
415.9871604659079
 30
0.0
 10
168.1263790730478
 20
415.9876466730101
 30
0.0
 10
167.8553291245468
 20
415.987781360507
 30
0.0
 10
167.571967773865
 20
415.9878326632723
 30
0.0
  0
SPLINE
  5
7A
330
1F
100
AcDbEntity
  8
0
  6
Continuous
 62
     7
370
    15
100
AcDbSpline
210
0.0
220
0.0
230
1.0
 70
     8
 71
     3
 72
    17
 73
    13
 74
     0
 42
0.00000001
 43
0.00000001
 12
1.0
 22
0.0
 32
0.0
 13
1.0
 23
0.0
 33
0.0
 40
0.0
 40
0.0
 40
0.0
 40
0.0
 40
0.0822252725138758
 40
0.1643051375896292
 40
0.2466854385031299
 40
0.3298155468856437
 40
0.4141426935339107
 40
0.5001064176084413
 40
0.6245654956123443
 40
0.7503230515125328
 40
0.87557113240483
 40
1.0
 40
1.0
 40
1.0
 40
1.0
 10
175.6603713806933
 20
417.023763804259
 30
0.0
 10
175.6589191493946
 20
416.9949921709372
 30
0.0
 10
175.6560172549279
 20
416.9374997841431
 30
0.0
 10
175.6468369878017
 20
416.8521556657498
 30
0.0
 10
175.6343042798373
 20
416.7682054113111
 30
0.0
 10
175.6182440184417
 20
416.6859626989748
 30
0.0
 10
175.5989561033483
 20
416.6056975516237
 30
0.0
 10
175.5735050661176
 20
416.5166661136432
 30
0.0
 10
175.5410186025624
 20
416.4217023537767
 30
0.0
 10
175.5021713886431
 20
416.3262401309827
 30
0.0
 10
175.462291331
 20
416.2408836820994
 30
0.0
 10
175.4373577871417
 20
416.1945030258814
 30
0.0
 10
175.4249319198511
 20
416.1713887873965
 30
0.0
  0
SPLINE
  5
7B
330
1F
100
AcDbEntity
  8
0
  6
Continuous
 62
     7
370
    15
100
AcDbSpline
210
0.0
220
0.0
230
1.0
 70
     8
 71
     3
 72
    42
 73
    38
 74
     0
 42
0.00000001
 43
0.00000001
 12
1.0
 22
0.0
 32
0.0
 13
1.0
 23
0.0
 33
0.0
 40
0.0
 40
0.0
 40
0.0
 40
0.0
 40
0.0078124999999988
 40
0.0078124999999988
 40
0.0156249999999977
 40
0.0156249999999977
 40
0.0312499999999953
 40
0.0312499999999953
 40
0.0468749999999931
 40
0.0468749999999931
 40
0.0624999999999908
 40
0.0624999999999908
 40
0.0781249999999885
 40
0.0781249999999885
 40
0.0820312499999879
 40
0.0820312499999879
 40
0.0859374999999872
 40
0.0859374999999872
 40
0.0937499999999868
 40
0.0937499999999868
 40
0.0976562499999867
 40
0.0976562499999867
 40
0.1015624999999865
 40
0.1015624999999865
 40
0.1093749999999868
 40
0.1093749999999868
 40
0.1249999999999867
 40
0.1249999999999867
 40
0.156249999999987
 40
0.156249999999987
 40
0.1874999999999875
 40
0.1874999999999875
 40
0.2499999999999882
 40
0.2499999999999882
 40
0.4999999999999921
 40
0.4999999999999921
 40
1.0
 40
1.0
 40
1.0
 40
1.0
 10
148.3226934521268
 20
415.9878325540314
 30
0.0
 10
148.0393582996612
 20
415.9877811429917
 30
0.0
 10
147.7683244876967
 20
415.987646313568
 30
0.0
 10
147.2520613828353
 20
415.9871598054899
 30
0.0
 10
147.0060665436457
 20
415.9868033013687
 30
0.0
 10
146.2751040982376
 20
415.9853445763384
 30
0.0
 10
145.7979421437173
 20
415.9838528727217
 30
0.0
 10
144.9199844534206
 20
415.9800175322576
 30
0.0
 10
144.519544552454
 20
415.9776719826128
 30
0.0
 10
143.8217222668655
 20
415.9722896924106
 30
0.0
 10
143.5228300142328
 20
415.9692422787973
 30
0.0
 10
143.0539033532111
 20
415.9627435668423
 30
0.0
 10
142.8840809568932
 20
415.9592921482999
 30
0.0
 10
142.7648956667028
 20
415.9549181860339
 30
0.0
 10
142.7458258359229
 20
415.9540419479495
 30
0.0
 10
142.7151400411168
 20
415.9522241995329
 30
0.0
 10
142.7035641053146
 20
415.9512893349396
 30
0.0
 10
142.6776250643362
 20
415.9483950742241
 30
0.0
 10
142.6722184309089
 20
415.9463391184045
 30
0.0
 10
142.6709207378139
 20
415.9431038198105
 30
0.0
 10
142.671631696665
 20
415.9420014937348
 30
0.0
 10
142.6731513910738
 20
415.9397442833869
 30
0.0
 10
142.6738783605486
 20
415.9385877702047
 30
0.0
 10
142.6735702298231
 20
415.9351371837633
 30
0.0
 10
142.6709480384391
 20
415.9328534326804
 30
0.0
 10
142.6601631545888
 20
415.9260575531191
 30
0.0
 10
142.6491933586671
 20
415.921595548201
 30
0.0
 10
142.6280172405309
 20
415.9081938023241
 30
0.0
 10
142.6217386933248
 20
415.8992219228272
 30
0.0
 10
142.6080444537116
 20
415.8812417563241
 30
0.0
 10
142.6006864437117
 20
415.8722429267868
 30
0.0
 10
142.5758259011347
 20
415.8452747473313
 30
0.0
 10
142.5591274417559
 20
415.8273023511582
 30
0.0
 10
142.4814323499009
 20
415.7374279582473
 30
0.0
 10
142.4316104786099
 20
415.665527691621
 30
0.0
 10
142.3057647271111
 20
415.4498314285727
 30
0.0
 10
142.2540201420487
 20
415.3060339737439
 30
0.0
 10
142.2066614984475
 20
415.1622366063662
 30
0.0
  0
SPLINE
  5
7C
330
1F
100
AcDbEntity
  8
0
  6
Continuous
 62
     7
370
    15
100
AcDbSpline
210
0.0
220
0.0
230
1.0
 70
     8
 71
     3
 72
    19
 73
    15
 74
     0
 42
0.00000001
 43
0.00000001
 12
1.0
 22
0.0
 32
0.0
 13
1.0
 23
0.0
 33
0.0
 40
0.0
 40
0.0
 40
0.0
 40
0.0
 40
0.0548494447398305
 40
0.1148075243975592
 40
0.179920179266976
 40
0.2502279606962119
 40
0.3052319739709123
 40
0.3751411978622238
 40
0.5005313571396667
 40
0.6379184985673192
 40
0.7501586558102886
 40
0.840234168306087
 40
0.923536808307797
 40
0.9999999999999999
 40
0.9999999999999999
 40
0.9999999999999999
 40
0.9999999999999999
 10
142.2066615038374
 20
415.1622366230637
 30
0.0
 10
142.1705250871082
 20
415.1623468775439
 30
0.0
 10
142.0948865357072
 20
415.1625776555217
 30
0.0
 10
141.9765238443382
 20
415.171584928955
 30
0.0
 10
141.8483955400831
 20
415.1890115569941
 30
0.0
 10
141.7244176790436
 20
415.2148195670696
 30
0.0
 10
141.5987450726319
 20
415.2494574171233
 30
0.0
 10
141.4395212355978
 20
415.3045588873977
 30
0.0
 10
141.2334110563255
 20
415.4000091260261
 30
0.0
 10
141.0123178284211
 20
415.5425457292811
 30
0.0
 10
140.8262861859388
 20
415.7018099734092
 30
0.0
 10
140.6818854956106
 20
415.8578705974473
 30
0.0
 10
140.5656095375203
 20
416.0096166311438
 30
0.0
 10
140.5011716276777
 20
416.11902597771
 30
0.0
 10
140.4703319406163
 20
416.1713887873965
 30
0.0
  0
SPLINE
  5
7D
330
1F
100
AcDbEntity
  8
0
  6
Continuous
 62
     7
370
    15
100
AcDbSpline
210
0.0
220
0.0
230
1.0
 70
     8
 71
     3
 72
    15
 73
    11
 74
     0
 42
0.00000001
 43
0.00000001
 12
1.0
 22
0.0
 32
0.0
 13
1.0
 23
0.0
 33
0.0
 40
0.0
 40
0.0
 40
0.0
 40
0.0
 40
0.0832177778743716
 40
0.1665780837892969
 40
0.2505230588079055
 40
0.3762795086886982
 40
0.5007342991424426
 40
0.6707477746431708
 40
0.8359781373461529
 40
1.0
 40
1.0
 40
1.0
 40
1.0
 10
140.4703319406163
 20
416.1713887873965
 30
0.0
 10
140.4621038498236
 20
416.1865612865054
 30
0.0
 10
140.445633575893
 20
416.216932270836
 30
0.0
 10
140.4194838671658
 20
416.269672015219
 30
0.0
 10
140.3886650929673
 20
416.3370396929461
 30
0.0
 10
140.3540592430188
 20
416.4222417367228
 30
0.0
 10
140.3134742263219
 20
416.5408105781454
 30
0.0
 10
140.2758796539071
 20
416.6835530611917
 30
0.0
 10
140.2458796965638
 20
416.8511203265802
 30
0.0
 10
140.2385459658972
 20
416.9663568483573
 30
0.0
 10
140.2348925595676
 20
417.023763624962
 30
0.0
  0
SPLINE
  5
7E
330
1F
100
AcDbEntity
  8
0
  6
Continuous
 62
     7
370
    15
100
AcDbSpline
210
0.0
220
0.0
230
1.0
 70
     8
 71
     3
 72
    41
 73
    37
 74
     0
 42
0.00000001
 43
0.00000001
 12
1.0
 22
0.0
 32
0.0
 13
1.0
 23
0.0
 33
0.0
 40
0.0
 40
0.0
 40
0.0
 40
0.0
 40
0.5000000000000039
 40
0.5000000000000039
 40
0.7500000000000057
 40
0.7500000000000057
 40
0.812500000000006
 40
0.812500000000006
 40
0.8750000000000062
 40
0.8750000000000062
 40
0.9062500000000057
 40
0.9062500000000057
 40
0.9140625000000052
 40
0.9140625000000052
 40
0.9218750000000048
 40
0.9296875000000042
 40
0.9296875000000042
 40
0.9375000000000038
 40
0.9375000000000038
 40
0.9414062500000036
 40
0.9414062500000036
 40
0.9453125000000033
 40
0.9453125000000033
 40
0.9531250000000029
 40
0.9531250000000029
 40
0.9609375000000024
 40
0.9609375000000024
 40
0.9687500000000019
 40
0.9687500000000019
 40
0.9765625000000014
 40
0.9765625000000014
 40
0.984375000000001
 40
0.984375000000001
 40
0.9921875000000004
 40
0.9921875000000004
 40
1.0
 40
1.0
 40
1.0
 40
1.0
 10
142.0846959928617
 20
433.9678842477841
 30
0.0
 10
142.1379418443209
 20
433.815191855827
 30
0.0
 10
142.1944825370351
 20
433.662880672679
 30
0.0
 10
142.326385340403
 20
433.4375218041042
 30
0.0
 10
142.3768739772817
 20
433.3628943912772
 30
0.0
 10
142.4581923048027
 20
433.2705799945809
 30
0.0
 10
142.4754299364801
 20
433.252167283092
 30
0.0
 10
142.5098701413692
 20
433.215414577729
 30
0.0
 10
142.5261914485218
 20
433.1970586815009
 30
0.0
 10
142.5520638709947
 20
433.1696157051432
 30
0.0
 10
142.5632926796001
 20
433.1605140665719
 30
0.0
 10
142.5802759759232
 20
433.1491244305979
 30
0.0
 10
142.5837533309511
 20
433.1468446105827
 30
0.0
 10
142.5885036179593
 20
433.1422659328949
 30
0.0
 10
142.5894957866894
 20
433.1376625592919
 30
0.0
 10
142.5932678139066
 20
433.1331618151439
 30
0.0
 10
142.6035778178891
 20
433.1287883963664
 30
0.0
 10
142.6123523971258
 20
433.126718095786
 30
0.0
 10
142.6474014452757
 20
433.1240699955212
 30
0.0
 10
142.6627413292493
 20
433.1232641604564
 30
0.0
 10
142.7030798146971
 20
433.1217845590546
 30
0.0
 10
142.7278161963361
 20
433.1211067997776
 30
0.0
 10
142.8156949664436
 20
433.1191837645483
 30
0.0
 10
142.8925264666403
 20
433.1180130673529
 30
0.0
 10
143.081281288345
 20
433.1160255415454
 30
0.0
 10
143.1938558059323
 20
433.1151985995347
 30
0.0
 10
143.450635662452
 20
433.1139620172227
 30
0.0
 10
143.593787194589
 20
433.1135570745375
 30
0.0
 10
143.9071536008259
 20
433.1132900765048
 30
0.0
 10
144.0776748298217
 20
433.1134245028895
 30
0.0
 10
144.4461806347212
 20
433.1144807470827
 30
0.0
 10
144.6434847086469
 20
433.1154130875578
 30
0.0
 10
145.0562396026627
 20
433.1182220638739
 30
0.0
 10
145.2707433527301
 20
433.1200717077814
 30
0.0
 10
145.7225940910362
 20
433.1250188185247
 30
0.0
 10
145.9640243064225
 20
433.1281905198999
 30
0.0
 10
146.2126244515647
 20
433.1323226669395
 30
0.0
  0
SPLINE
  5
7F
330
1F
100
AcDbEntity
  8
0
  6
Continuous
 62
     7
370
    15
100
AcDbSpline
210
0.0
220
0.0
230
1.0
 70
     8
 71
     3
 72
    21
 73
    17
 74
     0
 42
0.00000001
 43
0.00000001
 12
1.0
 22
0.0
 32
0.0
 13
1.0
 23
0.0
 33
0.0
 40
0.0
 40
0.0
 40
0.0
 40
0.0
 40
0.0309085280799466
 40
0.0622001789959344
 40
0.0939128063959968
 40
0.1260800090202496
 40
0.1870918231991353
 40
0.2515521140832264
 40
0.3763645087588514
 40
0.5015814384681714
 40
0.6261044964851069
 40
0.751253028302861
 40
0.8247751230326258
 40
0.8753089412859335
 40
0.9414255341036061
 40
1.0
 40
1.0
 40
1.0
 40
1.0
 10
140.2384899569163
 20
432.0953609237681
 30
0.0
 10
140.2403717617358
 20
432.1302384966701
 30
0.0
 10
140.2441586970538
 20
432.2004259631142
 30
0.0
 10
140.257059034943
 20
432.3052275619227
 30
0.0
 10
140.275336481698
 20
432.4098180324199
 30
0.0
 10
140.3066059659592
 20
432.5441447498038
 30
0.0
 10
140.3584909830364
 20
432.707346970562
 30
0.0
 10
140.4640910126196
 20
432.9493227818296
 30
0.0
 10
140.6343288729139
 20
433.218012341538
 30
0.0
 10
140.87839839121
 20
433.478849861996
 30
0.0
 10
141.1527673716535
 20
433.6837549384403
 30
0.0
 10
141.4084828357483
 20
433.8137782163336
 30
0.0
 10
141.6144137160859
 20
433.8861621719118
 30
0.0
 10
141.7747224512594
 20
433.9277649896732
 30
0.0
 10
141.9250491044592
 20
433.9554602005543
 30
0.0
 10
142.03367036701
 20
433.9639134396845
 30
0.0
 10
142.0846959377648
 20
433.9678844057847
 30
0.0
  0
SPLINE
  5
80
330
1F
100
AcDbEntity
  8
0
  6
Continuous
 62
     7
370
    15
100
AcDbSpline
210
0.0
220
0.0
230
1.0
 70
     8
 71
     3
 72
    42
 73
    38
 74
     0
 42
0.00000001
 43
0.00000001
 12
1.0
 22
0.0
 32
0.0
 13
1.0
 23
0.0
 33
0.0
 40
0.0
 40
0.0
 40
0.0
 40
0.0
 40
0.0078124999999991
 40
0.0078124999999991
 40
0.0156249999999982
 40
0.0156249999999982
 40
0.0234374999999974
 40
0.0234374999999974
 40
0.0312499999999966
 40
0.0312499999999966
 40
0.0390624999999958
 40
0.0390624999999958
 40
0.0468749999999949
 40
0.0468749999999949
 40
0.0546874999999941
 40
0.0546874999999941
 40
0.0585937499999937
 40
0.0585937499999937
 40
0.0624999999999933
 40
0.0624999999999933
 40
0.0703124999999932
 40
0.0703124999999932
 40
0.0781249999999932
 40
0.0781249999999932
 40
0.0859374999999931
 40
0.0859374999999931
 40
0.0937499999999931
 40
0.0937499999999931
 40
0.1249999999999936
 40
0.1249999999999936
 40
0.1874999999999939
 40
0.1874999999999939
 40
0.2499999999999941
 40
0.2499999999999941
 40
0.499999999999996
 40
0.499999999999996
 40
1.0
 40
1.0
 40
1.0
 40
1.0
 10
169.6826436239731
 20
433.1323225980937
 30
0.0
 10
169.9290973541588
 20
433.1282261371678
 30
0.0
 10
170.1722714073921
 20
433.1250242216656
 30
0.0
 10
170.6263282992222
 20
433.1200515309603
 30
0.0
 10
170.8408733802382
 20
433.1182080739229
 30
0.0
 10
171.2517473405156
 20
433.1154145530666
 30
0.0
 10
171.4462404042793
 20
433.1144906123171
 30
0.0
 10
171.8131712857735
 20
433.1134328613732
 30
0.0
 10
171.9860876970475
 20
433.1132904545168
 30
0.0
 10
172.2998694736043
 20
433.1135535784199
 30
0.0
 10
172.4422320949766
 20
433.1139543737607
 30
0.0
 10
172.6970979571756
 20
433.1151720163399
 30
0.0
 10
172.8099533954989
 20
433.1159922835485
 30
0.0
 10
173.000442689714
 20
433.1179834407662
 30
0.0
 10
173.0778201075894
 20
433.119155627095
 30
0.0
 10
173.1658482312286
 20
433.1210675044959
 30
0.0
 10
173.1906023213057
 20
433.1217393875022
 30
0.0
 10
173.2310112820447
 20
433.1231984815027
 30
0.0
 10
173.2463994801521
 20
433.1239863411078
 30
0.0
 10
173.2819331546746
 20
433.1266048556146
 30
0.0
 10
173.2914148138101
 20
433.1286747684229
 30
0.0
 10
173.3016262780776
 20
433.1330384414096
 30
0.0
 10
173.3025954688809
 20
433.1352860761088
 30
0.0
 10
173.3046373987936
 20
433.1398407941052
 30
0.0
 10
173.3063718363524
 20
433.1421445021542
 30
0.0
 10
173.3115204426833
 20
433.1467248099578
 30
0.0
 10
173.3147962228987
 20
433.149004997295
 30
0.0
 10
173.3317647635103
 20
433.1603973050798
 30
0.0
 10
173.3430572392969
 20
433.1694998223048
 30
0.0
 10
173.3689609727908
 20
433.1969466501104
 30
0.0
 10
173.3852566809639
 20
433.2153053883436
 30
0.0
 10
173.4196991345052
 20
433.252063623211
 30
0.0
 10
173.4369421912869
 20
433.2704791102112
 30
0.0
 10
173.5182846125469
 20
433.3628072623383
 30
0.0
 10
173.5687815003382
 20
433.4374455140537
 30
0.0
 10
173.7007226973464
 20
433.6628372126874
 30
0.0
 10
173.7572894653133
 20
433.8151702851908
 30
0.0
 10
173.8105616563141
 20
433.9678845931372
 30
0.0
  0
SPLINE
  5
81
330
1F
100
AcDbEntity
  8
0
  6
Continuous
 62
     7
370
    15
100
AcDbSpline
210
0.0
220
0.0
230
1.0
 70
     8
 71
     3
 72
    20
 73
    16
 74
     0
 42
0.00000001
 43
0.00000001
 12
1.0
 22
0.0
 32
0.0
 13
1.0
 23
0.0
 33
0.0
 40
0.0
 40
0.0
 40
0.0
 40
0.0
 40
0.0383962759307793
 40
0.08015236194295
 40
0.125331903528256
 40
0.1759760548568939
 40
0.2505690708302162
 40
0.3747115360437653
 40
0.4996697678981514
 40
0.6242401664474505
 40
0.7494544882660693
 40
0.8139138864550427
 40
0.8749344973877631
 40
0.9382911477052105
 40
1.0
 40
1.0
 40
1.0
 40
1.0
 10
173.8105617114208
 20
433.9678847511103
 30
0.0
 10
173.8440379162513
 20
433.9655442338498
 30
0.0
 10
173.9139196123535
 20
433.9606583957822
 30
0.0
 10
174.0221707883171
 20
433.9457241622603
 30
0.0
 10
174.1398763200561
 20
433.9229368943282
 30
0.0
 10
174.283460296001
 20
433.8853445231924
 30
0.0
 10
174.4894475997551
 20
433.8126418634851
 30
0.0
 10
174.7453438663217
 20
433.6819182108443
 30
0.0
 10
175.018611610675
 20
433.4772679274847
 30
0.0
 10
175.2625372340301
 20
433.2159152862843
 30
0.0
 10
175.4323477340658
 20
432.9471572285331
 30
0.0
 10
175.5379060808641
 20
432.7045181693401
 30
0.0
 10
175.5994379689918
 20
432.5088935936171
 30
0.0
 10
175.6420892811309
 20
432.3059782728877
 30
0.0
 10
175.651922384898
 20
432.1649441149314
 30
0.0
 10
175.6567741588508
 20
432.0953561323138
 30
0.0
  0
SPLINE
  5
82
330
1F
100
AcDbEntity
  8
0
  6
Continuous
 62
     7
370
    15
100
AcDbSpline
210
0.0
220
0.0
230
1.0
 70
     8
 71
     3
 72
    62
 73
    58
 74
     0
 42
0.00000001
 43
0.00000001
 12
1.0
 22
0.0
 32
0.0
 13
1.0
 23
0.0
 33
0.0
 40
0.0
 40
0.0
 40
0.0
 40
0.0
 40
0.0257575985402581
 40
0.0363066146054984
 40
0.0468549151355695
 40
0.0895750959045199
 40
0.1003858834999751
 40
0.1111959087136893
 40
0.1594434728386527
 40
0.1744510649728611
 40
0.1844588729332707
 40
0.1944677382005562
 40
0.2244903022488726
 40
0.2294939651006358
 40
0.2664742562454751
 40
0.290455884239623
 40
0.2944530962359558
 40
0.3506249829103659
 40
0.3587712124313619
 40
0.361486967851453
 40
0.3940654940733735
 40
0.4219442980035581
 40
0.4265927876850492
 40
0.4312417754294529
 40
0.4801204397603677
 40
0.4880225886906031
 40
0.4939494821273229
 40
0.4961701854793297
 40
0.496415139097709
 40
0.4978848540812874
 40
0.522778921980418
 40
0.5476841946633998
 40
0.5626757479397555
 40
0.5664241656397009
 40
0.5776678126075996
 40
0.6164083566466371
 40
0.6306253525830092
 40
0.6391551272791158
 40
0.6618983877941378
 40
0.6961993725206488
 40
0.7030602865199574
 40
0.7167810311581609
 40
0.767363939368062
 40
0.7757942278262651
 40
0.7842251441108206
 40
0.8001938660941963
 40
0.8161614642390428
 40
0.8214837631558668
 40
0.8321282115944676
 40
0.8480952825425153
 40
0.8693832397868206
 40
0.9015802900613525
 40
0.9123141988685476
 40
0.9552503923147977
 40
0.9709163604235013
 40
0.9970360897917709
 40
1.0
 40
1.0
 40
1.0
 40
1.0
 10
169.6824629133584
 20
433.132328272547
 30
0.0
 10
169.5203057575389
 20
433.1550782821521
 30
0.0
 10
169.2917371915424
 20
433.187145550757
 30
0.0
 10
168.9953225625844
 20
433.2228889664318
 30
0.0
 10
168.5907605148248
 20
433.2692870309098
 30
0.0
 10
168.1807543456987
 20
433.3097014767072
 30
0.0
 10
167.7647292951914
 20
433.3451228353664
 30
0.0
 10
167.3108238070486
 20
433.3813621082999
 30
0.0
 10
166.8217220515881
 20
433.4135029659371
 30
0.0
 10
166.3287557268533
 20
433.4389146647331
 30
0.0
 10
166.090169291934
 20
433.4500524097585
 30
0.0
 10
165.7466758794287
 20
433.4650108896167
 30
0.0
 10
165.4326465518373
 20
433.4772540096293
 30
0.0
 10
164.921591670432
 20
433.4960430844314
 30
0.0
 10
164.4428653199894
 20
433.5124854995609
 30
0.0
 10
163.9542617511827
 20
433.5278870478496
 30
0.0
 10
163.3082279581706
 20
433.5473011739811
 30
0.0
 10
162.7608591928143
 20
433.562117655698
 30
0.0
 10
162.1911259294802
 20
433.5751290836874
 30
0.0
 10
161.8180358378493
 20
433.5833847061368
 30
0.0
 10
161.2566571379295
 20
433.5945537695786
 30
0.0
 10
160.6393906751537
 20
433.6041632105096
 30
0.0
 10
160.2741409512004
 20
433.6089082286503
 30
0.0
 10
159.6971074041623
 20
433.6159867123533
 30
0.0
 10
159.0440826875688
 20
433.621313904993
 30
0.0
 10
158.3610653758232
 20
433.6232908567495
 30
0.0
 10
158.1854194620269
 20
433.6235798485435
 30
0.0
 10
158.0934631346172
 20
433.623662356128
 30
0.0
 10
158.0503319387525
 20
433.6236912767461
 30
0.0
 10
157.7586672487194
 20
433.623840959267
 30
0.0
 10
157.1947313568072
 20
433.6227455391592
 30
0.0
 10
156.5036830219875
 20
433.6183163243319
 30
0.0
 10
156.0557382384118
 20
433.6139581751699
 30
0.0
 10
155.7540410601673
 20
433.6105720046629
 30
0.0
 10
155.2219699206852
 20
433.6039572536137
 30
0.0
 10
154.6196687411496
 20
433.5940778496637
 30
0.0
 10
154.074476416203
 20
433.5831884828908
 30
0.0
 10
153.6800482895012
 20
433.5747138393604
 30
0.0
 10
153.1283756804186
 20
433.5617221358125
 30
0.0
 10
152.6167904293783
 20
433.5478809743547
 30
0.0
 10
152.1906240498034
 20
433.5354268218298
 30
0.0
 10
151.6465028256828
 20
433.5189203311198
 30
0.0
 10
151.1131982871268
 20
433.5010967522698
 30
0.0
 10
150.6340001536421
 20
433.483576283821
 30
0.0
 10
150.40267044047
 20
433.4748579297533
 30
0.0
 10
150.1213160365107
 20
433.4637335095126
 30
0.0
 10
149.8649862977224
 20
433.4527524662799
 30
0.0
 10
149.6478259367617
 20
433.4427172262594
 30
0.0
 10
149.4313353666373
 20
433.4321111749172
 30
0.0
 10
149.1099633954987
 20
433.4145844522701
 30
0.0
 10
148.6496911923016
 20
433.3855549002064
 30
0.0
 10
148.2310425155993
 20
433.3538895489652
 30
0.0
 10
147.6761613149557
 20
433.3061281153927
 30
0.0
 10
147.2329773695518
 20
433.2618901000668
 30
0.0
 10
146.6966113680393
 20
433.1989863943996
 30
0.0
 10
146.4142366999307
 20
433.1615974288185
 30
0.0
 10
146.2314339930449
 20
433.1350354412694
 30
0.0
 10
146.2128045911915
 20
433.1323285123158
 30
0.0
  0
LINE
  5
83
330
1F
100
AcDbEntity
  8
0
  6
Continuous
 62
     7
370
    15
100
AcDbLine
 10
142.0847477017
 20
433.9678864118
 30
0.0
 11
144.97320216
 21
434.1097631387
 31
0.0
  0
ELLIPSE
  5
84
330
1F
100
AcDbEntity
  8
0
  6
Continuous
 62
     7
370
    15
100
AcDbEllipse
 10
157.9476319668
 20
415.898285728
 30
0.0
 11
12.00000000000003
 21
0.0
 31
0.0
210
0.0
220
0.0
230
1.0
 40
0.0070431304
 41
1.570796326794897
 42
3.141592653589776
  0
ELLIPSE
  5
85
330
1F
100
AcDbEntity
  8
0
  6
Continuous
 62
     7
370
    15
100
AcDbEllipse
 10
157.9476319668
 20
415.898285728
 30
0.0
 11
12.00000000000003
 21
0.0
 31
0.0
210
0.0
220
0.0
230
1.0
 40
0.0070431304
 41
0.0
 42
1.570796326794913
  0
SPLINE
  5
86
330
1F
100
AcDbEntity
  8
0
  6
Continuous
 62
     7
370
    15
100
AcDbSpline
210
0.0
220
0.0
230
1.0
 70
     8
 71
     3
 72
    19
 73
    15
 74
     0
 42
0.00000001
 43
0.00000001
 12
1.0
 22
0.0
 32
0.0
 13
1.0
 23
0.0
 33
0.0
 40
0.0
 40
0.0
 40
0.0
 40
0.0
 40
0.0690757110937336
 40
0.1400457559355383
 40
0.2132588495169252
 40
0.2890709337848353
 40
0.3679204354034413
 40
0.4504033010741381
 40
0.5102524143181554
 40
0.5205229625704257
 40
0.6108602213448228
 40
0.7074756245717412
 40
0.8437828720527726
 40
0.9999999999999999
 40
0.9999999999999999
 40
0.9999999999999999
 40
0.9999999999999999
 10
144.8715358528648
 20
415.1805056390143
 30
0.0
 10
144.7942169191878
 20
415.1802360790227
 30
0.0
 10
144.637458655777
 20
415.1796895666205
 30
0.0
 10
144.405692219569
 20
415.1787210817714
 30
0.0
 10
144.1726870036949
 20
415.1776661960682
 30
0.0
 10
143.9388970680292
 20
415.1765117504528
 30
0.0
 10
143.704190616042
 20
415.1752196705825
 30
0.0
 10
143.494170186772
 20
415.1739151157815
 30
0.0
 10
143.354877292406
 20
415.1729776282145
 30
0.0
 10
143.211448841499
 20
415.1719797810143
 30
0.0
 10
143.0404686911187
 20
415.1707352597812
 30
0.0
 10
142.7782712947499
 20
415.1685641329285
 30
0.0
 10
142.4871382959323
 20
415.1656129855259
 30
0.0
 10
142.3043286241485
 20
415.1634138708182
 30
0.0
 10
142.2067025653108
 20
415.1622394750669
 30
0.0
  0
SPLINE
  5
87
330
1F
100
AcDbEntity
  8
0
  6
Continuous
 62
     7
370
    15
100
AcDbSpline
210
0.0
220
0.0
230
1.0
 70
     8
 71
     3
 72
    21
 73
    17
 74
     0
 42
0.00000001
 43
0.00000001
 12
1.0
 22
0.0
 32
0.0
 13
1.0
 23
0.0
 33
0.0
 40
0.0
 40
0.0
 40
0.0
 40
0.0
 40
0.0641475679976302
 40
0.1260408265957298
 40
0.184868217108045
 40
0.2408920185709329
 40
0.2946202937536552
 40
0.3462049097070806
 40
0.3957845695076571
 40
0.5000328769327974
 40
0.5101688294029642
 40
0.5401940354020622
 40
0.6641547362954195
 40
0.7804671975628432
 40
0.8926628458545192
 40
1.0
 40
1.0
 40
1.0
 40
1.0
 10
173.6885616332707
 20
415.1622783724691
 30
0.0
 10
173.6496179228844
 20
415.1628422737077
 30
0.0
 10
173.5730990835737
 20
415.163950259255
 30
0.0
 10
173.451144152728
 20
415.1650040818247
 30
0.0
 10
173.3280767393487
 20
415.1663058629907
 30
0.0
 10
173.2042969285148
 20
415.1676970318564
 30
0.0
 10
173.0803325863932
 20
415.1688994042905
 30
0.0
 10
172.9563444512926
 20
415.1699880130374
 30
0.0
 10
172.7857693125876
 20
415.1713126966638
 30
0.0
 10
172.6423269177093
 20
415.1723117783358
 30
0.0
 10
172.5116716535758
 20
415.1731938191128
 30
0.0
 10
172.3614093952123
 20
415.1741930445921
 30
0.0
 10
172.1028875204053
 20
415.175793527894
 30
0.0
 10
171.7451363441288
 20
415.1775874600797
 30
0.0
 10
171.3883622757159
 20
415.1792083026078
 30
0.0
 10
171.1434588971696
 20
415.1800997365767
 30
0.0
 10
171.0237171938709
 20
415.1805355893707
 30
0.0
  0
LINE
  5
88
330
1F
100
AcDbEntity
  8
0
  6
Continuous
 62
     7
370
    15
100
AcDbLine
 10
171.0237547254
 20
415.1804315614
 30
0.0
 11
169.9476319668
 21
415.183694069
 31
0.0
  0
LINE
  5
89
330
1F
100
AcDbEntity
  8
0
  6
Continuous
 62
     7
370
    15
100
AcDbLine
 10
168.9476319668
 20
411.9880801258
 30
0.0
 11
168.9476319668
 21
415.3774208647
 31
0.0
  0
ARC
  5
8A
330
1F
100
AcDbEntity
  8
0
  6
Continuous
 62
     7
370
    15
100
AcDbCircle
 10
157.9476319668
 20
357.4795129607
 30
0.0
 40
55.60740862868573
100
AcDbArc
 50
78.5907633095
 51
101.4092366905
  0
LINE
  5
8B
330
1F
100
AcDbEntity
  8
0
  6
Continuous
 62
     7
370
    15
100
AcDbLine
 10
146.9476319668
 20
411.9880801258
 30
0.0
 11
146.9476319668
 21
415.3774208647
 31
0.0
  0
LWPOLYLINE
  5
8C
330
1F
100
AcDbEntity
  8
0
  6
Continuous
 62
     7
370
    15
100
AcDbPolyline
 90
        9
 70
   128
 43
0.0
 10
146.9476319668
 20
414.0425193752
 10
146.5136168967
 20
414.2031182066
 10
146.2002918423
 20
414.3690670367
 10
146.0109640588
 20
414.5386142177
 10
145.9476319668
 20
414.7099701199
 10
146.0109640588
 20
414.8813260222
 10
146.2002918423
 20
415.0508732032
 10
146.5136168967
 20
415.2168220333
 10
146.9476319668
 20
415.3774208647
  0
LWPOLYLINE
  5
8D
330
1F
100
AcDbEntity
  8
0
  6
Continuous
 62
     7
370
    15
100
AcDbPolyline
 90
        9
 70
   128
 43
0.0
 10
168.9476319668
 20
415.3774208647
 10
169.3816470369
 20
415.2168220333
 10
169.6949720913
 20
415.0508732032
 10
169.8842998748
 20
414.8813260222
 10
169.9476319668
 20
414.7099701199
 10
169.8842998748
 20
414.5386142177
 10
169.6949720913
 20
414.3690670367
 10
169.3816470369
 20
414.2031182066
 10
168.9476319668
 20
414.0425193752
  0
SPLINE
  5
8E
330
1F
100
AcDbEntity
  8
0
  6
Continuous
 62
     7
370
    15
100
AcDbSpline
210
0.0
220
0.0
230
1.0
 70
    24
 71
     3
 72
    10
 73
     6
 74
     0
 42
0.00000001
 43
0.00000001
 12
1.0
 22
0.0
 32
0.0
 13
1.0
 23
0.0
 33
0.0
 40
0.0
 40
0.0
 40
0.0
 40
0.0
 40
0.5
 40
0.5
 40
1.0
 40
1.0
 40
1.0
 40
1.0
 10
168.9476319667997
 20
410.7488978449739
 30
0.0
 10
168.9476319667997
 20
410.8612627066631
 30
0.0
 10
168.9476319667997
 20
411.0273925189429
 30
0.0
 10
168.9476319667997
 20
411.4473871922218
 30
0.0
 10
168.9476319667997
 20
411.7010274939805
 30
0.0
 10
168.9476319667997
 20
411.9880801258132
 30
0.0
  0
LWPOLYLINE
  5
8F
330
1F
100
AcDbEntity
  8
0
  6
Continuous
 62
     7
370
    15
100
AcDbPolyline
 90
       21
 70
   128
 43
0.0
 10
168.9476319668
 20
410.748897845
 10
168.8122037133
 20
410.9883840105
 10
168.409253646
 20
411.2219732319
 10
167.7487037329
 20
411.4439137672
 10
166.8468189049
 20
411.6487407038
 10
165.7258065599
 20
411.8314105229
 10
164.413269742
 20
411.9874252872
 10
162.9415274639
 20
412.1129433954
 10
161.3468189049
 20
412.2048741751
 10
159.6684110822
 20
412.2609539855
 10
157.9476319668
 20
412.2798019555
 10
156.2268528514
 20
412.2609539855
 10
154.5484450287
 20
412.2048741751
 10
152.9537364697
 20
412.1129433954
 10
151.4819941916
 20
411.9874252872
 10
150.1694573737
 20
411.8314105229
 10
149.0484450287
 20
411.6487407038
 10
148.1465602007
 20
411.4439137672
 10
147.4860102876
 20
411.2219732319
 10
147.0830602203
 20
410.9883840105
 10
146.9476319668
 20
410.748897845
  0
SPLINE
  5
90
330
1F
100
AcDbEntity
  8
0
  6
Continuous
 62
     7
370
    15
100
AcDbSpline
210
0.0
220
0.0
230
1.0
 70
    24
 71
     3
 72
    10
 73
     6
 74
     0
 42
0.00000001
 43
0.00000001
 12
1.0
 22
0.0
 32
0.0
 13
1.0
 23
0.0
 33
0.0
 40
0.0
 40
0.0
 40
0.0
 40
0.0
 40
0.5
 40
0.5
 40
1.0
 40
1.0
 40
1.0
 40
1.0
 10
146.9476319667997
 20
410.7488978449739
 30
0.0
 10
146.9476319667997
 20
410.8612627066631
 30
0.0
 10
146.9476319667997
 20
411.0273925189429
 30
0.0
 10
146.9476319667997
 20
411.4473871922218
 30
0.0
 10
146.9476319667997
 20
411.7010274939805
 30
0.0
 10
146.9476319667997
 20
411.9880801258132
 30
0.0
  0
LWPOLYLINE
  5
91
330
1F
100
AcDbEntity
  8
0
  6
Continuous
 62
     7
370
    15
100
AcDbPolyline
 90
       21
 70
   128
 43
0.0
 10
146.9476319668
 20
410.748897845
 10
147.0830602203
 20
410.5094116794
 10
147.4860102876
 20
410.2758224581
 10
148.1465602007
 20
410.0538819228
 10
149.0484450287
 20
409.8490549861
 10
150.1694573737
 20
409.6663851671
 10
151.4819941916
 20
409.5103704028
 10
152.9537364697
 20
409.3848522946
 10
154.5484450287
 20
409.2929215148
 10
156.2268528514
 20
409.2368417044
 10
157.9476319668
 20
409.2179937344
 10
159.6684110822
 20
409.2368417044
 10
161.3468189049
 20
409.2929215148
 10
162.9415274639
 20
409.3848522946
 10
164.413269742
 20
409.5103704028
 10
165.7258065599
 20
409.6663851671
 10
166.8468189049
 20
409.8490549861
 10
167.7487037329
 20
410.0538819228
 10
168.409253646
 20
410.2758224581
 10
168.8122037133
 20
410.5094116794
 10
168.9476319668
 20
410.748897845
  0
LINE
  5
92
330
1F
100
AcDbEntity
  8
0
  6
Continuous
 62
     7
370
    15
100
AcDbLine
 10
162.9476319668
 20
471.5999152542
 30
0.0
 11
152.9476319668
 21
471.5999152542
 31
0.0
  0
LINE
  5
93
330
1F
100
AcDbEntity
  8
0
  6
Continuous
 62
     7
370
    15
100
AcDbLine
 10
162.9476319668
 20
477.5999152542
 30
0.0
 11
166.9476319668
 21
477.5999152542
 31
0.0
  0
ARC
  5
94
330
1F
100
AcDbEntity
  8
0
  6
Continuous
 62
     7
370
    15
100
AcDbCircle
 10
166.9476319668
 20
476.5999152542
 30
0.0
 40
1.0
100
AcDbArc
 50
0.0
 51
90.0
  0
LINE
  5
95
330
1F
100
AcDbEntity
  8
0
  6
Continuous
 62
     7
370
    15
100
AcDbLine
 10
167.9476319668
 20
476.5999152542
 30
0.0
 11
167.9476319668
 21
472.5999152542
 31
0.0
  0
LINE
  5
96
330
1F
100
AcDbEntity
  8
0
  6
Continuous
 62
     7
370
    15
100
AcDbLine
 10
147.9476319668
 20
472.5999152542
 30
0.0
 11
147.9476319668
 21
476.5999152542
 31
0.0
  0
LINE
  5
97
330
1F
100
AcDbEntity
  8
0
  6
Continuous
 62
     7
370
    15
100
AcDbLine
 10
152.9476319668
 20
471.5999152542
 30
0.0
 11
148.9476319668
 21
471.5999152542
 31
0.0
  0
ARC
  5
98
330
1F
100
AcDbEntity
  8
0
  6
Continuous
 62
     7
370
    15
100
AcDbCircle
 10
148.9476319668
 20
472.5999152542
 30
0.0
 40
1.0
100
AcDbArc
 50
180.0
 51
270.0
  0
ARC
  5
99
330
1F
100
AcDbEntity
  8
0
  6
Continuous
 62
     7
370
    15
100
AcDbCircle
 10
166.9476319668
 20
472.5999152542
 30
0.0
 40
1.0
100
AcDbArc
 50
270.0
 51
0.0
  0
LINE
  5
9A
330
1F
100
AcDbEntity
  8
0
  6
Continuous
 62
     7
370
    15
100
AcDbLine
 10
166.9476319668
 20
471.5999152542
 30
0.0
 11
162.9476319668
 21
471.5999152542
 31
0.0
  0
LINE
  5
9B
330
1F
100
AcDbEntity
  8
0
  6
Continuous
 62
     7
370
    15
100
AcDbLine
 10
148.9476319668
 20
477.5999152542
 30
0.0
 11
152.9476319668
 21
477.5999152542
 31
0.0
  0
ARC
  5
9C
330
1F
100
AcDbEntity
  8
0
  6
Continuous
 62
     7
370
    15
100
AcDbCircle
 10
148.9476319668
 20
476.5999152542
 30
0.0
 40
1.0
100
AcDbArc
 50
90.0
 51
180.0
  0
LINE
  5
9D
330
1F
100
AcDbEntity
  8
0
  6
Continuous
 62
     7
370
    15
100
AcDbLine
 10
152.9476319668
 20
477.5999152542
 30
0.0
 11
162.9476319668
 21
477.5999152542
 31
0.0
  0
SPLINE
  5
9E
330
1F
100
AcDbEntity
  8
0
  6
Continuous
 62
     7
370
     0
100
AcDbSpline
210
0.0
220
0.0
230
1.0
 70
     8
 71
     3
 72
     9
 73
     5
 74
     0
 42
0.00000001
 43
0.00000001
 12
1.0
 22
0.0
 32
0.0
 13
1.0
 23
0.0
 33
0.0
 40
0.0
 40
0.0
 40
0.0
 40
0.0
 40
0.5026236969288855
 40
1.0
 40
1.0
 40
1.0
 40
1.0
 10
177.8292334146076
 20
416.3210955881734
 30
0.0
 10
177.8244946735768
 20
416.2130855605761
 30
0.0
 10
177.815066663995
 20
415.9981931305988
 30
0.0
 10
177.8004795523548
 20
415.7846224325755
 30
0.0
 10
177.7932242686948
 20
415.6783974283484
 30
0.0
  0
SPLINE
  5
9F
330
1F
100
AcDbEntity
  8
0
  6
Continuous
 62
     7
370
     0
100
AcDbSpline
210
0.0
220
0.0
230
1.0
 70
     8
 71
     3
 72
     9
 73
     5
 74
     0
 42
0.00000001
 43
0.00000001
 12
1.0
 22
0.0
 32
0.0
 13
1.0
 23
0.0
 33
0.0
 40
0.0
 40
0.0
 40
0.0
 40
0.0
 40
0.4937228016395772
 40
0.9999999999999999
 40
0.9999999999999999
 40
0.9999999999999999
 40
0.9999999999999999
 10
177.7931655368492
 20
415.6784166588536
 30
0.0
 10
177.7460748867262
 20
415.0043984912485
 30
0.0
 10
177.6506961641582
 20
413.6392232038871
 30
0.0
 10
177.5550641393884
 20
412.2730436319829
 30
0.0
 10
177.5066478258144
 20
411.581378065862
 30
0.0
  0
SPLINE
  5
A0
330
1F
100
AcDbEntity
  8
0
  6
Continuous
 62
     7
370
     0
100
AcDbSpline
210
0.0
220
0.0
230
1.0
 70
     8
 71
     3
 72
    46
 73
    42
 74
     0
 42
0.00000001
 43
0.00000001
 12
1.0
 22
0.0
 32
0.0
 13
1.0
 23
0.0
 33
0.0
 40
0.0
 40
0.0
 40
0.0
 40
0.0
 40
0.0126861998556634
 40
0.0261923170408128
 40
0.0405998274396581
 40
0.0652680611171575
 40
0.070519119281685
 40
0.1123354918988991
 40
0.1246751056039738
 40
0.1288490048920618
 40
0.1803385319187042
 40
0.1890288607302057
 40
0.1976827844710088
 40
0.2331136466333527
 40
0.2465886254701257
 40
0.2510402645601181
 40
0.3000482976032859
 40
0.3140795001529246
 40
0.3413651136547908
 40
0.374193542387299
 40
0.3932527560343506
 40
0.4214694317868656
 40
0.4420373881474093
 40
0.4752753220191197
 40
0.501030810287118
 40
0.5032401284121535
 40
0.509837905051666
 40
0.5185658637711239
 40
0.5631798008409403
 40
0.572492678650005
 40
0.581723679192352
 40
0.6742246031163053
 40
0.7117169969565047
 40
0.7366018656801233
 40
0.7549419424271392
 40
0.8084171040913789
 40
0.8574682802697823
 40
0.8754124664266939
 40
0.9048229026374879
 40
0.9531951289375532
 40
1.0
 40
1.0
 40
1.0
 40
1.0
 10
177.5066478258144
 20
411.5813780658619
 30
0.0
 10
177.5029759248326
 20
411.5336373127891
 30
0.0
 10
177.4953948055256
 20
411.4350702907906
 30
0.0
 10
177.4790306667631
 20
411.2839433266216
 30
0.0
 10
177.4533261705829
 20
411.0904615368161
 30
0.0
 10
177.426053508982
 20
410.9304978830937
 30
0.0
 10
177.3757338042671
 20
410.6764246454545
 30
0.0
 10
177.3259834593208
 20
410.4719541299551
 30
0.0
 10
177.2695190161361
 20
410.2792186037729
 30
0.0
 10
177.201083464703
 20
410.057221184452
 30
0.0
 10
177.1280497296562
 20
409.8556309512806
 30
0.0
 10
177.0422258308783
 20
409.6500592985953
 30
0.0
 10
176.9747355257064
 20
409.4945392967043
 30
0.0
 10
176.8965573599169
 20
409.3306593410314
 30
0.0
 10
176.8198999827079
 20
409.1844164993875
 30
0.0
 10
176.7218682429413
 20
409.0034730124398
 30
0.0
 10
176.6174170735359
 20
408.8284436986533
 30
0.0
 10
176.4698048811482
 20
408.6052626256429
 30
0.0
 10
176.3444741558583
 20
408.4277718805798
 30
0.0
 10
176.2044472728151
 20
408.2468570628572
 30
0.0
 10
176.0576172381656
 20
408.0710007924955
 30
0.0
 10
175.9293322241665
 20
407.9275022665563
 30
0.0
 10
175.7694918766587
 20
407.7606385555443
 30
0.0
 10
175.6094405934467
 20
407.6057246715775
 30
0.0
 10
175.4822030800564
 20
407.4923455471724
 30
0.0
 10
175.409269931091
 20
407.4298445652971
 30
0.0
 10
175.3720947048239
 20
407.3983790816224
 30
0.0
 10
175.2439972019841
 20
407.2922746288832
 30
0.0
 10
175.1063551929981
 20
407.1866243768413
 30
0.0
 10
174.9639510806994
 20
407.0855020378867
 30
0.0
 10
174.7113605045017
 20
406.9109653779979
 30
0.0
 10
174.379176009132
 20
406.71431534036
 30
0.0
 10
173.9893617770842
 20
406.5288374938556
 30
0.0
 10
173.7811536860115
 20
406.4406952702452
 30
0.0
 10
173.527632645737
 20
406.3423329643178
 30
0.0
 10
173.2022997266126
 20
406.2345309868243
 30
0.0
 10
172.8666730567133
 20
406.1500965029866
 30
0.0
 10
172.5926149779607
 20
406.0950727791698
 30
0.0
 10
172.3166401297587
 20
406.0497141420973
 30
0.0
 10
171.9503069939172
 20
406.0087223411138
 30
0.0
 10
171.6627839081767
 20
406.0028186053327
 30
0.0
 10
171.52138979837
 20
405.999915348145
 30
0.0
  0
SPLINE
  5
A1
330
1F
100
AcDbEntity
  8
0
  6
Continuous
 62
     7
370
     0
100
AcDbSpline
210
0.0
220
0.0
230
1.0
 70
     8
 71
     3
 72
    33
 73
    29
 74
     0
 42
0.00000001
 43
0.00000001
 12
1.0
 22
0.0
 32
0.0
 13
1.0
 23
0.0
 33
0.0
 40
0.0
 40
0.0
 40
0.0
 40
0.0
 40
0.0326481445744736
 40
0.065215332663046
 40
0.0976851373955587
 40
0.1300851674812851
 40
0.1624455316453042
 40
0.1947561881230449
 40
0.2269464396860027
 40
0.2589717600738146
 40
0.2908138592596657
 40
0.322462322000223
 40
0.3539135914075154
 40
0.385169705933271
 40
0.4162368645230158
 40
0.4471239164606361
 40
0.477840865379088
 40
0.5083974572994769
 40
0.5388018976414093
 40
0.5690597170939982
 40
0.5991727841984726
 40
0.657575116019368
 40
0.7154899893342606
 40
0.7729790336631421
 40
0.8301016262285917
 40
0.8869232958306383
 40
0.9435230763849094
 40
0.9999999999999999
 40
0.9999999999999999
 40
0.9999999999999999
 40
0.9999999999999999
 10
171.5213897983695
 20
405.99991534815
 30
0.0
 10
171.3943686225037
 20
405.9999178829318
 30
0.0
 10
171.1406412408313
 20
405.9999229462102
 30
0.0
 10
170.7530049888589
 20
405.9999433436373
 30
0.0
 10
170.3610949286582
 20
405.9999497780221
 30
0.0
 10
169.9644256113218
 20
405.9999325021288
 30
0.0
 10
169.5631514412987
 20
405.9999060965722
 30
0.0
 10
169.1576520517307
 20
405.9999027486949
 30
0.0
 10
168.7486854684662
 20
405.9999088364251
 30
0.0
 10
168.3370560455784
 20
405.9999130851273
 30
0.0
 10
167.9233288117801
 20
405.9999150156268
 30
0.0
 10
167.5078943437416
 20
405.9999130231959
 30
0.0
 10
167.0910526103133
 20
405.9999078147637
 30
0.0
 10
166.6730253368074
 20
405.9999010100786
 30
0.0
 10
166.2539723226906
 20
405.9998946252238
 30
0.0
 10
165.8340098377271
 20
405.9998902651526
 30
0.0
 10
165.4132300421621
 20
405.9998886210287
 30
0.0
 10
164.9917199417134
 20
405.9998893502756
 30
0.0
 10
164.5695805493897
 20
405.9998913507578
 30
0.0
 10
164.1469404537725
 20
405.9998937964158
 30
0.0
 10
163.5908424079491
 20
405.9998974151951
 30
0.0
 10
162.8999614327082
 20
405.9999151070244
 30
0.0
 10
162.0729351066492
 20
405.9999398129358
 30
0.0
 10
161.2462576357036
 20
405.9999386540244
 30
0.0
 10
160.4203067442163
 20
405.9999348380882
 30
0.0
 10
159.5952898729074
 20
405.999929146194
 30
0.0
 10
158.7711772358042
 20
405.999926894438
 30
0.0
 10
158.2219468519056
 20
405.9999282905512
 30
0.0
 10
157.9476300271769
 20
405.9999289878493
 30
0.0
  0
SPLINE
  5
A2
330
1F
100
AcDbEntity
  8
0
  6
Continuous
 62
     7
370
     0
100
AcDbSpline
210
0.0
220
0.0
230
1.0
 70
     8
 71
     3
 72
    34
 73
    30
 74
     0
 42
0.00000001
 43
0.00000001
 12
1.0
 22
0.0
 32
0.0
 13
1.0
 23
0.0
 33
0.0
 40
0.0
 40
0.0
 40
0.0
 40
0.0
 40
0.0334086906240659
 40
0.0668463664345983
 40
0.1003385029049025
 40
0.1339070092212017
 40
0.1675706290641388
 40
0.2013453386787219
 40
0.2352447488341347
 40
0.2692805227456544
 40
0.3034628444399687
 40
0.3378010506748063
 40
0.3723044968980971
 40
0.4069832018222528
 40
0.4418483263647291
 40
0.4769127147710585
 40
0.5121913024659461
 40
0.5476943703627138
 40
0.5834256943709207
 40
0.6193923864806776
 40
0.6556027653516
 40
0.6920629441787258
 40
0.7287733462046854
 40
0.7657254020497417
 40
0.8028986996982137
 40
0.8519687758288276
 40
0.9011389339880446
 40
0.950465213091822
 40
1.0
 40
1.0
 40
1.0
 40
1.0
 10
157.9476300271769
 20
405.9999289878493
 30
0.0
 10
157.7853601245138
 20
405.9999288089339
 30
0.0
 10
157.46067953476
 20
405.9999284509479
 30
0.0
 10
156.9735527772734
 20
405.9999301131029
 30
0.0
 10
156.4861093739289
 20
405.9999357050482
 30
0.0
 10
155.9982611404423
 20
405.9999434682964
 30
0.0
 10
155.5099695329964
 20
405.9999511132423
 30
0.0
 10
155.021240849389
 20
405.9999564841926
 30
0.0
 10
154.5321214946811
 20
405.9999581601671
 30
0.0
 10
154.0426931571423
 20
405.9999550623517
 30
0.0
 10
153.5530667926325
 20
405.9999467126226
 30
0.0
 10
153.0633752552662
 20
405.9999290201113
 30
0.0
 10
152.5737596913601
 20
405.9999088687211
 30
0.0
 10
152.0843589217642
 20
405.999896315519
 30
0.0
 10
151.5953048953776
 20
405.9998937592704
 30
0.0
 10
151.1067170049083
 20
405.999898785484
 30
0.0
 10
150.6187307016938
 20
405.9999070264892
 30
0.0
 10
150.1315355319083
 20
405.9999182402248
 30
0.0
 10
149.6453680456109
 20
405.999929980693
 30
0.0
 10
149.1604839985391
 20
405.9999385292419
 30
0.0
 10
148.6771393300985
 20
405.9999404995218
 30
0.0
 10
148.1956300860733
 20
405.9999347082756
 30
0.0
 10
147.7163384252577
 20
405.9999229609229
 30
0.0
 10
147.239762597354
 20
405.9999115191275
 30
0.0
 10
146.7168778257049
 20
405.9999009971443
 30
0.0
 10
146.151162108919
 20
405.999913447661
 30
0.0
 10
145.5469125995461
 20
405.9999569417634
 30
0.0
 10
144.9523879781412
 20
405.9999321489357
 30
0.0
 10
144.5668121888391
 20
405.9999211878284
 30
0.0
 10
144.3736176853758
 20
405.9999156957156
 30
0.0
  0
SPLINE
  5
A3
330
1F
100
AcDbEntity
  8
0
  6
Continuous
 62
     7
370
     0
100
AcDbSpline
210
0.0
220
0.0
230
1.0
 70
     8
 71
     3
 72
    49
 73
    45
 74
     0
 42
0.00000001
 43
0.00000001
 12
1.0
 22
0.0
 32
0.0
 13
1.0
 23
0.0
 33
0.0
 40
0.0
 40
0.0
 40
0.0
 40
0.0
 40
0.0234071389292844
 40
0.0472005559422703
 40
0.0713953547838233
 40
0.0960043439190616
 40
0.1210472963235619
 40
0.1388456889181031
 40
0.1629425685214669
 40
0.2358797604953423
 40
0.2537178138548595
 40
0.2597189578967192
 40
0.3203597863427924
 40
0.3557044017654047
 40
0.4046192364833816
 40
0.4334285044401516
 40
0.4511052165809601
 40
0.4751628877072516
 40
0.5020462586495322
 40
0.5087564003360177
 40
0.5177777351506536
 40
0.5559615075629413
 40
0.5639797915465746
 40
0.5666700757200707
 40
0.6223951823506305
 40
0.6311030526183228
 40
0.6399079701745924
 40
0.6834594671000385
 40
0.6966252626686797
 40
0.710019028464293
 40
0.744505421309498
 40
0.7658920623005507
 40
0.8013872932970447
 40
0.8148752242424642
 40
0.8374013445726953
 40
0.8718736156057126
 40
0.8802394856236854
 40
0.9043962117927651
 40
0.9266002587943967
 40
0.9421190543491985
 40
0.9636169058179019
 40
0.9831934023845683
 40
0.9917626865282084
 40
1.0
 40
1.0
 40
1.0
 40
1.0
 10
144.3736176853758
 20
405.999915695716
 30
0.0
 10
144.3027252299272
 20
406.0006432876848
 30
0.0
 10
144.1597704109127
 20
406.002110478764
 30
0.0
 10
143.9462079800367
 20
406.0139439540812
 30
0.0
 10
143.7313139181485
 20
406.0330293177919
 30
0.0
 10
143.5154285453566
 20
406.0602609706091
 30
0.0
 10
143.3208616732516
 20
406.0920054393996
 30
0.0
 10
143.1301438904751
 20
406.1292309034534
 30
0.0
 10
142.8070742795887
 20
406.2024926536047
 30
0.0
 10
142.493586585495
 20
406.297201562627
 30
0.0
 10
142.2380938058651
 20
406.3924705569601
 30
0.0
 10
142.0170139371118
 20
406.4791327801429
 30
0.0
 10
141.7566875319239
 20
406.5955810282882
 30
0.0
 10
141.4011458620734
 20
406.7839499473857
 30
0.0
 10
141.1335622688338
 20
406.9463828711267
 30
0.0
 10
140.9157335799344
 20
407.0951889288086
 30
0.0
 10
140.7582050305118
 20
407.2103835122813
 30
0.0
 10
140.6081019800735
 20
407.3269487567188
 30
0.0
 10
140.4852360725997
 20
407.4295243949506
 30
0.0
 10
140.3960262763477
 20
407.507604623033
 30
0.0
 10
140.2841183454135
 20
407.6077363066665
 30
0.0
 10
140.1724388014009
 20
407.7144773064053
 30
0.0
 10
140.0762120395633
 20
407.8126323422534
 30
0.0
 10
139.9462952345982
 20
407.9471618174287
 30
0.0
 10
139.819586646705
 20
408.0895715323782
 30
0.0
 10
139.6872454431092
 20
408.2530041030792
 30
0.0
 10
139.5782419586653
 20
408.3911326926021
 30
0.0
 10
139.46559995528
 20
408.545443159145
 30
0.0
 10
139.3504611015364
 20
408.7179318779072
 30
0.0
 10
139.2524483821113
 20
408.8712132406075
 30
0.0
 10
139.1459173558349
 20
409.051662658643
 30
0.0
 10
139.013197312701
 20
409.3001663149677
 30
0.0
 10
138.9173959740605
 20
409.500234268207
 30
0.0
 10
138.8263209473092
 20
409.7114549463461
 30
0.0
 10
138.7412742684261
 20
409.9255477251837
 30
0.0
 10
138.6698926200819
 20
410.1331207271936
 30
0.0
 10
138.6033303238852
 20
410.3527493837087
 30
0.0
 10
138.5531548261019
 20
410.5365503766323
 30
0.0
 10
138.5038932651545
 20
410.7511997011503
 30
0.0
 10
138.4630763111251
 20
410.9615935153112
 30
0.0
 10
138.430320298781
 20
411.1670586024784
 30
0.0
 10
138.4082285884544
 20
411.3509445823362
 30
0.0
 10
138.3953689993106
 20
411.487065515159
 30
0.0
 10
138.3906592430533
 20
411.5503572530058
 30
0.0
 10
138.3883508794241
 20
411.5813780400055
 30
0.0
  0
SPLINE
  5
A4
330
1F
100
AcDbEntity
  8
0
  6
Continuous
 62
     7
370
     0
100
AcDbSpline
210
0.0
220
0.0
230
1.0
 70
     8
 71
     3
 72
     9
 73
     5
 74
     0
 42
0.00000001
 43
0.00000001
 12
1.0
 22
0.0
 32
0.0
 13
1.0
 23
0.0
 33
0.0
 40
0.0
 40
0.0
 40
0.0
 40
0.0
 40
0.5059496160547399
 40
1.0
 40
1.0
 40
1.0
 40
1.0
 10
138.3883508794241
 20
411.5813780400056
 30
0.0
 10
138.3394075971963
 20
412.2809395504602
 30
0.0
 10
138.2426721107473
 20
413.6636098564675
 30
0.0
 10
138.1460990207947
 20
415.0452272900505
 30
0.0
 10
138.0983870486248
 20
415.7278159135778
 30
0.0
  0
SPLINE
  5
A5
330
1F
100
AcDbEntity
  8
0
  6
Continuous
 62
     7
370
    15
100
AcDbSpline
210
0.0
220
0.0
230
1.0
 70
     8
 71
     3
 72
     9
 73
     5
 74
     0
 42
0.00000001
 43
0.00000001
 12
1.0
 22
0.0
 32
0.0
 13
1.0
 23
0.0
 33
0.0
 40
0.0
 40
0.0
 40
0.0
 40
0.0
 40
0.4975524501116532
 40
1.0
 40
1.0
 40
1.0
 40
1.0
 10
138.0985090610705
 20
415.7278544158625
 30
0.0
 10
138.0920281968728
 20
415.8259706161031
 30
0.0
 10
138.0790027074069
 20
416.0231683190158
 30
0.0
 10
138.0703692586381
 20
416.2214628537117
 30
0.0
 10
138.0660314034571
 20
416.3210954568258
 30
0.0
  0
SPLINE
  5
A6
330
1F
100
AcDbEntity
  8
0
  6
Continuous
 62
     7
370
     0
100
AcDbSpline
210
0.0
220
0.0
230
1.0
 70
     8
 71
     3
 72
    40
 73
    36
 74
     0
 42
0.00000001
 43
0.00000001
 12
1.0
 22
0.0
 32
0.0
 13
1.0
 23
0.0
 33
0.0
 40
0.0
 40
0.0
 40
0.0
 40
0.0
 40
0.0233542264636375
 40
0.0467217159788806
 40
0.0701072428486451
 40
0.0935163712900097
 40
0.1169604662365972
 40
0.1294315143488142
 40
0.1544246942325211
 40
0.229021172499379
 40
0.2473693622646301
 40
0.2535037348863388
 40
0.3504961770825103
 40
0.3806529974309281
 40
0.3867263697155974
 40
0.4487454693097446
 40
0.486808787290789
 40
0.4996329123315634
 40
0.5005041722398018
 40
0.5031198631122045
 40
0.5066119166231636
 40
0.5932954225194588
 40
0.6242758353834661
 40
0.6277268029049125
 40
0.6484555266376685
 40
0.7447641113737469
 40
0.7513960431076402
 40
0.7845349079788534
 40
0.864746225439169
 40
0.8715278902643832
 40
0.8918645113651578
 40
0.9327072659352342
 40
0.9395258272869723
 40
0.9698891375381647
 40
1.0
 40
1.0
 40
1.0
 40
1.0
 10
157.9475703120083
 20
439.3667022348311
 30
0.0
 10
158.0961848870218
 20
439.3665944191393
 30
0.0
 10
158.3934984364523
 20
439.3663787265264
 30
0.0
 10
158.8394453504885
 20
439.3646319788291
 30
0.0
 10
159.2853843820824
 20
439.3618381544965
 30
0.0
 10
159.7312752232163
 20
439.357897403553
 30
0.0
 10
160.1072791417023
 20
439.3536325112233
 30
0.0
 10
160.4927252733742
 20
439.348514881829
 30
0.0
 10
161.2006046055632
 20
439.337691008646
 30
0.0
 10
161.9416967442918
 20
439.3224223660939
 30
0.0
 10
162.559154658729
 20
439.3066699176724
 30
0.0
 10
163.3144844638068
 20
439.2864138323349
 30
0.0
 10
164.1357396549565
 20
439.2598219357807
 30
0.0
 10
164.9425715498251
 20
439.2285281799901
 30
0.0
 10
165.5345387582629
 20
439.2044626080759
 30
0.0
 10
166.1679331422956
 20
439.176475704509
 30
0.0
 10
166.8299612188902
 20
439.1439013727947
 30
0.0
 10
167.1305652967463
 20
439.1283536621941
 30
0.0
 10
167.2250465335772
 20
439.1234027769333
 30
0.0
 10
167.265445013251
 20
439.1212788363961
 30
0.0
 10
167.8019304522331
 20
439.092910181303
 30
0.0
 10
168.4904541724557
 20
439.0533763667804
 30
0.0
 10
169.1597767549438
 20
439.0112492152786
 30
0.0
 10
169.4620209688966
 20
438.9917432480286
 30
0.0
 10
170.1181853644132
 20
438.9486399683647
 30
0.0
 10
170.7717157411376
 20
438.9022708303626
 30
0.0
 10
171.4678969839969
 20
438.8497532002875
 30
0.0
 10
172.0740925147718
 20
438.802867078572
 30
0.0
 10
172.6586409121927
 20
438.7547668504339
 30
0.0
 10
173.1638439886164
 20
438.7114553915177
 30
0.0
 10
173.4804026995827
 20
438.6839436251963
 30
0.0
 10
173.7895195749217
 20
438.6563760070718
 30
0.0
 10
174.1369827552094
 20
438.6247600570793
 30
0.0
 10
174.4324257881528
 20
438.5974329738385
 30
0.0
 10
174.6886597188669
 20
438.5731107551851
 30
0.0
 10
174.8162418634363
 20
438.5610004120786
 30
0.0
  0
SPLINE
  5
A7
330
1F
100
AcDbEntity
  8
0
  6
Continuous
 62
     7
370
     0
100
AcDbSpline
210
0.0
220
0.0
230
1.0
 70
     8
 71
     3
 72
    32
 73
    28
 74
     0
 42
0.00000001
 43
0.00000001
 12
1.0
 22
0.0
 32
0.0
 13
1.0
 23
0.0
 33
0.0
 40
0.0
 40
0.0
 40
0.0
 40
0.0
 40
0.0301262248015189
 40
0.0612493409875818
 40
0.0935139866201494
 40
0.1271118187822428
 40
0.1623454784081383
 40
0.1996306080101155
 40
0.2399913482192406
 40
0.2442113989752585
 40
0.2660834984092606
 40
0.3142715741709353
 40
0.3315071343473694
 40
0.3350528854071361
 40
0.3458608300598694
 40
0.3606787132604621
 40
0.4566716861005223
 40
0.5559981436296032
 40
0.5896676451749585
 40
0.5962466907320152
 40
0.6581227791345945
 40
0.7550431531285831
 40
0.7701885361997408
 40
0.7851642859902368
 40
0.8573890945263956
 40
0.9283106801291136
 40
1.0
 40
1.0
 40
1.0
 40
1.0
 10
174.8162544004011
 20
438.5609710510668
 30
0.0
 10
174.8732757471086
 20
438.5546343295428
 30
0.0
 10
174.9892053045313
 20
438.5417512013073
 30
0.0
 10
175.1624632963691
 20
438.5097588015305
 30
0.0
 10
175.3388228554218
 20
438.466106135817
 30
0.0
 10
175.5183920133368
 20
438.4076139996671
 30
0.0
 10
175.7018039468013
 20
438.3314900462394
 30
0.0
 10
175.8905844584359
 20
438.2332238936413
 30
0.0
 10
176.0221064331525
 20
438.1480348734906
 30
0.0
 10
176.1260383158348
 20
438.0722970110029
 30
0.0
 10
176.2403720568572
 20
437.9833282653829
 30
0.0
 10
176.3687102738078
 20
437.864981010924
 30
0.0
 10
176.465148151142
 20
437.7615159422638
 30
0.0
 10
176.5085923084007
 20
437.7126891317647
 30
0.0
 10
176.5482455362291
 20
437.6666768575693
 30
0.0
 10
176.7100264299261
 20
437.4681190499249
 30
0.0
 10
176.9631679236117
 20
437.0738456186655
 30
0.0
 10
177.1839585356926
 20
436.5629792611901
 30
0.0
 10
177.2972704190228
 20
436.2277259470632
 30
0.0
 10
177.3758088842099
 20
435.9776951651615
 30
0.0
 10
177.4909462410222
 20
435.559833139477
 30
0.0
 10
177.5851472280379
 20
435.095663783091
 30
0.0
 10
177.6419934525311
 20
434.7492512567376
 30
0.0
 10
177.6853170352322
 20
434.4685823600436
 30
0.0
 10
177.7409659764095
 20
434.0281190664003
 30
0.0
 10
177.7956648660729
 20
433.4198229140885
 30
0.0
 10
177.8152833169312
 20
433.0112095672674
 30
0.0
 10
177.8251453495315
 20
432.805803025415
 30
0.0
  0
SPLINE
  5
A8
330
1F
100
AcDbEntity
  8
0
  6
Continuous
 62
     7
370
     0
100
AcDbSpline
210
0.0
220
0.0
230
1.0
 70
     8
 71
     3
 72
    35
 73
    31
 74
     0
 42
0.00000001
 43
0.00000001
 12
1.0
 22
0.0
 32
0.0
 13
1.0
 23
0.0
 33
0.0
 40
0.0
 40
0.0
 40
0.0
 40
0.0
 40
0.0334914768898907
 40
0.0666144319741889
 40
0.0995503118393187
 40
0.1324903604280394
 40
0.165644619761936
 40
0.199252526181549
 40
0.2335845819310122
 40
0.2559221201064725
 40
0.2865636204423544
 40
0.4014333417978929
 40
0.4145104107961327
 40
0.4277743449084159
 40
0.5256560751043342
 40
0.566183110836957
 40
0.57061341508763
 40
0.5967246302855213
 40
0.6521341601535926
 40
0.6692856824445694
 40
0.672692347977282
 40
0.6827670064743251
 40
0.6958712871986232
 40
0.7463480197819437
 40
0.7560562756647551
 40
0.7592290813538923
 40
0.8278524831347908
 40
0.8894329298296199
 40
0.9463005834933121
 40
1.0
 40
1.0
 40
1.0
 40
1.0
 10
138.0701166542258
 20
432.8057857676738
 30
0.0
 10
138.0742534417022
 20
432.9018108233332
 30
0.0
 10
138.0824814977192
 20
433.0928043277125
 30
0.0
 10
138.1001792228604
 20
433.3770342810447
 30
0.0
 10
138.121708457787
 20
433.6584217950478
 30
0.0
 10
138.1477450886883
 20
433.9382168171616
 30
0.0
 10
138.1786411522594
 20
434.2178417106842
 30
0.0
 10
138.2150518457896
 20
434.4988138363818
 30
0.0
 10
138.2523805033414
 20
434.7469811067515
 30
0.0
 10
138.292509006973
 20
434.9844131574486
 30
0.0
 10
138.3771769624881
 20
435.4355103593525
 30
0.0
 10
138.4781001571649
 20
435.8472158255567
 30
0.0
 10
138.5869806253656
 20
436.1926432756529
 30
0.0
 10
138.6862668105024
 20
436.4926761917207
 30
0.0
 10
138.8265592583364
 20
436.8390573976808
 30
0.0
 10
138.9824212093745
 20
437.1304176854578
 30
0.0
 10
139.0638134727151
 20
437.2693179078077
 30
0.0
 10
139.1654133664848
 20
437.4322678944583
 30
0.0
 10
139.2917595770213
 20
437.6031791842662
 30
0.0
 10
139.3952163652609
 20
437.7226358421721
 30
0.0
 10
139.4376340369978
 20
437.7694241223231
 30
0.0
 10
139.4748445373259
 20
437.8092431425046
 30
0.0
 10
139.5797855931353
 20
437.9157768798939
 30
0.0
 10
139.6892788466086
 20
438.0114550766666
 30
0.0
 10
139.7875497774278
 20
438.0855746380568
 30
0.0
 10
139.9149620511207
 20
438.1785969803191
 30
0.0
 10
140.132672088396
 20
438.3096314138849
 30
0.0
 10
140.457362955937
 20
438.4404074054534
 30
0.0
 10
140.7690386416683
 20
438.5227602766379
 30
0.0
 10
140.9776183942304
 20
438.5484822135609
 30
0.0
 10
141.0789199028119
 20
438.5609746582107
 30
0.0
  0
SPLINE
  5
A9
330
1F
100
AcDbEntity
  8
0
  6
Continuous
 62
     7
370
     0
100
AcDbSpline
210
0.0
220
0.0
230
1.0
 70
     8
 71
     3
 72
    38
 73
    34
 74
     0
 42
0.00000001
 43
0.00000001
 12
1.0
 22
0.0
 32
0.0
 13
1.0
 23
0.0
 33
0.0
 40
0.0
 40
0.0
 40
0.0
 40
0.0
 40
0.0202443701994666
 40
0.0404139976885136
 40
0.060884271336052
 40
0.0730830163234068
 40
0.0974503346642239
 40
0.1285113171567573
 40
0.1471250173132261
 40
0.1965770261283786
 40
0.2539817265565951
 40
0.2731254329806866
 40
0.2986644428445574
 40
0.3637570412359231
 40
0.3767568830838568
 40
0.4026966991971154
 40
0.5001872547684983
 40
0.5010597683531286
 40
0.5019319541581205
 40
0.5071581946232561
 40
0.5904662273597188
 40
0.6158395525442448
 40
0.6252875498862682
 40
0.6409584162037145
 40
0.7149517816927298
 40
0.7457498315958436
 40
0.7641085604374065
 40
0.8126959211790571
 40
0.869088767938421
 40
0.8878028007869131
 40
0.9127079919905671
 40
0.9563809439877197
 40
1.0
 40
1.0
 40
1.0
 40
1.0
 10
141.0789188971767
 20
438.5609978396812
 30
0.0
 10
141.1644694040498
 20
438.5691372887035
 30
0.0
 10
141.3352545632301
 20
438.5853861357027
 30
0.0
 10
141.5987663444168
 20
438.6100443183062
 30
0.0
 10
141.8313463994406
 20
438.6314379543584
 30
0.0
 10
142.08607521702
 20
438.6545572707893
 30
0.0
 10
142.3927995671859
 20
438.6819576476402
 30
0.0
 10
142.7362867124146
 20
438.7119570241672
 30
0.0
 10
143.2050316124381
 20
438.7519208651956
 30
0.0
 10
143.8136076389851
 20
438.8021403937105
 30
0.0
 10
144.4476300739261
 20
438.8515871237706
 30
0.0
 10
144.973729756706
 20
438.890712916743
 30
0.0
 10
145.5471428131809
 20
438.9322319802427
 30
0.0
 10
146.1028291720464
 20
438.9702829162023
 30
0.0
 10
146.6718001864259
 20
439.0071764335499
 30
0.0
 10
147.425170644689
 20
439.0546797601296
 30
0.0
 10
148.1322915762106
 20
439.0952498362226
 30
0.0
 10
148.7073272677734
 20
439.1253443581577
 30
0.0
 10
148.7477353118222
 20
439.1274555955347
 30
0.0
 10
149.2665917304946
 20
439.1544065875808
 30
0.0
 10
149.9391166933981
 20
439.1864120604578
 30
0.0
 10
150.6480788840348
 20
439.2162175745942
 30
0.0
 10
150.9526584844661
 20
439.2284765963903
 30
0.0
 10
151.5526261517796
 20
439.2518483236486
 30
0.0
 10
152.2909589495872
 20
439.2772225637162
 30
0.0
 10
153.0539665703138
 20
439.2992376160348
 30
0.0
 10
153.6623944151237
 20
439.3152060087509
 30
0.0
 10
154.4347027903862
 20
439.3327433643344
 30
0.0
 10
155.2149175388568
 20
439.3461128077083
 30
0.0
 10
155.8479338319188
 20
439.3544116851659
 30
0.0
 10
156.4014411354209
 20
439.3603333711357
 30
0.0
 10
157.1144652309934
 20
439.3655754529765
 30
0.0
 10
157.6699829479111
 20
439.366326795511
 30
0.0
 10
157.9475703120078
 20
439.3667022348307
 30
0.0
  0
LINE
  5
AA
330
1F
100
AcDbEntity
  8
0
  6
Continuous
 62
     7
370
     0
100
AcDbLine
 10
149.6676319668
 20
479.5999152542
 30
0.0
 11
166.2276319668
 21
479.5999152542
 31
0.0
  0
LINE
  5
AB
330
1F
100
AcDbEntity
  8
0
  6
Continuous
 62
     7
370
     0
100
AcDbLine
 10
166.2276319668
 20
469.5999152542
 30
0.0
 11
149.6676319668
 21
469.5999152542
 31
0.0
  0
ARC
  5
AC
330
1F
100
AcDbEntity
  8
0
  6
Continuous
 62
     7
370
    15
100
AcDbCircle
 10
157.9517122055
 20
459.2914176782
 30
0.0
 40
2.999999999999992
100
AcDbArc
 50
277.6622556608
 51
82.3377443392
  0
SPLINE
  5
AD
330
1F
100
AcDbEntity
  8
0
  6
Continuous
 62
     7
370
    15
100
AcDbSpline
210
0.0
220
0.0
230
1.0
 70
    24
 71
     3
 72
    12
 73
     8
 74
     0
 42
0.00000001
 43
0.00000001
 12
1.0
 22
0.0
 32
0.0
 13
1.0
 23
0.0
 33
0.0
 40
0.0
 40
0.0
 40
0.0
 40
0.0
 40
0.2499999999999983
 40
0.2499999999999983
 40
0.4999999999999967
 40
0.4999999999999967
 40
1.0
 40
1.0
 40
1.0
 40
1.0
 10
158.3517122055204
 20
456.3182039287219
 30
0.0
 10
158.3517122055204
 20
456.3182039287219
 30
0.0
 10
158.3517122055204
 20
456.3368156750684
 30
0.0
 10
158.3517122055204
 20
456.4083491199783
 30
0.0
 10
158.3517122055204
 20
456.4612888128498
 30
0.0
 10
158.3517122055204
 20
456.6576313942328
 30
0.0
 10
158.3517122055204
 20
456.8405101449937
 30
0.0
 10
158.3517122055204
 20
457.0264673476044
 30
0.0
  0
ARC
  5
AE
330
1F
100
AcDbEntity
  8
0
  6
Continuous
 62
     7
370
    15
100
AcDbCircle
 10
157.9517122055
 20
459.2914176782
 30
0.0
 40
2.299999999999972
100
AcDbArc
 50
280.0154101683
 51
79.9845898317
  0
SPLINE
  5
AF
330
1F
100
AcDbEntity
  8
0
  6
Continuous
 62
     7
370
    15
100
AcDbSpline
210
0.0
220
0.0
230
1.0
 70
    24
 71
     3
 72
    12
 73
     8
 74
     0
 42
0.00000001
 43
0.00000001
 12
1.0
 22
0.0
 32
0.0
 13
1.0
 23
0.0
 33
0.0
 40
0.0
 40
0.0
 40
0.0
 40
0.0
 40
0.25
 40
0.25
 40
0.5
 40
0.5
 40
1.0
 40
1.0
 40
1.0
 40
1.0
 10
158.3517122055204
 20
461.5563680087668
 30
0.0
 10
158.3517122055204
 20
461.6493615679769
 30
0.0
 10
158.3517122055204
 20
461.7405963985804
 30
0.0
 10
158.3517122055204
 20
461.9117030600696
 30
0.0
 10
158.3517122055204
 20
461.9901645217594
 30
0.0
 10
158.3517122055204
 20
462.1868519570694
 30
0.0
 10
158.3517122055204
 20
462.2646314276493
 30
0.0
 10
158.3517122055204
 20
462.2646314276493
 30
0.0
  0
ARC
  5
B0
330
1F
100
AcDbEntity
  8
0
  6
Continuous
 62
     7
370
    15
100
AcDbCircle
 10
157.9517122055
 20
459.2914176782
 30
0.0
 40
2.399999999999967
100
AcDbArc
 50
99.5940682269
 51
260.4059317731
  0
ARC
  5
B1
330
1F
100
AcDbEntity
  8
0
  6
Continuous
 62
     7
370
    15
100
AcDbCircle
 10
157.9517122055
 20
459.2914176782
 30
0.0
 40
3.0
100
AcDbArc
 50
97.6622556608
 51
262.3377443392
  0
SPLINE
  5
B2
330
1F
100
AcDbEntity
  8
0
  6
Continuous
 62
     7
370
    15
100
AcDbSpline
210
0.0
220
0.0
230
1.0
 70
    24
 71
     3
 72
    10
 73
     6
 74
     0
 42
0.00000001
 43
0.00000001
 12
1.0
 22
0.0
 32
0.0
 13
1.0
 23
0.0
 33
0.0
 40
0.0
 40
0.0
 40
0.0
 40
0.0
 40
0.5
 40
0.5
 40
1.0
 40
1.0
 40
1.0
 40
1.0
 10
157.5517122055204
 20
456.9249857649458
 30
0.0
 10
157.5517122055204
 20
456.7656122647262
 30
0.0
 10
157.5517122055204
 20
456.6094726503773
 30
0.0
 10
157.5517122055204
 20
456.3848340827783
 30
0.0
 10
157.5517122055204
 20
456.3182039287219
 30
0.0
 10
157.5517122055204
 20
456.3182039287219
 30
0.0
  0
SPLINE
  5
B3
330
1F
100
AcDbEntity
  8
0
  6
Continuous
 62
     7
370
    15
100
AcDbSpline
210
0.0
220
0.0
230
1.0
 70
    24
 71
     3
 72
    10
 73
     6
 74
     0
 42
0.00000001
 43
0.00000001
 12
1.0
 22
0.0
 32
0.0
 13
1.0
 23
0.0
 33
0.0
 40
0.0
 40
0.0
 40
0.0
 40
0.0
 40
0.5
 40
0.5
 40
1.0
 40
1.0
 40
1.0
 40
1.0
 10
157.5517122055204
 20
462.2646314276493
 30
0.0
 10
157.5517122055204
 20
462.2646314276493
 30
0.0
 10
157.5517122055204
 20
462.1981274746257
 30
0.0
 10
157.5517122055204
 20
461.9738696028726
 30
0.0
 10
157.5517122055204
 20
461.8171974093477
 30
0.0
 10
157.5517122055204
 20
461.6578495914254
 30
0.0
  0
LINE
  5
B4
330
1F
100
AcDbEntity
  8
0
  6
Continuous
 62
     7
370
    15
100
AcDbLine
 10
158.3517122055
 20
461.5563680088
 30
0.0
 11
158.3517122055
 21
457.0264673476
 31
0.0
  0
LINE
  5
B5
330
1F
100
AcDbEntity
  8
0
  6
Continuous
 62
     7
370
    15
100
AcDbLine
 10
157.5517122055
 20
456.9249857649
 30
0.0
 11
157.5517122055
 21
461.6578495914
 31
0.0
  0
SPLINE
  5
B6
330
1F
100
AcDbEntity
  8
0
  6
Continuous
 62
     7
370
     0
100
AcDbSpline
210
0.0
220
0.0
230
1.0
 70
     8
 71
     3
 72
    22
 73
    18
 74
     0
 42
0.00000001
 43
0.00000001
 12
1.0
 22
0.0
 32
0.0
 13
1.0
 23
0.0
 33
0.0
 40
0.0
 40
0.0
 40
0.0
 40
0.0
 40
0.125
 40
0.125
 40
0.25
 40
0.25
 40
0.375
 40
0.375
 40
0.5
 40
0.5
 40
0.625
 40
0.625
 40
0.75
 40
0.75
 40
0.875
 40
0.875
 40
1.0
 40
1.0
 40
1.0
 40
1.0
 10
149.6676319667997
 20
469.5999152542375
 30
0.0
 10
149.4815377084699
 20
469.5999152542375
 30
0.0
 10
149.2999159929478
 20
469.6201511857586
 30
0.0
 10
148.9448634265636
 20
469.6979243149547
 30
0.0
 10
148.7699599310626
 20
469.756183069271
 30
0.0
 10
148.435321058414
 20
469.9083196011916
 30
0.0
 10
148.2778600238991
 20
470.0007470761267
 30
0.0
 10
147.9813925721269
 20
470.2170084918672
 30
0.0
 10
147.840978857241
 20
470.3425291957853
 30
0.0
 10
147.5876651521668
 20
470.6183491469969
 30
0.0
 10
147.4747093630725
 20
470.7679418867406
 30
0.0
 10
147.2756769646587
 20
471.0906158609985
 30
0.0
 10
147.1889198331481
 20
471.2659752629972
 30
0.0
 10
147.0503517520228
 20
471.6277489679036
 30
0.0
 10
146.9977147994084
 20
471.8146259410968
 30
0.0
 10
146.9261894459811
 20
472.2006781068264
 30
0.0
 10
146.9076319667997
 20
472.4004269390496
 30
0.0
 10
146.9076319667997
 20
472.5999152542375
 30
0.0
  0
SPLINE
  5
B7
330
1F
100
AcDbEntity
  8
0
  6
Continuous
 62
     7
370
     0
100
AcDbSpline
210
0.0
220
0.0
230
1.0
 70
     8
 71
     3
 72
    22
 73
    18
 74
     0
 42
0.00000001
 43
0.00000001
 12
1.0
 22
0.0
 32
0.0
 13
1.0
 23
0.0
 33
0.0
 40
0.0
 40
0.0
 40
0.0
 40
0.0
 40
0.125
 40
0.125
 40
0.25
 40
0.25
 40
0.375
 40
0.375
 40
0.5
 40
0.5
 40
0.625
 40
0.625
 40
0.75
 40
0.75
 40
0.875
 40
0.875
 40
1.0
 40
1.0
 40
1.0
 40
1.0
 10
166.2276319667997
 20
479.5999152542375
 30
0.0
 10
166.4137262251295
 20
479.5999152542375
 30
0.0
 10
166.5953479406516
 20
479.5796793227165
 30
0.0
 10
166.9504005070357
 20
479.5019061935203
 30
0.0
 10
167.1253040025368
 20
479.443647439204
 30
0.0
 10
167.4599428751854
 20
479.2915109072834
 30
0.0
 10
167.6174039097003
 20
479.1990834323483
 30
0.0
 10
167.9138713614725
 20
478.9828220166078
 30
0.0
 10
168.0542850763584
 20
478.8573013126897
 30
0.0
 10
168.3075987814326
 20
478.5814813614782
 30
0.0
 10
168.4205545705269
 20
478.4318886217343
 30
0.0
 10
168.6195869689407
 20
478.1092146474764
 30
0.0
 10
168.7063441004513
 20
477.9338552454778
 30
0.0
 10
168.8449121815766
 20
477.5720815405713
 30
0.0
 10
168.897549134191
 20
477.3852045673782
 30
0.0
 10
168.9690744876183
 20
476.9991524016486
 30
0.0
 10
168.9876319667997
 20
476.7994035694254
 30
0.0
 10
168.9876319667997
 20
476.5999152542375
 30
0.0
  0
SPLINE
  5
B8
330
1F
100
AcDbEntity
  8
0
  6
Continuous
 62
     7
370
     0
100
AcDbSpline
210
0.0
220
0.0
230
1.0
 70
     8
 71
     3
 72
    20
 73
    16
 74
     0
 42
0.00000001
 43
0.00000001
 12
1.0
 22
0.0
 32
0.0
 13
1.0
 23
0.0
 33
0.0
 40
0.0
 40
0.0
 40
0.0
 40
0.0
 40
0.1249999999999983
 40
0.1249999999999983
 40
0.2499999999999967
 40
0.2499999999999967
 40
0.4999999999999978
 40
0.4999999999999978
 40
0.6249999999999983
 40
0.6249999999999983
 40
0.7499999999999989
 40
0.7499999999999989
 40
0.8749999999999994
 40
0.8749999999999994
 40
1.0
 40
1.0
 40
1.0
 40
1.0
 10
146.9076319667997
 20
476.5999152542375
 30
0.0
 10
146.9076319667997
 20
476.7990033927325
 30
0.0
 10
146.9256829844723
 20
476.9947460396937
 30
0.0
 10
146.9964187868105
 20
477.379840307782
 30
0.0
 10
147.0499813473669
 20
477.5708907784992
 30
0.0
 10
147.2575531239179
 20
478.1134882970449
 30
0.0
 10
147.4619308288966
 20
478.4445438945418
 30
0.0
 10
147.8403473611149
 20
478.8566296914602
 30
0.0
 10
147.9804316260506
 20
478.9820942429478
 30
0.0
 10
148.2782982930163
 20
479.199429886615
 30
0.0
 10
148.4357342757205
 20
479.2916431772119
 30
0.0
 10
148.7682161749248
 20
479.4429100457451
 30
0.0
 10
148.9441584936621
 20
479.5017350895456
 30
0.0
 10
149.3001726488891
 20
479.5797522120538
 30
0.0
 10
149.4818985667922
 20
479.5999152542375
 30
0.0
 10
149.6676319667997
 20
479.5999152542375
 30
0.0
  0
SPLINE
  5
B9
330
1F
100
AcDbEntity
  8
0
  6
Continuous
 62
     7
370
     0
100
AcDbSpline
210
0.0
220
0.0
230
1.0
 70
     8
 71
     3
 72
    20
 73
    16
 74
     0
 42
0.00000001
 43
0.00000001
 12
1.0
 22
0.0
 32
0.0
 13
1.0
 23
0.0
 33
0.0
 40
0.0
 40
0.0
 40
0.0
 40
0.0
 40
0.1249999999999982
 40
0.1249999999999982
 40
0.2499999999999964
 40
0.2499999999999964
 40
0.4999999999999964
 40
0.4999999999999964
 40
0.6249999999999973
 40
0.6249999999999973
 40
0.7499999999999981
 40
0.7499999999999981
 40
0.874999999999999
 40
0.874999999999999
 40
1.0
 40
1.0
 40
1.0
 40
1.0
 10
168.9876319667997
 20
472.5999152542375
 30
0.0
 10
168.9876319667997
 20
472.4008271157426
 30
0.0
 10
168.9695809491271
 20
472.2050844687813
 30
0.0
 10
168.8988451467889
 20
471.819990200693
 30
0.0
 10
168.8452825862325
 20
471.6289397299758
 30
0.0
 10
168.6377108096815
 20
471.0863422114301
 30
0.0
 10
168.4333331047028
 20
470.7552866139332
 30
0.0
 10
168.0549165724845
 20
470.3432008170149
 30
0.0
 10
167.9148323075488
 20
470.2177362655273
 30
0.0
 10
167.6169656405831
 20
470.00040062186
 30
0.0
 10
167.4595296578789
 20
469.908187331263
 30
0.0
 10
167.1270477586746
 20
469.7569204627299
 30
0.0
 10
166.9511054399373
 20
469.6980954189294
 30
0.0
 10
166.5950912847103
 20
469.6200782964212
 30
0.0
 10
166.4133653668073
 20
469.5999152542375
 30
0.0
 10
166.2276319667997
 20
469.5999152542375
 30
0.0
  0
ARC
  5
BA
330
1F
100
AcDbEntity
  8
0
  6
Continuous
 62
     7
370
    15
100
AcDbCircle
 10
157.9517122055
 20
459.2914176782
 30
0.0
 40
3.0
100
AcDbArc
 50
262.3377443392
 51
270.0
  0
ARC
  5
BB
330
1F
100
AcDbEntity
  8
0
  6
Continuous
 62
     7
370
    15
100
AcDbCircle
 10
157.9517122055
 20
459.2914176782
 30
0.0
 40
3.0
100
AcDbArc
 50
90.0
 51
97.6622556608
  0
ARC
  5
BC
330
1F
100
AcDbEntity
  8
0
  6
Continuous
 62
     7
370
    15
100
AcDbCircle
 10
157.9517122055
 20
459.2914176782
 30
0.0
 40
3.0
100
AcDbArc
 50
270.0
 51
277.6622556608
  0
ARC
  5
BD
330
1F
100
AcDbEntity
  8
0
  6
Continuous
 62
     7
370
    15
100
AcDbCircle
 10
157.9517122055
 20
459.2914176782
 30
0.0
 40
3.0
100
AcDbArc
 50
82.3377443392
 51
90.0
  0
SPLINE
  5
BE
330
1F
100
AcDbEntity
  8
0
  6
Continuous
 62
     7
370
    15
100
AcDbSpline
210
0.0
220
0.0
230
1.0
 70
     8
 71
     3
 72
    10
 73
     6
 74
     0
 42
0.00000001
 43
0.00000001
 12
1.0
 22
0.0
 32
0.0
 13
1.0
 23
0.0
 33
0.0
 40
0.0
 40
0.0
 40
0.0
 40
0.0
 40
0.2153464778925187
 40
0.6274165719451951
 40
1.0
 40
1.0
 40
1.0
 40
1.0
 10
134.9651096254478
 20
447.7997717924289
 30
0.0
 10
134.9622753462417
 20
447.7707814006843
 30
0.0
 10
134.9540176131189
 20
447.6863172739166
 30
0.0
 10
135.0823517235675
 20
447.6172373389049
 30
0.0
 10
135.2756641549115
 20
447.605492263929
 30
0.0
 10
135.367456272485
 20
447.5999152542375
 30
0.0
  0
SPLINE
  5
BF
330
1F
100
AcDbEntity
  8
0
  6
Continuous
 62
     7
370
    15
100
AcDbSpline
210
0.0
220
0.0
230
1.0
 70
     8
 71
     3
 72
    10
 73
     6
 74
     0
 42
0.00000001
 43
0.00000001
 12
1.0
 22
0.0
 32
0.0
 13
1.0
 23
0.0
 33
0.0
 40
0.0
 40
0.0
 40
0.0
 40
0.0
 40
0.3975144040062091
 40
0.7978409649420308
 40
1.0
 40
1.0
 40
1.0
 40
1.0
 10
180.5278076611144
 20
447.5999152542375
 30
0.0
 10
180.624917280795
 20
447.6062426070833
 30
0.0
 10
180.8198235078156
 20
447.6189420746982
 30
0.0
 10
180.9432150919963
 20
447.6903085684792
 30
0.0
 10
180.9333938052986
 20
447.7722880780082
 30
0.0
 10
180.9300983541624
 20
447.7997956211779
 30
0.0
  0
LINE
  5
C0
330
1F
100
AcDbEntity
  8
0
  6
Continuous
 62
     7
370
     0
100
AcDbLine
 10
168.9876319668
 20
476.5999152542
 30
0.0
 11
168.9876319668
 21
472.5999152542
 31
0.0
  0
LINE
  5
C1
330
1F
100
AcDbEntity
  8
0
  6
Continuous
 62
     7
370
     0
100
AcDbLine
 10
146.9076319668
 20
472.5999152542
 30
0.0
 11
146.9076319668
 21
476.5999152542
 31
0.0
  0
LINE
  5
C2
330
1F
100
AcDbEntity
  8
0
  6
Continuous
 62
     7
370
    15
100
AcDbLine
 10
135.3674562725
 20
447.5999152542
 30
0.0
 11
180.5278076611
 21
447.5999152542
 31
0.0
  0
LINE
  5
C3
330
1F
100
AcDbEntity
  8
0
  6
Continuous
 62
     7
370
    15
100
AcDbLine
 10
136.4476319668
 20
482.5999152542
 30
0.0
 11
179.4476319236
 21
482.5999152542
 31
0.0
  0
LINE
  5
C4
330
1F
100
AcDbEntity
  8
0
  6
Continuous
 62
     7
370
    15
100
AcDbLine
 10
157.9476319668
 20
439.9999152542
 30
0.0
 11
180.4476319668
 21
439.9999152542
 31
0.0
  0
LINE
  5
C5
330
1F
100
AcDbEntity
  8
0
  6
Continuous
 62
     7
370
    15
100
AcDbLine
 10
135.4476319668
 20
439.9999152542
 30
0.0
 11
157.9476319668
 21
439.9999152542
 31
0.0
  0
LINE
  5
C6
330
1F
100
AcDbEntity
  8
0
  6
Continuous
 62
     7
370
    15
100
AcDbLine
 10
157.9476319668
 20
290.5499152542
 30
0.0
 11
180.4476319668
 21
290.5499152542
 31
0.0
  0
LINE
  5
C7
330
1F
100
AcDbEntity
  8
0
  6
Continuous
 62
     7
370
    15
100
AcDbLine
 10
135.4476319668
 20
290.5499152542
 30
0.0
 11
157.9476319668
 21
290.5499152542
 31
0.0
  0
SPLINE
  5
C8
330
1F
100
AcDbEntity
  8
0
  6
Continuous
 62
     7
370
     0
100
AcDbSpline
210
0.0
220
0.0
230
1.0
 70
     8
 71
     3
 72
    10
 73
     6
 74
     0
 42
0.00000001
 43
0.00000001
 12
1.0
 22
0.0
 32
0.0
 13
1.0
 23
0.0
 33
0.0
 40
0.0
 40
0.0
 40
0.0
 40
0.0
 40
0.5
 40
0.5
 40
1.0
 40
1.0
 40
1.0
 40
1.0
 10
177.8250625832734
 20
432.8057742528506
 30
0.0
 10
177.9334847880068
 20
430.09142230093
 30
0.0
 10
177.9870078545675
 20
427.3287911867361
 30
0.0
 10
177.9883554554002
 20
421.8002586248766
 30
0.0
 10
177.9361796364929
 20
419.0368882655695
 30
0.0
 10
177.8291544851548
 20
416.3213631711589
 30
0.0
  0
SPLINE
  5
C9
330
1F
100
AcDbEntity
  8
0
  6
Continuous
 62
     7
370
     0
100
AcDbSpline
210
0.0
220
0.0
230
1.0
 70
     8
 71
     3
 72
    10
 73
     6
 74
     0
 42
0.00000001
 43
0.00000001
 12
1.0
 22
0.0
 32
0.0
 13
1.0
 23
0.0
 33
0.0
 40
0.0
 40
0.0
 40
0.0
 40
0.0
 40
0.5
 40
0.5
 40
1.0
 40
1.0
 40
1.0
 40
1.0
 10
138.0661094484446
 20
416.3213631711588
 30
0.0
 10
137.9590842983006
 20
419.0368882358061
 30
0.0
 10
137.9069088098312
 20
421.8002322662859
 30
0.0
 10
137.908255734555
 20
427.3287648353851
 30
0.0
 10
137.9617791442422
 20
430.0914222679399
 30
0.0
 10
138.070201350326
 20
432.8057742528506
 30
0.0
  0
SPLINE
  5
CA
330
1F
100
AcDbEntity
  8
0
  6
Continuous
 62
     8
370
    15
100
AcDbSpline
210
0.0
220
0.0
230
1.0
 70
     8
 71
     3
 72
    15
 73
    11
 74
     0
 42
0.00000001
 43
0.00000001
 12
1.0
 22
0.0
 32
0.0
 13
1.0
 23
0.0
 33
0.0
 40
0.0
 40
0.0
 40
0.0
 40
0.0
 40
0.0251493543356612
 40
0.1646654595492089
 40
0.3034908029012346
 40
0.4430415152155686
 40
0.5818363301375676
 40
0.7214262938033477
 40
0.8601978398112797
 40
0.9999999999999999
 40
0.9999999999999999
 40
0.9999999999999999
 40
0.9999999999999999
 10
144.9732021600199
 20
434.1097631386912
 30
0.0
 10
145.1845303495875
 20
434.1203327546275
 30
0.0
 10
146.5682021920693
 20
434.1895373410427
 30
0.0
 10
149.494357433106
 20
434.2906388652769
 30
0.0
 10
153.6379082791115
 20
434.387599876589
 30
0.0
 10
157.9381580260971
 20
434.4203184664153
 30
0.0
 10
162.2388230819506
 20
434.3875131917026
 30
0.0
 10
166.3981903739455
 20
434.2924284388048
 30
0.0
 10
170.3495054062684
 20
434.1476107640933
 30
0.0
 10
172.6539998622939
 20
434.0279423345088
 30
0.0
 10
173.8105099561355
 20
433.9678867564333
 30
0.0
  0
LINE
  5
CB
330
1F
100
AcDbEntity
  8
0
  6
Continuous
 62
     8
370
    15
100
AcDbLine
 10
145.9476319668
 20
415.183694069
 30
0.0
 11
144.8715092082
 21
415.1804315614
 31
0.0
  0
LINE
  5
CC
330
1F
100
AcDbEntity
  8
0
  6
Continuous
 62
     7
370
    15
100
AcDbLine
 10
269.2049233922
 20
481.0999152542
 30
0.0
 11
269.2049233922
 21
451.6554358105
 31
0.0
  0
LINE
  5
CD
330
1F
100
AcDbEntity
  8
0
  6
Continuous
 62
     7
370
    15
100
AcDbLine
 10
315.2049233922
 20
479.5999152542
 30
0.0
 11
315.2049233922
 21
481.0999152542
 31
0.0
  0
LINE
  5
CE
330
1F
100
AcDbEntity
  8
0
  6
Continuous
 62
     7
370
    15
100
AcDbLine
 10
315.2049233922
 20
462.2910793809
 30
0.0
 11
315.2049233922
 21
469.5999152542
 31
0.0
  0
LINE
  5
CF
330
1F
100
AcDbEntity
  8
0
  6
Continuous
 62
     7
370
    15
100
AcDbLine
 10
315.2049233922
 20
447.5999152542
 30
0.0
 11
315.2049233922
 21
456.2920308025
 31
0.0
  0
ARC
  5
D0
330
1F
100
AcDbEntity
  8
0
  6
Continuous
 62
     7
370
    15
100
AcDbCircle
 10
270.7049233922
 20
481.0999152542
 30
0.0
 40
1.5
100
AcDbArc
 50
90.0
 51
180.0
  0
ARC
  5
D1
330
1F
100
AcDbEntity
  8
0
  6
Continuous
 62
     7
370
    15
100
AcDbCircle
 10
313.7049233922
 20
481.0999152542
 30
0.0
 40
1.5
100
AcDbArc
 50
0.0
 51
90.0
  0
LINE
  5
D2
330
1F
100
AcDbEntity
  8
0
  6
Continuous
 62
     7
370
    15
100
AcDbLine
 10
268.9777352635
 20
439.9999152542
 30
0.0
 11
268.9777352635
 21
290.5499152542
 31
0.0
  0
LINE
  5
D3
330
1F
100
AcDbEntity
  8
0
  6
Continuous
 62
     7
370
    15
100
AcDbLine
 10
313.9777352635
 20
439.3667018793
 30
0.0
 11
313.9777352635
 21
439.9999152542
 31
0.0
  0
LINE
  5
D4
330
1F
100
AcDbEntity
  8
0
  6
Continuous
 62
     7
370
    15
100
AcDbLine
 10
313.9777352635
 20
290.5499152542
 30
0.0
 11
313.9777352635
 21
405.9999152542
 31
0.0
  0
LINE
  5
D5
330
1F
100
AcDbEntity
  8
0
  6
Continuous
 62
     7
370
    15
100
AcDbLine
 10
269.4777352635
 20
441.9999152542
 30
0.0
 11
269.4777352635
 21
439.9999152542
 31
0.0
  0
LINE
  5
D6
330
1F
100
AcDbEntity
  8
0
  6
Continuous
 62
     7
370
    15
100
AcDbLine
 10
313.4777352635
 20
439.9999152542
 30
0.0
 11
313.4777352635
 21
441.9999152542
 31
0.0
  0
ARC
  5
D7
330
1F
100
AcDbEntity
  8
0
  6
Continuous
 62
     7
370
    15
100
AcDbCircle
 10
291.4777352635
 20
442.0733811593
 30
0.0
 40
21.99999999999999
100
AcDbArc
 50
155.3372238332
 51
180.1918176167
  0
ARC
  5
D8
330
1F
100
AcDbEntity
  8
0
  6
Continuous
 62
     7
370
    15
100
AcDbCircle
 10
291.4777352635
 20
442.0733811593
 30
0.0
 40
22.00000000000006
100
AcDbArc
 50
0.0
 51
14.5488941612
  0
SPLINE
  5
D9
330
1F
100
AcDbEntity
  8
0
  6
Continuous
 62
     7
370
    15
100
AcDbSpline
210
0.0
220
0.0
230
1.0
 70
     8
 71
     3
 72
    16
 73
    12
 74
     0
 42
0.00000001
 43
0.00000001
 12
1.0
 22
0.0
 32
0.0
 13
1.0
 23
0.0
 33
0.0
 40
0.0
 40
0.0
 40
0.0
 40
0.0
 40
0.0384930115164169
 40
0.1825370866267554
 40
0.2968168520100786
 40
0.4193812939284108
 40
0.5833146594770257
 40
0.6733692286126073
 40
0.7677550477182853
 40
0.872994814480597
 40
1.0
 40
1.0
 40
1.0
 40
1.0
 10
314.005313444915
 20
406.0010843102829
 30
0.0
 10
313.9968216474881
 20
406.152719170461
 30
0.0
 10
313.9565528324102
 20
406.8717843856146
 30
0.0
 10
314.1171460208716
 20
408.038986293828
 30
0.0
 10
314.3559284526934
 20
409.5203203196901
 30
0.0
 10
314.7363327406088
 20
411.0544064772033
 30
0.0
 10
315.2571430302681
 20
412.4474122610196
 30
0.0
 10
316.0119768729701
 20
413.5881609153049
 30
0.0
 10
316.850848942862
 20
414.3575843415217
 30
0.0
 10
318.0062746247179
 20
414.9366979175546
 30
0.0
 10
318.9090499019109
 20
415.0739943292853
 30
0.0
 10
319.4027404662731
 20
415.1490760741056
 30
0.0
  0
SPLINE
  5
DA
330
1F
100
AcDbEntity
  8
0
  6
Continuous
 62
     7
370
    15
100
AcDbSpline
210
0.0
220
0.0
230
1.0
 70
     8
 71
     3
 72
    12
 73
     8
 74
     0
 42
0.00000001
 43
0.00000001
 12
1.0
 22
0.0
 32
0.0
 13
1.0
 23
0.0
 33
0.0
 40
0.0
 40
0.0
 40
0.0
 40
0.0
 40
0.1767558957456921
 40
0.3400755159662116
 40
0.6386871306462525
 40
0.8753065538255637
 40
1.0
 40
1.0
 40
1.0
 40
1.0
 10
316.4066369582587
 20
434.674802427275
 30
0.0
 10
316.1085067462366
 20
434.8211974107288
 30
0.0
 10
315.5349089873
 20
435.1028590171092
 30
0.0
 10
314.7568878368543
 20
436.034887758395
 30
0.0
 10
314.2548772286996
 20
437.2493672950487
 30
0.0
 10
313.9992176790882
 20
438.4607076352304
 30
0.0
 10
313.9938960364128
 20
439.1346476730048
 30
0.0
 10
313.9920594730883
 20
439.3672325404504
 30
0.0
  0
LWPOLYLINE
  5
DB
330
1F
100
AcDbEntity
  8
0
  6
Continuous
 62
     7
370
    15
100
AcDbPolyline
 90
        7
 70
   128
 43
0.0
 10
421.9938461359
 20
433.6235451126
 10
421.1005325263
 20
433.630358894
 10
417.904136607
 20
433.6543531172
 10
414.7077454302
 20
433.6784191022
 10
399.6390568809
 20
433.792091791
 10
372.7306866296
 20
433.9952658008
 10
317.9774842113
 20
434.4094550544
  0
SPLINE
  5
DC
330
1F
100
AcDbEntity
  8
0
  6
Continuous
 62
     7
370
    15
100
AcDbSpline
210
0.0
220
0.0
230
1.0
 70
     8
 71
     3
 72
     9
 73
     5
 74
     0
 42
0.00000001
 43
0.00000001
 12
1.0
 22
0.0
 32
0.0
 13
1.0
 23
0.0
 33
0.0
 40
0.0
 40
0.0
 40
0.0
 40
0.0
 40
0.5037382422757286
 40
1.0
 40
1.0
 40
1.0
 40
1.0
 10
434.0765021165706
 20
432.7729799108933
 30
0.0
 10
433.9523398313671
 20
432.8795425803762
 30
0.0
 10
433.7058580779814
 20
433.0910863158715
 30
0.0
 10
433.4102182933601
 20
433.1558429168946
 30
0.0
 10
433.2635035741907
 20
433.1879791415425
 30
0.0
  0
LINE
  5
DD
330
1F
100
AcDbEntity
  8
0
  6
Continuous
 62
     7
370
    15
100
AcDbLine
 10
432.684300586
 20
412.9907065926
 30
0.0
 11
432.2637888183
 21
415.9828032927
 31
0.0
  0
LINE
  5
DE
330
1F
100
AcDbEntity
  8
0
  6
Continuous
 62
     7
370
    15
100
AcDbLine
 10
408.051683416
 20
415.8137681633
 30
0.0
 11
408.9178669362
 21
409.6505521695
 31
0.0
  0
SPLINE
  5
DF
330
1F
100
AcDbEntity
  8
0
  6
Continuous
 62
     7
370
    15
100
AcDbSpline
210
0.0
220
0.0
230
1.0
 70
     8
 71
     3
 72
     9
 73
     5
 74
     0
 42
0.00000001
 43
0.00000001
 12
1.0
 22
0.0
 32
0.0
 13
1.0
 23
0.0
 33
0.0
 40
0.0
 40
0.0
 40
0.0
 40
0.0
 40
0.4997502397814562
 40
1.0
 40
1.0
 40
1.0
 40
1.0
 10
433.3362471931109
 20
433.1776611715462
 30
0.0
 10
431.4362646547383
 20
433.3383898017618
 30
0.0
 10
427.6344004691335
 20
433.6600077169144
 30
0.0
 10
423.819028722726
 20
433.6361722244285
 30
0.0
 10
421.9103899214411
 20
433.6242485250278
 30
0.0
  0
LINE
  5
E0
330
1F
100
AcDbEntity
  8
0
  6
Continuous
 62
     7
370
    15
100
AcDbLine
 10
408.9178669362
 20
409.6505521695
 30
0.0
 11
409.9884866323
 21
409.2179937344
 31
0.0
  0
LINE
  5
E1
330
1F
100
AcDbEntity
  8
0
  6
Continuous
 62
     7
370
    15
100
AcDbLine
 10
431.7743841446
 20
412.2798019555
 30
0.0
 11
432.684300586
 21
412.9907065926
 31
0.0
  0
ARC
  5
E2
330
1F
100
AcDbEntity
  8
0
  6
Continuous
 62
     7
370
    15
100
AcDbCircle
 10
317.2049233922
 20
479.5999152542
 30
0.0
 40
2.0
100
AcDbArc
 50
180.0
 51
270.0
  0
ARC
  5
E3
330
1F
100
AcDbEntity
  8
0
  6
Continuous
 62
     7
370
    15
100
AcDbCircle
 10
317.2049233922
 20
469.5999152542
 30
0.0
 40
2.0
100
AcDbArc
 50
90.0
 51
180.0
  0
SPLINE
  5
E4
330
1F
100
AcDbEntity
  8
0
  6
Continuous
 62
     7
370
    15
100
AcDbSpline
210
0.0
220
0.0
230
1.0
 70
     8
 71
     3
 72
    12
 73
     8
 74
     0
 42
0.00000001
 43
0.00000001
 12
1.0
 22
0.0
 32
0.0
 13
1.0
 23
0.0
 33
0.0
 40
0.0
 40
0.0
 40
0.0
 40
0.0
 40
0.4999999999999999
 40
0.4999999999999999
 40
0.7499999999999999
 40
0.7499999999999999
 40
1.0
 40
1.0
 40
1.0
 40
1.0
 10
287.8969476851716
 20
448.359527603627
 30
0.0
 10
289.3238807852123
 20
448.1079207984239
 30
0.0
 10
290.7619210353378
 20
447.9181906878481
 30
0.0
 10
292.9357098723713
 20
447.7275489902233
 30
0.0
 10
293.6631040056899
 20
447.6796811608604
 30
0.0
 10
295.1236240108469
 20
447.6157663301205
 30
0.0
 10
295.8553948371587
 20
447.5999152542374
 30
0.0
 10
296.5793565685179
 20
447.5999152542374
 30
0.0
  0
LINE
  5
E5
330
1F
100
AcDbEntity
  8
0
  6
Continuous
 62
     7
370
    15
100
AcDbLine
 10
269.2049233922
 20
451.6554358105
 30
0.0
 11
287.8969476852
 21
448.3595276036
 31
0.0
  0
LINE
  5
E6
330
1F
100
AcDbEntity
  8
0
  6
Continuous
 62
     7
370
    15
100
AcDbLine
 10
296.5793565685
 20
447.5999152542
 30
0.0
 11
315.2049233922
 21
447.5999152542
 31
0.0
  0
SPLINE
  5
E7
330
1F
100
AcDbEntity
  8
0
  6
Continuous
 62
     7
370
    15
100
AcDbSpline
210
0.0
220
0.0
230
1.0
 70
     8
 71
     3
 72
    22
 73
    18
 74
     0
 42
0.00000001
 43
0.00000001
 12
1.0
 22
0.0
 32
0.0
 13
1.0
 23
0.0
 33
0.0
 40
0.0
 40
0.0
 40
0.0
 40
0.0
 40
0.125
 40
0.125
 40
0.25
 40
0.25
 40
0.375
 40
0.375
 40
0.5
 40
0.5
 40
0.625
 40
0.625
 40
0.75
 40
0.75
 40
0.875
 40
0.875
 40
1.0
 40
1.0
 40
1.0
 40
1.0
 10
313.6628263652526
 20
469.5999152542374
 30
0.0
 10
313.5910178357375
 20
469.5999152542374
 30
0.0
 10
313.5181578997634
 20
469.6201511857585
 30
0.0
 10
313.3706295072752
 20
469.6979243149546
 30
0.0
 10
313.2952971971378
 20
469.7561830692709
 30
0.0
 10
313.1464962177964
 20
469.9083196011916
 30
0.0
 10
313.0740963484316
 20
470.0007470761266
 30
0.0
 10
312.93415255377
 20
470.2170084918671
 30
0.0
 10
312.8658905611973
 20
470.3425291957852
 30
0.0
 10
312.7400418246569
 20
470.6183491469968
 30
0.0
 10
312.6824830321042
 20
470.7679418867405
 30
0.0
 10
312.5794646901475
 20
471.0906158609984
 30
0.0
 10
312.5336292134041
 20
471.2659752629971
 30
0.0
 10
312.4596870556069
 20
471.6277489679036
 30
0.0
 10
312.4311680021283
 20
471.8146259410967
 30
0.0
 10
312.3922823515506
 20
472.2006781068263
 30
0.0
 10
312.3820986157262
 20
472.4004269390495
 30
0.0
 10
312.3820986157262
 20
472.5999152542374
 30
0.0
  0
SPLINE
  5
E8
330
1F
100
AcDbEntity
  8
0
  6
Continuous
 62
     7
370
    15
100
AcDbSpline
210
0.0
220
0.0
230
1.0
 70
     8
 71
     3
 72
    20
 73
    16
 74
     0
 42
0.00000001
 43
0.00000001
 12
1.0
 22
0.0
 32
0.0
 13
1.0
 23
0.0
 33
0.0
 40
0.0
 40
0.0
 40
0.0
 40
0.0
 40
0.1249999999999983
 40
0.1249999999999983
 40
0.2499999999999967
 40
0.2499999999999967
 40
0.4999999999999978
 40
0.4999999999999978
 40
0.6249999999999983
 40
0.6249999999999983
 40
0.7499999999999989
 40
0.7499999999999989
 40
0.8749999999999994
 40
0.8749999999999994
 40
1.0
 40
1.0
 40
1.0
 40
1.0
 10
312.3820986157262
 20
476.5999152542374
 30
0.0
 10
312.3820986157262
 20
476.7990033927324
 30
0.0
 10
312.3920049376484
 20
476.9947460396937
 30
0.0
 10
312.4304654264212
 20
477.3798403077819
 30
0.0
 10
312.459487362865
 20
477.5708907784992
 30
0.0
 10
312.5702570990227
 20
478.1134882970448
 30
0.0
 10
312.6775740445628
 20
478.4445438945417
 30
0.0
 10
312.8655776938465
 20
478.8566296914601
 30
0.0
 10
312.9336966607396
 20
478.9820942429477
 30
0.0
 10
313.0743055142513
 20
479.1994298866149
 30
0.0
 10
313.1466736438915
 20
479.2916431772119
 30
0.0
 10
313.2945281066005
 20
479.442910045745
 30
0.0
 10
313.3703343953935
 20
479.5017350895456
 30
0.0
 10
313.5182667446796
 20
479.5797522120538
 30
0.0
 10
313.5911570807938
 20
479.5999152542374
 30
0.0
 10
313.6628263652526
 20
479.5999152542374
 30
0.0
  0
LINE
  5
E9
330
1F
100
AcDbEntity
  8
0
  6
Continuous
 62
     7
370
    15
100
AcDbLine
 10
312.3820986157
 20
472.5999152542
 30
0.0
 11
312.3820986157
 21
476.5999152542
 31
0.0
  0
SPLINE
  5
EA
330
1F
100
AcDbEntity
  8
0
  6
Continuous
 62
     7
370
    15
100
AcDbSpline
210
0.0
220
0.0
230
1.0
 70
     8
 71
     3
 72
    14
 73
    10
 74
     0
 42
0.00000001
 43
0.00000001
 12
1.0
 22
0.0
 32
0.0
 13
1.0
 23
0.0
 33
0.0
 40
0.0
 40
0.0
 40
0.0
 40
0.0
 40
0.25
 40
0.25
 40
0.5
 40
0.5
 40
0.75
 40
0.75
 40
1.0
 40
1.0
 40
1.0
 40
1.0
 10
315.0710761068305
 20
457.6059788625718
 30
0.0
 10
315.08602687773
 20
457.4028094652126
 30
0.0
 10
315.1020883533257
 20
457.2205770435423
 30
0.0
 10
315.1336163505459
 20
456.8963964116086
 30
0.0
 10
315.1491122590748
 20
456.7546256199502
 30
0.0
 10
315.1752424971942
 20
456.5276225311454
 30
0.0
 10
315.1862029531292
 20
456.4392595936389
 30
0.0
 10
315.2010638435836
 20
456.3212425696543
 30
0.0
 10
315.20496668381
 20
456.2914176781856
 30
0.0
 10
315.2049230303012
 20
456.2914176781856
 30
0.0
  0
SPLINE
  5
EB
330
1F
100
AcDbEntity
  8
0
  6
Continuous
 62
     7
370
    15
100
AcDbSpline
210
0.0
220
0.0
230
1.0
 70
     8
 71
     3
 72
    14
 73
    10
 74
     0
 42
0.00000001
 43
0.00000001
 12
1.0
 22
0.0
 32
0.0
 13
1.0
 23
0.0
 33
0.0
 40
0.0
 40
0.0
 40
0.0
 40
0.0
 40
0.2500000000000001
 40
0.2500000000000001
 40
0.5000000000000001
 40
0.5000000000000001
 40
0.7500000000000001
 40
0.7500000000000001
 40
1.0
 40
1.0
 40
1.0
 40
1.0
 10
315.2049230303012
 20
462.2914176781856
 30
0.0
 10
315.2049666832951
 20
462.2914176781856
 30
0.0
 10
315.2010650318126
 20
462.261594774628
 30
0.0
 10
315.1863058419427
 20
462.1444002451409
 30
0.0
 10
315.1753037528353
 20
462.0557207632735
 30
0.0
 10
315.1491840732811
 20
461.8288577025345
 30
0.0
 10
315.1337800394714
 20
461.6880486302873
 30
0.0
 10
315.102122475455
 20
461.3626821244299
 30
0.0
 10
315.0860265633698
 20
461.1800216192471
 30
0.0
 10
315.0710761068305
 20
460.9768564937993
 30
0.0
  0
LINE
  5
EC
330
1F
100
AcDbEntity
  8
0
  6
Continuous
 62
     7
370
    15
100
AcDbLine
 10
292.2049233922
 20
482.5999152542
 30
0.0
 11
313.7049233922
 21
482.5999152542
 31
0.0
  0
LINE
  5
ED
330
1F
100
AcDbEntity
  8
0
  6
Continuous
 62
     7
370
    15
100
AcDbLine
 10
270.7049233922
 20
482.5999152542
 30
0.0
 11
292.2049233922
 21
482.5999152542
 31
0.0
  0
LINE
  5
EE
330
1F
100
AcDbEntity
  8
0
  6
Continuous
 62
     7
370
    15
100
AcDbLine
 10
268.9777352635
 20
439.9999152542
 30
0.0
 11
313.9777352635
 21
439.9999152542
 31
0.0
  0
LINE
  5
EF
330
1F
100
AcDbEntity
  8
0
  6
Continuous
 62
     7
370
    15
100
AcDbLine
 10
268.9777352635
 20
290.5499152542
 30
0.0
 11
313.9777352635
 21
290.5499152542
 31
0.0
  0
SPLINE
  5
F0
330
1F
100
AcDbEntity
  8
0
  6
Continuous
 62
     7
370
    15
100
AcDbSpline
210
0.0
220
0.0
230
1.0
 70
     8
 71
     3
 72
    38
 73
    34
 74
     0
 42
0.00000001
 43
0.00000001
 12
1.0
 22
0.0
 32
0.0
 13
1.0
 23
0.0
 33
0.0
 40
0.0
 40
0.0
 40
0.0
 40
0.0
 40
0.0202443701994666
 40
0.0404139976885136
 40
0.060884271336052
 40
0.0730830163234068
 40
0.0974503346642239
 40
0.1285113171567573
 40
0.1471250173132261
 40
0.1965770261283786
 40
0.2539817265565951
 40
0.2731254329806866
 40
0.2986644428445574
 40
0.3637570412359231
 40
0.3767568830838568
 40
0.4026966991971154
 40
0.5001872547684983
 40
0.5010597683531286
 40
0.5019319541581205
 40
0.5071581946232561
 40
0.5904662273597188
 40
0.6158395525442448
 40
0.6252875498862682
 40
0.6409584162037145
 40
0.7149517816927298
 40
0.7457498315958436
 40
0.7641085604374065
 40
0.8126959211790571
 40
0.869088767938421
 40
0.8878028007869131
 40
0.9127079919905671
 40
0.9563809439877197
 40
1.0
 40
1.0
 40
1.0
 40
1.0
 10
306.3673566199624
 20
438.5609978396812
 30
0.0
 10
306.4633350583036
 20
438.5691372887034
 30
0.0
 10
306.6549375802419
 20
438.5853861357027
 30
0.0
 10
306.9379312263812
 20
438.6100443183062
 30
0.0
 10
307.1798339062225
 20
438.6314379543583
 30
0.0
 10
307.437357823219
 20
438.6545572707893
 30
0.0
 10
307.7380154036891
 20
438.6819576476402
 30
0.0
 10
308.059225186208
 20
438.7119570241672
 30
0.0
 10
308.4794738780572
 20
438.7519208651956
 30
0.0
 10
308.9942578082658
 20
438.8021403937105
 30
0.0
 10
309.4831712002768
 20
438.8515871237705
 30
0.0
 10
309.8623109539879
 20
438.890712916743
 30
0.0
 10
310.2591873562009
 20
438.9322319802426
 30
0.0
 10
310.6130555839342
 20
438.9702829162022
 30
0.0
 10
310.9494815298816
 20
439.0071764335499
 30
0.0
 10
311.3783664218403
 20
439.0546797601295
 30
0.0
 10
311.7333547360572
 20
439.0952498362225
 30
0.0
 10
311.9925927666308
 20
439.1253443581576
 30
0.0
 10
312.0107736492236
 20
439.1274555955346
 30
0.0
 10
312.2426145509583
 20
439.1544065875807
 30
0.0
 10
312.5133592624702
 20
439.1864120604578
 30
0.0
 10
312.7615491781468
 20
439.2162175745942
 30
0.0
 10
312.8631605194234
 20
439.2284765963903
 30
0.0
 10
313.0562497177719
 20
439.2518483236486
 30
0.0
 10
313.2632596404028
 20
439.2772225637161
 30
0.0
 10
313.4409450177886
 20
439.2992376160347
 30
0.0
 10
313.5692907835564
 20
439.3152060087508
 30
0.0
 10
313.709385037594
 20
439.3327433643343
 30
0.0
 10
313.8152233941501
 20
439.3461128077082
 30
0.0
 10
313.8807688658081
 20
439.3544116851659
 30
0.0
 10
313.9275049801718
 20
439.3603333711356
 30
0.0
 10
313.9688688726161
 20
439.3655754529764
 30
0.0
 10
313.9748419190428
 20
439.366326795511
 30
0.0
 10
313.9778265983118
 20
439.3667022348306
 30
0.0
  0
SPLINE
  5
F1
330
1F
100
AcDbEntity
  8
0
  6
Continuous
 62
     7
370
    15
100
AcDbSpline
210
0.0
220
0.0
230
1.0
 70
     8
 71
     3
 72
    35
 73
    31
 74
     0
 42
0.00000001
 43
0.00000001
 12
1.0
 22
0.0
 32
0.0
 13
1.0
 23
0.0
 33
0.0
 40
0.0
 40
0.0
 40
0.0
 40
0.0
 40
0.0334914768898907
 40
0.0666144319741889
 40
0.0995503118393187
 40
0.1324903604280394
 40
0.165644619761936
 40
0.199252526181549
 40
0.2335845819310122
 40
0.2559221201064725
 40
0.2865636204423544
 40
0.4014333417978929
 40
0.4145104107961327
 40
0.4277743449084159
 40
0.5256560751043342
 40
0.566183110836957
 40
0.57061341508763
 40
0.5967246302855213
 40
0.6521341601535926
 40
0.6692856824445694
 40
0.672692347977282
 40
0.6827670064743251
 40
0.6958712871986232
 40
0.7463480197819437
 40
0.7560562756647551
 40
0.7592290813538923
 40
0.8278524831347908
 40
0.8894329298296199
 40
0.9463005834933121
 40
1.0
 40
1.0
 40
1.0
 40
1.0
 10
302.0199698111765
 20
432.8057857676737
 30
0.0
 10
302.0277459154587
 20
432.9018108233331
 30
0.0
 10
302.043212560045
 20
433.0928043277125
 30
0.0
 10
302.0760878280825
 20
433.3770342810446
 30
0.0
 10
302.1162544729677
 20
433.6584217950478
 30
0.0
 10
302.1647732882195
 20
433.9382168171615
 30
0.0
 10
302.2220418677343
 20
434.2178417106841
 30
0.0
 10
302.2889398388117
 20
434.4988138363817
 30
0.0
 10
302.3567921106725
 20
434.7469811067515
 30
0.0
 10
302.4290411359022
 20
434.9844131574485
 30
0.0
 10
302.5801359034378
 20
435.4355103593524
 30
0.0
 10
302.7567064540416
 20
435.8472158255566
 30
0.0
 10
302.9413750047477
 20
436.1926432756528
 30
0.0
 10
303.1087306072653
 20
436.4926761917206
 30
0.0
 10
303.339441694891
 20
436.8390573976807
 30
0.0
 10
303.5847156625405
 20
437.1304176854577
 30
0.0
 10
303.7109907399247
 20
437.2693179078076
 30
0.0
 10
303.8671702860814
 20
437.4322678944582
 30
0.0
 10
304.0565713892242
 20
437.6031791842661
 30
0.0
 10
304.2077926956701
 20
437.7226358421721
 30
0.0
 10
304.2693498848194
 20
437.7694241223231
 30
0.0
 10
304.3230983937486
 20
437.8092431425046
 30
0.0
 10
304.4734514189741
 20
437.9157768798939
 30
0.0
 10
304.6268631351793
 20
438.0114550766666
 30
0.0
 10
304.7614736387367
 20
438.0855746380567
 30
0.0
 10
304.9351740348353
 20
438.178596980319
 30
0.0
 10
305.2244459348391
 20
438.3096314138849
 30
0.0
 10
305.6345521308089
 20
438.4404074054534
 30
0.0
 10
306.0119275771126
 20
438.5227602766378
 30
0.0
 10
306.2511661094513
 20
438.5484822135609
 30
0.0
 10
306.3673577528828
 20
438.5609746582106
 30
0.0
  0
SPLINE
  5
F2
330
1F
100
AcDbEntity
  8
0
  6
Continuous
 62
     7
370
    15
100
AcDbSpline
210
0.0
220
0.0
230
1.0
 70
     8
 71
     3
 72
    10
 73
     6
 74
     0
 42
0.00000001
 43
0.00000001
 12
1.0
 22
0.0
 32
0.0
 13
1.0
 23
0.0
 33
0.0
 40
0.0
 40
0.0
 40
0.0
 40
0.0
 40
0.5
 40
0.5
 40
1.0
 40
1.0
 40
1.0
 40
1.0
 10
302.0122054614354
 20
416.3213631711587
 30
0.0
 10
301.8102187556374
 20
419.036888235806
 30
0.0
 10
301.7060986486647
 20
421.8002322662859
 30
0.0
 10
301.7087372875337
 20
427.328764835385
 30
0.0
 10
301.8154929769216
 20
430.0914222679399
 30
0.0
 10
302.0199244140668
 20
432.8057742528506
 30
0.0
  0
SPLINE
  5
F3
330
1F
100
AcDbEntity
  8
0
  6
Continuous
 62
     7
370
    15
100
AcDbSpline
210
0.0
220
0.0
230
1.0
 70
     8
 71
     3
 72
     9
 73
     5
 74
     0
 42
0.00000001
 43
0.00000001
 12
1.0
 22
0.0
 32
0.0
 13
1.0
 23
0.0
 33
0.0
 40
0.0
 40
0.0
 40
0.0
 40
0.0
 40
0.4975524501116532
 40
1.0
 40
1.0
 40
1.0
 40
1.0
 10
302.0729295526349
 20
415.7278544158624
 30
0.0
 10
302.0607839503592
 20
415.8259706161031
 30
0.0
 10
302.0363732530088
 20
416.0231683190158
 30
0.0
 10
302.020330549909
 20
416.2214628537116
 30
0.0
 10
302.0122699330429
 20
416.3210954568257
 30
0.0
  0
SPLINE
  5
F4
330
1F
100
AcDbEntity
  8
0
  6
Continuous
 62
     7
370
    15
100
AcDbSpline
210
0.0
220
0.0
230
1.0
 70
     8
 71
     3
 72
     9
 73
     5
 74
     0
 42
0.00000001
 43
0.00000001
 12
1.0
 22
0.0
 32
0.0
 13
1.0
 23
0.0
 33
0.0
 40
0.0
 40
0.0
 40
0.0
 40
0.0
 40
0.5059496160547399
 40
1.0
 40
1.0
 40
1.0
 40
1.0
 10
302.5988837481241
 20
411.5813780400055
 30
0.0
 10
302.5122558626211
 20
412.2809395504602
 30
0.0
 10
302.3410374591397
 20
413.6636098564674
 30
0.0
 10
302.1614343040908
 20
415.0452272900505
 30
0.0
 10
302.0727012963811
 20
415.7278159135777
 30
0.0
  0
SPLINE
  5
F5
330
1F
100
AcDbEntity
  8
0
  6
Continuous
 62
     7
370
    15
100
AcDbSpline
210
0.0
220
0.0
230
1.0
 70
     8
 71
     3
 72
    49
 73
    45
 74
     0
 42
0.00000001
 43
0.00000001
 12
1.0
 22
0.0
 32
0.0
 13
1.0
 23
0.0
 33
0.0
 40
0.0
 40
0.0
 40
0.0
 40
0.0
 40
0.0234071389292844
 40
0.0472005559422703
 40
0.0713953547838233
 40
0.0960043439190616
 40
0.1210472963235619
 40
0.1388456889181031
 40
0.1629425685214669
 40
0.2358797604953423
 40
0.2537178138548595
 40
0.2597189578967192
 40
0.3203597863427924
 40
0.3557044017654047
 40
0.4046192364833816
 40
0.4334285044401516
 40
0.4511052165809601
 40
0.4751628877072516
 40
0.5020462586495322
 40
0.5087564003360177
 40
0.5177777351506536
 40
0.5559615075629413
 40
0.5639797915465746
 40
0.5666700757200707
 40
0.6223951823506305
 40
0.6311030526183228
 40
0.6399079701745924
 40
0.6834594671000385
 40
0.6966252626686797
 40
0.710019028464293
 40
0.744505421309498
 40
0.7658920623005507
 40
0.8013872932970447
 40
0.8148752242424642
 40
0.8374013445726953
 40
0.8718736156057126
 40
0.8802394856236854
 40
0.9043962117927651
 40
0.9266002587943967
 40
0.9421190543491985
 40
0.9636169058179019
 40
0.9831934023845683
 40
0.9917626865282084
 40
1.0
 40
1.0
 40
1.0
 40
1.0
 10
309.4219921830914
 20
405.9999156957159
 30
0.0
 10
309.3679524234871
 20
406.0006432876847
 30
0.0
 10
309.2589811090511
 20
406.0021104787639
 30
0.0
 10
309.0910391535065
 20
406.0139439540811
 30
0.0
 10
308.9181154769345
 20
406.0330293177918
 30
0.0
 10
308.7399029381172
 20
406.0602609706091
 30
0.0
 10
308.5751876916867
 20
406.0920054393995
 30
0.0
 10
308.4101766804777
 20
406.1292309034534
 30
0.0
 10
308.1246753148067
 20
406.2024926536046
 30
0.0
 10
307.8337263566792
 20
406.2972015626269
 30
0.0
 10
307.5858011992217
 20
406.3924705569601
 30
0.0
 10
307.3687541397914
 20
406.4791327801429
 30
0.0
 10
307.1046300220094
 20
406.5955810282882
 30
0.0
 10
306.7269112924408
 20
406.7839499473856
 30
0.0
 10
306.4309607141315
 20
406.9463828711267
 30
0.0
 10
306.1811139868686
 20
407.0951889288085
 30
0.0
 10
305.9964842126099
 20
407.2103835122812
 30
0.0
 10
305.8171123842027
 20
407.3269487567187
 30
0.0
 10
305.6667979795217
 20
407.4295243949505
 30
0.0
 10
305.555979563754
 20
407.5076046230329
 30
0.0
 10
305.4159633908309
 20
407.6077363066665
 30
0.0
 10
305.2731691355849
 20
407.7144773064053
 30
0.0
 10
305.147583254736
 20
407.8126323422534
 30
0.0
 10
304.9772170754264
 20
407.9471618174287
 30
0.0
 10
304.8065660258972
 20
408.0895715323781
 30
0.0
 10
304.6233747220883
 20
408.2530041030791
 30
0.0
 10
304.4713447474793
 20
408.391132692602
 30
0.0
 10
304.310599431968
 20
408.5454431591449
 30
0.0
 10
304.1424364309736
 20
408.7179318779072
 30
0.0
 10
303.9977163297499
 20
408.8712132406075
 30
0.0
 10
303.8372794028047
 20
409.0516626586429
 30
0.0
 10
303.6330186134288
 20
409.3001663149677
 30
0.0
 10
303.4822861284937
 20
409.5002342682069
 30
0.0
 10
303.3364820599692
 20
409.7114549463461
 30
0.0
 10
303.198562647639
 20
409.9255477251837
 30
0.0
 10
303.0805044679537
 20
410.1331207271935
 30
0.0
 10
302.9690478738552
 20
410.3527493837087
 30
0.0
 10
302.8841948783433
 20
410.5365503766322
 30
0.0
 10
302.7998796395897
 20
410.7511997011503
 30
0.0
 10
302.7294410109184
 20
410.9615935153112
 30
0.0
 10
302.6724902315772
 20
411.1670586024784
 30
0.0
 10
302.6338291925796
 20
411.3509445823361
 30
0.0
 10
302.611244756301
 20
411.487065515159
 30
0.0
 10
302.6029494668861
 20
411.5503572530057
 30
0.0
 10
302.5988837481241
 20
411.5813780400055
 30
0.0
  0
SPLINE
  5
F6
330
1F
100
AcDbEntity
  8
0
  6
Continuous
 62
     7
370
    15
100
AcDbSpline
210
0.0
220
0.0
230
1.0
 70
     8
 71
     3
 72
    34
 73
    30
 74
     0
 42
0.00000001
 43
0.00000001
 12
1.0
 22
0.0
 32
0.0
 13
1.0
 23
0.0
 33
0.0
 40
0.0
 40
0.0
 40
0.0
 40
0.0
 40
0.0334086906240659
 40
0.0668463664345983
 40
0.1003385029049025
 40
0.1339070092212017
 40
0.1675706290641388
 40
0.2013453386787219
 40
0.2352447488341347
 40
0.2692805227456544
 40
0.3034628444399687
 40
0.3378010506748063
 40
0.3723044968980971
 40
0.4069832018222528
 40
0.4418483263647291
 40
0.4769127147710585
 40
0.5121913024659461
 40
0.5476943703627138
 40
0.5834256943709207
 40
0.6193923864806776
 40
0.6556027653516
 40
0.6920629441787258
 40
0.7287733462046854
 40
0.7657254020497417
 40
0.8028986996982137
 40
0.8519687758288276
 40
0.9011389339880446
 40
0.950465213091822
 40
1.0
 40
1.0
 40
1.0
 40
1.0
 10
313.9778284471762
 20
405.9999289878492
 30
0.0
 10
313.9768139304793
 20
405.9999288089338
 30
0.0
 10
313.9747840168967
 20
405.9999284509479
 30
0.0
 10
313.9583384549704
 20
405.9999301131029
 30
0.0
 10
313.9320436561975
 20
405.9999357050481
 30
0.0
 10
313.8948806875471
 20
405.9999434682964
 30
0.0
 10
313.847036504336
 20
405.9999511132423
 30
0.0
 10
313.7883551828846
 20
405.9999564841926
 30
0.0
 10
313.7187551162411
 20
405.9999581601671
 30
0.0
 10
313.6381164176274
 20
405.9999550623516
 30
0.0
 10
313.5463113626977
 20
405.9999467126225
 30
0.0
 10
313.4431931826516
 20
405.9999290201112
 30
0.0
 10
313.3286190690541
 20
405.999908868721
 30
0.0
 10
313.2024504999528
 20
405.9998963155189
 30
0.0
 10
313.0645380454156
 20
405.9998937592704
 30
0.0
 10
312.9147188196985
 20
405.9998987854839
 30
0.0
 10
312.7528218029632
 20
405.9999070264891
 30
0.0
 10
312.578682662411
 20
405.9999182402248
 30
0.0
 10
312.3921481491832
 20
405.9999299806929
 30
0.0
 10
312.1930703747934
 20
405.9999385292418
 30
0.0
 10
311.9812992990134
 20
405.9999404995217
 30
0.0
 10
311.7567008922418
 20
405.9999347082756
 30
0.0
 10
311.5191794034812
 20
405.9999229609228
 30
0.0
 10
311.2687136173088
 20
405.9999115191275
 30
0.0
 10
310.9776957508232
 20
405.9999009971443
 30
0.0
 10
310.6419746286446
 20
405.9999134476609
 30
0.0
 10
310.256331256979
 20
405.9999569417633
 30
0.0
 10
309.8516589516755
 20
405.9999321489356
 30
0.0
 10
309.5654156777816
 20
405.9999211878283
 30
0.0
 10
309.4219921830914
 20
405.9999156957156
 30
0.0
  0
SPLINE
  5
F7
330
1F
100
AcDbEntity
  8
0
  6
Continuous
 62
     7
370
    15
100
AcDbSpline
210
0.0
220
0.0
230
1.0
 70
     8
 71
     3
 72
    18
 73
    14
 74
     0
 42
0.00000001
 43
0.00000001
 12
1.0
 22
0.0
 32
0.0
 13
1.0
 23
0.0
 33
0.0
 40
0.0
 40
0.0
 40
0.0
 40
0.0
 40
0.0404439232617804
 40
0.0865263782342938
 40
0.1387158604976056
 40
0.1961998421852605
 40
0.3319329660563733
 40
0.467627898601839
 40
0.5989642041611246
 40
0.6993135835643032
 40
0.7964800849444231
 40
0.9007946260465286
 40
1.0
 40
1.0
 40
1.0
 40
1.0
 10
310.623879904951
 20
417.023759468651
 30
0.0
 10
310.5029574524123
 20
417.0150058568063
 30
0.0
 10
310.2442540175932
 20
416.9962782391989
 30
0.0
 10
309.8298182414115
 20
416.9658162481798
 30
0.0
 10
309.3649472823043
 20
416.9313019915366
 30
0.0
 10
308.6340858191384
 20
416.8762262452215
 30
0.0
 10
307.6588681626535
 20
416.8010856451937
 30
0.0
 10
306.4780314475879
 20
416.7069696851597
 30
0.0
 10
305.4170632860306
 20
416.6197431511484
 30
0.0
 10
304.4833534429158
 20
416.5407905907829
 30
0.0
 10
303.6413821458507
 20
416.4677876045196
 30
0.0
 10
302.8173073553376
 20
416.3947548090341
 30
0.0
 10
302.2760882328527
 20
416.3452150202824
 30
0.0
 10
302.012272058292
 20
416.3210669497246
 30
0.0
  0
SPLINE
  5
F8
330
1F
100
AcDbEntity
  8
0
  6
Continuous
 62
     7
370
    15
100
AcDbSpline
210
0.0
220
0.0
230
1.0
 70
     8
 71
     3
 72
    15
 73
    11
 74
     0
 42
0.00000001
 43
0.00000001
 12
1.0
 22
0.0
 32
0.0
 13
1.0
 23
0.0
 33
0.0
 40
0.0
 40
0.0
 40
0.0
 40
0.0
 40
0.0832177778743716
 40
0.1665780837892969
 40
0.2505230588079055
 40
0.3762795086886982
 40
0.5007342991424426
 40
0.6707477746431708
 40
0.8359781373461529
 40
1.0
 40
1.0
 40
1.0
 40
1.0
 10
311.1014004219507
 20
416.1713887873964
 30
0.0
 10
311.0779156658354
 20
416.1865612865053
 30
0.0
 10
311.0309059309943
 20
416.2169322708359
 30
0.0
 10
310.9657084854749
 20
416.269672015219
 30
0.0
 10
310.894644851024
 20
416.337039692946
 30
0.0
 10
310.8218605956353
 20
416.4222417367227
 30
0.0
 10
310.7441122995598
 20
416.5408105781453
 30
0.0
 10
310.6783876835165
 20
416.6835530611917
 30
0.0
 10
310.6323380494612
 20
416.8511203265801
 30
0.0
 10
310.6266899111793
 20
416.9663568483573
 30
0.0
 10
310.6238762076104
 20
417.0237636249619
 30
0.0
  0
SPLINE
  5
F9
330
1F
100
AcDbEntity
  8
0
  6
Continuous
 62
     7
370
    15
100
AcDbSpline
210
0.0
220
0.0
230
1.0
 70
     8
 71
     3
 72
    19
 73
    15
 74
     0
 42
0.00000001
 43
0.00000001
 12
1.0
 22
0.0
 32
0.0
 13
1.0
 23
0.0
 33
0.0
 40
0.0
 40
0.0
 40
0.0
 40
0.0
 40
0.0548494447398305
 40
0.1148075243975592
 40
0.179920179266976
 40
0.2502279606962119
 40
0.3052319739709123
 40
0.3751411978622238
 40
0.5005313571396667
 40
0.6379184985673192
 40
0.7501586558102886
 40
0.840234168306087
 40
0.923536808307797
 40
0.9999999999999999
 40
0.9999999999999999
 40
0.9999999999999999
 40
0.9999999999999999
 10
314.7281809195636
 20
415.1622366230636
 30
0.0
 10
314.6604734928898
 20
415.1623468775439
 30
0.0
 10
314.5187524221183
 20
415.1625776555217
 30
0.0
 10
314.296703101289
 20
415.1715849289549
 30
0.0
 10
314.0558138267832
 20
415.189011556994
 30
0.0
 10
313.8213332865164
 20
415.2148195670696
 30
0.0
 10
313.5812672027741
 20
415.2494574171233
 30
0.0
 10
313.2741748062939
 20
415.3045588873976
 30
0.0
 10
312.8674810498579
 20
415.400009126026
 30
0.0
 10
312.4128988386491
 20
415.5425457292811
 30
0.0
 10
312.0051045704459
 20
415.7018099734092
 30
0.0
 10
311.6665394938888
 20
415.8578705974472
 30
0.0
 10
311.3735274529769
 20
416.0096166311438
 30
0.0
 10
311.1894831691074
 20
416.1190259777099
 30
0.0
 10
311.1014004219507
 20
416.1713887873964
 30
0.0
  0
SPLINE
  5
FA
330
1F
100
AcDbEntity
  8
0
  6
Continuous
 62
     7
370
    15
100
AcDbSpline
210
0.0
220
0.0
230
1.0
 70
     8
 71
     3
 72
    10
 73
     6
 74
     0
 42
0.00000001
 43
0.00000001
 12
1.0
 22
0.0
 32
0.0
 13
1.0
 23
0.0
 33
0.0
 40
0.0
 40
0.0
 40
0.0
 40
0.0
 40
0.08953500623195
 40
0.5435812964823499
 40
1.0
 40
1.0
 40
1.0
 40
1.0
 10
316.1628331610754
 20
434.2558059871544
 30
0.0
 10
316.2831273334226
 20
434.265341421643
 30
0.0
 10
317.0134524310097
 20
434.3232325645601
 30
0.0
 10
317.7297709565199
 20
434.3881192556936
 30
0.0
 10
317.8949369213194
 20
434.402293196951
 30
0.0
 10
317.9777350915237
 20
434.4093986342129
 30
0.0
  0
LINE
  5
FB
330
1F
100
AcDbEntity
  8
0
  6
Continuous
 62
     7
370
    15
100
AcDbLine
 10
316.3050224287
 20
434.2671253329
 30
0.0
 11
316.2385083493
 21
434.2618282706
 31
0.0
  0
SPLINE
  5
FC
330
1F
100
AcDbEntity
  8
0
  6
Continuous
 62
     7
370
    15
100
AcDbSpline
210
0.0
220
0.0
230
1.0
 70
     8
 71
     3
 72
    21
 73
    17
 74
     0
 42
0.00000001
 43
0.00000001
 12
1.0
 22
0.0
 32
0.0
 13
1.0
 23
0.0
 33
0.0
 40
0.0
 40
0.0
 40
0.0
 40
0.0
 40
0.0309085280799466
 40
0.0622001789959344
 40
0.0939128063959968
 40
0.1260800090202496
 40
0.1870918231991353
 40
0.2515521140832264
 40
0.3763645087588514
 40
0.5015814384681714
 40
0.6261044964851069
 40
0.751253028302861
 40
0.8247751230326258
 40
0.8753089412859335
 40
0.9414255341036061
 40
1.0
 40
1.0
 40
1.0
 40
1.0
 10
310.6238761807713
 20
432.095360923768
 30
0.0
 10
310.6257725656725
 20
432.13023849667
 30
0.0
 10
310.6295888418794
 20
432.2004259631142
 30
0.0
 10
310.6425505483193
 20
432.3052275619226
 30
0.0
 10
310.660811920504
 20
432.4098180324198
 30
0.0
 10
310.6919789657928
 20
432.5441447498038
 30
0.0
 10
310.7436475736711
 20
432.707346970562
 30
0.0
 10
310.8477043928165
 20
432.9493227818295
 30
0.0
 10
311.0133250086034
 20
433.218012341538
 30
0.0
 10
311.2447520616946
 20
433.4788498619959
 30
0.0
 10
311.4974813448542
 20
433.6837549384402
 30
0.0
 10
311.7259767121458
 20
433.8137782163336
 30
0.0
 10
311.9047665473802
 20
433.8861621719118
 30
0.0
 10
312.0421463023361
 20
433.9277649896731
 30
0.0
 10
312.1686957578355
 20
433.9554602005543
 30
0.0
 10
312.2583385490934
 20
433.9639134396845
 30
0.0
 10
312.3004488549448
 20
433.9678844057847
 30
0.0
  0
SPLINE
  5
FD
330
1F
100
AcDbEntity
  8
0
  6
Continuous
 62
     7
370
    15
100
AcDbSpline
210
0.0
220
0.0
230
1.0
 70
     8
 71
     3
 72
    10
 73
     6
 74
     0
 42
0.00000001
 43
0.00000001
 12
1.0
 22
0.0
 32
0.0
 13
1.0
 23
0.0
 33
0.0
 40
0.0
 40
0.0
 40
0.0
 40
0.0
 40
0.4999999999999998
 40
0.4999999999999998
 40
1.0
 40
1.0
 40
1.0
 40
1.0
 10
302.0199244140668
 20
432.8057742528506
 30
0.0
 10
303.326130525683
 20
432.6838715438013
 30
0.0
 10
304.7351368380153
 20
432.560196651759
 30
0.0
 10
307.6448145984689
 20
432.3199355996465
 30
0.0
 10
309.1442911538038
 20
432.2034481055529
 30
0.0
 10
310.6238761686035
 20
432.0953194633318
 30
0.0
  0
SPLINE
  5
FE
330
1F
100
AcDbEntity
  8
0
  6
Continuous
 62
     7
370
    15
100
AcDbSpline
210
0.0
220
0.0
230
1.0
 70
     8
 71
     3
 72
    36
 73
    32
 74
     0
 42
0.00000001
 43
0.00000001
 12
1.0
 22
0.0
 32
0.0
 13
1.0
 23
0.0
 33
0.0
 40
0.0
 40
0.0
 40
0.0
 40
0.0
 40
0.0078124999999997
 40
0.0078124999999997
 40
0.0156249999999993
 40
0.0156249999999993
 40
0.023437499999999
 40
0.023437499999999
 40
0.0312499999999987
 40
0.0312499999999987
 40
0.0390624999999983
 40
0.0390624999999983
 40
0.046874999999998
 40
0.046874999999998
 40
0.0546874999999976
 40
0.0546874999999976
 40
0.0624999999999973
 40
0.0624999999999973
 40
0.070312499999997
 40
0.070312499999997
 40
0.0781249999999966
 40
0.0781249999999966
 40
0.0937499999999966
 40
0.0937499999999966
 40
0.1249999999999966
 40
0.1249999999999966
 40
0.2499999999999972
 40
0.2499999999999972
 40
0.4999999999999982
 40
0.4999999999999982
 40
1.0
 40
1.0
 40
1.0
 40
1.0
 10
433.9929221062113
 20
431.7792394148052
 30
0.0
 10
433.8702621266094
 20
431.7749864854466
 30
0.0
 10
433.7245118031563
 20
431.7716510435479
 30
0.0
 10
433.4036162694554
 20
431.7664492147597
 30
0.0
 10
433.2258055435007
 20
431.7645179887558
 30
0.0
 10
432.8297215424095
 20
431.7616481378819
 30
0.0
 10
432.6109627274924
 20
431.7607359459636
 30
0.0
 10
432.1433899920669
 20
431.759744308379
 30
0.0
 10
431.8959161056844
 20
431.7596444159128
 30
0.0
 10
431.3745134681701
 20
431.7600642651387
 30
0.0
 10
431.0998020138881
 20
431.7605935368371
 30
0.0
 10
430.524994394092
 20
431.7622108001291
 30
0.0
 10
430.2268890799685
 20
431.7632896842931
 30
0.0
 10
429.6188785358033
 20
431.7658442407852
 30
0.0
 10
429.3078194072068
 20
431.7673086897676
 30
0.0
 10
428.6712708316716
 20
431.7705764965185
 30
0.0
 10
428.3438048531537
 20
431.7725347330151
 30
0.0
 10
427.6893367005927
 20
431.7772519694277
 30
0.0
 10
427.3618349130986
 20
431.7798566332278
 30
0.0
 10
426.7077566531337
 20
431.7842516177238
 30
0.0
 10
426.3813698376424
 20
431.7861448483325
 30
0.0
 10
425.4031187275916
 20
431.7917097990879
 30
0.0
 10
424.7518408254714
 20
431.7957500543185
 30
0.0
 10
422.7954696343882
 20
431.8081426348755
 30
0.0
 10
421.4904376169612
 20
431.8156602869058
 30
0.0
 10
414.9685568166768
 20
431.851080604075
 30
0.0
 10
409.7521274096974
 20
431.8775393836331
 30
0.0
 10
394.1003214479139
 20
431.9472596147993
 30
0.0
 10
383.665945190133
 20
431.9809051879038
 30
0.0
 10
352.3624243446466
 20
432.0587857707955
 30
0.0
 10
331.4931425557606
 20
432.0784426729089
 30
0.0
 10
310.6238761842997
 20
432.0953609232192
 30
0.0
  0
SPLINE
  5
FF
330
1F
100
AcDbEntity
  8
0
  6
Continuous
 62
     7
370
    15
100
AcDbSpline
210
0.0
220
0.0
230
1.0
 70
     8
 71
     3
 72
     9
 73
     5
 74
     0
 42
0.00000001
 43
0.00000001
 12
1.0
 22
0.0
 32
0.0
 13
1.0
 23
0.0
 33
0.0
 40
0.0
 40
0.0
 40
0.0
 40
0.0
 40
0.0162129588073393
 40
1.0
 40
1.0
 40
1.0
 40
1.0
 10
434.4716748411199
 20
431.8148473305552
 30
0.0
 10
434.4722630904313
 20
431.8149713162211
 30
0.0
 10
434.5085457528575
 20
431.8226186350976
 30
0.0
 10
434.4905705020051
 20
431.825201621692
 30
0.0
 10
434.4728866831544
 20
431.8277427304313
 30
0.0
  0
SPLINE
  5
100
330
1F
100
AcDbEntity
  8
0
  6
Continuous
 62
     7
370
    15
100
AcDbSpline
210
0.0
220
0.0
230
1.0
 70
     8
 71
     3
 72
     8
 73
     4
 74
     0
 42
0.00000001
 43
0.00000001
 12
1.0
 22
0.0
 32
0.0
 13
1.0
 23
0.0
 33
0.0
 40
0.0680684427671583
 40
0.0680684427671583
 40
0.0680684427671583
 40
0.0680684427671583
 40
0.9217772812587461
 40
0.9217772812587461
 40
0.9217772812587461
 40
0.9217772812587461
 10
434.37263395031
 20
417.327791197927
 30
0.0
 10
434.5802735712206
 20
422.1680097778955
 30
0.0
 10
434.6119178190751
 20
427.0003920039747
 30
0.0
 10
434.4676947866643
 20
431.8432855188234
 30
0.0
  0
SPLINE
  5
101
330
1F
100
AcDbEntity
  8
0
  6
Continuous
 62
     7
370
    15
100
AcDbSpline
210
0.0
220
0.0
230
1.0
 70
     8
 71
     3
 72
    36
 73
    32
 74
     0
 42
0.00000001
 43
0.00000001
 12
1.0
 22
0.0
 32
0.0
 13
1.0
 23
0.0
 33
0.0
 40
0.0
 40
0.0
 40
0.0
 40
0.0
 40
0.5000000000000032
 40
0.5000000000000032
 40
0.750000000000005
 40
0.750000000000005
 40
0.8125000000000054
 40
0.8125000000000054
 40
0.8437500000000057
 40
0.8437500000000057
 40
0.8750000000000059
 40
0.8750000000000059
 40
0.8906250000000057
 40
0.8906250000000057
 40
0.8984375000000056
 40
0.8984375000000056
 40
0.9062500000000056
 40
0.9062500000000056
 40
0.9218750000000046
 40
0.9218750000000046
 40
0.9375000000000037
 40
0.9375000000000037
 40
0.9531250000000028
 40
0.9531250000000028
 40
0.9687500000000019
 40
0.9687500000000019
 40
0.984375000000001
 40
0.984375000000001
 40
0.9921875000000006
 40
0.9921875000000006
 40
1.0
 40
1.0
 40
1.0
 40
1.0
 10
310.6238762052288
 20
417.0237636249608
 30
0.0
 10
331.9053501663951
 20
417.0339421926818
 30
0.0
 10
353.1870245368795
 20
417.0472550817448
 30
0.0
 10
385.1092932950729
 20
417.1189608590202
 30
0.0
 10
395.7502917939225
 20
417.1513297542207
 30
0.0
 10
409.0516376096347
 20
417.2084083636596
 30
0.0
 10
411.7119362510682
 20
417.2207049353736
 30
0.0
 10
415.7021428043631
 20
417.2402374404794
 30
0.0
 10
417.0323083849383
 20
417.2469410159521
 30
0.0
 10
419.6927298729637
 20
417.26075000562
 30
0.0
 10
421.0230719158371
 20
417.2678370292131
 30
0.0
 10
423.0162380195056
 20
417.2784304567115
 30
0.0
 10
423.6797213311594
 20
417.2818564971771
 30
0.0
 10
424.6757728844791
 20
417.2872671624371
 30
0.0
 10
425.0080146212012
 20
417.2891357012316
 30
0.0
 10
425.6736323699992
 20
417.2931758239182
 30
0.0
 10
426.0072518580431
 20
417.2954402689018
 30
0.0
 10
427.0087957592085
 20
417.3023471153063
 30
0.0
 10
427.6733523542975
 20
417.3054219548334
 30
0.0
 10
428.9908822262578
 20
417.3083621801869
 30
0.0
 10
429.6385675419843
 20
417.3099826413753
 30
0.0
 10
430.8529707324429
 20
417.3141023747179
 30
0.0
 10
431.4217314618786
 20
417.3162989857127
 30
0.0
 10
432.4368585730467
 20
417.3202520274718
 30
0.0
 10
432.8826797365569
 20
417.3220964802902
 30
0.0
 10
433.6115366273406
 20
417.3249230501302
 30
0.0
 10
433.8961034007284
 20
417.3259189822633
 30
0.0
 10
434.1790014698868
 20
417.3271875001602
 30
0.0
 10
434.2488849446993
 20
417.3275560790546
 30
0.0
 10
434.3405765454065
 20
417.327872229537
 30
0.0
 10
434.3639643481229
 20
417.3278330797848
 30
0.0
 10
434.3726317667284
 20
417.3277516918686
 30
0.0
  0
ARC
  5
102
330
1F
100
AcDbEntity
  8
0
  6
Continuous
 62
     7
370
    15
100
AcDbCircle
 10
432.9741732301
 20
417.3875325876
 30
0.0
 40
1.399735701497185
100
AcDbArc
 50
270.409029452
 51
357.5522270743
  0
SPLINE
  5
103
330
1F
100
AcDbEntity
  8
0
  6
Continuous
 62
     7
370
    15
100
AcDbSpline
210
0.0
220
0.0
230
1.0
 70
    24
 71
     3
 72
    42
 73
    38
 74
     0
 42
0.00000001
 43
0.00000001
 12
1.0
 22
0.0
 32
0.0
 13
1.0
 23
0.0
 33
0.0
 40
0.0
 40
0.0
 40
0.0
 40
0.0
 40
0.0078124999999988
 40
0.0078124999999988
 40
0.0156249999999977
 40
0.0156249999999977
 40
0.0312499999999953
 40
0.0312499999999953
 40
0.0468749999999931
 40
0.0468749999999931
 40
0.0624999999999908
 40
0.0624999999999908
 40
0.0781249999999885
 40
0.0781249999999885
 40
0.0820312499999879
 40
0.0820312499999879
 40
0.0859374999999872
 40
0.0859374999999872
 40
0.0937499999999868
 40
0.0937499999999868
 40
0.0976562499999867
 40
0.0976562499999867
 40
0.1015624999999865
 40
0.1015624999999865
 40
0.1093749999999868
 40
0.1093749999999868
 40
0.1249999999999867
 40
0.1249999999999867
 40
0.156249999999987
 40
0.156249999999987
 40
0.1874999999999875
 40
0.1874999999999875
 40
0.2499999999999882
 40
0.2499999999999882
 40
0.4999999999999921
 40
0.4999999999999921
 40
1.0
 40
1.0
 40
1.0
 40
1.0
 10
432.9841657334051
 20
415.9878325540314
 30
0.0
 10
432.9768017640545
 20
415.9877811429916
 30
0.0
 10
432.9574891854778
 20
415.9876463135679
 30
0.0
 10
432.8878031687077
 20
415.9871598054899
 30
0.0
 10
432.8367385445195
 20
415.9868033013686
 30
0.0
 10
432.6277949698855
 20
415.9853445763384
 30
0.0
 10
432.4141276374424
 20
415.9838528727217
 30
0.0
 10
431.8647645087335
 20
415.9800175322575
 30
0.0
 10
431.5287947288761
 20
415.9776719826127
 30
0.0
 10
430.7578509723233
 20
415.9722896924105
 30
0.0
 10
430.3213482178241
 20
415.9692422787972
 30
0.0
 10
429.3904914228233
 20
415.9627435668422
 30
0.0
 10
428.8961201651413
 20
415.9592921482999
 30
0.0
 10
428.2696063998666
 20
415.9549181860338
 30
0.0
 10
428.1440965787536
 20
415.9540419479494
 30
0.0
 10
427.8837275276574
 20
415.9522241995328
 30
0.0
 10
427.7498202141629
 20
415.9512893349396
 30
0.0
 10
427.3352546399008
 20
415.948395074224
 30
0.0
 10
427.0407654460212
 20
415.9463391184044
 30
0.0
 10
426.5773505876851
 20
415.9431038198105
 30
0.0
 10
426.4194565734526
 20
415.9420014937347
 30
0.0
 10
426.0961402602196
 20
415.9397442833868
 30
0.0
 10
425.930484640824
 20
415.9385877702046
 30
0.0
 10
425.4362325708925
 20
415.9351371837632
 30
0.0
 10
425.109114639168
 20
415.9328534326803
 30
0.0
 10
424.1356924115908
 20
415.926057553119
 30
0.0
 10
423.4965676702453
 20
415.9215955482009
 30
0.0
 10
421.5769401655069
 20
415.9081938023241
 30
0.0
 10
420.2918339703991
 20
415.8992219228271
 30
0.0
 10
417.7164066733491
 20
415.881241756324
 30
0.0
 10
416.4274402320465
 20
415.8722429267868
 30
0.0
 10
412.5645958301684
 20
415.8452747473312
 30
0.0
 10
409.9902815328361
 20
415.8273023511582
 30
0.0
 10
397.1169321804871
 20
415.7374279582473
 30
0.0
 10
386.8181449416676
 20
415.665527691621
 30
0.0
 10
355.9224330677627
 20
415.4498314285726
 30
0.0
 10
335.3252995347022
 20
415.3060339737439
 30
0.0
 10
314.7281785278653
 20
415.1622366063662
 30
0.0
  0
SPLINE
  5
104
330
1F
100
AcDbEntity
  8
0
  6
Continuous
 62
     7
370
    15
100
AcDbSpline
210
0.0
220
0.0
230
1.0
 70
     8
 71
     3
 72
    14
 73
    10
 74
     0
 42
0.00000001
 43
0.00000001
 12
1.0
 22
0.0
 32
0.0
 13
1.0
 23
0.0
 33
0.0
 40
0.0
 40
0.0
 40
0.0
 40
0.0
 40
0.25
 40
0.25
 40
0.5
 40
0.5
 40
0.75
 40
0.75
 40
1.0
 40
1.0
 40
1.0
 40
1.0
 10
432.7886185384908
 20
433.1323793606134
 30
0.0
 10
432.9330694541338
 20
433.119522460157
 30
0.0
 10
433.0853945930613
 20
433.0794194728535
 30
0.0
 10
433.3767441533658
 20
432.9347748788432
 30
0.0
 10
433.5150413160902
 20
432.830071206013
 30
0.0
 10
433.7450427122715
 20
432.5716974014805
 30
0.0
 10
433.8361785974657
 20
432.4186651357409
 30
0.0
 10
433.9574610383901
 20
432.0997523571019
 30
0.0
 10
433.9878532494724
 20
431.934621175754
 30
0.0
 10
433.9931057820748
 20
431.7792266640799
 30
0.0
  0
LINE
  5
105
330
1F
100
AcDbEntity
  8
0
  6
Continuous
 62
     7
370
    15
100
AcDbLine
 10
433.2625051472
 20
433.1880769939
 30
0.0
 11
433.2608402363
 21
433.1868420807
 31
0.0
  0
SPLINE
  5
106
330
1F
100
AcDbEntity
  8
0
  6
Continuous
 62
     7
370
    15
100
AcDbSpline
210
0.0
220
0.0
230
1.0
 70
     8
 71
     3
 72
    10
 73
     6
 74
     0
 42
0.00000001
 43
0.00000001
 12
1.0
 22
0.0
 32
0.0
 13
1.0
 23
0.0
 33
0.0
 40
0.0
 40
0.0
 40
0.0
 40
0.0
 40
0.4607585944649179
 40
0.9513383042116383
 40
1.0
 40
1.0
 40
1.0
 40
1.0
 10
434.4676948311866
 20
431.8432841114858
 30
0.0
 10
434.4452295263682
 20
431.9985693926618
 30
0.0
 10
434.3988449222689
 20
432.319190294448
 30
0.0
 10
434.2322783979415
 20
432.6454920784583
 30
0.0
 10
434.0847423844336
 20
432.7565335929788
 30
0.0
 10
434.0714285837249
 20
432.7665540927848
 30
0.0
  0
LINE
  5
107
330
1F
100
AcDbEntity
  8
0
  6
Continuous
 62
     7
370
    15
100
AcDbLine
 10
432.684300586
 20
412.9907065926
 30
0.0
 11
425.5502425817
 21
411.9880801258
 31
0.0
  0
LINE
  5
108
330
1F
100
AcDbEntity
  8
0
  6
Continuous
 62
     7
370
    15
100
AcDbLine
 10
425.5502425817
 20
411.9880801258
 30
0.0
 11
425.0739018052
 21
415.3774208647
 31
0.0
  0
LINE
  5
109
330
1F
100
AcDbEntity
  8
0
  6
Continuous
 62
     7
370
    15
100
AcDbLine
 10
415.575584164
 20
414.0425193752
 30
0.0
 11
425.0739018052
 21
415.3774208647
 31
0.0
  0
LINE
  5
10A
330
1F
100
AcDbEntity
  8
0
  6
Continuous
 62
     7
370
    15
100
AcDbLine
 10
415.575584164
 20
414.0425193752
 30
0.0
 11
416.0519249405
 21
410.6531786363
 31
0.0
  0
LINE
  5
10B
330
1F
100
AcDbEntity
  8
0
  6
Continuous
 62
     7
370
    15
100
AcDbLine
 10
416.0519249405
 20
410.6531786363
 30
0.0
 11
408.9178669362
 21
409.6505521695
 31
0.0
  0
LINE
  5
10C
330
1F
100
AcDbEntity
  8
0
  6
Continuous
 62
     7
370
    15
100
AcDbLine
 10
312.3820986157
 20
472.5999152542
 30
0.0
 11
314.1366355917
 21
472.5999152542
 31
0.0
  0
ARC
  5
10D
330
1F
100
AcDbEntity
  8
0
  6
Continuous
 62
     7
370
    15
100
AcDbCircle
 10
315.5981878986
 20
469.6647152542
 30
0.0
 40
1.936446050037454
100
AcDbArc
 50
92.0555401372
 51
181.9176675672
  0
ARC
  5
10E
330
1F
100
AcDbEntity
  8
0
  6
Continuous
 62
     7
370
    15
100
AcDbCircle
 10
315.5981878986
 20
479.5351152542
 30
0.0
 40
1.936446050037636
100
AcDbArc
 50
178.0823324328
 51
267.9444598628
  0
LINE
  5
10F
330
1F
100
AcDbEntity
  8
0
  6
Continuous
 62
     7
370
    15
100
AcDbLine
 10
312.3820986157
 20
476.5999152542
 30
0.0
 11
314.1366355917
 21
476.5999152542
 31
0.0
  0
LINE
  5
110
330
1F
100
AcDbEntity
  8
0
  6
Continuous
 62
     7
370
    15
100
AcDbLine
 10
420.8814353884
 20
410.748897845
 30
0.0
 11
409.9884866323
 21
409.2179937344
 31
0.0
  0
SPLINE
  5
111
330
1F
100
AcDbEntity
  8
0
  6
Continuous
 62
     7
370
    15
100
AcDbSpline
210
0.0
220
0.0
230
1.0
 70
     8
 71
     3
 72
     8
 73
     4
 74
     0
 42
0.00000001
 43
0.00000001
 12
1.0
 22
0.0
 32
0.0
 13
1.0
 23
0.0
 33
0.0
 40
0.0
 40
0.0
 40
0.0
 40
0.0
 40
1.0
 40
1.0
 40
1.0
 40
1.0
 10
416.0519249405433
 20
410.6531786362502
 30
0.0
 10
417.6680906521213
 20
410.5119813544692
 30
0.0
 10
419.2786676235099
 20
410.5236435254554
 30
0.0
 10
420.8814353884474
 20
410.7488978449738
 30
0.0
  0
SPLINE
  5
112
330
1F
100
AcDbEntity
  8
0
  6
Continuous
 62
     7
370
    15
100
AcDbSpline
210
0.0
220
0.0
230
1.0
 70
     8
 71
     3
 72
    10
 73
     6
 74
     0
 42
0.00000001
 43
0.00000001
 12
1.0
 22
0.0
 32
0.0
 13
1.0
 23
0.0
 33
0.0
 40
0.0
 40
0.0
 40
0.0
 40
0.0
 40
0.5
 40
0.5
 40
1.0
 40
1.0
 40
1.0
 40
1.0
 10
420.8814353884474
 20
410.7488978449738
 30
0.0
 10
421.6809529231708
 20
410.8612627066631
 30
0.0
 10
422.4824685538987
 20
411.0273925189429
 30
0.0
 10
424.0406503021404
 20
411.4473871922217
 30
0.0
 10
424.8021718386469
 20
411.7010274939804
 30
0.0
 10
425.550242581745
 20
411.9880801258131
 30
0.0
  0
LINE
  5
113
330
1F
100
AcDbEntity
  8
0
  6
Continuous
 62
     7
370
    15
100
AcDbLine
 10
431.7743841446
 20
412.2798019555
 30
0.0
 11
420.8814353884
 21
410.748897845
 31
0.0
  0
LINE
  5
114
330
1F
100
AcDbEntity
  8
0
  6
Continuous
 62
     7
370
    15
100
AcDbLine
 10
364.2049233922
 20
476.5999152542
 30
0.0
 11
314.1366355917
 21
476.5999152542
 31
0.0
  0
LINE
  5
115
330
1F
100
AcDbEntity
  8
0
  6
Continuous
 62
     7
370
    15
100
AcDbLine
 10
315.5287309716
 20
477.5999152542
 30
0.0
 11
364.2049233922
 21
477.5999152542
 31
0.0
  0
LINE
  5
116
330
1F
100
AcDbEntity
  8
0
  6
Continuous
 62
     7
370
    15
100
AcDbLine
 10
364.2049233922
 20
471.5999152542
 30
0.0
 11
315.5287309716
 21
471.5999152542
 31
0.0
  0
LINE
  5
117
330
1F
100
AcDbEntity
  8
0
  6
Continuous
 62
     7
370
    15
100
AcDbLine
 10
314.1366355917
 20
472.5999152542
 30
0.0
 11
364.2049233922
 21
472.5999152542
 31
0.0
  0
LINE
  5
118
330
1F
100
AcDbEntity
  8
0
  6
Continuous
 62
     7
370
    15
100
AcDbLine
 10
364.2049233922
 20
477.5999152542
 30
0.0
 11
368.2049233922
 21
477.5999152542
 31
0.0
  0
ARC
  5
119
330
1F
100
AcDbEntity
  8
0
  6
Continuous
 62
     7
370
    15
100
AcDbCircle
 10
368.2049233922
 20
476.5999152542
 30
0.0
 40
1.0
100
AcDbArc
 50
0.0
 51
90.0
  0
LINE
  5
11A
330
1F
100
AcDbEntity
  8
0
  6
Continuous
 62
     7
370
    15
100
AcDbLine
 10
369.2049233922
 20
476.5999152542
 30
0.0
 11
364.2049233922
 21
476.5999152542
 31
0.0
  0
LINE
  5
11B
330
1F
100
AcDbEntity
  8
0
  6
Continuous
 62
     7
370
    15
100
AcDbLine
 10
369.2049233922
 20
476.5999152542
 30
0.0
 11
369.2049233922
 21
472.5999152542
 31
0.0
  0
LINE
  5
11C
330
1F
100
AcDbEntity
  8
0
  6
Continuous
 62
     7
370
    15
100
AcDbLine
 10
364.2049233922
 20
472.5999152542
 30
0.0
 11
369.2049233922
 21
472.5999152542
 31
0.0
  0
ARC
  5
11D
330
1F
100
AcDbEntity
  8
0
  6
Continuous
 62
     7
370
    15
100
AcDbCircle
 10
368.2049233922
 20
472.5999152542
 30
0.0
 40
1.0
100
AcDbArc
 50
270.0
 51
0.0
  0
LINE
  5
11E
330
1F
100
AcDbEntity
  8
0
  6
Continuous
 62
     7
370
    15
100
AcDbLine
 10
368.2049233922
 20
471.5999152542
 30
0.0
 11
364.2049233922
 21
471.5999152542
 31
0.0
  0
LINE
  5
11F
330
1F
100
AcDbEntity
  8
0
  6
Continuous
 62
     7
370
    15
100
AcDbLine
 10
315.5710761068
 20
462.2914176782
 30
0.0
 11
315.5710761068
 21
462.2646314276
 31
0.0
  0
LINE
  5
120
330
1F
100
AcDbEntity
  8
0
  6
Continuous
 62
     7
370
    15
100
AcDbLine
 10
315.6710761068
 20
462.2646314276
 30
0.0
 11
315.5710761068
 21
462.2646314276
 31
0.0
  0
LINE
  5
121
330
1F
100
AcDbEntity
  8
0
  6
Continuous
 62
     7
370
    15
100
AcDbLine
 10
315.6710761068
 20
456.3182039287
 30
0.0
 11
315.6710761068
 21
462.2646314276
 31
0.0
  0
LINE
  5
122
330
1F
100
AcDbEntity
  8
0
  6
Continuous
 62
     7
370
    15
100
AcDbLine
 10
315.6710761068
 20
456.3182039287
 30
0.0
 11
315.5710761068
 21
456.3182039287
 31
0.0
  0
LINE
  5
123
330
1F
100
AcDbEntity
  8
0
  6
Continuous
 62
     7
370
    15
100
AcDbLine
 10
315.5710761068
 20
456.3182039287
 30
0.0
 11
315.5710761068
 21
456.2914176782
 31
0.0
  0
LINE
  5
124
330
1F
100
AcDbEntity
  8
0
  6
Continuous
 62
     7
370
    15
100
AcDbLine
 10
315.5710761068
 20
456.2914176782
 30
0.0
 11
315.2049230303
 21
456.2914176782
 31
0.0
  0
LINE
  5
125
330
1F
100
AcDbEntity
  8
0
  6
Continuous
 62
     7
370
    15
100
AcDbLine
 10
315.0710761068
 20
457.6059788626
 30
0.0
 11
315.0710761068
 21
460.9768564938
 31
0.0
  0
LINE
  5
126
330
1F
100
AcDbEntity
  8
0
  6
Continuous
 62
     7
370
    15
100
AcDbLine
 10
315.5710761068
 20
462.2914176782
 30
0.0
 11
315.2049230303
 21
462.2914176782
 31
0.0
  0
LINE
  5
127
330
1F
100
AcDbEntity
  8
0
  6
Continuous
 62
     7
370
    15
100
AcDbLine
 10
316.2710761068
 20
461.6578495914
 30
0.0
 11
316.2710761068
 21
456.9249857649
 31
0.0
  0
SPLINE
  5
128
330
1F
100
AcDbEntity
  8
0
  6
Continuous
 62
     7
370
    15
100
AcDbSpline
210
0.0
220
0.0
230
1.0
 70
     8
 71
     3
 72
    10
 73
     6
 74
     0
 42
0.00000001
 43
0.00000001
 12
1.0
 22
0.0
 32
0.0
 13
1.0
 23
0.0
 33
0.0
 40
0.0
 40
0.0
 40
0.0
 40
0.0
 40
0.5
 40
0.5
 40
1.0
 40
1.0
 40
1.0
 40
1.0
 10
316.2710761068305
 20
456.9249857649457
 30
0.0
 10
316.2710761068305
 20
456.7656122647262
 30
0.0
 10
316.2072457302467
 20
456.6094726503773
 30
0.0
 10
315.9864535798102
 20
456.3848340827783
 30
0.0
 10
315.8305065131039
 20
456.3182039287219
 30
0.0
 10
315.6710761068305
 20
456.3182039287219
 30
0.0
  0
SPLINE
  5
129
330
1F
100
AcDbEntity
  8
0
  6
Continuous
 62
     7
370
    15
100
AcDbSpline
210
0.0
220
0.0
230
1.0
 70
     8
 71
     3
 72
    10
 73
     6
 74
     0
 42
0.00000001
 43
0.00000001
 12
1.0
 22
0.0
 32
0.0
 13
1.0
 23
0.0
 33
0.0
 40
0.0
 40
0.0
 40
0.0
 40
0.0
 40
0.5
 40
0.5
 40
1.0
 40
1.0
 40
1.0
 40
1.0
 10
315.6710761068305
 20
462.2646314276492
 30
0.0
 10
315.8304749644432
 20
462.2646314276492
 30
0.0
 10
315.9861666567519
 20
462.1981274746256
 30
0.0
 10
316.2069099367189
 20
461.9738696028726
 30
0.0
 10
316.2710761068305
 20
461.8171974093476
 30
0.0
 10
316.2710761068305
 20
461.6578495914254
 30
0.0
  0
ARC
  5
12A
330
1F
100
AcDbEntity
  8
0
  6
Continuous
 62
     7
370
    15
100
AcDbCircle
 10
432.9741898379
 20
417.3875338635
 30
0.0
 40
1.399736861267326
100
AcDbArc
 50
270.4089897997
 51
357.5521700077
  0
LINE
  5
12B
330
1F
100
AcDbEntity
  8
0
  6
Continuous
 62
     8
370
    15
100
AcDbLine
 10
315.2049233922
 20
469.5999152542
 30
0.0
 11
313.6628263653
 21
469.5999152542
 31
0.0
  0
LINE
  5
12C
330
1F
100
AcDbEntity
  8
0
  6
Continuous
 62
     8
370
    15
100
AcDbLine
 10
313.6628263653
 20
479.5999152542
 30
0.0
 11
315.2049233922
 21
479.5999152542
 31
0.0
  0
SPLINE
  5
12D
330
1F
100
AcDbEntity
  8
0
  6
Continuous
 62
     8
370
    15
100
AcDbSpline
210
0.0
220
0.0
230
1.0
 70
     8
 71
     3
 72
     9
 73
     5
 74
     0
 42
0.00000001
 43
0.00000001
 12
1.0
 22
0.0
 32
0.0
 13
1.0
 23
0.0
 33
0.0
 40
0.0
 40
0.0
 40
0.0
 40
0.0
 40
0.5532561326959374
 40
1.0
 40
1.0
 40
1.0
 40
1.0
 10
312.3004913503094
 20
433.9678864118123
 30
0.0
 10
313.1666329754683
 20
434.0285175813268
 30
0.0
 10
314.7321675876892
 20
434.1381072739328
 30
0.0
 10
315.7210541526982
 20
434.2194614900325
 30
0.0
 10
316.1628331610754
 20
434.2558059871544
 30
0.0
  0
SPLINE
  5
12E
330
1F
100
AcDbEntity
  8
0
  6
Continuous
 62
     8
370
    15
100
AcDbSpline
210
0.0
220
0.0
230
1.0
 70
     8
 71
     3
 72
     9
 73
     5
 74
     0
 42
0.00000001
 43
0.00000001
 12
1.0
 22
0.0
 32
0.0
 13
1.0
 23
0.0
 33
0.0
 40
0.0
 40
0.0
 40
0.0
 40
0.0
 40
0.5031724123026753
 40
1.0
 40
1.0
 40
1.0
 40
1.0
 10
433.9930989218894
 20
431.7792246817025
 30
0.0
 10
434.1482576052264
 20
431.7846642081194
 30
0.0
 10
434.4566184762584
 20
431.7954746704658
 30
0.0
 10
434.4666773267134
 20
431.8084171497791
 30
0.0
 10
434.4716748411199
 20
431.8148473305552
 30
0.0
  0
SPLINE
  5
12F
330
1F
100
AcDbEntity
  8
0
  6
Continuous
 62
     8
370
    15
100
AcDbSpline
210
0.0
220
0.0
230
1.0
 70
     8
 71
     3
 72
    19
 73
    15
 74
     0
 42
0.00000001
 43
0.00000001
 12
1.0
 22
0.0
 32
0.0
 13
1.0
 23
0.0
 33
0.0
 40
0.0
 40
0.0
 40
0.0
 40
0.0
 40
0.057701028254861
 40
0.0923938221989965
 40
0.1287827731285073
 40
0.1932739144999496
 40
0.2650898345470369
 40
0.3526572905594487
 40
0.44289024831979
 40
0.5356624127225043
 40
0.6509286356662287
 40
0.7710544189559859
 40
0.8887665495450962
 40
1.0
 40
1.0
 40
1.0
 40
1.0
 10
421.9938448106568
 20
433.623371368556
 30
0.0
 10
422.0073677461667
 20
433.6230454898799
 30
0.0
 10
422.0290213585356
 20
433.6225236763634
 30
0.0
 10
422.2209386549935
 20
433.6176833525894
 30
0.0
 10
422.482795458582
 20
433.6109514805472
 30
0.0
 10
422.9274386991366
 20
433.5992686602417
 30
0.0
 10
423.6277439646491
 20
433.5802190549371
 30
0.0
 10
424.5188595851983
 20
433.5550223665807
 30
0.0
 10
425.5683110857781
 20
433.5243056690855
 30
0.0
 10
426.7873713951008
 20
433.4873183939045
 30
0.0
 10
428.1822598565922
 20
433.4439026790733
 30
0.0
 10
429.7226773932614
 20
433.3717775182237
 30
0.0
 10
431.2693792610331
 20
433.2739130373057
 30
0.0
 10
432.2919583136517
 20
433.1786383511458
 30
0.0
 10
432.7887794178938
 20
433.1323490450397
 30
0.0
  0
SPLINE
  5
130
330
1F
100
AcDbEntity
  8
0
  6
Continuous
 62
     8
370
    15
100
AcDbSpline
210
0.0
220
0.0
230
1.0
 70
     8
 71
     3
 72
    12
 73
     8
 74
     0
 42
0.00000001
 43
0.00000001
 12
1.0
 22
0.0
 32
0.0
 13
1.0
 23
0.0
 33
0.0
 40
0.0
 40
0.0
 40
0.0
 40
0.0
 40
0.4504540772362909
 40
0.5988471139402912
 40
0.7492786780486315
 40
0.8797681482500765
 40
1.0
 40
1.0
 40
1.0
 40
1.0
 10
433.2608402363317
 20
433.1868420807363
 30
0.0
 10
433.265677274575
 20
433.1864677832756
 30
0.0
 10
433.2721077777904
 20
433.185970181044
 30
0.0
 10
433.2364762476183
 20
433.1792354036229
 30
0.0
 10
433.2342774952929
 20
433.1670939271011
 30
0.0
 10
433.1972472704055
 20
433.1485328129705
 30
0.0
 10
432.920996534017
 20
433.1375983274462
 30
0.0
 10
432.7885222102349
 20
433.1323547628691
 30
0.0
  0
SPLINE
  5
131
330
1F
100
AcDbEntity
  8
0
  6
Continuous
 62
     7
370
    15
100
AcDbSpline
210
0.0
220
0.0
230
1.0
 70
     8
 71
     3
 72
    10
 73
     6
 74
     0
 42
0.00000001
 43
0.00000001
 12
1.0
 22
0.0
 32
0.0
 13
1.0
 23
0.0
 33
0.0
 40
0.0
 40
0.0
 40
0.0
 40
0.0
 40
0.4658104024289279
 40
0.934758393027582
 40
1.0
 40
1.0
 40
1.0
 40
1.0
 10
175.8007953682687
 20
212.0896880015854
 30
0.0
 10
175.8380040079994
 20
212.8573750110488
 30
0.0
 10
175.9126719160154
 20
214.3979199872284
 30
0.0
 10
176.1742315786467
 20
216.0397528452122
 30
0.0
 10
176.4386949075014
 20
216.8810677368324
 30
0.0
 10
176.4709943244841
 20
216.9838191489691
 30
0.0
  0
SPLINE
  5
132
330
1F
100
AcDbEntity
  8
0
  6
Continuous
 62
     7
370
    15
100
AcDbSpline
210
0.0
220
0.0
230
1.0
 70
     8
 71
     3
 72
    10
 73
     6
 74
     0
 42
0.00000001
 43
0.00000001
 12
1.0
 22
0.0
 32
0.0
 13
1.0
 23
0.0
 33
0.0
 40
0.0
 40
0.0
 40
0.0
 40
0.0
 40
0.0304837805159968
 40
0.5168746998605711
 40
1.0
 40
1.0
 40
1.0
 40
1.0
 10
139.4765386374446
 20
216.8140879499032
 30
0.0
 10
139.4909443584712
 20
216.7677616763398
 30
0.0
 10
139.7352038501041
 20
215.9822659688381
 30
0.0
 10
139.980648389189
 20
214.397387542757
 30
0.0
 10
140.0566137963436
 20
212.8571919028571
 30
0.0
 10
140.0944685628697
 20
212.0896880015855
 30
0.0
  0
SPLINE
  5
133
330
1F
100
AcDbEntity
  8
0
  6
Continuous
 62
     7
370
    15
100
AcDbSpline
210
0.0
220
0.0
230
1.0
 70
     8
 71
     3
 72
    38
 73
    34
 74
     0
 42
0.00000001
 43
0.00000001
 12
1.0
 22
0.0
 32
0.0
 13
1.0
 23
0.0
 33
0.0
 40
0.0
 40
0.0
 40
0.0
 40
0.0
 40
0.0831618870963354
 40
0.1668865274316237
 40
0.2451881510352526
 40
0.3180670695962118
 40
0.3855236207043248
 40
0.4475544738084185
 40
0.5010759379798694
 40
0.5497836744794116
 40
0.5936616944230457
 40
0.6326980146107686
 40
0.6669189634676796
 40
0.6999926339688587
 40
0.7273540192689253
 40
0.7514967059792816
 40
0.7727520437432944
 40
0.7911071073595723
 40
0.8005595593434263
 40
0.8134297570277134
 40
0.829136629650972
 40
0.8457582933626643
 40
0.8618212315576955
 40
0.8702761439387514
 40
0.8777426566857515
 40
0.8880635042173027
 40
0.9025049898799986
 40
0.9112812219611758
 40
0.9210974928345741
 40
0.9319142963962741
 40
0.9435478323066395
 40
0.9697037156763234
 40
1.0
 40
1.0
 40
1.0
 40
1.0
 10
140.0944669055622
 20
212.0896831159907
 30
0.0
 10
140.1290105793286
 20
208.2730151217005
 30
0.0
 10
140.1983316825511
 20
200.6138518900067
 30
0.0
 10
140.300084095277
 20
189.3610787582691
 30
0.0
 10
140.3974885554621
 20
178.5802359155938
 30
0.0
 10
140.4880654354758
 20
168.5460071758037
 30
0.0
 10
140.5718369163677
 20
159.2585158208989
 30
0.0
 10
140.6474877968872
 20
150.8594231910129
 30
0.0
 10
140.7153211829773
 20
143.3207965683321
 30
0.0
 10
140.7757235364274
 20
136.6152850081879
 30
0.0
 10
140.8300346613989
 20
130.5745602541649
 30
0.0
 10
140.878062564124
 20
125.1986962174674
 30
0.0
 10
140.9216409290419
 20
120.3186916197239
 30
0.0
 10
140.9606910770543
 20
115.9745059361747
 30
0.0
 10
140.9961246602059
 20
112.0928571251572
 30
0.0
 10
141.0264344323574
 20
108.7536172289594
 30
0.0
 10
141.0526572072351
 20
105.8276873871572
 30
0.0
 10
141.0693466643119
 20
103.5760391170734
 30
0.0
 10
141.0835191016283
 20
101.7090248138832
 30
0.0
 10
141.0959251727826
 20
99.96416222682362
 30
0.0
 10
141.1391776259621
 20
97.88784476319238
 30
0.0
 10
141.110461208738
 20
95.68074562542067
 30
0.0
 10
141.2396655225231
 20
93.79363804528515
 30
0.0
 10
141.7451254621898
 20
92.41848120257664
 30
0.0
 10
142.3136117915935
 20
91.36740407325405
 30
0.0
 10
143.2253491975784
 20
90.19550292935219
 30
0.0
 10
144.4454700499833
 20
89.22505103180906
 30
0.0
 10
145.8150231777697
 20
88.56445867326651
 30
0.0
 10
147.1269392918814
 20
88.20710485663683
 30
0.0
 10
148.6116051804002
 20
88.13446268400166
 30
0.0
 10
150.8398169207289
 20
88.17517568327096
 30
0.0
 10
153.9648610853289
 20
88.14205434668455
 30
0.0
 10
156.5552844457621
 20
88.15189340608818
 30
0.0
 10
157.9454915158018
 20
88.15717375143808
 30
0.0
  0
SPLINE
  5
134
330
1F
100
AcDbEntity
  8
0
  6
Continuous
 62
     7
370
    15
100
AcDbSpline
210
0.0
220
0.0
230
1.0
 70
     8
 71
     3
 72
    38
 73
    34
 74
     0
 42
0.00000001
 43
0.00000001
 12
1.0
 22
0.0
 32
0.0
 13
1.0
 23
0.0
 33
0.0
 40
0.0
 40
0.0
 40
0.0
 40
0.0
 40
0.0302961261182368
 40
0.0564518732681294
 40
0.0680853486533796
 40
0.0789020960717522
 40
0.0887183161814798
 40
0.0974945030025212
 40
0.1119359146582456
 40
0.1222567100606035
 40
0.1297231839850873
 40
0.1381780515640334
 40
0.153233975508145
 40
0.1689452081791649
 40
0.1839181309813352
 40
0.1967146905749245
 40
0.2064046291160504
 40
0.222888616847554
 40
0.2418262693672283
 40
0.2675918200200366
 40
0.2970434720559895
 40
0.3330844633384431
 40
0.3695335892847864
 40
0.4114020215155757
 40
0.4587164803280964
 40
0.5114594524639976
 40
0.5696172146485752
 40
0.6331980743852872
 40
0.6981144640684958
 40
0.7678510220533084
 40
0.8424082974597865
 40
0.9217865749454124
 40
1.0
 40
1.0
 40
1.0
 40
1.0
 10
157.9497724177976
 20
88.15717375143797
 30
0.0
 10
159.3399793882891
 20
88.15189341064448
 30
0.0
 10
161.9304025799663
 20
88.14205435966738
 30
0.0
 10
165.0554464961097
 20
88.17517565095112
 30
0.0
 10
167.2836581893463
 20
88.13446272695045
 30
0.0
 10
168.7683238152314
 20
88.20710469237459
 30
0.0
 10
170.0802405882739
 20
88.5644586368116
 30
0.0
 10
171.4497911836121
 20
89.22504975303298
 30
0.0
 10
172.6699262542103
 20
90.19550755508895
 30
0.0
 10
173.5816248633066
 20
91.36739209986797
 30
0.0
 10
174.1502127536095
 20
92.41851234286597
 30
0.0
 10
174.6392539337999
 20
93.75016091256886
 30
0.0
 10
174.7863676072524
 20
95.54619074778297
 30
0.0
 10
174.75246556471
 20
97.63190288100063
 30
0.0
 10
174.7953613027282
 20
99.62865793517531
 30
0.0
 10
174.8088295854589
 20
101.3474555659777
 30
0.0
 10
174.8228630458927
 20
103.1361064090864
 30
0.0
 10
174.8375521796337
 20
105.2064362738414
 30
0.0
 10
174.8620961839346
 20
108.0146175899458
 30
0.0
 10
174.8929876200425
 20
111.4179168186412
 30
0.0
 10
174.9312443010154
 20
115.6061825119511
 30
0.0
 10
174.9733310553715
 20
120.2847682156646
 30
0.0
 10
175.0201807474904
 20
125.5332230766757
 30
0.0
 10
175.0717213882691
 20
131.2990695101356
 30
0.0
 10
175.1303252321352
 20
137.8127141833979
 30
0.0
 10
175.1957240119989
 20
145.0739520190702
 30
0.0
 10
175.2677771587286
 20
153.0817319417356
 30
0.0
 10
175.3449748456666
 20
161.6482060548238
 30
0.0
 10
175.4270537181664
 20
170.7460845331813
 30
0.0
 10
175.5137393570122
 20
180.3477215470447
 30
0.0
 10
175.6064990170417
 20
190.6130815152605
 30
0.0
 10
175.7028469371368
 20
201.2674838562047
 30
0.0
 10
175.7683081806917
 20
208.5001035467351
 30
0.0
 10
175.8007968713032
 20
212.0896831311633
 30
0.0
  0
CIRCLE
  5
135
330
1F
100
AcDbEntity
  8
0
  6
Continuous
 62
     7
370
    15
100
AcDbCircle
 10
157.9476319668
 20
230.508640778
 30
0.0
 40
22.99999999999997
  0
CIRCLE
  5
136
330
1F
100
AcDbEntity
  8
0
  6
Continuous
 62
     7
370
     0
100
AcDbCircle
 10
157.9476319668
 20
230.508640778
 30
0.0
 40
21.49999999999997
  0
LINE
  5
137
330
1F
100
AcDbEntity
  8
0
  6
Continuous
 62
     7
370
    15
100
AcDbLine
 10
166.9476319668
 20
207.1848331986
 30
0.0
 11
166.2276319668
 21
209.0507378049
 31
0.0
  0
ARC
  5
138
330
1F
100
AcDbEntity
  8
0
  6
Continuous
 62
     7
370
    15
100
AcDbCircle
 10
169.9476319668
 20
208.5769285785
 30
0.0
 40
2.0
100
AcDbArc
 50
118.6854020141
 51
180.0
  0
LINE
  5
139
330
1F
100
AcDbEntity
  8
0
  6
Continuous
 62
     7
370
    15
100
AcDbLine
 10
148.9476319668
 20
207.1848331986
 30
0.0
 11
149.6676319668
 21
209.0507378049
 31
0.0
  0
ARC
  5
13A
330
1F
100
AcDbEntity
  8
0
  6
Continuous
 62
     7
370
    15
100
AcDbCircle
 10
145.9476319668
 20
208.5769285785
 30
0.0
 40
2.0
100
AcDbArc
 50
0.0
 51
61.3145979859
  0
LINE
  5
13B
330
1F
100
AcDbEntity
  8
0
  6
Continuous
 62
     7
370
    15
100
AcDbLine
 10
147.9476319668
 20
158.508640778
 30
0.0
 11
147.9476319668
 21
208.5769285785
 31
0.0
  0
LINE
  5
13C
330
1F
100
AcDbEntity
  8
0
  6
Continuous
 62
     7
370
    15
100
AcDbLine
 10
148.9476319668
 20
207.1848331986
 30
0.0
 11
148.9476319668
 21
158.508640778
 31
0.0
  0
ARC
  5
13D
330
1F
100
AcDbEntity
  8
0
  6
Continuous
 62
     7
370
    15
100
AcDbCircle
 10
162.9476319668
 20
158.508640778
 30
0.0
 40
4.0
100
AcDbArc
 50
270.0
 51
0.0
  0
LINE
  5
13E
330
1F
100
AcDbEntity
  8
0
  6
Continuous
 62
     7
370
    15
100
AcDbLine
 10
152.9476319668
 20
154.508640778
 30
0.0
 11
162.9476319668
 21
154.508640778
 31
0.0
  0
ARC
  5
13F
330
1F
100
AcDbEntity
  8
0
  6
Continuous
 62
     7
370
    15
100
AcDbCircle
 10
152.9476319668
 20
158.508640778
 30
0.0
 40
4.0
100
AcDbArc
 50
180.0
 51
270.0
  0
LINE
  5
140
330
1F
100
AcDbEntity
  8
0
  6
Continuous
 62
     7
370
    15
100
AcDbLine
 10
166.9476319668
 20
158.508640778
 30
0.0
 11
166.9476319668
 21
207.1848331986
 31
0.0
  0
LINE
  5
141
330
1F
100
AcDbEntity
  8
0
  6
Continuous
 62
     7
370
    15
100
AcDbLine
 10
167.9476319668
 20
208.5769285785
 30
0.0
 11
167.9476319668
 21
158.508640778
 31
0.0
  0
ARC
  5
142
330
1F
100
AcDbEntity
  8
0
  6
Continuous
 62
     7
370
    15
100
AcDbCircle
 10
152.9476319668
 20
158.508640778
 30
0.0
 40
5.0
100
AcDbArc
 50
180.0
 51
270.0
  0
ARC
  5
143
330
1F
100
AcDbEntity
  8
0
  6
Continuous
 62
     7
370
    15
100
AcDbCircle
 10
162.9476319668
 20
158.508640778
 30
0.0
 40
5.0
100
AcDbArc
 50
270.0
 51
0.0
  0
LINE
  5
144
330
1F
100
AcDbEntity
  8
0
  6
Continuous
 62
     7
370
    15
100
AcDbLine
 10
162.9476319668
 20
153.508640778
 30
0.0
 11
152.9476319668
 21
153.508640778
 31
0.0
  0
SPLINE
  5
145
330
1F
100
AcDbEntity
  8
0
  6
Continuous
 62
     7
370
    15
100
AcDbSpline
210
0.0
220
0.0
230
1.0
 70
     8
 71
     3
 72
    10
 73
     6
 74
     0
 42
0.00000001
 43
0.00000001
 12
1.0
 22
0.0
 32
0.0
 13
1.0
 23
0.0
 33
0.0
 40
0.0
 40
0.0
 40
0.0
 40
0.0
 40
0.3070898911519618
 40
0.6663063686359273
 40
1.0
 40
1.0
 40
1.0
 40
1.0
 10
168.4513676152805
 20
210.047862676473
 30
0.0
 10
168.2809012254347
 20
209.9614536484966
 30
0.0
 10
167.9110328433574
 20
209.7739682010521
 30
0.0
 10
167.1257649709721
 20
209.4099948686339
 30
0.0
 10
166.5195666752669
 20
209.167512943661
 30
0.0
 10
166.2276319667997
 20
209.0507378049365
 30
0.0
  0
SPLINE
  5
146
330
1F
100
AcDbEntity
  8
0
  6
Continuous
 62
     7
370
    15
100
AcDbSpline
210
0.0
220
0.0
230
1.0
 70
     8
 71
     3
 72
    20
 73
    16
 74
     0
 42
0.00000001
 43
0.00000001
 12
1.0
 22
0.0
 32
0.0
 13
1.0
 23
0.0
 33
0.0
 40
0.0
 40
0.0
 40
0.0
 40
0.0
 40
0.0383962759307793
 40
0.08015236194295
 40
0.125331903528256
 40
0.1759760548568939
 40
0.2505690708302162
 40
0.3747115360437653
 40
0.4996697678981514
 40
0.6242401664474505
 40
0.7494544882660693
 40
0.8139138864550427
 40
0.8749344973877631
 40
0.9382911477052105
 40
1.0
 40
1.0
 40
1.0
 40
1.0
 10
173.8105617114208
 20
210.4131101560712
 30
0.0
 10
173.8440379162513
 20
210.4406872578633
 30
0.0
 10
173.9139196123535
 20
210.4982545554876
 30
0.0
 10
174.0221707883171
 20
210.5886612604048
 30
0.0
 10
174.1398763200561
 20
210.6879398721457
 30
0.0
 10
174.283460296001
 20
210.8110706187433
 30
0.0
 10
174.4894475997551
 20
210.9899297365417
 30
0.0
 10
174.7453438663217
 20
211.2186769453155
 30
0.0
 10
175.018611610675
 20
211.4704471525321
 30
0.0
 10
175.2625372340301
 20
211.7017814208344
 30
0.0
 10
175.4323477340658
 20
211.8670080127851
 30
0.0
 10
175.5379060808641
 20
211.9710412186719
 30
0.0
 10
175.5994379689918
 20
212.0323157660336
 30
0.0
 10
175.6420892811309
 20
212.0748757627685
 30
0.0
 10
175.651922384898
 20
212.0847942627459
 30
0.0
 10
175.6567741588508
 20
212.0896881722358
 30
0.0
  0
SPLINE
  5
147
330
1F
100
AcDbEntity
  8
0
  6
Continuous
 62
     7
370
    15
100
AcDbSpline
210
0.0
220
0.0
230
1.0
 70
     8
 71
     3
 72
    21
 73
    17
 74
     0
 42
0.00000001
 43
0.00000001
 12
1.0
 22
0.0
 32
0.0
 13
1.0
 23
0.0
 33
0.0
 40
0.0
 40
0.0
 40
0.0
 40
0.0
 40
0.0309085280799466
 40
0.0622001789959344
 40
0.0939128063959968
 40
0.1260800090202496
 40
0.1870918231991353
 40
0.2515521140832264
 40
0.3763645087588514
 40
0.5015814384681714
 40
0.6261044964851069
 40
0.751253028302861
 40
0.8247751230326258
 40
0.8753089412859335
 40
0.9414255341036061
 40
1.0
 40
1.0
 40
1.0
 40
1.0
 10
140.2384899569163
 20
212.0896879894178
 30
0.0
 10
140.2403717617358
 20
212.0877916045166
 30
0.0
 10
140.2441586970538
 20
212.0839753283096
 30
0.0
 10
140.257059034943
 20
212.0710136218698
 30
0.0
 10
140.275336481698
 20
212.0527522496851
 30
0.0
 10
140.3066059659592
 20
212.0215852043963
 30
0.0
 10
140.3584909830364
 20
211.9699165965179
 30
0.0
 10
140.4640910126196
 20
211.8658597773726
 30
0.0
 10
140.6343288729139
 20
211.7002391615856
 30
0.0
 10
140.87839839121
 20
211.4688121084945
 30
0.0
 10
141.1527673716535
 20
211.2160828253348
 30
0.0
 10
141.4084828357483
 20
210.9875874580432
 30
0.0
 10
141.6144137160859
 20
210.8087976228088
 30
0.0
 10
141.7747224512594
 20
210.6714178678529
 30
0.0
 10
141.9250491044592
 20
210.5448684123536
 30
0.0
 10
142.03367036701
 20
210.4552256210957
 30
0.0
 10
142.0846959377648
 20
210.4131153152442
 30
0.0
  0
ARC
  5
148
330
1F
100
AcDbEntity
  8
0
  6
Continuous
 62
     7
370
    15
100
AcDbCircle
 10
157.9476319668
 20
231.2358289067
 30
0.0
 40
22.50000000000005
100
AcDbArc
 50
42.7702334984
 51
137.2297665016
  0
SPLINE
  5
149
330
1F
100
AcDbEntity
  8
0
  6
Continuous
 62
     7
370
    15
100
AcDbSpline
210
0.0
220
0.0
230
1.0
 70
     8
 71
     3
 72
    42
 73
    38
 74
     0
 42
0.00000001
 43
0.00000001
 12
1.0
 22
0.0
 32
0.0
 13
1.0
 23
0.0
 33
0.0
 40
0.0
 40
0.0
 40
0.0
 40
0.0
 40
0.0078124999999991
 40
0.0078124999999991
 40
0.0156249999999982
 40
0.0156249999999982
 40
0.0234374999999974
 40
0.0234374999999974
 40
0.0312499999999966
 40
0.0312499999999966
 40
0.0390624999999958
 40
0.0390624999999958
 40
0.0468749999999949
 40
0.0468749999999949
 40
0.0546874999999941
 40
0.0546874999999941
 40
0.0585937499999937
 40
0.0585937499999937
 40
0.0624999999999933
 40
0.0624999999999933
 40
0.0703124999999932
 40
0.0703124999999932
 40
0.0781249999999932
 40
0.0781249999999932
 40
0.0859374999999931
 40
0.0859374999999931
 40
0.0937499999999931
 40
0.0937499999999931
 40
0.1249999999999936
 40
0.1249999999999936
 40
0.1874999999999939
 40
0.1874999999999939
 40
0.2499999999999941
 40
0.2499999999999941
 40
0.499999999999996
 40
0.499999999999996
 40
1.0
 40
1.0
 40
1.0
 40
1.0
 10
169.6826436239731
 20
89.92453091192299
 30
0.0
 10
169.9290973541588
 20
90.02309716134293
 30
0.0
 10
170.1722714073921
 20
90.14200111529134
 30
0.0
 10
170.6263282992222
 20
90.4035687087284
 30
0.0
 10
170.8408733802382
 20
90.5477288095439
 30
0.0
 10
171.2517473405156
 20
90.86521285889503
 30
0.0
 10
171.4462404042793
 20
91.0374156393376
 30
0.0
 10
171.8131712857735
 20
91.41029266864395
 30
0.0
 10
171.9860876970475
 20
91.61167707525533
 30
0.0
 10
172.2998694736043
 20
92.03073388814576
 30
0.0
 10
172.4422320949766
 20
92.2496774527703
 30
0.0
 10
172.6970979571756
 20
92.70548571203774
 30
0.0
 10
172.8099533954989
 20
92.94348629224893
 30
0.0
 10
173.000442689714
 20
93.42968107396113
 30
0.0
 10
173.0778201075894
 20
93.67692857706473
 30
0.0
 10
173.1658482312286
 20
94.04887885145149
 30
0.0
 10
173.1906023213057
 20
94.1734588560319
 30
0.0
 10
173.2310112820447
 20
94.42526099367274
 30
0.0
 10
173.2463994801521
 20
94.55127178234778
 30
0.0
 10
173.2819331546746
 20
94.95187904950045
 30
0.0
 10
173.2914148138101
 20
95.24605586290458
 30
0.0
 10
173.3016262780776
 20
95.86503324417752
 30
0.0
 10
173.3025954688809
 20
96.18437236617741
 30
0.0
 10
173.3046373987936
 20
96.82786248001702
 30
0.0
 10
173.3063718363524
 20
97.1533671688094
 30
0.0
 10
173.3115204426833
 20
97.80069572173875
 30
0.0
 10
173.3147962228987
 20
98.12304504862679
 30
0.0
 10
173.3317647635103
 20
99.7331513407502
 30
0.0
 10
173.3430572392969
 20
101.0160366768871
 30
0.0
 10
173.3689609727908
 20
104.8751563008727
 30
0.0
 10
173.3852566809639
 20
107.4509612384394
 30
0.0
 10
173.4196991345052
 20
112.5992252751142
 30
0.0
 10
173.4369421912869
 20
115.1731197756079
 30
0.0
 10
173.5182846125469
 20
128.0427751487811
 30
0.0
 10
173.5687815003382
 20
138.3391660524951
 30
0.0
 10
173.7007226973464
 20
169.2277650823791
 30
0.0
 10
173.7572894653133
 20
189.8204182897673
 30
0.0
 10
173.8105616563141
 20
210.4130888542859
 30
0.0
  0
SPLINE
  5
14A
330
1F
100
AcDbEntity
  8
0
  6
Continuous
 62
     7
370
     0
100
AcDbSpline
210
0.0
220
0.0
230
1.0
 70
     8
 71
     3
 72
    62
 73
    58
 74
     0
 42
0.00000001
 43
0.00000001
 12
1.0
 22
0.0
 32
0.0
 13
1.0
 23
0.0
 33
0.0
 40
0.0
 40
0.0
 40
0.0
 40
0.0
 40
0.0257575985402581
 40
0.0363066146054984
 40
0.0468549151355695
 40
0.0895750959045199
 40
0.1003858834999751
 40
0.1111959087136893
 40
0.1594434728386527
 40
0.1744510649728611
 40
0.1844588729332707
 40
0.1944677382005562
 40
0.2244903022488726
 40
0.2294939651006358
 40
0.2664742562454751
 40
0.290455884239623
 40
0.2944530962359558
 40
0.3506249829103659
 40
0.3587712124313619
 40
0.361486967851453
 40
0.3940654940733735
 40
0.4219442980035581
 40
0.4265927876850492
 40
0.4312417754294529
 40
0.4801204397603677
 40
0.4880225886906031
 40
0.4939494821273229
 40
0.4961701854793297
 40
0.496415139097709
 40
0.4978848540812874
 40
0.522778921980418
 40
0.5476841946633998
 40
0.5626757479397555
 40
0.5664241656397009
 40
0.5776678126075996
 40
0.6164083566466371
 40
0.6306253525830092
 40
0.6391551272791158
 40
0.6618983877941378
 40
0.6961993725206488
 40
0.7030602865199574
 40
0.7167810311581609
 40
0.767363939368062
 40
0.7757942278262651
 40
0.7842251441108206
 40
0.8001938660941963
 40
0.8161614642390428
 40
0.8214837631558668
 40
0.8321282115944676
 40
0.8480952825425153
 40
0.8693832397868206
 40
0.9015802900613525
 40
0.9123141988685476
 40
0.9552503923147977
 40
0.9709163604235013
 40
0.9970360897917709
 40
1.0
 40
1.0
 40
1.0
 40
1.0
 10
169.6824629133584
 20
89.92478902310636
 30
0.0
 10
169.5203057575389
 20
90.15487985018467
 30
0.0
 10
169.2917371915424
 20
90.47920430030516
 30
0.0
 10
168.9953225625844
 20
90.89725583193567
 30
0.0
 10
168.5907605148248
 20
91.46623956451106
 30
0.0
 10
168.1807543456987
 20
92.03537523836228
 30
0.0
 10
167.7647292951914
 20
92.60397106731222
 30
0.0
 10
167.3108238070486
 20
93.2199753419391
 30
0.0
 10
166.8217220515881
 20
93.86752921815305
 30
0.0
 10
166.3287557268533
 20
94.5012190378618
 30
0.0
 10
166.090169291934
 20
94.80190964195582
 30
0.0
 10
165.7466758794287
 20
95.22943566090325
 30
0.0
 10
165.4326465518373
 20
95.6103448638214
 30
0.0
 10
164.921591670432
 20
96.21178935206723
 30
0.0
 10
164.4428653199894
 20
96.75390722379368
 30
0.0
 10
163.9542617511827
 20
97.27202631347781
 30
0.0
 10
163.3082279581706
 20
97.93038425342898
 30
0.0
 10
162.7608591928143
 20
98.44405370845728
 30
0.0
 10
162.1911259294802
 20
98.9082032209543
 30
0.0
 10
161.8180358378493
 20
99.20412739271863
 30
0.0
 10
161.2566571379295
 20
99.61145478655156
 30
0.0
 10
160.6393906751537
 20
99.97270706660377
 30
0.0
 10
160.2741409512004
 20
100.1536941084257
 30
0.0
 10
159.6971074041623
 20
100.4248160293959
 30
0.0
 10
159.0440826875688
 20
100.6362883638833
 30
0.0
 10
158.3610653758232
 20
100.7162562165465
 30
0.0
 10
158.1854194620269
 20
100.7280100569596
 30
0.0
 10
158.0934631346172
 20
100.731374506568
 30
0.0
 10
158.0503319387525
 20
100.7325516714499
 30
0.0
 10
157.7586672487194
 20
100.7386173613803
 30
0.0
 10
157.1947313568072
 20
100.6934889147552
 30
0.0
 10
156.5036830219875
 20
100.5174596345814
 30
0.0
 10
156.0557382384118
 20
100.3478967260919
 30
0.0
 10
155.7540410601673
 20
100.2173454059321
 30
0.0
 10
155.2219699206852
 20
99.96398316660989
 30
0.0
 10
154.6196687411496
 20
99.59420106261891
 30
0.0
 10
154.074476416203
 20
99.19787153717193
 30
0.0
 10
153.6800482895012
 20
98.8926477645228
 30
0.0
 10
153.1283756804186
 20
98.43133197831466
 30
0.0
 10
152.6167904293783
 20
97.95207656542415
 30
0.0
 10
152.1906240498034
 20
97.52745804167314
 30
0.0
 10
151.6465028256828
 20
96.96843924001874
 30
0.0
 10
151.1131982871268
 20
96.37511624455472
 30
0.0
 10
150.6340001536421
 20
95.8122351951174
 30
0.0
 10
150.40267044047
 20
95.53660080931509
 30
0.0
 10
150.1213160365107
 20
95.19512911602213
 30
0.0
 10
149.8649862977224
 20
94.87723413712884
 30
0.0
 10
149.6478259367617
 20
94.60277270191104
 30
0.0
 10
149.4313353666373
 20
94.32780978501943
 30
0.0
 10
149.1099633954987
 20
93.91281341403659
 30
0.0
 10
148.6496911923016
 20
93.3068729315947
 30
0.0
 10
148.2310425155993
 20
92.74161269503495
 30
0.0
 10
147.6761613149557
 20
91.98257718774732
 30
0.0
 10
147.2329773695518
 20
91.36645846159641
 30
0.0
 10
146.6966113680393
 20
90.61069198402821
 30
0.0
 10
146.4142366999307
 20
90.21119037852986
 30
0.0
 10
146.2314339930449
 20
89.9512745360842
 30
0.0
 10
146.2128045911915
 20
89.9247865438685
 30
0.0
  0
SPLINE
  5
14B
330
1F
100
AcDbEntity
  8
0
  6
Continuous
 62
     7
370
    15
100
AcDbSpline
210
0.0
220
0.0
230
1.0
 70
     8
 71
     3
 72
    41
 73
    37
 74
     0
 42
0.00000001
 43
0.00000001
 12
1.0
 22
0.0
 32
0.0
 13
1.0
 23
0.0
 33
0.0
 40
0.0
 40
0.0
 40
0.0
 40
0.0
 40
0.5000000000000039
 40
0.5000000000000039
 40
0.7500000000000057
 40
0.7500000000000057
 40
0.812500000000006
 40
0.812500000000006
 40
0.8750000000000062
 40
0.8750000000000062
 40
0.9062500000000057
 40
0.9062500000000057
 40
0.9140625000000052
 40
0.9140625000000052
 40
0.9218750000000048
 40
0.9296875000000042
 40
0.9296875000000042
 40
0.9375000000000038
 40
0.9375000000000038
 40
0.9414062500000036
 40
0.9414062500000036
 40
0.9453125000000033
 40
0.9453125000000033
 40
0.9531250000000029
 40
0.9531250000000029
 40
0.9609375000000024
 40
0.9609375000000024
 40
0.9687500000000019
 40
0.9687500000000019
 40
0.9765625000000014
 40
0.9765625000000014
 40
0.984375000000001
 40
0.984375000000001
 40
0.9921875000000004
 40
0.9921875000000004
 40
1.0
 40
1.0
 40
1.0
 40
1.0
 10
142.0846959928617
 20
210.4130940099089
 30
0.0
 10
142.1379418443209
 20
189.8235294696499
 30
0.0
 10
142.1944825370351
 20
169.2339822903856
 30
0.0
 10
142.326385340403
 20
138.3500423109672
 30
0.0
 10
142.3768739772817
 20
128.0551857756833
 30
0.0
 10
142.4581923048027
 20
115.1875003318452
 30
0.0
 10
142.4754299364801
 20
112.6140037180279
 30
0.0
 10
142.5098701413692
 20
107.4665192827412
 30
0.0
 10
142.5261914485218
 20
104.8910875522719
 30
0.0
 10
142.5520638709947
 20
101.0325273980862
 30
0.0
 10
142.5632926796001
 20
99.7498034061409
 30
0.0
 10
142.5802759759232
 20
98.14007403650318
 30
0.0
 10
142.5837533309511
 20
97.81781292185751
 30
0.0
 10
142.5885036179593
 20
97.1706127105542
 30
0.0
 10
142.5894957866894
 20
96.5195917208635
 30
0.0
 10
142.5932678139066
 20
95.88228264391277
 30
0.0
 10
142.6035778178891
 20
95.26250625808952
 30
0.0
 10
142.6123523971258
 20
94.9683980392578
 30
0.0
 10
142.6474014452757
 20
94.56444570520986
 30
0.0
 10
142.6627413292493
 20
94.43623121673423
 30
0.0
 10
142.7030798146971
 20
94.18176626477795
 30
0.0
 10
142.7278161963361
 20
94.0563414354616
 30
0.0
 10
142.8156949664436
 20
93.68282952087125
 30
0.0
 10
142.8925264666403
 20
93.43635222564059
 30
0.0
 10
143.081281288345
 20
92.95259852592949
 30
0.0
 10
143.1938558059323
 20
92.71400705846392
 30
0.0
 10
143.450635662452
 20
92.25349544782254
 30
0.0
 10
143.593787194589
 20
92.03310313773014
 30
0.0
 10
143.9071536008259
 20
91.61415639014284
 30
0.0
 10
144.0776748298217
 20
91.41510357737359
 30
0.0
 10
144.4461806347212
 20
91.04019363247862
 30
0.0
 10
144.6434847086469
 20
90.86517303362466
 30
0.0
 10
145.0562396026627
 20
90.54636447350128
 30
0.0
 10
145.2707433527301
 20
90.4025257485472
 30
0.0
 10
145.7225940910362
 20
90.1422126180276
 30
0.0
 10
145.9640243064225
 20
90.02395370281998
 30
0.0
 10
146.2126244515647
 20
89.92452925540594
 30
0.0
  0
SPLINE
  5
14C
330
1F
100
AcDbEntity
  8
0
  6
Continuous
 62
     7
370
    15
100
AcDbSpline
210
0.0
220
0.0
230
1.0
 70
     8
 71
     3
 72
    36
 73
    32
 74
     0
 42
0.00000001
 43
0.00000001
 12
1.0
 22
0.0
 32
0.0
 13
1.0
 23
0.0
 33
0.0
 40
0.0
 40
0.0
 40
0.0
 40
0.0
 40
0.0078124999999997
 40
0.0078124999999997
 40
0.0156249999999993
 40
0.0156249999999993
 40
0.023437499999999
 40
0.023437499999999
 40
0.0312499999999987
 40
0.0312499999999987
 40
0.0390624999999983
 40
0.0390624999999983
 40
0.046874999999998
 40
0.046874999999998
 40
0.0546874999999976
 40
0.0546874999999976
 40
0.0624999999999973
 40
0.0624999999999973
 40
0.070312499999997
 40
0.070312499999997
 40
0.0781249999999966
 40
0.0781249999999966
 40
0.0937499999999966
 40
0.0937499999999966
 40
0.1249999999999966
 40
0.1249999999999966
 40
0.2499999999999972
 40
0.2499999999999972
 40
0.4999999999999982
 40
0.4999999999999982
 40
1.0
 40
1.0
 40
1.0
 40
1.0
 10
145.7668152585345
 20
88.7206420639777
 30
0.0
 10
145.4522433073212
 20
88.84330204357963
 30
0.0
 10
145.1482824701125
 20
88.98905236703273
 30
0.0
 10
144.5811635908364
 20
89.30994790073366
 30
0.0
 10
144.3121261692362
 20
89.48775862668839
 30
0.0
 10
143.794326392892
 20
89.88384262777954
 30
0.0
 10
143.5463974874523
 20
90.10260144269664
 30
0.0
 10
143.0855546731801
 20
90.57017417812213
 30
0.0
 10
142.8736346671254
 20
90.81764806450471
 30
0.0
 10
142.4848559635376
 20
91.33905070201898
 30
0.0
 10
142.3075588981018
 20
91.61376215630102
 30
0.0
 10
141.9903950168938
 20
92.18856977609701
 30
0.0
 10
141.8518678633506
 20
92.48667509022049
 30
0.0
 10
141.619975413573
 20
93.0946856343858
 30
0.0
 10
141.5258793224091
 20
93.40574476298228
 30
0.0
 10
141.3838513787674
 20
94.04229333851747
 30
0.0
 10
141.3377475665074
 20
94.36975931703532
 30
0.0
 10
141.2880516831572
 20
95.02422746959638
 30
0.0
 10
141.2815398697816
 20
95.35172925709048
 30
0.0
 10
141.2716984514838
 20
96.00580751705535
 30
0.0
 10
141.2699838847627
 20
96.33219433254666
 30
0.0
 10
141.2660237740114
 20
97.31044544259748
 30
0.0
 10
141.2600365758645
 20
97.96172334471761
 30
0.0
 10
141.2371220000638
 20
99.91809453580089
 30
0.0
 10
141.224824539946
 20
101.2231265532278
 30
0.0
 10
141.1723853699197
 20
107.7450073535122
 30
0.0
 10
141.1258977430143
 20
112.9614367604917
 30
0.0
 10
140.9854377597513
 20
128.6132427222752
 30
0.0
 10
140.8940807198355
 20
139.047618980056
 30
0.0
 10
140.614736794919
 20
170.3511398255425
 30
0.0
 10
140.4267872628058
 20
191.2204216144285
 30
0.0
 10
140.2384899569274
 20
212.0896879858894
 30
0.0
  0
SPLINE
  5
14D
330
1F
100
AcDbEntity
  8
0
  6
Continuous
 62
     7
370
    15
100
AcDbSpline
210
0.0
220
0.0
230
1.0
 70
     8
 71
     3
 72
    36
 73
    32
 74
     0
 42
0.00000001
 43
0.00000001
 12
1.0
 22
0.0
 32
0.0
 13
1.0
 23
0.0
 33
0.0
 40
0.0
 40
0.0
 40
0.0
 40
0.0
 40
0.5000000000000017
 40
0.5000000000000017
 40
0.7500000000000024
 40
0.7500000000000024
 40
0.8750000000000029
 40
0.8750000000000029
 40
0.906250000000003
 40
0.906250000000003
 40
0.9218750000000031
 40
0.9218750000000031
 40
0.9296875000000028
 40
0.9296875000000028
 40
0.9375000000000024
 40
0.9375000000000024
 40
0.9453125000000021
 40
0.9453125000000021
 40
0.9531250000000019
 40
0.9531250000000019
 40
0.9609375000000016
 40
0.9609375000000016
 40
0.9687500000000012
 40
0.9687500000000012
 40
0.9765625000000009
 40
0.9765625000000009
 40
0.9843750000000007
 40
0.9843750000000007
 40
0.9921875000000003
 40
0.9921875000000003
 40
1.0
 40
1.0
 40
1.0
 40
1.0
 10
175.6567741588619
 20
212.0896881734669
 30
0.0
 10
175.468449524881
 20
191.217314888305
 30
0.0
 10
175.2804724923417
 20
170.3449261433631
 30
0.0
 10
175.0010883541323
 20
139.0367449957058
 30
0.0
 10
174.9097223038762
 20
128.6008087060876
 30
0.0
 10
174.7692337076186
 20
112.9466840306174
 30
0.0
 10
174.7227831619624
 20
107.7294851353108
 30
0.0
 10
174.6703002917679
 20
101.2066162110181
 30
0.0
 10
174.657944626377
 20
99.90136582728543
 30
0.0
 10
174.6350346707192
 20
97.9446900170639
 30
0.0
 10
174.6281090816966
 20
97.29342133706193
 30
0.0
 10
174.6235193457939
 20
96.3155562685803
 30
0.0
 10
174.6229022490062
 20
95.98873100648132
 30
0.0
 10
174.6135985246513
 20
95.33406386322116
 30
0.0
 10
174.6063188575792
 20
95.00544165268768
 30
0.0
 10
174.5555757508976
 20
94.35318277809444
 30
0.0
 10
174.5093930146731
 20
94.03095857151858
 30
0.0
 10
174.3672363077788
 20
93.39831132500412
 30
0.0
 10
174.2727028941416
 20
93.08685353638616
 30
0.0
 10
174.0386201399645
 20
92.47573572049892
 30
0.0
 10
173.8993496619995
 20
92.17756358484164
 30
0.0
 10
173.5844418959577
 20
91.6084582411536
 30
0.0
 10
173.4083526188957
 20
91.33601586294587
 30
0.0
 10
173.0192602648331
 20
90.814748758656
 30
0.0
 10
172.8043840953603
 20
90.5643927633054
 30
0.0
 10
172.3449810777786
 20
90.09881990717753
 30
0.0
 10
172.1007182107157
 20
89.88374878627606
 30
0.0
 10
171.5854104518304
 20
89.4894245377201
 30
0.0
 10
171.31639119327
 20
89.31125273355266
 30
0.0
 10
170.7465459282412
 20
88.98881635561487
 30
0.0
 10
170.4403205134418
 20
88.8422494876678
 30
0.0
 10
170.1284538455658
 20
88.720644080096
 30
0.0
  0
SPLINE
  5
14E
330
1F
100
AcDbEntity
  8
0
  6
Continuous
 62
     7
370
    15
100
AcDbSpline
210
0.0
220
0.0
230
1.0
 70
     8
 71
     3
 72
    20
 73
    16
 74
     0
 42
0.00000001
 43
0.00000001
 12
1.0
 22
0.0
 32
0.0
 13
1.0
 23
0.0
 33
0.0
 40
0.0
 40
0.0
 40
0.0
 40
0.0
 40
0.1250000000000013
 40
0.1250000000000013
 40
0.1875000000000013
 40
0.1875000000000013
 40
0.2500000000000013
 40
0.2500000000000013
 40
0.3125000000000012
 40
0.3125000000000012
 40
0.3750000000000012
 40
0.3750000000000012
 40
0.500000000000001
 40
0.500000000000001
 40
1.0
 40
1.0
 40
1.0
 40
1.0
 10
146.2129842163937
 20
89.92504195995419
 30
0.0
 10
146.6047891155745
 20
89.7659116273839
 30
0.0
 10
146.9905970567172
 20
89.65479040889376
 30
0.0
 10
147.6122993639727
 20
89.55134078056362
 30
0.0
 10
147.8283371988746
 20
89.52683957925309
 30
0.0
 10
148.2725728571001
 20
89.49548673744384
 30
0.0
 10
148.5021919087356
 20
89.48900515962754
 30
0.0
 10
148.9908832991066
 20
89.48381934921545
 30
0.0
 10
149.252210796079
 20
89.4848326787079
 30
0.0
 10
149.7791033977191
 20
89.48106276877776
 30
0.0
 10
150.0397860093305
 20
89.47743346707615
 30
0.0
 10
150.8122676198218
 20
89.4667253239841
 30
0.0
 10
151.3176446572008
 20
89.46148844801297
 30
0.0
 10
153.8645130141955
 20
89.44386741439753
 30
0.0
 10
155.9029098439524
 20
89.451039290254
 30
0.0
 10
157.9462979035348
 20
89.45105902295109
 30
0.0
  0
SPLINE
  5
14F
330
1F
100
AcDbEntity
  8
0
  6
Continuous
 62
     7
370
    15
100
AcDbSpline
210
0.0
220
0.0
230
1.0
 70
     8
 71
     3
 72
    20
 73
    16
 74
     0
 42
0.00000001
 43
0.00000001
 12
1.0
 22
0.0
 32
0.0
 13
1.0
 23
0.0
 33
0.0
 40
0.0
 40
0.0
 40
0.0
 40
0.0
 40
0.5000000000000007
 40
0.5000000000000007
 40
0.6250000000000009
 40
0.6250000000000009
 40
0.6875000000000007
 40
0.6875000000000007
 40
0.7500000000000006
 40
0.7500000000000006
 40
0.8125000000000004
 40
0.8125000000000004
 40
0.8750000000000002
 40
0.8750000000000002
 40
1.0
 40
1.0
 40
1.0
 40
1.0
 10
157.9490274952312
 20
89.45105905490142
 30
0.0
 10
159.9922440704662
 20
89.45108715765012
 30
0.0
 10
162.0308964377287
 20
89.44398040493243
 30
0.0
 10
164.5774610518625
 20
89.46161363008915
 30
0.0
 10
165.0830606659497
 20
89.46688596503444
 30
0.0
 10
165.8553976475594
 20
89.47760178185216
 30
0.0
 10
166.1160518418091
 20
89.48121305824195
 30
0.0
 10
166.6430937595616
 20
89.48492247272904
 30
0.0
 10
166.9040202697322
 20
89.48386886626835
 30
0.0
 10
167.3927952871274
 20
89.4891006997258
 30
0.0
 10
167.6225236867491
 20
89.49566764677489
 30
0.0
 10
168.06658745774
 20
89.52708365279494
 30
0.0
 10
168.2826279907057
 20
89.55154020015097
 30
0.0
 10
168.9043989473116
 20
89.65476019361942
 30
0.0
 10
169.2904573141113
 20
89.76585867776882
 30
0.0
 10
169.6822827220093
 20
89.92504524079243
 30
0.0
  0
SPLINE
  5
150
330
1F
100
AcDbEntity
  8
0
  6
Continuous
 62
     7
370
    15
100
AcDbSpline
210
0.0
220
0.0
230
1.0
 70
     8
 71
     3
 72
    20
 73
    16
 74
     0
 42
0.00000001
 43
0.00000001
 12
1.0
 22
0.0
 32
0.0
 13
1.0
 23
0.0
 33
0.0
 40
0.0
 40
0.0
 40
0.0
 40
0.0
 40
0.4999999999999993
 40
0.4999999999999993
 40
0.6249999999999992
 40
0.6249999999999992
 40
0.6874999999999993
 40
0.6874999999999993
 40
0.7499999999999994
 40
0.7499999999999994
 40
0.8124999999999996
 40
0.8124999999999996
 40
0.8749999999999997
 40
0.8749999999999997
 40
1.0
 40
1.0
 40
1.0
 40
1.0
 10
157.9462655693666
 20
88.24586934304953
 30
0.0
 10
155.9073028783887
 20
88.24587308502565
 30
0.0
 10
153.8679783663075
 20
88.23718507113793
 30
0.0
 10
151.3191343327661
 20
88.24201989275687
 30
0.0
 10
150.8095587837941
 20
88.24419973765191
 30
0.0
 10
150.0443381055725
 20
88.24766293526604
 30
0.0
 10
149.7893541895609
 20
88.2483935030672
 30
0.0
 10
149.2806382265605
 20
88.24571275351623
 30
0.0
 10
149.0257641558149
 20
88.24117407836762
 30
0.0
 10
148.5147754991704
 20
88.2391036083762
 30
0.0
 10
148.258647522897
 20
88.24199393868881
 30
0.0
 10
147.7465451881586
 20
88.26946350676201
 30
0.0
 10
147.4913497870381
 20
88.29345995272747
 30
0.0
 10
146.7357423986342
 20
88.40462222235746
 30
0.0
 10
146.2427818478523
 20
88.53509029178846
 30
0.0
 10
145.7672670448795
 20
88.7204652482996
 30
0.0
  0
SPLINE
  5
151
330
1F
100
AcDbEntity
  8
0
  6
Continuous
 62
     7
370
    15
100
AcDbSpline
210
0.0
220
0.0
230
1.0
 70
     8
 71
     3
 72
    20
 73
    16
 74
     0
 42
0.00000001
 43
0.00000001
 12
1.0
 22
0.0
 32
0.0
 13
1.0
 23
0.0
 33
0.0
 40
0.0
 40
0.0
 40
0.0
 40
0.0
 40
0.1249999999999986
 40
0.1249999999999986
 40
0.1874999999999987
 40
0.1874999999999987
 40
0.2499999999999988
 40
0.2499999999999988
 40
0.3124999999999989
 40
0.3124999999999989
 40
0.3749999999999989
 40
0.3749999999999989
 40
0.4999999999999993
 40
0.4999999999999993
 40
1.0
 40
1.0
 40
1.0
 40
1.0
 10
170.1279587568301
 20
88.72045037487919
 30
0.0
 10
169.6523090740631
 20
88.53502644768457
 30
0.0
 10
169.1592681820054
 20
88.40457497735315
 30
0.0
 10
168.4038095432482
 20
88.29344896358812
 30
0.0
 10
168.1486676286943
 20
88.26945931847266
 30
0.0
 10
167.6367312751908
 20
88.24199441413688
 30
0.0
 10
167.3803732562821
 20
88.23909555607692
 30
0.0
 10
166.8691180803264
 20
88.24117110018442
 30
0.0
 10
166.6146410320044
 20
88.24570627247716
 30
0.0
 10
166.1057848976968
 20
88.24838741192498
 30
0.0
 10
165.8508299298066
 20
88.24765619910707
 30
0.0
 10
165.0857556631725
 20
88.24419379399507
 30
0.0
 10
164.5759586279714
 20
88.24201346878208
 30
0.0
 10
162.0273783859557
 20
88.23718090898467
 30
0.0
 10
159.9878099851847
 20
88.24587035557794
 30
0.0
 10
157.9489983642488
 20
88.24586934122769
 30
0.0
  0
SPLINE
  5
152
330
1F
100
AcDbEntity
  8
0
  6
Continuous
 62
     8
370
    15
100
AcDbSpline
210
0.0
220
0.0
230
1.0
 70
     8
 71
     3
 72
    10
 73
     6
 74
     0
 42
0.00000001
 43
0.00000001
 12
1.0
 22
0.0
 32
0.0
 13
1.0
 23
0.0
 33
0.0
 40
0.0
 40
0.0
 40
0.0
 40
0.0
 40
0.4690083946867892
 40
0.9414136381579552
 40
1.0
 40
1.0
 40
1.0
 40
1.0
 10
175.6567749811788
 20
212.089688164803
 30
0.0
 10
175.6919494106689
 20
212.8322176808756
 30
0.0
 10
175.762553024616
 20
214.3226545708856
 30
0.0
 10
176.0174328548599
 20
215.8999206122471
 30
0.0
 10
176.2765318121502
 20
216.7007507913486
 30
0.0
 10
176.305119204329
 20
216.7891094888825
 30
0.0
  0
SPLINE
  5
153
330
1F
100
AcDbEntity
  8
0
  6
Continuous
 62
     8
370
    15
100
AcDbSpline
210
0.0
220
0.0
230
1.0
 70
     8
 71
     3
 72
     9
 73
     5
 74
     0
 42
0.00000001
 43
0.00000001
 12
1.0
 22
0.0
 32
0.0
 13
1.0
 23
0.0
 33
0.0
 40
0.0
 40
0.0
 40
0.0
 40
0.0
 40
0.6248494768306705
 40
0.9999999999999999
 40
0.9999999999999999
 40
0.9999999999999999
 40
0.9999999999999999
 10
142.0847477017005
 20
210.4130728198797
 30
0.0
 10
143.2226646058806
 20
209.5393176227678
 30
0.0
 10
145.0437702423162
 20
208.1409725340535
 30
0.0
 10
147.1554385110312
 20
207.2532049209663
 30
0.0
 10
147.9476319667997
 20
206.9201584364638
 30
0.0
  0
SPLINE
  5
154
330
1F
100
AcDbEntity
  8
0
  6
Continuous
 62
     8
370
    15
100
AcDbSpline
210
0.0
220
0.0
230
1.0
 70
     8
 71
     3
 72
     9
 73
     5
 74
     0
 42
0.00000001
 43
0.00000001
 12
1.0
 22
0.0
 32
0.0
 13
1.0
 23
0.0
 33
0.0
 40
0.0
 40
0.0
 40
0.0
 40
0.0
 40
0.3710175016339204
 40
1.0
 40
1.0
 40
1.0
 40
1.0
 10
167.9476319667997
 20
206.9193820711359
 30
0.0
 10
168.7312218099632
 20
207.2484855439112
 30
0.0
 10
170.8432241810444
 20
208.1355150541794
 30
0.0
 10
172.6647819805096
 20
209.5336593656999
 30
0.0
 10
173.8105099561355
 20
210.4130676678363
 30
0.0
  0
SPLINE
  5
155
330
1F
100
AcDbEntity
  8
0
  6
Continuous
 62
     8
370
    15
100
AcDbSpline
210
0.0
220
0.0
230
1.0
 70
     8
 71
     3
 72
    10
 73
     6
 74
     0
 42
0.00000001
 43
0.00000001
 12
1.0
 22
0.0
 32
0.0
 13
1.0
 23
0.0
 33
0.0
 40
0.0
 40
0.0
 40
0.0
 40
0.0
 40
0.485245073597888
 40
0.9740045899517664
 40
1.0
 40
1.0
 40
1.0
 40
1.0
 10
140.2384875603607
 20
212.0896880015855
 30
0.0
 10
140.2026965937465
 20
212.8320350698259
 30
0.0
 10
140.1308554403627
 20
214.3221057395646
 30
0.0
 10
139.8908842848953
 20
215.8484870800867
 30
0.0
 10
139.6504087156332
 20
216.5995333717158
 30
0.0
 10
139.6382645656524
 20
216.637461627114
 30
0.0
  0
SPLINE
  5
156
330
1F
100
AcDbEntity
  8
0
  6
Continuous
 62
     8
370
    15
100
AcDbSpline
210
0.0
220
0.0
230
1.0
 70
     8
 71
     3
 72
     9
 73
     5
 74
     0
 42
0.00000001
 43
0.00000001
 12
1.0
 22
0.0
 32
0.0
 13
1.0
 23
0.0
 33
0.0
 40
0.0
 40
0.0
 40
0.0
 40
0.0
 40
0.0045869644871232
 40
0.9999999999999999
 40
0.9999999999999999
 40
0.9999999999999999
 40
0.9999999999999999
 10
175.8001429761905
 20
212.0896878923348
 30
0.0
 10
175.800359652063
 20
212.0896879370601
 30
0.0
 10
175.8475969640338
 20
212.0896976875811
 30
0.0
 10
175.7519674726557
 20
212.0897074127494
 30
0.0
 10
175.6567766303584
 20
212.0897170933087
 30
0.0
  0
SPLINE
  5
157
330
1F
100
AcDbEntity
  8
0
  6
Continuous
 62
     8
370
    15
100
AcDbSpline
210
0.0
220
0.0
230
1.0
 70
     8
 71
     3
 72
     9
 73
     5
 74
     0
 42
0.00000001
 43
0.00000001
 12
1.0
 22
0.0
 32
0.0
 13
1.0
 23
0.0
 33
0.0
 40
0.0
 40
0.0
 40
0.0
 40
0.0
 40
0.9947235966516417
 40
1.0
 40
1.0
 40
1.0
 40
1.0
 10
140.238487303241
 20
212.0897170933087
 30
0.0
 10
140.1433291429839
 20
212.0897074127436
 30
0.0
 10
140.0476662265944
 20
212.0896976808291
 30
0.0
 10
140.0949691339509
 20
212.0896879235441
 30
0.0
 10
140.0952187231697
 20
212.0896878720607
 30
0.0
  0
LINE
  5
158
330
1F
100
AcDbEntity
  8
0
  6
Continuous
 62
     8
370
    15
100
AcDbLine
 10
157.94567246
 20
88.1779074005
 30
0.0
 11
157.9462655697
 21
88.2458693835
 31
0.0
  0
ENDSEC
  0
SECTION
  2
OBJECTS
  0
DICTIONARY
  5
C
330
0
100
AcDbDictionary
281
     1
  3
ACAD_GROUP
350
D
  3
ACAD_LAYOUT
350
1A
  3
ACAD_MATERIAL
350
3B
  3
ACAD_MLEADERSTYLE
350
15A
  3
ACAD_MLINESTYLE
350
17
  3
ACAD_PLOTSETTINGS
350
19
  3
ACAD_PLOTSTYLENAME
350
E
  3
ACAD_TABLESTYLE
350
159
  3
ACAD_VISUALSTYLE
350
2A
  0
DICTIONARY
  5
D
102
{ACAD_REACTORS
330
C
102
}
330
C
100
AcDbDictionary
281
     1
  0
DICTIONARY
  5
1A
102
{ACAD_REACTORS
330
C
102
}
330
C
100
AcDbDictionary
281
     1
  3
Layout1
350
1E
  3
Layout2
350
26
  3
Model
350
22
  0
DICTIONARY
  5
3B
102
{ACAD_REACTORS
330
C
102
}
330
C
100
AcDbDictionary
281
     1
  3
ByBlock
350
3D
  3
ByLayer
350
3C
  3
Global
350
3E
  0
DICTIONARY
  5
15A
102
{ACAD_REACTORS
330
C
102
}
330
C
100
AcDbDictionary
281
     1
  0
DICTIONARY
  5
17
102
{ACAD_REACTORS
330
C
102
}
330
C
100
AcDbDictionary
281
     1
  3
Standard
350
18
  0
DICTIONARY
  5
19
102
{ACAD_REACTORS
330
C
102
}
330
C
100
AcDbDictionary
281
     1
  0
ACDBDICTIONARYWDFLT
  5
E
102
{ACAD_REACTORS
330
C
102
}
330
C
100
AcDbDictionary
281
     1
  3
Normal
350
F
100
AcDbDictionaryWithDefault
340
F
  0
DICTIONARY
  5
159
102
{ACAD_REACTORS
330
C
102
}
330
C
100
AcDbDictionary
281
     1
  0
DICTIONARY
  5
2A
102
{ACAD_REACTORS
330
C
102
}
330
C
100
AcDbDictionary
281
     1
  3
2dWireframe
350
2F
  3
3D Hidden
350
31
  3
3dWireframe
350
30
  3
Basic
350
32
  3
Brighten
350
36
  3
ColorChange
350
3A
  3
Conceptual
350
34
  3
Dim
350
35
  3
Facepattern
350
39
  3
Flat
350
2B
  3
FlatWithEdges
350
2C
  3
Gouraud
350
2D
  3
GouraudWithEdges
350
2E
  3
Linepattern
350
38
  3
Realistic
350
33
  3
Thicken
350
37
  0
LAYOUT
  5
1E
102
{ACAD_REACTORS
330
1A
102
}
330
1A
100
AcDbPlotSettings
  1

  2
none_device
  4

  6

 40
0.0
 41
0.0
 42
0.0
 43
0.0
 44
0.0
 45
0.0
 46
0.0
 47
0.0
 48
0.0
 49
0.0
140
0.0
141
0.0
142
1.0
143
1.0
 70
   688
 72
     0
 73
     0
 74
     5
  7

 75
    16
 76
     0
 77
     2
 78
   300
147
1.0
148
0.0
149
0.0
100
AcDbLayout
  1
Layout1
 70
     1
 71
     1
 10
0.0
 20
0.0
 11
420.0
 21
297.0
 12
0.0
 22
0.0
 32
0.0
 14
1.0000000000E+20
 24
1.0000000000E+20
 34
1.0000000000E+20
 15
-1.0000000000E+20
 25
-1.0000000000E+20
 35
-1.0000000000E+20
146
0.0
 13
0.0
 23
0.0
 33
0.0
 16
1.0
 26
0.0
 36
0.0
 17
0.0
 27
1.0
 37
0.0
 76
     0
330
1B
  0
LAYOUT
  5
26
102
{ACAD_REACTORS
330
1A
102
}
330
1A
100
AcDbPlotSettings
  1

  2
none_device
  4

  6

 40
0.0
 41
0.0
 42
0.0
 43
0.0
 44
0.0
 45
0.0
 46
0.0
 47
0.0
 48
0.0
 49
0.0
140
0.0
141
0.0
142
1.0
143
1.0
 70
   688
 72
     0
 73
     0
 74
     5
  7

 75
    16
 76
     0
 77
     2
 78
   300
147
1.0
148
0.0
149
0.0
100
AcDbLayout
  1
Layout2
 70
     1
 71
     2
 10
0.0
 20
0.0
 11
0.0
 21
0.0
 12
0.0
 22
0.0
 32
0.0
 14
0.0
 24
0.0
 34
0.0
 15
0.0
 25
0.0
 35
0.0
146
0.0
 13
0.0
 23
0.0
 33
0.0
 16
1.0
 26
0.0
 36
0.0
 17
0.0
 27
1.0
 37
0.0
 76
     0
330
23
  0
LAYOUT
  5
22
102
{ACAD_REACTORS
330
1A
102
}
330
1A
100
AcDbPlotSettings
  1

  2
none_device
  4

  6

 40
0.0
 41
0.0
 42
0.0
 43
0.0
 44
0.0
 45
0.0
 46
0.0
 47
0.0
 48
0.0
 49
0.0
140
0.0
141
0.0
142
1.0
143
1.0
 70
  1712
 72
     0
 73
     0
 74
     0
  7

 75
     0
 76
     0
 77
     2
 78
   300
147
1.0
148
0.0
149
0.0
100
AcDbLayout
  1
Model
 70
     1
 71
     0
 10
0.0
 20
0.0
 11
594.0
 21
841.0
 12
0.0
 22
0.0
 32
0.0
 14
0.0
 24
0.0
 34
0.0
 15
594.0
 25
841.0
 35
0.0
146
0.0
 13
0.0
 23
0.0
 33
0.0
 16
1.0
 26
0.0
 36
0.0
 17
0.0
 27
1.0
 37
0.0
 76
     0
330
1F
331
29
  0
MATERIAL
  5
3D
102
{ACAD_REACTORS
330
3B
102
}
330
3B
100
AcDbMaterial
  1
ByBlock
 72
     1
 94
      127
  0
MATERIAL
  5
3C
102
{ACAD_REACTORS
330
3B
102
}
330
3B
100
AcDbMaterial
  1
ByLayer
 72
     1
 94
      127
  0
MATERIAL
  5
3E
102
{ACAD_REACTORS
330
3B
102
}
330
3B
100
AcDbMaterial
  1
Global
 72
     1
 94
      127
  0
MLINESTYLE
  5
18
102
{ACAD_REACTORS
330
17
102
}
330
17
100
AcDbMlineStyle
  2
Standard
 70
     0
  3

 62
   256
 51
90.0
 52
90.0
 71
     2
 49
0.5
 62
   256
  6
BYLAYER
 49
-0.5
 62
   256
  6
BYLAYER
  0
ACDBPLACEHOLDER
  5
F
102
{ACAD_REACTORS
330
E
102
}
330
E
  0
VISUALSTYLE
  5
2F
102
{ACAD_REACTORS
330
2A
102
}
330
2A
100
AcDbVisualStyle
  2
2dWireframe
 70
     4
177
     2
291
     0
 71
     0
176
     1
 72
     2
176
     1
 73
     0
176
     1
 90
        0
176
     1
 40
-0.6
176
     1
 41
-30.0
176
     1
 62
     5
 63
     7
421
 16777215
176
     1
 74
     1
176
     1
 91
        4
176
     1
 64
     7
176
     1
 65
   257
176
     1
 75
     1
176
     1
175
     1
176
     1
 42
1.0
176
     1
 92
        0
176
     1
 66
   257
176
     1
 43
1.0
176
     1
 76
     1
176
     1
 77
     6
176
     1
 78
     2
176
     1
 67
     7
176
     1
 79
     5
176
     1
170
     0
176
     1
171
     0
176
     1
290
     0
176
     1
 93
        1
176
     1
 44
0.0
176
     1
173
     0
176
     1
  0
VISUALSTYLE
  5
31
102
{ACAD_REACTORS
330
2A
102
}
330
2A
100
AcDbVisualStyle
  2
3D Hidden
 70
     6
177
     2
291
     0
 71
     1
176
     1
 72
     2
176
     1
 73
     2
176
     1
 90
        0
176
     1
 40
-0.6
176
     1
 41
-30.0
176
     1
 62
     5
 63
     7
421
 16777215
176
     1
 74
     2
176
     1
 91
        2
176
     1
 64
     7
176
     1
 65
   257
176
     1
 75
     2
176
     1
175
     1
176
     1
 42
40.0
176
     1
 92
        0
176
     1
 66
   257
176
     1
 43
1.0
176
     1
 76
     1
176
     1
 77
     6
176
     1
 78
     2
176
     1
 67
     7
176
     1
 79
     3
176
     1
170
     0
176
     1
171
     0
176
     1
290
     0
176
     1
 93
        1
176
     1
 44
0.0
176
     1
173
     0
176
     1
  0
VISUALSTYLE
  5
30
102
{ACAD_REACTORS
330
2A
102
}
330
2A
100
AcDbVisualStyle
  2
3dWireframe
 70
     5
177
     2
291
     0
 71
     0
176
     1
 72
     2
176
     1
 73
     0
176
     1
 90
        0
176
     1
 40
-0.6
176
     1
 41
-30.0
176
     1
 62
     5
 63
     7
421
 16777215
176
     1
 74
     1
176
     1
 91
        4
176
     1
 64
     7
176
     1
 65
   257
176
     1
 75
     1
176
     1
175
     1
176
     1
 42
1.0
176
     1
 92
        0
176
     1
 66
   257
176
     1
 43
1.0
176
     1
 76
     1
176
     1
 77
     6
176
     1
 78
     2
176
     1
 67
     7
176
     1
 79
     5
176
     1
170
     0
176
     1
171
     0
176
     1
290
     0
176
     1
 93
        1
176
     1
 44
0.0
176
     1
173
     0
176
     1
  0
VISUALSTYLE
  5
32
102
{ACAD_REACTORS
330
2A
102
}
330
2A
100
AcDbVisualStyle
  2
Basic
 70
     7
177
     2
291
     1
 71
     1
176
     1
 72
     0
176
     1
 73
     1
176
     1
 90
        0
176
     1
 40
-0.6
176
     1
 41
-30.0
176
     1
 62
     5
 63
     7
421
 16777215
176
     1
 74
     0
176
     1
 91
        4
176
     1
 64
     7
176
     1
 65
   257
176
     1
 75
     1
176
     1
175
     1
176
     1
 42
1.0
176
     1
 92
        8
176
     1
 66
     7
176
     1
 43
1.0
176
     1
 76
     1
176
     1
 77
     6
176
     1
 78
     2
176
     1
 67
     7
176
     1
 79
     5
176
     1
170
     0
176
     1
171
     0
176
     1
290
     0
176
     1
 93
        1
176
     1
 44
0.0
176
     1
173
     0
176
     1
  0
VISUALSTYLE
  5
36
102
{ACAD_REACTORS
330
2A
102
}
330
2A
100
AcDbVisualStyle
  2
Brighten
 70
    12
177
     2
291
     1
 71
     2
176
     1
 72
     2
176
     1
 73
     0
176
     1
 90
        0
176
     1
 40
-0.6
176
     1
 41
-30.0
176
     1
 62
     5
 63
     7
421
 16777215
176
     1
 74
     1
176
     1
 91
        4
176
     1
 64
     7
176
     1
 65
   257
176
     1
 75
     1
176
     1
175
     1
176
     1
 42
1.0
176
     1
 92
        8
176
     1
 66
     7
176
     1
 43
1.0
176
     1
 76
     1
176
     1
 77
     6
176
     1
 78
     2
176
     1
 67
     7
176
     1
 79
     5
176
     1
170
     0
176
     1
171
     0
176
     1
290
     0
176
     1
 93
        1
176
     1
 44
50.0
176
     1
173
     0
176
     1
  0
VISUALSTYLE
  5
3A
102
{ACAD_REACTORS
330
2A
102
}
330
2A
100
AcDbVisualStyle
  2
ColorChange
 70
    16
177
     2
291
     1
 71
     2
176
     1
 72
     2
176
     1
 73
     3
176
     1
 90
        0
176
     1
 40
-0.6
176
     1
 41
-30.0
176
     1
 62
     5
 63
     8
421
  8421504
176
     1
 74
     1
176
     1
 91
        4
176
     1
 64
     7
176
     1
 65
   257
176
     1
 75
     1
176
     1
175
     1
176
     1
 42
1.0
176
     1
 92
        8
176
     1
 66
     8
424
  8421504
176
     1
 43
1.0
176
     1
 76
     1
176
     1
 77
     6
176
     1
 78
     2
176
     1
 67
     7
176
     1
 79
     5
176
     1
170
     0
176
     1
171
     0
176
     1
290
     0
176
     1
 93
        1
176
     1
 44
0.0
176
     1
173
     0
176
     1
  0
VISUALSTYLE
  5
34
102
{ACAD_REACTORS
330
2A
102
}
330
2A
100
AcDbVisualStyle
  2
Conceptual
 70
     9
177
     2
291
     0
 71
     3
176
     1
 72
     2
176
     1
 73
     0
176
     1
 90
        0
176
     1
 40
-0.6
176
     1
 41
-30.0
176
     1
 62
     5
 63
     7
421
 16777215
176
     1
 74
     2
176
     1
 91
        2
176
     1
 64
     7
176
     1
 65
   257
176
     1
 75
     1
176
     1
175
     1
176
     1
 42
40.0
176
     1
 92
        8
176
     1
 66
     7
176
     1
 43
1.0
176
     1
 76
     1
176
     1
 77
     6
176
     1
 78
     2
176
     1
 67
     7
176
     1
 79
     3
176
     1
170
     0
176
     1
171
     0
176
     1
290
     0
176
     1
 93
        1
176
     1
 44
0.0
176
     1
173
     0
176
     1
  0
VISUALSTYLE
  5
35
102
{ACAD_REACTORS
330
2A
102
}
330
2A
100
AcDbVisualStyle
  2
Dim
 70
    11
177
     2
291
     1
 71
     2
176
     1
 72
     2
176
     1
 73
     0
176
     1
 90
        0
176
     1
 40
-0.6
176
     1
 41
-30.0
176
     1
 62
     5
 63
     7
421
 16777215
176
     1
 74
     1
176
     1
 91
        4
176
     1
 64
     7
176
     1
 65
   257
176
     1
 75
     1
176
     1
175
     1
176
     1
 42
1.0
176
     1
 92
        8
176
     1
 66
     7
176
     1
 43
1.0
176
     1
 76
     1
176
     1
 77
     6
176
     1
 78
     2
176
     1
 67
     7
176
     1
 79
     5
176
     1
170
     0
176
     1
171
     0
176
     1
290
     0
176
     1
 93
        1
176
     1
 44
-50.0
176
     1
173
     0
176
     1
  0
VISUALSTYLE
  5
39
102
{ACAD_REACTORS
330
2A
102
}
330
2A
100
AcDbVisualStyle
  2
Facepattern
 70
    15
177
     2
291
     1
 71
     2
176
     1
 72
     2
176
     1
 73
     0
176
     1
 90
        0
176
     1
 40
-0.6
176
     1
 41
-30.0
176
     1
 62
     5
 63
     7
421
 16777215
176
     1
 74
     1
176
     1
 91
        4
176
     1
 64
     7
176
     1
 65
   257
176
     1
 75
     1
176
     1
175
     1
176
     1
 42
1.0
176
     1
 92
        8
176
     1
 66
     7
176
     1
 43
1.0
176
     1
 76
     1
176
     1
 77
     6
176
     1
 78
     2
176
     1
 67
     7
176
     1
 79
     5
176
     1
170
     0
176
     1
171
     0
176
     1
290
     0
176
     1
 93
        1
176
     1
 44
0.0
176
     1
173
     0
176
     1
  0
VISUALSTYLE
  5
2B
102
{ACAD_REACTORS
330
2A
102
}
330
2A
100
AcDbVisualStyle
  2
Flat
 70
     0
177
     2
291
     1
 71
     2
176
     1
 72
     1
176
     1
 73
     1
176
     1
 90
        2
176
     1
 40
-0.6
176
     1
 41
30.0
176
     1
 62
     5
 63
     7
421
 16777215
176
     1
 74
     0
176
     1
 91
        4
176
     1
 64
     7
176
     1
 65
   257
176
     1
 75
     1
176
     1
175
     1
176
     1
 42
1.0
176
     1
 92
        8
176
     1
 66
     7
176
     1
 43
1.0
176
     1
 76
     1
176
     1
 77
     6
176
     1
 78
     2
176
     1
 67
     7
176
     1
 79
     5
176
     1
170
     0
176
     1
171
     0
176
     1
290
     0
176
     1
 93
       13
176
     1
 44
0.0
176
     1
173
     0
176
     1
  0
VISUALSTYLE
  5
2C
102
{ACAD_REACTORS
330
2A
102
}
330
2A
100
AcDbVisualStyle
  2
FlatWithEdges
 70
     1
177
     2
291
     1
 71
     2
176
     1
 72
     1
176
     1
 73
     1
176
     1
 90
        2
176
     1
 40
-0.6
176
     1
 41
30.0
176
     1
 62
     5
 63
     7
421
 16777215
176
     1
 74
     1
176
     1
 91
        4
176
     1
 64
     7
176
     1
 65
   257
176
     1
 75
     1
176
     1
175
     1
176
     1
 42
1.0
176
     1
 92
        0
176
     1
 66
   257
176
     1
 43
1.0
176
     1
 76
     1
176
     1
 77
     6
176
     1
 78
     2
176
     1
 67
     7
176
     1
 79
     5
176
     1
170
     0
176
     1
171
     0
176
     1
290
     0
176
     1
 93
       13
176
     1
 44
0.0
176
     1
173
     0
176
     1
  0
VISUALSTYLE
  5
2D
102
{ACAD_REACTORS
330
2A
102
}
330
2A
100
AcDbVisualStyle
  2
Gouraud
 70
     2
177
     2
291
     1
 71
     2
176
     1
 72
     2
176
     1
 73
     1
176
     1
 90
        2
176
     1
 40
-0.6
176
     1
 41
30.0
176
     1
 62
     5
 63
     7
421
 16777215
176
     1
 74
     0
176
     1
 91
        4
176
     1
 64
     7
176
     1
 65
   257
176
     1
 75
     1
176
     1
175
     1
176
     1
 42
1.0
176
     1
 92
        0
176
     1
 66
     7
176
     1
 43
1.0
176
     1
 76
     1
176
     1
 77
     6
176
     1
 78
     2
176
     1
 67
     7
176
     1
 79
     5
176
     1
170
     0
176
     1
171
     0
176
     1
290
     0
176
     1
 93
       13
176
     1
 44
0.0
176
     1
173
     0
176
     1
  0
VISUALSTYLE
  5
2E
102
{ACAD_REACTORS
330
2A
102
}
330
2A
100
AcDbVisualStyle
  2
GouraudWithEdges
 70
     3
177
     2
291
     1
 71
     2
176
     1
 72
     2
176
     1
 73
     1
176
     1
 90
        2
176
     1
 40
-0.6
176
     1
 41
30.0
176
     1
 62
     5
 63
     7
421
 16777215
176
     1
 74
     1
176
     1
 91
        4
176
     1
 64
     7
176
     1
 65
   257
176
     1
 75
     1
176
     1
175
     1
176
     1
 42
1.0
176
     1
 92
        0
176
     1
 66
   257
176
     1
 43
1.0
176
     1
 76
     1
176
     1
 77
     6
176
     1
 78
     2
176
     1
 67
     7
176
     1
 79
     5
176
     1
170
     0
176
     1
171
     0
176
     1
290
     0
176
     1
 93
       13
176
     1
 44
0.0
176
     1
173
     0
176
     1
  0
VISUALSTYLE
  5
38
102
{ACAD_REACTORS
330
2A
102
}
330
2A
100
AcDbVisualStyle
  2
Linepattern
 70
    14
177
     2
291
     1
 71
     2
176
     1
 72
     2
176
     1
 73
     0
176
     1
 90
        0
176
     1
 40
-0.6
176
     1
 41
-30.0
176
     1
 62
     5
 63
     7
421
 16777215
176
     1
 74
     1
176
     1
 91
        4
176
     1
 64
     7
176
     1
 65
   257
176
     1
 75
     7
176
     1
175
     7
176
     1
 42
1.0
176
     1
 92
        8
176
     1
 66
     7
176
     1
 43
1.0
176
     1
 76
     1
176
     1
 77
     6
176
     1
 78
     2
176
     1
 67
     7
176
     1
 79
     5
176
     1
170
     0
176
     1
171
     0
176
     1
290
     0
176
     1
 93
        1
176
     1
 44
0.0
176
     1
173
     0
176
     1
  0
VISUALSTYLE
  5
33
102
{ACAD_REACTORS
330
2A
102
}
330
2A
100
AcDbVisualStyle
  2
Realistic
 70
     8
177
     2
291
     0
 71
     2
176
     1
 72
     2
176
     1
 73
     0
176
     1
 90
        0
176
     1
 40
-0.6
176
     1
 41
-30.0
176
     1
 62
     5
 63
     7
421
 16777215
176
     1
 74
     1
176
     1
 91
        0
176
     1
 64
     7
176
     1
 65
   257
176
     1
 75
     1
176
     1
175
     1
176
     1
 42
1.0
176
     1
 92
        8
176
     1
 66
     8
424
  7895160
176
     1
 43
1.0
176
     1
 76
     1
176
     1
 77
     6
176
     1
 78
     2
176
     1
 67
     7
176
     1
 79
     5
176
     1
170
     0
176
     1
171
     0
176
     1
290
     0
176
     1
 93
       13
176
     1
 44
0.0
176
     1
173
     0
176
     1
  0
VISUALSTYLE
  5
37
102
{ACAD_REACTORS
330
2A
102
}
330
2A
100
AcDbVisualStyle
  2
Thicken
 70
    13
177
     2
291
     1
 71
     2
176
     1
 72
     2
176
     1
 73
     0
176
     1
 90
        0
176
     1
 40
-0.6
176
     1
 41
-30.0
176
     1
 62
     5
 63
     7
421
 16777215
176
     1
 74
     1
176
     1
 91
        4
176
     1
 64
     7
176
     1
 65
   257
176
     1
 75
     1
176
     1
175
     1
176
     1
 42
1.0
176
     1
 92
       12
176
     1
 66
     7
176
     1
 43
1.0
176
     1
 76
     1
176
     1
 77
     6
176
     1
 78
     2
176
     1
 67
     7
176
     1
 79
     5
176
     1
170
     0
176
     1
171
     0
176
     1
290
     0
176
     1
 93
        1
176
     1
 44
0.0
176
     1
173
     0
176
     1
  0
ENDSEC
  0
EOF
