  0
SECTION
  2
HEADER
  9
$ACADVER
  1
AC1009
  9
$DWGCODEPAGE
  3
ansi_1252
  9
$INSBASE
 10
0.0
 20
0.0
 30
0.0
  9
$EXTMIN
 10
0.0
 20
0.0
 30
0.0
  9
$EXTMAX
 10
594.0
 20
841.0
 30
0.0
  9
$LIMMIN
 10
0.0
 20
0.0
  9
$LIMMAX
 10
594.0
 20
841.0
  9
$ORTHOMODE
 70
     0
  9
$REGENMODE
 70
     1
  9
$FILLMODE
 70
     1
  9
$QTEXTMODE
 70
     0
  9
$MIRRTEXT
 70
     1
  9
$DRAGMODE
 70
     2
  9
$LTSCALE
 40
1.0
  9
$OSMODE
 70
    37
  9
$ATTMODE
 70
     1
  9
$TEXTSIZE
 40
10.0
  9
$TRACEWID
 40
1.0
  9
$TEXTSTYLE
  7
STANDARD
  9
$CLAYER
  8
0
  9
$CELTYPE
  6
BYLAYER
  9
$CECOLOR
 62
   256
  9
$DIMSCALE
 40
1.0
  9
$DIMASZ
 40
2.5
  9
$DIMEXO
 40
0.0
  9
$DIMDLI
 40
3.75
  9
$DIMRND
 40
0.0
  9
$DIMDLE
 40
0.0
  9
$DIMEXE
 40
1.0
  9
$DIMTP
 40
0.0
  9
$DIMTM
 40
0.0
  9
$DIMTXT
 40
3.5
  9
$DIMCEN
 40
2.5
  9
$DIMTSZ
 40
0.0
  9
$DIMTOL
 70
     0
  9
$DIMLIM
 70
     0
  9
$DIMTIH
 70
     1
  9
$DIMTOH
 70
     1
  9
$DIMSE1
 70
     0
  9
$DIMSE2
 70
     0
  9
$DIMTAD
 70
     1
  9
$DIMZIN
 70
     0
  9
$DIMBLK
  1

  9
$DIMASO
 70
     1
  9
$DIMSHO
 70
     1
  9
$DIMPOST
  1

  9
$DIMAPOST
  1

  9
$DIMALT
 70
     0
  9
$DIMALTD
 70
     3
  9
$DIMALTF
 40
0.0393700787
  9
$DIMLFAC
 40
1.0
  9
$DIMTOFL
 70
     1
  9
$DIMTVP
 40
0.0
  9
$DIMTIX
 70
     0
  9
$DIMSOXD
 70
     0
  9
$DIMSAH
 70
     0
  9
$DIMBLK1
  1

  9
$DIMBLK2
  1

  9
$DIMSTYLE
  2
ISO-25
  9
$DIMCLRD
 70
     0
  9
$DIMCLRE
 70
     0
  9
$DIMCLRT
 70
     0
  9
$DIMTFAC
 40
1.0
  9
$DIMGAP
 40
1.5
  9
$LUNITS
 70
     2
  9
$LUPREC
 70
     2
  9
$SKETCHINC
 40
1.0
  9
$FILLETRAD
 40
10.0
  9
$AUNITS
 70
     0
  9
$AUPREC
 70
     2
  9
$MENU
  1
.
  9
$ELEVATION
 40
0.0
  9
$PELEVATION
 40
0.0
  9
$THICKNESS
 40
0.0
  9
$LIMCHECK
 70
     0
  9
$CHAMFERA
 40
0.0
  9
$CHAMFERB
 40
0.0
  9
$SKPOLY
 70
     0
  9
$TDCREATE
 40
2458127.374628183
  9
$TDUPDATE
 40
2458127.374628576
  9
$TDINDWG
 40
0.0000000116
  9
$TDUSRTIMER
 40
0.0000000116
  9
$USRTIMER
 70
     1
  9
$ANGBASE
 50
0.0
  9
$ANGDIR
 70
     0
  9
$PDMODE
 70
     0
  9
$PDSIZE
 40
-1.0
  9
$PLINEWID
 40
0.0
  9
$COORDS
 70
     1
  9
$SPLFRAME
 70
     0
  9
$SPLINETYPE
 70
     6
  9
$SPLINESEGS
 70
     8
  9
$ATTDIA
 70
     0
  9
$ATTREQ
 70
     1
  9
$HANDLING
 70
     1
  9
$HANDSEED
  5
4C4
  9
$SURFTAB1
 70
     6
  9
$SURFTAB2
 70
     6
  9
$SURFTYPE
 70
     6
  9
$SURFU
 70
     6
  9
$SURFV
 70
     6
  9
$UCSNAME
  2

  9
$UCSORG
 10
0.0
 20
0.0
 30
0.0
  9
$UCSXDIR
 10
1.0
 20
0.0
 30
0.0
  9
$UCSYDIR
 10
0.0
 20
1.0
 30
0.0
  9
$PUCSNAME
  2

  9
$PUCSORG
 10
0.0
 20
0.0
 30
0.0
  9
$PUCSXDIR
 10
1.0
 20
0.0
 30
0.0
  9
$PUCSYDIR
 10
0.0
 20
1.0
 30
0.0
  9
$USERI1
 70
     0
  9
$USERI2
 70
     0
  9
$USERI3
 70
     0
  9
$USERI4
 70
     0
  9
$USERI5
 70
     0
  9
$USERR1
 40
0.0
  9
$USERR2
 40
0.0
  9
$USERR3
 40
0.0
  9
$USERR4
 40
0.0
  9
$USERR5
 40
0.0
  9
$WORLDVIEW
 70
     1
  9
$SHADEDGE
 70
     3
  9
$SHADEDIF
 70
    70
  9
$TILEMODE
 70
     1
  9
$MAXACTVP
 70
    64
  9
$PLIMCHECK
 70
     0
  9
$PEXTMIN
 10
1.0000000000E+20
 20
1.0000000000E+20
 30
1.0000000000E+20
  9
$PEXTMAX
 10
-1.0000000000E+20
 20
-1.0000000000E+20
 30
-1.0000000000E+20
  9
$PLIMMIN
 10
0.0
 20
0.0
  9
$PLIMMAX
 10
420.0
 20
297.0
  9
$UNITMODE
 70
     0
  9
$VISRETAIN
 70
     1
  9
$PLINEGEN
 70
     0
  9
$PSLTSCALE
 70
     1
  0
ENDSEC
  0
SECTION
  2
TABLES
  0
TABLE
  2
VPORT
 70
     1
  0
VPORT
  2
*ACTIVE
 70
     0
 10
0.0
 20
0.0
 11
1.0
 21
1.0
 12
297.0
 22
420.5
 13
0.0
 23
0.0
 14
10.0
 24
10.0
 15
10.0
 25
10.0
 16
0.0
 26
0.0
 36
1.0
 17
0.0
 27
0.0
 37
0.0
 40
841.0
 41
0.7063020214
 42
50.0
 43
0.0
 44
0.0
 50
0.0
 51
0.0
 71
     0
 72
  2000
 73
     1
 74
     3
 75
     0
 76
     0
 77
     0
 78
     0
  0
ENDTAB
  0
TABLE
  2
LTYPE
 70
     6
  0
LTYPE
  2
CONTINUOUS
 70
     0
  3
Solid line
 72
    65
 73
     0
 40
0.0
  0
LTYPE
  2
HIDDEN
 70
     0
  3
Hidden __ __ __ __ __ __ __ __ __ __ __ __ __ __
 72
    65
 73
     2
 40
1.905
 49
1.27
 49
-0.635
  0
LTYPE
  2
PHANTOM
 70
     0
  3
Phantom ______  __  __  ______  __  __  ______
 72
    65
 73
     6
 40
12.7
 49
6.35
 49
-1.27
 49
1.27
 49
-1.27
 49
1.27
 49
-1.27
  0
LTYPE
  2
CENTER
 70
     0
  3
Center ____ _ ____ _ ____ _ ____ _ ____ _ ____
 72
    65
 73
     4
 40
10.16
 49
6.35
 49
-1.27
 49
1.27
 49
-1.27
  0
LTYPE
  2
CENTERX2
 70
     0
  3
Center (2x) ________  __  ________  __  _____
 72
    65
 73
     4
 40
20.32
 49
12.7
 49
-2.54
 49
2.54
 49
-2.54
  0
LTYPE
  2
DOT2
 70
     0
  3
Dot (.5x) ........................................
 72
    65
 73
     2
 40
0.635
 49
0.0
 49
-0.635
  0
ENDTAB
  0
TABLE
  2
LAYER
 70
     1
  0
LAYER
  2
0
 70
     0
 62
     7
  6
CONTINUOUS
  0
ENDTAB
  0
TABLE
  2
STYLE
 70
     1
  0
STYLE
  2
STANDARD
 70
     0
 40
0.0
 41
1.0
 50
0.0
 71
     0
 42
10.0
  3
txt
  4

  0
ENDTAB
  0
TABLE
  2
VIEW
 70
     0
  0
ENDTAB
  0
TABLE
  2
UCS
 70
     0
  0
ENDTAB
  0
TABLE
  2
APPID
 70
     1
  0
APPID
  2
ACAD
 70
     0
  0
ENDTAB
  0
TABLE
  2
DIMSTYLE
 70
     2
  0
DIMSTYLE
  2
ISO-25
 70
     0
  3

  4

  5

  6

  7

 40
1.0
 41
2.5
 42
0.625
 43
3.75
 44
1.25
 45
0.0
 46
0.0
 47
0.0
 48
0.0
140
2.5
141
2.5
142
0.0
143
0.0393700787
144
1.0
145
0.0
146
1.0
147
0.625
 71
     0
 72
     0
 73
     0
 74
     0
 75
     0
 76
     0
 77
     1
 78
     8
170
     0
171
     3
172
     1
173
     0
174
     0
175
     0
176
     0
177
     0
178
     0
  0
DIMSTYLE
  2
SLDDIMSTYLE0
 70
     0
  3

  4

  5

  6

  7

 40
1.0
 41
2.5
 42
0.0625
 43
0.38
 44
0.0
 45
0.000000001
 46
0.0
 47
0.0
 48
0.0
140
6.0
141
0.09
142
0.0
143
25.4
144
1.0
145
0.0
146
1.0
147
1.5
 71
     0
 72
     0
 73
     0
 74
     0
 75
     0
 76
     0
 77
     1
 78
    12
170
     0
171
     2
172
     0
173
     1
174
     0
175
     0
176
     0
177
     0
178
     0
  0
ENDTAB
  0
ENDSEC
  0
SECTION
  2
BLOCKS
  0
BLOCK
  8
0
  2
$MODEL_SPACE
 70
     0
 10
0.0
 20
0.0
 30
0.0
  3
$MODEL_SPACE
  1

  0
ENDBLK
  5
21
  8
0
  0
BLOCK
 67
     1
  8
0
  2
$PAPER_SPACE
 70
     0
 10
0.0
 20
0.0
 30
0.0
  3
$PAPER_SPACE
  1

  0
ENDBLK
  5
1D
 67
     1
  8
0
  0
BLOCK
  8
0
  2
_D
 70
     0
 10
0.0
 20
0.0
 30
0.0
  3
_D
  1

  0
SOLID
  5
7A
  8
0
  6
CONTINUOUS
 62
     7
 10
42.7614395004
 20
152.0299240879
 30
0.0
 11
42.4614395004
 21
149.5299240879
 31
0.0
 12
43.0614395004
 22
149.5299240879
 32
0.0
 13
43.0614395004
 23
149.5299240879
 33
0.0
  0
SOLID
  5
7B
  8
0
  6
CONTINUOUS
 62
     7
 10
42.7614395004
 20
52.0299240879
 30
0.0
 11
43.0614395004
 21
54.5299240879
 31
0.0
 12
42.4614395004
 22
54.5299240879
 32
0.0
 13
42.4614395004
 23
54.5299240879
 33
0.0
  0
LINE
  5
7C
  8
0
  6
CONTINUOUS
 62
     7
 10
56.6850079902
 20
152.0299240879
 30
0.0
 11
41.7614395004
 21
152.0299240879
 31
0.0
  0
LINE
  5
7D
  8
0
  6
CONTINUOUS
 62
     7
 10
56.6850079902
 20
52.0299240879
 30
0.0
 11
41.7614395004
 21
52.0299240879
 31
0.0
  0
LINE
  5
7E
  8
0
  6
CONTINUOUS
 62
     7
 10
42.7614395004
 20
152.0299240879
 30
0.0
 11
42.7614395004
 21
52.0299240879
 31
0.0
  0
TEXT
  5
7F
  8
0
  6
CONTINUOUS
 62
     7
 10
40.6418793617
 20
94.3680541463
 30
0.0
 40
6.0
  1
100
 50
90.0
 41
0.7
 11
42.7614397332
 21
94.3680541463
 31
0.0
 73
     1
  0
TEXT
  5
80
  8
0
  6
CONTINUOUS
 62
     7
 10
40.6418793617
 20
105.7430548466
 30
0.0
 40
6.0
  1
mm
 50
90.0
 41
0.7
 11
42.7614397332
 21
105.7430548466
 31
0.0
 73
     1
  0
ENDBLK
  5
79
  8
0
  0
BLOCK
  8
0
  2
_D_1
 70
     0
 10
0.0
 20
0.0
 30
0.0
  3
_D_1
  1

  0
SOLID
  5
85
  8
0
  6
CONTINUOUS
 62
     7
 10
56.6850079902
 20
38.4602342313
 30
0.0
 11
59.1850079902
 21
38.1602342313
 31
0.0
 12
59.1850079902
 22
38.7602342313
 32
0.0
 13
59.1850079902
 23
38.7602342313
 33
0.0
  0
SOLID
  5
86
  8
0
  6
CONTINUOUS
 62
     7
 10
156.6850079902
 20
38.4602342313
 30
0.0
 11
154.1850079902
 21
38.7602342313
 31
0.0
 12
154.1850079902
 22
38.1602342313
 32
0.0
 13
154.1850079902
 23
38.1602342313
 33
0.0
  0
LINE
  5
87
  8
0
  6
CONTINUOUS
 62
     7
 10
56.6850079902
 20
52.0299240879
 30
0.0
 11
56.6850079902
 21
37.4602342313
 31
0.0
  0
LINE
  5
88
  8
0
  6
CONTINUOUS
 62
     7
 10
156.6850079902
 20
52.0299240879
 30
0.0
 11
156.6850079902
 21
37.4602342313
 31
0.0
  0
LINE
  5
89
  8
0
  6
CONTINUOUS
 62
     7
 10
56.6850079902
 20
38.4602342313
 30
0.0
 11
156.6850079902
 21
38.4602342313
 31
0.0
  0
TEXT
  5
8A
  8
0
  6
CONTINUOUS
 62
     7
 10
93.9626484861
 20
40.57979437
 30
0.0
 40
6.0
  1
100
 41
0.7
 11
93.9626484861
 21
38.4602339984
 31
0.0
 73
     1
  0
TEXT
  5
8B
  8
0
  6
CONTINUOUS
 62
     7
 10
105.3376491864
 20
40.57979437
 30
0.0
 40
6.0
  1
mm
 41
0.7
 11
105.3376491864
 21
38.4602339984
 31
0.0
 73
     1
  0
ENDBLK
  5
84
  8
0
  0
ENDSEC
  0
SECTION
  2
ENTITIES
  0
LINE
  5
73
  8
0
  6
CONTINUOUS
 62
     7
 10
56.6850079902
 20
152.0299240879
 30
0.0
 11
56.6850079902
 21
52.0299240879
 31
0.0
  0
LINE
  5
74
  8
0
  6
CONTINUOUS
 62
     7
 10
56.6850079902
 20
52.0299240879
 30
0.0
 11
156.6850079902
 21
52.0299240879
 31
0.0
  0
DIMENSION
  5
75
  8
0
  6
CONTINUOUS
 62
     7
  2
_D
 10
42.7614395004
 20
52.0299240879
 30
0.0
 11
42.7614395004
 21
105.4472211621
 31
0.0
 70
   160
  1
<>mm
  3
SLDDIMSTYLE0
 13
56.6850079902
 23
152.0299240879
 33
0.0
 14
56.6850079902
 24
52.0299240879
 34
0.0
 50
90.0
  0
DIMENSION
  5
81
  8
0
  6
CONTINUOUS
 62
     7
  2
_D_1
 10
156.6850079902
 20
38.4602342313
 30
0.0
 11
105.0418155019
 21
38.4602342313
 31
0.0
 70
   160
  1
<>mm
  3
SLDDIMSTYLE0
 13
56.6850079902
 23
52.0299240879
 33
0.0
 14
156.6850079902
 24
52.0299240879
 34
0.0
  0
TEXT
  5
8C
  8
0
  6
CONTINUOUS
 62
     7
 10
412.8252631579
 20
39.0761681714
 30
0.0
 40
10.0
  1
KLUDI GmbH & Co KG
 41
0.6222222222
 11
412.8252631579
 21
35.5435675522
 31
0.0
 73
     1
  0
TEXT
  5
8D
  8
0
  6
CONTINUOUS
 62
     7
 10
210.0873490389
 20
39.0761681714
 30
0.0
 40
10.0
  1
40 420 05 75
 41
0.6125
 11
210.0873490389
 21
35.5435675522
 31
0.0
 73
     1
  0
POLYLINE
  5
8E
  8
0
  6
CONTINUOUS
 62
     7
 66
     1
 10
0.0
 20
0.0
 30
0.0
 70
   128
  0
VERTEX
  5
1E7
  8
0
  6
CONTINUOUS
 62
     7
 10
149.155509728
 20
245.4110273596
 30
0.0
  0
VERTEX
  5
1E8
  8
0
  6
CONTINUOUS
 62
     7
 10
149.2893123998
 20
242.2563090597
 30
0.0
  0
VERTEX
  5
1E9
  8
0
  6
CONTINUOUS
 62
     7
 10
149.7582901109
 20
239.6083620986
 30
0.0
  0
VERTEX
  5
1EA
  8
0
  6
CONTINUOUS
 62
     7
 10
150.2564082741
 20
238.2004389175
 30
0.0
  0
VERTEX
  5
1EB
  8
0
  6
CONTINUOUS
 62
     7
 10
150.8087006471
 20
237.1238133647
 30
0.0
  0
VERTEX
  5
1EC
  8
0
  6
CONTINUOUS
 62
     7
 10
151.3887192532
 20
236.2714935811
 30
0.0
  0
VERTEX
  5
1ED
  8
0
  6
CONTINUOUS
 62
     7
 10
152.0110950027
 20
235.5549554291
 30
0.0
  0
VERTEX
  5
1EE
  8
0
  6
CONTINUOUS
 62
     7
 10
152.8572613085
 20
234.8079188762
 30
0.0
  0
VERTEX
  5
1EF
  8
0
  6
CONTINUOUS
 62
     7
 10
153.9433457714
 20
234.0989147559
 30
0.0
  0
VERTEX
  5
1F0
  8
0
  6
CONTINUOUS
 62
     7
 10
155.2563373962
 20
233.4984641967
 30
0.0
  0
VERTEX
  5
1F1
  8
0
  6
CONTINUOUS
 62
     7
 10
157.3192671934
 20
232.947203463
 30
0.0
  0
VERTEX
  5
1F2
  8
0
  6
CONTINUOUS
 62
     7
 10
159.6265551167
 20
232.6976127696
 30
0.0
  0
VERTEX
  5
1F3
  8
0
  6
CONTINUOUS
 62
     7
 10
162.1330101394
 20
232.6536431559
 30
0.0
  0
SEQEND
  5
467
  8
0
  6
CONTINUOUS
 62
     7
  0
POLYLINE
  5
8F
  8
0
  6
CONTINUOUS
 62
     7
 66
     1
 10
0.0
 20
0.0
 30
0.0
 70
   128
  0
VERTEX
  5
1F4
  8
0
  6
CONTINUOUS
 62
     7
 10
179.366390976
 20
232.6536431559
 30
0.0
  0
VERTEX
  5
1F5
  8
0
  6
CONTINUOUS
 62
     7
 10
182.5350159736
 20
232.7406193255
 30
0.0
  0
VERTEX
  5
1F6
  8
0
  6
CONTINUOUS
 62
     7
 10
185.1873365658
 20
233.1657113473
 30
0.0
  0
VERTEX
  5
1F7
  8
0
  6
CONTINUOUS
 62
     7
 10
186.6050602543
 20
233.640772652
 30
0.0
  0
VERTEX
  5
1F8
  8
0
  6
CONTINUOUS
 62
     7
 10
187.6938623611
 20
234.1766825498
 30
0.0
  0
VERTEX
  5
1F9
  8
0
  6
CONTINUOUS
 62
     7
 10
188.5575914757
 20
234.7439921207
 30
0.0
  0
VERTEX
  5
1FA
  8
0
  6
CONTINUOUS
 62
     7
 10
189.2845903431
 20
235.3545346475
 30
0.0
  0
VERTEX
  5
1FB
  8
0
  6
CONTINUOUS
 62
     7
 10
190.0442254818
 20
236.1864281763
 30
0.0
  0
VERTEX
  5
1FC
  8
0
  6
CONTINUOUS
 62
     7
 10
190.7692084926
 20
237.2574364116
 30
0.0
  0
VERTEX
  5
1FD
  8
0
  6
CONTINUOUS
 62
     7
 10
191.3910511045
 20
238.5586378687
 30
0.0
  0
VERTEX
  5
1FE
  8
0
  6
CONTINUOUS
 62
     7
 10
191.9771042008
 20
240.6159729991
 30
0.0
  0
VERTEX
  5
1FF
  8
0
  6
CONTINUOUS
 62
     7
 10
192.2632861237
 20
242.915285574
 30
0.0
  0
VERTEX
  5
200
  8
0
  6
CONTINUOUS
 62
     7
 10
192.3438913874
 20
245.4110273596
 30
0.0
  0
SEQEND
  5
468
  8
0
  6
CONTINUOUS
 62
     7
  0
POLYLINE
  5
90
  8
0
  6
CONTINUOUS
 62
     7
 66
     1
 10
0.0
 20
0.0
 30
0.0
 70
   128
  0
VERTEX
  5
201
  8
0
  6
CONTINUOUS
 62
     7
 10
148.370683915
 20
301.792667628
 30
0.0
  0
VERTEX
  5
202
  8
0
  6
CONTINUOUS
 62
     7
 10
148.6996867087
 20
276.13637581
 30
0.0
  0
VERTEX
  5
203
  8
0
  6
CONTINUOUS
 62
     7
 10
149.1566085322
 20
245.3367030123
 30
0.0
  0
SEQEND
  5
469
  8
0
  6
CONTINUOUS
 62
     7
  0
POLYLINE
  5
91
  8
0
  6
CONTINUOUS
 62
     7
 66
     1
 10
0.0
 20
0.0
 30
0.0
 70
   128
  0
VERTEX
  5
204
  8
0
  6
CONTINUOUS
 62
     7
 10
192.344139659
 20
245.4275674002
 30
0.0
  0
VERTEX
  5
205
  8
0
  6
CONTINUOUS
 62
     7
 10
192.4090710174
 20
249.8052276023
 30
0.0
  0
VERTEX
  5
206
  8
0
  6
CONTINUOUS
 62
     7
 10
192.472328358
 20
254.0695826965
 30
0.0
  0
VERTEX
  5
207
  8
0
  6
CONTINUOUS
 62
     7
 10
192.5291004541
 20
257.8964356935
 30
0.0
  0
VERTEX
  5
208
  8
0
  6
CONTINUOUS
 62
     7
 10
192.5793851707
 20
261.2857882905
 30
0.0
  0
VERTEX
  5
209
  8
0
  6
CONTINUOUS
 62
     7
 10
192.6231807057
 20
264.2376385335
 30
0.0
  0
VERTEX
  5
20A
  8
0
  6
CONTINUOUS
 62
     7
 10
192.6604855773
 20
266.7519836626
 30
0.0
  0
VERTEX
  5
20B
  8
0
  6
CONTINUOUS
 62
     7
 10
192.6912985996
 20
268.8288215496
 30
0.0
  0
VERTEX
  5
20C
  8
0
  6
CONTINUOUS
 62
     7
 10
192.7197931841
 20
270.7494942145
 30
0.0
  0
VERTEX
  5
20D
  8
0
  6
CONTINUOUS
 62
     7
 10
192.7675728812
 20
273.9701444537
 30
0.0
  0
VERTEX
  5
20E
  8
0
  6
CONTINUOUS
 62
     7
 10
192.8269301099
 20
277.9711831794
 30
0.0
  0
VERTEX
  5
20F
  8
0
  6
CONTINUOUS
 62
     7
 10
192.897867119
 20
282.7526068643
 30
0.0
  0
VERTEX
  5
210
  8
0
  6
CONTINUOUS
 62
     7
 10
192.9803632323
 20
288.3144492503
 30
0.0
  0
VERTEX
  5
211
  8
0
  6
CONTINUOUS
 62
     7
 10
193.0668879033
 20
294.660524672
 30
0.0
  0
VERTEX
  5
212
  8
0
  6
CONTINUOUS
 62
     7
 10
193.1287172004
 20
301.792667628
 30
0.0
  0
SEQEND
  5
46A
  8
0
  6
CONTINUOUS
 62
     7
  0
LINE
  5
92
  8
0
  6
CONTINUOUS
 62
     7
 10
149.1405278221
 20
245.4393197271
 30
0.0
 11
149.1409823836
 21
245.4087222756
 31
0.0
  0
LINE
  5
93
  8
0
  6
CONTINUOUS
 62
     7
 10
192.3584187318
 20
245.4087222756
 30
0.0
 11
192.3588732933
 21
245.4393197271
 31
0.0
  0
POLYLINE
  5
94
  8
0
  6
CONTINUOUS
 62
     7
 66
     1
 10
0.0
 20
0.0
 30
0.0
 70
   128
  0
VERTEX
  5
213
  8
0
  6
CONTINUOUS
 62
     7
 10
148.4558262215
 20
315.7533107672
 30
0.0
  0
VERTEX
  5
214
  8
0
  6
CONTINUOUS
 62
     7
 10
148.4369759741
 20
315.7721662853
 30
0.0
  0
VERTEX
  5
215
  8
0
  6
CONTINUOUS
 62
     7
 10
148.4298237806
 20
315.5857271268
 30
0.0
  0
VERTEX
  5
216
  8
0
  6
CONTINUOUS
 62
     7
 10
148.4288806278
 20
315.2486040017
 30
0.0
  0
VERTEX
  5
217
  8
0
  6
CONTINUOUS
 62
     7
 10
148.4304111295
 20
314.7597923902
 30
0.0
  0
VERTEX
  5
218
  8
0
  6
CONTINUOUS
 62
     7
 10
148.4327149037
 20
314.1188350258
 30
0.0
  0
VERTEX
  5
219
  8
0
  6
CONTINUOUS
 62
     7
 10
148.4434171354
 20
312.3814981746
 30
0.0
  0
VERTEX
  5
21A
  8
0
  6
CONTINUOUS
 62
     7
 10
148.4658806859
 20
309.4610247712
 30
0.0
  0
VERTEX
  5
21B
  8
0
  6
CONTINUOUS
 62
     7
 10
148.4047476002
 20
306.7294416772
 30
0.0
  0
VERTEX
  5
21C
  8
0
  6
CONTINUOUS
 62
     7
 10
148.3568282928
 20
304.8410855788
 30
0.0
  0
SEQEND
  5
46B
  8
0
  6
CONTINUOUS
 62
     7
  0
POLYLINE
  5
95
  8
0
  6
CONTINUOUS
 62
     7
 66
     1
 10
0.0
 20
0.0
 30
0.0
 70
   128
  0
VERTEX
  5
21D
  8
0
  6
CONTINUOUS
 62
     7
 10
193.1440240603
 20
304.5871102632
 30
0.0
  0
VERTEX
  5
21E
  8
0
  6
CONTINUOUS
 62
     7
 10
193.1107846412
 20
305.400054578
 30
0.0
  0
VERTEX
  5
21F
  8
0
  6
CONTINUOUS
 62
     7
 10
193.0245495235
 20
306.4899528191
 30
0.0
  0
VERTEX
  5
220
  8
0
  6
CONTINUOUS
 62
     7
 10
192.9598050646
 20
307.5183790107
 30
0.0
  0
VERTEX
  5
221
  8
0
  6
CONTINUOUS
 62
     7
 10
192.9426834052
 20
308.4783057001
 30
0.0
  0
VERTEX
  5
222
  8
0
  6
CONTINUOUS
 62
     7
 10
192.9877065757
 20
309.6536920834
 30
0.0
  0
VERTEX
  5
223
  8
0
  6
CONTINUOUS
 62
     7
 10
193.0309613967
 20
310.7637900215
 30
0.0
  0
VERTEX
  5
224
  8
0
  6
CONTINUOUS
 62
     7
 10
193.0473198378
 20
311.8367184354
 30
0.0
  0
VERTEX
  5
225
  8
0
  6
CONTINUOUS
 62
     7
 10
193.0491427662
 20
313.3689648196
 30
0.0
  0
VERTEX
  5
226
  8
0
  6
CONTINUOUS
 62
     7
 10
193.0533703991
 20
314.7844551744
 30
0.0
  0
VERTEX
  5
227
  8
0
  6
CONTINUOUS
 62
     7
 10
193.07375573
 20
315.7410617115
 30
0.0
  0
VERTEX
  5
228
  8
0
  6
CONTINUOUS
 62
     7
 10
193.0813505796
 20
315.9989550036
 30
0.0
  0
VERTEX
  5
229
  8
0
  6
CONTINUOUS
 62
     7
 10
193.080925388
 20
316.1115993241
 30
0.0
  0
VERTEX
  5
22A
  8
0
  6
CONTINUOUS
 62
     7
 10
193.0744865721
 20
316.0839964725
 30
0.0
  0
SEQEND
  5
46C
  8
0
  6
CONTINUOUS
 62
     7
  0
ARC
  5
96
  8
0
  6
CONTINUOUS
 62
     7
 10
198.4983514721
 20
329.8847616955
 30
0.0
 40
5.666064187315509
 50
184.4977907188
 51
193.9980178595
  0
ARC
  5
97
  8
0
  6
CONTINUOUS
 62
     7
 10
143.0010496433
 20
329.8847616955
 30
0.0
 40
5.666064187340873
 50
346.0019821405
 51
355.5022092811
  0
LINE
  5
98
  8
0
  6
CONTINUOUS
 62
     7
 10
162.1335470376
 20
232.638438486
 30
0.0
 11
162.1330142799
 21
232.6753268209
 31
0.0
  0
LINE
  5
99
  8
0
  6
CONTINUOUS
 62
     7
 10
149.1426358798
 20
245.4076987489
 30
0.0
 11
149.1776925377
 21
245.4113162605
 31
0.0
  0
LINE
  5
9A
  8
0
  6
CONTINUOUS
 62
     7
 10
179.3605463044
 20
232.6384383274
 30
0.0
 11
179.3610531015
 21
232.6754173556
 31
0.0
  0
LINE
  5
9B
  8
0
  6
CONTINUOUS
 62
     7
 10
192.3567653404
 20
245.407706035
 30
0.0
 11
192.321708868
 21
245.4113219488
 31
0.0
  0
LINE
  5
9C
  8
0
  6
CONTINUOUS
 62
     7
 10
170.7497071214
 20
232.6382706766
 30
0.0
 11
179.3605463044
 21
232.6384383274
 31
0.0
  0
LINE
  5
9D
  8
0
  6
CONTINUOUS
 62
     7
 10
170.749693994
 20
232.6382706766
 30
0.0
 11
162.138854811
 21
232.6384383274
 31
0.0
  0
LINE
  5
9E
  8
0
  6
CONTINUOUS
 62
     7
 10
149.140567927
 20
245.4388232131
 30
0.0
 11
149.1417730306
 21
245.4398195788
 31
0.0
  0
LINE
  5
9F
  8
0
  6
CONTINUOUS
 62
     7
 10
148.3549651826
 20
301.7896581737
 30
0.0
 11
148.392602934
 21
301.7927151403
 31
0.0
  0
POLYLINE
  5
A0
  8
0
  6
CONTINUOUS
 62
     7
 66
     1
 10
0.0
 20
0.0
 30
0.0
 70
   128
  0
VERTEX
  5
22B
  8
0
  6
CONTINUOUS
 62
     7
 10
192.3572172981
 20
245.4382965484
 30
0.0
  0
VERTEX
  5
22C
  8
0
  6
CONTINUOUS
 62
     7
 10
192.6370128094
 20
264.2175263984
 30
0.0
  0
VERTEX
  5
22D
  8
0
  6
CONTINUOUS
 62
     7
 10
192.9165935004
 20
282.9967466087
 30
0.0
  0
VERTEX
  5
22E
  8
0
  6
CONTINUOUS
 62
     7
 10
192.9871783596
 20
288.8142987347
 30
0.0
  0
SEQEND
  5
46D
  8
0
  6
CONTINUOUS
 62
     7
  0
LINE
  5
A1
  8
0
  6
CONTINUOUS
 62
     7
 10
193.0888530521
 20
297.1942520186
 30
0.0
 11
193.1446087334
 21
301.7895942229
 31
0.0
  0
LINE
  5
A2
  8
0
  6
CONTINUOUS
 62
     7
 10
148.3549876106
 20
301.7896107487
 30
0.0
 11
148.3956069271
 21
311.8482914592
 31
0.0
  0
LINE
  5
A3
  8
0
  6
CONTINUOUS
 62
     7
 10
193.1444135048
 20
301.7896107487
 30
0.0
 11
193.1037941883
 21
311.8482914592
 31
0.0
  0
ARC
  5
A4
  8
0
  6
CONTINUOUS
 62
     7
 10
159.6170000581
 20
329.3656434092
 30
0.0
 40
10.96596925845879
 50
98.1339439729
 51
179.4885160245
  0
ARC
  5
A5
  8
0
  6
CONTINUOUS
 62
     7
 10
181.8824010573
 20
329.3656434092
 30
0.0
 40
10.96596925845872
 50
0.5114839755
 51
81.8660560271
  0
ARC
  5
A6
  8
0
  6
CONTINUOUS
 62
     7
 10
166.7599707165
 20
321.3088906363
 30
0.0
 40
27.19496756683198
 50
358.5305909786
 51
15.3538428714
  0
POLYLINE
  5
A7
  8
0
  6
CONTINUOUS
 62
     7
 66
     1
 10
0.0
 20
0.0
 30
0.0
 70
   128
  0
VERTEX
  5
22F
  8
0
  6
CONTINUOUS
 62
     7
 10
185.4550495621
 20
339.6605696677
 30
0.0
  0
VERTEX
  5
230
  8
0
  6
CONTINUOUS
 62
     7
 10
185.3205642775
 20
339.7619368326
 30
0.0
  0
VERTEX
  5
231
  8
0
  6
CONTINUOUS
 62
     7
 10
182.3671670255
 20
341.2138324886
 30
0.0
  0
VERTEX
  5
232
  8
0
  6
CONTINUOUS
 62
     7
 10
179.115256866
 20
342.2347463018
 30
0.0
  0
VERTEX
  5
233
  8
0
  6
CONTINUOUS
 62
     7
 10
175.0017091784
 20
342.9533351174
 30
0.0
  0
VERTEX
  5
234
  8
0
  6
CONTINUOUS
 62
     7
 10
170.7497005577
 20
343.1758837119
 30
0.0
  0
SEQEND
  5
46E
  8
0
  6
CONTINUOUS
 62
     7
  0
ARC
  5
A8
  8
0
  6
CONTINUOUS
 62
     7
 10
174.7394303989
 20
321.3088906363
 30
0.0
 40
27.19496756682725
 50
164.6461571286
 51
181.4694090214
  0
POLYLINE
  5
A9
  8
0
  6
CONTINUOUS
 62
     7
 66
     1
 10
0.0
 20
0.0
 30
0.0
 70
   128
  0
VERTEX
  5
235
  8
0
  6
CONTINUOUS
 62
     7
 10
156.0443515533
 20
339.6605696677
 30
0.0
  0
VERTEX
  5
236
  8
0
  6
CONTINUOUS
 62
     7
 10
156.1788368379
 20
339.7619368326
 30
0.0
  0
VERTEX
  5
237
  8
0
  6
CONTINUOUS
 62
     7
 10
159.1322340899
 20
341.2138324886
 30
0.0
  0
VERTEX
  5
238
  8
0
  6
CONTINUOUS
 62
     7
 10
162.3841442494
 20
342.2347463018
 30
0.0
  0
VERTEX
  5
239
  8
0
  6
CONTINUOUS
 62
     7
 10
166.497691937
 20
342.9533351174
 30
0.0
  0
VERTEX
  5
23A
  8
0
  6
CONTINUOUS
 62
     7
 10
170.7497005577
 20
343.1758837119
 30
0.0
  0
SEQEND
  5
46F
  8
0
  6
CONTINUOUS
 62
     7
  0
ARC
  5
AA
  8
0
  6
CONTINUOUS
 62
     7
 10
166.3632192038
 20
320.1097166256
 30
0.0
 40
18.77833037439111
 50
182.4769470696
 51
197.2672484303
  0
LINE
  5
AB
  8
0
  6
CONTINUOUS
 62
     7
 10
147.5534056602
 20
320.6115242561
 30
0.0
 11
147.6024335933
 21
319.2981656864
 31
0.0
  0
LINE
  5
AC
  8
0
  6
CONTINUOUS
 62
     7
 10
193.9459954552
 20
320.6115242561
 30
0.0
 11
193.8969675221
 21
319.2981656864
 31
0.0
  0
ARC
  5
AD
  8
0
  6
CONTINUOUS
 62
     7
 10
175.1092117548
 20
320.1166194533
 30
0.0
 40
18.80557452831458
 50
342.5820129879
 51
357.5055926537
  0
POLYLINE
  5
AE
  8
0
  6
CONTINUOUS
 62
     7
 66
     1
 10
0.0
 20
0.0
 30
0.0
 70
   128
  0
VERTEX
  5
23B
  8
0
  6
CONTINUOUS
 62
     7
 10
170.4805323694
 20
343.1667332474
 30
0.0
  0
VERTEX
  5
23C
  8
0
  6
CONTINUOUS
 62
     7
 10
171.5125805021
 20
343.1554317323
 30
0.0
  0
VERTEX
  5
23D
  8
0
  6
CONTINUOUS
 62
     7
 10
172.7332481012
 20
343.0809317635
 30
0.0
  0
SEQEND
  5
470
  8
0
  6
CONTINUOUS
 62
     7
  0
ARC
  5
AF
  8
0
  6
CONTINUOUS
 62
     7
 10
225.7587508023
 20
356.827390013
 30
0.0
 40
19.99094987607864
 50
359.9937039426
 51
90.0062960574
  0
ARC
  5
B0
  8
0
  6
CONTINUOUS
 62
     7
 10
225.7587508023
 20
246.8092895237
 30
0.0
 40
19.99094987607861
 50
269.9937039426
 51
0.0062960574
  0
ARC
  5
B1
  8
0
  6
CONTINUOUS
 62
     7
 10
115.7406503131
 20
356.827390013
 30
0.0
 40
19.99094987607866
 50
89.9937039426
 51
180.0062960574
  0
ARC
  5
B2
  8
0
  6
CONTINUOUS
 62
     7
 10
115.7406503131
 20
246.8092895237
 30
0.0
 40
19.99094987607864
 50
179.9937039426
 51
270.0062960574
  0
LINE
  5
B3
  8
0
  6
CONTINUOUS
 62
     7
 10
245.7497005577
 20
356.8251932688
 30
0.0
 11
245.7497005577
 21
246.8114862679
 31
0.0
  0
LINE
  5
B4
  8
0
  6
CONTINUOUS
 62
     7
 10
115.7428470572
 20
376.8183397683
 30
0.0
 11
225.7565540582
 21
376.8183397683
 31
0.0
  0
LINE
  5
B5
  8
0
  6
CONTINUOUS
 62
     7
 10
225.7565540582
 20
226.8183397683
 30
0.0
 11
115.7428470572
 21
226.8183397683
 31
0.0
  0
LINE
  5
B6
  8
0
  6
CONTINUOUS
 62
     7
 10
95.7497005577
 20
246.8114862679
 30
0.0
 11
95.7497005577
 21
356.8251932688
 31
0.0
  0
LINE
  5
B7
  8
0
  6
CONTINUOUS
 62
     8
 10
150.3468945926
 20
245.4417491976
 30
0.0
 11
162.1292344727
 21
245.4417491976
 31
0.0
  0
POLYLINE
  5
B8
  8
0
  6
CONTINUOUS
 62
     8
 66
     1
 10
0.0
 20
0.0
 30
0.0
 70
   128
  0
VERTEX
  5
23E
  8
0
  6
CONTINUOUS
 62
     8
 10
162.1292344727
 20
245.4417491976
 30
0.0
  0
VERTEX
  5
23F
  8
0
  6
CONTINUOUS
 62
     8
 10
162.1435792973
 20
239.6393384909
 30
0.0
  0
VERTEX
  5
240
  8
0
  6
CONTINUOUS
 62
     8
 10
162.1361992997
 20
233.8386368123
 30
0.0
  0
SEQEND
  5
471
  8
0
  6
CONTINUOUS
 62
     8
  0
POLYLINE
  5
B9
  8
0
  6
CONTINUOUS
 62
     8
 66
     1
 10
0.0
 20
0.0
 30
0.0
 70
   128
  0
VERTEX
  5
241
  8
0
  6
CONTINUOUS
 62
     8
 10
150.3468945164
 20
245.4417491976
 30
0.0
  0
VERTEX
  5
242
  8
0
  6
CONTINUOUS
 62
     8
 10
150.4255364006
 20
243.024637178
 30
0.0
  0
VERTEX
  5
243
  8
0
  6
CONTINUOUS
 62
     8
 10
150.7363487236
 20
240.6213875127
 30
0.0
  0
VERTEX
  5
244
  8
0
  6
CONTINUOUS
 62
     8
 10
151.5201288173
 20
238.3063970575
 30
0.0
  0
VERTEX
  5
245
  8
0
  6
CONTINUOUS
 62
     8
 10
152.146244938
 20
237.2508765124
 30
0.0
  0
VERTEX
  5
246
  8
0
  6
CONTINUOUS
 62
     8
 10
152.9357231878
 20
236.3152306104
 30
0.0
  0
VERTEX
  5
247
  8
0
  6
CONTINUOUS
 62
     8
 10
153.883038294
 20
235.5352153708
 30
0.0
  0
VERTEX
  5
248
  8
0
  6
CONTINUOUS
 62
     8
 10
154.9498539409
 20
234.919851602
 30
0.0
  0
VERTEX
  5
249
  8
0
  6
CONTINUOUS
 62
     8
 10
157.2793897621
 20
234.1648028272
 30
0.0
  0
VERTEX
  5
24A
  8
0
  6
CONTINUOUS
 62
     8
 10
159.6964358087
 20
233.885802075
 30
0.0
  0
VERTEX
  5
24B
  8
0
  6
CONTINUOUS
 62
     8
 10
162.1304130591
 20
233.8386495514
 30
0.0
  0
SEQEND
  5
472
  8
0
  6
CONTINUOUS
 62
     8
  0
POLYLINE
  5
BA
  8
0
  6
CONTINUOUS
 62
     8
 66
     1
 10
0.0
 20
0.0
 30
0.0
 70
   128
  0
VERTEX
  5
24C
  8
0
  6
CONTINUOUS
 62
     8
 10
179.3701666427
 20
245.4417491976
 30
0.0
  0
VERTEX
  5
24D
  8
0
  6
CONTINUOUS
 62
     8
 10
179.355821818
 20
239.6396786718
 30
0.0
  0
VERTEX
  5
24E
  8
0
  6
CONTINUOUS
 62
     8
 10
179.3632018188
 20
233.8386368806
 30
0.0
  0
SEQEND
  5
473
  8
0
  6
CONTINUOUS
 62
     8
  0
LINE
  5
BB
  8
0
  6
CONTINUOUS
 62
     8
 10
191.1525065228
 20
245.4417491976
 30
0.0
 11
179.3701666427
 21
245.4417491976
 31
0.0
  0
POLYLINE
  5
BC
  8
0
  6
CONTINUOUS
 62
     8
 66
     1
 10
0.0
 20
0.0
 30
0.0
 70
   128
  0
VERTEX
  5
24F
  8
0
  6
CONTINUOUS
 62
     8
 10
191.152506599
 20
245.4417491976
 30
0.0
  0
VERTEX
  5
250
  8
0
  6
CONTINUOUS
 62
     8
 10
191.0738647148
 20
243.024637178
 30
0.0
  0
VERTEX
  5
251
  8
0
  6
CONTINUOUS
 62
     8
 10
190.7630523918
 20
240.6213875127
 30
0.0
  0
VERTEX
  5
252
  8
0
  6
CONTINUOUS
 62
     8
 10
189.9792722981
 20
238.3063970575
 30
0.0
  0
VERTEX
  5
253
  8
0
  6
CONTINUOUS
 62
     8
 10
189.3531561774
 20
237.2508765124
 30
0.0
  0
VERTEX
  5
254
  8
0
  6
CONTINUOUS
 62
     8
 10
188.5636779276
 20
236.3152306104
 30
0.0
  0
VERTEX
  5
255
  8
0
  6
CONTINUOUS
 62
     8
 10
187.6163628214
 20
235.5352153708
 30
0.0
  0
VERTEX
  5
256
  8
0
  6
CONTINUOUS
 62
     8
 10
186.5495471745
 20
234.919851602
 30
0.0
  0
VERTEX
  5
257
  8
0
  6
CONTINUOUS
 62
     8
 10
184.2200113533
 20
234.1648028272
 30
0.0
  0
VERTEX
  5
258
  8
0
  6
CONTINUOUS
 62
     8
 10
181.8029653067
 20
233.885802075
 30
0.0
  0
VERTEX
  5
259
  8
0
  6
CONTINUOUS
 62
     8
 10
179.3689880563
 20
233.8386495514
 30
0.0
  0
SEQEND
  5
474
  8
0
  6
CONTINUOUS
 62
     8
  0
LINE
  5
BD
  8
0
  6
CONTINUOUS
 62
     8
 10
170.7497005577
 20
245.4417491976
 30
0.0
 11
162.1292344727
 21
245.4417491976
 31
0.0
  0
LINE
  5
BE
  8
0
  6
CONTINUOUS
 62
     8
 10
170.7497005577
 20
233.8342542263
 30
0.0
 11
170.7497005577
 21
245.4417491976
 31
0.0
  0
LINE
  5
BF
  8
0
  6
CONTINUOUS
 62
     8
 10
162.136199307
 20
233.8386402673
 30
0.0
 11
170.7497005577
 21
233.8342542263
 31
0.0
  0
LINE
  5
C0
  8
0
  6
CONTINUOUS
 62
     8
 10
170.7497005577
 20
245.4417491976
 30
0.0
 11
179.3701666427
 21
245.4417491976
 31
0.0
  0
LINE
  5
C1
  8
0
  6
CONTINUOUS
 62
     8
 10
179.3632018084
 20
233.8386402673
 30
0.0
 11
170.7497005577
 21
233.8342542263
 31
0.0
  0
LINE
  5
C2
  8
0
  6
CONTINUOUS
 62
     8
 10
170.7497005577
 20
245.4417491976
 30
0.0
 11
170.7497005577
 21
320.6130482868
 31
0.0
  0
LINE
  5
C3
  8
0
  6
CONTINUOUS
 62
     8
 10
170.7497005577
 20
320.6130482868
 30
0.0
 11
191.8074666371
 21
320.6130482868
 31
0.0
  0
LINE
  5
C4
  8
0
  6
CONTINUOUS
 62
     8
 10
191.8072905254
 20
320.6130482868
 30
0.0
 11
191.9331891979
 21
301.8093784621
 31
0.0
  0
POLYLINE
  5
C5
  8
0
  6
CONTINUOUS
 62
     8
 66
     1
 10
0.0
 20
0.0
 30
0.0
 70
   128
  0
VERTEX
  5
25A
  8
0
  6
CONTINUOUS
 62
     8
 10
191.9327161777
 20
301.8112950433
 30
0.0
  0
VERTEX
  5
25B
  8
0
  6
CONTINUOUS
 62
     8
 10
191.5681064967
 20
273.6411616383
 30
0.0
  0
VERTEX
  5
25C
  8
0
  6
CONTINUOUS
 62
     8
 10
191.1529834067
 20
245.4723182072
 30
0.0
  0
SEQEND
  5
475
  8
0
  6
CONTINUOUS
 62
     8
  0
LINE
  5
C6
  8
0
  6
CONTINUOUS
 62
     8
 10
149.69211059
 20
320.6130482868
 30
0.0
 11
149.5662119175
 21
301.8093784621
 31
0.0
  0
LINE
  5
C7
  8
0
  6
CONTINUOUS
 62
     8
 10
170.7497005577
 20
320.6130482868
 30
0.0
 11
149.6919344783
 21
320.6130482868
 31
0.0
  0
POLYLINE
  5
C8
  8
0
  6
CONTINUOUS
 62
     8
 66
     1
 10
0.0
 20
0.0
 30
0.0
 70
   128
  0
VERTEX
  5
25D
  8
0
  6
CONTINUOUS
 62
     8
 10
149.5666849377
 20
301.8112950433
 30
0.0
  0
VERTEX
  5
25E
  8
0
  6
CONTINUOUS
 62
     8
 10
149.9316252021
 20
273.6414838173
 30
0.0
  0
VERTEX
  5
25F
  8
0
  6
CONTINUOUS
 62
     8
 10
150.3464177087
 20
245.4723182072
 30
0.0
  0
SEQEND
  5
476
  8
0
  6
CONTINUOUS
 62
     8
  0
ARC
  5
C9
  8
0
  6
CONTINUOUS
 62
     8
 10
310.3342869418
 20
233.5716773236
 30
0.0
 40
148.203983289301
 50
179.8967880689
 51
180.3465319402
  0
ARC
  5
CA
  8
0
  6
CONTINUOUS
 62
     8
 10
150.4355249374
 20
219.5622114417
 30
0.0
 40
25.8796901504542
 50
90.1962216394
 51
92.78584835
  0
ARC
  5
CB
  8
0
  6
CONTINUOUS
 62
     8
 10
25.3023491385
 20
233.5416082355
 30
0.0
 40
154.06113901109
 50
359.67785943
 51
0.1104671331
  0
ARC
  5
CC
  8
0
  6
CONTINUOUS
 62
     8
 10
191.0636718612
 20
219.5489823371
 30
0.0
 40
25.89291925029859
 50
87.215122816
 51
89.8034263541
  0
POLYLINE
  5
CD
  8
0
  6
CONTINUOUS
 62
     8
 66
     1
 10
0.0
 20
0.0
 30
0.0
 70
   128
  0
VERTEX
  5
260
  8
0
  6
CONTINUOUS
 62
     8
 10
170.7497071214
 20
232.6382706766
 30
0.0
  0
VERTEX
  5
261
  8
0
  6
CONTINUOUS
 62
     8
 10
170.7497058762
 20
232.6529932626
 30
0.0
  0
VERTEX
  5
262
  8
0
  6
CONTINUOUS
 62
     8
 10
170.7497046761
 20
232.7143685952
 30
0.0
  0
VERTEX
  5
263
  8
0
  6
CONTINUOUS
 62
     8
 10
170.7497035647
 20
232.8201721495
 30
0.0
  0
VERTEX
  5
264
  8
0
  6
CONTINUOUS
 62
     8
 10
170.7497025821
 20
232.9665691169
 30
0.0
  0
VERTEX
  5
265
  8
0
  6
CONTINUOUS
 62
     8
 10
170.7497017641
 20
233.1482533968
 30
0.0
  0
VERTEX
  5
266
  8
0
  6
CONTINUOUS
 62
     8
 10
170.7497011403
 20
233.3586399134
 30
0.0
  0
VERTEX
  5
267
  8
0
  6
CONTINUOUS
 62
     8
 10
170.7497007332
 20
233.5901032898
 30
0.0
  0
VERTEX
  5
268
  8
0
  6
CONTINUOUS
 62
     8
 10
170.7497005577
 20
233.8342542263
 30
0.0
  0
SEQEND
  5
477
  8
0
  6
CONTINUOUS
 62
     8
  0
LINE
  5
CE
  8
0
  6
CONTINUOUS
 62
     8
 10
149.1421838297
 20
245.4382965454
 30
0.0
 11
149.140567927
 21
245.4388232131
 31
0.0
  0
ARC
  5
CF
  8
0
  6
CONTINUOUS
 62
     8
 10
150.4335675734
 20
219.7153901488
 30
0.0
 40
25.75684380198771
 50
90.1938570502
 51
92.8747869866
  0
ARC
  5
D0
  8
0
  6
CONTINUOUS
 62
     8
 10
149.3632877115
 20
274.8373009446
 30
0.0
 40
26.9728860784266
 50
89.5679337472
 51
92.0623730262
  0
LINE
  5
D1
  8
0
  6
CONTINUOUS
 62
     8
 10
192.3572172857
 20
245.4382965454
 30
0.0
 11
192.3588331884
 21
245.4388232131
 31
0.0
  0
ARC
  5
D2
  8
0
  6
CONTINUOUS
 62
     8
 10
191.065833542
 20
219.7153901488
 30
0.0
 40
25.75684380198771
 50
87.1252130134
 51
89.8061429498
  0
ARC
  5
D3
  8
0
  6
CONTINUOUS
 62
     8
 10
192.1319980906
 20
279.0900812786
 30
0.0
 40
22.7220876729984
 50
87.4457656085
 51
90.5025136374
  0
LINE
  5
D4
  8
0
  6
CONTINUOUS
 62
     8
 10
170.7497005577
 20
339.4426425643
 30
0.0
 11
170.7497005577
 21
320.6130482868
 31
0.0
  0
POLYLINE
  5
D5
  8
0
  6
CONTINUOUS
 62
     8
 66
     1
 10
0.0
 20
0.0
 30
0.0
 70
   128
  0
VERTEX
  5
269
  8
0
  6
CONTINUOUS
 62
     8
 10
170.7497002015
 20
339.4426425644
 30
0.0
  0
VERTEX
  5
26A
  8
0
  6
CONTINUOUS
 62
     8
 10
162.0105466118
 20
339.364620352
 30
0.0
  0
VERTEX
  5
26B
  8
0
  6
CONTINUOUS
 62
     8
 10
159.8209490809
 20
339.2640234633
 30
0.0
  0
VERTEX
  5
26C
  8
0
  6
CONTINUOUS
 62
     8
 10
157.6446236371
 20
338.9380165449
 30
0.0
  0
VERTEX
  5
26D
  8
0
  6
CONTINUOUS
 62
     8
 10
155.5480467279
 20
338.2387200837
 30
0.0
  0
VERTEX
  5
26E
  8
0
  6
CONTINUOUS
 62
     8
 10
153.6437612983
 20
337.0993913749
 30
0.0
  0
VERTEX
  5
26F
  8
0
  6
CONTINUOUS
 62
     8
 10
152.0695552173
 20
335.5532898942
 30
0.0
  0
VERTEX
  5
270
  8
0
  6
CONTINUOUS
 62
     8
 10
150.9004023433
 20
333.6639676123
 30
0.0
  0
VERTEX
  5
271
  8
0
  6
CONTINUOUS
 62
     8
 10
150.1889164901
 20
331.5634139492
 30
0.0
  0
VERTEX
  5
272
  8
0
  6
CONTINUOUS
 62
     8
 10
149.875685759
 20
329.377698874
 30
0.0
  0
VERTEX
  5
273
  8
0
  6
CONTINUOUS
 62
     8
 10
149.7576547851
 20
324.990252996
 30
0.0
  0
VERTEX
  5
274
  8
0
  6
CONTINUOUS
 62
     8
 10
149.6917583665
 20
320.6130482868
 30
0.0
  0
SEQEND
  5
478
  8
0
  6
CONTINUOUS
 62
     8
  0
POLYLINE
  5
D6
  8
0
  6
CONTINUOUS
 62
     8
 66
     1
 10
0.0
 20
0.0
 30
0.0
 70
   128
  0
VERTEX
  5
275
  8
0
  6
CONTINUOUS
 62
     8
 10
170.7497009139
 20
339.4426425644
 30
0.0
  0
VERTEX
  5
276
  8
0
  6
CONTINUOUS
 62
     8
 10
179.4888545036
 20
339.364620352
 30
0.0
  0
VERTEX
  5
277
  8
0
  6
CONTINUOUS
 62
     8
 10
181.6784520345
 20
339.2640234633
 30
0.0
  0
VERTEX
  5
278
  8
0
  6
CONTINUOUS
 62
     8
 10
183.8547774783
 20
338.9380165449
 30
0.0
  0
VERTEX
  5
279
  8
0
  6
CONTINUOUS
 62
     8
 10
185.9513543875
 20
338.2387200837
 30
0.0
  0
VERTEX
  5
27A
  8
0
  6
CONTINUOUS
 62
     8
 10
187.8556398171
 20
337.0993913749
 30
0.0
  0
VERTEX
  5
27B
  8
0
  6
CONTINUOUS
 62
     8
 10
189.4298458981
 20
335.5532898942
 30
0.0
  0
VERTEX
  5
27C
  8
0
  6
CONTINUOUS
 62
     8
 10
190.5989987721
 20
333.6639676123
 30
0.0
  0
VERTEX
  5
27D
  8
0
  6
CONTINUOUS
 62
     8
 10
191.3104846253
 20
331.5634139492
 30
0.0
  0
VERTEX
  5
27E
  8
0
  6
CONTINUOUS
 62
     8
 10
191.6237153564
 20
329.377698874
 30
0.0
  0
VERTEX
  5
27F
  8
0
  6
CONTINUOUS
 62
     8
 10
191.7417463303
 20
324.990252996
 30
0.0
  0
VERTEX
  5
280
  8
0
  6
CONTINUOUS
 62
     8
 10
191.8076427489
 20
320.6130482868
 30
0.0
  0
SEQEND
  5
479
  8
0
  6
CONTINUOUS
 62
     8
  0
POLYLINE
  5
D7
  8
0
  6
CONTINUOUS
 62
     8
 66
     1
 10
0.0
 20
0.0
 30
0.0
 70
   128
  0
VERTEX
  5
281
  8
0
  6
CONTINUOUS
 62
     8
 10
147.9666516731
 20
320.6122024975
 30
0.0
  0
VERTEX
  5
282
  8
0
  6
CONTINUOUS
 62
     8
 10
148.3510414442
 20
316.3507662627
 30
0.0
  0
VERTEX
  5
283
  8
0
  6
CONTINUOUS
 62
     8
 10
148.5022235915
 20
315.795105763
 30
0.0
  0
SEQEND
  5
47A
  8
0
  6
CONTINUOUS
 62
     8
  0
LINE
  5
D8
  8
0
  6
CONTINUOUS
 62
     8
 10
147.9666516731
 20
320.6122024975
 30
0.0
 11
148.4308172415
 21
320.6129643109
 31
0.0
  0
LINE
  5
D9
  8
0
  6
CONTINUOUS
 62
     8
 10
148.3956069271
 20
311.8482914592
 30
0.0
 11
148.4310009384
 21
320.6130145163
 31
0.0
  0
LINE
  5
DA
  8
0
  6
CONTINUOUS
 62
     8
 10
193.1037941883
 20
311.8482914592
 30
0.0
 11
193.068400177
 21
320.6130145163
 31
0.0
  0
LINE
  5
DB
  8
0
  6
CONTINUOUS
 62
     8
 10
193.5327494423
 20
320.6122024975
 30
0.0
 11
193.0685838739
 21
320.6129643109
 31
0.0
  0
POLYLINE
  5
DC
  8
0
  6
CONTINUOUS
 62
     8
 66
     1
 10
0.0
 20
0.0
 30
0.0
 70
   128
  0
VERTEX
  5
284
  8
0
  6
CONTINUOUS
 62
     8
 10
193.5327494423
 20
320.6122024975
 30
0.0
  0
VERTEX
  5
285
  8
0
  6
CONTINUOUS
 62
     8
 10
193.1483596712
 20
316.3507662627
 30
0.0
  0
VERTEX
  5
286
  8
0
  6
CONTINUOUS
 62
     8
 10
193.0794154538
 20
316.097366116
 30
0.0
  0
SEQEND
  5
47B
  8
0
  6
CONTINUOUS
 62
     8
  0
ARC
  5
DD
  8
0
  6
CONTINUOUS
 62
     8
 10
149.0166636158
 20
292.2457526039
 30
0.0
 40
28.37551710016166
 50
88.6367159644
 51
91.1829687838
  0
ARC
  5
DE
  8
0
  6
CONTINUOUS
 62
     8
 10
192.4227877144
 20
291.8889843504
 30
0.0
 40
28.73128476808144
 50
88.7124145929
 51
91.2275297763
  0
ARC
  5
DF
  8
0
  6
CONTINUOUS
 62
     8
 10
413.5053655314
 20
318.4327424434
 30
0.0
 40
265.0835068053296
 50
177.6150893855
 51
179.5283094245
  0
ARC
  5
E0
  8
0
  6
CONTINUOUS
 62
     8
 10
166.9319513875
 20
279.0360409451
 30
0.0
 40
61.82434937820402
 50
86.4596445401
 51
98.2454708706
  0
POLYLINE
  5
E1
  8
0
  6
CONTINUOUS
 62
     8
 66
     1
 10
0.0
 20
0.0
 30
0.0
 70
   128
  0
VERTEX
  5
287
  8
0
  6
CONTINUOUS
 62
     8
 10
170.7497005577
 20
340.7424017786
 30
0.0
  0
VERTEX
  5
288
  8
0
  6
CONTINUOUS
 62
     8
 10
170.7497005379
 20
340.6875210199
 30
0.0
  0
VERTEX
  5
289
  8
0
  6
CONTINUOUS
 62
     8
 10
170.749700509
 20
340.5946460979
 30
0.0
  0
VERTEX
  5
28A
  8
0
  6
CONTINUOUS
 62
     8
 10
170.7497004717
 20
340.466304244
 30
0.0
  0
VERTEX
  5
28B
  8
0
  6
CONTINUOUS
 62
     8
 10
170.749700427
 20
340.305987785
 30
0.0
  0
VERTEX
  5
28C
  8
0
  6
CONTINUOUS
 62
     8
 10
170.7497003762
 20
340.1180591128
 30
0.0
  0
VERTEX
  5
28D
  8
0
  6
CONTINUOUS
 62
     8
 10
170.7497003207
 20
339.9076319789
 30
0.0
  0
VERTEX
  5
28E
  8
0
  6
CONTINUOUS
 62
     8
 10
170.7497002619
 20
339.6804323432
 30
0.0
  0
VERTEX
  5
28F
  8
0
  6
CONTINUOUS
 62
     8
 10
170.7497002015
 20
339.4426425644
 30
0.0
  0
SEQEND
  5
47C
  8
0
  6
CONTINUOUS
 62
     8
  0
ARC
  5
E2
  8
0
  6
CONTINUOUS
 62
     8
 10
-72.0059644158
 20
318.4327424434
 30
0.0
 40
265.0835068051574
 50
0.4716905755
 51
2.3849106145
  0
ARC
  5
E3
  8
0
  6
CONTINUOUS
 62
     8
 10
174.5674497279
 20
279.0360409451
 30
0.0
 40
61.82434937820323
 50
81.7545291294
 51
93.5403554599
  0
LINE
  5
E4
  8
0
  6
CONTINUOUS
 62
     8
 10
193.5327513328
 20
320.6122024944
 30
0.0
 11
193.9459954552
 21
320.611524256
 31
0.0
  0
LINE
  5
E5
  8
0
  6
CONTINUOUS
 62
     8
 10
170.7497005577
 20
340.7424017786
 30
0.0
 11
170.7497005577
 21
343.1758837119
 31
0.0
  0
LINE
  5
E6
  8
0
  6
CONTINUOUS
 62
     8
 10
147.9666497826
 20
320.6122024944
 30
0.0
 11
147.5534056602
 21
320.611524256
 31
0.0
  0
ARC
  5
E7
  8
0
  6
CONTINUOUS
 62
     8
 10
225.4398963823
 20
247.1281439437
 30
0.0
 40
18.49237039789136
 50
269.9837739928
 51
0.0162260072
  0
POLYLINE
  5
E8
  8
0
  6
CONTINUOUS
 62
     8
 66
     1
 10
0.0
 20
0.0
 30
0.0
 70
   128
  0
VERTEX
  5
290
  8
0
  6
CONTINUOUS
 62
     8
 10
116.0647417214
 20
228.6357742874
 30
0.0
  0
VERTEX
  5
291
  8
0
  6
CONTINUOUS
 62
     8
 10
134.0717809015
 20
228.6388461833
 30
0.0
  0
VERTEX
  5
292
  8
0
  6
CONTINUOUS
 62
     8
 10
179.7524458465
 20
228.6412078243
 30
0.0
  0
VERTEX
  5
293
  8
0
  6
CONTINUOUS
 62
     8
 10
225.434659394
 20
228.6357742874
 30
0.0
  0
SEQEND
  5
47D
  8
0
  6
CONTINUOUS
 62
     8
  0
ARC
  5
E9
  8
0
  6
CONTINUOUS
 62
     8
 10
116.0595047331
 20
247.1281439437
 30
0.0
 40
18.49237039789136
 50
179.9837739928
 51
270.0162260072
  0
POLYLINE
  5
EA
  8
0
  6
CONTINUOUS
 62
     8
 66
     1
 10
0.0
 20
0.0
 30
0.0
 70
   128
  0
VERTEX
  5
294
  8
0
  6
CONTINUOUS
 62
     8
 10
97.5671350767
 20
356.5032986046
 30
0.0
  0
VERTEX
  5
295
  8
0
  6
CONTINUOUS
 62
     8
 10
97.5702069727
 20
338.4962594245
 30
0.0
  0
VERTEX
  5
296
  8
0
  6
CONTINUOUS
 62
     8
 10
97.5725686137
 20
292.8155944795
 30
0.0
  0
VERTEX
  5
297
  8
0
  6
CONTINUOUS
 62
     8
 10
97.5671350767
 20
247.1333809321
 30
0.0
  0
SEQEND
  5
47E
  8
0
  6
CONTINUOUS
 62
     8
  0
ARC
  5
EB
  8
0
  6
CONTINUOUS
 62
     8
 10
116.0595047331
 20
356.508535593
 30
0.0
 40
18.49237039789127
 50
89.9837739928
 51
180.0162260072
  0
POLYLINE
  5
EC
  8
0
  6
CONTINUOUS
 62
     8
 66
     1
 10
0.0
 20
0.0
 30
0.0
 70
   128
  0
VERTEX
  5
298
  8
0
  6
CONTINUOUS
 62
     8
 10
225.434659394
 20
375.0009052493
 30
0.0
  0
VERTEX
  5
299
  8
0
  6
CONTINUOUS
 62
     8
 10
207.4276202139
 20
374.9978333534
 30
0.0
  0
VERTEX
  5
29A
  8
0
  6
CONTINUOUS
 62
     8
 10
161.7469552689
 20
374.9954717124
 30
0.0
  0
VERTEX
  5
29B
  8
0
  6
CONTINUOUS
 62
     8
 10
116.0647417214
 20
375.0009052493
 30
0.0
  0
SEQEND
  5
47F
  8
0
  6
CONTINUOUS
 62
     8
  0
ARC
  5
ED
  8
0
  6
CONTINUOUS
 62
     8
 10
225.4398963823
 20
356.508535593
 30
0.0
 40
18.49237039789136
 50
359.9837739928
 51
90.0162260072
  0
POLYLINE
  5
EE
  8
0
  6
CONTINUOUS
 62
     8
 66
     1
 10
0.0
 20
0.0
 30
0.0
 70
   128
  0
VERTEX
  5
29C
  8
0
  6
CONTINUOUS
 62
     8
 10
243.9322660387
 20
247.1333809321
 30
0.0
  0
VERTEX
  5
29D
  8
0
  6
CONTINUOUS
 62
     8
 10
243.9291941427
 20
265.1404201122
 30
0.0
  0
VERTEX
  5
29E
  8
0
  6
CONTINUOUS
 62
     8
 10
243.9268325017
 20
310.8210850571
 30
0.0
  0
VERTEX
  5
29F
  8
0
  6
CONTINUOUS
 62
     8
 10
243.9322660387
 20
356.5032986046
 30
0.0
  0
SEQEND
  5
480
  8
0
  6
CONTINUOUS
 62
     8
  0
ARC
  5
EF
  8
0
  6
CONTINUOUS
 62
     8
 10
244.2772224698
 20
297.6334811548
 30
0.0
 40
50.50127837434061
 50
269.6086296832
 51
271.292258202
  0
ARC
  5
F0
  8
0
  6
CONTINUOUS
 62
     8
 10
225.4269212269
 20
247.1411190991
 30
0.0
 40
19.98921899710798
 50
269.9887413598
 51
0.0112586402
  0
ARC
  5
F1
  8
0
  6
CONTINUOUS
 62
     8
 10
174.9345591713
 20
228.2908178562
 30
0.0
 40
50.50127837424547
 50
358.707741798
 51
0.3913703168
  0
ARC
  5
F2
  8
0
  6
CONTINUOUS
 62
     8
 10
166.5648419442
 20
228.2908178562
 30
0.0
 40
50.50127837442636
 50
179.6086296832
 51
181.292258202
  0
ARC
  5
F3
  8
0
  6
CONTINUOUS
 62
     8
 10
116.0724798885
 20
247.1411190991
 30
0.0
 40
19.98921899710784
 50
179.9887413598
 51
270.0112586402
  0
ARC
  5
F4
  8
0
  6
CONTINUOUS
 62
     8
 10
97.2221786456
 20
297.633481155
 30
0.0
 40
50.50127837456566
 50
268.707741798
 51
270.3913703168
  0
ARC
  5
F5
  8
0
  6
CONTINUOUS
 62
     8
 10
174.9345591714
 20
375.3458616805
 30
0.0
 40
50.50127837419619
 50
359.6086296832
 51
1.292258202
  0
ARC
  5
F6
  8
0
  6
CONTINUOUS
 62
     8
 10
225.4269212269
 20
356.4955604376
 30
0.0
 40
19.98921899710795
 50
359.9887413598
 51
90.0112586402
  0
ARC
  5
F7
  8
0
  6
CONTINUOUS
 62
     8
 10
244.2772224698
 20
306.0031983822
 30
0.0
 40
50.50127837404982
 50
88.707741798
 51
90.3913703168
  0
ARC
  5
F8
  8
0
  6
CONTINUOUS
 62
     8
 10
116.0724798885
 20
356.4955604376
 30
0.0
 40
19.98921899710784
 50
89.9887413598
 51
180.0112586402
  0
ARC
  5
F9
  8
0
  6
CONTINUOUS
 62
     8
 10
166.5648419442
 20
375.3458616805
 30
0.0
 40
50.50127837440578
 50
178.707741798
 51
180.3913703168
  0
ARC
  5
FA
  8
0
  6
CONTINUOUS
 62
     8
 10
97.2221786456
 20
306.0031983821
 30
0.0
 40
50.50127837409336
 50
89.6086296832
 51
91.292258202
  0
POLYLINE
  5
FB
  8
0
  6
CONTINUOUS
 62
     8
 66
     1
 10
0.0
 20
0.0
 30
0.0
 70
   128
  0
VERTEX
  5
2A0
  8
0
  6
CONTINUOUS
 62
     8
 10
96.0832612773
 20
247.1450469874
 30
0.0
  0
VERTEX
  5
2A1
  8
0
  6
CONTINUOUS
 62
     8
 10
96.0886769052
 20
292.8155881568
 30
0.0
  0
VERTEX
  5
2A2
  8
0
  6
CONTINUOUS
 62
     8
 10
96.0863244182
 20
338.4884389077
 30
0.0
  0
VERTEX
  5
2A3
  8
0
  6
CONTINUOUS
 62
     8
 10
96.0832612773
 20
356.4916325492
 30
0.0
  0
SEQEND
  5
481
  8
0
  6
CONTINUOUS
 62
     8
  0
POLYLINE
  5
FC
  8
0
  6
CONTINUOUS
 62
     8
 66
     1
 10
0.0
 20
0.0
 30
0.0
 70
   128
  0
VERTEX
  5
2A4
  8
0
  6
CONTINUOUS
 62
     8
 10
225.4229933386
 20
227.1519004879
 30
0.0
  0
VERTEX
  5
2A5
  8
0
  6
CONTINUOUS
 62
     8
 10
179.7524521692
 20
227.1573161158
 30
0.0
  0
VERTEX
  5
2A6
  8
0
  6
CONTINUOUS
 62
     8
 10
134.0796014183
 20
227.1549636288
 30
0.0
  0
VERTEX
  5
2A7
  8
0
  6
CONTINUOUS
 62
     8
 10
116.0764077768
 20
227.1519004879
 30
0.0
  0
SEQEND
  5
482
  8
0
  6
CONTINUOUS
 62
     8
  0
POLYLINE
  5
FD
  8
0
  6
CONTINUOUS
 62
     8
 66
     1
 10
0.0
 20
0.0
 30
0.0
 70
   128
  0
VERTEX
  5
2A8
  8
0
  6
CONTINUOUS
 62
     8
 10
245.4161398381
 20
356.4916325492
 30
0.0
  0
VERTEX
  5
2A9
  8
0
  6
CONTINUOUS
 62
     8
 10
245.4107242102
 20
310.8210913799
 30
0.0
  0
VERTEX
  5
2AA
  8
0
  6
CONTINUOUS
 62
     8
 10
245.4130766973
 20
265.148240629
 30
0.0
  0
VERTEX
  5
2AB
  8
0
  6
CONTINUOUS
 62
     8
 10
245.4161398381
 20
247.1450469874
 30
0.0
  0
SEQEND
  5
483
  8
0
  6
CONTINUOUS
 62
     8
  0
POLYLINE
  5
FE
  8
0
  6
CONTINUOUS
 62
     8
 66
     1
 10
0.0
 20
0.0
 30
0.0
 70
   128
  0
VERTEX
  5
2AC
  8
0
  6
CONTINUOUS
 62
     8
 10
116.0764077768
 20
376.4847790488
 30
0.0
  0
VERTEX
  5
2AD
  8
0
  6
CONTINUOUS
 62
     8
 10
161.7469489462
 20
376.4793634208
 30
0.0
  0
VERTEX
  5
2AE
  8
0
  6
CONTINUOUS
 62
     8
 10
207.4197996971
 20
376.4817159079
 30
0.0
  0
VERTEX
  5
2AF
  8
0
  6
CONTINUOUS
 62
     8
 10
225.4229933386
 20
376.4847790488
 30
0.0
  0
SEQEND
  5
484
  8
0
  6
CONTINUOUS
 62
     8
  0
LINE
  5
FF
  8
0
  6
CONTINUOUS
 62
     8
 10
245.7497005577
 20
356.8251932688
 30
0.0
 11
245.4161398381
 21
356.4916325492
 31
0.0
  0
LINE
  5
100
  8
0
  6
CONTINUOUS
 62
     8
 10
225.4229933386
 20
376.4847790488
 30
0.0
 11
225.7565540582
 21
376.8183397683
 31
0.0
  0
LINE
  5
101
  8
0
  6
CONTINUOUS
 62
     8
 10
225.7565540582
 20
226.8183397683
 30
0.0
 11
225.4229933386
 21
227.1519004879
 31
0.0
  0
LINE
  5
102
  8
0
  6
CONTINUOUS
 62
     8
 10
245.4161398381
 20
247.1450469874
 30
0.0
 11
245.7497005577
 21
246.8114862679
 31
0.0
  0
LINE
  5
103
  8
0
  6
CONTINUOUS
 62
     8
 10
115.7428470572
 20
376.8183397683
 30
0.0
 11
116.0764077768
 21
376.4847790488
 31
0.0
  0
LINE
  5
104
  8
0
  6
CONTINUOUS
 62
     8
 10
96.0832612773
 20
356.4916325492
 30
0.0
 11
95.7497005577
 21
356.8251932688
 31
0.0
  0
LINE
  5
105
  8
0
  6
CONTINUOUS
 62
     8
 10
95.7497005577
 20
246.8114862679
 30
0.0
 11
96.0832612773
 21
247.1450469874
 31
0.0
  0
LINE
  5
106
  8
0
  6
CONTINUOUS
 62
     8
 10
116.0764077768
 20
227.1519004879
 30
0.0
 11
115.7428470572
 21
226.8183397683
 31
0.0
  0
ARC
  5
107
  8
0
  6
CONTINUOUS
 62
     7
 10
-6672.8120777129
 20
301.4117684315
 30
0.0
 40
6999.999999999999
 50
359.4043482097
 51
359.9731899452
  0
ARC
  5
108
  8
0
  6
CONTINUOUS
 62
     7
 10
-6672.8120777129
 20
302.2249111052
 30
0.0
 40
6999.999999999999
 50
0.3345605236
 51
0.5956512281
  0
ARC
  5
109
  8
0
  6
CONTINUOUS
 62
     7
 10
325.3097408034
 20
228.6569529425
 30
0.0
 40
1.500000000000016
 50
271.501892954
 51
359.2000304693
  0
ARC
  5
10A
  8
0
  6
CONTINUOUS
 62
     7
 10
325.3097408055
 20
374.9797265942
 30
0.0
 40
1.500000000000046
 50
0.7173952589
 51
88.4460478199
  0
ARC
  5
10B
  8
0
  6
CONTINUOUS
 62
     7
 10
321.5941539195
 20
-60.5061015204
 30
0.0
 40
405.7324464538852
 50
81.4597436829
 51
83.886542986
  0
LINE
  5
10C
  8
0
  6
CONTINUOUS
 62
     7
 10
327.1869599096
 20
298.0683397683
 30
0.0
 11
347.2636518732
 21
298.0683397683
 31
0.0
  0
LINE
  5
10D
  8
0
  6
CONTINUOUS
 62
     7
 10
347.2636518732
 20
343.1683397683
 30
0.0
 11
327.0683653415
 21
343.1683397683
 31
0.0
  0
ARC
  5
10E
  8
0
  6
CONTINUOUS
 62
     7
 10
347.2636518732
 20
298.7683397683
 30
0.0
 40
0.7000000000000455
 50
270.0
 51
319.0
  0
ARC
  5
10F
  8
0
  6
CONTINUOUS
 62
     7
 10
347.2636518732
 20
342.4683397683
 30
0.0
 40
0.700000000000062
 50
41.0
 51
90.0
  0
ARC
  5
110
  8
0
  6
CONTINUOUS
 62
     7
 10
347.3042425755
 20
320.6053284058
 30
0.0
 40
22.00000000000002
 50
272.7443153111
 51
280.6859343127
  0
ARC
  5
111
  8
0
  6
CONTINUOUS
 62
     7
 10
347.3042425755
 20
320.6313511308
 30
0.0
 40
21.99999999999997
 50
54.1613689245
 51
87.2556846889
  0
LINE
  5
112
  8
0
  6
CONTINUOUS
 62
     7
 10
347.7919485794
 20
298.309098448
 30
0.0
 11
347.8627997596
 21
298.3906034074
 31
0.0
  0
LINE
  5
113
  8
0
  6
CONTINUOUS
 62
     7
 10
347.8627997596
 20
342.8460761292
 30
0.0
 11
347.7919485794
 21
342.9275810886
 31
0.0
  0
ARC
  5
114
  8
0
  6
CONTINUOUS
 62
     7
 10
348.3910964658
 20
297.9313620872
 30
0.0
 40
0.700000000000062
 50
92.7443153111
 51
139.0
  0
ARC
  5
115
  8
0
  6
CONTINUOUS
 62
     7
 10
348.3910964658
 20
343.3053174495
 30
0.0
 40
0.7000000000000247
 50
221.0
 51
267.2556846889
  0
POLYLINE
  5
116
  8
0
  6
CONTINUOUS
 62
     7
 66
     1
 10
0.0
 20
0.0
 30
0.0
 70
   128
  0
VERTEX
  5
2B0
  8
0
  6
CONTINUOUS
 62
     7
 10
382.9278344355
 20
232.6384188216
 30
0.0
  0
VERTEX
  5
2B1
  8
0
  6
CONTINUOUS
 62
     7
 10
382.9901863145
 20
232.6376296076
 30
0.0
  0
VERTEX
  5
2B2
  8
0
  6
CONTINUOUS
 62
     7
 10
383.0536467072
 20
232.6398992051
 30
0.0
  0
SEQEND
  5
485
  8
0
  6
CONTINUOUS
 62
     7
  0
ARC
  5
117
  8
0
  6
CONTINUOUS
 62
     7
 10
383.0270910036
 20
236.3405408625
 30
0.0
 40
3.634648122738693
 50
183.3352146951
 51
269.2577119788
  0
LINE
  5
118
  8
0
  6
CONTINUOUS
 62
     7
 10
383.7241608889
 20
320.6130482868
 30
0.0
 11
383.7241609817
 21
320.6130482868
 31
0.0
  0
ARC
  5
119
  8
0
  6
CONTINUOUS
 62
     7
 10
278.0280172817
 20
328.7639061319
 30
0.0
 40
105.5045136854448
 50
2.3169799623
 51
5.9125615983
  0
POLYLINE
  5
11A
  8
0
  6
CONTINUOUS
 62
     7
 66
     1
 10
0.0
 20
0.0
 30
0.0
 70
   128
  0
VERTEX
  5
2B3
  8
0
  6
CONTINUOUS
 62
     7
 10
383.7234407111
 20
320.6817538382
 30
0.0
  0
VERTEX
  5
2B4
  8
0
  6
CONTINUOUS
 62
     7
 10
383.721690407
 20
320.8481521104
 30
0.0
  0
VERTEX
  5
2B5
  8
0
  6
CONTINUOUS
 62
     7
 10
383.7110633646
 20
321.8299156144
 30
0.0
  0
VERTEX
  5
2B6
  8
0
  6
CONTINUOUS
 62
     7
 10
383.6927093789
 20
323.4162006934
 30
0.0
  0
VERTEX
  5
2B7
  8
0
  6
CONTINUOUS
 62
     7
 10
383.6652566727
 20
325.4495820785
 30
0.0
  0
VERTEX
  5
2B8
  8
0
  6
CONTINUOUS
 62
     7
 10
383.6410096312
 20
326.8068219154
 30
0.0
  0
SEQEND
  5
486
  8
0
  6
CONTINUOUS
 62
     7
  0
LINE
  5
11B
  8
0
  6
CONTINUOUS
 62
     7
 10
367.4775826459
 20
297.3274892678
 30
0.0
 11
370.6271515933
 21
297.3274892678
 31
0.0
  0
LINE
  5
11C
  8
0
  6
CONTINUOUS
 62
     7
 10
351.3836010601
 20
297.3274892678
 30
0.0
 11
359.520218717
 21
297.3274892678
 31
0.0
  0
POLYLINE
  5
11D
  8
0
  6
CONTINUOUS
 62
     7
 66
     1
 10
0.0
 20
0.0
 30
0.0
 70
   128
  0
VERTEX
  5
2B9
  8
0
  6
CONTINUOUS
 62
     7
 10
370.6271515933
 20
297.3276182689
 30
0.0
  0
VERTEX
  5
2BA
  8
0
  6
CONTINUOUS
 62
     7
 10
372.1453863523
 20
297.2961200777
 30
0.0
  0
VERTEX
  5
2BB
  8
0
  6
CONTINUOUS
 62
     7
 10
373.5359736691
 20
297.0945234767
 30
0.0
  0
VERTEX
  5
2BC
  8
0
  6
CONTINUOUS
 62
     7
 10
374.762293122
 20
296.6113026191
 30
0.0
  0
VERTEX
  5
2BD
  8
0
  6
CONTINUOUS
 62
     7
 10
375.790031548
 20
295.860196146
 30
0.0
  0
VERTEX
  5
2BE
  8
0
  6
CONTINUOUS
 62
     7
 10
376.5952477046
 20
294.9035649352
 30
0.0
  0
VERTEX
  5
2BF
  8
0
  6
CONTINUOUS
 62
     7
 10
377.1695314946
 20
293.797221889
 30
0.0
  0
VERTEX
  5
2C0
  8
0
  6
CONTINUOUS
 62
     7
 10
377.5174199808
 20
292.59055917
 30
0.0
  0
VERTEX
  5
2C1
  8
0
  6
CONTINUOUS
 62
     7
 10
377.6539164717
 20
291.3271121822
 30
0.0
  0
SEQEND
  5
487
  8
0
  6
CONTINUOUS
 62
     7
  0
ARC
  5
11E
  8
0
  6
CONTINUOUS
 62
     7
 10
382.7874001908
 20
235.6317353696
 30
0.0
 40
2.978630082594727
 50
221.9871176093
 51
271.1776619632
  0
ARC
  5
11F
  8
0
  6
CONTINUOUS
 62
     7
 10
261.518690299
 20
242.0121560856
 30
0.0
 40
123.0298795775468
 50
356.1561966867
 51
1.2573901308
  0
POLYLINE
  5
120
  8
0
  6
CONTINUOUS
 62
     7
 66
     1
 10
0.0
 20
0.0
 30
0.0
 70
   128
  0
VERTEX
  5
2C2
  8
0
  6
CONTINUOUS
 62
     7
 10
383.1597942407
 20
232.6506855526
 30
0.0
  0
VERTEX
  5
2C3
  8
0
  6
CONTINUOUS
 62
     7
 10
383.2663251074
 20
232.6699938337
 30
0.0
  0
VERTEX
  5
2C4
  8
0
  6
CONTINUOUS
 62
     7
 10
383.3530431049
 20
232.7016064066
 30
0.0
  0
SEQEND
  5
488
  8
0
  6
CONTINUOUS
 62
     7
  0
LINE
  5
121
  8
0
  6
CONTINUOUS
 62
     7
 10
384.2478154208
 20
233.7575365376
 30
0.0
 11
384.2775359093
 21
233.8343194197
 31
0.0
  0
LINE
  5
122
  8
0
  6
CONTINUOUS
 62
     7
 10
359.5167053217
 20
297.3269047266
 30
0.0
 11
359.7168428281
 21
296.7770314469
 31
0.0
  0
LINE
  5
123
  8
0
  6
CONTINUOUS
 62
     7
 10
367.2796800943
 20
296.7770314469
 30
0.0
 11
367.4798918803
 21
297.3271088081
 31
0.0
  0
ARC
  5
124
  8
0
  6
CONTINUOUS
 62
     7
 10
367.0917415701
 20
296.8454354756
 30
0.0
 40
0.2000000000000455
 50
270.0
 51
340.0
  0
ARC
  5
125
  8
0
  6
CONTINUOUS
 62
     7
 10
359.9047813523
 20
296.8454354756
 30
0.0
 40
0.2000000000000455
 50
200.0
 51
270.0
  0
LINE
  5
126
  8
0
  6
CONTINUOUS
 62
     7
 10
359.9047813523
 20
296.6454354756
 30
0.0
 11
367.0917415701
 21
296.6454354756
 31
0.0
  0
LINE
  5
127
  8
0
  6
CONTINUOUS
 62
     7
 10
312.3982614612
 20
226.8183397683
 30
0.0
 11
312.3982614612
 21
246.8114862679
 31
0.0
  0
LINE
  5
128
  8
0
  6
CONTINUOUS
 62
     7
 10
325.1364314243
 20
227.1519004879
 30
0.0
 11
312.3982614612
 21
226.8183397683
 31
0.0
  0
LINE
  5
129
  8
0
  6
CONTINUOUS
 62
     7
 10
312.3982614612
 20
356.8251932688
 30
0.0
 11
312.3982614612
 21
376.8183397683
 31
0.0
  0
LINE
  5
12A
  8
0
  6
CONTINUOUS
 62
     7
 10
312.3982614612
 20
376.8183397683
 30
0.0
 11
325.1364314243
 21
376.4847790488
 31
0.0
  0
POLYLINE
  5
12B
  8
0
  6
CONTINUOUS
 62
     7
 66
     1
 10
0.0
 20
0.0
 30
0.0
 70
   128
  0
VERTEX
  5
2C5
  8
0
  6
CONTINUOUS
 62
     7
 10
326.5970393841
 20
247.1333809321
 30
0.0
  0
VERTEX
  5
2C6
  8
0
  6
CONTINUOUS
 62
     7
 10
326.5820778002
 20
245.0982452788
 30
0.0
  0
VERTEX
  5
2C7
  8
0
  6
CONTINUOUS
 62
     7
 10
326.5688932485
 20
243.0630491117
 30
0.0
  0
VERTEX
  5
2C8
  8
0
  6
CONTINUOUS
 62
     7
 10
326.5532726151
 20
240.1347258324
 30
0.0
  0
VERTEX
  5
2C9
  8
0
  6
CONTINUOUS
 62
     7
 10
326.5425968312
 20
237.3232306474
 30
0.0
  0
VERTEX
  5
2CA
  8
0
  6
CONTINUOUS
 62
     7
 10
326.5377635984
 20
234.8638679992
 30
0.0
  0
VERTEX
  5
2CB
  8
0
  6
CONTINUOUS
 62
     7
 10
326.5386391568
 20
232.6867143001
 30
0.0
  0
VERTEX
  5
2CC
  8
0
  6
CONTINUOUS
 62
     7
 10
326.5451555142
 20
230.9736920239
 30
0.0
  0
VERTEX
  5
2CD
  8
0
  6
CONTINUOUS
 62
     7
 10
326.5574999649
 20
229.676869627
 30
0.0
  0
VERTEX
  5
2CE
  8
0
  6
CONTINUOUS
 62
     7
 10
326.5746315004
 20
228.9050820134
 30
0.0
  0
VERTEX
  5
2CF
  8
0
  6
CONTINUOUS
 62
     7
 10
326.591354291
 20
228.7041002168
 30
0.0
  0
SEQEND
  5
489
  8
0
  6
CONTINUOUS
 62
     7
  0
POLYLINE
  5
12C
  8
0
  6
CONTINUOUS
 62
     7
 66
     1
 10
0.0
 20
0.0
 30
0.0
 70
   128
  0
VERTEX
  5
2D0
  8
0
  6
CONTINUOUS
 62
     7
 10
326.5902933692
 20
374.9500016727
 30
0.0
  0
VERTEX
  5
2D1
  8
0
  6
CONTINUOUS
 62
     7
 10
326.5819938241
 20
374.8873755842
 30
0.0
  0
VERTEX
  5
2D2
  8
0
  6
CONTINUOUS
 62
     7
 10
326.5688932485
 20
374.5486712459
 30
0.0
  0
VERTEX
  5
2D3
  8
0
  6
CONTINUOUS
 62
     7
 10
326.5531019086
 20
373.6094156577
 30
0.0
  0
VERTEX
  5
2D4
  8
0
  6
CONTINUOUS
 62
     7
 10
326.5425968312
 20
372.1886019332
 30
0.0
  0
VERTEX
  5
2D5
  8
0
  6
CONTINUOUS
 62
     7
 10
326.5377550477
 20
370.3192910205
 30
0.0
  0
VERTEX
  5
2D6
  8
0
  6
CONTINUOUS
 62
     7
 10
326.5386391568
 20
368.0606993199
 30
0.0
  0
VERTEX
  5
2D7
  8
0
  6
CONTINUOUS
 62
     7
 10
326.5453106852
 20
365.4701896472
 30
0.0
  0
VERTEX
  5
2D8
  8
0
  6
CONTINUOUS
 62
     7
 10
326.5574999649
 20
362.6268812066
 30
0.0
  0
VERTEX
  5
2D9
  8
0
  6
CONTINUOUS
 62
     7
 10
326.5749321875
 20
359.6087671778
 30
0.0
  0
VERTEX
  5
2DA
  8
0
  6
CONTINUOUS
 62
     7
 10
326.597039384
 20
356.5032986046
 30
0.0
  0
SEQEND
  5
48A
  8
0
  6
CONTINUOUS
 62
     7
  0
LINE
  5
12D
  8
0
  6
CONTINUOUS
 62
     7
 10
312.3982614612
 20
246.8114862679
 30
0.0
 11
312.3982614612
 21
356.8251932688
 31
0.0
  0
POLYLINE
  5
12E
  8
0
  6
CONTINUOUS
 62
     7
 66
     1
 10
0.0
 20
0.0
 30
0.0
 70
   128
  0
VERTEX
  5
2DB
  8
0
  6
CONTINUOUS
 62
     7
 10
327.0857366016
 20
336.5642853938
 30
0.0
  0
VERTEX
  5
2DC
  8
0
  6
CONTINUOUS
 62
     7
 10
327.0793079142
 20
338.9832468653
 30
0.0
  0
VERTEX
  5
2DD
  8
0
  6
CONTINUOUS
 62
     7
 10
327.0740978307
 20
340.943129801
 30
0.0
  0
VERTEX
  5
2DE
  8
0
  6
CONTINUOUS
 62
     7
 10
327.07054485
 20
342.2793963229
 30
0.0
  0
VERTEX
  5
2DF
  8
0
  6
CONTINUOUS
 62
     7
 10
327.0685474703
 20
343.0305164094
 30
0.0
  0
VERTEX
  5
2E0
  8
0
  6
CONTINUOUS
 62
     7
 10
327.0683654815
 20
343.098950543
 30
0.0
  0
SEQEND
  5
48B
  8
0
  6
CONTINUOUS
 62
     7
  0
POLYLINE
  5
12F
  8
0
  6
CONTINUOUS
 62
     7
 66
     1
 10
0.0
 20
0.0
 30
0.0
 70
   128
  0
VERTEX
  5
2E1
  8
0
  6
CONTINUOUS
 62
     7
 10
327.1869596968
 20
298.1363004549
 30
0.0
  0
VERTEX
  5
2E2
  8
0
  6
CONTINUOUS
 62
     7
 10
327.1867214548
 20
298.2345232435
 30
0.0
  0
VERTEX
  5
2E3
  8
0
  6
CONTINUOUS
 62
     7
 10
327.1848222692
 20
298.9954656089
 30
0.0
  0
VERTEX
  5
2E4
  8
0
  6
CONTINUOUS
 62
     7
 10
327.1812275264
 20
300.4008302729
 30
0.0
  0
VERTEX
  5
2E5
  8
0
  6
CONTINUOUS
 62
     7
 10
327.1762203603
 20
302.332633551
 30
0.0
  0
VERTEX
  5
2E6
  8
0
  6
CONTINUOUS
 62
     7
 10
327.1696542855
 20
304.8464903059
 30
0.0
  0
VERTEX
  5
2E7
  8
0
  6
CONTINUOUS
 62
     7
 10
327.1620821732
 20
307.7313639997
 30
0.0
  0
VERTEX
  5
2E8
  8
0
  6
CONTINUOUS
 62
     7
 10
327.1532889248
 20
311.070302698
 30
0.0
  0
VERTEX
  5
2E9
  8
0
  6
CONTINUOUS
 62
     7
 10
327.1440158245
 20
314.5830079714
 30
0.0
  0
VERTEX
  5
2EA
  8
0
  6
CONTINUOUS
 62
     7
 10
327.1339991967
 20
318.3705981223
 30
0.0
  0
VERTEX
  5
2EB
  8
0
  6
CONTINUOUS
 62
     7
 10
327.1240829766
 20
322.1151070808
 30
0.0
  0
VERTEX
  5
2EC
  8
0
  6
CONTINUOUS
 62
     7
 10
327.1139846909
 20
325.9243280422
 30
0.0
  0
VERTEX
  5
2ED
  8
0
  6
CONTINUOUS
 62
     7
 10
327.1045547636
 20
329.478470178
 30
0.0
  0
VERTEX
  5
2EE
  8
0
  6
CONTINUOUS
 62
     7
 10
327.0955242132
 20
332.8798534439
 30
0.0
  0
VERTEX
  5
2EF
  8
0
  6
CONTINUOUS
 62
     7
 10
327.0904497593
 20
334.7903249722
 30
0.0
  0
VERTEX
  5
2F0
  8
0
  6
CONTINUOUS
 62
     7
 10
327.0857366016
 20
336.5642853938
 30
0.0
  0
SEQEND
  5
48C
  8
0
  6
CONTINUOUS
 62
     7
  0
LINE
  5
130
  8
0
  6
CONTINUOUS
 62
     7
 10
325.3255482034
 20
227.1568526851
 30
0.0
 11
325.1364314243
 21
227.1519004879
 31
0.0
  0
LINE
  5
131
  8
0
  6
CONTINUOUS
 62
     7
 10
325.1364314243
 20
376.4847790488
 30
0.0
 11
325.3432459106
 21
376.4793634208
 31
0.0
  0
LINE
  5
132
  8
0
  6
CONTINUOUS
 62
     7
 10
381.7459036149
 20
340.7424017786
 30
0.0
 11
381.1896556239
 21
340.8231596033
 31
0.0
  0
LINE
  5
133
  8
0
  6
CONTINUOUS
 62
     7
 10
365.826256362
 20
342.8146168098
 30
0.0
 11
361.8836010635
 21
343.1758837119
 31
0.0
  0
LINE
  5
134
  8
0
  6
CONTINUOUS
 62
     7
 10
353.6708458629
 20
320.6115242561
 30
0.0
 11
361.8836010635
 21
343.1758837119
 31
0.0
  0
LINE
  5
135
  8
0
  6
CONTINUOUS
 62
     7
 10
351.3836010601
 20
309.0375613867
 30
0.0
 11
351.3836010601
 21
305.3533379901
 31
0.0
  0
ARC
  5
136
  8
0
  6
CONTINUOUS
 62
     7
 10
381.3836010601
 20
309.0375613867
 30
0.0
 40
30.00000000000205
 50
160.0
 51
180.0
  0
LINE
  5
137
  8
0
  6
CONTINUOUS
 62
     7
 10
353.6708458629
 20
320.6115242561
 30
0.0
 11
353.1928224365
 21
319.2981656864
 31
0.0
  0
LINE
  5
138
  8
0
  6
CONTINUOUS
 62
     7
 10
377.4836261275
 20
297.0647914151
 30
0.0
 11
379.0170779163
 21
245.3974198693
 31
0.0
  0
ARC
  5
139
  8
0
  6
CONTINUOUS
 62
     7
 10
381.5321696387
 20
339.2912480869
 30
0.0
 40
1.466809206964533
 50
5.9242470332
 51
81.6213985545
  0
LINE
  5
13A
  8
0
  6
CONTINUOUS
 62
     7
 10
382.9278139317
 20
232.638438486
 30
0.0
 11
383.1610513199
 21
232.6730859696
 31
0.0
  0
LINE
  5
13B
  8
0
  6
CONTINUOUS
 62
     7
 10
379.0170779163
 20
245.3974198693
 30
0.0
 11
379.2488546465
 21
237.5880485404
 31
0.0
  0
LINE
  5
13C
  8
0
  6
CONTINUOUS
 62
     7
 10
379.4231631972
 20
236.1249728104
 30
0.0
 11
379.2488546465
 21
237.5880485404
 31
0.0
  0
LINE
  5
13D
  8
0
  6
CONTINUOUS
 62
     7
 10
384.5113817613
 20
245.4417491976
 30
0.0
 11
383.7241609817
 21
320.6130482868
 31
0.0
  0
POLYLINE
  5
13E
  8
0
  6
CONTINUOUS
 62
     7
 66
     1
 10
0.0
 20
0.0
 30
0.0
 70
   128
  0
VERTEX
  5
2F1
  8
0
  6
CONTINUOUS
 62
     7
 10
383.4357328057
 20
333.0288134557
 30
0.0
  0
VERTEX
  5
2F2
  8
0
  6
CONTINUOUS
 62
     7
 10
383.588781611
 20
329.1818525038
 30
0.0
  0
VERTEX
  5
2F3
  8
0
  6
CONTINUOUS
 62
     7
 10
383.6263086196
 20
326.8065896527
 30
0.0
  0
SEQEND
  5
48D
  8
0
  6
CONTINUOUS
 62
     7
  0
LINE
  5
13F
  8
0
  6
CONTINUOUS
 62
     7
 10
383.6849969962
 20
323.0919231874
 30
0.0
 11
383.7241609817
 21
320.6130482868
 31
0.0
  0
LINE
  5
140
  8
0
  6
CONTINUOUS
 62
     7
 10
367.2052225396
 20
297.3775788168
 30
0.0
 11
367.4800092518
 21
297.3274932724
 31
0.0
  0
ARC
  5
141
  8
0
  6
CONTINUOUS
 62
     7
 10
363.4995689692
 20
274.8650126258
 30
0.0
 40
22.81551018251784
 50
80.6527161758
 51
99.3472838242
  0
LINE
  5
142
  8
0
  6
CONTINUOUS
 62
     7
 10
359.520218717
 20
297.328162386
 30
0.0
 11
359.7939153988
 21
297.3775788168
 31
0.0
  0
LINE
  5
143
  8
0
  6
CONTINUOUS
 62
     7
 10
351.3836010601
 20
297.3841236531
 30
0.0
 11
351.3836010601
 21
305.3519657495
 31
0.0
  0
POLYLINE
  5
144
  8
0
  6
CONTINUOUS
 62
     7
 66
     1
 10
0.0
 20
0.0
 30
0.0
 70
   128
  0
VERTEX
  5
2F4
  8
0
  6
CONTINUOUS
 62
     7
 10
382.9324392569
 20
232.6382706766
 30
0.0
  0
VERTEX
  5
2F5
  8
0
  6
CONTINUOUS
 62
     7
 10
383.1800153684
 20
232.6529932626
 30
0.0
  0
VERTEX
  5
2F6
  8
0
  6
CONTINUOUS
 62
     7
 10
383.3877223447
 20
232.7031259309
 30
0.0
  0
SEQEND
  5
48E
  8
0
  6
CONTINUOUS
 62
     7
  0
ARC
  5
145
  8
0
  6
CONTINUOUS
 62
     7
 10
382.97924591
 20
233.9401570122
 30
0.0
 40
1.302727482479018
 50
326.7730535795
 51
355.3371016249
  0
LINE
  5
146
  8
0
  6
CONTINUOUS
 62
     7
 10
359.7939153988
 20
297.3775788168
 30
0.0
 11
367.2052225396
 21
297.3775788168
 31
0.0
  0
LINE
  5
147
  8
0
  6
CONTINUOUS
 62
     8
 10
312.3982614612
 20
246.8114862679
 30
0.0
 11
325.1364314243
 21
247.1450469874
 31
0.0
  0
POLYLINE
  5
148
  8
0
  6
CONTINUOUS
 62
     8
 66
     1
 10
0.0
 20
0.0
 30
0.0
 70
   128
  0
VERTEX
  5
2F7
  8
0
  6
CONTINUOUS
 62
     8
 10
325.1364314243
 20
227.1519004879
 30
0.0
  0
VERTEX
  5
2F8
  8
0
  6
CONTINUOUS
 62
     8
 10
325.1205456415
 20
227.4270051527
 30
0.0
  0
VERTEX
  5
2F9
  8
0
  6
CONTINUOUS
 62
     8
 10
325.1076700519
 20
228.2775371586
 30
0.0
  0
VERTEX
  5
2FA
  8
0
  6
CONTINUOUS
 62
     8
 10
325.0988877336
 20
229.6324476086
 30
0.0
  0
VERTEX
  5
2FB
  8
0
  6
CONTINUOUS
 62
     8
 10
325.0939495815
 20
231.5309045754
 30
0.0
  0
VERTEX
  5
2FC
  8
0
  6
CONTINUOUS
 62
     8
 10
325.0932711693
 20
233.8119208258
 30
0.0
  0
VERTEX
  5
2FD
  8
0
  6
CONTINUOUS
 62
     8
 10
325.096828677
 20
236.5422483293
 30
0.0
  0
VERTEX
  5
2FE
  8
0
  6
CONTINUOUS
 62
     8
 10
325.1043197193
 20
239.4917242969
 30
0.0
  0
VERTEX
  5
2FF
  8
0
  6
CONTINUOUS
 62
     8
 10
325.1159579153
 20
242.7458888908
 30
0.0
  0
VERTEX
  5
300
  8
0
  6
CONTINUOUS
 62
     8
 10
325.12542197
 20
244.9183145812
 30
0.0
  0
VERTEX
  5
301
  8
0
  6
CONTINUOUS
 62
     8
 10
325.1364314243
 20
247.1450469874
 30
0.0
  0
SEQEND
  5
48F
  8
0
  6
CONTINUOUS
 62
     8
  0
POLYLINE
  5
149
  8
0
  6
CONTINUOUS
 62
     8
 66
     1
 10
0.0
 20
0.0
 30
0.0
 70
   128
  0
VERTEX
  5
302
  8
0
  6
CONTINUOUS
 62
     8
 10
325.1364314243
 20
356.4916325492
 30
0.0
  0
VERTEX
  5
303
  8
0
  6
CONTINUOUS
 62
     8
 10
325.1205456415
 20
359.8007397643
 30
0.0
  0
VERTEX
  5
304
  8
0
  6
CONTINUOUS
 62
     8
 10
325.1076700519
 20
363.1099416396
 30
0.0
  0
VERTEX
  5
305
  8
0
  6
CONTINUOUS
 62
     8
 10
325.0988877336
 20
366.141676838
 30
0.0
  0
VERTEX
  5
306
  8
0
  6
CONTINUOUS
 62
     8
 10
325.0939495815
 20
368.9829107264
 30
0.0
  0
VERTEX
  5
307
  8
0
  6
CONTINUOUS
 62
     8
 10
325.0932711693
 20
371.393443224
 30
0.0
  0
VERTEX
  5
308
  8
0
  6
CONTINUOUS
 62
     8
 10
325.096828677
 20
373.4445927693
 30
0.0
  0
VERTEX
  5
309
  8
0
  6
CONTINUOUS
 62
     8
 10
325.1043197193
 20
374.9638341246
 30
0.0
  0
VERTEX
  5
30A
  8
0
  6
CONTINUOUS
 62
     8
 10
325.1159579153
 20
375.9957195015
 30
0.0
  0
VERTEX
  5
30B
  8
0
  6
CONTINUOUS
 62
     8
 10
325.12542197
 20
376.3607879359
 30
0.0
  0
VERTEX
  5
30C
  8
0
  6
CONTINUOUS
 62
     8
 10
325.1364314243
 20
376.4847790488
 30
0.0
  0
SEQEND
  5
490
  8
0
  6
CONTINUOUS
 62
     8
  0
LINE
  5
14A
  8
0
  6
CONTINUOUS
 62
     8
 10
325.1364314243
 20
356.4916325492
 30
0.0
 11
312.3982614612
 21
356.8251932688
 31
0.0
  0
LINE
  5
14B
  8
0
  6
CONTINUOUS
 62
     8
 10
326.591354291
 20
228.7041002168
 30
0.0
 11
326.597039384
 21
228.6357742874
 31
0.0
  0
ARC
  5
14C
  8
0
  6
CONTINUOUS
 62
     8
 10
325.0971450541
 20
228.651361236
 30
0.0
 40
1.499975317797934
 50
271.5008251199
 51
359.404601904
  0
POLYLINE
  5
14D
  8
0
  6
CONTINUOUS
 62
     8
 66
     1
 10
0.0
 20
0.0
 30
0.0
 70
   128
  0
VERTEX
  5
30D
  8
0
  6
CONTINUOUS
 62
     8
 10
325.1364314243
 20
247.1450469874
 30
0.0
  0
VERTEX
  5
30E
  8
0
  6
CONTINUOUS
 62
     8
 10
325.4215090666
 20
247.1428219162
 30
0.0
  0
VERTEX
  5
30F
  8
0
  6
CONTINUOUS
 62
     8
 10
325.69469451
 20
247.1406784283
 30
0.0
  0
VERTEX
  5
310
  8
0
  6
CONTINUOUS
 62
     8
 10
325.9459712748
 20
247.1386951157
 30
0.0
  0
VERTEX
  5
311
  8
0
  6
CONTINUOUS
 62
     8
 10
326.1661261743
 20
247.1369446977
 30
0.0
  0
VERTEX
  5
312
  8
0
  6
CONTINUOUS
 62
     8
 10
326.3470871199
 20
247.1354913541
 30
0.0
  0
VERTEX
  5
313
  8
0
  6
CONTINUOUS
 62
     8
 10
326.4822190891
 20
247.1343883726
 30
0.0
  0
VERTEX
  5
314
  8
0
  6
CONTINUOUS
 62
     8
 10
326.5665674014
 20
247.1336761945
 30
0.0
  0
VERTEX
  5
315
  8
0
  6
CONTINUOUS
 62
     8
 10
326.5970393841
 20
247.1333809321
 30
0.0
  0
SEQEND
  5
491
  8
0
  6
CONTINUOUS
 62
     8
  0
ARC
  5
14E
  8
0
  6
CONTINUOUS
 62
     8
 10
325.0971450541
 20
374.9853183006
 30
0.0
 40
1.499975317796134
 50
0.5953980959
 51
88.4991748802
  0
LINE
  5
14F
  8
0
  6
CONTINUOUS
 62
     8
 10
326.597039384
 20
375.0009052493
 30
0.0
 11
326.5902933692
 21
374.9500016727
 31
0.0
  0
POLYLINE
  5
150
  8
0
  6
CONTINUOUS
 62
     8
 66
     1
 10
0.0
 20
0.0
 30
0.0
 70
   128
  0
VERTEX
  5
316
  8
0
  6
CONTINUOUS
 62
     8
 10
325.1364314243
 20
356.4916325492
 30
0.0
  0
VERTEX
  5
317
  8
0
  6
CONTINUOUS
 62
     8
 10
325.4215090666
 20
356.4938576205
 30
0.0
  0
VERTEX
  5
318
  8
0
  6
CONTINUOUS
 62
     8
 10
325.69469451
 20
356.4960011084
 30
0.0
  0
VERTEX
  5
319
  8
0
  6
CONTINUOUS
 62
     8
 10
325.9459712748
 20
356.497984421
 30
0.0
  0
VERTEX
  5
31A
  8
0
  6
CONTINUOUS
 62
     8
 10
326.1661261743
 20
356.499734839
 30
0.0
  0
VERTEX
  5
31B
  8
0
  6
CONTINUOUS
 62
     8
 10
326.3470871199
 20
356.5011881825
 30
0.0
  0
VERTEX
  5
31C
  8
0
  6
CONTINUOUS
 62
     8
 10
326.4822190891
 20
356.5022911641
 30
0.0
  0
VERTEX
  5
31D
  8
0
  6
CONTINUOUS
 62
     8
 10
326.5665674014
 20
356.5030033422
 30
0.0
  0
VERTEX
  5
31E
  8
0
  6
CONTINUOUS
 62
     8
 10
326.597039384
 20
356.5032986046
 30
0.0
  0
SEQEND
  5
492
  8
0
  6
CONTINUOUS
 62
     8
  0
POLYLINE
  5
151
  8
0
  6
CONTINUOUS
 62
     8
 66
     1
 10
0.0
 20
0.0
 30
0.0
 70
   128
  0
VERTEX
  5
31F
  8
0
  6
CONTINUOUS
 62
     8
 10
325.1364314243
 20
247.1450469874
 30
0.0
  0
VERTEX
  5
320
  8
0
  6
CONTINUOUS
 62
     8
 10
325.3432459106
 20
292.8155881568
 30
0.0
  0
VERTEX
  5
321
  8
0
  6
CONTINUOUS
 62
     8
 10
325.2534080544
 20
338.4884389077
 30
0.0
  0
VERTEX
  5
322
  8
0
  6
CONTINUOUS
 62
     8
 10
325.1364314243
 20
356.4916325492
 30
0.0
  0
SEQEND
  5
493
  8
0
  6
CONTINUOUS
 62
     8
  0
POLYLINE
  5
152
  8
0
  6
CONTINUOUS
 62
     8
 66
     1
 10
0.0
 20
0.0
 30
0.0
 70
   128
  0
VERTEX
  5
323
  8
0
  6
CONTINUOUS
 62
     8
 10
326.597039384
 20
356.5032986046
 30
0.0
  0
VERTEX
  5
324
  8
0
  6
CONTINUOUS
 62
     8
 10
326.714041086
 20
338.4962594245
 30
0.0
  0
VERTEX
  5
325
  8
0
  6
CONTINUOUS
 62
     8
 10
326.8039006608
 20
292.8155944795
 30
0.0
  0
VERTEX
  5
326
  8
0
  6
CONTINUOUS
 62
     8
 10
326.5970393841
 20
247.1333809321
 30
0.0
  0
SEQEND
  5
494
  8
0
  6
CONTINUOUS
 62
     8
  0
POLYLINE
  5
153
  8
0
  6
CONTINUOUS
 62
     8
 66
     1
 10
0.0
 20
0.0
 30
0.0
 70
   128
  0
VERTEX
  5
327
  8
0
  6
CONTINUOUS
 62
     8
 10
326.597039384
 20
228.6357742874
 30
0.0
  0
VERTEX
  5
328
  8
0
  6
CONTINUOUS
 62
     8
 10
326.714041086
 20
228.6388461833
 30
0.0
  0
VERTEX
  5
329
  8
0
  6
CONTINUOUS
 62
     8
 10
326.7861908046
 20
228.6407423834
 30
0.0
  0
SEQEND
  5
495
  8
0
  6
CONTINUOUS
 62
     8
  0
POLYLINE
  5
154
  8
0
  6
CONTINUOUS
 62
     8
 66
     1
 10
0.0
 20
0.0
 30
0.0
 70
   128
  0
VERTEX
  5
32A
  8
0
  6
CONTINUOUS
 62
     8
 10
326.7861910898
 20
374.9959371458
 30
0.0
  0
VERTEX
  5
32B
  8
0
  6
CONTINUOUS
 62
     8
 10
326.8039006608
 20
374.9954717124
 30
0.0
  0
VERTEX
  5
32C
  8
0
  6
CONTINUOUS
 62
     8
 10
326.597039384
 20
375.0009052493
 30
0.0
  0
SEQEND
  5
496
  8
0
  6
CONTINUOUS
 62
     8
  0
ARC
  5
155
  8
0
  6
CONTINUOUS
 62
     8
 10
745.1667047774
 20
333.3118958391
 30
0.0
 40
363.4967553309172
 50
178.8286930231
 51
182.0017365068
  0
LINE
  5
156
  8
0
  6
CONTINUOUS
 62
     8
 10
370.8219738345
 20
320.6122024975
 30
0.0
 11
381.8918872759
 21
320.6129643109
 31
0.0
  0
POLYLINE
  5
157
  8
0
  6
CONTINUOUS
 62
     8
 66
     1
 10
0.0
 20
0.0
 30
0.0
 70
   128
  0
VERTEX
  5
32D
  8
0
  6
CONTINUOUS
 62
     8
 10
370.8219228995
 20
320.6122024944
 30
0.0
  0
VERTEX
  5
32E
  8
0
  6
CONTINUOUS
 62
     8
 10
366.3068967617
 20
320.6119497161
 30
0.0
  0
VERTEX
  5
32F
  8
0
  6
CONTINUOUS
 62
     8
 10
361.5967221777
 20
320.611739647
 30
0.0
  0
VERTEX
  5
330
  8
0
  6
CONTINUOUS
 62
     8
 10
353.6708458629
 20
320.611524256
 30
0.0
  0
SEQEND
  5
497
  8
0
  6
CONTINUOUS
 62
     8
  0
POLYLINE
  5
158
  8
0
  6
CONTINUOUS
 62
     8
 66
     1
 10
0.0
 20
0.0
 30
0.0
 70
   128
  0
VERTEX
  5
331
  8
0
  6
CONTINUOUS
 62
     8
 10
370.8219738344
 20
320.6122024975
 30
0.0
  0
VERTEX
  5
332
  8
0
  6
CONTINUOUS
 62
     8
 10
370.7749956804
 20
316.3507662627
 30
0.0
  0
VERTEX
  5
333
  8
0
  6
CONTINUOUS
 62
     8
 10
370.6725613284
 20
312.3617681379
 30
0.0
  0
VERTEX
  5
334
  8
0
  6
CONTINUOUS
 62
     8
 10
370.6075849273
 20
308.7657842418
 30
0.0
  0
VERTEX
  5
335
  8
0
  6
CONTINUOUS
 62
     8
 10
370.6271515933
 20
305.6354009574
 30
0.0
  0
SEQEND
  5
498
  8
0
  6
CONTINUOUS
 62
     8
  0
POLYLINE
  5
159
  8
0
  6
CONTINUOUS
 62
     8
 66
     1
 10
0.0
 20
0.0
 30
0.0
 70
   128
  0
VERTEX
  5
336
  8
0
  6
CONTINUOUS
 62
     8
 10
370.6271515933
 20
305.6354009574
 30
0.0
  0
VERTEX
  5
337
  8
0
  6
CONTINUOUS
 62
     8
 10
361.0053752919
 20
305.4937571558
 30
0.0
  0
VERTEX
  5
338
  8
0
  6
CONTINUOUS
 62
     8
 10
351.3835989905
 20
305.3527634083
 30
0.0
  0
SEQEND
  5
499
  8
0
  6
CONTINUOUS
 62
     8
  0
POLYLINE
  5
15A
  8
0
  6
CONTINUOUS
 62
     8
 66
     1
 10
0.0
 20
0.0
 30
0.0
 70
   128
  0
VERTEX
  5
339
  8
0
  6
CONTINUOUS
 62
     8
 10
377.4836261275
 20
297.0647914151
 30
0.0
  0
VERTEX
  5
33A
  8
0
  6
CONTINUOUS
 62
     8
 10
377.3071488695
 20
299.1361442315
 30
0.0
  0
VERTEX
  5
33B
  8
0
  6
CONTINUOUS
 62
     8
 10
376.9111485591
 20
301.0206725278
 30
0.0
  0
VERTEX
  5
33C
  8
0
  6
CONTINUOUS
 62
     8
 10
376.3048868239
 20
302.6556856616
 30
0.0
  0
VERTEX
  5
33D
  8
0
  6
CONTINUOUS
 62
     8
 10
375.4976252916
 20
303.9784929901
 30
0.0
  0
VERTEX
  5
33E
  8
0
  6
CONTINUOUS
 62
     8
 10
374.4986255897
 20
304.9264038706
 30
0.0
  0
VERTEX
  5
33F
  8
0
  6
CONTINUOUS
 62
     8
 10
373.3200139999
 20
305.4483143725
 30
0.0
  0
VERTEX
  5
340
  8
0
  6
CONTINUOUS
 62
     8
 10
372.0072184052
 20
305.6278160909
 30
0.0
  0
VERTEX
  5
341
  8
0
  6
CONTINUOUS
 62
     8
 10
370.6271515933
 20
305.6354009603
 30
0.0
  0
SEQEND
  5
49A
  8
0
  6
CONTINUOUS
 62
     8
  0
LINE
  5
15B
  8
0
  6
CONTINUOUS
 62
     8
 10
382.0683682971
 20
301.7896107487
 30
0.0
 11
381.8919767424
 21
320.6130145163
 31
0.0
  0
ARC
  5
15C
  8
0
  6
CONTINUOUS
 62
     8
 10
382.089003998
 20
297.1827063004
 30
0.0
 40
4.606887153998583
 50
90.2638876574
 51
181.4666656536
  0
LINE
  5
15D
  8
0
  6
CONTINUOUS
 62
     8
 10
347.2636518732
 20
298.0683397683
 30
0.0
 11
347.2636518732
 21
343.1683397683
 31
0.0
  0
LINE
  5
15E
  8
0
  6
CONTINUOUS
 62
     8
 10
347.7919485794
 20
298.309098448
 30
0.0
 11
347.7919485794
 21
342.9275810886
 31
0.0
  0
POLYLINE
  5
15F
  8
0
  6
CONTINUOUS
 62
     8
 66
     1
 10
0.0
 20
0.0
 30
0.0
 70
   128
  0
VERTEX
  5
342
  8
0
  6
CONTINUOUS
 62
     8
 10
383.3997437941
 20
301.8112950433
 30
0.0
  0
VERTEX
  5
343
  8
0
  6
CONTINUOUS
 62
     8
 10
383.7382643245
 20
273.6414838173
 30
0.0
  0
VERTEX
  5
344
  8
0
  6
CONTINUOUS
 62
     8
 10
384.0767772349
 20
245.4723182072
 30
0.0
  0
SEQEND
  5
49B
  8
0
  6
CONTINUOUS
 62
     8
  0
ARC
  5
160
  8
0
  6
CONTINUOUS
 62
     8
 10
382.7541949066
 20
271.3358171611
 30
0.0
 40
25.89752486017616
 50
269.9671965458
 51
272.9273655936
  0
POLYLINE
  5
161
  8
0
  6
CONTINUOUS
 62
     8
 66
     1
 10
0.0
 20
0.0
 30
0.0
 70
   128
  0
VERTEX
  5
345
  8
0
  6
CONTINUOUS
 62
     8
 10
382.7393680748
 20
245.4382965484
 30
0.0
  0
VERTEX
  5
346
  8
0
  6
CONTINUOUS
 62
     8
 10
382.402057605
 20
273.6135961023
 30
0.0
  0
VERTEX
  5
347
  8
0
  6
CONTINUOUS
 62
     8
 10
382.0690126012
 20
301.7895942229
 30
0.0
  0
SEQEND
  5
49C
  8
0
  6
CONTINUOUS
 62
     8
  0
ARC
  5
162
  8
0
  6
CONTINUOUS
 62
     8
 10
380.9630968826
 20
421.076741927
 30
0.0
 40
119.2922101879356
 50
270.5311789507
 51
271.1704080566
  0
LINE
  5
163
  8
0
  6
CONTINUOUS
 62
     8
 10
383.1763451421
 20
320.6130482868
 30
0.0
 11
383.3997378612
 21
301.8093784621
 31
0.0
  0
ARC
  5
164
  8
0
  6
CONTINUOUS
 62
     8
 10
382.4932994526
 20
294.2355587493
 30
0.0
 40
26.38652057139257
 50
88.5167198402
 51
91.3062828705
  0
ARC
  5
165
  8
0
  6
CONTINUOUS
 62
     8
 10
379.5904685915
 20
362.6826572707
 30
0.0
 40
117.2866390052839
 50
269.7198913973
 51
271.538455993
  0
LINE
  5
166
  8
0
  6
CONTINUOUS
 62
     8
 10
348.3575811476
 20
298.6305592864
 30
0.0
 11
348.3575811476
 21
342.6061202503
 31
0.0
  0
POLYLINE
  5
167
  8
0
  6
CONTINUOUS
 62
     8
 66
     1
 10
0.0
 20
0.0
 30
0.0
 70
   128
  0
VERTEX
  5
348
  8
0
  6
CONTINUOUS
 62
     8
 10
382.9911449509
 20
339.4426425644
 30
0.0
  0
VERTEX
  5
349
  8
0
  6
CONTINUOUS
 62
     8
 10
382.9890766525
 20
339.364620352
 30
0.0
  0
VERTEX
  5
34A
  8
0
  6
CONTINUOUS
 62
     8
 10
382.986237676
 20
339.2640234633
 30
0.0
  0
VERTEX
  5
34B
  8
0
  6
CONTINUOUS
 62
     8
 10
382.9836961325
 20
338.9380165449
 30
0.0
  0
VERTEX
  5
34C
  8
0
  6
CONTINUOUS
 62
     8
 10
382.9847908366
 20
338.2387200837
 30
0.0
  0
VERTEX
  5
34D
  8
0
  6
CONTINUOUS
 62
     8
 10
382.9916869193
 20
337.0993913749
 30
0.0
  0
VERTEX
  5
34E
  8
0
  6
CONTINUOUS
 62
     8
 10
383.0063023892
 20
335.5532898942
 30
0.0
  0
VERTEX
  5
34F
  8
0
  6
CONTINUOUS
 62
     8
 10
383.0274889048
 20
333.6639676123
 30
0.0
  0
VERTEX
  5
350
  8
0
  6
CONTINUOUS
 62
     8
 10
383.0522260153
 20
331.5634139492
 30
0.0
  0
VERTEX
  5
351
  8
0
  6
CONTINUOUS
 62
     8
 10
383.0779731246
 20
329.377698874
 30
0.0
  0
VERTEX
  5
352
  8
0
  6
CONTINUOUS
 62
     8
 10
383.1259347051
 20
324.990252996
 30
0.0
  0
VERTEX
  5
353
  8
0
  6
CONTINUOUS
 62
     8
 10
383.1763229113
 20
320.6130482868
 30
0.0
  0
SEQEND
  5
49D
  8
0
  6
CONTINUOUS
 62
     8
  0
LINE
  5
168
  8
0
  6
CONTINUOUS
 62
     8
 10
347.8627997596
 20
298.3906034074
 30
0.0
 11
347.8627997596
 21
342.8460761292
 31
0.0
  0
POLYLINE
  5
169
  8
0
  6
CONTINUOUS
 62
     8
 66
     1
 10
0.0
 20
0.0
 30
0.0
 70
   128
  0
VERTEX
  5
354
  8
0
  6
CONTINUOUS
 62
     8
 10
384.0771459481
 20
245.4417491976
 30
0.0
  0
VERTEX
  5
355
  8
0
  6
CONTINUOUS
 62
     8
 10
384.1087121857
 20
243.024637178
 30
0.0
  0
VERTEX
  5
356
  8
0
  6
CONTINUOUS
 62
     8
 10
384.1437204474
 20
240.6213875127
 30
0.0
  0
VERTEX
  5
357
  8
0
  6
CONTINUOUS
 62
     8
 10
384.1796478156
 20
238.3063970575
 30
0.0
  0
VERTEX
  5
358
  8
0
  6
CONTINUOUS
 62
     8
 10
384.1968288771
 20
237.2508765124
 30
0.0
  0
VERTEX
  5
359
  8
0
  6
CONTINUOUS
 62
     8
 10
384.2127564926
 20
236.3152306104
 30
0.0
  0
VERTEX
  5
35A
  8
0
  6
CONTINUOUS
 62
     8
 10
384.2269413328
 20
235.5352153708
 30
0.0
  0
VERTEX
  5
35B
  8
0
  6
CONTINUOUS
 62
     8
 10
384.2390208434
 20
234.919851602
 30
0.0
  0
VERTEX
  5
35C
  8
0
  6
CONTINUOUS
 62
     8
 10
384.2559256364
 20
234.1648028272
 30
0.0
  0
VERTEX
  5
35D
  8
0
  6
CONTINUOUS
 62
     8
 10
384.2644213956
 20
233.885802075
 30
0.0
  0
VERTEX
  5
35E
  8
0
  6
CONTINUOUS
 62
     8
 10
384.2692625456
 20
233.8386495514
 30
0.0
  0
SEQEND
  5
49E
  8
0
  6
CONTINUOUS
 62
     8
  0
ARC
  5
16A
  8
0
  6
CONTINUOUS
 62
     8
 10
383.0499792216
 20
233.8883152539
 30
0.0
 40
1.220294728486854
 50
275.2223307643
 51
357.6674551583
  0
POLYLINE
  5
16B
  8
0
  6
CONTINUOUS
 62
     8
 66
     1
 10
0.0
 20
0.0
 30
0.0
 70
   128
  0
VERTEX
  5
35F
  8
0
  6
CONTINUOUS
 62
     8
 10
382.9278139545
 20
232.6384384584
 30
0.0
  0
VERTEX
  5
360
  8
0
  6
CONTINUOUS
 62
     8
 10
382.926399918
 20
232.6810902482
 30
0.0
  0
VERTEX
  5
361
  8
0
  6
CONTINUOUS
 62
     8
 10
382.9189699415
 20
232.9807108397
 30
0.0
  0
VERTEX
  5
362
  8
0
  6
CONTINUOUS
 62
     8
 10
382.9024837346
 20
233.8261510505
 30
0.0
  0
VERTEX
  5
363
  8
0
  6
CONTINUOUS
 62
     8
 10
382.8905064396
 20
234.5329538713
 30
0.0
  0
VERTEX
  5
364
  8
0
  6
CONTINUOUS
 62
     8
 10
382.8761216494
 20
235.4445076188
 30
0.0
  0
VERTEX
  5
365
  8
0
  6
CONTINUOUS
 62
     8
 10
382.8597789637
 20
236.538675741
 30
0.0
  0
VERTEX
  5
366
  8
0
  6
CONTINUOUS
 62
     8
 10
382.8422727605
 20
237.7538939631
 30
0.0
  0
VERTEX
  5
367
  8
0
  6
CONTINUOUS
 62
     8
 10
382.8059791952
 20
240.3525194172
 30
0.0
  0
VERTEX
  5
368
  8
0
  6
CONTINUOUS
 62
     8
 10
382.7716370755
 20
242.9264039389
 30
0.0
  0
VERTEX
  5
369
  8
0
  6
CONTINUOUS
 62
     8
 10
382.7397597111
 20
245.407706035
 30
0.0
  0
SEQEND
  5
49F
  8
0
  6
CONTINUOUS
 62
     8
  0
ARC
  5
16C
  8
0
  6
CONTINUOUS
 62
     8
 10
382.7589310846
 20
270.9352671437
 30
0.0
 40
25.52757559362523
 50
269.9569708617
 51
272.960005148
  0
POLYLINE
  5
16D
  8
0
  6
CONTINUOUS
 62
     8
 66
     1
 10
0.0
 20
0.0
 30
0.0
 70
   128
  0
VERTEX
  5
36A
  8
0
  6
CONTINUOUS
 62
     8
 10
382.9254687395
 20
232.638525666
 30
0.0
  0
VERTEX
  5
36B
  8
0
  6
CONTINUOUS
 62
     8
 10
381.6719039675
 20
232.8866094341
 30
0.0
  0
VERTEX
  5
36C
  8
0
  6
CONTINUOUS
 62
     8
 10
381.3031568602
 20
233.1166850408
 30
0.0
  0
SEQEND
  5
4A0
  8
0
  6
CONTINUOUS
 62
     8
  0
LINE
  5
16E
  8
0
  6
CONTINUOUS
 62
     8
 10
383.7241609817
 20
320.6130482868
 30
0.0
 11
383.1763340268
 21
320.6130482868
 31
0.0
  0
LINE
  5
16F
  8
0
  6
CONTINUOUS
 62
     8
 10
384.5113817613
 20
245.4417491976
 30
0.0
 11
384.4482441252
 21
245.4417491976
 31
0.0
  0
LINE
  5
170
  8
0
  6
CONTINUOUS
 62
     8
 10
384.0771459521
 20
245.4417491976
 30
0.0
 11
384.4482441252
 21
245.4417491976
 31
0.0
  0
POLYLINE
  5
171
  8
0
  6
CONTINUOUS
 62
     8
 66
     1
 10
0.0
 20
0.0
 30
0.0
 70
   128
  0
VERTEX
  5
36D
  8
0
  6
CONTINUOUS
 62
     8
 10
382.9911449509
 20
339.4426425643
 30
0.0
  0
VERTEX
  5
36E
  8
0
  6
CONTINUOUS
 62
     8
 10
383.3792837659
 20
334.4476892939
 30
0.0
  0
VERTEX
  5
36F
  8
0
  6
CONTINUOUS
 62
     8
 10
383.4357328057
 20
333.0288134557
 30
0.0
  0
SEQEND
  5
4A1
  8
0
  6
CONTINUOUS
 62
     8
  0
LINE
  5
172
  8
0
  6
CONTINUOUS
 62
     8
 10
383.6263086196
 20
326.8065896527
 30
0.0
 11
383.6849969962
 21
323.0919231874
 31
0.0
  0
POLYLINE
  5
173
  8
0
  6
CONTINUOUS
 62
     8
 66
     1
 10
0.0
 20
0.0
 30
0.0
 70
   128
  0
VERTEX
  5
370
  8
0
  6
CONTINUOUS
 62
     8
 10
384.4482441252
 20
245.4417491976
 30
0.0
  0
VERTEX
  5
371
  8
0
  6
CONTINUOUS
 62
     8
 10
384.4817997277
 20
239.6393384909
 30
0.0
  0
VERTEX
  5
372
  8
0
  6
CONTINUOUS
 62
     8
 10
384.2692747749
 20
233.8386368123
 30
0.0
  0
SEQEND
  5
4A2
  8
0
  6
CONTINUOUS
 62
     8
  0
LINE
  5
174
  8
0
  6
CONTINUOUS
 62
     8
 10
370.6271515933
 20
305.6354009603
 30
0.0
 11
370.6271515933
 21
297.3276182689
 31
0.0
  0
LINE
  5
175
  8
0
  6
CONTINUOUS
 62
     8
 10
384.277661673
 20
233.8342542263
 30
0.0
 11
384.2840994858
 21
233.9970217009
 31
0.0
  0
LINE
  5
176
  8
0
  6
CONTINUOUS
 62
     8
 10
384.5316768549
 20
240.9999772345
 30
0.0
 11
384.5113817613
 21
245.4417491976
 31
0.0
  0
LINE
  5
177
  8
0
  6
CONTINUOUS
 62
     8
 10
384.2692750315
 20
233.8386402673
 30
0.0
 11
384.277661673
 21
233.8342542263
 31
0.0
  0
LINE
  5
178
  8
0
  6
CONTINUOUS
 62
     8
 10
359.7168428281
 20
296.7770314469
 30
0.0
 11
367.2796800943
 21
296.7770314469
 31
0.0
  0
ARC
  5
179
  8
0
  6
CONTINUOUS
 62
     7
 10
170.3431292208
 20
7158.6283033672
 30
0.0
 40
6999.999999999999
 50
269.4043482097
 51
269.8187532682
  0
ARC
  5
17A
  8
0
  6
CONTINUOUS
 62
     7
 10
171.1562718946
 20
7158.6283033672
 30
0.0
 40
6999.999999999999
 50
270.1812467318
 51
270.5956512281
  0
ARC
  5
17B
  8
0
  6
CONTINUOUS
 62
     7
 10
97.5883137318
 20
160.5064848508
 30
0.0
 40
1.500000000000003
 50
181.501892954
 51
269.2000304704
  0
ARC
  5
17C
  8
0
  6
CONTINUOUS
 62
     7
 10
243.9110873836
 20
160.5064848508
 30
0.0
 40
1.499999999999997
 50
270.718238125
 51
358.4981070461
  0
POLYLINE
  5
17D
  8
0
  6
CONTINUOUS
 62
     7
 66
     1
 10
0.0
 20
0.0
 30
0.0
 70
   128
  0
VERTEX
  5
373
  8
0
  6
CONTINUOUS
 62
     7
 10
147.5540881653
 20
132.0013450559
 30
0.0
  0
VERTEX
  5
374
  8
0
  6
CONTINUOUS
 62
     7
 10
147.641101397
 20
126.1869544322
 30
0.0
  0
VERTEX
  5
375
  8
0
  6
CONTINUOUS
 62
     7
 10
147.7848835318
 20
120.4330381159
 30
0.0
  0
VERTEX
  5
376
  8
0
  6
CONTINUOUS
 62
     7
 10
147.9669935214
 20
114.9850429527
 30
0.0
  0
SEQEND
  5
4A3
  8
0
  6
CONTINUOUS
 62
     7
  0
POLYLINE
  5
17E
  8
0
  6
CONTINUOUS
 62
     7
 66
     1
 10
0.0
 20
0.0
 30
0.0
 70
   128
  0
VERTEX
  5
377
  8
0
  6
CONTINUOUS
 62
     7
 10
193.532407594
 20
114.9850429527
 30
0.0
  0
VERTEX
  5
378
  8
0
  6
CONTINUOUS
 62
     7
 10
193.5935345742
 20
116.8625448929
 30
0.0
  0
VERTEX
  5
379
  8
0
  6
CONTINUOUS
 62
     7
 10
193.6464960982
 20
118.8206757666
 30
0.0
  0
VERTEX
  5
37A
  8
0
  6
CONTINUOUS
 62
     7
 10
193.6995672121
 20
120.8645816324
 30
0.0
  0
VERTEX
  5
37B
  8
0
  6
CONTINUOUS
 62
     7
 10
193.7561269858
 20
122.9937027727
 30
0.0
  0
VERTEX
  5
37C
  8
0
  6
CONTINUOUS
 62
     7
 10
193.8709562182
 20
127.504525074
 30
0.0
  0
VERTEX
  5
37D
  8
0
  6
CONTINUOUS
 62
     7
 10
193.9444867484
 20
131.9812930939
 30
0.0
  0
SEQEND
  5
4A4
  8
0
  6
CONTINUOUS
 62
     7
  0
LINE
  5
17F
  8
0
  6
CONTINUOUS
 62
     7
 10
148.1997005577
 20
158.6881822406
 30
0.0
 11
148.1997005577
 21
138.552573781
 31
0.0
  0
LINE
  5
180
  8
0
  6
CONTINUOUS
 62
     7
 10
193.2997005577
 20
138.552573781
 30
0.0
 11
193.2997005577
 21
158.6881755657
 31
0.0
  0
ARC
  5
181
  8
0
  6
CONTINUOUS
 62
     7
 10
148.8997005577
 20
138.552573781
 30
0.0
 40
0.700000000000017
 50
180.0
 51
229.0
  0
ARC
  5
182
  8
0
  6
CONTINUOUS
 62
     7
 10
192.5997005577
 20
138.552573781
 30
0.0
 40
0.700000000000017
 50
311.0
 51
0.0
  0
LINE
  5
183
  8
0
  6
CONTINUOUS
 62
     7
 10
148.4404592374
 20
138.0242770749
 30
0.0
 11
148.5219641968
 21
137.9534258946
 31
0.0
  0
LINE
  5
184
  8
0
  6
CONTINUOUS
 62
     7
 10
192.9774369186
 20
137.9534258946
 30
0.0
 11
193.058941878
 21
138.0242770749
 31
0.0
  0
ARC
  5
185
  8
0
  6
CONTINUOUS
 62
     7
 10
148.0627228765
 20
137.4251291884
 30
0.0
 40
0.6999999999999688
 50
2.7443153111
 51
49.0
  0
ARC
  5
186
  8
0
  6
CONTINUOUS
 62
     7
 10
193.4366782389
 20
137.4251291884
 30
0.0
 40
0.6999999999999972
 50
131.0
 51
177.2556846889
  0
ARC
  5
187
  8
0
  6
CONTINUOUS
 62
     7
 10
170.7366891952
 20
138.5119830788
 30
0.0
 40
22.00000000000002
 50
182.7443153111
 51
196.8457387782
  0
ARC
  5
188
  8
0
  6
CONTINUOUS
 62
     7
 10
170.7627119202
 20
138.5119830788
 30
0.0
 40
22.0
 50
343.1264158814
 51
357.2556846889
  0
ARC
  5
189
  8
0
  6
CONTINUOUS
 62
     7
 10
-49.0213739272
 20
100.3429046183
 30
0.0
 40
197.436914473384
 50
1.025456011
 51
3.1750515662
  0
ARC
  5
18A
  8
0
  6
CONTINUOUS
 62
     7
 10
391.1237883261
 20
102.4568069604
 30
0.0
 40
197.973888805458
 50
176.5401790442
 51
179.6093734083
  0
LINE
  5
18B
  8
0
  6
CONTINUOUS
 62
     7
 10
148.3467243578
 20
103.7897707051
 30
0.0
 11
148.3996841146
 21
103.3639888069
 31
0.0
  0
LINE
  5
18C
  8
0
  6
CONTINUOUS
 62
     7
 10
193.0997170008
 20
103.3639888069
 30
0.0
 11
193.1526767576
 21
103.7897707051
 31
0.0
  0
ARC
  5
18D
  8
0
  6
CONTINUOUS
 62
     7
 10
152.4104648281
 20
105.8730196282
 30
0.0
 40
4.76114287814836
 50
213.4089989255
 51
233.9392394952
  0
ARC
  5
18E
  8
0
  6
CONTINUOUS
 62
     7
 10
189.1753966822
 20
105.7904706577
 30
0.0
 40
4.643565500072802
 50
305.7979211895
 51
326.8538490816
  0
ARC
  5
18F
  8
0
  6
CONTINUOUS
 62
     7
 10
190.7904162366
 20
103.679862585
 30
0.0
 40
2.002396690183855
 50
269.7728877389
 51
290.5046623207
  0
POLYLINE
  5
190
  8
0
  6
CONTINUOUS
 62
     7
 66
     1
 10
0.0
 20
0.0
 30
0.0
 70
   128
  0
VERTEX
  5
37E
  8
0
  6
CONTINUOUS
 62
     7
 10
149.7626341217
 20
101.9413806267
 30
0.0
  0
VERTEX
  5
37F
  8
0
  6
CONTINUOUS
 62
     7
 10
150.0961916566
 20
101.7750349635
 30
0.0
  0
VERTEX
  5
380
  8
0
  6
CONTINUOUS
 62
     7
 10
150.343307638
 20
101.7401964544
 30
0.0
  0
SEQEND
  5
4A5
  8
0
  6
CONTINUOUS
 62
     7
  0
ARC
  5
191
  8
0
  6
CONTINUOUS
 62
     7
 10
177.6880450109
 20
347.9776883326
 30
0.0
 40
246.6524612025251
 50
270.3876011594
 51
272.9883235643
  0
ARC
  5
192
  8
0
  6
CONTINUOUS
 62
     7
 10
163.8113561045
 20
347.9776883326
 30
0.0
 40
246.6524612025688
 50
267.0116764357
 51
269.6123988406
  0
POLYLINE
  5
193
  8
0
  6
CONTINUOUS
 62
     7
 66
     1
 10
0.0
 20
0.0
 30
0.0
 70
   128
  0
VERTEX
  5
381
  8
0
  6
CONTINUOUS
 62
     7
 10
170.7497005577
 20
101.2773589078
 30
0.0
  0
VERTEX
  5
382
  8
0
  6
CONTINUOUS
 62
     7
 10
175.1733963459
 20
101.2909737747
 30
0.0
  0
VERTEX
  5
383
  8
0
  6
CONTINUOUS
 62
     7
 10
179.356347316
 20
101.3304787172
 30
0.0
  0
SEQEND
  5
4A6
  8
0
  6
CONTINUOUS
 62
     7
  0
POLYLINE
  5
194
  8
0
  6
CONTINUOUS
 62
     7
 66
     1
 10
0.0
 20
0.0
 30
0.0
 70
   128
  0
VERTEX
  5
384
  8
0
  6
CONTINUOUS
 62
     7
 10
162.1430537994
 20
101.3304787172
 30
0.0
  0
VERTEX
  5
385
  8
0
  6
CONTINUOUS
 62
     7
 10
166.3260047695
 20
101.2909737747
 30
0.0
  0
VERTEX
  5
386
  8
0
  6
CONTINUOUS
 62
     7
 10
170.7497005577
 20
101.2773589078
 30
0.0
  0
SEQEND
  5
4A7
  8
0
  6
CONTINUOUS
 62
     7
  0
LINE
  5
195
  8
0
  6
CONTINUOUS
 62
     7
 10
95.7497005577
 20
173.417964193
 30
0.0
 11
115.7428470572
 21
173.417964193
 31
0.0
  0
LINE
  5
196
  8
0
  6
CONTINUOUS
 62
     7
 10
96.0832612773
 20
160.6797942299
 30
0.0
 11
95.7497005577
 21
173.417964193
 31
0.0
  0
LINE
  5
197
  8
0
  6
CONTINUOUS
 62
     7
 10
225.7565540582
 20
173.417964193
 30
0.0
 11
245.7497005577
 21
173.417964193
 31
0.0
  0
LINE
  5
198
  8
0
  6
CONTINUOUS
 62
     7
 10
245.7497005577
 20
173.417964193
 30
0.0
 11
245.4161398381
 21
160.6797942299
 31
0.0
  0
POLYLINE
  5
199
  8
0
  6
CONTINUOUS
 62
     7
 66
     1
 10
0.0
 20
0.0
 30
0.0
 70
   128
  0
VERTEX
  5
387
  8
0
  6
CONTINUOUS
 62
     7
 10
116.0647417214
 20
159.2191862702
 30
0.0
  0
VERTEX
  5
388
  8
0
  6
CONTINUOUS
 62
     7
 10
114.0296060681
 20
159.2341478541
 30
0.0
  0
VERTEX
  5
389
  8
0
  6
CONTINUOUS
 62
     7
 10
111.994409901
 20
159.2473324057
 30
0.0
  0
VERTEX
  5
38A
  8
0
  6
CONTINUOUS
 62
     7
 10
109.0660866217
 20
159.2629530392
 30
0.0
  0
VERTEX
  5
38B
  8
0
  6
CONTINUOUS
 62
     7
 10
106.2545914368
 20
159.273628823
 30
0.0
  0
VERTEX
  5
38C
  8
0
  6
CONTINUOUS
 62
     7
 10
103.7952287886
 20
159.2784620558
 30
0.0
  0
VERTEX
  5
38D
  8
0
  6
CONTINUOUS
 62
     7
 10
101.6180750894
 20
159.2775864974
 30
0.0
  0
VERTEX
  5
38E
  8
0
  6
CONTINUOUS
 62
     7
 10
99.9050528133
 20
159.27107014
 30
0.0
  0
VERTEX
  5
38F
  8
0
  6
CONTINUOUS
 62
     7
 10
98.6082304163
 20
159.2587256893
 30
0.0
  0
VERTEX
  5
390
  8
0
  6
CONTINUOUS
 62
     7
 10
97.8364428027
 20
159.2415941538
 30
0.0
  0
VERTEX
  5
391
  8
0
  6
CONTINUOUS
 62
     7
 10
97.6354610062
 20
159.2248713632
 30
0.0
  0
SEQEND
  5
4A8
  8
0
  6
CONTINUOUS
 62
     7
  0
POLYLINE
  5
19A
  8
0
  6
CONTINUOUS
 62
     7
 66
     1
 10
0.0
 20
0.0
 30
0.0
 70
   128
  0
VERTEX
  5
392
  8
0
  6
CONTINUOUS
 62
     7
 10
243.8816436942
 20
159.225961367
 30
0.0
  0
VERTEX
  5
393
  8
0
  6
CONTINUOUS
 62
     7
 10
243.8204756871
 20
159.2341478541
 30
0.0
  0
VERTEX
  5
394
  8
0
  6
CONTINUOUS
 62
     7
 10
243.4800320353
 20
159.2473324057
 30
0.0
  0
VERTEX
  5
395
  8
0
  6
CONTINUOUS
 62
     7
 10
242.559417369
 20
159.2629530392
 30
0.0
  0
VERTEX
  5
396
  8
0
  6
CONTINUOUS
 62
     7
 10
241.1199627225
 20
159.273628823
 30
0.0
  0
VERTEX
  5
397
  8
0
  6
CONTINUOUS
 62
     7
 10
239.2817330623
 20
159.2784620558
 30
0.0
  0
VERTEX
  5
398
  8
0
  6
CONTINUOUS
 62
     7
 10
236.9920601093
 20
159.2775864974
 30
0.0
  0
VERTEX
  5
399
  8
0
  6
CONTINUOUS
 62
     7
 10
234.4415929089
 20
159.27107014
 30
0.0
  0
VERTEX
  5
39A
  8
0
  6
CONTINUOUS
 62
     7
 10
231.558241996
 20
159.2587256893
 30
0.0
  0
VERTEX
  5
39B
  8
0
  6
CONTINUOUS
 62
     7
 10
228.5844828094
 20
159.2415941538
 30
0.0
  0
VERTEX
  5
39C
  8
0
  6
CONTINUOUS
 62
     7
 10
225.434659394
 20
159.2191862702
 30
0.0
  0
SEQEND
  5
4A9
  8
0
  6
CONTINUOUS
 62
     7
  0
LINE
  5
19B
  8
0
  6
CONTINUOUS
 62
     7
 10
115.7428470572
 20
173.417964193
 30
0.0
 11
225.7565540582
 21
173.417964193
 31
0.0
  0
POLYLINE
  5
19C
  8
0
  6
CONTINUOUS
 62
     7
 66
     1
 10
0.0
 20
0.0
 30
0.0
 70
   128
  0
VERTEX
  5
39D
  8
0
  6
CONTINUOUS
 62
     7
 10
154.8051303813
 20
158.7304890526
 30
0.0
  0
VERTEX
  5
39E
  8
0
  6
CONTINUOUS
 62
     7
 10
157.6641097296
 20
158.73691774
 30
0.0
  0
VERTEX
  5
39F
  8
0
  6
CONTINUOUS
 62
     7
 10
160.9821312527
 20
158.7421278235
 30
0.0
  0
VERTEX
  5
3A0
  8
0
  6
CONTINUOUS
 62
     7
 10
164.480639309
 20
158.7456808042
 30
0.0
  0
VERTEX
  5
3A1
  8
0
  6
CONTINUOUS
 62
     7
 10
168.2603556214
 20
158.7476781839
 30
0.0
  0
VERTEX
  5
3A2
  8
0
  6
CONTINUOUS
 62
     7
 10
172.0039533933
 20
158.7479518685
 30
0.0
  0
VERTEX
  5
3A3
  8
0
  6
CONTINUOUS
 62
     7
 10
175.8192191562
 20
158.7465096843
 30
0.0
  0
VERTEX
  5
3A4
  8
0
  6
CONTINUOUS
 62
     7
 10
179.3858484115
 20
158.7434730046
 30
0.0
  0
VERTEX
  5
3A5
  8
0
  6
CONTINUOUS
 62
     7
 10
182.8065272311
 20
158.7387550735
 30
0.0
  0
VERTEX
  5
3A6
  8
0
  6
CONTINUOUS
 62
     7
 10
185.7940863695
 20
158.7327529514
 30
0.0
  0
VERTEX
  5
3A7
  8
0
  6
CONTINUOUS
 62
     7
 10
188.4345322479
 20
158.7252952206
 30
0.0
  0
VERTEX
  5
3A8
  8
0
  6
CONTINUOUS
 62
     7
 10
190.5062005336
 20
158.7170095936
 30
0.0
  0
VERTEX
  5
3A9
  8
0
  6
CONTINUOUS
 62
     7
 10
192.0687257539
 20
158.7076595838
 30
0.0
  0
VERTEX
  5
3AA
  8
0
  6
CONTINUOUS
 62
     7
 10
192.9909336327
 20
158.698032357
 30
0.0
  0
VERTEX
  5
3AB
  8
0
  6
CONTINUOUS
 62
     7
 10
193.2896061264
 20
158.6881755657
 30
0.0
  0
SEQEND
  5
4AA
  8
0
  6
CONTINUOUS
 62
     7
  0
POLYLINE
  5
19D
  8
0
  6
CONTINUOUS
 62
     7
 66
     1
 10
0.0
 20
0.0
 30
0.0
 70
   128
  0
VERTEX
  5
3AC
  8
0
  6
CONTINUOUS
 62
     7
 10
148.2744218671
 20
158.6881822406
 30
0.0
  0
VERTEX
  5
3AD
  8
0
  6
CONTINUOUS
 62
     7
 10
148.2494297235
 20
158.6921426776
 30
0.0
  0
VERTEX
  5
3AE
  8
0
  6
CONTINUOUS
 62
     7
 10
148.8328351697
 20
158.7022409634
 30
0.0
  0
VERTEX
  5
3AF
  8
0
  6
CONTINUOUS
 62
     7
 10
150.0132449993
 20
158.7116708907
 30
0.0
  0
VERTEX
  5
3B0
  8
0
  6
CONTINUOUS
 62
     7
 10
151.8246435595
 20
158.720701441
 30
0.0
  0
VERTEX
  5
3B1
  8
0
  6
CONTINUOUS
 62
     7
 10
153.2095370641
 20
158.7257758949
 30
0.0
  0
VERTEX
  5
3B2
  8
0
  6
CONTINUOUS
 62
     7
 10
154.8051303813
 20
158.7304890526
 30
0.0
  0
SEQEND
  5
4AB
  8
0
  6
CONTINUOUS
 62
     7
  0
LINE
  5
19E
  8
0
  6
CONTINUOUS
 62
     7
 10
96.0882134744
 20
160.4906774508
 30
0.0
 11
96.0832612773
 21
160.6797942299
 31
0.0
  0
LINE
  5
19F
  8
0
  6
CONTINUOUS
 62
     7
 10
245.4161398381
 20
160.6797942299
 30
0.0
 11
245.4107242102
 21
160.4729797436
 31
0.0
  0
LINE
  5
1A0
  8
0
  6
CONTINUOUS
 62
     7
 10
193.9459954552
 20
132.1453797913
 30
0.0
 11
193.8969675221
 21
132.6234032177
 31
0.0
  0
POLYLINE
  5
1A1
  8
0
  6
CONTINUOUS
 62
     7
 66
     1
 10
0.0
 20
0.0
 30
0.0
 70
   128
  0
VERTEX
  5
3B3
  8
0
  6
CONTINUOUS
 62
     7
 10
193.9135172314
 20
131.9813998069
 30
0.0
  0
VERTEX
  5
3B4
  8
0
  6
CONTINUOUS
 62
     7
 10
193.5882755767
 20
130.3392804033
 30
0.0
  0
VERTEX
  5
3B5
  8
0
  6
CONTINUOUS
 62
     7
 10
193.1066462676
 20
129.4261903166
 30
0.0
  0
VERTEX
  5
3B6
  8
0
  6
CONTINUOUS
 62
     7
 10
192.4019873499
 20
128.5306450304
 30
0.0
  0
VERTEX
  5
3B7
  8
0
  6
CONTINUOUS
 62
     7
 10
191.2934046227
 20
127.5642199563
 30
0.0
  0
VERTEX
  5
3B8
  8
0
  6
CONTINUOUS
 62
     7
 10
189.7452901504
 20
126.6460533018
 30
0.0
  0
VERTEX
  5
3B9
  8
0
  6
CONTINUOUS
 62
     7
 10
187.7834515039
 20
125.8508669819
 30
0.0
  0
VERTEX
  5
3BA
  8
0
  6
CONTINUOUS
 62
     7
 10
185.3205642775
 20
125.1751996396
 30
0.0
  0
VERTEX
  5
3BB
  8
0
  6
CONTINUOUS
 62
     7
 10
182.3671670255
 20
124.6467528376
 30
0.0
  0
VERTEX
  5
3BC
  8
0
  6
CONTINUOUS
 62
     7
 10
179.115256866
 20
124.2751705978
 30
0.0
  0
VERTEX
  5
3BD
  8
0
  6
CONTINUOUS
 62
     7
 10
175.0017091784
 20
124.0136256583
 30
0.0
  0
VERTEX
  5
3BE
  8
0
  6
CONTINUOUS
 62
     7
 10
170.7497005577
 20
123.9326245907
 30
0.0
  0
SEQEND
  5
4AC
  8
0
  6
CONTINUOUS
 62
     7
  0
POLYLINE
  5
1A2
  8
0
  6
CONTINUOUS
 62
     7
 66
     1
 10
0.0
 20
0.0
 30
0.0
 70
   128
  0
VERTEX
  5
3BF
  8
0
  6
CONTINUOUS
 62
     7
 10
147.5534056602
 20
132.1453797913
 30
0.0
  0
VERTEX
  5
3C0
  8
0
  6
CONTINUOUS
 62
     7
 10
147.9111255387
 20
130.3392804033
 30
0.0
  0
VERTEX
  5
3C1
  8
0
  6
CONTINUOUS
 62
     7
 10
148.3927548478
 20
129.4261903166
 30
0.0
  0
VERTEX
  5
3C2
  8
0
  6
CONTINUOUS
 62
     7
 10
149.0974137655
 20
128.5306450304
 30
0.0
  0
VERTEX
  5
3C3
  8
0
  6
CONTINUOUS
 62
     7
 10
150.2059964927
 20
127.5642199563
 30
0.0
  0
VERTEX
  5
3C4
  8
0
  6
CONTINUOUS
 62
     7
 10
151.754110965
 20
126.6460533018
 30
0.0
  0
VERTEX
  5
3C5
  8
0
  6
CONTINUOUS
 62
     7
 10
153.7159496115
 20
125.8508669819
 30
0.0
  0
VERTEX
  5
3C6
  8
0
  6
CONTINUOUS
 62
     7
 10
156.1788368379
 20
125.1751996396
 30
0.0
  0
VERTEX
  5
3C7
  8
0
  6
CONTINUOUS
 62
     7
 10
159.1322340899
 20
124.6467528376
 30
0.0
  0
VERTEX
  5
3C8
  8
0
  6
CONTINUOUS
 62
     7
 10
162.3841442494
 20
124.2751705978
 30
0.0
  0
VERTEX
  5
3C9
  8
0
  6
CONTINUOUS
 62
     7
 10
166.497691937
 20
124.0136256583
 30
0.0
  0
VERTEX
  5
3CA
  8
0
  6
CONTINUOUS
 62
     7
 10
170.7497005577
 20
123.9326245907
 30
0.0
  0
SEQEND
  5
4AD
  8
0
  6
CONTINUOUS
 62
     7
  0
LINE
  5
1A3
  8
0
  6
CONTINUOUS
 62
     7
 10
147.5534056602
 20
132.1453797913
 30
0.0
 11
147.6024335933
 21
132.6234032177
 31
0.0
  0
POLYLINE
  5
1A4
  8
0
  6
CONTINUOUS
 62
     7
 66
     1
 10
0.0
 20
0.0
 30
0.0
 70
   128
  0
VERTEX
  5
3CB
  8
0
  6
CONTINUOUS
 62
     7
 10
191.7574408432
 20
132.1425689594
 30
0.0
  0
VERTEX
  5
3CC
  8
0
  6
CONTINUOUS
 62
     7
 10
191.54355132
 20
131.5054583747
 30
0.0
  0
VERTEX
  5
3CD
  8
0
  6
CONTINUOUS
 62
     7
 10
190.6380981625
 20
130.3941489197
 30
0.0
  0
VERTEX
  5
3CE
  8
0
  6
CONTINUOUS
 62
     7
 10
189.1569110788
 20
129.3028465481
 30
0.0
  0
VERTEX
  5
3CF
  8
0
  6
CONTINUOUS
 62
     7
 10
187.1031956916
 20
128.2833504733
 30
0.0
  0
VERTEX
  5
3D0
  8
0
  6
CONTINUOUS
 62
     7
 10
184.6493249982
 20
127.4212318783
 30
0.0
  0
VERTEX
  5
3D1
  8
0
  6
CONTINUOUS
 62
     7
 10
181.7246955848
 20
126.6916859925
 30
0.0
  0
VERTEX
  5
3D2
  8
0
  6
CONTINUOUS
 62
     7
 10
178.5746973992
 20
126.1559337882
 30
0.0
  0
VERTEX
  5
3D3
  8
0
  6
CONTINUOUS
 62
     7
 10
175.1087638326
 20
125.798580056
 30
0.0
  0
VERTEX
  5
3D4
  8
0
  6
CONTINUOUS
 62
     7
 10
171.6176848212
 20
125.6496173306
 30
0.0
  0
VERTEX
  5
3D5
  8
0
  6
CONTINUOUS
 62
     7
 10
168.0011153922
 20
125.7047769094
 30
0.0
  0
VERTEX
  5
3D6
  8
0
  6
CONTINUOUS
 62
     7
 10
164.5625796079
 20
125.959437308
 30
0.0
  0
VERTEX
  5
3D7
  8
0
  6
CONTINUOUS
 62
     7
 10
161.2031763466
 20
126.4209343342
 30
0.0
  0
VERTEX
  5
3D8
  8
0
  6
CONTINUOUS
 62
     7
 10
158.2049927951
 20
127.0505157467
 30
0.0
  0
VERTEX
  5
3D9
  8
0
  6
CONTINUOUS
 62
     7
 10
155.4816637384
 20
127.8663179096
 30
0.0
  0
VERTEX
  5
3DA
  8
0
  6
CONTINUOUS
 62
     7
 10
153.2619341093
 20
128.7998068859
 30
0.0
  0
VERTEX
  5
3DB
  8
0
  6
CONTINUOUS
 62
     7
 10
151.481776409
 20
129.8778942981
 30
0.0
  0
VERTEX
  5
3DC
  8
0
  6
CONTINUOUS
 62
     7
 10
150.2906991528
 20
131.0100156932
 30
0.0
  0
VERTEX
  5
3DD
  8
0
  6
CONTINUOUS
 62
     7
 10
149.6996705253
 20
132.1419653273
 30
0.0
  0
SEQEND
  5
4AE
  8
0
  6
CONTINUOUS
 62
     7
  0
LINE
  5
1A5
  8
0
  6
CONTINUOUS
 62
     7
 10
147.9666516731
 20
114.9942518198
 30
0.0
 11
148.122445667
 21
111.2787111945
 31
0.0
  0
POLYLINE
  5
1A6
  8
0
  6
CONTINUOUS
 62
     7
 66
     1
 10
0.0
 20
0.0
 30
0.0
 70
   128
  0
VERTEX
  5
3DE
  8
0
  6
CONTINUOUS
 62
     7
 10
147.9666497826
 20
114.9943027547
 30
0.0
  0
VERTEX
  5
3DF
  8
0
  6
CONTINUOUS
 62
     7
 10
147.8126344157
 20
119.5093288926
 30
0.0
  0
VERTEX
  5
3E0
  8
0
  6
CONTINUOUS
 62
     7
 10
147.7990505437
 20
120.0092183537
 30
0.0
  0
SEQEND
  5
4AF
  8
0
  6
CONTINUOUS
 62
     7
  0
ARC
  5
1A7
  8
0
  6
CONTINUOUS
 62
     7
 10
-302.4992576157
 20
134.5753442947
 30
0.0
 40
496.4183428210752
 50
357.73940229
 51
359.1604762262
  0
LINE
  5
1A8
  8
0
  6
CONTINUOUS
 62
     7
 10
193.5327494423
 20
114.9942518198
 30
0.0
 11
193.5080151926
 21
114.4043631662
 31
0.0
  0
POLYLINE
  5
1A9
  8
0
  6
CONTINUOUS
 62
     7
 66
     1
 10
0.0
 20
0.0
 30
0.0
 70
   128
  0
VERTEX
  5
3E1
  8
0
  6
CONTINUOUS
 62
     7
 10
148.4132193107
 20
103.3660649219
 30
0.0
  0
VERTEX
  5
3E2
  8
0
  6
CONTINUOUS
 62
     7
 10
148.4268900034
 20
103.2766208343
 30
0.0
  0
VERTEX
  5
3E3
  8
0
  6
CONTINUOUS
 62
     7
 10
148.4381672331
 20
103.2524592031
 30
0.0
  0
SEQEND
  5
4B0
  8
0
  6
CONTINUOUS
 62
     7
  0
POLYLINE
  5
1AA
  8
0
  6
CONTINUOUS
 62
     7
 66
     1
 10
0.0
 20
0.0
 30
0.0
 70
   128
  0
VERTEX
  5
3E4
  8
0
  6
CONTINUOUS
 62
     7
 10
193.0862044428
 20
103.3660718288
 30
0.0
  0
VERTEX
  5
3E5
  8
0
  6
CONTINUOUS
 62
     7
 10
193.0725123734
 20
103.2767185972
 30
0.0
  0
VERTEX
  5
3E6
  8
0
  6
CONTINUOUS
 62
     7
 10
193.0611958436
 20
103.2524852768
 30
0.0
  0
SEQEND
  5
4B1
  8
0
  6
CONTINUOUS
 62
     7
  0
ARC
  5
1AB
  8
0
  6
CONTINUOUS
 62
     7
 10
149.563827928
 20
132.3216139392
 30
0.0
 40
1.984475876639816
 50
99.2641982207
 51
171.2528017599
  0
ARC
  5
1AC
  8
0
  6
CONTINUOUS
 62
     7
 10
191.9471153331
 20
132.3271493064
 30
0.0
 40
1.972229687117792
 50
8.6392520031
 51
80.5217449502
  0
ARC
  5
1AD
  8
0
  6
CONTINUOUS
 62
     7
 10
150.4116675565
 20
103.0090593133
 30
0.0
 40
1.271289105132247
 50
230.7595662922
 51
267.0581036119
  0
ARC
  5
1AE
  8
0
  6
CONTINUOUS
 62
     7
 10
191.0877335589
 20
103.0090593133
 30
0.0
 40
1.27128910511192
 50
272.9418963879
 51
309.2404456815
  0
POLYLINE
  5
1AF
  8
0
  6
CONTINUOUS
 62
     7
 66
     1
 10
0.0
 20
0.0
 30
0.0
 70
   128
  0
VERTEX
  5
3E7
  8
0
  6
CONTINUOUS
 62
     7
 10
191.8373429549
 20
101.9822585694
 30
0.0
  0
VERTEX
  5
3E8
  8
0
  6
CONTINUOUS
 62
     7
 10
191.6157763569
 20
101.8524683189
 30
0.0
  0
VERTEX
  5
3E9
  8
0
  6
CONTINUOUS
 62
     7
 10
191.487707317
 20
101.8211224981
 30
0.0
  0
SEQEND
  5
4B2
  8
0
  6
CONTINUOUS
 62
     7
  0
POLYLINE
  5
1B0
  8
0
  6
CONTINUOUS
 62
     7
 66
     1
 10
0.0
 20
0.0
 30
0.0
 70
   128
  0
VERTEX
  5
3EA
  8
0
  6
CONTINUOUS
 62
     7
 10
190.7826001055
 20
101.6747069582
 30
0.0
  0
VERTEX
  5
3EB
  8
0
  6
CONTINUOUS
 62
     7
 10
190.7630523918
 20
101.6725052068
 30
0.0
  0
VERTEX
  5
3EC
  8
0
  6
CONTINUOUS
 62
     7
 10
190.546537567
 20
101.6625804742
 30
0.0
  0
SEQEND
  5
4B3
  8
0
  6
CONTINUOUS
 62
     7
  0
ARC
  5
1B1
  8
0
  6
CONTINUOUS
 62
     7
 10
150.8665028113
 20
103.4167597597
 30
0.0
 40
1.756303829785047
 50
252.7912875998
 51
272.8184769744
  0
LINE
  5
1B2
  8
0
  6
CONTINUOUS
 62
     7
 10
179.3592846369
 20
101.3426624719
 30
0.0
 11
179.3586441969
 21
101.3411723663
 31
0.0
  0
LINE
  5
1B3
  8
0
  6
CONTINUOUS
 62
     8
 10
115.7428470572
 20
173.417964193
 30
0.0
 11
116.0764077768
 21
160.6797942299
 31
0.0
  0
POLYLINE
  5
1B4
  8
0
  6
CONTINUOUS
 62
     8
 66
     1
 10
0.0
 20
0.0
 30
0.0
 70
   128
  0
VERTEX
  5
3ED
  8
0
  6
CONTINUOUS
 62
     8
 10
96.0832612773
 20
160.6797942299
 30
0.0
  0
VERTEX
  5
3EE
  8
0
  6
CONTINUOUS
 62
     8
 10
96.358365942
 20
160.6956800127
 30
0.0
  0
VERTEX
  5
3EF
  8
0
  6
CONTINUOUS
 62
     8
 10
97.208897948
 20
160.7085556024
 30
0.0
  0
VERTEX
  5
3F0
  8
0
  6
CONTINUOUS
 62
     8
 10
98.563808398
 20
160.7173379206
 30
0.0
  0
VERTEX
  5
3F1
  8
0
  6
CONTINUOUS
 62
     8
 10
100.4622653647
 20
160.7222760728
 30
0.0
  0
VERTEX
  5
3F2
  8
0
  6
CONTINUOUS
 62
     8
 10
102.7432816152
 20
160.7229544849
 30
0.0
  0
VERTEX
  5
3F3
  8
0
  6
CONTINUOUS
 62
     8
 10
105.4736091187
 20
160.7193969772
 30
0.0
  0
VERTEX
  5
3F4
  8
0
  6
CONTINUOUS
 62
     8
 10
108.4230850863
 20
160.7119059349
 30
0.0
  0
VERTEX
  5
3F5
  8
0
  6
CONTINUOUS
 62
     8
 10
111.6772496801
 20
160.700267739
 30
0.0
  0
VERTEX
  5
3F6
  8
0
  6
CONTINUOUS
 62
     8
 10
113.8496753706
 20
160.6908036842
 30
0.0
  0
VERTEX
  5
3F7
  8
0
  6
CONTINUOUS
 62
     8
 10
116.0764077768
 20
160.6797942299
 30
0.0
  0
SEQEND
  5
4B4
  8
0
  6
CONTINUOUS
 62
     8
  0
POLYLINE
  5
1B5
  8
0
  6
CONTINUOUS
 62
     8
 66
     1
 10
0.0
 20
0.0
 30
0.0
 70
   128
  0
VERTEX
  5
3F8
  8
0
  6
CONTINUOUS
 62
     8
 10
225.4229933386
 20
160.6797942299
 30
0.0
  0
VERTEX
  5
3F9
  8
0
  6
CONTINUOUS
 62
     8
 10
228.7321005536
 20
160.6956800127
 30
0.0
  0
VERTEX
  5
3FA
  8
0
  6
CONTINUOUS
 62
     8
 10
232.041302429
 20
160.7085556024
 30
0.0
  0
VERTEX
  5
3FB
  8
0
  6
CONTINUOUS
 62
     8
 10
235.0730376273
 20
160.7173379206
 30
0.0
  0
VERTEX
  5
3FC
  8
0
  6
CONTINUOUS
 62
     8
 10
237.9142715157
 20
160.7222760728
 30
0.0
  0
VERTEX
  5
3FD
  8
0
  6
CONTINUOUS
 62
     8
 10
240.3248040134
 20
160.7229544849
 30
0.0
  0
VERTEX
  5
3FE
  8
0
  6
CONTINUOUS
 62
     8
 10
242.3759535587
 20
160.7193969772
 30
0.0
  0
VERTEX
  5
3FF
  8
0
  6
CONTINUOUS
 62
     8
 10
243.8951949139
 20
160.7119059349
 30
0.0
  0
VERTEX
  5
400
  8
0
  6
CONTINUOUS
 62
     8
 10
244.9270802908
 20
160.700267739
 30
0.0
  0
VERTEX
  5
401
  8
0
  6
CONTINUOUS
 62
     8
 10
245.2921487252
 20
160.6908036842
 30
0.0
  0
VERTEX
  5
402
  8
0
  6
CONTINUOUS
 62
     8
 10
245.4161398381
 20
160.6797942299
 30
0.0
  0
SEQEND
  5
4B5
  8
0
  6
CONTINUOUS
 62
     8
  0
LINE
  5
1B6
  8
0
  6
CONTINUOUS
 62
     8
 10
225.4229933386
 20
160.6797942299
 30
0.0
 11
225.7565540582
 21
173.417964193
 31
0.0
  0
POLYLINE
  5
1B7
  8
0
  6
CONTINUOUS
 62
     8
 66
     1
 10
0.0
 20
0.0
 30
0.0
 70
   128
  0
VERTEX
  5
403
  8
0
  6
CONTINUOUS
 62
     8
 10
116.0764077768
 20
160.6797942299
 30
0.0
  0
VERTEX
  5
404
  8
0
  6
CONTINUOUS
 62
     8
 10
116.0741827055
 20
160.3947165876
 30
0.0
  0
VERTEX
  5
405
  8
0
  6
CONTINUOUS
 62
     8
 10
116.0720392176
 20
160.1215311442
 30
0.0
  0
VERTEX
  5
406
  8
0
  6
CONTINUOUS
 62
     8
 10
116.0700559051
 20
159.8702543794
 30
0.0
  0
VERTEX
  5
407
  8
0
  6
CONTINUOUS
 62
     8
 10
116.0683054871
 20
159.65009948
 30
0.0
  0
VERTEX
  5
408
  8
0
  6
CONTINUOUS
 62
     8
 10
116.0668521435
 20
159.4691385343
 30
0.0
  0
VERTEX
  5
409
  8
0
  6
CONTINUOUS
 62
     8
 10
116.065749162
 20
159.3340065651
 30
0.0
  0
VERTEX
  5
40A
  8
0
  6
CONTINUOUS
 62
     8
 10
116.0650369838
 20
159.2496582529
 30
0.0
  0
VERTEX
  5
40B
  8
0
  6
CONTINUOUS
 62
     8
 10
116.0647417214
 20
159.2191862702
 30
0.0
  0
SEQEND
  5
4B6
  8
0
  6
CONTINUOUS
 62
     8
  0
LINE
  5
1B8
  8
0
  6
CONTINUOUS
 62
     8
 10
97.6354610062
 20
159.2248713632
 30
0.0
 11
97.5671350767
 21
159.2191862702
 31
0.0
  0
ARC
  5
1B9
  8
0
  6
CONTINUOUS
 62
     8
 10
97.5827220254
 20
160.7190806001
 30
0.0
 40
1.499975317796154
 50
181.5008251198
 51
269.4046019041
  0
LINE
  5
1BA
  8
0
  6
CONTINUOUS
 62
     8
 10
243.9322660387
 20
159.2191862702
 30
0.0
 11
243.8816436942
 21
159.225961367
 31
0.0
  0
POLYLINE
  5
1BB
  8
0
  6
CONTINUOUS
 62
     8
 66
     1
 10
0.0
 20
0.0
 30
0.0
 70
   128
  0
VERTEX
  5
40C
  8
0
  6
CONTINUOUS
 62
     8
 10
225.4229933386
 20
160.6797942299
 30
0.0
  0
VERTEX
  5
40D
  8
0
  6
CONTINUOUS
 62
     8
 10
225.4252184099
 20
160.3947165876
 30
0.0
  0
VERTEX
  5
40E
  8
0
  6
CONTINUOUS
 62
     8
 10
225.4273618978
 20
160.1215311442
 30
0.0
  0
VERTEX
  5
40F
  8
0
  6
CONTINUOUS
 62
     8
 10
225.4293452103
 20
159.8702543794
 30
0.0
  0
VERTEX
  5
410
  8
0
  6
CONTINUOUS
 62
     8
 10
225.4310956283
 20
159.65009948
 30
0.0
  0
VERTEX
  5
411
  8
0
  6
CONTINUOUS
 62
     8
 10
225.4325489719
 20
159.4691385343
 30
0.0
  0
VERTEX
  5
412
  8
0
  6
CONTINUOUS
 62
     8
 10
225.4336519534
 20
159.3340065651
 30
0.0
  0
VERTEX
  5
413
  8
0
  6
CONTINUOUS
 62
     8
 10
225.4343641316
 20
159.2496582529
 30
0.0
  0
VERTEX
  5
414
  8
0
  6
CONTINUOUS
 62
     8
 10
225.434659394
 20
159.2191862702
 30
0.0
  0
SEQEND
  5
4B7
  8
0
  6
CONTINUOUS
 62
     8
  0
ARC
  5
1BC
  8
0
  6
CONTINUOUS
 62
     8
 10
243.91667909
 20
160.7190806001
 30
0.0
 40
1.499975317798029
 50
270.595398096
 51
358.4991748801
  0
POLYLINE
  5
1BD
  8
0
  6
CONTINUOUS
 62
     8
 66
     1
 10
0.0
 20
0.0
 30
0.0
 70
   128
  0
VERTEX
  5
415
  8
0
  6
CONTINUOUS
 62
     8
 10
116.0764077768
 20
160.6797942299
 30
0.0
  0
VERTEX
  5
416
  8
0
  6
CONTINUOUS
 62
     8
 10
161.7469489462
 20
160.4729797436
 30
0.0
  0
VERTEX
  5
417
  8
0
  6
CONTINUOUS
 62
     8
 10
207.4197996971
 20
160.5628175998
 30
0.0
  0
VERTEX
  5
418
  8
0
  6
CONTINUOUS
 62
     8
 10
225.4229933386
 20
160.6797942299
 30
0.0
  0
SEQEND
  5
4B8
  8
0
  6
CONTINUOUS
 62
     8
  0
POLYLINE
  5
1BE
  8
0
  6
CONTINUOUS
 62
     8
 66
     1
 10
0.0
 20
0.0
 30
0.0
 70
   128
  0
VERTEX
  5
419
  8
0
  6
CONTINUOUS
 62
     8
 10
225.434659394
 20
159.2191862702
 30
0.0
  0
VERTEX
  5
41A
  8
0
  6
CONTINUOUS
 62
     8
 10
207.4276202139
 20
159.1021845683
 30
0.0
  0
VERTEX
  5
41B
  8
0
  6
CONTINUOUS
 62
     8
 10
161.7469552689
 20
159.0123249934
 30
0.0
  0
VERTEX
  5
41C
  8
0
  6
CONTINUOUS
 62
     8
 10
116.0647417214
 20
159.2191862702
 30
0.0
  0
SEQEND
  5
4B9
  8
0
  6
CONTINUOUS
 62
     8
  0
POLYLINE
  5
1BF
  8
0
  6
CONTINUOUS
 62
     8
 66
     1
 10
0.0
 20
0.0
 30
0.0
 70
   128
  0
VERTEX
  5
41D
  8
0
  6
CONTINUOUS
 62
     8
 10
97.5671350767
 20
159.2191862702
 30
0.0
  0
VERTEX
  5
41E
  8
0
  6
CONTINUOUS
 62
     8
 10
97.5702069727
 20
159.1021845683
 30
0.0
  0
VERTEX
  5
41F
  8
0
  6
CONTINUOUS
 62
     8
 10
97.5721031728
 20
159.0300348496
 30
0.0
  0
SEQEND
  5
4BA
  8
0
  6
CONTINUOUS
 62
     8
  0
POLYLINE
  5
1C0
  8
0
  6
CONTINUOUS
 62
     8
 66
     1
 10
0.0
 20
0.0
 30
0.0
 70
   128
  0
VERTEX
  5
420
  8
0
  6
CONTINUOUS
 62
     8
 10
243.9272979351
 20
159.0300345644
 30
0.0
  0
VERTEX
  5
421
  8
0
  6
CONTINUOUS
 62
     8
 10
243.9268325017
 20
159.0123249934
 30
0.0
  0
VERTEX
  5
422
  8
0
  6
CONTINUOUS
 62
     8
 10
243.9322660387
 20
159.2191862702
 30
0.0
  0
SEQEND
  5
4BB
  8
0
  6
CONTINUOUS
 62
     8
  0
LINE
  5
1C1
  8
0
  6
CONTINUOUS
 62
     8
 10
149.539410426
 20
132.6234032177
 30
0.0
 11
147.6024335933
 21
132.6234032177
 31
0.0
  0
LINE
  5
1C2
  8
0
  6
CONTINUOUS
 62
     8
 10
193.8969675221
 20
132.6234032177
 30
0.0
 11
191.9599906894
 21
132.6234032177
 31
0.0
  0
POLYLINE
  5
1C3
  8
0
  6
CONTINUOUS
 62
     8
 66
     1
 10
0.0
 20
0.0
 30
0.0
 70
   128
  0
VERTEX
  5
423
  8
0
  6
CONTINUOUS
 62
     8
 10
148.4308416846
 20
103.9244591591
 30
0.0
  0
VERTEX
  5
424
  8
0
  6
CONTINUOUS
 62
     8
 10
148.4770140409
 20
103.9611531347
 30
0.0
  0
VERTEX
  5
425
  8
0
  6
CONTINUOUS
 62
     8
 10
148.5339445431
 20
104.0044686113
 30
0.0
  0
VERTEX
  5
426
  8
0
  6
CONTINUOUS
 62
     8
 10
148.6514677508
 20
104.0550373351
 30
0.0
  0
VERTEX
  5
427
  8
0
  6
CONTINUOUS
 62
     8
 10
149.0066514107
 20
104.0962039019
 30
0.0
  0
VERTEX
  5
428
  8
0
  6
CONTINUOUS
 62
     8
 10
149.8124160807
 20
104.1339506115
 30
0.0
  0
VERTEX
  5
429
  8
0
  6
CONTINUOUS
 62
     8
 10
151.1355254484
 20
104.1626813978
 30
0.0
  0
VERTEX
  5
42A
  8
0
  6
CONTINUOUS
 62
     8
 10
152.9127745265
 20
104.1782344051
 30
0.0
  0
VERTEX
  5
42B
  8
0
  6
CONTINUOUS
 62
     8
 10
155.0495552557
 20
104.1796521601
 30
0.0
  0
VERTEX
  5
42C
  8
0
  6
CONTINUOUS
 62
     8
 10
157.36680595
 20
104.1697649958
 30
0.0
  0
VERTEX
  5
42D
  8
0
  6
CONTINUOUS
 62
     8
 10
159.7075029394
 20
104.1511785042
 30
0.0
  0
VERTEX
  5
42E
  8
0
  6
CONTINUOUS
 62
     8
 10
161.9696422891
 20
104.1277702708
 30
0.0
  0
VERTEX
  5
42F
  8
0
  6
CONTINUOUS
 62
     8
 10
170.7497005577
 20
104.0703220393
 30
0.0
  0
SEQEND
  5
4BC
  8
0
  6
CONTINUOUS
 62
     8
  0
LINE
  5
1C4
  8
0
  6
CONTINUOUS
 62
     8
 10
148.122445667
 20
111.2787111945
 30
0.0
 11
148.4308172415
 21
103.9243383784
 31
0.0
  0
LINE
  5
1C5
  8
0
  6
CONTINUOUS
 62
     8
 10
170.7497005577
 20
104.0703220393
 30
0.0
 11
170.7497005577
 21
123.9326245907
 31
0.0
  0
LINE
  5
1C6
  8
0
  6
CONTINUOUS
 62
     8
 10
193.5080151926
 20
114.4043631662
 30
0.0
 11
193.0685838739
 21
103.9243383784
 31
0.0
  0
POLYLINE
  5
1C7
  8
0
  6
CONTINUOUS
 62
     8
 66
     1
 10
0.0
 20
0.0
 30
0.0
 70
   128
  0
VERTEX
  5
430
  8
0
  6
CONTINUOUS
 62
     8
 10
193.0685594308
 20
103.9244591591
 30
0.0
  0
VERTEX
  5
431
  8
0
  6
CONTINUOUS
 62
     8
 10
193.0223870745
 20
103.9611531347
 30
0.0
  0
VERTEX
  5
432
  8
0
  6
CONTINUOUS
 62
     8
 10
192.9654565723
 20
104.0044686113
 30
0.0
  0
VERTEX
  5
433
  8
0
  6
CONTINUOUS
 62
     8
 10
192.8479333646
 20
104.0550373351
 30
0.0
  0
VERTEX
  5
434
  8
0
  6
CONTINUOUS
 62
     8
 10
192.4927497047
 20
104.0962039019
 30
0.0
  0
VERTEX
  5
435
  8
0
  6
CONTINUOUS
 62
     8
 10
191.6869850347
 20
104.1339506115
 30
0.0
  0
VERTEX
  5
436
  8
0
  6
CONTINUOUS
 62
     8
 10
190.363875667
 20
104.1626813978
 30
0.0
  0
VERTEX
  5
437
  8
0
  6
CONTINUOUS
 62
     8
 10
188.5866265889
 20
104.1782344051
 30
0.0
  0
VERTEX
  5
438
  8
0
  6
CONTINUOUS
 62
     8
 10
186.4498458597
 20
104.1796521601
 30
0.0
  0
VERTEX
  5
439
  8
0
  6
CONTINUOUS
 62
     8
 10
184.1325951654
 20
104.1697649958
 30
0.0
  0
VERTEX
  5
43A
  8
0
  6
CONTINUOUS
 62
     8
 10
181.791898176
 20
104.1511785042
 30
0.0
  0
VERTEX
  5
43B
  8
0
  6
CONTINUOUS
 62
     8
 10
179.5297588263
 20
104.1277702708
 30
0.0
  0
VERTEX
  5
43C
  8
0
  6
CONTINUOUS
 62
     8
 10
170.7497005577
 20
104.0703220393
 30
0.0
  0
SEQEND
  5
4BD
  8
0
  6
CONTINUOUS
 62
     8
  0
LINE
  5
1C8
  8
0
  6
CONTINUOUS
 62
     8
 10
148.1997005577
 20
138.552573781
 30
0.0
 11
193.2997005577
 21
138.552573781
 31
0.0
  0
LINE
  5
1C9
  8
0
  6
CONTINUOUS
 62
     8
 10
148.4404592374
 20
138.0242770749
 30
0.0
 11
193.058941878
 21
138.0242770749
 31
0.0
  0
LINE
  5
1CA
  8
0
  6
CONTINUOUS
 62
     8
 10
148.5219641968
 20
137.9534258946
 30
0.0
 11
192.9774369186
 21
137.9534258946
 31
0.0
  0
LINE
  5
1CB
  8
0
  6
CONTINUOUS
 62
     8
 10
148.7619200758
 20
137.4586445066
 30
0.0
 11
192.7374810396
 21
137.4586445066
 31
0.0
  0
POLYLINE
  5
1CC
  8
0
  6
CONTINUOUS
 62
     8
 66
     1
 10
0.0
 20
0.0
 30
0.0
 70
   128
  0
VERTEX
  5
43D
  8
0
  6
CONTINUOUS
 62
     8
 10
170.7497002015
 20
102.8250807033
 30
0.0
  0
VERTEX
  5
43E
  8
0
  6
CONTINUOUS
 62
     8
 10
162.0105466118
 20
102.8271490017
 30
0.0
  0
VERTEX
  5
43F
  8
0
  6
CONTINUOUS
 62
     8
 10
159.8209490809
 20
102.8299879783
 30
0.0
  0
VERTEX
  5
440
  8
0
  6
CONTINUOUS
 62
     8
 10
157.6446236371
 20
102.8325295217
 30
0.0
  0
VERTEX
  5
441
  8
0
  6
CONTINUOUS
 62
     8
 10
155.5480467279
 20
102.8314348177
 30
0.0
  0
VERTEX
  5
442
  8
0
  6
CONTINUOUS
 62
     8
 10
153.6437612983
 20
102.824538735
 30
0.0
  0
VERTEX
  5
443
  8
0
  6
CONTINUOUS
 62
     8
 10
152.0695552173
 20
102.809923265
 30
0.0
  0
VERTEX
  5
444
  8
0
  6
CONTINUOUS
 62
     8
 10
150.9004023433
 20
102.7887367495
 30
0.0
  0
VERTEX
  5
445
  8
0
  6
CONTINUOUS
 62
     8
 10
150.1889164901
 20
102.7639996389
 30
0.0
  0
VERTEX
  5
446
  8
0
  6
CONTINUOUS
 62
     8
 10
149.875685759
 20
102.7382525296
 30
0.0
  0
VERTEX
  5
447
  8
0
  6
CONTINUOUS
 62
     8
 10
149.7576547851
 20
102.6902909492
 30
0.0
  0
VERTEX
  5
448
  8
0
  6
CONTINUOUS
 62
     8
 10
149.6917583665
 20
102.6399027429
 30
0.0
  0
SEQEND
  5
4BE
  8
0
  6
CONTINUOUS
 62
     8
  0
ARC
  5
1CD
  8
0
  6
CONTINUOUS
 62
     8
 10
149.7769073708
 20
103.984618652
 30
0.0
 40
1.347406628536611
 50
182.5590323474
 51
266.3769126859
  0
POLYLINE
  5
1CE
  8
0
  6
CONTINUOUS
 62
     8
 66
     1
 10
0.0
 20
0.0
 30
0.0
 70
   128
  0
VERTEX
  5
449
  8
0
  6
CONTINUOUS
 62
     8
 10
170.7497005577
 20
104.0703220393
 30
0.0
  0
VERTEX
  5
44A
  8
0
  6
CONTINUOUS
 62
     8
 10
170.7497005379
 20
103.834666267
 30
0.0
  0
VERTEX
  5
44B
  8
0
  6
CONTINUOUS
 62
     8
 10
170.749700509
 20
103.6112388973
 30
0.0
  0
VERTEX
  5
44C
  8
0
  6
CONTINUOUS
 62
     8
 10
170.7497004717
 20
103.4061196412
 30
0.0
  0
VERTEX
  5
44D
  8
0
  6
CONTINUOUS
 62
     8
 10
170.749700427
 20
103.2248900254
 30
0.0
  0
VERTEX
  5
44E
  8
0
  6
CONTINUOUS
 62
     8
 10
170.7497003762
 20
103.0724815123
 30
0.0
  0
VERTEX
  5
44F
  8
0
  6
CONTINUOUS
 62
     8
 10
170.7497003207
 20
102.9530413097
 30
0.0
  0
VERTEX
  5
450
  8
0
  6
CONTINUOUS
 62
     8
 10
170.7497002619
 20
102.8698195204
 30
0.0
  0
VERTEX
  5
451
  8
0
  6
CONTINUOUS
 62
     8
 10
170.7497002015
 20
102.8250807033
 30
0.0
  0
SEQEND
  5
4BF
  8
0
  6
CONTINUOUS
 62
     8
  0
ARC
  5
1CF
  8
0
  6
CONTINUOUS
 62
     8
 10
191.7221932466
 20
103.9847653333
 30
0.0
 40
1.347566449839132
 50
273.6202609168
 51
357.4260994363
  0
POLYLINE
  5
1D0
  8
0
  6
CONTINUOUS
 62
     8
 66
     1
 10
0.0
 20
0.0
 30
0.0
 70
   128
  0
VERTEX
  5
452
  8
0
  6
CONTINUOUS
 62
     8
 10
170.7497009139
 20
102.8250807033
 30
0.0
  0
VERTEX
  5
453
  8
0
  6
CONTINUOUS
 62
     8
 10
179.4888545036
 20
102.8271490017
 30
0.0
  0
VERTEX
  5
454
  8
0
  6
CONTINUOUS
 62
     8
 10
181.6784520345
 20
102.8299879783
 30
0.0
  0
VERTEX
  5
455
  8
0
  6
CONTINUOUS
 62
     8
 10
183.8547774783
 20
102.8325295217
 30
0.0
  0
VERTEX
  5
456
  8
0
  6
CONTINUOUS
 62
     8
 10
185.9513543875
 20
102.8314348177
 30
0.0
  0
VERTEX
  5
457
  8
0
  6
CONTINUOUS
 62
     8
 10
187.8556398171
 20
102.824538735
 30
0.0
  0
VERTEX
  5
458
  8
0
  6
CONTINUOUS
 62
     8
 10
189.4298458981
 20
102.809923265
 30
0.0
  0
VERTEX
  5
459
  8
0
  6
CONTINUOUS
 62
     8
 10
190.5989987721
 20
102.7887367495
 30
0.0
  0
VERTEX
  5
45A
  8
0
  6
CONTINUOUS
 62
     8
 10
191.3104846253
 20
102.7639996389
 30
0.0
  0
VERTEX
  5
45B
  8
0
  6
CONTINUOUS
 62
     8
 10
191.6237153564
 20
102.7382525296
 30
0.0
  0
VERTEX
  5
45C
  8
0
  6
CONTINUOUS
 62
     8
 10
191.7417463303
 20
102.6902909492
 30
0.0
  0
VERTEX
  5
45D
  8
0
  6
CONTINUOUS
 62
     8
 10
191.8076427489
 20
102.6399027429
 30
0.0
  0
SEQEND
  5
4C0
  8
0
  6
CONTINUOUS
 62
     8
  0
LINE
  5
1D1
  8
0
  6
CONTINUOUS
 62
     8
 10
170.7497005577
 20
102.8250807033
 30
0.0
 11
170.7497005577
 21
102.0920646725
 31
0.0
  0
ARC
  5
1D2
  8
0
  6
CONTINUOUS
 62
     8
 10
168.9992077175
 20
439.7960474505
 30
0.0
 40
337.7085195983755
 50
266.7225322324
 51
270.2969907335
  0
ARC
  5
1D3
  8
0
  6
CONTINUOUS
 62
     8
 10
172.5001933979
 20
439.7960474505
 30
0.0
 40
337.7085195983749
 50
269.7030092665
 51
273.2774677676
  0
LINE
  5
1D4
  8
0
  6
CONTINUOUS
 62
     8
 10
148.3754514226
 20
103.7953443401
 30
0.0
 11
148.4310009384
 21
103.9242489118
 31
0.0
  0
LINE
  5
1D5
  8
0
  6
CONTINUOUS
 62
     8
 10
193.1239496928
 20
103.7953443401
 30
0.0
 11
193.068400177
 21
103.9242489118
 31
0.0
  0
LINE
  5
1D6
  8
0
  6
CONTINUOUS
 62
     8
 10
149.69211059
 20
102.6398805121
 30
0.0
 11
149.5662119175
 21
102.4164877931
 31
0.0
  0
LINE
  5
1D7
  8
0
  6
CONTINUOUS
 62
     8
 10
170.7497005577
 20
101.3048438929
 30
0.0
 11
170.7497005577
 21
102.0920646725
 31
0.0
  0
LINE
  5
1D8
  8
0
  6
CONTINUOUS
 62
     8
 10
170.7497005577
 20
101.3048438929
 30
0.0
 11
162.1292344727
 21
101.367981529
 31
0.0
  0
LINE
  5
1D9
  8
0
  6
CONTINUOUS
 62
     8
 10
150.3468945926
 20
101.7390797021
 30
0.0
 11
162.1292344727
 21
101.367981529
 31
0.0
  0
POLYLINE
  5
1DA
  8
0
  6
CONTINUOUS
 62
     8
 66
     1
 10
0.0
 20
0.0
 30
0.0
 70
   128
  0
VERTEX
  5
45E
  8
0
  6
CONTINUOUS
 62
     8
 10
149.5666849377
 20
102.4164818601
 30
0.0
  0
VERTEX
  5
45F
  8
0
  6
CONTINUOUS
 62
     8
 10
149.9316252021
 20
102.0779613298
 30
0.0
  0
VERTEX
  5
460
  8
0
  6
CONTINUOUS
 62
     8
 10
150.3464177087
 20
101.7394484194
 30
0.0
  0
SEQEND
  5
4C1
  8
0
  6
CONTINUOUS
 62
     8
  0
LINE
  5
1DB
  8
0
  6
CONTINUOUS
 62
     8
 10
191.1525065228
 20
101.7390797021
 30
0.0
 11
179.3701666427
 21
101.367981529
 31
0.0
  0
LINE
  5
1DC
  8
0
  6
CONTINUOUS
 62
     8
 10
170.7497005577
 20
101.3048438929
 30
0.0
 11
179.3701666427
 21
101.367981529
 31
0.0
  0
LINE
  5
1DD
  8
0
  6
CONTINUOUS
 62
     8
 10
191.8072905254
 20
102.6398805121
 30
0.0
 11
191.9331891979
 21
102.4164877931
 31
0.0
  0
POLYLINE
  5
1DE
  8
0
  6
CONTINUOUS
 62
     8
 66
     1
 10
0.0
 20
0.0
 30
0.0
 70
   128
  0
VERTEX
  5
461
  8
0
  6
CONTINUOUS
 62
     8
 10
191.9327161777
 20
102.4164818601
 30
0.0
  0
VERTEX
  5
462
  8
0
  6
CONTINUOUS
 62
     8
 10
191.5681064967
 20
102.0779761743
 30
0.0
  0
VERTEX
  5
463
  8
0
  6
CONTINUOUS
 62
     8
 10
191.1529834067
 20
101.7394484194
 30
0.0
  0
SEQEND
  5
4C2
  8
0
  6
CONTINUOUS
 62
     8
  0
ARC
  5
1DF
  8
0
  6
CONTINUOUS
 62
     8
 10
149.6379396774
 20
103.6923409892
 30
0.0
 40
1.277869282739103
 50
200.134839453
 51
266.8036218441
  0
ARC
  5
1E0
  8
0
  6
CONTINUOUS
 62
     8
 10
191.860998908
 20
103.6929306088
 30
0.0
 40
1.27846187843563
 50
273.2157822591
 51
339.8479967623
  0
ARC
  5
1E1
  8
0
  6
CONTINUOUS
 62
     8
 10
150.4117475632
 20
103.0090992378
 30
0.0
 40
1.271370637464679
 50
176.944934492
 51
230.7579119208
  0
ARC
  5
1E2
  8
0
  6
CONTINUOUS
 62
     8
 10
150.359595178
 20
102.8523371812
 30
0.0
 40
1.113329916461906
 50
228.6090886765
 51
269.346369548
  0
POLYLINE
  5
1E3
  8
0
  6
CONTINUOUS
 62
     8
 66
     1
 10
0.0
 20
0.0
 30
0.0
 70
   128
  0
VERTEX
  5
464
  8
0
  6
CONTINUOUS
 62
     8
 10
191.152506599
 20
101.7390797061
 30
0.0
  0
VERTEX
  5
465
  8
0
  6
CONTINUOUS
 62
     8
 10
191.0738647148
 20
101.7075134685
 30
0.0
  0
VERTEX
  5
466
  8
0
  6
CONTINUOUS
 62
     8
 10
190.7826001055
 20
101.6747069582
 30
0.0
  0
SEQEND
  5
4C3
  8
0
  6
CONTINUOUS
 62
     8
  0
LINE
  5
1E4
  8
0
  6
CONTINUOUS
 62
     8
 10
179.3701666427
 20
101.367981529
 30
0.0
 11
179.3592846369
 21
101.3426624719
 31
0.0
  0
LINE
  5
1E5
  8
0
  6
CONTINUOUS
 62
     8
 10
162.1292344727
 20
101.367981529
 30
0.0
 11
162.1407562405
 21
101.3410296582
 31
0.0
  0
LINE
  5
1E6
  8
0
  6
CONTINUOUS
 62
     8
 10
170.7497005577
 20
101.2869138114
 30
0.0
 11
170.7497005577
 21
101.3048438929
 31
0.0
  0
ENDSEC
  0
EOF
