  0
SECTION
  2
HEADER
  9
$ACADVER
  1
AC1009
  9
$DWGCODEPAGE
  3
ansi_1252
  9
$INSBASE
 10
0.0
 20
0.0
 30
0.0
  9
$EXTMIN
 10
0.0
 20
0.0
 30
0.0
  9
$EXTMAX
 10
594.0
 20
841.0
 30
0.0
  9
$LIMMIN
 10
0.0
 20
0.0
  9
$LIMMAX
 10
594.0
 20
841.0
  9
$ORTHOMODE
 70
     0
  9
$REGENMODE
 70
     1
  9
$FILLMODE
 70
     1
  9
$QTEXTMODE
 70
     0
  9
$MIRRTEXT
 70
     1
  9
$DRAGMODE
 70
     2
  9
$LTSCALE
 40
1.0
  9
$OSMODE
 70
    37
  9
$ATTMODE
 70
     1
  9
$TEXTSIZE
 40
10.0
  9
$TRACEWID
 40
1.0
  9
$TEXTSTYLE
  7
STANDARD
  9
$CLAYER
  8
0
  9
$CELTYPE
  6
BYLAYER
  9
$CECOLOR
 62
   256
  9
$DIMSCALE
 40
1.0
  9
$DIMASZ
 40
2.5
  9
$DIMEXO
 40
0.0
  9
$DIMDLI
 40
3.75
  9
$DIMRND
 40
0.0
  9
$DIMDLE
 40
0.0
  9
$DIMEXE
 40
1.0
  9
$DIMTP
 40
0.0
  9
$DIMTM
 40
0.0
  9
$DIMTXT
 40
3.5
  9
$DIMCEN
 40
2.5
  9
$DIMTSZ
 40
0.0
  9
$DIMTOL
 70
     0
  9
$DIMLIM
 70
     0
  9
$DIMTIH
 70
     1
  9
$DIMTOH
 70
     1
  9
$DIMSE1
 70
     0
  9
$DIMSE2
 70
     0
  9
$DIMTAD
 70
     1
  9
$DIMZIN
 70
     0
  9
$DIMBLK
  1

  9
$DIMASO
 70
     1
  9
$DIMSHO
 70
     1
  9
$DIMPOST
  1

  9
$DIMAPOST
  1

  9
$DIMALT
 70
     0
  9
$DIMALTD
 70
     3
  9
$DIMALTF
 40
0.0393700787
  9
$DIMLFAC
 40
1.0
  9
$DIMTOFL
 70
     1
  9
$DIMTVP
 40
0.0
  9
$DIMTIX
 70
     0
  9
$DIMSOXD
 70
     0
  9
$DIMSAH
 70
     0
  9
$DIMBLK1
  1

  9
$DIMBLK2
  1

  9
$DIMSTYLE
  2
ISO-25
  9
$DIMCLRD
 70
     0
  9
$DIMCLRE
 70
     0
  9
$DIMCLRT
 70
     0
  9
$DIMTFAC
 40
1.0
  9
$DIMGAP
 40
1.5
  9
$LUNITS
 70
     2
  9
$LUPREC
 70
     2
  9
$SKETCHINC
 40
1.0
  9
$FILLETRAD
 40
10.0
  9
$AUNITS
 70
     0
  9
$AUPREC
 70
     2
  9
$MENU
  1
.
  9
$ELEVATION
 40
0.0
  9
$PELEVATION
 40
0.0
  9
$THICKNESS
 40
0.0
  9
$LIMCHECK
 70
     0
  9
$CHAMFERA
 40
0.0
  9
$CHAMFERB
 40
0.0
  9
$SKPOLY
 70
     0
  9
$TDCREATE
 40
2458723.46582478
  9
$TDUPDATE
 40
2458723.465825139
  9
$TDINDWG
 40
0.0000000116
  9
$TDUSRTIMER
 40
0.0000000116
  9
$USRTIMER
 70
     1
  9
$ANGBASE
 50
0.0
  9
$ANGDIR
 70
     0
  9
$PDMODE
 70
     0
  9
$PDSIZE
 40
-1.0
  9
$PLINEWID
 40
0.0
  9
$COORDS
 70
     1
  9
$SPLFRAME
 70
     0
  9
$SPLINETYPE
 70
     6
  9
$SPLINESEGS
 70
     8
  9
$ATTDIA
 70
     0
  9
$ATTREQ
 70
     1
  9
$HANDLING
 70
     1
  9
$HANDSEED
  5
2FD
  9
$SURFTAB1
 70
     6
  9
$SURFTAB2
 70
     6
  9
$SURFTYPE
 70
     6
  9
$SURFU
 70
     6
  9
$SURFV
 70
     6
  9
$UCSNAME
  2

  9
$UCSORG
 10
0.0
 20
0.0
 30
0.0
  9
$UCSXDIR
 10
1.0
 20
0.0
 30
0.0
  9
$UCSYDIR
 10
0.0
 20
1.0
 30
0.0
  9
$PUCSNAME
  2

  9
$PUCSORG
 10
0.0
 20
0.0
 30
0.0
  9
$PUCSXDIR
 10
1.0
 20
0.0
 30
0.0
  9
$PUCSYDIR
 10
0.0
 20
1.0
 30
0.0
  9
$USERI1
 70
     0
  9
$USERI2
 70
     0
  9
$USERI3
 70
     0
  9
$USERI4
 70
     0
  9
$USERI5
 70
     0
  9
$USERR1
 40
0.0
  9
$USERR2
 40
0.0
  9
$USERR3
 40
0.0
  9
$USERR4
 40
0.0
  9
$USERR5
 40
0.0
  9
$WORLDVIEW
 70
     1
  9
$SHADEDGE
 70
     3
  9
$SHADEDIF
 70
    70
  9
$TILEMODE
 70
     1
  9
$MAXACTVP
 70
    64
  9
$PLIMCHECK
 70
     0
  9
$PEXTMIN
 10
1.0000000000E+20
 20
1.0000000000E+20
 30
1.0000000000E+20
  9
$PEXTMAX
 10
-1.0000000000E+20
 20
-1.0000000000E+20
 30
-1.0000000000E+20
  9
$PLIMMIN
 10
0.0
 20
0.0
  9
$PLIMMAX
 10
420.0
 20
297.0
  9
$UNITMODE
 70
     0
  9
$VISRETAIN
 70
     1
  9
$PLINEGEN
 70
     0
  9
$PSLTSCALE
 70
     1
  0
ENDSEC
  0
SECTION
  2
TABLES
  0
TABLE
  2
VPORT
 70
     1
  0
VPORT
  2
*ACTIVE
 70
     0
 10
0.0
 20
0.0
 11
1.0
 21
1.0
 12
297.0
 22
420.5
 13
0.0
 23
0.0
 14
10.0
 24
10.0
 15
10.0
 25
10.0
 16
0.0
 26
0.0
 36
1.0
 17
0.0
 27
0.0
 37
0.0
 40
841.0
 41
0.7063020214
 42
50.0
 43
0.0
 44
0.0
 50
0.0
 51
0.0
 71
     0
 72
  2000
 73
     1
 74
     3
 75
     0
 76
     0
 77
     0
 78
     0
  0
ENDTAB
  0
TABLE
  2
LTYPE
 70
     6
  0
LTYPE
  2
CONTINUOUS
 70
     0
  3
Solid line
 72
    65
 73
     0
 40
0.0
  0
LTYPE
  2
HIDDEN
 70
     0
  3
Hidden __ __ __ __ __ __ __ __ __ __ __ __ __ __
 72
    65
 73
     2
 40
1.905
 49
1.27
 49
-0.635
  0
LTYPE
  2
PHANTOM
 70
     0
  3
Phantom ______  __  __  ______  __  __  ______
 72
    65
 73
     6
 40
12.7
 49
6.35
 49
-1.27
 49
1.27
 49
-1.27
 49
1.27
 49
-1.27
  0
LTYPE
  2
CENTER
 70
     0
  3
Center ____ _ ____ _ ____ _ ____ _ ____ _ ____
 72
    65
 73
     4
 40
10.16
 49
6.35
 49
-1.27
 49
1.27
 49
-1.27
  0
LTYPE
  2
CENTERX2
 70
     0
  3
Center (2x) ________  __  ________  __  _____
 72
    65
 73
     4
 40
20.32
 49
12.7
 49
-2.54
 49
2.54
 49
-2.54
  0
LTYPE
  2
DOT2
 70
     0
  3
Dot (.5x) ........................................
 72
    65
 73
     2
 40
0.635
 49
0.0
 49
-0.635
  0
ENDTAB
  0
TABLE
  2
LAYER
 70
     1
  0
LAYER
  2
0
 70
     0
 62
     7
  6
CONTINUOUS
  0
ENDTAB
  0
TABLE
  2
STYLE
 70
     1
  0
STYLE
  2
STANDARD
 70
     0
 40
0.0
 41
1.0
 50
0.0
 71
     0
 42
10.0
  3
txt
  4

  0
ENDTAB
  0
TABLE
  2
VIEW
 70
     0
  0
ENDTAB
  0
TABLE
  2
UCS
 70
     0
  0
ENDTAB
  0
TABLE
  2
APPID
 70
     1
  0
APPID
  2
ACAD
 70
     0
  0
ENDTAB
  0
TABLE
  2
DIMSTYLE
 70
     2
  0
DIMSTYLE
  2
ISO-25
 70
     0
  3

  4

  5

  6

  7

 40
1.0
 41
2.5
 42
0.625
 43
3.75
 44
1.25
 45
0.0
 46
0.0
 47
0.0
 48
0.0
140
2.5
141
2.5
142
0.0
143
0.0393700787
144
1.0
145
0.0
146
1.0
147
0.625
 71
     0
 72
     0
 73
     0
 74
     0
 75
     0
 76
     0
 77
     1
 78
     8
170
     0
171
     3
172
     1
173
     0
174
     0
175
     0
176
     0
177
     0
178
     0
  0
DIMSTYLE
  2
SLDDIMSTYLE0
 70
     0
  3

  4

  5

  6

  7

 40
1.0
 41
2.5
 42
0.0625
 43
0.38
 44
0.0
 45
0.000000001
 46
0.0
 47
0.0
 48
0.0
140
6.0
141
0.09
142
0.0
143
25.4
144
1.0
145
0.0
146
1.0
147
1.5
 71
     0
 72
     0
 73
     0
 74
     0
 75
     0
 76
     0
 77
     1
 78
    12
170
     0
171
     2
172
     0
173
     1
174
     0
175
     0
176
     0
177
     0
178
     0
  0
ENDTAB
  0
ENDSEC
  0
SECTION
  2
BLOCKS
  0
BLOCK
  8
0
  2
$MODEL_SPACE
 70
     0
 10
0.0
 20
0.0
 30
0.0
  3
$MODEL_SPACE
  1

  0
ENDBLK
  5
21
  8
0
  0
BLOCK
 67
     1
  8
0
  2
$PAPER_SPACE
 70
     0
 10
0.0
 20
0.0
 30
0.0
  3
$PAPER_SPACE
  1

  0
ENDBLK
  5
1D
 67
     1
  8
0
  0
BLOCK
  8
0
  2
_D
 70
     0
 10
0.0
 20
0.0
 30
0.0
  3
_D
  1

  0
SOLID
  5
7A
  8
0
  6
CONTINUOUS
 62
     7
 10
42.7614395004
 20
152.0299240879
 30
0.0
 11
42.4614395004
 21
149.5299240879
 31
0.0
 12
43.0614395004
 22
149.5299240879
 32
0.0
 13
43.0614395004
 23
149.5299240879
 33
0.0
  0
SOLID
  5
7B
  8
0
  6
CONTINUOUS
 62
     7
 10
42.7614395004
 20
52.0299240879
 30
0.0
 11
43.0614395004
 21
54.5299240879
 31
0.0
 12
42.4614395004
 22
54.5299240879
 32
0.0
 13
42.4614395004
 23
54.5299240879
 33
0.0
  0
LINE
  5
7C
  8
0
  6
CONTINUOUS
 62
     7
 10
56.6850079902
 20
152.0299240879
 30
0.0
 11
41.7614395004
 21
152.0299240879
 31
0.0
  0
LINE
  5
7D
  8
0
  6
CONTINUOUS
 62
     7
 10
56.6850079902
 20
52.0299240879
 30
0.0
 11
41.7614395004
 21
52.0299240879
 31
0.0
  0
LINE
  5
7E
  8
0
  6
CONTINUOUS
 62
     7
 10
42.7614395004
 20
152.0299240879
 30
0.0
 11
42.7614395004
 21
52.0299240879
 31
0.0
  0
TEXT
  5
7F
  8
0
  6
CONTINUOUS
 62
     7
 10
40.6418793617
 20
94.3680541463
 30
0.0
 40
6.0
  1
100
 50
90.0
 41
0.7
 11
42.7614397332
 21
94.3680541463
 31
0.0
 73
     1
  0
TEXT
  5
80
  8
0
  6
CONTINUOUS
 62
     7
 10
40.6418793617
 20
105.7430548466
 30
0.0
 40
6.0
  1
mm
 50
90.0
 41
0.7
 11
42.7614397332
 21
105.7430548466
 31
0.0
 73
     1
  0
ENDBLK
  5
79
  8
0
  0
BLOCK
  8
0
  2
_D_1
 70
     0
 10
0.0
 20
0.0
 30
0.0
  3
_D_1
  1

  0
SOLID
  5
85
  8
0
  6
CONTINUOUS
 62
     7
 10
56.6850079902
 20
38.4602342313
 30
0.0
 11
59.1850079902
 21
38.1602342313
 31
0.0
 12
59.1850079902
 22
38.7602342313
 32
0.0
 13
59.1850079902
 23
38.7602342313
 33
0.0
  0
SOLID
  5
86
  8
0
  6
CONTINUOUS
 62
     7
 10
156.6850079902
 20
38.4602342313
 30
0.0
 11
154.1850079902
 21
38.7602342313
 31
0.0
 12
154.1850079902
 22
38.1602342313
 32
0.0
 13
154.1850079902
 23
38.1602342313
 33
0.0
  0
LINE
  5
87
  8
0
  6
CONTINUOUS
 62
     7
 10
56.6850079902
 20
52.0299240879
 30
0.0
 11
56.6850079902
 21
37.4602342313
 31
0.0
  0
LINE
  5
88
  8
0
  6
CONTINUOUS
 62
     7
 10
156.6850079902
 20
52.0299240879
 30
0.0
 11
156.6850079902
 21
37.4602342313
 31
0.0
  0
LINE
  5
89
  8
0
  6
CONTINUOUS
 62
     7
 10
56.6850079902
 20
38.4602342313
 30
0.0
 11
156.6850079902
 21
38.4602342313
 31
0.0
  0
TEXT
  5
8A
  8
0
  6
CONTINUOUS
 62
     7
 10
93.9626484861
 20
40.57979437
 30
0.0
 40
6.0
  1
100
 41
0.7
 11
93.9626484861
 21
38.4602339984
 31
0.0
 73
     1
  0
TEXT
  5
8B
  8
0
  6
CONTINUOUS
 62
     7
 10
105.3376491864
 20
40.57979437
 30
0.0
 40
6.0
  1
mm
 41
0.7
 11
105.3376491864
 21
38.4602339984
 31
0.0
 73
     1
  0
ENDBLK
  5
84
  8
0
  0
ENDSEC
  0
SECTION
  2
ENTITIES
  0
LINE
  5
73
  8
0
  6
CONTINUOUS
 62
     7
 10
56.6850079902
 20
152.0299240879
 30
0.0
 11
56.6850079902
 21
52.0299240879
 31
0.0
  0
LINE
  5
74
  8
0
  6
CONTINUOUS
 62
     7
 10
56.6850079902
 20
52.0299240879
 30
0.0
 11
156.6850079902
 21
52.0299240879
 31
0.0
  0
DIMENSION
  5
75
  8
0
  6
CONTINUOUS
 62
     7
  2
_D
 10
42.7614395004
 20
52.0299240879
 30
0.0
 11
42.7614395004
 21
105.4472211621
 31
0.0
 70
   160
  1
<>mm
  3
SLDDIMSTYLE0
 13
56.6850079902
 23
152.0299240879
 33
0.0
 14
56.6850079902
 24
52.0299240879
 34
0.0
 50
90.0
  0
DIMENSION
  5
81
  8
0
  6
CONTINUOUS
 62
     7
  2
_D_1
 10
156.6850079902
 20
38.4602342313
 30
0.0
 11
105.0418155019
 21
38.4602342313
 31
0.0
 70
   160
  1
<>mm
  3
SLDDIMSTYLE0
 13
56.6850079902
 23
52.0299240879
 33
0.0
 14
156.6850079902
 24
52.0299240879
 34
0.0
  0
TEXT
  5
8C
  8
0
  6
CONTINUOUS
 62
     7
 10
412.8252631579
 20
39.0761681714
 30
0.0
 40
10.0
  1
KLUDI GmbH & Co KG
 41
0.6222222222
 11
412.8252631579
 21
35.5435675522
 31
0.0
 73
     1
  0
TEXT
  5
8D
  8
0
  6
CONTINUOUS
 62
     7
 10
210.0873490389
 20
39.0761681714
 30
0.0
 40
10.0
  1
38 263 05 76
 41
0.6125
 11
210.0873490389
 21
35.5435675522
 31
0.0
 73
     1
  0
POLYLINE
  5
8E
  8
0
  6
CONTINUOUS
 62
     7
 66
     1
 10
0.0
 20
0.0
 30
0.0
 70
   128
  0
VERTEX
  5
12F
  8
0
  6
CONTINUOUS
 62
     7
 10
132.3553715051
 20
374.1248002366
 30
0.0
  0
VERTEX
  5
130
  8
0
  6
CONTINUOUS
 62
     7
 10
133.2805916893
 20
374.1448844161
 30
0.0
  0
VERTEX
  5
131
  8
0
  6
CONTINUOUS
 62
     7
 10
135.0050973777
 20
374.2909849005
 30
0.0
  0
VERTEX
  5
132
  8
0
  6
CONTINUOUS
 62
     7
 10
136.6895405151
 20
374.5772637424
 30
0.0
  0
VERTEX
  5
133
  8
0
  6
CONTINUOUS
 62
     7
 10
138.3077353959
 20
375.0009786201
 30
0.0
  0
VERTEX
  5
134
  8
0
  6
CONTINUOUS
 62
     7
 10
139.8350804166
 20
375.558476007
 30
0.0
  0
VERTEX
  5
135
  8
0
  6
CONTINUOUS
 62
     7
 10
141.2474948052
 20
376.2452588921
 30
0.0
  0
VERTEX
  5
136
  8
0
  6
CONTINUOUS
 62
     7
 10
142.520950847
 20
377.0558025366
 30
0.0
  0
VERTEX
  5
137
  8
0
  6
CONTINUOUS
 62
     7
 10
143.630703461
 20
377.9825875043
 30
0.0
  0
VERTEX
  5
138
  8
0
  6
CONTINUOUS
 62
     7
 10
144.5493767335
 20
379.0118022544
 30
0.0
  0
VERTEX
  5
139
  8
0
  6
CONTINUOUS
 62
     7
 10
145.2518639698
 20
380.1217114782
 30
0.0
  0
VERTEX
  5
13A
  8
0
  6
CONTINUOUS
 62
     7
 10
145.7207126576
 20
381.2828088477
 30
0.0
  0
VERTEX
  5
13B
  8
0
  6
CONTINUOUS
 62
     7
 10
145.9506871537
 20
382.4631549042
 30
0.0
  0
VERTEX
  5
13C
  8
0
  6
CONTINUOUS
 62
     7
 10
145.9493944787
 20
382.9231027966
 30
0.0
  0
SEQEND
  5
2E1
  8
0
  6
CONTINUOUS
 62
     7
  0
POLYLINE
  5
8F
  8
0
  6
CONTINUOUS
 62
     7
 66
     1
 10
0.0
 20
0.0
 30
0.0
 70
   128
  0
VERTEX
  5
13D
  8
0
  6
CONTINUOUS
 62
     7
 10
118.7613485316
 20
383.1422974048
 30
0.0
  0
VERTEX
  5
13E
  8
0
  6
CONTINUOUS
 62
     7
 10
118.7633522217
 20
382.4293625764
 30
0.0
  0
VERTEX
  5
13F
  8
0
  6
CONTINUOUS
 62
     7
 10
118.9901701357
 20
381.2823382453
 30
0.0
  0
VERTEX
  5
140
  8
0
  6
CONTINUOUS
 62
     7
 10
119.4302785164
 20
380.1778511265
 30
0.0
  0
VERTEX
  5
141
  8
0
  6
CONTINUOUS
 62
     7
 10
120.077590373
 20
379.1242832854
 30
0.0
  0
VERTEX
  5
142
  8
0
  6
CONTINUOUS
 62
     7
 10
120.927849407
 20
378.1324297461
 30
0.0
  0
VERTEX
  5
143
  8
0
  6
CONTINUOUS
 62
     7
 10
121.9728114871
 20
377.2176827987
 30
0.0
  0
VERTEX
  5
144
  8
0
  6
CONTINUOUS
 62
     7
 10
123.1961688266
 20
376.3979593985
 30
0.0
  0
VERTEX
  5
145
  8
0
  6
CONTINUOUS
 62
     7
 10
124.5742288476
 20
375.6896737861
 30
0.0
  0
VERTEX
  5
146
  8
0
  6
CONTINUOUS
 62
     7
 10
126.0778588681
 20
375.1057799964
 30
0.0
  0
VERTEX
  5
147
  8
0
  6
CONTINUOUS
 62
     7
 10
127.6801146006
 20
374.6537679743
 30
0.0
  0
VERTEX
  5
148
  8
0
  6
CONTINUOUS
 62
     7
 10
129.3543457296
 20
374.3385872326
 30
0.0
  0
VERTEX
  5
149
  8
0
  6
CONTINUOUS
 62
     7
 10
131.074100693
 20
374.1633594194
 30
0.0
  0
VERTEX
  5
14A
  8
0
  6
CONTINUOUS
 62
     7
 10
132.3553715051
 20
374.1248002366
 30
0.0
  0
SEQEND
  5
2E2
  8
0
  6
CONTINUOUS
 62
     7
  0
LINE
  5
90
  8
0
  6
CONTINUOUS
 62
     7
 10
118.7331131051
 20
387.7240520913
 30
0.0
 11
118.7331131051
 21
383.0327001007
 31
0.0
  0
LINE
  5
91
  8
0
  6
CONTINUOUS
 62
     7
 10
145.9776299052
 20
383.0327001007
 30
0.0
 11
145.9776299052
 21
387.7240520913
 31
0.0
  0
ARC
  5
92
  8
0
  6
CONTINUOUS
 62
     7
 10
-209.0384350729
 20
392.2871764668
 30
0.0
 40
355.0458652740198
 50
359.2636022783
 51
1.3683142849
  0
ARC
  5
93
  8
0
  6
CONTINUOUS
 62
     7
 10
234.5281767977
 20
391.9181930664
 30
0.0
 40
115.8714711368761
 50
176.0927063882
 51
182.0743594567
  0
LINE
  5
94
  8
0
  6
CONTINUOUS
 62
     7
 10
156.3553715051
 20
306.5640983803
 30
0.0
 11
156.3553715051
 21
435.8322862329
 31
0.0
  0
LINE
  5
95
  8
0
  6
CONTINUOUS
 62
     7
 10
108.3553715051
 20
435.8322862329
 30
0.0
 11
108.3553715051
 21
306.5640983803
 31
0.0
  0
LINE
  5
96
  8
0
  6
CONTINUOUS
 62
     7
 10
156.3553715051
 20
440.1190791865
 30
0.0
 11
156.3553715051
 21
464.8322862329
 31
0.0
  0
LINE
  5
97
  8
0
  6
CONTINUOUS
 62
     7
 10
108.3553715051
 20
464.8322862329
 30
0.0
 11
108.3553715051
 21
440.1202808587
 31
0.0
  0
ARC
  5
98
  8
0
  6
CONTINUOUS
 62
     7
 10
108.6553715051
 20
306.5640983803
 30
0.0
 40
0.3000000000000114
 50
180.0
 51
270.0
  0
ARC
  5
99
  8
0
  6
CONTINUOUS
 62
     7
 10
156.0553715051
 20
306.5640983803
 30
0.0
 40
0.3000000000000114
 50
270.0
 51
0.0
  0
ARC
  5
9A
  8
0
  6
CONTINUOUS
 62
     7
 10
155.8553715051
 20
435.8322862329
 30
0.0
 40
0.5
 50
0.0
 51
90.0
  0
ARC
  5
9B
  8
0
  6
CONTINUOUS
 62
     7
 10
108.8553715051
 20
435.8322862329
 30
0.0
 40
0.5
 50
90.0
 51
180.0
  0
ARC
  5
9C
  8
0
  6
CONTINUOUS
 62
     7
 10
109.8553715051
 20
464.8322862329
 30
0.0
 40
1.5
 50
90.0
 51
180.0
  0
ARC
  5
9D
  8
0
  6
CONTINUOUS
 62
     7
 10
154.8553715051
 20
464.8322862329
 30
0.0
 40
1.5
 50
0.0
 51
90.0
  0
ARC
  5
9E
  8
0
  6
CONTINUOUS
 62
     7
 10
155.9523373022
 20
436.5322862329
 30
0.0
 40
0.1999999999999978
 50
270.0
 51
26.6421673927
  0
ARC
  5
9F
  8
0
  6
CONTINUOUS
 62
     7
 10
108.7584057081
 20
436.5322862329
 30
0.0
 40
0.1999999999999978
 50
153.3578326073
 51
270.0
  0
ARC
  5
A0
  8
0
  6
CONTINUOUS
 62
     7
 10
132.3553715051
 20
424.6940766903
 30
0.0
 40
26.60000000000003
 50
146.6118111875
 51
153.3578326073
  0
ARC
  5
A1
  8
0
  6
CONTINUOUS
 62
     7
 10
132.3553715051
 20
424.6940766903
 30
0.0
 40
26.60000000000002
 50
26.6421673927
 51
33.3881888125
  0
POLYLINE
  5
A2
  8
0
  6
CONTINUOUS
 62
     7
 66
     1
 10
0.0
 20
0.0
 30
0.0
 70
   128
  0
VERTEX
  5
14B
  8
0
  6
CONTINUOUS
 62
     7
 10
155.2621293425
 20
439.3317410237
 30
0.0
  0
VERTEX
  5
14C
  8
0
  6
CONTINUOUS
 62
     7
 10
155.357279601
 20
439.331915759
 30
0.0
  0
VERTEX
  5
14D
  8
0
  6
CONTINUOUS
 62
     7
 10
155.7300053565
 20
439.3664515519
 30
0.0
  0
VERTEX
  5
14E
  8
0
  6
CONTINUOUS
 62
     7
 10
156.0395418091
 20
439.4937548703
 30
0.0
  0
VERTEX
  5
14F
  8
0
  6
CONTINUOUS
 62
     7
 10
156.2863016002
 20
439.7843500659
 30
0.0
  0
VERTEX
  5
150
  8
0
  6
CONTINUOUS
 62
     7
 10
156.3525798582
 20
440.1217383443
 30
0.0
  0
SEQEND
  5
2E3
  8
0
  6
CONTINUOUS
 62
     7
  0
POLYLINE
  5
A3
  8
0
  6
CONTINUOUS
 62
     7
 66
     1
 10
0.0
 20
0.0
 30
0.0
 70
   128
  0
VERTEX
  5
151
  8
0
  6
CONTINUOUS
 62
     7
 10
108.3693287577
 20
440.1318311133
 30
0.0
  0
VERTEX
  5
152
  8
0
  6
CONTINUOUS
 62
     7
 10
108.3844556867
 20
439.8944402805
 30
0.0
  0
VERTEX
  5
153
  8
0
  6
CONTINUOUS
 62
     7
 10
108.5808324802
 20
439.5664070219
 30
0.0
  0
VERTEX
  5
154
  8
0
  6
CONTINUOUS
 62
     7
 10
108.8837338581
 20
439.3921913354
 30
0.0
  0
VERTEX
  5
155
  8
0
  6
CONTINUOUS
 62
     7
 10
109.1785199024
 20
439.3394518465
 30
0.0
  0
VERTEX
  5
156
  8
0
  6
CONTINUOUS
 62
     7
 10
109.5047882686
 20
439.3314378331
 30
0.0
  0
SEQEND
  5
2E4
  8
0
  6
CONTINUOUS
 62
     7
  0
LINE
  5
A4
  8
0
  6
CONTINUOUS
 62
     7
 10
145.9776299052
 20
383.0327001007
 30
0.0
 11
145.9767921348
 21
382.9383772285
 31
0.0
  0
LINE
  5
A5
  8
0
  6
CONTINUOUS
 62
     7
 10
118.7331131051
 20
383.0327001007
 30
0.0
 11
118.7339508754
 21
383.1270229729
 31
0.0
  0
ARC
  5
A6
  8
0
  6
CONTINUOUS
 62
     7
 10
131.3330789729
 20
457.8560737266
 30
0.0
 40
3.334323937046128
 50
182.2411803934
 51
221.5849449063
  0
ARC
  5
A7
  8
0
  6
CONTINUOUS
 62
     7
 10
133.380843349
 20
457.8490797545
 30
0.0
 40
3.328559445795356
 50
318.1242351352
 51
357.4916679502
  0
CIRCLE
  5
A8
  8
0
  6
CONTINUOUS
 62
     7
 10
132.3553715051
 20
446.3322862329
 30
0.0
 40
3.569682227408606
  0
CIRCLE
  5
A9
  8
0
  6
CONTINUOUS
 62
     7
 10
132.3553715051
 20
446.3322862329
 30
0.0
 40
3.999999999999972
  0
LINE
  5
AA
  8
0
  6
CONTINUOUS
 62
     7
 10
130.2084549653
 20
466.3322862329
 30
0.0
 11
134.5022962635
 21
466.3322862329
 31
0.0
  0
LINE
  5
AB
  8
0
  6
CONTINUOUS
 62
     7
 10
132.3553715051
 20
306.2640983803
 30
0.0
 11
108.6553715051
 21
306.2640983803
 31
0.0
  0
LINE
  5
AC
  8
0
  6
CONTINUOUS
 62
     7
 10
156.0553715051
 20
306.2640983803
 30
0.0
 11
132.3553715051
 21
306.2640983803
 31
0.0
  0
LINE
  5
AD
  8
0
  6
CONTINUOUS
 62
     7
 10
155.209657297
 20
439.3322862329
 30
0.0
 11
109.5010857132
 21
439.3322862329
 31
0.0
  0
LINE
  5
AE
  8
0
  6
CONTINUOUS
 62
     7
 10
134.5023052879
 20
466.3322862329
 30
0.0
 11
154.8553715051
 21
466.3322862329
 31
0.0
  0
LINE
  5
AF
  8
0
  6
CONTINUOUS
 62
     7
 10
109.8553715051
 20
466.3322862329
 30
0.0
 11
130.2084480268
 21
466.3322862329
 31
0.0
  0
LINE
  5
B0
  8
0
  6
CONTINUOUS
 62
     7
 10
155.9523373022
 20
436.3322862329
 30
0.0
 11
108.75840576
 21
436.3322862329
 31
0.0
  0
LINE
  5
B1
  8
0
  6
CONTINUOUS
 62
     7
 10
155.2621937003
 20
439.3331248216
 30
0.0
 11
155.209657297
 21
439.3322862329
 31
0.0
  0
POLYLINE
  5
B2
  8
0
  6
CONTINUOUS
 62
     8
 66
     1
 10
0.0
 20
0.0
 30
0.0
 70
   128
  0
VERTEX
  5
157
  8
0
  6
CONTINUOUS
 62
     8
 10
132.3553715051
 20
391.5376305172
 30
0.0
  0
VERTEX
  5
158
  8
0
  6
CONTINUOUS
 62
     8
 10
134.2102687846
 20
391.4584151363
 30
0.0
  0
VERTEX
  5
159
  8
0
  6
CONTINUOUS
 62
     8
 10
136.0306128373
 20
391.2222446264
 30
0.0
  0
VERTEX
  5
15A
  8
0
  6
CONTINUOUS
 62
     8
 10
137.7824940979
 20
390.8335183972
 30
0.0
  0
VERTEX
  5
15B
  8
0
  6
CONTINUOUS
 62
     8
 10
139.433278333
 20
390.2994776829
 30
0.0
  0
VERTEX
  5
15C
  8
0
  6
CONTINUOUS
 62
     8
 10
140.9522145559
 20
389.6300706514
 30
0.0
  0
VERTEX
  5
15D
  8
0
  6
CONTINUOUS
 62
     8
 10
142.3110078586
 20
388.8377670893
 30
0.0
  0
VERTEX
  5
15E
  8
0
  6
CONTINUOUS
 62
     8
 10
143.4843464928
 20
387.9373261129
 30
0.0
  0
VERTEX
  5
15F
  8
0
  6
CONTINUOUS
 62
     8
 10
144.4503733798
 20
386.9455212337
 30
0.0
  0
VERTEX
  5
160
  8
0
  6
CONTINUOUS
 62
     8
 10
145.1910932665
 20
385.8808279001
 30
0.0
  0
VERTEX
  5
161
  8
0
  6
CONTINUOUS
 62
     8
 10
145.6927079429
 20
384.7630793345
 30
0.0
  0
VERTEX
  5
162
  8
0
  6
CONTINUOUS
 62
     8
 10
145.9458732767
 20
383.6130970778
 30
0.0
  0
VERTEX
  5
163
  8
0
  6
CONTINUOUS
 62
     8
 10
145.9776299052
 20
383.0327001007
 30
0.0
  0
SEQEND
  5
2E5
  8
0
  6
CONTINUOUS
 62
     8
  0
LINE
  5
B3
  8
0
  6
CONTINUOUS
 62
     8
 10
132.3553715051
 20
374.4268469716
 30
0.0
 11
132.3553715051
 21
374.1248002933
 31
0.0
  0
POLYLINE
  5
B4
  8
0
  6
CONTINUOUS
 62
     8
 66
     1
 10
0.0
 20
0.0
 30
0.0
 70
   128
  0
VERTEX
  5
164
  8
0
  6
CONTINUOUS
 62
     8
 10
132.3553715051
 20
374.4268469716
 30
0.0
  0
VERTEX
  5
165
  8
0
  6
CONTINUOUS
 62
     8
 10
134.0805487488
 20
374.5022487109
 30
0.0
  0
VERTEX
  5
166
  8
0
  6
CONTINUOUS
 62
     8
 10
135.7706063589
 20
374.7269189668
 30
0.0
  0
VERTEX
  5
167
  8
0
  6
CONTINUOUS
 62
     8
 10
137.391139636
 20
375.0962841009
 30
0.0
  0
VERTEX
  5
168
  8
0
  6
CONTINUOUS
 62
     8
 10
138.9091591959
 20
375.6028249041
 30
0.0
  0
VERTEX
  5
169
  8
0
  6
CONTINUOUS
 62
     8
 10
140.293762538
 20
376.2362296665
 30
0.0
  0
VERTEX
  5
16A
  8
0
  6
CONTINUOUS
 62
     8
 10
141.5167631312
 20
376.9836040937
 30
0.0
  0
VERTEX
  5
16B
  8
0
  6
CONTINUOUS
 62
     8
 10
142.55326421
 20
377.8297337975
 30
0.0
  0
VERTEX
  5
16C
  8
0
  6
CONTINUOUS
 62
     8
 10
143.3821656018
 20
378.7573940173
 30
0.0
  0
VERTEX
  5
16D
  8
0
  6
CONTINUOUS
 62
     8
 10
143.9865932643
 20
379.7477002661
 30
0.0
  0
VERTEX
  5
16E
  8
0
  6
CONTINUOUS
 62
     8
 10
144.3542427935
 20
380.7804927645
 30
0.0
  0
VERTEX
  5
16F
  8
0
  6
CONTINUOUS
 62
     8
 10
144.4776299052
 20
381.8347468356
 30
0.0
  0
VERTEX
  5
170
  8
0
  6
CONTINUOUS
 62
     8
 10
144.3542427935
 20
382.8890009067
 30
0.0
  0
VERTEX
  5
171
  8
0
  6
CONTINUOUS
 62
     8
 10
143.9865932643
 20
383.9217934052
 30
0.0
  0
VERTEX
  5
172
  8
0
  6
CONTINUOUS
 62
     8
 10
143.3821656018
 20
384.912099654
 30
0.0
  0
VERTEX
  5
173
  8
0
  6
CONTINUOUS
 62
     8
 10
142.55326421
 20
385.8397598738
 30
0.0
  0
VERTEX
  5
174
  8
0
  6
CONTINUOUS
 62
     8
 10
141.5167631312
 20
386.6858895776
 30
0.0
  0
VERTEX
  5
175
  8
0
  6
CONTINUOUS
 62
     8
 10
140.293762538
 20
387.4332640048
 30
0.0
  0
VERTEX
  5
176
  8
0
  6
CONTINUOUS
 62
     8
 10
138.9091591959
 20
388.0666687671
 30
0.0
  0
VERTEX
  5
177
  8
0
  6
CONTINUOUS
 62
     8
 10
137.391139636
 20
388.5732095704
 30
0.0
  0
VERTEX
  5
178
  8
0
  6
CONTINUOUS
 62
     8
 10
135.7706063589
 20
388.9425747044
 30
0.0
  0
VERTEX
  5
179
  8
0
  6
CONTINUOUS
 62
     8
 10
134.0805487488
 20
389.1672449604
 30
0.0
  0
VERTEX
  5
17A
  8
0
  6
CONTINUOUS
 62
     8
 10
132.3553715051
 20
389.2426466997
 30
0.0
  0
SEQEND
  5
2E6
  8
0
  6
CONTINUOUS
 62
     8
  0
POLYLINE
  5
B5
  8
0
  6
CONTINUOUS
 62
     8
 66
     1
 10
0.0
 20
0.0
 30
0.0
 70
   128
  0
VERTEX
  5
17B
  8
0
  6
CONTINUOUS
 62
     8
 10
118.7339508754
 20
383.1270229729
 30
0.0
  0
VERTEX
  5
17C
  8
0
  6
CONTINUOUS
 62
     8
 10
118.7648697336
 20
383.6130970778
 30
0.0
  0
VERTEX
  5
17D
  8
0
  6
CONTINUOUS
 62
     8
 10
119.0180350674
 20
384.7630793345
 30
0.0
  0
VERTEX
  5
17E
  8
0
  6
CONTINUOUS
 62
     8
 10
119.5196497438
 20
385.8808279001
 30
0.0
  0
VERTEX
  5
17F
  8
0
  6
CONTINUOUS
 62
     8
 10
120.2603696305
 20
386.9455212337
 30
0.0
  0
VERTEX
  5
180
  8
0
  6
CONTINUOUS
 62
     8
 10
121.2263965175
 20
387.9373261129
 30
0.0
  0
VERTEX
  5
181
  8
0
  6
CONTINUOUS
 62
     8
 10
122.3997351517
 20
388.8377670893
 30
0.0
  0
VERTEX
  5
182
  8
0
  6
CONTINUOUS
 62
     8
 10
123.7585284544
 20
389.6300706514
 30
0.0
  0
VERTEX
  5
183
  8
0
  6
CONTINUOUS
 62
     8
 10
125.2774646772
 20
390.2994776829
 30
0.0
  0
VERTEX
  5
184
  8
0
  6
CONTINUOUS
 62
     8
 10
126.9282489124
 20
390.8335183972
 30
0.0
  0
VERTEX
  5
185
  8
0
  6
CONTINUOUS
 62
     8
 10
128.6801301729
 20
391.2222446264
 30
0.0
  0
VERTEX
  5
186
  8
0
  6
CONTINUOUS
 62
     8
 10
130.5004742257
 20
391.4584151363
 30
0.0
  0
VERTEX
  5
187
  8
0
  6
CONTINUOUS
 62
     8
 10
132.3553715051
 20
391.5376305172
 30
0.0
  0
SEQEND
  5
2E7
  8
0
  6
CONTINUOUS
 62
     8
  0
POLYLINE
  5
B6
  8
0
  6
CONTINUOUS
 62
     8
 66
     1
 10
0.0
 20
0.0
 30
0.0
 70
   128
  0
VERTEX
  5
188
  8
0
  6
CONTINUOUS
 62
     8
 10
132.3553715051
 20
389.2426466997
 30
0.0
  0
VERTEX
  5
189
  8
0
  6
CONTINUOUS
 62
     8
 10
130.6301942614
 20
389.1672449604
 30
0.0
  0
VERTEX
  5
18A
  8
0
  6
CONTINUOUS
 62
     8
 10
128.9401366514
 20
388.9425747044
 30
0.0
  0
VERTEX
  5
18B
  8
0
  6
CONTINUOUS
 62
     8
 10
127.3196033743
 20
388.5732095704
 30
0.0
  0
VERTEX
  5
18C
  8
0
  6
CONTINUOUS
 62
     8
 10
125.8015838143
 20
388.0666687671
 30
0.0
  0
VERTEX
  5
18D
  8
0
  6
CONTINUOUS
 62
     8
 10
124.4169804722
 20
387.4332640048
 30
0.0
  0
VERTEX
  5
18E
  8
0
  6
CONTINUOUS
 62
     8
 10
123.1939798791
 20
386.6858895776
 30
0.0
  0
VERTEX
  5
18F
  8
0
  6
CONTINUOUS
 62
     8
 10
122.1574788002
 20
385.8397598738
 30
0.0
  0
VERTEX
  5
190
  8
0
  6
CONTINUOUS
 62
     8
 10
121.3285774085
 20
384.912099654
 30
0.0
  0
VERTEX
  5
191
  8
0
  6
CONTINUOUS
 62
     8
 10
120.724149746
 20
383.9217934052
 30
0.0
  0
VERTEX
  5
192
  8
0
  6
CONTINUOUS
 62
     8
 10
120.3565002167
 20
382.8890009067
 30
0.0
  0
VERTEX
  5
193
  8
0
  6
CONTINUOUS
 62
     8
 10
120.2331131051
 20
381.8347468356
 30
0.0
  0
VERTEX
  5
194
  8
0
  6
CONTINUOUS
 62
     8
 10
120.3565002167
 20
380.7804927645
 30
0.0
  0
VERTEX
  5
195
  8
0
  6
CONTINUOUS
 62
     8
 10
120.724149746
 20
379.7477002661
 30
0.0
  0
VERTEX
  5
196
  8
0
  6
CONTINUOUS
 62
     8
 10
121.3285774085
 20
378.7573940173
 30
0.0
  0
VERTEX
  5
197
  8
0
  6
CONTINUOUS
 62
     8
 10
122.1574788002
 20
377.8297337975
 30
0.0
  0
VERTEX
  5
198
  8
0
  6
CONTINUOUS
 62
     8
 10
123.1939798791
 20
376.9836040937
 30
0.0
  0
VERTEX
  5
199
  8
0
  6
CONTINUOUS
 62
     8
 10
124.4169804722
 20
376.2362296665
 30
0.0
  0
VERTEX
  5
19A
  8
0
  6
CONTINUOUS
 62
     8
 10
125.8015838143
 20
375.6028249041
 30
0.0
  0
VERTEX
  5
19B
  8
0
  6
CONTINUOUS
 62
     8
 10
127.3196033743
 20
375.0962841009
 30
0.0
  0
VERTEX
  5
19C
  8
0
  6
CONTINUOUS
 62
     8
 10
128.9401366514
 20
374.7269189668
 30
0.0
  0
VERTEX
  5
19D
  8
0
  6
CONTINUOUS
 62
     8
 10
130.6301942614
 20
374.5022487109
 30
0.0
  0
VERTEX
  5
19E
  8
0
  6
CONTINUOUS
 62
     8
 10
132.3553715051
 20
374.4268469716
 30
0.0
  0
SEQEND
  5
2E8
  8
0
  6
CONTINUOUS
 62
     8
  0
CIRCLE
  5
B7
  8
0
  6
CONTINUOUS
 62
     8
 10
132.3553715051
 20
458.3322862329
 30
0.0
 40
2.828082609483857
  0
CIRCLE
  5
B8
  8
0
  6
CONTINUOUS
 62
     8
 10
132.3553715051
 20
458.3322862329
 30
0.0
 40
4.328080324853772
  0
ARC
  5
B9
  8
0
  6
CONTINUOUS
 62
     8
 10
132.3558525701
 20
458.4019331598
 30
0.0
 40
4.406744343114641
 50
42.3900489883
 51
188.8273938965
  0
ARC
  5
BA
  8
0
  6
CONTINUOUS
 62
     8
 10
132.3550606928
 20
458.2507926984
 30
0.0
 40
4.377518966010824
 50
216.5645171884
 51
323.1779624762
  0
ARC
  5
BB
  8
0
  6
CONTINUOUS
 62
     8
 10
132.7383281666
 20
458.5169292386
 30
0.0
 40
4.050423941031038
 50
348.4134010392
 51
44.8368855296
  0
LINE
  5
BC
  8
0
  6
CONTINUOUS
 62
     8
 10
132.3553715051
 20
417.3581460529
 30
0.0
 11
132.3553715051
 21
417.2139381646
 31
0.0
  0
ARC
  5
BD
  8
0
  6
CONTINUOUS
 62
     8
 10
132.3899752811
 20
403.5295318806
 30
0.0
 40
13.82865746727009
 50
348.1423659147
 51
90.1433727312
  0
ARC
  5
BE
  8
0
  6
CONTINUOUS
 62
     8
 10
132.3406265485
 20
403.4974693909
 30
0.0
 40
13.86068450485709
 50
89.9390489016
 51
195.4888438631
  0
POLYLINE
  5
BF
  8
0
  6
CONTINUOUS
 62
     8
 66
     1
 10
0.0
 20
0.0
 30
0.0
 70
   128
  0
VERTEX
  5
19F
  8
0
  6
CONTINUOUS
 62
     8
 10
132.3553715051
 20
422.316524917
 30
0.0
  0
VERTEX
  5
1A0
  8
0
  6
CONTINUOUS
 62
     8
 10
135.4964914125
 20
421.9994931844
 30
0.0
  0
VERTEX
  5
1A1
  8
0
  6
CONTINUOUS
 62
     8
 10
138.5298674849
 20
421.0486976738
 30
0.0
  0
VERTEX
  5
1A2
  8
0
  6
CONTINUOUS
 62
     8
 10
141.3406195242
 20
419.4974906128
 30
0.0
  0
VERTEX
  5
1A3
  8
0
  6
CONTINUOUS
 62
     8
 10
142.6173052721
 20
418.514240071
 30
0.0
  0
VERTEX
  5
1A4
  8
0
  6
CONTINUOUS
 62
     8
 10
143.8075654889
 20
417.3925581883
 30
0.0
  0
VERTEX
  5
1A5
  8
0
  6
CONTINUOUS
 62
     8
 10
144.9610276983
 20
416.0660319418
 30
0.0
  0
VERTEX
  5
1A6
  8
0
  6
CONTINUOUS
 62
     8
 10
145.9582385312
 20
414.6493392555
 30
0.0
  0
VERTEX
  5
1A7
  8
0
  6
CONTINUOUS
 62
     8
 10
146.8082831202
 20
413.1424801294
 30
0.0
  0
VERTEX
  5
1A8
  8
0
  6
CONTINUOUS
 62
     8
 10
147.5204186982
 20
411.5454545634
 30
0.0
  0
VERTEX
  5
1A9
  8
0
  6
CONTINUOUS
 62
     8
 10
148.1753716861
 20
409.5960137003
 30
0.0
  0
VERTEX
  5
1AA
  8
0
  6
CONTINUOUS
 62
     8
 10
148.631399574
 20
407.6075632354
 30
0.0
  0
VERTEX
  5
1AB
  8
0
  6
CONTINUOUS
 62
     8
 10
148.9907475731
 20
403.5136335
 30
0.0
  0
VERTEX
  5
1AC
  8
0
  6
CONTINUOUS
 62
     8
 10
148.6388333579
 20
399.4218897013
 30
0.0
  0
VERTEX
  5
1AD
  8
0
  6
CONTINUOUS
 62
     8
 10
148.3588881126
 20
398.0919656698
 30
0.0
  0
VERTEX
  5
1AE
  8
0
  6
CONTINUOUS
 62
     8
 10
147.992763471
 20
396.7790369224
 30
0.0
  0
VERTEX
  5
1AF
  8
0
  6
CONTINUOUS
 62
     8
 10
147.5362658631
 20
395.483103459
 30
0.0
  0
VERTEX
  5
1B0
  8
0
  6
CONTINUOUS
 62
     8
 10
146.5554311266
 20
393.3602749916
 30
0.0
  0
VERTEX
  5
1B1
  8
0
  6
CONTINUOUS
 62
     8
 10
145.9781301973
 20
392.443015626
 30
0.0
  0
SEQEND
  5
2E9
  8
0
  6
CONTINUOUS
 62
     8
  0
POLYLINE
  5
C0
  8
0
  6
CONTINUOUS
 62
     8
 66
     1
 10
0.0
 20
0.0
 30
0.0
 70
   128
  0
VERTEX
  5
1B2
  8
0
  6
CONTINUOUS
 62
     8
 10
118.7353558145
 20
392.3665336647
 30
0.0
  0
VERTEX
  5
1B3
  8
0
  6
CONTINUOUS
 62
     8
 10
117.8884558566
 20
393.8734623326
 30
0.0
  0
VERTEX
  5
1B4
  8
0
  6
CONTINUOUS
 62
     8
 10
117.1773131726
 20
395.4758531101
 30
0.0
  0
VERTEX
  5
1B5
  8
0
  6
CONTINUOUS
 62
     8
 10
116.5266941897
 20
397.4233093545
 30
0.0
  0
VERTEX
  5
1B6
  8
0
  6
CONTINUOUS
 62
     8
 10
116.0742040648
 20
399.4093893809
 30
0.0
  0
VERTEX
  5
1B7
  8
0
  6
CONTINUOUS
 62
     8
 10
115.8078028101
 20
401.4340931892
 30
0.0
  0
VERTEX
  5
1B8
  8
0
  6
CONTINUOUS
 62
     8
 10
115.7199876362
 20
403.4974207795
 30
0.0
  0
VERTEX
  5
1B9
  8
0
  6
CONTINUOUS
 62
     8
 10
116.0768461984
 20
407.5940074546
 30
0.0
  0
VERTEX
  5
1BA
  8
0
  6
CONTINUOUS
 62
     8
 10
116.3589182346
 20
408.9252286364
 30
0.0
  0
VERTEX
  5
1BB
  8
0
  6
CONTINUOUS
 62
     8
 10
116.7274573323
 20
410.2392959632
 30
0.0
  0
VERTEX
  5
1BC
  8
0
  6
CONTINUOUS
 62
     8
 10
117.1866890977
 20
411.536209435
 30
0.0
  0
VERTEX
  5
1BD
  8
0
  6
CONTINUOUS
 62
     8
 10
118.166960619
 20
413.649236323
 30
0.0
  0
VERTEX
  5
1BE
  8
0
  6
CONTINUOUS
 62
     8
 10
119.398914666
 20
415.6018000696
 30
0.0
  0
VERTEX
  5
1BF
  8
0
  6
CONTINUOUS
 62
     8
 10
120.9044708741
 20
417.3939006747
 30
0.0
  0
VERTEX
  5
1C0
  8
0
  6
CONTINUOUS
 62
     8
 10
123.3658867011
 20
419.4945258814
 30
0.0
  0
VERTEX
  5
1C1
  8
0
  6
CONTINUOUS
 62
     8
 10
126.1704903385
 20
421.0442506713
 30
0.0
  0
VERTEX
  5
1C2
  8
0
  6
CONTINUOUS
 62
     8
 10
129.2085824423
 20
421.9983802328
 30
0.0
  0
VERTEX
  5
1C3
  8
0
  6
CONTINUOUS
 62
     8
 10
132.3553715051
 20
422.316524917
 30
0.0
  0
SEQEND
  5
2EA
  8
0
  6
CONTINUOUS
 62
     8
  0
ARC
  5
C1
  8
0
  6
CONTINUOUS
 62
     8
 10
132.3554161367
 20
448.0590713315
 30
0.0
 40
16.92890967334104
 50
82.2324062643
 51
97.7689628013
  0
POLYLINE
  5
C2
  8
0
  6
CONTINUOUS
 62
     8
 66
     1
 10
0.0
 20
0.0
 30
0.0
 70
   128
  0
VERTEX
  5
1C4
  8
0
  6
CONTINUOUS
 62
     8
 10
134.6445132411
 20
464.8326459735
 30
0.0
  0
VERTEX
  5
1C5
  8
0
  6
CONTINUOUS
 62
     8
 10
134.921615566
 20
464.7170143543
 30
0.0
  0
VERTEX
  5
1C6
  8
0
  6
CONTINUOUS
 62
     8
 10
136.055869396
 20
464.0692391696
 30
0.0
  0
VERTEX
  5
1C7
  8
0
  6
CONTINUOUS
 62
     8
 10
137.0432578116
 20
463.1992655844
 30
0.0
  0
VERTEX
  5
1C8
  8
0
  6
CONTINUOUS
 62
     8
 10
137.8455620271
 20
462.1520027282
 30
0.0
  0
VERTEX
  5
1C9
  8
0
  6
CONTINUOUS
 62
     8
 10
138.4360974722
 20
460.9618532323
 30
0.0
  0
VERTEX
  5
1CA
  8
0
  6
CONTINUOUS
 62
     8
 10
138.8025435215
 20
459.6620628622
 30
0.0
  0
VERTEX
  5
1CB
  8
0
  6
CONTINUOUS
 62
     8
 10
138.9219206367
 20
458.3118112069
 30
0.0
  0
VERTEX
  5
1CC
  8
0
  6
CONTINUOUS
 62
     8
 10
138.7940349841
 20
456.9765571646
 30
0.0
  0
VERTEX
  5
1CD
  8
0
  6
CONTINUOUS
 62
     8
 10
138.4163757387
 20
455.6724137149
 30
0.0
  0
VERTEX
  5
1CE
  8
0
  6
CONTINUOUS
 62
     8
 10
137.8181410731
 20
454.4757331615
 30
0.0
  0
VERTEX
  5
1CF
  8
0
  6
CONTINUOUS
 62
     8
 10
137.018847699
 20
453.4392607443
 30
0.0
  0
VERTEX
  5
1D0
  8
0
  6
CONTINUOUS
 62
     8
 10
136.030376992
 20
452.5772919212
 30
0.0
  0
VERTEX
  5
1D1
  8
0
  6
CONTINUOUS
 62
     8
 10
134.8968217411
 20
451.9366022006
 30
0.0
  0
VERTEX
  5
1D2
  8
0
  6
CONTINUOUS
 62
     8
 10
133.644052457
 20
451.5335551822
 30
0.0
  0
VERTEX
  5
1D3
  8
0
  6
CONTINUOUS
 62
     8
 10
132.338805144
 20
451.4014791858
 30
0.0
  0
VERTEX
  5
1D4
  8
0
  6
CONTINUOUS
 62
     8
 10
131.0347686836
 20
451.5403163819
 30
0.0
  0
VERTEX
  5
1D5
  8
0
  6
CONTINUOUS
 62
     8
 10
129.783608208
 20
451.9500140881
 30
0.0
  0
VERTEX
  5
1D6
  8
0
  6
CONTINUOUS
 62
     8
 10
128.6536504936
 20
452.5963148633
 30
0.0
  0
VERTEX
  5
1D7
  8
0
  6
CONTINUOUS
 62
     8
 10
127.6690528446
 20
453.4636257938
 30
0.0
  0
VERTEX
  5
1D8
  8
0
  6
CONTINUOUS
 62
     8
 10
126.8754914887
 20
454.5030987536
 30
0.0
  0
VERTEX
  5
1D9
  8
0
  6
CONTINUOUS
 62
     8
 10
126.2827501455
 20
455.7026555685
 30
0.0
  0
VERTEX
  5
1DA
  8
0
  6
CONTINUOUS
 62
     8
 10
125.9109169364
 20
457.0084711169
 30
0.0
  0
VERTEX
  5
1DB
  8
0
  6
CONTINUOUS
 62
     8
 10
125.7888055665
 20
458.3453379739
 30
0.0
  0
VERTEX
  5
1DC
  8
0
  6
CONTINUOUS
 62
     8
 10
125.9142110836
 20
459.6947531285
 30
0.0
  0
VERTEX
  5
1DD
  8
0
  6
CONTINUOUS
 62
     8
 10
126.2870460534
 20
460.9938305224
 30
0.0
  0
VERTEX
  5
1DE
  8
0
  6
CONTINUOUS
 62
     8
 10
126.8834342523
 20
462.1813205792
 30
0.0
  0
VERTEX
  5
1DF
  8
0
  6
CONTINUOUS
 62
     8
 10
127.6913836719
 20
463.2247686362
 30
0.0
  0
VERTEX
  5
1E0
  8
0
  6
CONTINUOUS
 62
     8
 10
128.68030069
 20
464.0872362654
 30
0.0
  0
VERTEX
  5
1E1
  8
0
  6
CONTINUOUS
 62
     8
 10
129.8144369627
 20
464.7281968065
 30
0.0
  0
VERTEX
  5
1E2
  8
0
  6
CONTINUOUS
 62
     8
 10
130.0660925854
 20
464.8325881007
 30
0.0
  0
SEQEND
  5
2EB
  8
0
  6
CONTINUOUS
 62
     8
  0
LINE
  5
C3
  8
0
  6
CONTINUOUS
 62
     8
 10
132.3553715051
 20
306.5640983803
 30
0.0
 11
156.3553715051
 21
306.5640983803
 31
0.0
  0
LINE
  5
C4
  8
0
  6
CONTINUOUS
 62
     8
 10
108.3553715051
 20
306.5640983803
 30
0.0
 11
132.3553715051
 21
306.5640983803
 31
0.0
  0
POLYLINE
  5
C5
  8
0
  6
CONTINUOUS
 62
     8
 66
     1
 10
0.0
 20
0.0
 30
0.0
 70
   128
  0
VERTEX
  5
1E3
  8
0
  6
CONTINUOUS
 62
     8
 10
155.6959186968
 20
439.8322862329
 30
0.0
  0
VERTEX
  5
1E4
  8
0
  6
CONTINUOUS
 62
     8
 10
155.8329084504
 20
439.8327688963
 30
0.0
  0
VERTEX
  5
1E5
  8
0
  6
CONTINUOUS
 62
     8
 10
156.059807653
 20
439.8448557669
 30
0.0
  0
VERTEX
  5
1E6
  8
0
  6
CONTINUOUS
 62
     8
 10
156.2235507845
 20
439.8873766699
 30
0.0
  0
VERTEX
  5
1E7
  8
0
  6
CONTINUOUS
 62
     8
 10
156.3225075427
 20
439.9749870563
 30
0.0
  0
VERTEX
  5
1E8
  8
0
  6
CONTINUOUS
 62
     8
 10
156.3472117741
 20
440.039148771
 30
0.0
  0
VERTEX
  5
1E9
  8
0
  6
CONTINUOUS
 62
     8
 10
156.3537798857
 20
440.1190791865
 30
0.0
  0
SEQEND
  5
2EC
  8
0
  6
CONTINUOUS
 62
     8
  0
ARC
  5
C6
  8
0
  6
CONTINUOUS
 62
     8
 10
155.2026909559
 20
439.8255113074
 30
0.0
 40
0.4932742685410563
 50
270.8091952826
 51
0.7869594437
  0
ARC
  5
C7
  8
0
  6
CONTINUOUS
 62
     7
 10
239.5366035194
 20
464.8322862329
 30
0.0
 40
1.5
 50
90.0
 51
180.0
  0
LINE
  5
C8
  8
0
  6
CONTINUOUS
 62
     7
 10
286.0366035194
 20
450.3251209386
 30
0.0
 11
286.0366035194
 21
451.4031543171
 31
0.0
  0
LINE
  5
C9
  8
0
  6
CONTINUOUS
 62
     7
 10
286.0366035194
 20
439.8322862329
 30
0.0
 11
286.0366035194
 21
442.381888602
 31
0.0
  0
LINE
  5
CA
  8
0
  6
CONTINUOUS
 62
     7
 10
238.0366035194
 20
464.8322862329
 30
0.0
 11
238.0366035194
 21
446.3682841253
 31
0.0
  0
ARC
  5
CB
  8
0
  6
CONTINUOUS
 62
     7
 10
285.5366035194
 20
435.8322862329
 30
0.0
 40
0.5
 50
0.0
 51
90.0
  0
ARC
  5
CC
  8
0
  6
CONTINUOUS
 62
     7
 10
238.5366035194
 20
435.8322862329
 30
0.0
 40
0.5
 50
90.0
 51
180.0
  0
LINE
  5
CD
  8
0
  6
CONTINUOUS
 62
     7
 10
286.0366035194
 20
422.316524917
 30
0.0
 11
286.0366035194
 21
435.8322862329
 31
0.0
  0
LINE
  5
CE
  8
0
  6
CONTINUOUS
 62
     7
 10
286.0366035194
 20
306.5640983803
 30
0.0
 11
286.0366035194
 21
384.6716284637
 31
0.0
  0
LINE
  5
CF
  8
0
  6
CONTINUOUS
 62
     7
 10
238.0366035194
 20
340.5828039498
 30
0.0
 11
238.0366035194
 21
306.5640983803
 31
0.0
  0
LINE
  5
D0
  8
0
  6
CONTINUOUS
 62
     7
 10
238.0366035194
 20
435.8322862329
 30
0.0
 11
238.0366035194
 21
352.2672037727
 31
0.0
  0
ARC
  5
D1
  8
0
  6
CONTINUOUS
 62
     7
 10
238.3366035194
 20
306.5640983803
 30
0.0
 40
0.3000000000000114
 50
180.0
 51
270.0
  0
ARC
  5
D2
  8
0
  6
CONTINUOUS
 62
     7
 10
285.7366035194
 20
306.5640983803
 30
0.0
 40
0.3000000000000114
 50
270.0
 51
0.0
  0
ARC
  5
D3
  8
0
  6
CONTINUOUS
 62
     7
 10
285.6335693165
 20
436.5322862329
 30
0.0
 40
0.1999999999999886
 50
270.0
 51
26.6421673927
  0
ARC
  5
D4
  8
0
  6
CONTINUOUS
 62
     7
 10
238.4396377224
 20
436.5322862329
 30
0.0
 40
0.2000000000000232
 50
153.3578326073
 51
270.0
  0
ARC
  5
D5
  8
0
  6
CONTINUOUS
 62
     7
 10
262.0366035194
 20
424.6940766903
 30
0.0
 40
26.60000000000014
 50
132.4746682198
 51
153.3578326073
  0
ARC
  5
D6
  8
0
  6
CONTINUOUS
 62
     7
 10
262.0366035194
 20
424.6940766903
 30
0.0
 40
26.60000000000002
 50
26.6421673927
 51
33.3881888125
  0
ARC
  5
D7
  8
0
  6
CONTINUOUS
 62
     7
 10
238.5366035194
 20
446.3682841253
 30
0.0
 40
0.4999999999999982
 50
181.8392100701
 51
254.5
  0
ARC
  5
D8
  8
0
  6
CONTINUOUS
 62
     7
 10
285.5366035194
 20
439.8322862329
 30
0.0
 40
0.5
 50
270.0
 51
0.0
  0
POLYLINE
  5
D9
  8
0
  6
CONTINUOUS
 62
     7
 66
     1
 10
0.0
 20
0.0
 30
0.0
 70
   128
  0
VERTEX
  5
1EA
  8
0
  6
CONTINUOUS
 62
     7
 10
332.2900535757
 20
389.774215216
 30
0.0
  0
VERTEX
  5
1EB
  8
0
  6
CONTINUOUS
 62
     7
 10
336.1683502291
 20
389.7705141621
 30
0.0
  0
VERTEX
  5
1EC
  8
0
  6
CONTINUOUS
 62
     7
 10
339.2406464581
 20
389.7352664882
 30
0.0
  0
VERTEX
  5
1ED
  8
0
  6
CONTINUOUS
 62
     7
 10
341.6260014061
 20
389.6801188323
 30
0.0
  0
VERTEX
  5
1EE
  8
0
  6
CONTINUOUS
 62
     7
 10
343.7549563583
 20
389.603985817
 30
0.0
  0
VERTEX
  5
1EF
  8
0
  6
CONTINUOUS
 62
     7
 10
345.993000452
 20
389.4891870349
 30
0.0
  0
VERTEX
  5
1F0
  8
0
  6
CONTINUOUS
 62
     7
 10
350.6057736638
 20
389.0977059609
 30
0.0
  0
VERTEX
  5
1F1
  8
0
  6
CONTINUOUS
 62
     7
 10
355.2168481144
 20
388.3956861484
 30
0.0
  0
VERTEX
  5
1F2
  8
0
  6
CONTINUOUS
 62
     7
 10
358.5892235569
 20
387.5870060553
 30
0.0
  0
VERTEX
  5
1F3
  8
0
  6
CONTINUOUS
 62
     7
 10
361.8551155961
 20
386.4747303186
 30
0.0
  0
VERTEX
  5
1F4
  8
0
  6
CONTINUOUS
 62
     7
 10
364.7435926423
 20
385.1540661399
 30
0.0
  0
VERTEX
  5
1F5
  8
0
  6
CONTINUOUS
 62
     7
 10
366.0405036266
 20
384.4449296143
 30
0.0
  0
VERTEX
  5
1F6
  8
0
  6
CONTINUOUS
 62
     7
 10
367.2532811568
 20
383.7133796516
 30
0.0
  0
VERTEX
  5
1F7
  8
0
  6
CONTINUOUS
 62
     7
 10
368.5596012459
 20
382.8507543122
 30
0.0
  0
VERTEX
  5
1F8
  8
0
  6
CONTINUOUS
 62
     7
 10
370.2295474036
 20
381.636973264
 30
0.0
  0
VERTEX
  5
1F9
  8
0
  6
CONTINUOUS
 62
     7
 10
372.2858931055
 20
379.980183277
 30
0.0
  0
VERTEX
  5
1FA
  8
0
  6
CONTINUOUS
 62
     7
 10
374.775940106
 20
377.761362986
 30
0.0
  0
SEQEND
  5
2ED
  8
0
  6
CONTINUOUS
 62
     7
  0
POLYLINE
  5
DA
  8
0
  6
CONTINUOUS
 62
     7
 66
     1
 10
0.0
 20
0.0
 30
0.0
 70
   128
  0
VERTEX
  5
1FB
  8
0
  6
CONTINUOUS
 62
     7
 10
393.3566558843
 20
397.6867411965
 30
0.0
  0
VERTEX
  5
1FC
  8
0
  6
CONTINUOUS
 62
     7
 10
391.0508705118
 20
399.7932870834
 30
0.0
  0
VERTEX
  5
1FD
  8
0
  6
CONTINUOUS
 62
     7
 10
389.1247023227
 20
401.4771670948
 30
0.0
  0
VERTEX
  5
1FE
  8
0
  6
CONTINUOUS
 62
     7
 10
387.548399639
 20
402.7956743834
 30
0.0
  0
VERTEX
  5
1FF
  8
0
  6
CONTINUOUS
 62
     7
 10
386.0085342022
 20
404.0262908567
 30
0.0
  0
VERTEX
  5
200
  8
0
  6
CONTINUOUS
 62
     7
 10
385.0001685332
 20
404.7992007625
 30
0.0
  0
VERTEX
  5
201
  8
0
  6
CONTINUOUS
 62
     7
 10
384.1841606381
 20
405.4046865006
 30
0.0
  0
VERTEX
  5
202
  8
0
  6
CONTINUOUS
 62
     7
 10
383.2384945658
 20
406.0833340979
 30
0.0
  0
VERTEX
  5
203
  8
0
  6
CONTINUOUS
 62
     7
 10
382.1615175224
 20
406.8253500158
 30
0.0
  0
VERTEX
  5
204
  8
0
  6
CONTINUOUS
 62
     7
 10
380.9501503434
 20
407.6199179524
 30
0.0
  0
VERTEX
  5
205
  8
0
  6
CONTINUOUS
 62
     7
 10
379.5994251752
 20
408.4553229224
 30
0.0
  0
VERTEX
  5
206
  8
0
  6
CONTINUOUS
 62
     7
 10
374.997277487
 20
410.9052541907
 30
0.0
  0
VERTEX
  5
207
  8
0
  6
CONTINUOUS
 62
     7
 10
370.2215134851
 20
412.8460859791
 30
0.0
  0
VERTEX
  5
208
  8
0
  6
CONTINUOUS
 62
     7
 10
365.170066544
 20
414.3432822792
 30
0.0
  0
VERTEX
  5
209
  8
0
  6
CONTINUOUS
 62
     7
 10
359.3452693002
 20
415.5284790793
 30
0.0
  0
VERTEX
  5
20A
  8
0
  6
CONTINUOUS
 62
     7
 10
353.5548293032
 20
416.2930749127
 30
0.0
  0
VERTEX
  5
20B
  8
0
  6
CONTINUOUS
 62
     7
 10
347.9763717439
 20
416.7565110003
 30
0.0
  0
VERTEX
  5
20C
  8
0
  6
CONTINUOUS
 62
     7
 10
346.2216204845
 20
416.8603113145
 30
0.0
  0
VERTEX
  5
20D
  8
0
  6
CONTINUOUS
 62
     7
 10
344.5476126832
 20
416.9438344039
 30
0.0
  0
VERTEX
  5
20E
  8
0
  6
CONTINUOUS
 62
     7
 10
342.9635502698
 20
417.0102853621
 30
0.0
  0
VERTEX
  5
20F
  8
0
  6
CONTINUOUS
 62
     7
 10
341.2236072941
 20
417.0705289419
 30
0.0
  0
VERTEX
  5
210
  8
0
  6
CONTINUOUS
 62
     7
 10
338.9083318978
 20
417.1322100587
 30
0.0
  0
VERTEX
  5
211
  8
0
  6
CONTINUOUS
 62
     7
 10
335.95556812
 20
417.1842267823
 30
0.0
  0
VERTEX
  5
212
  8
0
  6
CONTINUOUS
 62
     7
 10
332.2900535757
 20
417.2139381646
 30
0.0
  0
SEQEND
  5
2EE
  8
0
  6
CONTINUOUS
 62
     7
  0
ARC
  5
DB
  8
0
  6
CONTINUOUS
 62
     7
 10
288.513640337
 20
451.4014567572
 30
0.0
 40
2.477037030142604
 50
90.1000160365
 51
179.9999856136
  0
ARC
  5
DC
  8
0
  6
CONTINUOUS
 62
     7
 10
288.4622641422
 20
465.1652474884
 30
0.0
 40
2.379630517234693
 50
184.3174212318
 51
271.1329784317
  0
LINE
  5
DD
  8
0
  6
CONTINUOUS
 62
     7
 10
288.5090110883
 20
453.8784893471
 30
0.0
 11
360.539221512
 21
454.004205908
 31
0.0
  0
LINE
  5
DE
  8
0
  6
CONTINUOUS
 62
     7
 10
360.539221512
 20
462.6603665577
 30
0.0
 11
288.50905837
 21
462.7860830361
 31
0.0
  0
ARC
  5
DF
  8
0
  6
CONTINUOUS
 62
     7
 10
360.5366035194
 20
461.1603688424
 30
0.0
 40
1.500000000000057
 50
0.0
 51
89.9
  0
ARC
  5
E0
  8
0
  6
CONTINUOUS
 62
     7
 10
360.5366035194
 20
455.5042036234
 30
0.0
 40
1.500000000000057
 50
270.1
 51
0.0
  0
LINE
  5
E1
  8
0
  6
CONTINUOUS
 62
     7
 10
286.0284413071
 20
442.3322862329
 30
0.0
 11
286.3866035194
 21
442.3322862329
 31
0.0
  0
LINE
  5
E2
  8
0
  6
CONTINUOUS
 62
     7
 10
286.3866035194
 20
450.3322862329
 30
0.0
 11
286.0354656273
 21
450.3322862329
 31
0.0
  0
LINE
  5
E3
  8
0
  6
CONTINUOUS
 62
     7
 10
286.3866035194
 20
442.3322862329
 30
0.0
 11
286.9871508894
 21
442.5508675998
 31
0.0
  0
LINE
  5
E4
  8
0
  6
CONTINUOUS
 62
     7
 10
286.9871508894
 20
450.113704866
 30
0.0
 11
286.3866035194
 21
450.3322862329
 31
0.0
  0
ARC
  5
E5
  8
0
  6
CONTINUOUS
 62
     7
 10
286.9187468607
 20
449.9257663418
 30
0.0
 40
0.1999999999999886
 50
0.0
 51
70.0
  0
ARC
  5
E6
  8
0
  6
CONTINUOUS
 62
     7
 10
286.9187468607
 20
442.738806124
 30
0.0
 40
0.2000000000000019
 50
290.0
 51
0.0
  0
LINE
  5
E7
  8
0
  6
CONTINUOUS
 62
     7
 10
287.1187468607
 20
442.738806124
 30
0.0
 11
287.1187468607
 21
449.9257663418
 31
0.0
  0
LINE
  5
E8
  8
0
  6
CONTINUOUS
 62
     7
 10
230.074335171
 20
362.448138667
 30
0.0
 11
238.0331659142
 21
340.5814309149
 31
0.0
  0
LINE
  5
E9
  8
0
  6
CONTINUOUS
 62
     7
 10
238.0366035194
 20
352.2672037727
 30
0.0
 11
233.8331056542
 21
363.8162192403
 31
0.0
  0
ARC
  5
EA
  8
0
  6
CONTINUOUS
 62
     7
 10
284.5599896046
 20
464.8322873432
 30
0.0
 40
1.499998889619725
 50
5.5829890236
 51
90.0078684697
  0
LINE
  5
EB
  8
0
  6
CONTINUOUS
 62
     7
 10
215.1949499295
 20
363.7640983803
 30
0.0
 11
228.1949499295
 21
363.7640983803
 31
0.0
  0
LINE
  5
EC
  8
0
  6
CONTINUOUS
 62
     7
 10
228.1949499295
 20
367.7640983803
 30
0.0
 11
215.1949499295
 21
367.7640983803
 31
0.0
  0
ARC
  5
ED
  8
0
  6
CONTINUOUS
 62
     7
 10
228.1949499295
 20
361.7640983803
 30
0.0
 40
2.0
 50
20.0
 51
90.0
  0
ARC
  5
EE
  8
0
  6
CONTINUOUS
 62
     7
 10
228.1949499295
 20
361.7640983803
 30
0.0
 40
6.0
 50
20.0
 51
90.0
  0
ARC
  5
EF
  8
0
  6
CONTINUOUS
 62
     7
 10
266.5827350776
 20
472.7366292126
 30
0.0
 40
33.41714341980239
 50
252.9140872746
 51
271.5859127254
  0
LINE
  5
F0
  8
0
  6
CONTINUOUS
 62
     7
 10
239.5366035194
 20
466.3322862329
 30
0.0
 11
284.4339408518
 21
466.3322862329
 31
0.0
  0
ARC
  5
F1
  8
0
  6
CONTINUOUS
 62
     7
 10
310.074222785
 20
446.3640798767
 30
0.0
 40
24.37332086973464
 50
180.0747391845
 51
189.403324411
  0
ARC
  5
F2
  8
0
  6
CONTINUOUS
 62
     7
 10
310.0204285988
 20
446.3052525393
 30
0.0
 40
24.31952097230585
 50
170.4856920263
 51
179.9363097297
  0
POLYLINE
  5
F3
  8
0
  6
CONTINUOUS
 62
     7
 66
     1
 10
0.0
 20
0.0
 30
0.0
 70
   128
  0
VERTEX
  5
213
  8
0
  6
CONTINUOUS
 62
     7
 10
238.0366035194
 20
352.2672037727
 30
0.0
  0
VERTEX
  5
214
  8
0
  6
CONTINUOUS
 62
     7
 10
238.0378179381
 20
352.2211032238
 30
0.0
  0
VERTEX
  5
215
  8
0
  6
CONTINUOUS
 62
     7
 10
238.0419119377
 20
352.0633265034
 30
0.0
  0
VERTEX
  5
216
  8
0
  6
CONTINUOUS
 62
     7
 10
238.0519485758
 20
351.6594739671
 30
0.0
  0
VERTEX
  5
217
  8
0
  6
CONTINUOUS
 62
     7
 10
238.0675280553
 20
350.9728742301
 30
0.0
  0
VERTEX
  5
218
  8
0
  6
CONTINUOUS
 62
     7
 10
238.0823832431
 20
350.2215957241
 30
0.0
  0
VERTEX
  5
219
  8
0
  6
CONTINUOUS
 62
     7
 10
238.1124634431
 20
347.9763320785
 30
0.0
  0
VERTEX
  5
21A
  8
0
  6
CONTINUOUS
 62
     7
 10
238.1193091671
 20
345.6301926936
 30
0.0
  0
VERTEX
  5
21B
  8
0
  6
CONTINUOUS
 62
     7
 10
238.0996157166
 20
343.3529599287
 30
0.0
  0
VERTEX
  5
21C
  8
0
  6
CONTINUOUS
 62
     7
 10
238.0838644468
 20
342.4399620721
 30
0.0
  0
VERTEX
  5
21D
  8
0
  6
CONTINUOUS
 62
     7
 10
238.0639976792
 20
341.5526520027
 30
0.0
  0
VERTEX
  5
21E
  8
0
  6
CONTINUOUS
 62
     7
 10
238.0468106821
 20
340.9136800923
 30
0.0
  0
VERTEX
  5
21F
  8
0
  6
CONTINUOUS
 62
     7
 10
238.0405768025
 20
340.7021655954
 30
0.0
  0
VERTEX
  5
220
  8
0
  6
CONTINUOUS
 62
     7
 10
238.0368923143
 20
340.5813340035
 30
0.0
  0
VERTEX
  5
221
  8
0
  6
CONTINUOUS
 62
     7
 10
238.0369376704
 20
340.5828039498
 30
0.0
  0
SEQEND
  5
2EF
  8
0
  6
CONTINUOUS
 62
     7
  0
LINE
  5
F4
  8
0
  6
CONTINUOUS
 62
     7
 10
285.7366035194
 20
306.2640983803
 30
0.0
 11
238.336603563
 21
306.2640983803
 31
0.0
  0
LINE
  5
F5
  8
0
  6
CONTINUOUS
 62
     7
 10
285.6335693165
 20
436.3322862329
 30
0.0
 11
238.4396377224
 21
436.3322862329
 31
0.0
  0
LINE
  5
F6
  8
0
  6
CONTINUOUS
 62
     7
 10
256.7646006898
 20
440.7943420139
 30
0.0
 11
238.4029843314
 21
445.8864688987
 31
0.0
  0
LINE
  5
F7
  8
0
  6
CONTINUOUS
 62
     7
 10
285.5366035194
 20
439.3322862329
 30
0.0
 11
267.5075834081
 21
439.3322862329
 31
0.0
  0
ARC
  5
F8
  8
0
  6
CONTINUOUS
 62
     7
 10
290.9950125918
 20
422.316524917
 30
0.0
 40
4.958409072396591
 50
180.0
 51
269.8
  0
ARC
  5
F9
  8
0
  6
CONTINUOUS
 62
     7
 10
290.9950125918
 20
384.6716284637
 30
0.0
 40
4.958409072396591
 50
90.2
 51
180.0
  0
LINE
  5
FA
  8
0
  6
CONTINUOUS
 62
     7
 10
332.2900535757
 20
389.774215216
 30
0.0
 11
290.9777045142
 21
389.6300073278
 31
0.0
  0
LINE
  5
FB
  8
0
  6
CONTINUOUS
 62
     7
 10
290.9777045142
 20
417.3581460529
 30
0.0
 11
332.2900535757
 21
417.2139381646
 31
0.0
  0
LINE
  5
FC
  8
0
  6
CONTINUOUS
 62
     7
 10
393.3566558843
 20
397.6867411965
 30
0.0
 11
399.9507697713
 21
391.5376305172
 31
0.0
  0
LINE
  5
FD
  8
0
  6
CONTINUOUS
 62
     7
 10
378.2435443838
 20
374.5277696842
 30
0.0
 11
374.775940106
 21
377.761362986
 31
0.0
  0
ARC
  5
FE
  8
0
  6
CONTINUOUS
 62
     7
 10
398.9277722312
 20
390.4405999648
 30
0.0
 40
1.500000000000078
 50
307.0
 51
47.0
  0
LINE
  5
FF
  8
0
  6
CONTINUOUS
 62
     7
 10
399.830494766
 20
389.2426466997
 30
0.0
 11
380.1692644586
 21
374.4268469716
 31
0.0
  0
ARC
  5
100
  8
0
  6
CONTINUOUS
 62
     7
 10
379.2665419239
 20
375.6248002366
 30
0.0
 40
1.500000000000225
 50
227.0
 51
307.0
  0
LINE
  5
101
  8
0
  6
CONTINUOUS
 62
     7
 10
362.0366035194
 20
461.1603688424
 30
0.0
 11
362.0366035194
 21
455.5042036234
 31
0.0
  0
LINE
  5
102
  8
0
  6
CONTINUOUS
 62
     7
 10
286.3866035194
 20
446.3322862329
 30
0.0
 11
286.3866035194
 21
450.3322862329
 31
0.0
  0
LINE
  5
103
  8
0
  6
CONTINUOUS
 62
     7
 10
286.3866035194
 20
442.3322862329
 30
0.0
 11
286.3866035194
 21
446.3322862329
 31
0.0
  0
LINE
  5
104
  8
0
  6
CONTINUOUS
 62
     7
 10
215.1949499295
 20
363.7640983803
 30
0.0
 11
215.1949499295
 21
367.7640983803
 31
0.0
  0
ARC
  5
105
  8
0
  6
CONTINUOUS
 62
     8
 10
284.430512082
 20
464.8357023785
 30
0.0
 40
1.496587698766535
 50
359.8807837598
 51
89.8701242949
  0
POLYLINE
  5
106
  8
0
  6
CONTINUOUS
 62
     8
 66
     1
 10
0.0
 20
0.0
 30
0.0
 70
   128
  0
VERTEX
  5
222
  8
0
  6
CONTINUOUS
 62
     8
 10
286.0361587496
 20
451.4031543171
 30
0.0
  0
VERTEX
  5
223
  8
0
  6
CONTINUOUS
 62
     8
 10
286.0365978019
 20
451.4014791858
 30
0.0
  0
VERTEX
  5
224
  8
0
  6
CONTINUOUS
 62
     8
 10
286.0002428129
 20
451.5403163819
 30
0.0
  0
VERTEX
  5
225
  8
0
  6
CONTINUOUS
 62
     8
 10
285.8984147152
 20
451.9500140881
 30
0.0
  0
VERTEX
  5
226
  8
0
  6
CONTINUOUS
 62
     8
 10
285.7494114838
 20
452.5963148633
 30
0.0
  0
VERTEX
  5
227
  8
0
  6
CONTINUOUS
 62
     8
 10
285.5746241969
 20
453.4636257938
 30
0.0
  0
VERTEX
  5
228
  8
0
  6
CONTINUOUS
 62
     8
 10
285.4026240408
 20
454.5030987536
 30
0.0
  0
VERTEX
  5
229
  8
0
  6
CONTINUOUS
 62
     8
 10
285.2556317037
 20
455.7026555685
 30
0.0
  0
VERTEX
  5
22A
  8
0
  6
CONTINUOUS
 62
     8
 10
285.1551892312
 20
457.0084711169
 30
0.0
  0
VERTEX
  5
22B
  8
0
  6
CONTINUOUS
 62
     8
 10
285.1208018329
 20
458.3453379739
 30
0.0
  0
VERTEX
  5
22C
  8
0
  6
CONTINUOUS
 62
     8
 10
285.156107243
 20
459.6947531285
 30
0.0
  0
VERTEX
  5
22D
  8
0
  6
CONTINUOUS
 62
     8
 10
285.2567548155
 20
460.9938305224
 30
0.0
  0
VERTEX
  5
22E
  8
0
  6
CONTINUOUS
 62
     8
 10
285.4044853811
 20
462.1813205792
 30
0.0
  0
VERTEX
  5
22F
  8
0
  6
CONTINUOUS
 62
     8
 10
285.579059158
 20
463.2247686362
 30
0.0
  0
VERTEX
  5
230
  8
0
  6
CONTINUOUS
 62
     8
 10
285.7535564119
 20
464.0872362654
 30
0.0
  0
VERTEX
  5
231
  8
0
  6
CONTINUOUS
 62
     8
 10
285.9017172139
 20
464.7281968065
 30
0.0
  0
VERTEX
  5
232
  8
0
  6
CONTINUOUS
 62
     8
 10
285.9271707381
 20
464.8325881007
 30
0.0
  0
SEQEND
  5
2F0
  8
0
  6
CONTINUOUS
 62
     8
  0
POLYLINE
  5
107
  8
0
  6
CONTINUOUS
 62
     8
 66
     1
 10
0.0
 20
0.0
 30
0.0
 70
   128
  0
VERTEX
  5
233
  8
0
  6
CONTINUOUS
 62
     8
 10
286.0366035194
 20
384.6716284637
 30
0.0
  0
VERTEX
  5
234
  8
0
  6
CONTINUOUS
 62
     8
 10
285.8301605481
 20
384.9886596179
 30
0.0
  0
VERTEX
  5
235
  8
0
  6
CONTINUOUS
 62
     8
 10
285.2287471334
 20
385.9394582697
 30
0.0
  0
VERTEX
  5
236
  8
0
  6
CONTINUOUS
 62
     8
 10
284.2882324136
 20
387.4956416741
 30
0.0
  0
VERTEX
  5
237
  8
0
  6
CONTINUOUS
 62
     8
 10
283.7273075561
 20
388.4824317925
 30
0.0
  0
VERTEX
  5
238
  8
0
  6
CONTINUOUS
 62
     8
 10
283.121334759
 20
389.6083541885
 30
0.0
  0
VERTEX
  5
239
  8
0
  6
CONTINUOUS
 62
     8
 10
282.4510866421
 20
390.9397128718
 30
0.0
  0
VERTEX
  5
23A
  8
0
  6
CONTINUOUS
 62
     8
 10
281.7995364244
 20
392.3614155865
 30
0.0
  0
VERTEX
  5
23B
  8
0
  6
CONTINUOUS
 62
     8
 10
281.1862341065
 20
393.8734623326
 30
0.0
  0
VERTEX
  5
23C
  8
0
  6
CONTINUOUS
 62
     8
 10
280.6276375212
 20
395.4758531101
 30
0.0
  0
VERTEX
  5
23D
  8
0
  6
CONTINUOUS
 62
     8
 10
280.0769187729
 20
397.4233093545
 30
0.0
  0
VERTEX
  5
23E
  8
0
  6
CONTINUOUS
 62
     8
 10
279.6696289768
 20
399.4093893809
 30
0.0
  0
VERTEX
  5
23F
  8
0
  6
CONTINUOUS
 62
     8
 10
279.4198704817
 20
401.4340931892
 30
0.0
  0
VERTEX
  5
240
  8
0
  6
CONTINUOUS
 62
     8
 10
279.3358521601
 20
403.4974207795
 30
0.0
  0
VERTEX
  5
241
  8
0
  6
CONTINUOUS
 62
     8
 10
279.6720681813
 20
407.5940074546
 30
0.0
  0
VERTEX
  5
242
  8
0
  6
CONTINUOUS
 62
     8
 10
279.9283189979
 20
408.9252286364
 30
0.0
  0
VERTEX
  5
243
  8
0
  6
CONTINUOUS
 62
     8
 10
280.2511114351
 20
410.2392959632
 30
0.0
  0
VERTEX
  5
244
  8
0
  6
CONTINUOUS
 62
     8
 10
280.6352882585
 20
411.536209435
 30
0.0
  0
VERTEX
  5
245
  8
0
  6
CONTINUOUS
 62
     8
 10
281.3934885097
 20
413.649236323
 30
0.0
  0
VERTEX
  5
246
  8
0
  6
CONTINUOUS
 62
     8
 10
282.2388367172
 20
415.6018000696
 30
0.0
  0
VERTEX
  5
247
  8
0
  6
CONTINUOUS
 62
     8
 10
283.1287080787
 20
417.3939006747
 30
0.0
  0
VERTEX
  5
248
  8
0
  6
CONTINUOUS
 62
     8
 10
284.289449696
 20
419.4945258814
 30
0.0
  0
VERTEX
  5
249
  8
0
  6
CONTINUOUS
 62
     8
 10
285.225981367
 20
421.0442506713
 30
0.0
  0
VERTEX
  5
24A
  8
0
  6
CONTINUOUS
 62
     8
 10
285.829411647
 20
421.9983802328
 30
0.0
  0
VERTEX
  5
24B
  8
0
  6
CONTINUOUS
 62
     8
 10
286.0366035194
 20
422.316524917
 30
0.0
  0
SEQEND
  5
2F1
  8
0
  6
CONTINUOUS
 62
     8
  0
LINE
  5
108
  8
0
  6
CONTINUOUS
 62
     8
 10
238.0366035194
 20
306.5640983803
 30
0.0
 11
286.0366035194
 21
306.5640983803
 31
0.0
  0
POLYLINE
  5
109
  8
0
  6
CONTINUOUS
 62
     8
 66
     1
 10
0.0
 20
0.0
 30
0.0
 70
   128
  0
VERTEX
  5
24C
  8
0
  6
CONTINUOUS
 62
     8
 10
290.9777045142
 20
417.3581460529
 30
0.0
  0
VERTEX
  5
24D
  8
0
  6
CONTINUOUS
 62
     8
 10
290.7989907202
 20
417.0856024959
 30
0.0
  0
VERTEX
  5
24E
  8
0
  6
CONTINUOUS
 62
     8
 10
290.6600473994
 20
416.868543627
 30
0.0
  0
VERTEX
  5
24F
  8
0
  6
CONTINUOUS
 62
     8
 10
290.4814180505
 20
416.5858150375
 30
0.0
  0
VERTEX
  5
250
  8
0
  6
CONTINUOUS
 62
     8
 10
290.2631026735
 20
416.2363798327
 30
0.0
  0
VERTEX
  5
251
  8
0
  6
CONTINUOUS
 62
     8
 10
290.0974337322
 20
415.9705570595
 30
0.0
  0
VERTEX
  5
252
  8
0
  6
CONTINUOUS
 62
     8
 10
289.9023845859
 20
415.6550364542
 30
0.0
  0
VERTEX
  5
253
  8
0
  6
CONTINUOUS
 62
     8
 10
289.6779552346
 20
415.2842045388
 30
0.0
  0
VERTEX
  5
254
  8
0
  6
CONTINUOUS
 62
     8
 10
289.4241456782
 20
414.8524592361
 30
0.0
  0
VERTEX
  5
255
  8
0
  6
CONTINUOUS
 62
     8
 10
289.1409559169
 20
414.354336815
 30
0.0
  0
VERTEX
  5
256
  8
0
  6
CONTINUOUS
 62
     8
 10
288.8283859504
 20
413.7846589687
 30
0.0
  0
VERTEX
  5
257
  8
0
  6
CONTINUOUS
 62
     8
 10
288.486435779
 20
413.1387006709
 30
0.0
  0
VERTEX
  5
258
  8
0
  6
CONTINUOUS
 62
     8
 10
288.061422298
 20
412.2899812866
 30
0.0
  0
VERTEX
  5
259
  8
0
  6
CONTINUOUS
 62
     8
 10
287.7518428693
 20
411.6336689131
 30
0.0
  0
VERTEX
  5
25A
  8
0
  6
CONTINUOUS
 62
     8
 10
287.5576974929
 20
411.2064679949
 30
0.0
  0
VERTEX
  5
25B
  8
0
  6
CONTINUOUS
 62
     8
 10
287.5039125743
 20
411.0858254585
 30
0.0
  0
VERTEX
  5
25C
  8
0
  6
CONTINUOUS
 62
     8
 10
287.4878420574
 20
411.0494647421
 30
0.0
  0
VERTEX
  5
25D
  8
0
  6
CONTINUOUS
 62
     8
 10
287.4819939176
 20
411.0361402459
 30
0.0
  0
VERTEX
  5
25E
  8
0
  6
CONTINUOUS
 62
     8
 10
287.4801374984
 20
411.0318824979
 30
0.0
  0
VERTEX
  5
25F
  8
0
  6
CONTINUOUS
 62
     8
 10
287.4794594391
 20
411.0303201271
 30
0.0
  0
VERTEX
  5
260
  8
0
  6
CONTINUOUS
 62
     8
 10
287.479187958
 20
411.0296929216
 30
0.0
  0
VERTEX
  5
261
  8
0
  6
CONTINUOUS
 62
     8
 10
287.4790737074
 20
411.0294286148
 30
0.0
  0
VERTEX
  5
262
  8
0
  6
CONTINUOUS
 62
     8
 10
287.479024444
 20
411.0293145779
 30
0.0
  0
VERTEX
  5
263
  8
0
  6
CONTINUOUS
 62
     8
 10
287.4790029631
 20
411.0292648389
 30
0.0
  0
VERTEX
  5
264
  8
0
  6
CONTINUOUS
 62
     8
 10
287.4789935492
 20
411.0292430384
 30
0.0
  0
VERTEX
  5
265
  8
0
  6
CONTINUOUS
 62
     8
 10
287.4789894144
 20
411.0292334626
 30
0.0
  0
VERTEX
  5
266
  8
0
  6
CONTINUOUS
 62
     8
 10
287.4789861688
 20
411.0292259457
 30
0.0
  0
VERTEX
  5
267
  8
0
  6
CONTINUOUS
 62
     8
 10
287.1340551379
 20
410.1909404284
 30
0.0
  0
VERTEX
  5
268
  8
0
  6
CONTINUOUS
 62
     8
 10
286.8389684008
 20
409.397869352
 30
0.0
  0
VERTEX
  5
269
  8
0
  6
CONTINUOUS
 62
     8
 10
286.5937259575
 20
408.6609484625
 30
0.0
  0
VERTEX
  5
26A
  8
0
  6
CONTINUOUS
 62
     8
 10
285.9774006577
 20
406.0327781441
 30
0.0
  0
VERTEX
  5
26B
  8
0
  6
CONTINUOUS
 62
     8
 10
285.7717053449
 20
403.4961079623
 30
0.0
  0
VERTEX
  5
26C
  8
0
  6
CONTINUOUS
 62
     8
 10
285.9757070711
 20
400.9657134193
 30
0.0
  0
VERTEX
  5
26D
  8
0
  6
CONTINUOUS
 62
     8
 10
286.1345437083
 20
400.0961591237
 30
0.0
  0
VERTEX
  5
26E
  8
0
  6
CONTINUOUS
 62
     8
 10
286.3387983764
 20
399.2206248748
 30
0.0
  0
VERTEX
  5
26F
  8
0
  6
CONTINUOUS
 62
     8
 10
286.5884710755
 20
398.3440653549
 30
0.0
  0
VERTEX
  5
270
  8
0
  6
CONTINUOUS
 62
     8
 10
286.7049960507
 20
397.9817742022
 30
0.0
  0
VERTEX
  5
271
  8
0
  6
CONTINUOUS
 62
     8
 10
286.8340100518
 20
397.6043639227
 30
0.0
  0
VERTEX
  5
272
  8
0
  6
CONTINUOUS
 62
     8
 10
286.9755130786
 20
397.2129714122
 30
0.0
  0
VERTEX
  5
273
  8
0
  6
CONTINUOUS
 62
     8
 10
287.1295051312
 20
396.8088813238
 30
0.0
  0
VERTEX
  5
274
  8
0
  6
CONTINUOUS
 62
     8
 10
287.2959862096
 20
396.3935368885
 30
0.0
  0
VERTEX
  5
275
  8
0
  6
CONTINUOUS
 62
     8
 10
287.4749563137
 20
395.9685504087
 30
0.0
  0
VERTEX
  5
276
  8
0
  6
CONTINUOUS
 62
     8
 10
287.5036406471
 20
395.9032285688
 30
0.0
  0
VERTEX
  5
277
  8
0
  6
CONTINUOUS
 62
     8
 10
287.7559774561
 20
395.3453551711
 30
0.0
  0
VERTEX
  5
278
  8
0
  6
CONTINUOUS
 62
     8
 10
287.9481897234
 20
394.9344261515
 30
0.0
  0
VERTEX
  5
279
  8
0
  6
CONTINUOUS
 62
     8
 10
288.1896712674
 20
394.4353570901
 30
0.0
  0
VERTEX
  5
27A
  8
0
  6
CONTINUOUS
 62
     8
 10
288.4804220879
 20
393.8610168006
 30
0.0
  0
VERTEX
  5
27B
  8
0
  6
CONTINUOUS
 62
     8
 10
289.0628377925
 20
392.7740664468
 30
0.0
  0
VERTEX
  5
27C
  8
0
  6
CONTINUOUS
 62
     8
 10
289.5544924582
 20
391.912007031
 30
0.0
  0
VERTEX
  5
27D
  8
0
  6
CONTINUOUS
 62
     8
 10
289.9553860849
 20
391.2466875392
 30
0.0
  0
VERTEX
  5
27E
  8
0
  6
CONTINUOUS
 62
     8
 10
290.2655186728
 20
390.7478884257
 30
0.0
  0
VERTEX
  5
27F
  8
0
  6
CONTINUOUS
 62
     8
 10
290.7995965416
 20
389.901678905
 30
0.0
  0
VERTEX
  5
280
  8
0
  6
CONTINUOUS
 62
     8
 10
290.9777045142
 20
389.6300073278
 30
0.0
  0
SEQEND
  5
2F2
  8
0
  6
CONTINUOUS
 62
     8
  0
POLYLINE
  5
10A
  8
0
  6
CONTINUOUS
 62
     8
 66
     1
 10
0.0
 20
0.0
 30
0.0
 70
   128
  0
VERTEX
  5
281
  8
0
  6
CONTINUOUS
 62
     8
 10
286.0342227301
 20
464.9739308705
 30
0.0
  0
VERTEX
  5
282
  8
0
  6
CONTINUOUS
 62
     8
 10
286.0372145718
 20
464.9776678703
 30
0.0
  0
VERTEX
  5
283
  8
0
  6
CONTINUOUS
 62
     8
 10
285.927187911
 20
464.8326020774
 30
0.0
  0
VERTEX
  5
284
  8
0
  6
CONTINUOUS
 62
     8
 10
285.9271822674
 20
464.8325941388
 30
0.0
  0
VERTEX
  5
285
  8
0
  6
CONTINUOUS
 62
     8
 10
285.9271822674
 20
464.8325941388
 30
0.0
  0
SEQEND
  5
2F3
  8
0
  6
CONTINUOUS
 62
     8
  0
POLYLINE
  5
10B
  8
0
  6
CONTINUOUS
 62
     8
 66
     1
 10
0.0
 20
0.0
 30
0.0
 70
   128
  0
VERTEX
  5
286
  8
0
  6
CONTINUOUS
 62
     8
 10
288.5090537651
 20
462.7850875216
 30
0.0
  0
VERTEX
  5
287
  8
0
  6
CONTINUOUS
 62
     8
 10
288.4859192762
 20
462.6975033256
 30
0.0
  0
VERTEX
  5
288
  8
0
  6
CONTINUOUS
 62
     8
 10
288.414664283
 20
462.4102949615
 30
0.0
  0
VERTEX
  5
289
  8
0
  6
CONTINUOUS
 62
     8
 10
288.1968738843
 20
461.3897276995
 30
0.0
  0
VERTEX
  5
28A
  8
0
  6
CONTINUOUS
 62
     8
 10
288.0724623161
 20
460.5877921722
 30
0.0
  0
VERTEX
  5
28B
  8
0
  6
CONTINUOUS
 62
     8
 10
287.9835058189
 20
459.7755652734
 30
0.0
  0
VERTEX
  5
28C
  8
0
  6
CONTINUOUS
 62
     8
 10
287.9119580371
 20
458.3401840086
 30
0.0
  0
VERTEX
  5
28D
  8
0
  6
CONTINUOUS
 62
     8
 10
287.9821412751
 20
456.9027929762
 30
0.0
  0
VERTEX
  5
28E
  8
0
  6
CONTINUOUS
 62
     8
 10
288.0703506244
 20
456.0915096137
 30
0.0
  0
VERTEX
  5
28F
  8
0
  6
CONTINUOUS
 62
     8
 10
288.193971794
 20
455.2906139369
 30
0.0
  0
VERTEX
  5
290
  8
0
  6
CONTINUOUS
 62
     8
 10
288.4123721243
 20
454.263769303
 30
0.0
  0
VERTEX
  5
291
  8
0
  6
CONTINUOUS
 62
     8
 10
288.4847627544
 20
453.9715392087
 30
0.0
  0
VERTEX
  5
292
  8
0
  6
CONTINUOUS
 62
     8
 10
288.5093125229
 20
453.8785053578
 30
0.0
  0
VERTEX
  5
293
  8
0
  6
CONTINUOUS
 62
     8
 10
288.509002093
 20
453.8796804636
 30
0.0
  0
SEQEND
  5
2F4
  8
0
  6
CONTINUOUS
 62
     8
  0
LINE
  5
10C
  8
0
  6
CONTINUOUS
 62
     8
 10
286.9871508894
 20
442.5508675998
 30
0.0
 11
286.9871508894
 21
450.113704866
 31
0.0
  0
LINE
  5
10D
  8
0
  6
CONTINUOUS
 62
     8
 10
230.074335171
 20
362.448138667
 30
0.0
 11
233.8331056542
 21
363.8162192403
 31
0.0
  0
LINE
  5
10E
  8
0
  6
CONTINUOUS
 62
     8
 10
228.1949499295
 20
363.7640983803
 30
0.0
 11
228.1949499295
 21
367.7640983803
 31
0.0
  0
POLYLINE
  5
10F
  8
0
  6
CONTINUOUS
 62
     7
 66
     1
 10
0.0
 20
0.0
 30
0.0
 70
   128
  0
VERTEX
  5
294
  8
0
  6
CONTINUOUS
 62
     7
 10
136.8102103654
 20
190.9855126544
 30
0.0
  0
VERTEX
  5
295
  8
0
  6
CONTINUOUS
 62
     7
 10
136.8624140216
 20
191.5305377125
 30
0.0
  0
VERTEX
  5
296
  8
0
  6
CONTINUOUS
 62
     7
 10
137.0090135063
 20
192.0502430076
 30
0.0
  0
VERTEX
  5
297
  8
0
  6
CONTINUOUS
 62
     7
 10
137.2209995897
 20
192.5138923329
 30
0.0
  0
VERTEX
  5
298
  8
0
  6
CONTINUOUS
 62
     7
 10
137.4485712094
 20
192.8961552984
 30
0.0
  0
VERTEX
  5
299
  8
0
  6
CONTINUOUS
 62
     7
 10
137.6252760917
 20
193.1781950298
 30
0.0
  0
VERTEX
  5
29A
  8
0
  6
CONTINUOUS
 62
     7
 10
137.672153919
 20
193.3466186893
 30
0.0
  0
VERTEX
  5
29B
  8
0
  6
CONTINUOUS
 62
     7
 10
137.6664446635
 20
193.3481758435
 30
0.0
  0
SEQEND
  5
2F5
  8
0
  6
CONTINUOUS
 62
     7
  0
POLYLINE
  5
110
  8
0
  6
CONTINUOUS
 62
     7
 66
     1
 10
0.0
 20
0.0
 30
0.0
 70
   128
  0
VERTEX
  5
29C
  8
0
  6
CONTINUOUS
 62
     7
 10
126.9348173675
 20
193.4095310712
 30
0.0
  0
VERTEX
  5
29D
  8
0
  6
CONTINUOUS
 62
     7
 10
126.9175805351
 20
193.3784472503
 30
0.0
  0
VERTEX
  5
29E
  8
0
  6
CONTINUOUS
 62
     7
 10
127.0507208701
 20
193.1924425165
 30
0.0
  0
VERTEX
  5
29F
  8
0
  6
CONTINUOUS
 62
     7
 10
127.2970657686
 20
192.8603372851
 30
0.0
  0
VERTEX
  5
2A0
  8
0
  6
CONTINUOUS
 62
     7
 10
127.5801852721
 20
192.3679381464
 30
0.0
  0
VERTEX
  5
2A1
  8
0
  6
CONTINUOUS
 62
     7
 10
127.8095066377
 20
191.7266073239
 30
0.0
  0
VERTEX
  5
2A2
  8
0
  6
CONTINUOUS
 62
     7
 10
127.9005327468
 20
190.985512549
 30
0.0
  0
SEQEND
  5
2F6
  8
0
  6
CONTINUOUS
 62
     7
  0
LINE
  5
111
  8
0
  6
CONTINUOUS
 62
     7
 10
127.9005325586
 20
190.9855140812
 30
0.0
 11
128.0272911803
 21
118.3582474524
 31
0.0
  0
LINE
  5
112
  8
0
  6
CONTINUOUS
 62
     7
 10
136.68345183
 20
118.3582474524
 30
0.0
 11
136.8103855381
 21
191.0858311286
 31
0.0
  0
ARC
  5
113
  8
0
  6
CONTINUOUS
 62
     7
 10
135.1834541146
 20
118.360865445
 30
0.0
 40
1.500000000000012
 50
270.0
 51
359.9
  0
ARC
  5
114
  8
0
  6
CONTINUOUS
 62
     7
 10
129.5272888956
 20
118.360865445
 30
0.0
 40
1.500000000000012
 50
180.1
 51
270.0
  0
ARC
  5
115
  8
0
  6
CONTINUOUS
 62
     7
 10
155.2097339348
 20
193.0944510628
 30
0.0
 40
8.972175158030563
 50
133.8792979872
 51
179.8000383785
  0
ARC
  5
116
  8
0
  6
CONTINUOUS
 62
     7
 10
109.5009955823
 20
193.0944451419
 30
0.0
 40
8.97218877851743
 50
0.1999988773
 51
46.1207352244
  0
LINE
  5
117
  8
0
  6
CONTINUOUS
 62
     7
 10
118.472779974
 20
193.225953326
 30
0.0
 11
118.6356465922
 21
146.5682936106
 31
0.0
  0
LINE
  5
118
  8
0
  6
CONTINUOUS
 62
     7
 10
146.0750964181
 20
146.5682936106
 30
0.0
 11
146.2379623746
 21
193.2257637908
 31
0.0
  0
POLYLINE
  5
119
  8
0
  6
CONTINUOUS
 62
     7
 66
     1
 10
0.0
 20
0.0
 30
0.0
 70
   128
  0
VERTEX
  5
2A3
  8
0
  6
CONTINUOUS
 62
     7
 10
118.6350306542
 20
146.6074153887
 30
0.0
  0
VERTEX
  5
2A4
  8
0
  6
CONTINUOUS
 62
     7
 10
118.6577509888
 20
139.8958891272
 30
0.0
  0
VERTEX
  5
2A5
  8
0
  6
CONTINUOUS
 62
     7
 10
118.6766406595
 20
133.8900066625
 30
0.0
  0
VERTEX
  5
2A6
  8
0
  6
CONTINUOUS
 62
     7
 10
118.6920532402
 20
128.5088115406
 30
0.0
  0
VERTEX
  5
2A7
  8
0
  6
CONTINUOUS
 62
     7
 10
118.7043423051
 20
123.6713473076
 30
0.0
  0
VERTEX
  5
2A8
  8
0
  6
CONTINUOUS
 62
     7
 10
118.7138614281
 20
119.2966575095
 30
0.0
  0
VERTEX
  5
2A9
  8
0
  6
CONTINUOUS
 62
     7
 10
118.7209641834
 20
115.3037856923
 30
0.0
  0
VERTEX
  5
2AA
  8
0
  6
CONTINUOUS
 62
     7
 10
118.72786107
 20
109.853294438
 30
0.0
  0
VERTEX
  5
2AB
  8
0
  6
CONTINUOUS
 62
     7
 10
118.7313099831
 20
104.8065135874
 30
0.0
  0
VERTEX
  5
2AC
  8
0
  6
CONTINUOUS
 62
     7
 10
118.7322830078
 20
101.5313491547
 30
0.0
  0
VERTEX
  5
2AD
  8
0
  6
CONTINUOUS
 62
     7
 10
118.732607535
 20
98.2332204333
 30
0.0
  0
VERTEX
  5
2AE
  8
0
  6
CONTINUOUS
 62
     7
 10
118.7326371387
 20
94.8311709693
 30
0.0
  0
SEQEND
  5
2F7
  8
0
  6
CONTINUOUS
 62
     7
  0
POLYLINE
  5
11A
  8
0
  6
CONTINUOUS
 62
     7
 66
     1
 10
0.0
 20
0.0
 30
0.0
 70
   128
  0
VERTEX
  5
2AF
  8
0
  6
CONTINUOUS
 62
     7
 10
145.9781058715
 20
94.8311709693
 30
0.0
  0
VERTEX
  5
2B0
  8
0
  6
CONTINUOUS
 62
     7
 10
145.9781354753
 20
98.233220446
 30
0.0
  0
VERTEX
  5
2B1
  8
0
  6
CONTINUOUS
 62
     7
 10
145.9784600026
 20
101.5313492006
 30
0.0
  0
VERTEX
  5
2B2
  8
0
  6
CONTINUOUS
 62
     7
 10
145.9794330275
 20
104.8065136803
 30
0.0
  0
VERTEX
  5
2B3
  8
0
  6
CONTINUOUS
 62
     7
 10
145.9828819409
 20
109.8532946121
 30
0.0
  0
VERTEX
  5
2B4
  8
0
  6
CONTINUOUS
 62
     7
 10
145.9897788277
 20
115.3037859401
 30
0.0
  0
VERTEX
  5
2B5
  8
0
  6
CONTINUOUS
 62
     7
 10
145.9968815831
 20
119.2966577904
 30
0.0
  0
VERTEX
  5
2B6
  8
0
  6
CONTINUOUS
 62
     7
 10
146.0064007062
 20
123.6713476012
 30
0.0
  0
VERTEX
  5
2B7
  8
0
  6
CONTINUOUS
 62
     7
 10
146.018689771
 20
128.5088118193
 30
0.0
  0
VERTEX
  5
2B8
  8
0
  6
CONTINUOUS
 62
     7
 10
146.0341023516
 20
133.8900068919
 30
0.0
  0
VERTEX
  5
2B9
  8
0
  6
CONTINUOUS
 62
     7
 10
146.0529920219
 20
139.895889266
 30
0.0
  0
VERTEX
  5
2BA
  8
0
  6
CONTINUOUS
 62
     7
 10
146.0757123561
 20
146.6074153887
 30
0.0
  0
SEQEND
  5
2F8
  8
0
  6
CONTINUOUS
 62
     7
  0
LINE
  5
11B
  8
0
  6
CONTINUOUS
 62
     7
 10
118.7331131051
 20
94.8311709693
 30
0.0
 11
118.7331131051
 21
89.8003118869
 31
0.0
  0
LINE
  5
11C
  8
0
  6
CONTINUOUS
 62
     7
 10
145.9776299052
 20
89.8003118869
 30
0.0
 11
145.9776299052
 21
94.8311709693
 31
0.0
  0
POLYLINE
  5
11D
  8
0
  6
CONTINUOUS
 62
     7
 66
     1
 10
0.0
 20
0.0
 30
0.0
 70
   128
  0
VERTEX
  5
2BB
  8
0
  6
CONTINUOUS
 62
     7
 10
118.7575857946
 20
89.6309248965
 30
0.0
  0
VERTEX
  5
2BC
  8
0
  6
CONTINUOUS
 62
     7
 10
118.7510970422
 20
89.2168185652
 30
0.0
  0
VERTEX
  5
2BD
  8
0
  6
CONTINUOUS
 62
     7
 10
118.9530449522
 20
87.7675652942
 30
0.0
  0
VERTEX
  5
2BE
  8
0
  6
CONTINUOUS
 62
     7
 10
119.3749038694
 20
86.3556722319
 30
0.0
  0
VERTEX
  5
2BF
  8
0
  6
CONTINUOUS
 62
     7
 10
120.0092116828
 20
85.0025092495
 30
0.0
  0
VERTEX
  5
2C0
  8
0
  6
CONTINUOUS
 62
     7
 10
120.8461138279
 20
83.7286345258
 30
0.0
  0
VERTEX
  5
2C1
  8
0
  6
CONTINUOUS
 62
     7
 10
121.8728512707
 20
82.5541420893
 30
0.0
  0
VERTEX
  5
2C2
  8
0
  6
CONTINUOUS
 62
     7
 10
123.0732558636
 20
81.4983461097
 30
0.0
  0
VERTEX
  5
2C3
  8
0
  6
CONTINUOUS
 62
     7
 10
124.4276488722
 20
80.5790620784
 30
0.0
  0
VERTEX
  5
2C4
  8
0
  6
CONTINUOUS
 62
     7
 10
125.9131083537
 20
79.8118925026
 30
0.0
  0
VERTEX
  5
2C5
  8
0
  6
CONTINUOUS
 62
     7
 10
127.5041705134
 20
79.209600779
 30
0.0
  0
VERTEX
  5
2C6
  8
0
  6
CONTINUOUS
 62
     7
 10
129.1743586948
 20
78.7816521729
 30
0.0
  0
VERTEX
  5
2C7
  8
0
  6
CONTINUOUS
 62
     7
 10
130.8963600481
 20
78.5345953158
 30
0.0
  0
VERTEX
  5
2C8
  8
0
  6
CONTINUOUS
 62
     7
 10
132.3553715051
 20
78.4696967332
 30
0.0
  0
SEQEND
  5
2F9
  8
0
  6
CONTINUOUS
 62
     7
  0
POLYLINE
  5
11E
  8
0
  6
CONTINUOUS
 62
     7
 66
     1
 10
0.0
 20
0.0
 30
0.0
 70
   128
  0
VERTEX
  5
2C9
  8
0
  6
CONTINUOUS
 62
     7
 10
132.3553715051
 20
78.4696967332
 30
0.0
  0
VERTEX
  5
2CA
  8
0
  6
CONTINUOUS
 62
     7
 10
133.3018332618
 20
78.4969607971
 30
0.0
  0
VERTEX
  5
2CB
  8
0
  6
CONTINUOUS
 62
     7
 10
135.0345990765
 20
78.6900804417
 30
0.0
  0
VERTEX
  5
2CC
  8
0
  6
CONTINUOUS
 62
     7
 10
136.7259215795
 20
79.0662918581
 30
0.0
  0
VERTEX
  5
2CD
  8
0
  6
CONTINUOUS
 62
     7
 10
138.3477224601
 20
79.6204990234
 30
0.0
  0
VERTEX
  5
2CE
  8
0
  6
CONTINUOUS
 62
     7
 10
139.8734286637
 20
80.3450786244
 30
0.0
  0
VERTEX
  5
2CF
  8
0
  6
CONTINUOUS
 62
     7
 10
141.2773095151
 20
81.2296766764
 30
0.0
  0
VERTEX
  5
2D0
  8
0
  6
CONTINUOUS
 62
     7
 10
142.5348039575
 20
82.260960208
 30
0.0
  0
VERTEX
  5
2D1
  8
0
  6
CONTINUOUS
 62
     7
 10
143.6228653794
 20
83.4220983606
 30
0.0
  0
VERTEX
  5
2D2
  8
0
  6
CONTINUOUS
 62
     7
 10
144.5210838731
 20
84.6926816788
 30
0.0
  0
VERTEX
  5
2D3
  8
0
  6
CONTINUOUS
 62
     7
 10
145.2130883435
 20
86.0495278728
 30
0.0
  0
VERTEX
  5
2D4
  8
0
  6
CONTINUOUS
 62
     7
 10
145.6871893344
 20
87.4674576518
 30
0.0
  0
VERTEX
  5
2D5
  8
0
  6
CONTINUOUS
 62
     7
 10
145.9367190556
 20
88.9206303152
 30
0.0
  0
VERTEX
  5
2D6
  8
0
  6
CONTINUOUS
 62
     7
 10
145.9531572156
 20
89.9696988772
 30
0.0
  0
SEQEND
  5
2FA
  8
0
  6
CONTINUOUS
 62
     7
  0
LINE
  5
11F
  8
0
  6
CONTINUOUS
 62
     7
 10
130.3553715051
 20
263.702519035
 30
0.0
 11
130.3553715051
 21
250.702519035
 31
0.0
  0
LINE
  5
120
  8
0
  6
CONTINUOUS
 62
     7
 10
134.3553715051
 20
250.702519035
 30
0.0
 11
134.3553715051
 21
263.702519035
 31
0.0
  0
LINE
  5
121
  8
0
  6
CONTINUOUS
 62
     7
 10
134.3553715051
 20
246.9437485518
 30
0.0
 11
134.3553715051
 21
250.702519035
 31
0.0
  0
LINE
  5
122
  8
0
  6
CONTINUOUS
 62
     7
 10
130.3553715051
 20
250.702519035
 30
0.0
 11
130.3553715051
 21
246.9437485518
 31
0.0
  0
LINE
  5
123
  8
0
  6
CONTINUOUS
 62
     7
 10
130.3553715051
 20
246.9437485518
 30
0.0
 11
130.3553715051
 21
240.7773869312
 31
0.0
  0
LINE
  5
124
  8
0
  6
CONTINUOUS
 62
     7
 10
134.3553715051
 20
240.7773869312
 30
0.0
 11
134.3553715051
 21
246.9437485518
 31
0.0
  0
ARC
  5
125
  8
0
  6
CONTINUOUS
 62
     7
 10
132.3553715051
 20
216.860865445
 30
0.0
 40
24.00000000000005
 50
275.4730792506
 51
264.5265628847
  0
LINE
  5
126
  8
0
  6
CONTINUOUS
 62
     7
 10
135.1834541146
 20
116.860865445
 30
0.0
 11
129.5272892363
 21
116.860865445
 31
0.0
  0
LINE
  5
127
  8
0
  6
CONTINUOUS
 62
     7
 10
130.3553715051
 20
263.702519035
 30
0.0
 11
134.3553715051
 21
263.702519035
 31
0.0
  0
ARC
  5
128
  8
0
  6
CONTINUOUS
 62
     8
 10
132.3553715051
 20
216.860865445
 30
0.0
 40
22.50000000000004
 50
275.4754523714
 51
264.524573989
  0
POLYLINE
  5
129
  8
0
  6
CONTINUOUS
 62
     8
 66
     1
 10
0.0
 20
0.0
 30
0.0
 70
   128
  0
VERTEX
  5
2D7
  8
0
  6
CONTINUOUS
 62
     8
 10
130.2084514793
 20
194.4635644822
 30
0.0
  0
VERTEX
  5
2D8
  8
0
  6
CONTINUOUS
 62
     8
 10
130.1536864317
 20
193.8922420187
 30
0.0
  0
VERTEX
  5
2D9
  8
0
  6
CONTINUOUS
 62
     8
 10
130.1072532007
 20
193.4078396278
 30
0.0
  0
VERTEX
  5
2DA
  8
0
  6
CONTINUOUS
 62
     8
 10
130.0762229199
 20
193.0841253959
 30
0.0
  0
VERTEX
  5
2DB
  8
0
  6
CONTINUOUS
 62
     8
 10
130.0653187283
 20
192.9703724233
 30
0.0
  0
SEQEND
  5
2FB
  8
0
  6
CONTINUOUS
 62
     8
  0
POLYLINE
  5
12A
  8
0
  6
CONTINUOUS
 62
     8
 66
     1
 10
0.0
 20
0.0
 30
0.0
 70
   128
  0
VERTEX
  5
2DC
  8
0
  6
CONTINUOUS
 62
     8
 10
134.6434552448
 20
192.9701837742
 30
0.0
  0
VERTEX
  5
2DD
  8
0
  6
CONTINUOUS
 62
     8
 10
134.63305123
 20
193.0840041929
 30
0.0
  0
VERTEX
  5
2DE
  8
0
  6
CONTINUOUS
 62
     8
 10
134.6025259439
 20
193.4077765505
 30
0.0
  0
VERTEX
  5
2DF
  8
0
  6
CONTINUOUS
 62
     8
 10
134.556588466
 20
193.8922265157
 30
0.0
  0
VERTEX
  5
2E0
  8
0
  6
CONTINUOUS
 62
     8
 10
134.5023007634
 20
194.4635764369
 30
0.0
  0
SEQEND
  5
2FC
  8
0
  6
CONTINUOUS
 62
     8
  0
ARC
  5
12B
  8
0
  6
CONTINUOUS
 62
     8
 10
132.3552694081
 20
214.3540090613
 30
0.0
 40
20.00592789958246
 50
263.8397905103
 51
276.1608213602
  0
ARC
  5
12C
  8
0
  6
CONTINUOUS
 62
     8
 10
132.3552514973
 20
214.9025200898
 30
0.0
 40
22.0512816736921
 50
264.0436822861
 51
275.9561308746
  0
LINE
  5
12D
  8
0
  6
CONTINUOUS
 62
     8
 10
130.3553715051
 20
250.702519035
 30
0.0
 11
134.3553715051
 21
250.702519035
 31
0.0
  0
ARC
  5
12E
  8
0
  6
CONTINUOUS
 62
     8
 10
132.3553715051
 20
247.0348659558
 30
0.0
 40
2.002074519420544
 50
182.6085176004
 51
357.3914823996
  0
ENDSEC
  0
EOF
