  0
SECTION
  2
HEADER
  9
$ACADVER
  1
AC1024
  9
$ACADMAINTVER
 70
     6
  9
$DWGCODEPAGE
  3
ANSI_1252
  9
$INSBASE
 10
0.0
 20
0.0
 30
0.0
  9
$EXTMIN
 10
0.0
 20
0.0
 30
0.0
  9
$EXTMAX
 10
594.0
 20
841.0
 30
0.0
  9
$LIMMIN
 10
0.0
 20
0.0
  9
$LIMMAX
 10
594.0
 20
841.0
  9
$ORTHOMODE
 70
     0
  9
$REGENMODE
 70
     1
  9
$FILLMODE
 70
     1
  9
$QTEXTMODE
 70
     0
  9
$MIRRTEXT
 70
     1
  9
$LTSCALE
 40
1.0
  9
$ATTMODE
 70
     1
  9
$TEXTSIZE
 40
10.0
  9
$TRACEWID
 40
1.0
  9
$TEXTSTYLE
  7
Standard
  9
$CLAYER
  8
0
  9
$CELTYPE
  6
ByLayer
  9
$CECOLOR
 62
   256
  9
$CELTSCALE
 40
1.0
  9
$DISPSILH
 70
     0
  9
$DIMSCALE
 40
1.0
  9
$DIMASZ
 40
2.5
  9
$DIMEXO
 40
0.0
  9
$DIMDLI
 40
3.75
  9
$DIMRND
 40
0.0
  9
$DIMDLE
 40
0.0
  9
$DIMEXE
 40
1.0
  9
$DIMTP
 40
0.0
  9
$DIMTM
 40
0.0
  9
$DIMTXT
 40
3.5
  9
$DIMCEN
 40
2.5
  9
$DIMTSZ
 40
0.0
  9
$DIMTOL
 70
     0
  9
$DIMLIM
 70
     0
  9
$DIMTIH
 70
     1
  9
$DIMTOH
 70
     1
  9
$DIMSE1
 70
     0
  9
$DIMSE2
 70
     0
  9
$DIMTAD
 70
     1
  9
$DIMZIN
 70
     0
  9
$DIMBLK
  1

  9
$DIMASO
 70
     1
  9
$DIMSHO
 70
     1
  9
$DIMPOST
  1

  9
$DIMAPOST
  1

  9
$DIMALT
 70
     0
  9
$DIMALTD
 70
     3
  9
$DIMALTF
 40
0.0393700787
  9
$DIMLFAC
 40
1.0
  9
$DIMTOFL
 70
     1
  9
$DIMTVP
 40
0.0
  9
$DIMTIX
 70
     0
  9
$DIMSOXD
 70
     0
  9
$DIMSAH
 70
     0
  9
$DIMBLK1
  1

  9
$DIMBLK2
  1

  9
$DIMSTYLE
  2
ISO-25
  9
$DIMCLRD
 70
     0
  9
$DIMCLRE
 70
     0
  9
$DIMCLRT
 70
     0
  9
$DIMTFAC
 40
1.0
  9
$DIMGAP
 40
1.5
  9
$DIMJUST
 70
     0
  9
$DIMSD1
 70
     0
  9
$DIMSD2
 70
     0
  9
$DIMTOLJ
 70
     0
  9
$DIMTZIN
 70
     0
  9
$DIMALTZ
 70
     0
  9
$DIMALTTZ
 70
     0
  9
$DIMUPT
 70
     0
  9
$DIMDEC
 70
     2
  9
$DIMTDEC
 70
     2
  9
$DIMALTU
 70
     2
  9
$DIMALTTD
 70
     3
  9
$DIMTXSTY
  7
Standard
  9
$DIMAUNIT
 70
     0
  9
$DIMADEC
 70
     2
  9
$DIMALTRND
 40
0.0
  9
$DIMAZIN
 70
     0
  9
$DIMDSEP
 70
    44
  9
$DIMATFIT
 70
     3
  9
$DIMFRAC
 70
     0
  9
$DIMLDRBLK
  1

  9
$DIMLUNIT
 70
     2
  9
$DIMLWD
 70
    -2
  9
$DIMLWE
 70
    -2
  9
$DIMTMOVE
 70
     0
  9
$DIMFXL
 40
1.0
  9
$DIMFXLON
 70
     0
  9
$DIMJOGANG
 40
0.7853981634
  9
$DIMTFILL
 70
     0
  9
$DIMTFILLCLR
 70
     0
  9
$DIMARCSYM
 70
     0
  9
$DIMLTYPE
  6

  9
$DIMLTEX1
  6

  9
$DIMLTEX2
  6

  9
$DIMTXTDIRECTION
 70
     0
  9
$LUNITS
 70
     2
  9
$LUPREC
 70
     2
  9
$SKETCHINC
 40
1.0
  9
$FILLETRAD
 40
10.0
  9
$AUNITS
 70
     0
  9
$AUPREC
 70
     2
  9
$MENU
  1
.
  9
$ELEVATION
 40
0.0
  9
$PELEVATION
 40
0.0
  9
$THICKNESS
 40
0.0
  9
$LIMCHECK
 70
     0
  9
$CHAMFERA
 40
10.0
  9
$CHAMFERB
 40
10.0
  9
$CHAMFERC
 40
20.0
  9
$CHAMFERD
 40
0.0
  9
$SKPOLY
 70
     0
  9
$TDCREATE
 40
2456588.344457454
  9
$TDUCREATE
 40
2456588.261124121
  9
$TDUPDATE
 40
2456588.344459989
  9
$TDUUPDATE
 40
2456588.261126655
  9
$TDINDWG
 40
0.0000000116
  9
$TDUSRTIMER
 40
0.0000000116
  9
$USRTIMER
 70
     1
  9
$ANGBASE
 50
0.0
  9
$ANGDIR
 70
     0
  9
$PDMODE
 70
     0
  9
$PDSIZE
 40
-1.0
  9
$PLINEWID
 40
0.0
  9
$SPLFRAME
 70
     0
  9
$SPLINETYPE
 70
     6
  9
$SPLINESEGS
 70
     8
  9
$HANDSEED
  5
223
  9
$SURFTAB1
 70
     6
  9
$SURFTAB2
 70
     6
  9
$SURFTYPE
 70
     6
  9
$SURFU
 70
     6
  9
$SURFV
 70
     6
  9
$UCSBASE
  2

  9
$UCSNAME
  2

  9
$UCSORG
 10
0.0
 20
0.0
 30
0.0
  9
$UCSXDIR
 10
1.0
 20
0.0
 30
0.0
  9
$UCSYDIR
 10
0.0
 20
1.0
 30
0.0
  9
$UCSORTHOREF
  2

  9
$UCSORTHOVIEW
 70
     0
  9
$UCSORGTOP
 10
0.0
 20
0.0
 30
0.0
  9
$UCSORGBOTTOM
 10
0.0
 20
0.0
 30
0.0
  9
$UCSORGLEFT
 10
0.0
 20
0.0
 30
0.0
  9
$UCSORGRIGHT
 10
0.0
 20
0.0
 30
0.0
  9
$UCSORGFRONT
 10
0.0
 20
0.0
 30
0.0
  9
$UCSORGBACK
 10
0.0
 20
0.0
 30
0.0
  9
$PUCSBASE
  2

  9
$PUCSNAME
  2

  9
$PUCSORG
 10
0.0
 20
0.0
 30
0.0
  9
$PUCSXDIR
 10
1.0
 20
0.0
 30
0.0
  9
$PUCSYDIR
 10
0.0
 20
1.0
 30
0.0
  9
$PUCSORTHOREF
  2

  9
$PUCSORTHOVIEW
 70
     0
  9
$PUCSORGTOP
 10
0.0
 20
0.0
 30
0.0
  9
$PUCSORGBOTTOM
 10
0.0
 20
0.0
 30
0.0
  9
$PUCSORGLEFT
 10
0.0
 20
0.0
 30
0.0
  9
$PUCSORGRIGHT
 10
0.0
 20
0.0
 30
0.0
  9
$PUCSORGFRONT
 10
0.0
 20
0.0
 30
0.0
  9
$PUCSORGBACK
 10
0.0
 20
0.0
 30
0.0
  9
$USERI1
 70
     0
  9
$USERI2
 70
     0
  9
$USERI3
 70
     0
  9
$USERI4
 70
     0
  9
$USERI5
 70
     0
  9
$USERR1
 40
0.0
  9
$USERR2
 40
0.0
  9
$USERR3
 40
0.0
  9
$USERR4
 40
0.0
  9
$USERR5
 40
0.0
  9
$WORLDVIEW
 70
     1
  9
$SHADEDGE
 70
     3
  9
$SHADEDIF
 70
    70
  9
$TILEMODE
 70
     1
  9
$MAXACTVP
 70
    64
  9
$PINSBASE
 10
0.0
 20
0.0
 30
0.0
  9
$PLIMCHECK
 70
     0
  9
$PEXTMIN
 10
1.0000000000E+20
 20
1.0000000000E+20
 30
1.0000000000E+20
  9
$PEXTMAX
 10
-1.0000000000E+20
 20
-1.0000000000E+20
 30
-1.0000000000E+20
  9
$PLIMMIN
 10
0.0
 20
0.0
  9
$PLIMMAX
 10
420.0
 20
297.0
  9
$UNITMODE
 70
     0
  9
$VISRETAIN
 70
     1
  9
$PLINEGEN
 70
     0
  9
$PSLTSCALE
 70
     1
  9
$TREEDEPTH
 70
  3020
  9
$CMLSTYLE
  2
Standard
  9
$CMLJUST
 70
     0
  9
$CMLSCALE
 40
20.0
  9
$PROXYGRAPHICS
 70
     1
  9
$MEASUREMENT
 70
     1
  9
$CELWEIGHT
370
    -1
  9
$ENDCAPS
280
     0
  9
$JOINSTYLE
280
     0
  9
$LWDISPLAY
290
     1
  9
$INSUNITS
 70
     4
  9
$HYPERLINKBASE
  1

  9
$STYLESHEET
  1

  9
$XEDIT
290
     1
  9
$CEPSNTYPE
380
     0
  9
$PSTYLEMODE
290
     1
  9
$FINGERPRINTGUID
  2
{84758B48-CAF8-42BC-9E31-C7F421D286EB}
  9
$VERSIONGUID
  2
{FAEB1C32-E019-11D5-929B-00C0DF256EC4}
  9
$EXTNAMES
290
     1
  9
$PSVPSCALE
 40
0.0
  9
$OLESTARTUP
290
     0
  9
$SORTENTS
280
   127
  9
$INDEXCTL
280
     0
  9
$HIDETEXT
280
     1
  9
$XCLIPFRAME
280
     2
  9
$HALOGAP
280
     0
  9
$OBSCOLOR
 70
   257
  9
$OBSLTYPE
280
     0
  9
$INTERSECTIONDISPLAY
280
     0
  9
$INTERSECTIONCOLOR
 70
   257
  9
$DIMASSOC
280
     2
  9
$PROJECTNAME
  1

  9
$CAMERADISPLAY
290
     0
  9
$LENSLENGTH
 40
50.0
  9
$CAMERAHEIGHT
 40
0.0
  9
$STEPSPERSEC
 40
2.0
  9
$STEPSIZE
 40
6.0
  9
$3DDWFPREC
 40
2.0
  9
$PSOLWIDTH
 40
5.0
  9
$PSOLHEIGHT
 40
80.0
  9
$LOFTANG1
 40
1.5707963268
  9
$LOFTANG2
 40
1.5707963268
  9
$LOFTMAG1
 40
0.0
  9
$LOFTMAG2
 40
0.0
  9
$LOFTPARAM
 70
     7
  9
$LOFTNORMALS
280
     1
  9
$LATITUDE
 40
37.795
  9
$LONGITUDE
 40
-122.394
  9
$NORTHDIRECTION
 40
0.0
  9
$TIMEZONE
 70
 -8000
  9
$LIGHTGLYPHDISPLAY
280
     1
  9
$TILEMODELIGHTSYNCH
280
     1
  9
$SOLIDHIST
280
     1
  9
$SHOWHIST
280
     1
  9
$DWFFRAME
280
     2
  9
$DGNFRAME
280
     2
  9
$REALWORLDSCALE
290
     1
  9
$INTERFERECOLOR
 62
   256
  9
$CSHADOW
280
     0
  9
$SHADOWPLANELOCATION
 40
0.0
  0
ENDSEC
  0
SECTION
  2
CLASSES
  0
CLASS
  1
ACDBDICTIONARYWDFLT
  2
AcDbDictionaryWithDefault
  3
ObjectDBX Classes
 90
        0
 91
        4
280
     0
281
     0
  0
CLASS
  1
VISUALSTYLE
  2
AcDbVisualStyle
  3
ObjectDBX Classes
 90
     4095
 91
        4
280
     0
281
     0
  0
CLASS
  1
MATERIAL
  2
AcDbMaterial
  3
ObjectDBX Classes
 90
     1153
 91
        4
280
     0
281
     0
  0
ENDSEC
  0
SECTION
  2
TABLES
  0
TABLE
  2
VPORT
  5
8
330
0
100
AcDbSymbolTable
 70
     1
  0
VPORT
  5
29
330
8
100
AcDbSymbolTableRecord
100
AcDbViewportTableRecord
  2
*Active
 70
     0
 10
0.0
 20
0.0
 11
1.0
 21
1.0
 12
297.0
 22
420.5
 13
0.0
 23
0.0
 14
10.0
 24
10.0
 15
10.0
 25
10.0
 16
0.0
 26
0.0
 36
1.0
 17
0.0
 27
0.0
 37
0.0
 40
841.0
 41
0.7063020214
 42
50.0
 43
0.0
 44
0.0
 50
0.0
 51
0.0
 71
     0
 72
  2000
 73
     1
 74
     3
 75
     0
 76
     0
 77
     0
 78
     0
281
     0
 65
     1
110
0.0
120
0.0
130
0.0
111
1.0
121
0.0
131
0.0
112
0.0
122
1.0
132
0.0
 79
     0
146
0.0
 60
     3
 61
     5
292
     1
282
     1
141
0.0
142
0.0
 63
   250
  0
ENDTAB
  0
TABLE
  2
LTYPE
  5
5
330
0
100
AcDbSymbolTable
 70
     6
  0
LTYPE
  5
14
330
5
100
AcDbSymbolTableRecord
100
AcDbLinetypeTableRecord
  2
ByBlock
 70
     0
  3

 72
    65
 73
     0
 40
0.0
  0
LTYPE
  5
15
330
5
100
AcDbSymbolTableRecord
100
AcDbLinetypeTableRecord
  2
ByLayer
 70
     0
  3

 72
    65
 73
     0
 40
0.0
  0
LTYPE
  5
16
330
5
100
AcDbSymbolTableRecord
100
AcDbLinetypeTableRecord
  2
Continuous
 70
     0
  3
Solid line
 72
    65
 73
     0
 40
0.0
  0
LTYPE
  5
3F
330
5
100
AcDbSymbolTableRecord
100
AcDbLinetypeTableRecord
  2
HIDDEN
 70
     0
  3
Hidden __ __ __ __ __ __ __ __ __ __ __ __ __ __
 72
    65
 73
     2
 40
1.905
 49
1.27
 74
     0
 49
-0.635
 74
     0
  0
LTYPE
  5
40
330
5
100
AcDbSymbolTableRecord
100
AcDbLinetypeTableRecord
  2
PHANTOM
 70
     0
  3
Phantom ______  __  __  ______  __  __  ______
 72
    65
 73
     6
 40
12.7
 49
6.35
 74
     0
 49
-1.27
 74
     0
 49
1.27
 74
     0
 49
-1.27
 74
     0
 49
1.27
 74
     0
 49
-1.27
 74
     0
  0
LTYPE
  5
41
330
5
100
AcDbSymbolTableRecord
100
AcDbLinetypeTableRecord
  2
CENTER
 70
     0
  3
Center ____ _ ____ _ ____ _ ____ _ ____ _ ____
 72
    65
 73
     4
 40
10.16
 49
6.35
 74
     0
 49
-1.27
 74
     0
 49
1.27
 74
     0
 49
-1.27
 74
     0
  0
LTYPE
  5
42
330
5
100
AcDbSymbolTableRecord
100
AcDbLinetypeTableRecord
  2
CENTERX2
 70
     0
  3
Center (2x) ________  __  ________  __  _____
 72
    65
 73
     4
 40
20.32
 49
12.7
 74
     0
 49
-2.54
 74
     0
 49
2.54
 74
     0
 49
-2.54
 74
     0
  0
LTYPE
  5
43
330
5
100
AcDbSymbolTableRecord
100
AcDbLinetypeTableRecord
  2
DOT2
 70
     0
  3
Dot (.5x) ........................................
 72
    65
 73
     2
 40
0.635
 49
0.0
 74
     0
 49
-0.635
 74
     0
  0
ENDTAB
  0
TABLE
  2
LAYER
  5
2
330
0
100
AcDbSymbolTable
 70
     1
  0
LAYER
  5
10
330
2
100
AcDbSymbolTableRecord
100
AcDbLayerTableRecord
  2
0
 70
     0
 62
     7
  6
Continuous
370
    -3
390
F
347
3E
  0
ENDTAB
  0
TABLE
  2
STYLE
  5
3
330
0
100
AcDbSymbolTable
 70
     3
  0
STYLE
  5
11
330
3
100
AcDbSymbolTableRecord
100
AcDbTextStyleTableRecord
  2
Standard
 70
     0
 40
0.0
 41
1.0
 50
0.0
 71
     0
 42
10.0
  3
txt
  4

  0
STYLE
  5
47
330
3
100
AcDbSymbolTableRecord
100
AcDbTextStyleTableRecord
  2
SLDTEXTSTYLE0
 70
     0
 40
0.0
 41
0.96
 50
0.0
 71
     0
 42
0.2
  3
ISOCP3
  4

  0
STYLE
  5
5E
330
3
100
AcDbSymbolTableRecord
100
AcDbTextStyleTableRecord
  2
SLDTEXTSTYLE1
 70
     0
 40
0.0
 41
0.605
 50
0.0
 71
     0
 42
0.2
  3
TXT
  4

  0
ENDTAB
  0
TABLE
  2
VIEW
  5
6
330
0
100
AcDbSymbolTable
 70
     0
  0
ENDTAB
  0
TABLE
  2
UCS
  5
7
330
0
100
AcDbSymbolTable
 70
     0
  0
ENDTAB
  0
TABLE
  2
APPID
  5
9
330
0
100
AcDbSymbolTable
 70
     1
  0
APPID
  5
12
330
9
100
AcDbSymbolTableRecord
100
AcDbRegAppTableRecord
  2
ACAD
 70
     0
  0
ENDTAB
  0
TABLE
  2
DIMSTYLE
  5
A
330
0
100
AcDbSymbolTable
 70
     2
100
AcDbDimStyleTable
  0
DIMSTYLE
105
27
330
A
100
AcDbSymbolTableRecord
100
AcDbDimStyleTableRecord
  2
ISO-25
 70
     0
 41
2.5
 42
0.625
 43
3.75
 44
1.25
 73
     0
 74
     0
 77
     1
 78
     8
140
2.5
141
2.5
143
0.0393700787
147
0.625
171
     3
172
     1
178
     0
271
     2
272
     2
274
     3
278
    44
283
     0
284
     8
340
11
  0
DIMSTYLE
105
48
102
{ACAD_REACTORS
330
46
330
53
102
}
330
A
100
AcDbSymbolTableRecord
100
AcDbDimStyleTableRecord
  2
SLDDIMSTYLE0
 70
     0
 41
2.5
 44
0.0
 45
0.000000001
 73
     0
 74
     0
 77
     1
 78
    12
 79
     3
140
6.0
147
1.5
173
     1
178
     0
271
     2
272
     2
276
     2
284
    12
340
47
  0
ENDTAB
  0
TABLE
  2
BLOCK_RECORD
  5
1
330
0
100
AcDbSymbolTable
 70
     3
  0
BLOCK_RECORD
  5
1F
330
1
100
AcDbSymbolTableRecord
100
AcDbBlockTableRecord
  2
*Model_Space
340
22
 70
     0
280
     1
281
     0
  0
BLOCK_RECORD
  5
1B
330
1
100
AcDbSymbolTableRecord
100
AcDbBlockTableRecord
  2
*Paper_Space
340
1E
 70
     0
280
     1
281
     0
  0
BLOCK_RECORD
  5
23
330
1
100
AcDbSymbolTableRecord
100
AcDbBlockTableRecord
  2
*Paper_Space0
340
26
 70
     0
280
     1
281
     0
  0
BLOCK_RECORD
  5
49
330
1
100
AcDbSymbolTableRecord
100
AcDbBlockTableRecord
  2
_D
340
0
 70
     0
280
     1
281
     0
  0
BLOCK_RECORD
  5
54
330
1
100
AcDbSymbolTableRecord
100
AcDbBlockTableRecord
  2
_D_1
340
0
 70
     0
280
     1
281
     0
  0
ENDTAB
  0
ENDSEC
  0
SECTION
  2
BLOCKS
  0
BLOCK
  5
20
330
1F
100
AcDbEntity
  8
0
100
AcDbBlockBegin
  2
*Model_Space
 70
     0
 10
0.0
 20
0.0
 30
0.0
  3
*Model_Space
  1

  0
ENDBLK
  5
21
330
1F
100
AcDbEntity
  8
0
100
AcDbBlockEnd
  0
BLOCK
  5
1C
330
1B
100
AcDbEntity
 67
     1
  8
0
100
AcDbBlockBegin
  2
*Paper_Space
 70
     0
 10
0.0
 20
0.0
 30
0.0
  3
*Paper_Space
  1

  0
ENDBLK
  5
1D
330
1B
100
AcDbEntity
 67
     1
  8
0
100
AcDbBlockEnd
  0
BLOCK
  5
24
330
23
100
AcDbEntity
  8
0
100
AcDbBlockBegin
  2
*Paper_Space0
 70
     0
 10
0.0
 20
0.0
 30
0.0
  3
*Paper_Space0
  1

  0
ENDBLK
  5
25
330
23
100
AcDbEntity
  8
0
100
AcDbBlockEnd
  0
BLOCK
  5
4A
330
49
100
AcDbEntity
  8
0
100
AcDbBlockBegin
  2
_D
 70
     0
 10
0.0
 20
0.0
 30
0.0
  3
_D
  1

  0
SOLID
  5
4C
330
49
100
AcDbEntity
  8
0
  6
Continuous
 62
     7
370
     0
100
AcDbTrace
 10
42.7614395004
 20
152.0299240879
 30
0.0
 11
42.4614395004
 21
149.5299240879
 31
0.0
 12
43.0614395004
 22
149.5299240879
 32
0.0
 13
43.0614395004
 23
149.5299240879
 33
0.0
  0
SOLID
  5
4D
330
49
100
AcDbEntity
  8
0
  6
Continuous
 62
     7
370
     0
100
AcDbTrace
 10
42.7614395004
 20
52.0299240879
 30
0.0
 11
43.0614395004
 21
54.5299240879
 31
0.0
 12
42.4614395004
 22
54.5299240879
 32
0.0
 13
42.4614395004
 23
54.5299240879
 33
0.0
  0
LINE
  5
4E
330
49
100
AcDbEntity
  8
0
  6
Continuous
 62
     7
370
     0
100
AcDbLine
 10
56.6850079902
 20
152.0299240879
 30
0.0
 11
41.7614395004
 21
152.0299240879
 31
0.0
  0
LINE
  5
4F
330
49
100
AcDbEntity
  8
0
  6
Continuous
 62
     7
370
     0
100
AcDbLine
 10
56.6850079902
 20
52.0299240879
 30
0.0
 11
41.7614395004
 21
52.0299240879
 31
0.0
  0
LINE
  5
50
330
49
100
AcDbEntity
  8
0
  6
Continuous
 62
     7
370
     0
100
AcDbLine
 10
42.7614395004
 20
152.0299240879
 30
0.0
 11
42.7614395004
 21
52.0299240879
 31
0.0
  0
MTEXT
  5
51
330
49
100
AcDbEntity
  8
0
  6
Continuous
 62
     7
370
     0
100
AcDbMText
 10
35.0270329453
 20
91.6722208134
 30
0.1
 40
6.0
 41
0.0
 46
0.0
 71
     1
 72
     1
  1
100
  7
SLDTEXTSTYLE0
 11
-7.044195017643634E-15
 21
1.0
 31
0.0
 73
     1
 44
1.0
  0
MTEXT
  5
52
330
49
100
AcDbEntity
  8
0
  6
Continuous
 62
     7
370
     0
100
AcDbMText
 10
35.0270329453
 20
108.4388881795
 30
0.1
 40
6.0
 41
0.0
 46
0.0
 71
     1
 72
     1
  1
mm
  7
SLDTEXTSTYLE0
 11
-7.044195017643634E-15
 21
1.0
 31
0.0
 73
     1
 44
1.0
  0
ENDBLK
  5
4B
330
49
100
AcDbEntity
  8
0
100
AcDbBlockEnd
  0
BLOCK
  5
55
330
54
100
AcDbEntity
  8
0
100
AcDbBlockBegin
  2
_D_1
 70
     0
 10
0.0
 20
0.0
 30
0.0
  3
_D_1
  1

  0
SOLID
  5
57
330
54
100
AcDbEntity
  8
0
  6
Continuous
 62
     7
370
     0
100
AcDbTrace
 10
56.6850079902
 20
38.4602342313
 30
0.0
 11
59.1850079902
 21
38.1602342313
 31
0.0
 12
59.1850079902
 22
38.7602342313
 32
0.0
 13
59.1850079902
 23
38.7602342313
 33
0.0
  0
SOLID
  5
58
330
54
100
AcDbEntity
  8
0
  6
Continuous
 62
     7
370
     0
100
AcDbTrace
 10
156.6850079902
 20
38.4602342313
 30
0.0
 11
154.1850079902
 21
38.7602342313
 31
0.0
 12
154.1850079902
 22
38.1602342313
 32
0.0
 13
154.1850079902
 23
38.1602342313
 33
0.0
  0
LINE
  5
59
330
54
100
AcDbEntity
  8
0
  6
Continuous
 62
     7
370
     0
100
AcDbLine
 10
56.6850079902
 20
52.0299240879
 30
0.0
 11
56.6850079902
 21
37.4602342313
 31
0.0
  0
LINE
  5
5A
330
54
100
AcDbEntity
  8
0
  6
Continuous
 62
     7
370
     0
100
AcDbLine
 10
156.6850079902
 20
52.0299240879
 30
0.0
 11
156.6850079902
 21
37.4602342313
 31
0.0
  0
LINE
  5
5B
330
54
100
AcDbEntity
  8
0
  6
Continuous
 62
     7
370
     0
100
AcDbLine
 10
56.6850079902
 20
38.4602342313
 30
0.0
 11
156.6850079902
 21
38.4602342313
 31
0.0
  0
MTEXT
  5
5C
330
54
100
AcDbEntity
  8
0
  6
Continuous
 62
     7
370
     0
100
AcDbMText
 10
91.2668151533
 20
46.1946407863
 30
0.1
 40
6.0
 41
0.0
 46
0.0
 71
     1
 72
     1
  1
100
  7
SLDTEXTSTYLE0
 73
     1
 44
1.0
  0
MTEXT
  5
5D
330
54
100
AcDbEntity
  8
0
  6
Continuous
 62
     7
370
     0
100
AcDbMText
 10
108.0334825193
 20
46.1946407863
 30
0.1
 40
6.0
 41
0.0
 46
0.0
 71
     1
 72
     1
  1
mm
  7
SLDTEXTSTYLE0
 73
     1
 44
1.0
  0
ENDBLK
  5
56
330
54
100
AcDbEntity
  8
0
100
AcDbBlockEnd
  0
ENDSEC
  0
SECTION
  2
ENTITIES
  0
LINE
  5
44
330
1F
100
AcDbEntity
  8
0
  6
Continuous
 62
     7
370
     0
100
AcDbLine
 10
56.6850079902
 20
152.0299240879
 30
0.0
 11
56.6850079902
 21
52.0299240879
 31
0.0
  0
LINE
  5
45
330
1F
100
AcDbEntity
  8
0
  6
Continuous
 62
     7
370
     0
100
AcDbLine
 10
56.6850079902
 20
52.0299240879
 30
0.0
 11
156.6850079902
 21
52.0299240879
 31
0.0
  0
DIMENSION
  5
46
330
1F
100
AcDbEntity
  8
0
  6
Continuous
 62
     7
370
     0
100
AcDbDimension
280
     0
  2
_D
 10
42.7614395004
 20
52.0299240879
 30
0.0
 11
42.7614395004
 21
105.4472211621
 31
0.0
 70
   160
  1
<>mm
 71
     2
 42
-1.0
 73
     0
 74
     0
 75
     0
  3
SLDDIMSTYLE0
100
AcDbAlignedDimension
 13
56.6850079902
 23
152.0299240879
 33
0.0
 14
56.6850079902
 24
52.0299240879
 34
0.0
 50
90.0
100
AcDbRotatedDimension
  0
DIMENSION
  5
53
330
1F
100
AcDbEntity
  8
0
  6
Continuous
 62
     7
370
     0
100
AcDbDimension
280
     0
  2
_D_1
 10
156.6850079902
 20
38.4602342313
 30
0.0
 11
105.0418155019
 21
38.4602342313
 31
0.0
 70
   160
  1
<>mm
 71
     2
 42
-1.0
 73
     0
 74
     0
 75
     0
  3
SLDDIMSTYLE0
100
AcDbAlignedDimension
 13
56.6850079902
 23
52.0299240879
 33
0.0
 14
156.6850079902
 24
52.0299240879
 34
0.0
100
AcDbRotatedDimension
  0
MTEXT
  5
5F
330
1F
100
AcDbEntity
  8
0
  6
Continuous
 62
     7
370
     0
100
AcDbMText
 10
277.3271993182
 20
45.1946633305
 30
0.0
 40
10.0
 41
0.0
 46
0.0
 71
     1
 72
     1
  1
42 026 05 75
  7
SLDTEXTSTYLE1
 73
     1
 44
1.0
  0
MTEXT
  5
60
330
1F
100
AcDbEntity
  8
0
  6
Continuous
 62
     7
370
     0
100
AcDbMText
 10
412.8252631579
 20
48.4342449499
 30
0.0
 40
10.0
 41
0.0
 46
0.0
 71
     1
 72
     1
  1
KLUDI GmbH & Co KG
  7
SLDTEXTSTYLE1
 73
     1
 44
1.0
  0
LINE
  5
61
330
1F
100
AcDbEntity
  8
0
  6
Continuous
 62
     7
370
    15
100
AcDbLine
 10
221.4312591691
 20
339.3930091523
 30
0.0
 11
221.4312591691
 21
334.1930091523
 31
0.0
  0
LINE
  5
62
330
1F
100
AcDbEntity
  8
0
  6
Continuous
 62
     7
370
    15
100
AcDbLine
 10
271.4312591691
 20
334.1930091523
 30
0.0
 11
271.4312591691
 21
339.3930091523
 31
0.0
  0
ARC
  5
63
330
1F
100
AcDbEntity
  8
0
  6
Continuous
 62
     7
370
    15
100
AcDbCircle
 10
221.6312591691
 20
334.1930091523
 30
0.0
 40
0.2000000000000455
100
AcDbArc
 50
180.0
 51
270.0
  0
ARC
  5
64
330
1F
100
AcDbEntity
  8
0
  6
Continuous
 62
     7
370
    15
100
AcDbCircle
 10
271.2312591691
 20
334.1930091523
 30
0.0
 40
0.2000000000000455
100
AcDbArc
 50
270.0
 51
0.0
  0
ARC
  5
65
330
1F
100
AcDbEntity
  8
0
  6
Continuous
 62
     7
370
    15
100
AcDbCircle
 10
270.4312591691
 20
339.3930091523
 30
0.0
 40
1.0
100
AcDbArc
 50
0.0
 51
90.0
  0
ARC
  5
66
330
1F
100
AcDbEntity
  8
0
  6
Continuous
 62
     7
370
    15
100
AcDbCircle
 10
222.4312591691
 20
339.3930091523
 30
0.0
 40
1.0
100
AcDbArc
 50
90.0
 51
180.0
  0
LINE
  5
67
330
1F
100
AcDbEntity
  8
0
  6
Continuous
 62
     7
370
    15
100
AcDbLine
 10
317.8487104806
 20
427.0038758834
 30
0.0
 11
309.9922512899
 21
427.0353471574
 31
0.0
  0
LINE
  5
68
330
1F
100
AcDbEntity
  8
0
  6
Continuous
 62
     7
370
    15
100
AcDbLine
 10
304.7332784265
 20
427.0564134637
 30
0.0
 11
295.8489034859
 21
427.0920023456
 31
0.0
  0
LINE
  5
69
330
1F
100
AcDbEntity
  8
0
  6
Continuous
 62
     7
370
    15
100
AcDbLine
 10
329.3486095914
 20
426.9578097782
 30
0.0
 11
327.8486227509
 21
426.9638184006
 31
0.0
  0
LINE
  5
6A
330
1F
100
AcDbEntity
  8
0
  6
Continuous
 62
     7
370
    15
100
AcDbLine
 10
299.5429214068
 20
381.0768358464
 30
0.0
 11
329.1643450323
 21
380.9581788386
 31
0.0
  0
LINE
  5
6B
330
1F
100
AcDbEntity
  8
0
  6
Continuous
 62
     7
370
    15
100
AcDbLine
 10
295.7746560871
 20
402.0074891832
 30
0.0
 11
295.7746560871
 21
401.466286143
 31
0.0
  0
LINE
  5
6C
330
1F
100
AcDbEntity
  8
0
  6
Continuous
 62
     7
370
    15
100
AcDbLine
 10
269.4312591691
 20
434.9930091523
 30
0.0
 11
269.4312591691
 21
445.9333930353
 31
0.0
  0
LINE
  5
6D
330
1F
100
AcDbEntity
  8
0
  6
Continuous
 62
     7
370
    15
100
AcDbLine
 10
269.4312591691
 20
340.3930091523
 30
0.0
 11
269.4312591691
 21
372.9930091523
 31
0.0
  0
LINE
  5
6E
330
1F
100
AcDbEntity
  8
0
  6
Continuous
 62
     7
370
    15
100
AcDbLine
 10
223.4312591691
 20
445.9333930353
 30
0.0
 11
223.4312591691
 21
340.3930091523
 31
0.0
  0
LINE
  5
6F
330
1F
100
AcDbEntity
  8
0
  6
Continuous
 62
     7
370
    15
100
AcDbLine
 10
290.4312591691
 20
426.9930091523
 30
0.0
 11
277.4312591691
 21
426.9930091523
 31
0.0
  0
LINE
  5
70
330
1F
100
AcDbEntity
  8
0
  6
Continuous
 62
     7
370
    15
100
AcDbLine
 10
277.4312591691
 20
380.9930091523
 30
0.0
 11
290.4312591691
 21
380.9930091523
 31
0.0
  0
SPLINE
  5
71
330
1F
100
AcDbEntity
  8
0
  6
Continuous
 62
     7
370
    15
100
AcDbSpline
210
0.0
220
0.0
230
1.0
 70
     8
 71
     3
 72
    15
 73
    11
 74
     0
 42
0.00000001
 43
0.00000001
 12
1.0
 22
0.0
 32
0.0
 13
1.0
 23
0.0
 33
0.0
 40
0.0
 40
0.0
 40
0.0
 40
0.0
 40
0.1241679501809528
 40
0.2863568514524298
 40
0.4544546781973417
 40
0.551534257307253
 40
0.660403871905085
 40
0.7855354889712268
 40
0.9322946963152915
 40
1.0
 40
1.0
 40
1.0
 40
1.0
 10
277.3664653838687
 20
426.976187887301
 30
0.0
 10
276.8602325289168
 20
426.9651410273373
 30
0.0
 10
275.6927553640402
 20
426.9396646944106
 30
0.0
 10
273.8238141747794
 20
427.1960639003937
 30
0.0
 10
272.1756716778051
 20
427.8464564486748
 30
0.0
 10
271.0011235404249
 20
428.8354158004897
 30
0.0
 10
270.2319477759451
 20
429.9530238498409
 30
0.0
 10
269.7015932677979
 20
431.4086765748161
 30
0.0
 10
269.4771488478083
 20
432.7699511996641
 30
0.0
 10
269.46856917783
 20
433.6356513993389
 30
0.0
 10
269.4658606217215
 20
433.9089483408131
 30
0.0
  0
SPLINE
  5
72
330
1F
100
AcDbEntity
  8
0
  6
Continuous
 62
     7
370
    15
100
AcDbSpline
210
0.0
220
0.0
230
1.0
 70
     8
 71
     3
 72
    19
 73
    15
 74
     0
 42
0.00000001
 43
0.00000001
 12
1.0
 22
0.0
 32
0.0
 13
1.0
 23
0.0
 33
0.0
 40
0.0
 40
0.0
 40
0.0
 40
0.0
 40
0.0743260633201724
 40
0.2105664465297205
 40
0.321205124897563
 40
0.4122625736154211
 40
0.4884916311421377
 40
0.5524426908566127
 40
0.6054101801286055
 40
0.6481749960306262
 40
0.7147898613574327
 40
0.8016334248711104
 40
0.9193238113055144
 40
0.9999999999999999
 40
0.9999999999999999
 40
0.9999999999999999
 40
0.9999999999999999
 10
269.3659365236222
 20
372.9928273869864
 30
0.0
 10
269.3553655811196
 20
373.3436624644317
 30
0.0
 10
269.3254180001527
 20
374.3375815861455
 30
0.0
 10
269.4604008924189
 20
375.8513907350963
 30
0.0
 10
269.8346811682504
 20
377.4083109347429
 30
0.0
 10
270.4163762792248
 20
378.5985915544658
 30
0.0
 10
271.1112114473793
 20
379.4596795538035
 30
0.0
 10
271.8282881833582
 20
380.0518061207089
 30
0.0
 10
272.4942841055911
 20
380.4319337447336
 30
0.0
 10
273.2255948668981
 20
380.7228848578129
 30
0.0
 10
274.0263357584808
 20
380.8796970190128
 30
0.0
 10
275.1258606378131
 20
380.9975831418259
 30
0.0
 10
276.2931339574407
 20
381.0229007214709
 30
0.0
 10
277.084783360499
 20
381.0062392296153
 30
0.0
 10
277.4067491784778
 20
380.9994629586634
 30
0.0
  0
SPLINE
  5
73
330
1F
100
AcDbEntity
  8
0
  6
Continuous
 62
     7
370
    15
100
AcDbSpline
210
0.0
220
0.0
230
1.0
 70
     8
 71
     3
 72
    11
 73
     7
 74
     0
 42
0.00000001
 43
0.00000001
 12
1.0
 22
0.0
 32
0.0
 13
1.0
 23
0.0
 33
0.0
 40
0.0
 40
0.0
 40
0.0
 40
0.0
 40
0.2478917919539751
 40
0.4999999999999961
 40
0.7521082080460203
 40
1.0
 40
1.0
 40
1.0
 40
1.0
 10
224.2774044935123
 20
447.4598796084138
 30
0.0
 10
224.1477326095112
 20
447.3777106761098
 30
0.0
 10
223.8861832395644
 20
447.2119751919771
 30
0.0
 10
223.5704419032907
 20
446.8539990785972
 30
0.0
 10
223.4341783584756
 20
446.396536800877
 30
0.0
 10
223.4322267463741
 20
446.0869039298338
 30
0.0
 10
223.431259169132
 20
445.9333930353323
 30
0.0
  0
SPLINE
  5
74
330
1F
100
AcDbEntity
  8
0
  6
Continuous
 62
     7
370
    15
100
AcDbSpline
210
0.0
220
0.0
230
1.0
 70
     8
 71
     3
 72
    11
 73
     7
 74
     0
 42
0.00000001
 43
0.00000001
 12
1.0
 22
0.0
 32
0.0
 13
1.0
 23
0.0
 33
0.0
 40
0.0
 40
0.0
 40
0.0
 40
0.0
 40
0.2478917919539974
 40
0.5000000000000243
 40
0.7521082080460206
 40
1.0
 40
1.0
 40
1.0
 40
1.0
 10
269.431259169132
 20
445.9333930353323
 30
0.0
 10
269.43029159189
 20
446.0869039298339
 30
0.0
 10
269.4283399797885
 20
446.3965368008771
 30
0.0
 10
269.2920764349734
 20
446.8539990785972
 30
0.0
 10
268.9763350986996
 20
447.211975191977
 30
0.0
 10
268.7147857287529
 20
447.3777106761098
 30
0.0
 10
268.5851138447518
 20
447.4598796084138
 30
0.0
  0
ARC
  5
75
330
1F
100
AcDbEntity
  8
0
  6
Continuous
 62
     7
370
    15
100
AcDbCircle
 10
290.4312591691
 20
381.9930091523
 30
0.0
 40
1.0
100
AcDbArc
 50
270.0
 51
0.0
  0
ARC
  5
76
330
1F
100
AcDbEntity
  8
0
  6
Continuous
 62
     7
370
    15
100
AcDbCircle
 10
290.4312591691
 20
425.9930091523
 30
0.0
 40
1.0
100
AcDbArc
 50
0.0
 51
90.0
  0
SPLINE
  5
77
330
1F
100
AcDbEntity
  8
0
  6
Continuous
 62
     7
370
    15
100
AcDbSpline
210
0.0
220
0.0
230
1.0
 70
     8
 71
     3
 72
    13
 73
     9
 74
     0
 42
0.00000001
 43
0.00000001
 12
1.0
 22
0.0
 32
0.0
 13
1.0
 23
0.0
 33
0.0
 40
0.0
 40
0.0
 40
0.0
 40
0.0
 40
0.0525055443423334
 40
0.2097016526000224
 40
0.4267210988101268
 40
0.6650863977452122
 40
0.9105413204359841
 40
1.0
 40
1.0
 40
1.0
 40
1.0
 10
330.8283429388135
 20
425.6626704954062
 30
0.0
 10
330.8236534086777
 20
425.6936944147448
 30
0.0
 10
330.8049239157883
 20
425.8176007038216
 30
0.0
 10
330.7072950591335
 20
426.1263262749331
 30
0.0
 10
330.4617507454346
 20
426.4982157891203
 30
0.0
 10
330.0527268926013
 20
426.8072060010759
 30
0.0
 10
329.6483198947174
 20
426.9643624490325
 30
0.0
 10
329.4059184349763
 20
426.9413195746478
 30
0.0
 10
329.3411706481835
 20
426.9351645988513
 30
0.0
  0
SPLINE
  5
78
330
1F
100
AcDbEntity
  8
0
  6
Continuous
 62
     7
370
    15
100
AcDbSpline
210
0.0
220
0.0
230
1.0
 70
     8
 71
     3
 72
    14
 73
    10
 74
     0
 42
0.00000001
 43
0.00000001
 12
1.0
 22
0.0
 32
0.0
 13
1.0
 23
0.0
 33
0.0
 40
0.0
 40
0.0
 40
0.0
 40
0.0
 40
0.0241581798500086
 40
0.2982848378227209
 40
0.5134741526046198
 40
0.6932194046518876
 40
0.8447645546123915
 40
0.9680406635330312
 40
1.0
 40
1.0
 40
1.0
 40
1.0
 10
329.1397119733534
 20
380.9665213231521
 30
0.0
 10
329.1557886208209
 20
380.9635500874099
 30
0.0
 10
329.3542895100591
 20
380.9268637734165
 30
0.0
 10
329.7076351907441
 20
381.037659215602
 30
0.0
 10
330.1011525849285
 20
381.25715310666
 30
0.0
 10
330.3625427585438
 20
381.5270987758394
 30
0.0
 10
330.5211405956541
 20
381.7885841217355
 30
0.0
 10
330.6000957479862
 20
381.985790566963
 30
0.0
 10
330.6206781515207
 20
382.0808582364778
 30
0.0
 10
330.6249155855566
 20
382.1004304393954
 30
0.0
  0
LINE
  5
79
330
1F
100
AcDbEntity
  8
0
  6
Continuous
 62
     7
370
    15
100
AcDbLine
 10
268.5951138448
 20
447.4536309149
 30
0.0
 11
264.6285287205
 21
449.9322283908
 31
0.0
  0
LINE
  5
7A
330
1F
100
AcDbEntity
  8
0
  6
Continuous
 62
     7
370
    15
100
AcDbLine
 10
228.2339896177
 20
449.9322283908
 30
0.0
 11
224.2674044935
 21
447.4536309149
 31
0.0
  0
LINE
  5
7B
330
1F
100
AcDbEntity
  8
0
  6
Continuous
 62
     7
370
    15
100
AcDbLine
 10
291.4317591691
 20
425.9930091523
 30
0.0
 11
291.4312591691
 21
425.9930091523
 31
0.0
  0
LINE
  5
7C
330
1F
100
AcDbEntity
  8
0
  6
Continuous
 62
     7
370
    15
100
AcDbLine
 10
291.4312591691
 20
381.9930091523
 30
0.0
 11
291.4317591691
 21
381.9930091523
 31
0.0
  0
ARC
  5
7D
330
1F
100
AcDbEntity
  8
0
  6
Continuous
 62
     7
370
    15
100
AcDbCircle
 10
291.4312591692
 20
403.9930091524
 30
0.0
 40
21.64486082191338
100
AcDbArc
 50
279.0468459803
 51
289.365685311
  0
ARC
  5
7E
330
1F
100
AcDbEntity
  8
0
  6
Continuous
 62
     7
370
    15
100
AcDbCircle
 10
291.4312591692
 20
403.9930091524
 30
0.0
 40
21.64486082191342
100
AcDbArc
 50
78.2441430363
 51
80.9531540197
  0
ARC
  5
7F
330
1F
100
AcDbEntity
  8
0
  6
Continuous
 62
     7
370
    15
100
AcDbCircle
 10
293.2623199442
 20
392.4930091524
 30
0.0
 40
10.0
100
AcDbArc
 50
270.0
 51
279.0468459803
  0
ARC
  5
80
330
1F
100
AcDbEntity
  8
0
  6
Continuous
 62
     7
370
    15
100
AcDbCircle
 10
293.2623199442
 20
415.4930091524
 30
0.0
 40
10.00000000000006
100
AcDbArc
 50
80.9531540197
 51
90.0
  0
LINE
  5
81
330
1F
100
AcDbEntity
  8
0
  6
Continuous
 62
     7
370
    15
100
AcDbLine
 10
293.2623199442
 20
425.4930091524
 30
0.0
 11
291.4317591691
 21
425.4930091524
 31
0.0
  0
LINE
  5
82
330
1F
100
AcDbEntity
  8
0
  6
Continuous
 62
     7
370
    15
100
AcDbLine
 10
291.4317591691
 20
382.4930091524
 30
0.0
 11
293.2623199442
 21
382.4930091524
 31
0.0
  0
ARC
  5
83
330
1F
100
AcDbEntity
  8
0
  6
Continuous
 62
     7
370
    15
100
AcDbCircle
 10
228.4459573234
 20
449.5930091523
 30
0.0
 40
0.3999999999999773
100
AcDbArc
 50
90.0
 51
122.0
  0
ARC
  5
84
330
1F
100
AcDbEntity
  8
0
  6
Continuous
 62
     7
370
    15
100
AcDbCircle
 10
264.4165610148
 20
449.5930091523
 30
0.0
 40
0.3999999999999916
100
AcDbArc
 50
58.0
 51
90.0
  0
SPLINE
  5
85
330
1F
100
AcDbEntity
  8
0
  6
Continuous
 62
     7
370
    15
100
AcDbSpline
210
0.0
220
0.0
230
1.0
 70
     8
 71
     3
 72
    22
 73
    18
 74
     0
 42
0.00000001
 43
0.00000001
 12
1.0
 22
0.0
 32
0.0
 13
1.0
 23
0.0
 33
0.0
 40
0.0
 40
0.0
 40
0.0
 40
0.0
 40
0.0409987408981359
 40
0.140552009440758
 40
0.2205281641317658
 40
0.2879583173739345
 40
0.3444405925868498
 40
0.3897933495906848
 40
0.4227865684241088
 40
0.4375555927806382
 40
0.4470139440437184
 40
0.4567399465271785
 40
0.4723733834946628
 40
0.5085508128573145
 40
0.6734290748007344
 40
0.9743193194284898
 40
1.0
 40
1.0
 40
1.0
 40
1.0
 10
321.0796783567106
 20
479.2915354700137
 30
0.0
 10
321.0327655566009
 20
479.2958537809928
 30
0.0
 10
320.8719389512108
 20
479.3106578279512
 30
0.0
 10
320.6264592366251
 20
479.2155560209848
 30
0.0
 10
320.3934353696694
 20
479.0551158740991
 30
0.0
 10
320.241693403329
 20
478.8747396298392
 30
0.0
 10
320.1502884074653
 20
478.7030446824699
 30
0.0
 10
320.1025348489649
 20
478.5563865367821
 30
0.0
 10
320.0834594062657
 20
478.4513028656548
 30
0.0
 10
320.0774381894315
 20
478.3906441341421
 30
0.0
 10
320.0757082284105
 20
478.3645632401801
 30
0.0
 10
320.0748622426148
 20
478.347471889186
 30
0.0
 10
320.0742542086734
 20
478.3301616648916
 30
0.0
 10
320.0735666017253
 20
478.2992079668041
 30
0.0
 10
320.0725878220953
 20
478.2080912331682
 30
0.0
 10
320.0712533715502
 20
478.0592269559531
 30
0.0
 10
320.0700134271834
 20
477.8426279731743
 30
0.0
 10
320.0699159212122
 20
477.8255951975668
 30
0.0
  0
LINE
  5
86
330
1F
100
AcDbEntity
  8
0
  6
Continuous
 62
     7
370
    15
100
AcDbLine
 10
325.0781375594
 20
479.2911769598
 30
0.0
 11
321.0781726513
 21
479.307199953
 31
0.0
  0
SPLINE
  5
87
330
1F
100
AcDbEntity
  8
0
  6
Continuous
 62
     7
370
    15
100
AcDbSpline
210
0.0
220
0.0
230
1.0
 70
     8
 71
     3
 72
    18
 73
    14
 74
     0
 42
0.00000001
 43
0.00000001
 12
1.0
 22
0.0
 32
0.0
 13
1.0
 23
0.0
 33
0.0
 40
0.0
 40
0.0
 40
0.0
 40
0.0
 40
0.2141176849494678
 40
0.3420195713701492
 40
0.4065686763265435
 40
0.4220957506011893
 40
0.4366599678278678
 40
0.4614829790181353
 40
0.5462828885043395
 40
0.6606265988264277
 40
0.7843010679626778
 40
0.9163790293356614
 40
1.0
 40
1.0
 40
1.0
 40
1.0
 10
326.074863914837
 20
478.1164025404416
 30
0.0
 10
326.074870652527
 20
478.1646402147805
 30
0.0
 10
326.0748814149347
 20
478.2416923681568
 30
0.0
 10
326.0743081970403
 20
478.2888365464457
 30
0.0
 10
326.0743565835073
 20
478.3071147066802
 30
0.0
 10
326.0729942861371
 20
478.3416507252076
 30
0.0
 10
326.0707967154919
 20
478.377070611959
 30
0.0
 10
326.0594377135209
 20
478.4831526635123
 30
0.0
 10
326.0099679949785
 20
478.6754329763374
 30
0.0
 10
325.8684624675709
 20
478.9264330428873
 30
0.0
 10
325.6245630070833
 20
479.145859211948
 30
0.0
 10
325.3453699077724
 20
479.2788388787896
 30
0.0
 10
325.1545902558649
 20
479.2764086584391
 30
0.0
 10
325.0806298540917
 20
479.2754665240357
 30
0.0
  0
SPLINE
  5
88
330
1F
100
AcDbEntity
  8
0
  6
Continuous
 62
     7
370
    15
100
AcDbSpline
210
0.0
220
0.0
230
1.0
 70
     8
 71
     3
 72
     9
 73
     5
 74
     0
 42
0.00000001
 43
0.00000001
 12
1.0
 22
0.0
 32
0.0
 13
1.0
 23
0.0
 33
0.0
 40
0.0
 40
0.0
 40
0.0
 40
0.0
 40
0.564020891013076
 40
1.0
 40
1.0
 40
1.0
 40
1.0
 10
421.5545363182613
 20
577.6352091484279
 30
0.0
 10
420.1486149137496
 20
577.8119241915595
 30
0.0
 10
417.6559387967595
 20
578.1252371307562
 30
0.0
 10
415.1444522441309
 20
578.1391362895555
 30
0.0
 10
414.0494965746831
 20
578.1451960324246
 30
0.0
  0
LINE
  5
89
330
1F
100
AcDbEntity
  8
0
  6
Continuous
 62
     7
370
    15
100
AcDbLine
 10
418.6363022855
 20
562.0602412086
 30
0.0
 11
420.9803824914
 21
562.2853965175
 31
0.0
  0
SPLINE
  5
8A
330
1F
100
AcDbEntity
  8
0
  6
Continuous
 62
     7
370
    15
100
AcDbSpline
210
0.0
220
0.0
230
1.0
 70
     8
 71
     3
 72
    28
 73
    24
 74
     0
 42
0.00000001
 43
0.00000001
 12
1.0
 22
0.0
 32
0.0
 13
1.0
 23
0.0
 33
0.0
 40
0.0
 40
0.0
 40
0.0
 40
0.0
 40
0.0703750933081048
 40
0.1351270527809781
 40
0.1939721174796193
 40
0.2468897707600685
 40
0.2940406850205982
 40
0.3356733166744431
 40
0.3720522393679841
 40
0.4034138408879039
 40
0.4299454957692923
 40
0.4555739198420188
 40
0.494090633711299
 40
0.5399348728587623
 40
0.5747100656592987
 40
0.6130227364368837
 40
0.6550959266855496
 40
0.7012073303545349
 40
0.7516590716530626
 40
0.8067220858822022
 40
0.8665538021100604
 40
0.9310979668319349
 40
1.0
 40
1.0
 40
1.0
 40
1.0
 10
306.4312591691321
 20
578.2786228624078
 30
0.0
 10
303.7393022162056
 20
578.2808590949579
 30
0.0
 10
298.5704819395534
 20
578.2851528798699
 30
0.0
 10
291.1528889656475
 20
578.0140792799427
 30
0.0
 10
284.4273088029477
 20
577.364421833278
 30
0.0
 10
278.4301140455329
 20
576.3365724406182
 30
0.0
 10
273.1728141490872
 20
574.9932339450254
 30
0.0
 10
268.6425370010414
 20
573.4285799916249
 30
0.0
 10
264.8066803116446
 20
571.7480750831713
 30
0.0
 10
261.6192017008408
 20
570.0553936755023
 30
0.0
 10
258.903834030747
 20
568.3681595838827
 30
0.0
 10
256.0777757300257
 20
566.3536928959087
 30
0.0
 10
252.8527669643682
 20
563.6415987356963
 30
0.0
 10
249.69323537886
 20
560.3422657968666
 30
0.0
 10
246.8980690696475
 20
556.7462015570335
 30
0.0
 10
244.5201419870097
 20
553.0303219059083
 30
0.0
 10
242.3137121108723
 20
548.7154286662421
 30
0.0
 10
240.3739468837094
 20
543.7707706613194
 30
0.0
 10
238.7895493393764
 20
538.1824725044858
 30
0.0
 10
237.6290305961141
 20
531.9571040894328
 30
0.0
 10
236.9221361141675
 20
525.1238074554967
 30
0.0
 10
236.6333271780101
 20
517.7331517325375
 30
0.0
 10
236.6321963410388
 20
512.6286218186474
 30
0.0
 10
236.6316124580378
 20
509.9930091523029
 30
0.0
  0
SPLINE
  5
8B
330
1F
100
AcDbEntity
  8
0
  6
Continuous
 62
     7
370
    15
100
AcDbSpline
210
0.0
220
0.0
230
1.0
 70
     8
 71
     3
 72
    25
 73
    21
 74
     0
 42
0.00000001
 43
0.00000001
 12
1.0
 22
0.0
 32
0.0
 13
1.0
 23
0.0
 33
0.0
 40
0.0
 40
0.0
 40
0.0
 40
0.0
 40
0.0876192494106992
 40
0.166205619718415
 40
0.2353669361429098
 40
0.2952956331353338
 40
0.3464863892729648
 40
0.3894958351658014
 40
0.424800775331419
 40
0.4563906643642063
 40
0.4945738372056493
 40
0.5400145156373197
 40
0.5930217202741818
 40
0.6542565986604101
 40
0.7001617845749444
 40
0.7505132336385114
 40
0.805619877834679
 40
0.8656638748955257
 40
0.9305886837745986
 40
0.9999999999999999
 40
0.9999999999999999
 40
0.9999999999999999
 40
0.9999999999999999
 10
256.2309058802264
 20
509.993009152303
 30
0.0
 10
256.2317931193465
 20
512.4702871186386
 30
0.0
 10
256.2334761299726
 20
517.1694545091239
 30
0.0
 10
256.5890324610414
 20
523.8194073569293
 30
0.0
 10
257.379820008518
 20
529.6452884228229
 30
0.0
 10
258.5511291963986
 20
534.6144370184215
 30
0.0
 10
259.977601850132
 20
538.739599207813
 30
0.0
 10
261.5113249433365
 20
542.0702191817863
 30
0.0
 10
263.0609335081981
 20
544.767537835469
 30
0.0
 10
264.747114310121
 20
547.2168499962769
 30
0.0
 10
266.8270822729554
 20
549.7303201364913
 30
0.0
 10
269.6056511272884
 20
552.4268677256485
 30
0.0
 10
273.2341328319795
 20
555.1364011508134
 30
0.0
 10
277.2293707575013
 20
557.3035064772224
 30
0.0
 10
281.3794074689276
 20
558.9345650621801
 30
0.0
 10
285.5030422787365
 20
560.1031085283693
 30
0.0
 10
290.108916579869
 20
560.9595820307583
 30
0.0
 10
295.1774257448641
 20
561.4830415169488
 30
0.0
 10
300.6709068157879
 20
561.7001510480619
 30
0.0
 10
304.4688608383459
 20
561.7049274704337
 30
0.0
 10
306.4312591691321
 20
561.707395442198
 30
0.0
  0
LINE
  5
8C
330
1F
100
AcDbEntity
  8
0
  6
Continuous
 62
     7
370
    15
100
AcDbLine
 10
236.6312591691
 20
510.043108322
 30
0.0
 11
236.6312591691
 21
450.3930091523
 31
0.0
  0
LINE
  5
8D
330
1F
100
AcDbEntity
  8
0
  6
Continuous
 62
     7
370
    15
100
AcDbLine
 10
256.2312591691
 20
450.3930091523
 30
0.0
 11
256.2312591691
 21
510.043108322
 31
0.0
  0
ARC
  5
8E
330
1F
100
AcDbEntity
  8
0
  6
Continuous
 62
     7
370
    15
100
AcDbCircle
 10
237.0312591691
 20
450.3930091523
 30
0.0
 40
0.4000000000000057
100
AcDbArc
 50
180.0
 51
270.0
  0
ARC
  5
8F
330
1F
100
AcDbEntity
  8
0
  6
Continuous
 62
     7
370
    15
100
AcDbCircle
 10
255.8312591691
 20
450.3930091523
 30
0.0
 40
0.4000000000000341
100
AcDbArc
 50
270.0
 51
0.0
  0
SPLINE
  5
90
330
1F
100
AcDbEntity
  8
0
  6
Continuous
 62
     7
370
    15
100
AcDbSpline
210
0.0
220
0.0
230
1.0
 70
     8
 71
     3
 72
    16
 73
    12
 74
     0
 42
0.00000001
 43
0.00000001
 12
1.0
 22
0.0
 32
0.0
 13
1.0
 23
0.0
 33
0.0
 40
0.0
 40
0.0
 40
0.0
 40
0.0
 40
0.0599551655953639
 40
0.1009485572273402
 40
0.1408437473739238
 40
0.2278778694116229
 40
0.3471054428048611
 40
0.5357344331664032
 40
0.7592751426776092
 40
0.977723499829247
 40
0.9999999999999999
 40
0.9999999999999999
 40
0.9999999999999999
 40
0.9999999999999999
 10
319.8525061693876
 20
428.8812761229833
 30
0.0
 10
319.8519753964893
 20
428.8710843131685
 30
0.0
 10
319.851081716057
 20
428.8539240153672
 30
0.0
 10
319.8449057983319
 20
428.7833467310555
 30
0.0
 10
319.8266504994666
 20
428.6428966303872
 30
0.0
 10
319.7671328907415
 20
428.3790976726862
 30
0.0
 10
319.6013049022867
 20
427.9838433080706
 30
0.0
 10
319.2457271196587
 20
427.5071315760511
 30
0.0
 10
318.6605335247332
 20
427.1417801258996
 30
0.0
 10
318.149835532063
 20
426.9682768496891
 30
0.0
 10
317.8903428414403
 20
427.0125785134513
 30
0.0
 10
317.8663295798632
 20
427.0166781566346
 30
0.0
  0
SPLINE
  5
91
330
1F
100
AcDbEntity
  8
0
  6
Continuous
 62
     7
370
    15
100
AcDbSpline
210
0.0
220
0.0
230
1.0
 70
     8
 71
     3
 72
    13
 73
     9
 74
     0
 42
0.00000001
 43
0.00000001
 12
1.0
 22
0.0
 32
0.0
 13
1.0
 23
0.0
 33
0.0
 40
0.0
 40
0.0
 40
0.0
 40
0.0
 40
0.2536492766050955
 40
0.4693629937327045
 40
0.6482120737277881
 40
0.7992788366138083
 40
0.9230817561629734
 40
1.0
 40
1.0
 40
1.0
 40
1.0
 10
327.8711004656778
 20
426.9758692098571
 30
0.0
 10
327.6340435246327
 20
426.9933486855745
 30
0.0
 10
327.1953836671187
 20
427.0256934222179
 30
0.0
 10
326.6611371812158
 20
427.3314689365637
 30
0.0
 10
326.2953670642295
 20
427.6850321321163
 30
0.0
 10
326.0694353037665
 20
428.0408385884281
 30
0.0
 10
325.9452157538192
 20
428.346455384202
 30
0.0
 10
325.9088411637883
 20
428.519384541306
 30
0.0
 10
325.8949020776537
 20
428.5856526260873
 30
0.0
  0
LINE
  5
92
330
1F
100
AcDbEntity
  8
0
  6
Continuous
 62
     7
370
    15
100
AcDbLine
 10
414.0499709148
 20
578.1659329646
 30
0.0
 11
306.3812589497
 21
578.2786834173
 31
0.0
  0
LINE
  5
93
330
1F
100
AcDbEntity
  8
0
  6
Continuous
 62
     7
370
    15
100
AcDbLine
 10
306.3812589497
 20
561.7073348873
 30
0.0
 11
394.2199872344
 21
561.7993194221
 31
0.0
  0
LINE
  5
94
330
1F
100
AcDbEntity
  8
0
  6
Continuous
 62
     7
370
    15
100
AcDbLine
 10
270.0260801338
 20
377.2118053936
 30
0.0
 11
270.1264680781
 21
377.5474386559
 31
0.0
  0
LINE
  5
95
330
1F
100
AcDbEntity
  8
0
  6
Continuous
 62
     7
370
    15
100
AcDbLine
 10
275.8252462924
 20
380.9435649687
 30
0.0
 11
277.4252169728
 21
380.9778364756
 31
0.0
  0
SPLINE
  5
96
330
1F
100
AcDbEntity
  8
0
  6
Continuous
 62
     7
370
    15
100
AcDbSpline
210
0.0
220
0.0
230
1.0
 70
     8
 71
     3
 72
     9
 73
     5
 74
     0
 42
0.00000001
 43
0.00000001
 12
1.0
 22
0.0
 32
0.0
 13
1.0
 23
0.0
 33
0.0
 40
0.0
 40
0.0
 40
0.0
 40
0.0
 40
0.061971351702468
 40
1.0
 40
1.0
 40
1.0
 40
1.0
 10
277.3962757529682
 20
426.982902950503
 30
0.0
 10
277.3570907531001
 20
426.9815706756405
 30
0.0
 10
276.7247824559342
 20
426.9600724377299
 30
0.0
 10
276.0703284117841
 20
426.9989830814455
 30
0.0
 10
275.4564317693772
 20
427.0354823799743
 30
0.0
  0
SPLINE
  5
97
330
1F
100
AcDbEntity
  8
0
  6
Continuous
 62
     7
370
    15
100
AcDbSpline
210
0.0
220
0.0
230
1.0
 70
     8
 71
     3
 72
     9
 73
     5
 74
     0
 42
0.00000001
 43
0.00000001
 12
1.0
 22
0.0
 32
0.0
 13
1.0
 23
0.0
 33
0.0
 40
0.0
 40
0.0
 40
0.0
 40
0.0
 40
0.2874833248988002
 40
0.9999999999999999
 40
0.9999999999999999
 40
0.9999999999999999
 40
0.9999999999999999
 10
269.6901590486291
 20
431.7416563400026
 30
0.0
 10
269.6785830158645
 20
431.7759801683695
 30
0.0
 10
269.6383162185864
 20
431.8953743223749
 30
0.0
 10
269.6327233054085
 20
432.0227734471139
 30
0.0
 10
269.628738261507
 20
432.1135474478837
 30
0.0
  0
LINE
  5
98
330
1F
100
AcDbEntity
  8
0
  6
Continuous
 62
     7
370
    15
100
AcDbLine
 10
418.6812591691
 20
561.7930091523
 30
0.0
 11
418.6812591691
 21
562.0309294331
 31
0.0
  0
LINE
  5
99
330
1F
100
AcDbEntity
  8
0
  6
Continuous
 62
     7
370
    15
100
AcDbLine
 10
418.4312591691
 20
558.0930091523
 30
0.0
 11
418.4312591691
 21
561.7930091523
 31
0.0
  0
LINE
  5
9A
330
1F
100
AcDbEntity
  8
0
  6
Continuous
 62
     7
370
    15
100
AcDbLine
 10
394.4312591691
 20
561.7930091523
 30
0.0
 11
394.4312591691
 21
558.0930091523
 31
0.0
  0
ARC
  5
9B
330
1F
100
AcDbEntity
  8
0
  6
Continuous
 62
     7
370
    15
100
AcDbCircle
 10
336.4312591691
 20
573.522340833
 30
0.0
 40
85.99999999999997
100
AcDbArc
 50
353.0745788489
 51
2.1083719194
  0
ARC
  5
9C
330
1F
100
AcDbEntity
  8
0
  6
Continuous
 62
     7
370
    15
100
AcDbCircle
 10
420.8109478141
 20
563.272065511
 30
0.0
 40
1.000000000000012
100
AcDbArc
 50
276.9980160078
 51
353.0810475528
  0
LINE
  5
9D
330
1F
100
AcDbEntity
  8
0
  6
Continuous
 62
     7
370
    15
100
AcDbLine
 10
310.355695161
 20
426.0306074738
 30
0.0
 11
310.3566335903
 21
426.2448505289
 31
0.0
  0
ARC
  5
9E
330
1F
100
AcDbEntity
  8
0
  6
Continuous
 62
     7
370
    15
100
AcDbCircle
 10
421.3736829674
 20
576.6503816388
 30
0.0
 40
1.000000000000013
100
AcDbArc
 50
2.0862031932
 51
90.6081808342
  0
LINE
  5
9F
330
1F
100
AcDbEntity
  8
0
  6
Continuous
 62
     7
370
    15
100
AcDbLine
 10
304.3566911482
 20
426.2711315308
 30
0.0
 11
304.3557527052
 21
426.0568853721
 31
0.0
  0
SPLINE
  5
A0
330
1F
100
AcDbEntity
  8
0
  6
Continuous
 62
     7
370
    15
100
AcDbSpline
210
0.0
220
0.0
230
1.0
 70
     8
 71
     3
 72
    12
 73
     8
 74
     0
 42
0.00000001
 43
0.00000001
 12
1.0
 22
0.0
 32
0.0
 13
1.0
 23
0.0
 33
0.0
 40
0.0
 40
0.0
 40
0.0
 40
0.0
 40
0.2153323764184455
 40
0.4457467380645896
 40
0.6852654660084255
 40
0.8628072535343994
 40
1.0
 40
1.0
 40
1.0
 40
1.0
 10
307.3373797850917
 20
427.6529158397514
 30
0.0
 10
307.0539474611276
 20
427.6463070330082
 30
0.0
 10
306.4672310742544
 20
427.6326265354571
 30
0.0
 10
305.6553439258784
 20
427.4973296112113
 30
0.0
 10
305.0533698393963
 20
427.2923700407995
 30
0.0
 10
304.6342494932898
 20
427.0417307131779
 30
0.0
 10
304.4825667412283
 20
426.7814370982592
 30
0.0
 10
304.4164482473888
 20
426.6679751420345
 30
0.0
  0
SPLINE
  5
A1
330
1F
100
AcDbEntity
  8
0
  6
Continuous
 62
     7
370
    15
100
AcDbSpline
210
0.0
220
0.0
230
1.0
 70
     8
 71
     3
 72
    13
 73
     9
 74
     0
 42
0.00000001
 43
0.00000001
 12
1.0
 22
0.0
 32
0.0
 13
1.0
 23
0.0
 33
0.0
 40
0.0
 40
0.0
 40
0.0
 40
0.0
 40
0.0609815552286588
 40
0.2303127750470902
 40
0.470459148791224
 40
0.735096277634711
 40
0.9859524926058804
 40
0.9999999999999999
 40
0.9999999999999999
 40
0.9999999999999999
 40
0.9999999999999999
 10
310.1561410157437
 20
426.8539644525869
 30
0.0
 10
310.1278844457933
 20
426.8987362235958
 30
0.0
 10
310.0211661272101
 20
427.0678285136522
 30
0.0
 10
309.685421710133
 20
427.2530017731756
 30
0.0
 10
309.1279752308242
 20
427.472278538846
 30
0.0
 10
308.3173099784507
 20
427.6082242739608
 30
0.0
 10
307.6700729741623
 20
427.6685420838152
 30
0.0
 10
307.3541336457486
 20
427.6537027507079
 30
0.0
 10
307.3373797850917
 20
427.6529158397514
 30
0.0
  0
LWPOLYLINE
  5
A2
330
1F
100
AcDbEntity
  8
0
  6
Continuous
 62
     7
370
    15
100
AcDbPolyline
 90
        9
 70
   128
 43
0.0
 10
325.058108803
 20
469.9056415043
 10
325.0621947532
 20
470.8665515361
 10
325.0661236826
 20
471.8467127376
 10
325.0697446047
 20
472.8084580634
 10
325.0729183695
 20
473.71482818
 10
325.0755230109
 20
474.5309917921
 10
325.0774584341
 20
475.2255841898
 10
325.0786502618
 20
475.7719125768
 10
325.0790526928
 20
476.1489818595
  0
LWPOLYLINE
  5
A3
330
1F
100
AcDbEntity
  8
0
  6
Continuous
 62
     7
370
    15
100
AcDbPolyline
 90
        9
 70
   128
 43
0.0
 10
321.0790877847
 20
476.1650048527
 10
321.0786853537
 20
475.7879355699
 10
321.077493526
 20
475.2416071829
 10
321.0755581028
 20
474.5470147852
 10
321.0729534614
 20
473.7308511731
 10
321.0697796966
 20
472.8244810565
 10
321.0661587745
 20
471.8627357307
 10
321.0622298451
 20
470.8825745293
 10
321.0581438949
 20
469.9216644974
  0
LINE
  5
A4
330
1F
100
AcDbEntity
  8
0
  6
Continuous
 62
     7
370
    15
100
AcDbLine
 10
321.0790877847
 20
476.1650048527
 30
0.0
 11
325.0790526928
 21
476.1489818595
 31
0.0
  0
LWPOLYLINE
  5
A5
330
1F
100
AcDbEntity
  8
0
  6
Continuous
 62
     7
370
    15
100
AcDbPolyline
 90
        9
 70
   128
 43
0.0
 10
320.0581526679
 20
470.2180419504
 10
320.061421428
 20
470.9867699759
 10
320.0645645716
 20
471.7708989371
 10
320.0674613092
 20
472.5402951977
 10
320.070000321
 20
473.265391291
 10
320.0720840342
 20
473.9183221806
 10
320.0736323727
 20
474.4739960988
 10
320.0745858349
 20
474.9110588084
 10
320.0749077797
 20
475.2127142346
  0
ARC
  5
A6
330
1F
100
AcDbEntity
  8
0
  6
Continuous
 62
     7
370
    15
100
AcDbCircle
 10
321.0538577347
 20
475.1860159574
 30
0.0
 40
0.979313949886136
100
AcDbArc
 50
88.5237263901
 51
178.437796017
  0
LWPOLYLINE
  5
A7
330
1F
100
AcDbEntity
  8
0
  6
Continuous
 62
     7
370
    15
100
AcDbPolyline
 90
        9
 70
   128
 43
0.0
 10
326.0748551419
 20
475.1886797449
 10
326.0745331971
 20
474.8870243187
 10
326.0735797349
 20
474.4499616091
 10
326.0720313964
 20
473.894287691
 10
326.0699476832
 20
473.2413568013
 10
326.0674086714
 20
472.516260708
 10
326.0645119337
 20
471.7468644474
 10
326.0613687902
 20
470.9627354862
 10
326.05810003
 20
470.1940074607
  0
ARC
  5
A8
330
1F
100
AcDbEntity
  8
0
  6
Continuous
 62
     7
370
    15
100
AcDbCircle
 10
325.0965648882
 20
475.1706828085
 30
0.0
 40
0.9784557783615794
100
AcDbArc
 50
1.0539123721
 51
91.0255225463
  0
LINE
  5
A9
330
1F
100
AcDbEntity
  8
0
  6
Continuous
 62
     7
370
    15
100
AcDbLine
 10
321.0581438949
 20
469.9216644974
 30
0.0
 11
320.8484189547
 21
422.0415428053
 31
0.0
  0
SPLINE
  5
AA
330
1F
100
AcDbEntity
  8
0
  6
Continuous
 62
     7
370
    15
100
AcDbSpline
210
0.0
220
0.0
230
1.0
 70
     8
 71
     3
 72
    18
 73
    14
 74
     0
 42
0.00000001
 43
0.00000001
 12
1.0
 22
0.0
 32
0.0
 13
1.0
 23
0.0
 33
0.0
 40
0.0
 40
0.0
 40
0.0
 40
0.0
 40
0.2499999999999929
 40
0.2499999999999929
 40
0.499999999999985
 40
0.499999999999985
 40
0.6249999999999888
 40
0.6249999999999888
 40
0.7499999999999926
 40
0.7499999999999926
 40
0.8749999999999963
 40
0.8749999999999963
 40
1.0
 40
1.0
 40
1.0
 40
1.0
 10
319.8542589060951
 20
423.6691760117251
 30
0.0
 10
319.8536879966627
 20
423.5044144385133
 30
0.0
 10
319.873318023512
 20
423.3386797181456
 30
0.0
 10
319.9482666163949
 20
423.0089511147561
 30
0.0
 10
320.003053575859
 20
422.8466489182138
 30
0.0
 10
320.1160344687409
 20
422.6131967345198
 30
0.0
 10
320.1585673732618
 20
422.5378036121973
 30
0.0
 10
320.2562655509174
 20
422.3936047925002
 30
0.0
 10
320.311905670322
 20
422.3243255340626
 30
0.0
 10
320.4370674902407
 20
422.2017428113637
 30
0.0
 10
320.5080786130579
 20
422.1468258560799
 30
0.0
 10
320.6682054090569
 20
422.0663376326368
 30
0.0
 10
320.7572464014011
 20
422.0419080228208
 30
0.0
 10
320.8484189546871
 20
422.0415428053182
 30
0.0
  0
LINE
  5
AB
330
1F
100
AcDbEntity
  8
0
  6
Continuous
 62
     7
370
    15
100
AcDbLine
 10
319.8542589061
 20
423.6691760117
 30
0.0
 11
320.0581526679
 21
470.2180419504
 31
0.0
  0
LINE
  5
AC
330
1F
100
AcDbEntity
  8
0
  6
Continuous
 62
     7
370
    15
100
AcDbLine
 10
324.8483838628
 20
422.0255198122
 30
0.0
 11
325.058108803
 21
469.9056415043
 31
0.0
  0
LINE
  5
AD
330
1F
100
AcDbEntity
  8
0
  6
Continuous
 62
     7
370
    15
100
AcDbLine
 10
320.8484189547
 20
422.0415428053
 30
0.0
 11
324.8483838628
 21
422.0255198122
 31
0.0
  0
LINE
  5
AE
330
1F
100
AcDbEntity
  8
0
  6
Continuous
 62
     7
370
    15
100
AcDbLine
 10
326.05810003
 20
470.1940074607
 30
0.0
 11
325.8542062683
 21
423.645141522
 31
0.0
  0
SPLINE
  5
AF
330
1F
100
AcDbEntity
  8
0
  6
Continuous
 62
     7
370
    15
100
AcDbSpline
210
0.0
220
0.0
230
1.0
 70
     8
 71
     3
 72
    16
 73
    12
 74
     0
 42
0.00000001
 43
0.00000001
 12
1.0
 22
0.0
 32
0.0
 13
1.0
 23
0.0
 33
0.0
 40
0.0
 40
0.0
 40
0.0
 40
0.0
 40
0.1249999999999948
 40
0.1249999999999948
 40
0.2499999999999895
 40
0.2499999999999895
 40
0.499999999999993
 40
0.499999999999993
 40
0.7499999999999964
 40
0.7499999999999964
 40
1.0
 40
1.0
 40
1.0
 40
1.0
 10
324.8483838628116
 20
422.0255198121964
 30
0.0
 10
324.93957996119
 20
422.0251545003773
 30
0.0
 10
325.0289001421298
 20
422.0489945456279
 30
0.0
 10
325.1885808048414
 20
422.127562153461
 30
0.0
 10
325.2613476573671
 20
422.1826676878045
 30
0.0
 10
325.4525542298418
 20
422.3676210033481
 30
0.0
 10
325.5471317536246
 20
422.5144675028881
 30
0.0
 10
325.6999144816004
 20
422.8246256605571
 30
0.0
 10
325.7556868793533
 20
422.9860967316577
 30
0.0
 10
325.8329457999151
 20
423.3154166217968
 30
0.0
 10
325.8536350674946
 20
423.480295865277
 30
0.0
 10
325.854206268282
 20
423.6451415220426
 30
0.0
  0
LWPOLYLINE
  5
B0
330
1F
100
AcDbEntity
  8
0
  6
Continuous
 62
     7
370
    15
100
AcDbPolyline
 90
        3
 70
   128
 43
0.0
 10
320.0749077797
 20
478.1364312818
 10
320.0745858349
 20
478.2910869758
 10
320.0742673704
 20
478.3104659888
  0
LWPOLYLINE
  5
B1
330
1F
100
AcDbEntity
  8
0
  6
Continuous
 62
     7
370
    15
100
AcDbPolyline
 90
        5
 70
   128
 43
0.0
 10
320.0699403385
 20
477.8334840882
 10
320.0674613092
 20
477.4087977487
 10
320.0645645716
 20
476.8555458553
 10
320.061421428
 20
476.2045179383
 10
320.0581526679
 20
475.4807326354
  0
LINE
  5
B2
330
1F
100
AcDbEntity
  8
0
  6
Continuous
 62
     7
370
    15
100
AcDbLine
 10
320.0749077797
 20
475.2127142346
 30
0.0
 11
320.0749077797
 21
478.1364312818
 31
0.0
  0
LINE
  5
B3
330
1F
100
AcDbEntity
  8
0
  6
Continuous
 62
     7
370
    15
100
AcDbLine
 10
319.8542589061
 20
428.9318666967
 30
0.0
 11
319.8559619936
 21
428.9890308276
 31
0.0
  0
LWPOLYLINE
  5
B4
330
1F
100
AcDbEntity
  8
0
  6
Continuous
 62
     7
370
    15
100
AcDbPolyline
 90
        9
 70
   128
 43
0.0
 10
319.8571390619
 20
428.9932032534
 10
319.857311069
 20
428.9905915951
 10
319.8595098415
 20
428.8376041705
 10
319.8608365992
 20
428.4742002789
 10
319.861280104
 20
427.9034580753
 10
319.8608365992
 20
427.1302119416
 10
319.8595098415
 20
426.1610115367
 10
319.857311069
 20
425.0040663196
 10
319.8542589061
 20
423.6691760117
  0
LINE
  5
B5
330
1F
100
AcDbEntity
  8
0
  6
Continuous
 62
     7
370
    15
100
AcDbLine
 10
320.0581526679
 20
475.4807326354
 30
0.0
 11
319.8542589061
 21
428.9318666967
 31
0.0
  0
LINE
  5
B6
330
1F
100
AcDbEntity
  8
0
  6
Continuous
 62
     7
370
    15
100
AcDbLine
 10
321.0790877847
 20
479.0887218999
 30
0.0
 11
321.0790877847
 21
476.1650048527
 31
0.0
  0
LINE
  5
B7
330
1F
100
AcDbEntity
  8
0
  6
Continuous
 62
     7
370
    15
100
AcDbLine
 10
325.0790526928
 20
476.1489818595
 30
0.0
 11
325.0790526928
 21
479.0726989068
 31
0.0
  0
LINE
  5
B8
330
1F
100
AcDbEntity
  8
0
  6
Continuous
 62
     7
370
    15
100
AcDbLine
 10
326.0748551419
 20
478.1123967922
 30
0.0
 11
326.0748551419
 21
475.1886797449
 31
0.0
  0
LINE
  5
B9
330
1F
100
AcDbEntity
  8
0
  6
Continuous
 62
     7
370
    15
100
AcDbLine
 10
246.4312591691
 20
333.9930091523
 30
0.0
 11
221.6312591691
 21
333.9930091523
 31
0.0
  0
LINE
  5
BA
330
1F
100
AcDbEntity
  8
0
  6
Continuous
 62
     7
370
    15
100
AcDbLine
 10
271.2312591691
 20
333.9930091523
 30
0.0
 11
246.4312591691
 21
333.9930091523
 31
0.0
  0
LINE
  5
BB
330
1F
100
AcDbEntity
  8
0
  6
Continuous
 62
     7
370
    15
100
AcDbLine
 10
222.4312591691
 20
340.3930091523
 30
0.0
 11
270.4312591691
 21
340.3930091523
 31
0.0
  0
SPLINE
  5
BC
330
1F
100
AcDbEntity
  8
0
  6
Continuous
 62
     7
370
    15
100
AcDbSpline
210
0.0
220
0.0
230
1.0
 70
     8
 71
     3
 72
    20
 73
    16
 74
     0
 42
0.00000001
 43
0.00000001
 12
1.0
 22
0.0
 32
0.0
 13
1.0
 23
0.0
 33
0.0
 40
0.0
 40
0.0
 40
0.0
 40
0.0
 40
0.1250000000000034
 40
0.1250000000000034
 40
0.2500000000000067
 40
0.2500000000000067
 40
0.5000000000000079
 40
0.5000000000000079
 40
0.6250000000000059
 40
0.6250000000000059
 40
0.7500000000000039
 40
0.7500000000000039
 40
0.875000000000002
 40
0.875000000000002
 40
1.0
 40
1.0
 40
1.0
 40
1.0
 10
320.8410695888803
 20
420.0596188977052
 30
0.0
 10
320.6419831969794
 20
420.0604163946736
 30
0.0
 10
320.4462837626451
 20
420.0759514769119
 30
0.0
 10
320.0613539754244
 20
420.1349548403893
 30
0.0
 10
319.8704267472345
 20
420.1791338899882
 30
0.0
 10
319.328297978709
 20
420.3479242094148
 30
0.0
 10
318.9976948124083
 20
420.5116313978828
 30
0.0
 10
318.5864001362474
 20
420.8037076031422
 30
0.0
 10
318.4612220206833
 20
420.9103087784158
 30
0.0
 10
318.2444772629609
 20
421.1327308911847
 30
0.0
 10
318.1525679153743
 20
421.248335480476
 30
0.0
 10
318.0019217034147
 20
421.4875424025687
 30
0.0
 10
317.9434147113957
 20
421.6117118750668
 30
0.0
 10
317.8660179290929
 20
421.8575800255753
 30
0.0
 10
317.8461603852321
 20
421.9804970736231
 30
0.0
 10
317.8464605919509
 20
422.1033373407128
 30
0.0
  0
LINE
  5
BD
330
1F
100
AcDbEntity
  8
0
  6
Continuous
 62
     7
370
    15
100
AcDbLine
 10
324.841034497
 20
420.0435959046
 30
0.0
 11
320.8410695889
 21
420.0596188977
 31
0.0
  0
SPLINE
  5
BE
330
1F
100
AcDbEntity
  8
0
  6
Continuous
 62
     7
370
    15
100
AcDbSpline
210
0.0
220
0.0
230
1.0
 70
     8
 71
     3
 72
    22
 73
    18
 74
     0
 42
0.00000001
 43
0.00000001
 12
1.0
 22
0.0
 32
0.0
 13
1.0
 23
0.0
 33
0.0
 40
0.0
 40
0.0
 40
0.0
 40
0.0
 40
0.125
 40
0.125
 40
0.25
 40
0.25
 40
0.375
 40
0.375
 40
0.5
 40
0.5
 40
0.625
 40
0.625
 40
0.75
 40
0.75
 40
0.875
 40
0.875
 40
1.0
 40
1.0
 40
1.0
 40
1.0
 10
327.8463728622623
 20
422.0632798579085
 30
0.0
 10
327.8460720722769
 20
421.9402009265146
 30
0.0
 10
327.8255311241913
 20
421.8175052439576
 30
0.0
 10
327.7471407136182
 20
421.5729285937691
 30
0.0
 10
327.6885669200841
 20
421.4499851160805
 30
0.0
 10
327.5358084285905
 20
421.2104577632182
 30
0.0
 10
327.443078497542
 20
421.0955551213321
 30
0.0
 10
327.2262327855742
 20
420.8759149735313
 30
0.0
 10
327.1004272485156
 20
420.7700860852318
 30
0.0
 10
326.8240825646505
 20
420.576780501284
 30
0.0
 10
326.6742500362778
 20
420.4893113913596
 30
0.0
 10
326.3511473718689
 20
420.3338964343792
 30
0.0
 10
326.1755975136582
 20
420.2654012497068
 30
0.0
 10
325.8135172553007
 20
420.1556264211842
 30
0.0
 10
325.6265224615909
 20
420.1137127805182
 30
0.0
 10
325.240310799329
 20
420.0571610124549
 30
0.0
 10
325.0405210620879
 20
420.042796804608
 30
0.0
 10
324.8410344970047
 20
420.0435959045835
 30
0.0
  0
ELLIPSE
  5
BF
330
1F
100
AcDbEntity
  8
0
  6
Continuous
 62
     7
370
    15
100
AcDbEllipse
 10
295.7567712063
 20
404.0921868758
 30
0.0
 11
-3.795594983565024
 21
23.01460207718492
 31
0.0
210
0.0
220
0.0
230
1.0
 40
0.0489331134
 41
2.047644579253662
 42
3.133321256181898
  0
SPLINE
  5
C0
330
1F
100
AcDbEntity
  8
0
  6
Continuous
 62
     7
370
    15
100
AcDbSpline
210
0.0
220
0.0
230
1.0
 70
     8
 71
     3
 72
    12
 73
     8
 74
     0
 42
0.00000001
 43
0.00000001
 12
1.0
 22
0.0
 32
0.0
 13
1.0
 23
0.0
 33
0.0
 40
0.0
 40
0.0
 40
0.0
 40
0.0
 40
0.5000000000000002
 40
0.5000000000000002
 40
0.7500000000000001
 40
0.7500000000000001
 40
1.0
 40
1.0
 40
1.0
 40
1.0
 10
295.7750947355795
 20
401.6736369663548
 30
0.0
 10
295.7690293913619
 20
400.2069053823394
 30
0.0
 10
295.8257502844775
 20
398.7809845304662
 30
0.0
 10
296.0063141848978
 20
396.7005807602751
 30
0.0
 10
296.0824365032286
 20
396.0169220160635
 30
0.0
 10
296.2670428016071
 20
394.6695043683693
 30
0.0
 10
296.3754873300873
 20
394.0070785515759
 30
0.0
 10
296.4983317379832
 20
393.3639035260713
 30
0.0
  0
LWPOLYLINE
  5
C1
330
1F
100
AcDbEntity
  8
0
  6
Continuous
 62
     7
370
    15
100
AcDbPolyline
 90
       19
 70
   128
 43
0.0
 10
295.8300421875
 20
425.1861851286
 10
295.8328964314
 20
425.5930519964
 10
295.8394153781
 20
426.4158828775
 10
295.8447466431
 20
426.9178993195
 10
295.8488136107
 20
427.0918868305
 10
295.8515578345
 20
426.9353450315
 10
295.8529398771
 20
426.4505235887
 10
295.8529398771
 20
425.6443898842
 10
295.8515578345
 20
424.5285288874
 10
295.8488136107
 20
423.1189766667
 10
295.8447466431
 20
421.4359899353
 10
295.8394153781
 20
419.5037549411
 10
295.8328964314
 20
417.3500398853
 10
295.8252834871
 20
415.0057958653
 10
295.8166859509
 20
412.5047120753
 10
295.8072273783
 20
409.8827316582
 10
295.7970436987
 20
407.1775351653
 10
295.7862812621
 20
404.4279990487
 10
295.7750947356
 20
401.6736369664
  0
SPLINE
  5
C2
330
1F
100
AcDbEntity
  8
0
  6
Continuous
 62
     7
370
    15
100
AcDbSpline
210
0.0
220
0.0
230
1.0
 70
     8
 71
     3
 72
    38
 73
    34
 74
     0
 42
0.00000001
 43
0.00000001
 12
1.0
 22
0.0
 32
0.0
 13
1.0
 23
0.0
 33
0.0
 40
0.0
 40
0.0
 40
0.0
 40
0.0
 40
0.0625
 40
0.0625
 40
0.125
 40
0.125
 40
0.1875
 40
0.1875
 40
0.25
 40
0.25
 40
0.3125
 40
0.3125
 40
0.375
 40
0.375
 40
0.4375
 40
0.4375
 40
0.5
 40
0.5
 40
0.5625
 40
0.5625
 40
0.625
 40
0.625
 40
0.6875
 40
0.6875
 40
0.75
 40
0.75
 40
0.8125
 40
0.8125
 40
0.875
 40
0.875
 40
0.9375
 40
0.9375
 40
1.0
 40
1.0
 40
1.0
 40
1.0
 10
304.3557503705559
 20
426.0557907341737
 30
0.0
 10
304.3557507226586
 20
425.9978657479581
 30
0.0
 10
304.3752264690518
 20
425.9383898387502
 30
0.0
 10
304.4514985873552
 20
425.8167306058932
 30
0.0
 10
304.5092357958015
 20
425.753847327001
 30
0.0
 10
304.6597810805249
 20
425.6298345374172
 30
0.0
 10
304.7518766808941
 20
425.5688869377227
 30
0.0
 10
304.9694300024053
 20
425.4502198978981
 30
0.0
 10
305.0959231719837
 20
425.3922906958178
 30
0.0
 10
305.3722238619289
 20
425.2860037209293
 30
0.0
 10
305.5230285977311
 20
425.2369761839028
 30
0.0
 10
305.8507115789038
 20
425.1487582363894
 30
0.0
 10
306.0249315421273
 20
425.1104266750652
 30
0.0
 10
306.3856744166724
 20
425.0478958946145
 30
0.0
 10
306.574868509107
 20
425.0232438279926
 30
0.0
 10
306.9621095208304
 20
424.9896323803483
 30
0.0
 10
307.1568573577287
 20
424.9808338773059
 30
0.0
 10
307.5485566394582
 20
424.9791448452773
 30
0.0
 10
307.7475365137974
 20
424.9865094344227
 30
0.0
 10
308.1324612358303
 20
425.0167516787207
 30
0.0
 10
308.3195845454617
 20
425.0394533702105
 30
0.0
 10
308.6831056821001
 20
425.099323051351
 30
0.0
 10
308.8585437610553
 20
425.1365372109886
 30
0.0
 10
309.1835001522513
 20
425.2211988401494
 30
0.0
 10
309.3352040241131
 20
425.2690083923077
 30
0.0
 10
309.6152835689365
 20
425.3743062257939
 30
0.0
 10
309.7393490798208
 20
425.4301408442961
 30
0.0
 10
309.9567973415975
 20
425.5466086561553
 30
0.0
 10
310.0509392575814
 20
425.6079480882959
 30
0.0
 10
310.2017218738853
 20
425.7307252841819
 30
0.0
 10
310.2586464924962
 20
425.7919714621714
 30
0.0
 10
310.3357685204702
 20
425.91341943422
 30
0.0
 10
310.355698084845
 20
425.9738313364922
 30
0.0
 10
310.3556977327427
 20
426.0317562444911
 30
0.0
  0
LINE
  5
C3
330
1F
100
AcDbEntity
  8
0
  6
Continuous
 62
     7
370
    15
100
AcDbLine
 10
295.7750947356
 20
402.2156707109
 30
0.0
 11
295.7750947356
 21
401.6736369664
 31
0.0
  0
LINE
  5
C4
330
1F
100
AcDbEntity
  8
0
  6
Continuous
 62
     7
370
    15
100
AcDbLine
 10
295.7811279674
 20
402.0076676291
 30
0.0
 11
295.7750947356
 21
402.2156707109
 31
0.0
  0
LINE
  5
C5
330
1F
100
AcDbEntity
  8
0
  6
Continuous
 62
     7
370
     0
100
AcDbLine
 10
277.4312591691
 20
426.9930091523
 30
0.0
 11
277.365012718
 21
426.8618789846
 31
0.0
  0
LINE
  5
C6
330
1F
100
AcDbEntity
  8
0
  6
Continuous
 62
     7
370
     0
100
AcDbLine
 10
277.4044517136
 20
381.046104575
 30
0.0
 11
277.4312591691
 21
380.9930091523
 31
0.0
  0
LINE
  5
C7
330
1F
100
AcDbEntity
  8
0
  6
Continuous
 62
     7
370
    15
100
AcDbLine
 10
277.3962684727
 20
426.9237291791
 30
0.0
 11
277.4312591691
 21
426.9930091523
 31
0.0
  0
SPLINE
  5
C8
330
1F
100
AcDbEntity
  8
0
  6
Continuous
 62
     7
370
    15
100
AcDbSpline
210
0.0
220
0.0
230
1.0
 70
     8
 71
     3
 72
    10
 73
     6
 74
     0
 42
0.00000001
 43
0.00000001
 12
1.0
 22
0.0
 32
0.0
 13
1.0
 23
0.0
 33
0.0
 40
0.0
 40
0.0
 40
0.0
 40
0.0
 40
0.3896797175491959
 40
0.7385251593939722
 40
1.0
 40
1.0
 40
1.0
 40
1.0
 10
277.4312899039865
 20
426.9932298694994
 30
0.0
 10
276.7694691936392
 20
426.9990082158552
 30
0.0
 10
275.5151795203826
 20
427.0099593995356
 30
0.0
 10
273.8094487429713
 20
427.247764597971
 30
0.0
 10
272.8632265254247
 20
427.6843803562444
 30
0.0
 10
272.4578437933986
 20
427.8714362989737
 30
0.0
  0
SPLINE
  5
C9
330
1F
100
AcDbEntity
  8
0
  6
Continuous
 62
     7
370
    15
100
AcDbSpline
210
0.0
220
0.0
230
1.0
 70
     8
 71
     3
 72
     9
 73
     5
 74
     0
 42
0.00000001
 43
0.00000001
 12
1.0
 22
0.0
 32
0.0
 13
1.0
 23
0.0
 33
0.0
 40
0.0
 40
0.0
 40
0.0
 40
0.0
 40
0.1953473349053449
 40
1.0
 40
1.0
 40
1.0
 40
1.0
 10
269.7439381602306
 20
431.5197524290162
 30
0.0
 10
269.7305379113478
 20
431.5569558736223
 30
0.0
 10
269.6619408716732
 20
431.7474035427656
 30
0.0
 10
269.6480791343474
 20
431.9509397745861
 30
0.0
 10
269.6369252504654
 20
432.1147157459638
 30
0.0
  0
LINE
  5
CA
330
1F
100
AcDbEntity
  8
0
  6
Continuous
 62
     7
370
    15
100
AcDbLine
 10
269.4586410159
 20
433.9087655941
 30
0.0
 11
269.4311945135
 21
434.9930678209
 31
0.0
  0
SPLINE
  5
CB
330
1F
100
AcDbEntity
  8
0
  6
Continuous
 62
     7
370
    15
100
AcDbSpline
210
0.0
220
0.0
230
1.0
 70
     8
 71
     3
 72
    13
 73
     9
 74
     0
 42
0.00000001
 43
0.00000001
 12
1.0
 22
0.0
 32
0.0
 13
1.0
 23
0.0
 33
0.0
 40
0.0
 40
0.0
 40
0.0
 40
0.0
 40
0.0947662043380678
 40
0.2560797954327708
 40
0.4174347823479476
 40
0.5902431848927501
 40
0.783384980066706
 40
1.0
 40
1.0
 40
1.0
 40
1.0
 10
270.0029780377641
 20
377.2205321398079
 30
0.0
 10
270.0931409221313
 20
377.4914124779169
 30
0.0
 10
270.3367815020794
 20
378.2233926395602
 30
0.0
 10
271.1058027457302
 20
379.2512229723508
 30
0.0
 10
272.3118643166367
 20
380.151845248364
 30
0.0
 10
273.811359953955
 20
380.7123541674835
 30
0.0
 10
275.5482471055384
 20
380.985642759871
 30
0.0
 10
276.7800880601383
 20
380.9903849941089
 30
0.0
 10
277.4312920013478
 20
380.9928919424405
 30
0.0
  0
LWPOLYLINE
  5
CC
330
1F
100
AcDbEntity
  8
0
  6
Continuous
 62
     7
370
    15
100
AcDbPolyline
 90
       14
 70
   128
 43
0.0
 10
295.841222752
 20
425.1838614524
 10
295.8434334897
 20
425.0718400065
 10
295.8449125041
 20
424.6152668813
 10
295.8449125041
 20
423.814354371
 10
295.8434334897
 20
422.6824644571
 10
295.8405001361
 20
421.2384809649
 10
295.8361613817
 20
419.5064945165
 10
295.8304896118
 20
417.5154006161
 10
295.8235794511
 20
415.2984175732
 10
295.8155461849
 20
412.8925323069
 10
295.8065238358
 20
410.3378832767
 10
295.7966629277
 20
407.6770908341
 10
295.7861279745
 20
404.954546169
 10
295.7750947356
 20
402.2156707109
  0
LINE
  5
CD
330
1F
100
AcDbEntity
  8
0
  6
Continuous
 62
     7
370
    15
100
AcDbLine
 10
291.4312591691
 20
403.9930091523
 30
0.0
 11
291.4312591691
 21
381.9930091523
 31
0.0
  0
LINE
  5
CE
330
1F
100
AcDbEntity
  8
0
  6
Continuous
 62
     7
370
    15
100
AcDbLine
 10
291.4312591691
 20
425.9930091523
 30
0.0
 11
291.4312591691
 21
403.9930091523
 31
0.0
  0
LWPOLYLINE
  5
CF
330
1F
100
AcDbEntity
  8
0
  6
Continuous
 62
     7
370
    15
100
AcDbPolyline
 90
       27
 70
   128
 43
0.0
 10
330.8427939472
 20
425.4511360035
 10
330.8444378674
 20
425.3811319407
 10
330.8461387038
 20
425.0046487777
 10
330.8464801654
 20
424.309028702
 10
330.8454570759
 20
423.3048166051
 10
330.8430849445
 20
422.0072353187
 10
330.8393997302
 20
420.4359548523
 10
330.834457297
 20
418.6147942162
 10
330.8283325673
 20
416.5713603492
 10
330.8211183856
 20
414.3366296258
 10
330.8129241117
 20
411.9444782858
 10
330.8038739623
 20
409.4311689051
 10
330.7941051286
 20
406.8348006919
 10
330.783765696
 20
404.1947319419
 10
330.7730123999
 20
401.550983406
 10
330.7620082492
 20
398.9436316173
 10
330.7509200556
 20
396.412201371
 10
330.7399159049
 20
393.9950665693
 10
330.7291626088
 20
391.7288685119
 10
330.7188231762
 20
389.6479604513
 10
330.7090543425
 20
387.7838868325
 10
330.7000041931
 20
386.1649051115
 10
330.6918099192
 20
384.8155574008
 10
330.6845957376
 20
383.7562984363
 10
330.6784710078
 20
383.0031855042
 10
330.6735285747
 20
382.5676350288
 10
330.6702112167
 20
382.4524221161
  0
LINE
  5
D0
330
1F
100
AcDbEntity
  8
0
  6
Continuous
 62
     7
370
    15
100
AcDbLine
 10
291.4317591691
 20
425.9930091523
 30
0.0
 11
291.4317591691
 21
381.9930091523
 31
0.0
  0
SPLINE
  5
D1
330
1F
100
AcDbEntity
  8
0
  6
Continuous
 62
     7
370
    15
100
AcDbSpline
210
0.0
220
0.0
230
1.0
 70
     8
 71
     3
 72
    48
 73
    44
 74
     0
 42
0.00000001
 43
0.00000001
 12
1.0
 22
0.0
 32
0.0
 13
1.0
 23
0.0
 33
0.0
 40
0.0
 40
0.0
 40
0.0
 40
0.0
 40
0.0624999999999989
 40
0.0624999999999989
 40
0.1249999999999978
 40
0.1249999999999978
 40
0.1562499999999972
 40
0.1562499999999972
 40
0.1874999999999966
 40
0.1874999999999966
 40
0.2499999999999954
 40
0.2499999999999954
 40
0.3124999999999943
 40
0.3124999999999943
 40
0.3437499999999937
 40
0.3437499999999937
 40
0.3749999999999932
 40
0.3749999999999932
 40
0.4374999999999921
 40
0.4374999999999921
 40
0.4687499999999915
 40
0.4687499999999915
 40
0.4999999999999909
 40
0.4999999999999909
 40
0.6249999999999901
 40
0.6249999999999901
 40
0.6406249999999903
 40
0.6406249999999903
 40
0.6562499999999905
 40
0.6562499999999905
 40
0.6874999999999916
 40
0.6874999999999916
 40
0.7499999999999938
 40
0.7499999999999938
 40
0.7812499999999947
 40
0.7812499999999947
 40
0.8124999999999954
 40
0.8124999999999954
 40
0.874999999999997
 40
0.874999999999997
 40
0.9374999999999986
 40
0.9374999999999986
 40
1.0
 40
1.0
 40
1.0
 40
1.0
 10
306.431259169132
 20
576.931613006871
 30
0.0
 10
304.0923900092181
 20
576.9339888205682
 30
0.0
 10
301.7535340206128
 20
576.9358394756055
 30
0.0
 10
297.0776111089169
 20
576.8681881320111
 30
0.0
 10
294.7405389553709
 20
576.798894912887
 30
0.0
 10
291.2374178121651
 20
576.5957585027132
 30
0.0
 10
290.0691138975922
 20
576.511454498889
 30
0.0
 10
287.7409902069668
 20
576.3032782756273
 30
0.0
 10
286.5807603025729
 20
576.1794167009475
 30
0.0
 10
283.1134280805393
 20
575.7389042816965
 30
0.0
 10
280.8196672545124
 20
575.3534083864624
 30
0.0
 10
276.2775899991914
 20
574.3479075285709
 30
0.0
 10
274.0292152157965
 20
573.7282036582504
 30
0.0
 10
270.6989527835392
 20
572.5803612149002
 30
0.0
 10
269.6038702940901
 20
572.1638810653599
 30
0.0
 10
267.4535284542907
 20
571.2624646196213
 30
0.0
 10
266.3969863529607
 20
570.7770973919651
 30
0.0
 10
263.2861561822594
 20
569.2116047877512
 30
0.0
 10
261.2905006731073
 20
568.0223927944048
 30
0.0
 10
258.4280504317697
 20
565.994784995489
 30
0.0
 10
257.4932081557486
 20
565.2758821767063
 30
0.0
 10
255.6887712807207
 20
563.7676874180814
 30
0.0
 10
254.8175428335105
 20
562.977511066854
 30
0.0
 10
250.6234601114099
 20
558.848698824332
 30
0.0
 10
247.8949904646928
 20
555.0912027381579
 30
0.0
 10
245.4538407199769
 20
550.4084265909302
 30
0.0
 10
245.1912566135824
 20
549.8813656025709
 30
0.0
 10
244.687361933443
 20
548.8232434957249
 30
0.0
 10
244.4454921035999
 20
548.2911539277991
 30
0.0
 10
243.7487563445112
 20
546.6862080316578
 30
0.0
 10
243.3227410312878
 20
545.6046814574729
 30
0.0
 10
242.1502750595461
 20
542.3283726416494
 30
0.0
 10
241.5092754593902
 20
540.1019000476382
 30
0.0
 10
240.7241164557107
 20
536.7091970602218
 30
0.0
 10
240.4918332359933
 20
535.5694497760384
 30
0.0
 10
240.0805876980592
 20
533.2739311330747
 30
0.0
 10
239.9013932024674
 20
532.1162123469297
 30
0.0
 10
239.4372391309098
 20
528.6374539605061
 30
0.0
 10
239.2255538253787
 20
526.3134050687693
 30
0.0
 10
238.9386063280617
 20
521.6585013476106
 30
0.0
 10
238.8635958521683
 20
519.3276339602396
 30
0.0
 10
238.7877622266537
 20
514.6621980919498
 30
0.0
 10
238.7871577821457
 20
512.3276186997804
 30
0.0
 10
238.7871577821003
 20
509.9930091523029
 30
0.0
  0
SPLINE
  5
D2
330
1F
100
AcDbEntity
  8
0
  6
Continuous
 62
     7
370
    15
100
AcDbSpline
210
0.0
220
0.0
230
1.0
 70
     8
 71
     3
 72
    46
 73
    42
 74
     0
 42
0.00000001
 43
0.00000001
 12
1.0
 22
0.0
 32
0.0
 13
1.0
 23
0.0
 33
0.0
 40
0.0
 40
0.0
 40
0.0
 40
0.0
 40
0.0625000000000012
 40
0.0625000000000012
 40
0.1250000000000025
 40
0.1250000000000025
 40
0.1875000000000037
 40
0.1875000000000037
 40
0.218750000000004
 40
0.218750000000004
 40
0.2500000000000043
 40
0.2500000000000043
 40
0.3125000000000055
 40
0.3125000000000055
 40
0.3437500000000062
 40
0.3437500000000062
 40
0.3593750000000061
 40
0.3593750000000061
 40
0.3750000000000061
 40
0.3750000000000061
 40
0.5000000000000059
 40
0.5000000000000059
 40
0.5312500000000056
 40
0.5312500000000056
 40
0.5625000000000051
 40
0.5625000000000051
 40
0.6250000000000044
 40
0.6250000000000044
 40
0.6875000000000039
 40
0.6875000000000039
 40
0.7500000000000032
 40
0.7500000000000032
 40
0.8125000000000026
 40
0.8125000000000026
 40
0.8437500000000022
 40
0.8437500000000022
 40
0.8750000000000018
 40
0.8750000000000018
 40
0.937500000000001
 40
0.937500000000001
 40
1.0
 40
1.0
 40
1.0
 40
1.0
 10
238.2299084309272
 20
509.9930091523029
 30
0.0
 10
238.2299084309227
 20
512.3522601668159
 30
0.0
 10
238.2305198687392
 20
514.7114812383006
 30
0.0
 10
238.3067191693083
 20
519.4262526503725
 30
0.0
 10
238.3820828191829
 20
521.7818139700919
 30
0.0
 10
238.6703645702215
 20
526.4862023187094
 30
0.0
 10
238.8830297169771
 20
528.8350417319242
 30
0.0
 10
239.3493742890288
 20
532.3510873052456
 30
0.0
 10
239.5293232696294
 20
533.5206146926439
 30
0.0
 10
239.9423889647287
 20
535.8401901633467
 30
0.0
 10
240.1757237096463
 20
536.9920448594764
 30
0.0
 10
240.964570712506
 20
540.4213128011711
 30
0.0
 10
241.6087393436673
 20
542.6724850478844
 30
0.0
 10
242.7874981796153
 20
545.986346019024
 30
0.0
 10
243.2158679980333
 20
547.0804738112985
 30
0.0
 10
243.9165809298332
 20
548.7044520515253
 30
0.0
 10
244.1598507143914
 20
549.2429075152297
 30
0.0
 10
244.6667036713558
 20
550.3138061961329
 30
0.0
 10
244.9307545755319
 20
550.8470849924715
 30
0.0
 10
247.3839534752553
 20
555.5825516945715
 30
0.0
 10
250.1277482966295
 20
559.3887507594736
 30
0.0
 10
254.349205713498
 20
563.5793498421007
 30
0.0
 10
255.2256202511849
 20
564.3812291521116
 30
0.0
 10
257.0418928768662
 20
565.9134131239803
 30
0.0
 10
257.9828924409043
 20
566.6441507687497
 30
0.0
 10
260.8646658884115
 20
568.7065781303088
 30
0.0
 10
262.8745979693155
 20
569.9183594701419
 30
0.0
 10
267.0539207845574
 20
572.0487584416945
 30
0.0
 10
269.2255095501998
 20
572.9678847949068
 30
0.0
 10
273.705147288529
 20
574.5367105155233
 30
0.0
 10
275.9739988846061
 20
575.1734182946714
 30
0.0
 10
280.5585920399024
 20
576.2082874326983
 30
0.0
 10
282.874394953911
 20
576.60613664612
 30
0.0
 10
286.3758800001464
 20
577.0615844935425
 30
0.0
 10
287.5476754292059
 20
577.1898275945464
 30
0.0
 10
289.8992696255545
 20
577.4055997112628
 30
0.0
 10
291.0796185262024
 20
577.4931274864228
 30
0.0
 10
294.6189745746369
 20
577.7042478569215
 30
0.0
 10
296.9802929639595
 20
577.7766030838052
 30
0.0
 10
301.7048182512868
 20
577.8474157105028
 30
0.0
 10
304.0680310612296
 20
577.8456417432997
 30
0.0
 10
306.431259169132
 20
577.8432692979294
 30
0.0
  0
SPLINE
  5
D3
330
1F
100
AcDbEntity
  8
0
  6
Continuous
 62
     7
370
    15
100
AcDbSpline
210
0.0
220
0.0
230
1.0
 70
     8
 71
     3
 72
    10
 73
     6
 74
     0
 42
0.00000001
 43
0.00000001
 12
1.0
 22
0.0
 32
0.0
 13
1.0
 23
0.0
 33
0.0
 40
0.0
 40
0.0
 40
0.0
 40
0.0
 40
0.5
 40
0.5
 40
1.0
 40
1.0
 40
1.0
 40
1.0
 10
306.4311719004052
 20
576.9316130955182
 30
0.0
 10
306.4313935569214
 20
577.168576640832
 30
0.0
 10
306.4315372344647
 20
577.3968835788047
 30
0.0
 10
306.431600660979
 20
577.7281773436737
 30
0.0
 10
306.431520142438
 20
577.8297668824237
 30
0.0
 10
306.4313464378574
 20
577.8432692103204
 30
0.0
  0
SPLINE
  5
D4
330
1F
100
AcDbEntity
  8
0
  6
Continuous
 62
     7
370
    15
100
AcDbSpline
210
0.0
220
0.0
230
1.0
 70
     8
 71
     3
 72
    40
 73
    36
 74
     0
 42
0.00000001
 43
0.00000001
 12
1.0
 22
0.0
 32
0.0
 13
1.0
 23
0.0
 33
0.0
 40
0.0
 40
0.0
 40
0.0
 40
0.0
 40
0.0625000000000005
 40
0.0625000000000005
 40
0.1250000000000011
 40
0.1250000000000011
 40
0.1875000000000016
 40
0.1875000000000016
 40
0.218750000000002
 40
0.218750000000002
 40
0.2500000000000024
 40
0.2500000000000024
 40
0.3750000000000041
 40
0.3750000000000041
 40
0.4062500000000046
 40
0.4062500000000046
 40
0.4375000000000051
 40
0.4375000000000051
 40
0.5000000000000054
 40
0.5000000000000054
 40
0.6250000000000063
 40
0.6250000000000063
 40
0.6406250000000061
 40
0.6406250000000061
 40
0.6562500000000059
 40
0.6562500000000059
 40
0.6875000000000054
 40
0.6875000000000054
 40
0.7500000000000046
 40
0.7500000000000046
 40
0.8125000000000037
 40
0.8125000000000037
 40
0.8750000000000027
 40
0.8750000000000027
 40
1.0
 40
1.0
 40
1.0
 40
1.0
 10
306.431259169132
 20
562.1427490066765
 30
0.0
 10
304.6299282333051
 20
562.1409406488922
 30
0.0
 10
302.8286291264097
 20
562.1386656180932
 30
0.0
 10
299.2299155257257
 20
562.0771278060516
 30
0.0
 10
297.4324898037384
 20
562.0180297835676
 30
0.0
 10
293.8447549831794
 20
561.7954280511481
 30
0.0
 10
292.0544333070375
 20
561.6321089335516
 30
0.0
 10
289.3765518458603
 20
561.27561195836
 30
0.0
 10
288.485191004526
 20
561.1382009728308
 30
0.0
 10
286.705395220394
 20
560.8204504246532
 30
0.0
 10
285.8164215251314
 20
560.6398624571156
 30
0.0
 10
281.4209178751182
 20
559.624940521182
 30
0.0
 10
278.0308839963394
 20
558.4525841414442
 30
0.0
 10
274.0123616945727
 20
556.3624038288002
 30
0.0
 10
273.2210698171223
 20
555.9132351413446
 30
0.0
 10
271.6858144077851
 20
554.9625191074584
 30
0.0
 10
270.9388916277559
 20
554.4594990362497
 30
0.0
 10
268.7616177891972
 20
552.8656072087089
 30
0.0
 10
267.3936951668506
 20
551.689151672473
 30
0.0
 10
263.5642266100776
 20
547.8064923006118
 30
0.0
 10
261.4985102644108
 20
544.8762836993026
 30
0.0
 10
259.6554674621304
 20
541.242470519109
 30
0.0
 10
259.4571029049481
 20
540.8332845443742
 30
0.0
 10
259.0763095894408
 20
540.0115149911244
 30
0.0
 10
258.8936023096459
 20
539.5984459505391
 30
0.0
 10
258.3674816414263
 20
538.3529890582927
 30
0.0
 10
258.046051021204
 20
537.5143566615213
 30
0.0
 10
257.161986026122
 20
534.9756693570853
 30
0.0
 10
256.679469004975
 20
533.2528554176407
 30
0.0
 10
255.8920877373901
 20
529.7567597579084
 30
0.0
 10
255.5872961490299
 20
527.9824814318878
 30
0.0
 10
255.1215107953643
 20
524.3970656559512
 30
0.0
 10
254.9622724024766
 20
522.6010137920831
 30
0.0
 10
254.6385516595074
 20
517.2058664581289
 30
0.0
 10
254.6326099073463
 20
513.5995727529995
 30
0.0
 10
254.6326099073369
 20
509.9930091523029
 30
0.0
  0
SPLINE
  5
D5
330
1F
100
AcDbEntity
  8
0
  6
Continuous
 62
     7
370
    15
100
AcDbSpline
210
0.0
220
0.0
230
1.0
 70
     8
 71
     3
 72
    40
 73
    36
 74
     0
 42
0.00000001
 43
0.00000001
 12
1.0
 22
0.0
 32
0.0
 13
1.0
 23
0.0
 33
0.0
 40
0.0
 40
0.0
 40
0.0
 40
0.0
 40
0.0625000000000007
 40
0.0625000000000007
 40
0.1250000000000015
 40
0.1250000000000015
 40
0.1875000000000022
 40
0.1875000000000022
 40
0.2500000000000029
 40
0.2500000000000029
 40
0.3125000000000037
 40
0.3125000000000037
 40
0.3437500000000041
 40
0.3437500000000041
 40
0.3750000000000044
 40
0.3750000000000044
 40
0.5000000000000042
 40
0.5000000000000042
 40
0.5625000000000039
 40
0.5625000000000039
 40
0.5937500000000037
 40
0.5937500000000037
 40
0.6250000000000034
 40
0.6250000000000034
 40
0.7500000000000023
 40
0.7500000000000023
 40
0.7812500000000021
 40
0.7812500000000021
 40
0.8125000000000018
 40
0.8125000000000018
 40
0.8750000000000012
 40
0.8750000000000012
 40
0.9375000000000006
 40
0.9375000000000006
 40
1.0
 40
1.0
 40
1.0
 40
1.0
 10
254.0753605561638
 20
509.9930091523029
 30
0.0
 10
254.0753605561109
 20
511.8209884196457
 30
0.0
 10
254.0758237771309
 20
513.6489471692616
 30
0.0
 10
254.1332287207894
 20
517.3023631463693
 30
0.0
 10
254.1899959916142
 20
519.1278281012541
 30
0.0
 10
254.4072019274357
 20
522.7741662542539
 30
0.0
 10
254.5674507550963
 20
524.5950478609204
 30
0.0
 10
255.036197136028
 20
528.23024492442
 30
0.0
 10
255.3426707429661
 20
530.0278824515298
 30
0.0
 10
256.135041282452
 20
533.5730756984731
 30
0.0
 10
256.620754321521
 20
535.3207411066297
 30
0.0
 10
257.5111284241598
 20
537.8971806781134
 30
0.0
 10
257.8349150291204
 20
538.7484763662162
 30
0.0
 10
258.5417068918987
 20
540.434576808283
 30
0.0
 10
258.9264276472178
 20
541.2726236037439
 30
0.0
 10
260.9877128882662
 20
545.3690766923813
 30
0.0
 10
263.0688406258486
 20
548.3482304445547
 30
0.0
 10
266.9311668346618
 20
552.3050679312869
 30
0.0
 10
268.3095770975619
 20
553.5042308303831
 30
0.0
 10
270.5063082020261
 20
555.1329618503677
 30
0.0
 10
271.260107616078
 20
555.6474886748326
 30
0.0
 10
272.8099574832772
 20
556.6209083852075
 30
0.0
 10
273.6090023881924
 20
557.0813175896892
 30
0.0
 10
277.6683640901535
 20
559.2261782372257
 30
0.0
 10
281.0958351481527
 20
560.4363778236127
 30
0.0
 10
285.5443577996276
 20
561.487846057721
 30
0.0
 10
286.4443574853062
 20
561.6752382235593
 30
0.0
 10
288.2471107173881
 20
562.005418285699
 30
0.0
 10
289.1500249004301
 20
562.1483905197584
 30
0.0
 10
291.8627727312033
 20
562.5196931300919
 30
0.0
 10
293.6766150343727
 20
562.6903610808159
 30
0.0
 10
297.3118325815299
 20
562.9233446187144
 30
0.0
 10
299.1332217318831
 20
562.9854601218464
 30
0.0
 10
302.7801391268669
 20
563.0501569279178
 30
0.0
 10
304.6056803900232
 20
563.0525508882873
 30
0.0
 10
306.431259169132
 20
563.054405297737
 30
0.0
  0
SPLINE
  5
D6
330
1F
100
AcDbEntity
  8
0
  6
Continuous
 62
     7
370
    15
100
AcDbSpline
210
0.0
220
0.0
230
1.0
 70
     8
 71
     3
 72
    10
 73
     6
 74
     0
 42
0.00000001
 43
0.00000001
 12
1.0
 22
0.0
 32
0.0
 13
1.0
 23
0.0
 33
0.0
 40
0.0
 40
0.0
 40
0.0
 40
0.0
 40
0.5
 40
0.5
 40
1.0
 40
1.0
 40
1.0
 40
1.0
 10
306.4313464391332
 20
562.1427490942868
 30
0.0
 10
306.4315201432241
 20
562.1562514221831
 30
0.0
 10
306.4316006612249
 20
562.257840960933
 30
0.0
 10
306.4315372337845
 20
562.589134725802
 30
0.0
 10
306.4313935558594
 20
562.8174416637748
 30
0.0
 10
306.4311718991326
 20
563.0544052090888
 30
0.0
  0
LINE
  5
D7
330
1F
100
AcDbEntity
  8
0
  6
Continuous
 62
     7
370
    15
100
AcDbLine
 10
246.4312591691
 20
449.9930091523
 30
0.0
 11
264.4165610148
 21
449.9930091523
 31
0.0
  0
LINE
  5
D8
330
1F
100
AcDbEntity
  8
0
  6
Continuous
 62
     7
370
    15
100
AcDbLine
 10
228.4459573234
 20
449.9930091523
 30
0.0
 11
246.4312591691
 21
449.9930091523
 31
0.0
  0
LINE
  5
D9
330
1F
100
AcDbEntity
  8
0
  6
Continuous
 62
     7
370
    15
100
AcDbLine
 10
254.0754541847
 20
450.3930091523
 30
0.0
 11
254.0754541847
 21
509.9930091523
 31
0.0
  0
LINE
  5
DA
330
1F
100
AcDbEntity
  8
0
  6
Continuous
 62
     7
370
    15
100
AcDbLine
 10
238.7870641535
 20
509.9930091523
 30
0.0
 11
238.7870641535
 21
450.3930091523
 31
0.0
  0
LWPOLYLINE
  5
DB
330
1F
100
AcDbEntity
  8
0
  6
Continuous
 62
     7
370
    15
100
AcDbPolyline
 90
        9
 70
   128
 43
0.0
 10
254.0754541847
 20
450.3930091523
 10
254.0722081944
 20
450.3149730235
 10
254.0625949649
 20
450.2399357794
 10
254.0469839273
 20
450.1707810591
 10
254.025975005
 20
450.1101664398
 10
254.0003755591
 20
450.0604213074
 10
253.971169362
 20
450.0234573393
 10
253.9394787914
 20
450.0006950401
 10
253.9065216982
 20
449.9930091523
  0
LWPOLYLINE
  5
DC
330
1F
100
AcDbEntity
  8
0
  6
Continuous
 62
     7
370
    15
100
AcDbPolyline
 90
        9
 70
   128
 43
0.0
 10
238.7870641535
 20
450.3930091523
 10
238.7903101439
 20
450.3149730235
 10
238.7999233734
 20
450.2399357794
 10
238.815534411
 20
450.1707810591
 10
238.8365433333
 20
450.1101664398
 10
238.8621427791
 20
450.0604213074
 10
238.8913489763
 20
450.0234573393
 10
238.9230395469
 20
450.0006950401
 10
238.95599664
 20
449.9930091523
  0
SPLINE
  5
DD
330
1F
100
AcDbEntity
  8
0
  6
Continuous
 62
     7
370
    15
100
AcDbSpline
210
0.0
220
0.0
230
1.0
 70
     8
 71
     3
 72
    24
 73
    20
 74
     0
 42
0.00000001
 43
0.00000001
 12
1.0
 22
0.0
 32
0.0
 13
1.0
 23
0.0
 33
0.0
 40
0.0
 40
0.0
 40
0.0
 40
0.0
 40
0.2499999999999995
 40
0.2499999999999995
 40
0.3749999999999992
 40
0.3749999999999992
 40
0.499999999999999
 40
0.499999999999999
 40
0.5624999999999991
 40
0.5624999999999991
 40
0.6249999999999992
 40
0.6249999999999992
 40
0.6874999999999993
 40
0.6874999999999993
 40
0.7499999999999993
 40
0.7499999999999993
 40
0.8749999999999997
 40
0.8749999999999997
 40
1.0
 40
1.0
 40
1.0
 40
1.0
 10
420.6061364563263
 20
562.3128043902237
 30
0.0
 10
420.5530019672818
 20
562.3193869471446
 30
0.0
 10
420.4885509360918
 20
562.3262659427779
 30
0.0
 10
420.1993929030198
 20
562.3244717118662
 30
0.0
 10
420.0724208294064
 20
562.3220922907324
 30
0.0
 10
419.7142546412296
 20
562.3129691575639
 30
0.0
 10
419.4913552012129
 20
562.3063901839487
 30
0.0
 10
419.0637608085466
 20
562.2944060466631
 30
0.0
 10
418.9079904579261
 20
562.2901534776275
 30
0.0
 10
418.5807323183203
 20
562.2819629925355
 30
0.0
 10
418.4081576278818
 20
562.2780017988377
 30
0.0
 10
418.0483121339092
 20
562.2708684902913
 30
0.0
 10
417.8609480261867
 20
562.2677049005181
 30
0.0
 10
417.4840727871605
 20
562.2625792986967
 30
0.0
 10
417.2931956814018
 20
562.260618794299
 30
0.0
 10
416.7147171151603
 20
562.2560568650031
 30
0.0
 10
416.3199239335246
 20
562.2546280624777
 30
0.0
 10
415.5266065279104
 20
562.2525720434378
 30
0.0
 10
415.1290808674718
 20
562.2519492115682
 30
0.0
 10
414.7313836462253
 20
562.2514781912216
 30
0.0
  0
SPLINE
  5
DE
330
1F
100
AcDbEntity
  8
0
  6
Continuous
 62
     7
370
    15
100
AcDbSpline
210
0.0
220
0.0
230
1.0
 70
     8
 71
     3
 72
    32
 73
    28
 74
     0
 42
0.00000001
 43
0.00000001
 12
1.0
 22
0.0
 32
0.0
 13
1.0
 23
0.0
 33
0.0
 40
0.0
 40
0.0
 40
0.0
 40
0.0
 40
0.1249999999999999
 40
0.1249999999999999
 40
0.2499999999999998
 40
0.2499999999999998
 40
0.3124999999999998
 40
0.3124999999999998
 40
0.3749999999999999
 40
0.3749999999999999
 40
0.4374999999999999
 40
0.4374999999999999
 40
0.5
 40
0.5
 40
0.6249999999999998
 40
0.6249999999999998
 40
0.6874999999999997
 40
0.6874999999999997
 40
0.7499999999999997
 40
0.7499999999999997
 40
0.8749999999999994
 40
0.8749999999999994
 40
0.9374999999999996
 40
0.9374999999999996
 40
0.9687499999999998
 40
0.9687499999999998
 40
1.0
 40
1.0
 40
1.0
 40
1.0
 10
414.7324250972571
 20
563.16422081424
 30
0.0
 10
415.1887123209607
 20
563.164025835928
 30
0.0
 10
415.6447529915934
 20
563.1615947079391
 30
0.0
 10
416.5546062139104
 20
563.1558303296515
 30
0.0
 10
417.0055112366281
 20
563.1525392004004
 30
0.0
 10
417.6658069634932
 20
563.1496600453422
 30
0.0
 10
417.8835045258783
 20
563.1490739539039
 30
0.0
 10
418.3129861014335
 20
563.1487904926518
 30
0.0
 10
418.5256130400474
 20
563.1490685477047
 30
0.0
 10
418.9313479911668
 20
563.1503595163739
 30
0.0
 10
419.1257953952928
 20
563.1513639390301
 30
0.0
 10
419.4954178927121
 20
563.1541539792206
 30
0.0
 10
419.6717034341351
 20
563.155968135562
 30
0.0
 10
420.1602662569109
 20
563.1627839456171
 30
0.0
 10
420.4223495358471
 20
563.1690935293306
 30
0.0
 10
420.741882084118
 20
563.1781206305919
 30
0.0
 10
420.835417595011
 20
563.1810183817382
 30
0.0
 10
420.9965201592209
 20
563.1860332066012
 30
0.0
 10
421.0650487672086
 20
563.1881814007377
 30
0.0
 10
421.2419319336538
 20
563.193273816095
 30
0.0
 10
421.3215031482492
 20
563.1948406012232
 30
0.0
 10
421.4056734281754
 20
563.1940981806733
 30
0.0
 10
421.4278351895948
 20
563.1933403651526
 30
0.0
 10
421.4556557552779
 20
563.1915009362955
 30
0.0
 10
421.4640350793645
 20
563.1907717618186
 30
0.0
 10
421.4797115266817
 20
563.1891136917662
 30
0.0
 10
421.4869047676851
 20
563.1881990417629
 30
0.0
 10
421.4941685158042
 20
563.1871836635545
 30
0.0
  0
SPLINE
  5
DF
330
1F
100
AcDbEntity
  8
0
  6
Continuous
 62
     7
370
    15
100
AcDbSpline
210
0.0
220
0.0
230
1.0
 70
     8
 71
     3
 72
    10
 73
     6
 74
     0
 42
0.00000001
 43
0.00000001
 12
1.0
 22
0.0
 32
0.0
 13
1.0
 23
0.0
 33
0.0
 40
0.0
 40
0.0
 40
0.0
 40
0.0
 40
0.5
 40
0.5
 40
1.0
 40
1.0
 40
1.0
 40
1.0
 10
420.6061364563263
 20
562.3128043902237
 30
0.0
 10
420.8289415305177
 20
562.3360115877484
 30
0.0
 10
421.0429644311713
 20
562.4370115579235
 30
0.0
 10
421.3625859530156
 20
562.75171915325
 30
0.0
 10
421.467112931626
 20
562.9643716114728
 30
0.0
 10
421.4941685158042
 20
563.1871836635545
 30
0.0
  0
SPLINE
  5
E0
330
1F
100
AcDbEntity
  8
0
  6
Continuous
 62
     7
370
    15
100
AcDbSpline
210
0.0
220
0.0
230
1.0
 70
     8
 71
     3
 72
     9
 73
     5
 74
     0
 42
0.00000001
 43
0.00000001
 12
1.0
 22
0.0
 32
0.0
 13
1.0
 23
0.0
 33
0.0
 40
0.0
 40
0.0
 40
0.0
 40
0.0
 40
0.9979531108575392
 40
1.0
 40
1.0
 40
1.0
 40
1.0
 10
421.1786038561453
 20
577.6246270972222
 30
0.0
 10
421.3949758769425
 20
577.6361038717415
 30
0.0
 10
421.611791695685
 20
577.6476041861293
 30
0.0
 10
421.5033871240703
 20
577.6418527126432
 30
0.0
 10
421.5031652319297
 20
577.6418409400147
 30
0.0
  0
SPLINE
  5
E1
330
1F
100
AcDbEntity
  8
0
  6
Continuous
 62
     7
370
    15
100
AcDbSpline
210
0.0
220
0.0
230
1.0
 70
     8
 71
     3
 72
    22
 73
    18
 74
     0
 42
0.00000001
 43
0.00000001
 12
1.0
 22
0.0
 32
0.0
 13
1.0
 23
0.0
 33
0.0
 40
0.0
 40
0.0
 40
0.0
 40
0.0
 40
0.1250000000000017
 40
0.1250000000000017
 40
0.2500000000000035
 40
0.2500000000000035
 40
0.3750000000000052
 40
0.3750000000000052
 40
0.500000000000007
 40
0.500000000000007
 40
0.6250000000000088
 40
0.6250000000000088
 40
0.6875000000000077
 40
0.6875000000000077
 40
0.7500000000000064
 40
0.7500000000000064
 40
1.0
 40
1.0
 40
1.0
 40
1.0
 10
415.094679051382
 20
577.7341676621045
 30
0.0
 10
415.5020588035164
 20
577.7337108138447
 30
0.0
 10
415.9094035545451
 20
577.733067115408
 30
0.0
 10
416.7225212520262
 20
577.7305667774264
 30
0.0
 10
417.1290806075537
 20
577.7287262485595
 30
0.0
 10
417.9229770820675
 20
577.720482039464
 30
0.0
 10
418.3142180397981
 20
577.7134632256095
 30
0.0
 10
419.0627459952706
 20
577.6934071013837
 30
0.0
 10
419.4071447478237
 20
577.6808929605088
 30
0.0
 10
420.0084335911505
 20
577.656729163807
 30
0.0
 10
420.2440841614372
 20
577.6461891034554
 30
0.0
 10
420.5258527042959
 20
577.6342303950158
 30
0.0
 10
420.6069603192641
 20
577.6308943621674
 30
0.0
 10
420.7461366636189
 20
577.6255658643857
 30
0.0
 10
420.8049307009713
 20
577.6235407519217
 30
0.0
 10
421.0573938706931
 20
577.616227419476
 30
0.0
 10
421.1239030772598
 20
577.6204137618428
 30
0.0
 10
421.1785020001813
 20
577.6246386989977
 30
0.0
  0
LINE
  5
E2
330
1F
100
AcDbEntity
  8
0
  6
Continuous
 62
     7
370
    15
100
AcDbLine
 10
414.9558515766
 20
577.734309476
 30
0.0
 11
415.0946791551
 21
577.7341618016
 31
0.0
  0
SPLINE
  5
E3
330
1F
100
AcDbEntity
  8
0
  6
Continuous
 62
     7
370
    15
100
AcDbSpline
210
0.0
220
0.0
230
1.0
 70
     8
 71
     3
 72
    28
 73
    24
 74
     0
 42
0.00000001
 43
0.00000001
 12
1.0
 22
0.0
 32
0.0
 13
1.0
 23
0.0
 33
0.0
 40
0.0
 40
0.0
 40
0.0
 40
0.0
 40
0.0625000000000017
 40
0.0625000000000017
 40
0.1250000000000035
 40
0.1250000000000035
 40
0.2500000000000074
 40
0.2500000000000074
 40
0.3125000000000093
 40
0.3125000000000093
 40
0.3750000000000113
 40
0.3750000000000113
 40
0.5000000000000121
 40
0.5000000000000121
 40
0.6250000000000129
 40
0.6250000000000129
 40
0.6875000000000132
 40
0.6875000000000132
 40
0.7500000000000134
 40
0.7500000000000134
 40
0.8750000000000068
 40
0.8750000000000068
 40
1.0
 40
1.0
 40
1.0
 40
1.0
 10
422.063464665585
 20
576.6676587711621
 30
0.0
 10
422.0488820156463
 20
576.6663508850929
 30
0.0
 10
422.03341688616
 20
576.6653977265984
 30
0.0
 10
421.9952331254015
 20
576.6647012479987
 30
0.0
 10
421.9723883712966
 20
576.6649378550148
 30
0.0
 10
421.8854483816551
 20
576.6676502350199
 30
0.0
 10
421.8031122999461
 20
576.6721314261382
 30
0.0
 10
421.6193694968512
 20
576.683180041979
 30
0.0
 10
421.548097561024
 20
576.6875809699683
 30
0.0
 10
421.3801421922976
 20
576.6978287128366
 30
0.0
 10
421.2823816490481
 20
576.703741539656
 30
0.0
 10
420.9502702484499
 20
576.7229105982593
 30
0.0
 10
420.6764016686082
 20
576.7376977231831
 30
0.0
 10
419.9957681953521
 20
576.7668158656664
 30
0.0
 10
419.6105014664843
 20
576.7801143353037
 30
0.0
 10
418.9805002055004
 20
576.7961654225467
 30
0.0
 10
418.7615410715019
 20
576.8008579177703
 30
0.0
 10
418.3207914046756
 20
576.8084707137527
 30
0.0
 10
418.097395072419
 20
576.8114085141177
 30
0.0
 10
417.4198100304308
 20
576.8178469550575
 30
0.0
 10
416.9563321196059
 20
576.8192483129485
 30
0.0
 10
416.026383311642
 20
576.8206699466784
 30
0.0
 10
415.5604060427083
 20
576.8207357789111
 30
0.0
 10
415.0943731631182
 20
576.8212710683481
 30
0.0
  0
SPLINE
  5
E4
330
1F
100
AcDbEntity
  8
0
  6
Continuous
 62
     7
370
    15
100
AcDbSpline
210
0.0
220
0.0
230
1.0
 70
     8
 71
     3
 72
    10
 73
     6
 74
     0
 42
0.00000001
 43
0.00000001
 12
1.0
 22
0.0
 32
0.0
 13
1.0
 23
0.0
 33
0.0
 40
0.0
 40
0.0
 40
0.0
 40
0.0
 40
0.5
 40
0.5
 40
1.0
 40
1.0
 40
1.0
 40
1.0
 10
422.063464665585
 20
576.6676587711621
 30
0.0
 10
422.0547246812826
 20
576.9043360215661
 30
0.0
 10
421.9587570551662
 20
577.1368283048747
 30
0.0
 10
421.6374054209115
 20
577.4843311722623
 30
0.0
 10
421.4133539449095
 20
577.5979007842446
 30
0.0
 10
421.1785020001813
 20
577.6246386989977
 30
0.0
  0
LINE
  5
E5
330
1F
100
AcDbEntity
  8
0
  6
Continuous
 62
     7
370
    15
100
AcDbLine
 10
414.9557934218
 20
576.8213651301
 30
0.0
 11
306.4312591691
 21
576.9316146913
 31
0.0
  0
LINE
  5
E6
330
1F
100
AcDbEntity
  8
0
  6
Continuous
 62
     7
370
    15
100
AcDbLine
 10
415.094357144
 20
576.8212097
 30
0.0
 11
414.9557934172
 21
576.8213604224
 31
0.0
  0
LINE
  5
E7
330
1F
100
AcDbEntity
  8
0
  6
Continuous
 62
     7
370
    15
100
AcDbLine
 10
306.4312591691
 20
563.0544036134
 30
0.0
 11
414.5343103015
 21
563.1642249542
 31
0.0
  0
SPLINE
  5
E8
330
1F
100
AcDbEntity
  8
0
  6
Continuous
 62
     7
370
    15
100
AcDbSpline
210
0.0
220
0.0
230
1.0
 70
     8
 71
     3
 72
    24
 73
    20
 74
     0
 42
0.00000001
 43
0.00000001
 12
1.0
 22
0.0
 32
0.0
 13
1.0
 23
0.0
 33
0.0
 40
0.0
 40
0.0
 40
0.0
 40
0.0
 40
0.0588540262081981
 40
0.1176800603052299
 40
0.176482909831243
 40
0.2352674009122291
 40
0.2940383742694299
 40
0.3528006812033236
 40
0.4115591795587532
 40
0.4703187296777809
 40
0.5290841903469407
 40
0.5878604147455468
 40
0.6466522464017358
 40
0.705464515162887
 40
0.7643020331870162
 40
0.8231695909616242
 40
0.8820719533564273
 40
0.9410138557162184
 40
1.0
 40
1.0
 40
1.0
 40
1.0
 10
422.0635640542728
 20
576.6676369858263
 30
0.0
 10
422.0711418849316
 20
576.403409604114
 30
0.0
 10
422.0862939420867
 20
575.8750805123337
 30
0.0
 10
422.1003423296316
 20
575.081791750271
 30
0.0
 10
422.1080308324587
 20
574.2882781706465
 30
0.0
 10
422.1087397123021
 20
573.4945289018202
 30
0.0
 10
422.1026372846752
 20
572.7006325762451
 30
0.0
 10
422.089680117427
 20
571.9066512794066
 30
0.0
 10
422.0698807849082
 20
571.1126543021705
 30
0.0
 10
422.0432361740922
 20
570.318709087864
 30
0.0
 10
422.0097465992683
 20
569.5248836684979
 30
0.0
 10
421.9694110216643
 20
568.7312459352894
 30
0.0
 10
421.9222270645307
 20
567.9378640853698
 30
0.0
 10
421.8681957457113
 20
567.1448055285314
 30
0.0
 10
421.8073025370618
 20
566.3521407799998
 30
0.0
 10
421.7395884585735
 20
565.5599289377842
 30
0.0
 10
421.6648844674741
 20
564.7682718853209
 30
0.0
 10
421.5838036878351
 20
563.9771117938757
 30
0.0
 10
421.5239816095682
 20
563.4505737581276
 30
0.0
 10
421.4940593489995
 20
563.1872059721638
 30
0.0
  0
SPLINE
  5
E9
330
1F
100
AcDbEntity
  8
0
  6
Continuous
 62
     7
370
    15
100
AcDbSpline
210
0.0
220
0.0
230
1.0
 70
     8
 71
     3
 72
    11
 73
     7
 74
     0
 42
0.00000001
 43
0.00000001
 12
1.0
 22
0.0
 32
0.0
 13
1.0
 23
0.0
 33
0.0
 40
-0.0000000600000001
 40
-0.0000000600000001
 40
-0.0000000600000001
 40
-0.0000000600000001
 40
0.0
 40
0.0
 40
0.0
 40
0.0001980525028401
 40
0.0001980525028401
 40
0.0001980525028401
 40
0.0001980525028401
 10
414.5343127816795
 20
563.1641893857595
 30
0.0
 10
414.5343327816625
 20
563.164189406525
 30
0.0
 10
414.5343527816464
 20
563.1641894265318
 30
0.0
 10
414.5343727816298
 20
563.1641894469102
 30
0.0
 10
414.6003902278007
 20
563.164256713299
 30
0.0
 10
414.6664078091156
 20
563.164267613422
 30
0.0
 10
414.7324250972937
 20
563.1642208541444
 30
0.0
  0
LINE
  5
EA
330
1F
100
AcDbEntity
  8
0
  6
Continuous
 62
     7
370
    15
100
AcDbLine
 10
254.6326033956
 20
509.9930091523
 30
0.0
 11
254.6326033956
 21
450.3930091523
 31
0.0
  0
LINE
  5
EB
330
1F
100
AcDbEntity
  8
0
  6
Continuous
 62
     7
370
    15
100
AcDbLine
 10
238.2299149426
 20
450.3930091523
 30
0.0
 11
238.2299149426
 21
509.9930091523
 31
0.0
  0
ARC
  5
EC
330
1F
100
AcDbEntity
  8
0
  6
Continuous
 62
     7
370
    15
100
AcDbCircle
 10
238.6258540154
 20
450.388947343
 30
0.0
 40
0.3959599066533769
100
AcDbArc
 50
179.4122419821
 51
269.3999283313
  0
ARC
  5
ED
330
1F
100
AcDbEntity
  8
0
  6
Continuous
 62
     7
370
    15
100
AcDbCircle
 10
254.2366643228
 20
450.388947343
 30
0.0
 40
0.3959599066533461
100
AcDbArc
 50
270.6000716687
 51
0.5877580179
  0
LINE
  5
EE
330
1F
100
AcDbEntity
  8
0
  6
Continuous
 62
     7
370
    15
100
AcDbLine
 10
306.4312591691
 20
577.843269332
 30
0.0
 11
414.9559679546
 21
577.7343132522
 31
0.0
  0
LINE
  5
EF
330
1F
100
AcDbEntity
  8
0
  6
Continuous
 62
     7
370
    15
100
AcDbLine
 10
414.5344848344
 20
562.2512818626
 30
0.0
 11
306.4312591691
 21
562.1427489726
 31
0.0
  0
SPLINE
  5
F0
330
1F
100
AcDbEntity
  8
0
  6
Continuous
 62
     7
370
    15
100
AcDbSpline
210
0.0
220
0.0
230
1.0
 70
     8
 71
     3
 72
     8
 73
     4
 74
     0
 42
0.00000001
 43
0.00000001
 12
1.0
 22
0.0
 32
0.0
 13
1.0
 23
0.0
 33
0.0
 40
0.0
 40
0.0
 40
0.0
 40
0.0
 40
0.0001968990198044
 40
0.0001968990198044
 40
0.0001968990198044
 40
0.0001968990198044
 10
414.7313836516838
 20
562.2514783279063
 30
0.0
 10
414.6657508479788
 20
562.2514180658525
 30
0.0
 10
414.6001178447036
 20
562.2513521781442
 30
0.0
 10
414.5344848917791
 20
562.251286278396
 30
0.0
  0
LINE
  5
F1
330
1F
100
AcDbEntity
  8
0
  6
Continuous
 62
     7
370
    15
100
AcDbLine
 10
418.6812591691
 20
561.7930091523
 30
0.0
 11
394.2230991298
 21
561.7930091523
 31
0.0
  0
LINE
  5
F2
330
1F
100
AcDbEntity
  8
0
  6
Continuous
 62
     7
370
    15
100
AcDbLine
 10
417.4312591691
 20
554.6703594215
 30
0.0
 11
395.4312591691
 21
554.6703594215
 31
0.0
  0
SPLINE
  5
F3
330
1F
100
AcDbEntity
  8
0
  6
Continuous
 62
     7
370
    15
100
AcDbSpline
210
0.0
220
0.0
230
1.0
 70
    24
 71
     3
 72
    10
 73
     6
 74
     0
 42
0.00000001
 43
0.00000001
 12
1.0
 22
0.0
 32
0.0
 13
1.0
 23
0.0
 33
0.0
 40
0.0
 40
0.0
 40
0.0
 40
0.0
 40
0.5
 40
0.5
 40
1.0
 40
1.0
 40
1.0
 40
1.0
 10
417.431259169132
 20
554.0930091523028
 30
0.0
 10
417.431259169132
 20
554.0930091523028
 30
0.0
 10
417.431259169132
 20
554.1459727848732
 30
0.0
 10
417.431259169132
 20
554.3450231131004
 30
0.0
 10
417.431259169132
 20
554.4902116911945
 30
0.0
 10
417.431259169132
 20
554.6703594214922
 30
0.0
  0
LINE
  5
F4
330
1F
100
AcDbEntity
  8
0
  6
Continuous
 62
     7
370
    15
100
AcDbLine
 10
417.4312591691
 20
554.0930091523
 30
0.0
 11
395.4312591691
 21
554.0930091523
 31
0.0
  0
SPLINE
  5
F5
330
1F
100
AcDbEntity
  8
0
  6
Continuous
 62
     7
370
    15
100
AcDbSpline
210
0.0
220
0.0
230
1.0
 70
    24
 71
     3
 72
    10
 73
     6
 74
     0
 42
0.00000001
 43
0.00000001
 12
1.0
 22
0.0
 32
0.0
 13
1.0
 23
0.0
 33
0.0
 40
0.0
 40
0.0
 40
0.0
 40
0.0
 40
0.5
 40
0.5
 40
1.0
 40
1.0
 40
1.0
 40
1.0
 10
395.431259169132
 20
554.0930091523028
 30
0.0
 10
395.431259169132
 20
554.0930091523028
 30
0.0
 10
395.431259169132
 20
554.1459727848733
 30
0.0
 10
395.431259169132
 20
554.3450231131003
 30
0.0
 10
395.431259169132
 20
554.4902116911945
 30
0.0
 10
395.431259169132
 20
554.6703594214921
 30
0.0
  0
LINE
  5
F6
330
1F
100
AcDbEntity
  8
0
  6
Continuous
 62
     7
370
    15
100
AcDbLine
 10
417.4312591691
 20
554.6703594215
 30
0.0
 11
417.4312591691
 21
558.0930091523
 31
0.0
  0
LINE
  5
F7
330
1F
100
AcDbEntity
  8
0
  6
Continuous
 62
     7
370
    15
100
AcDbLine
 10
395.4312591691
 20
554.6703594215
 30
0.0
 11
395.4312591691
 21
558.0930091523
 31
0.0
  0
LINE
  5
F8
330
1F
100
AcDbEntity
  8
0
  6
Continuous
 62
     7
370
    15
100
AcDbLine
 10
394.4312591691
 20
558.0930091523
 30
0.0
 11
395.4312591691
 21
558.0930091523
 31
0.0
  0
LINE
  5
F9
330
1F
100
AcDbEntity
  8
0
  6
Continuous
 62
     7
370
    15
100
AcDbLine
 10
417.4312591691
 20
558.0930091523
 30
0.0
 11
418.4312591691
 21
558.0930091523
 31
0.0
  0
ARC
  5
FA
330
1F
100
AcDbEntity
  8
0
  6
Continuous
 62
     7
370
    15
100
AcDbCircle
 10
304.6357611852
 20
426.2722759384
 30
0.0
 40
0.2790817101286072
100
AcDbArc
 50
180.4655589592
 51
205.3126903015
  0
LWPOLYLINE
  5
FB
330
1F
100
AcDbEntity
  8
0
  6
Continuous
 62
     7
370
    15
100
AcDbPolyline
 90
        9
 70
   128
 43
0.0
 10
310.3298500348
 20
426.1291324021
 10
309.999393383
 20
425.8322936009
 10
309.3314868098
 20
425.5898120396
 10
308.4114152041
 20
425.4326501521
 10
307.3566623692
 20
425.3808759157
 10
306.3019095344
 20
425.4411003749
 10
305.3818379287
 20
425.6056334777
 10
304.7139313555
 20
425.8534660171
 10
304.3834747037
 20
426.1529522938
  0
ARC
  5
FC
330
1F
100
AcDbEntity
  8
0
  6
Continuous
 62
     7
370
    15
100
AcDbCircle
 10
310.0789842644
 20
426.2481347091
 30
0.0
 40
0.2776601948495985
100
AcDbArc
 50
334.6219061057
 51
359.554084159
  0
LINE
  5
FD
330
1F
100
AcDbEntity
  8
0
  6
Continuous
 62
     7
370
    15
100
AcDbLine
 10
304.3566886882
 20
426.2700082747
 30
0.0
 11
304.3557503706
 21
426.0557907342
 31
0.0
  0
SPLINE
  5
FE
330
1F
100
AcDbEntity
  8
0
  6
Continuous
 62
     7
370
    15
100
AcDbSpline
210
0.0
220
0.0
230
1.0
 70
     8
 71
     3
 72
    12
 73
     8
 74
     0
 42
0.00000001
 43
0.00000001
 12
1.0
 22
0.0
 32
0.0
 13
1.0
 23
0.0
 33
0.0
 40
0.0
 40
0.0
 40
0.0
 40
0.0
 40
0.2499999999999999
 40
0.2499999999999999
 40
0.4999999999999998
 40
0.4999999999999998
 40
1.0
 40
1.0
 40
1.0
 40
1.0
 10
304.3834747036973
 20
426.1529522938445
 30
0.0
 10
304.3838643015474
 20
426.2418973303878
 30
0.0
 10
304.4028583205302
 20
426.3291327464011
 30
0.0
 10
304.4751033272637
 20
426.4914387588431
 30
0.0
 10
304.5283682889011
 20
426.5655914586613
 30
0.0
 10
304.7255181747198
 20
426.749505493874
 30
0.0
 10
304.9087084823618
 20
426.8202675230486
 30
0.0
 10
305.0946640535757
 20
426.819522625304
 30
0.0
  0
ARC
  5
FF
330
1F
100
AcDbEntity
  8
0
  6
Continuous
 62
     7
370
    15
100
AcDbCircle
 10
307.3747316228
 20
430.5892634358
 30
0.0
 40
4.40563887523138
100
AcDbArc
 50
238.8330231883
 51
300.7079502993
  0
SPLINE
  5
100
330
1F
100
AcDbEntity
  8
0
  6
Continuous
 62
     7
370
    15
100
AcDbSpline
210
0.0
220
0.0
230
1.0
 70
     8
 71
     3
 72
    12
 73
     8
 74
     0
 42
0.00000001
 43
0.00000001
 12
1.0
 22
0.0
 32
0.0
 13
1.0
 23
0.0
 33
0.0
 40
0.0
 40
0.0
 40
0.0
 40
0.0
 40
0.249999999999987
 40
0.249999999999987
 40
0.4999999999999739
 40
0.4999999999999739
 40
1.0
 40
1.0
 40
1.0
 40
1.0
 10
309.6245249740607
 20
426.8013769835201
 30
0.0
 10
309.7175177174411
 20
426.8010044747301
 30
0.0
 10
309.8086771118266
 20
426.7835996830198
 30
0.0
 10
309.9794913004355
 20
426.7164855324048
 30
0.0
 10
310.0577364488675
 20
426.666944151246
 30
0.0
 10
310.2536129137031
 20
426.4814059677339
 30
0.0
 10
310.3306293909677
 20
426.3070591095516
 30
0.0
 10
310.3298500348014
 20
426.1291324021159
 30
0.0
  0
LINE
  5
101
330
1F
100
AcDbEntity
  8
0
  6
Continuous
 62
     7
370
    15
100
AcDbLine
 10
309.6245249741
 20
426.8013769835
 30
0.0
 11
305.0946640536
 21
426.8195226253
 31
0.0
  0
ARC
  5
102
330
1F
100
AcDbEntity
  8
0
  6
Continuous
 62
     7
370
    15
100
AcDbCircle
 10
310.0775635533
 20
426.2437061213
 30
0.0
 40
0.2790817101260515
100
AcDbArc
 50
0.4655589591
 51
25.3126903016
  0
LINE
  5
103
330
1F
100
AcDbEntity
  8
0
  6
Continuous
 62
     7
370
    15
100
AcDbLine
 10
310.3302689126
 20
426.4586594025
 30
0.0
 11
310.3298500348
 21
426.3630297659
 31
0.0
  0
LINE
  5
104
330
1F
100
AcDbEntity
  8
0
  6
Continuous
 62
     7
370
    15
100
AcDbLine
 10
304.3838935815
 20
426.4824792943
 30
0.0
 11
304.3834747037
 21
426.3868496576
 31
0.0
  0
ARC
  5
105
330
1F
100
AcDbEntity
  8
0
  6
Continuous
 62
     7
370
    15
100
AcDbCircle
 10
304.6343404741
 20
426.2678473506
 30
0.0
 40
0.2776601948519914
100
AcDbArc
 50
154.6219061058
 51
179.5540841589
  0
LINE
  5
106
330
1F
100
AcDbEntity
  8
0
  6
Continuous
 62
     7
370
    15
100
AcDbLine
 10
304.4317880063
 20
426.386656125
 30
0.0
 11
304.3834747037
 21
426.3868496576
 31
0.0
  0
LINE
  5
107
330
1F
100
AcDbEntity
  8
0
  6
Continuous
 62
     7
370
    15
100
AcDbLine
 10
310.3298500348
 20
426.3630297659
 30
0.0
 11
310.2757309741
 21
426.3632465551
 31
0.0
  0
SPLINE
  5
108
330
1F
100
AcDbEntity
  8
0
  6
Continuous
 62
     7
370
    15
100
AcDbSpline
210
0.0
220
0.0
230
1.0
 70
     8
 71
     3
 72
    10
 73
     6
 74
     0
 42
0.00000001
 43
0.00000001
 12
1.0
 22
0.0
 32
0.0
 13
1.0
 23
0.0
 33
0.0
 40
0.0
 40
0.0
 40
0.0
 40
0.0
 40
0.5
 40
0.5
 40
1.0
 40
1.0
 40
1.0
 40
1.0
 10
304.9931833612118
 20
427.0538264987575
 30
0.0
 10
304.8338112591711
 20
427.0544649088819
 30
0.0
 10
304.6774056433559
 20
426.9940496076849
 30
0.0
 10
304.4518441972115
 20
426.783806722064
 30
0.0
 10
304.3845614000642
 20
426.6349420124578
 30
0.0
 10
304.3838935814929
 20
426.4824792942558
 30
0.0
  0
LINE
  5
109
330
1F
100
AcDbEntity
  8
0
  6
Continuous
 62
     7
370
    15
100
AcDbLine
 10
304.9931833612
 20
427.0538264988
 30
0.0
 11
309.7260056664
 21
427.0348678376
 31
0.0
  0
SPLINE
  5
10A
330
1F
100
AcDbEntity
  8
0
  6
Continuous
 62
     7
370
    15
100
AcDbSpline
210
0.0
220
0.0
230
1.0
 70
     8
 71
     3
 72
    10
 73
     6
 74
     0
 42
0.00000001
 43
0.00000001
 12
1.0
 22
0.0
 32
0.0
 13
1.0
 23
0.0
 33
0.0
 40
0.0
 40
0.0
 40
0.0
 40
0.0
 40
0.5
 40
0.5
 40
1.0
 40
1.0
 40
1.0
 40
1.0
 10
310.330268912597
 20
426.4586594025272
 30
0.0
 10
310.3309365990179
 20
426.6110919508596
 30
0.0
 10
310.26508538736
 20
426.7602457485779
 30
0.0
 10
310.0417541275992
 20
426.9722400656865
 30
0.0
 10
309.8853520863934
 20
427.0342295303754
 30
0.0
 10
309.7260056664246
 20
427.034867837623
 30
0.0
  0
ARC
  5
10B
330
1F
100
AcDbEntity
  8
0
  6
Continuous
 62
     7
370
    15
100
AcDbCircle
 10
307.3439523318
 20
423.1394475803
 30
0.0
 40
4.56601325776348
100
AcDbArc
 50
58.5541729307
 51
120.986800557
  0
ARC
  5
10C
330
1F
100
AcDbEntity
  8
0
  6
Continuous
 62
     8
370
    15
100
AcDbCircle
 10
364.317313944
 20
477.6705962116
 30
0.0
 40
44.24767342406046
100
AcDbArc
 50
179.1714114492
 51
179.7890779735
  0
LINE
  5
10D
330
1F
100
AcDbEntity
  8
0
  6
Continuous
 62
     8
370
    15
100
AcDbLine
 10
319.8559619936
 20
428.9890308276
 30
0.0
 11
319.8571390619
 21
428.9932032534
 31
0.0
  0
ARC
  5
10E
330
1F
100
AcDbEntity
  8
0
  6
Continuous
 62
     8
370
    15
100
AcDbCircle
 10
-129.1511432084
 20
424.7588284126
 30
0.0
 40
447.0054915055123
100
AcDbArc
 50
359.6596253765
 51
0.2877644416
  0
ARC
  5
10F
330
1F
100
AcDbEntity
  8
0
  6
Continuous
 62
     8
370
    15
100
AcDbCircle
 10
-119.1512309413
 20
424.7187709298
 30
0.0
 40
447.0054915087213
100
AcDbArc
 50
359.6596253765
 51
0.2877644416
  0
SPLINE
  5
110
330
1F
100
AcDbEntity
  8
0
  6
Continuous
 62
     7
370
     0
100
AcDbSpline
210
0.0
220
0.0
230
1.0
 70
    24
 71
     3
 72
    22
 73
    18
 74
     0
 42
0.00000001
 43
0.00000001
 12
1.0
 22
0.0
 32
0.0
 13
1.0
 23
0.0
 33
0.0
 40
0.0
 40
0.0
 40
0.0
 40
0.0
 40
0.125
 40
0.125
 40
0.25
 40
0.25
 40
0.375
 40
0.375
 40
0.5
 40
0.5
 40
0.625
 40
0.625
 40
0.75
 40
0.75
 40
0.875
 40
0.875
 40
1.0
 40
1.0
 40
1.0
 40
1.0
 10
246.431259169132
 20
445.9333930353323
 30
0.0
 10
244.9259126892869
 20
445.9333930353323
 30
0.0
 10
243.4206034320999
 20
445.9333930353323
 30
0.0
 10
240.4677600934221
 20
445.9333930353323
 30
0.0
 10
239.0202990268017
 20
445.9333930353323
 30
0.0
 10
236.238781422668
 20
445.9333930353323
 30
0.0
 10
234.9047936636588
 20
445.9333930353323
 30
0.0
 10
232.4014939557032
 20
445.9333930353323
 30
0.0
 10
231.232243905775
 20
445.9333930353323
 30
0.0
 10
229.1033624979075
 20
445.9333930353323
 30
0.0
 10
228.1437837807561
 20
445.9333930353323
 30
0.0
 10
226.4711323915905
 20
445.9333930353323
 30
0.0
 10
225.7581010791781
 20
445.9333930353323
 30
0.0
 10
224.6059587635665
 20
445.9333930353323
 30
0.0
 10
224.1668762493564
 20
445.9333930353323
 30
0.0
 10
223.5795191903588
 20
445.9333930353323
 30
0.0
 10
223.431259169132
 20
445.9333930353323
 30
0.0
 10
223.431259169132
 20
445.9333930353323
 30
0.0
  0
LINE
  5
111
330
1F
100
AcDbEntity
  8
0
  6
Continuous
 62
     7
370
     0
100
AcDbLine
 10
269.4312591691
 20
445.9333930353
 30
0.0
 11
246.4312591691
 21
445.9333930353
 31
0.0
  0
SPLINE
  5
112
330
1F
100
AcDbEntity
  8
0
  6
Continuous
 62
     7
370
     0
100
AcDbSpline
210
0.0
220
0.0
230
1.0
 70
     8
 71
     3
 72
    37
 73
    33
 74
     0
 42
0.00000001
 43
0.00000001
 12
1.0
 22
0.0
 32
0.0
 13
1.0
 23
0.0
 33
0.0
 40
0.0
 40
0.0
 40
0.0
 40
0.0
 40
0.0413386076843414
 40
0.1038713399297249
 40
0.1692124853233644
 40
0.1917291862704371
 40
0.2146199595863824
 40
0.2378983195862521
 40
0.2617180456006628
 40
0.2881122730693588
 40
0.3150750694066468
 40
0.3406937200754085
 40
0.3663420928440627
 40
0.4052219386539705
 40
0.439477970496055
 40
0.4598590611741611
 40
0.4783706227516489
 40
0.4951336065720781
 40
0.5100013890844728
 40
0.5256383330171492
 40
0.5421246870656757
 40
0.5595289515636068
 40
0.5775279094744048
 40
0.5989683075700536
 40
0.6238702838708683
 40
0.6664106898659818
 40
0.7078060566283123
 40
0.7519830444140079
 40
0.8202568458079958
 40
0.8853392832696598
 40
0.9476492131146792
 40
1.0
 40
1.0
 40
1.0
 40
1.0
 10
277.3650127180157
 20
426.8618789845518
 30
0.0
 10
277.3325621266243
 20
426.7987045426179
 30
0.0
 10
277.2510236666192
 20
426.6399663968369
 30
0.0
 10
276.6265877960848
 20
425.3755925766663
 30
0.0
 10
275.8194498046148
 20
423.7041496728579
 30
0.0
 10
275.086252920332
 20
422.1847913933608
 30
0.0
 10
274.5927413167342
 20
421.1635840570768
 30
0.0
 10
274.0506644367819
 20
420.0466664166431
 30
0.0
 10
273.4436353966194
 20
418.8003827167751
 30
0.0
 10
272.7776877991628
 20
417.4146994553266
 30
0.0
 10
272.0703184458092
 20
415.9225641330377
 30
0.0
 10
271.3687460785778
 20
414.3738692252349
 30
0.0
 10
270.5421763520112
 20
412.5268978494344
 30
0.0
 10
269.6888862367632
 20
410.4004172982178
 30
0.0
 10
269.0408294320699
 20
408.2688871755414
 30
0.0
 10
268.6636128339334
 20
406.5454981391456
 30
0.0
 10
268.4727019323022
 20
405.2076388270113
 30
0.0
 10
268.4102191208604
 20
403.9875602842624
 30
0.0
 10
268.4653216718897
 20
402.8379985481624
 30
0.0
 10
268.6033767637423
 20
401.7053686963478
 30
0.0
 10
268.830387315405
 20
400.530307426157
 30
0.0
 10
269.1427934943442
 20
399.325511477444
 30
0.0
 10
269.5577593799091
 20
398.0409037735188
 30
0.0
 10
270.0782555855174
 20
396.6259065679856
 30
0.0
 10
270.8538649210986
 20
394.7355352615339
 30
0.0
 10
271.8337982797207
 20
392.5254142416658
 30
0.0
 10
273.0114418024302
 20
390.1097918768917
 30
0.0
 10
274.2901772575012
 20
387.4331549461795
 30
0.0
 10
275.586493255928
 20
384.7706894784448
 30
0.0
 10
276.6350259806429
 20
382.5926417442815
 30
0.0
 10
277.2828048713424
 20
381.2825175447569
 30
0.0
 10
277.3663207598778
 20
381.1202096799057
 30
0.0
 10
277.4044517135899
 20
381.0461045749933
 30
0.0
  0
SPLINE
  5
113
330
1F
100
AcDbEntity
  8
0
  6
Continuous
 62
     7
370
     0
100
AcDbSpline
210
0.0
220
0.0
230
1.0
 70
    24
 71
     3
 72
    22
 73
    18
 74
     0
 42
0.00000001
 43
0.00000001
 12
1.0
 22
0.0
 32
0.0
 13
1.0
 23
0.0
 33
0.0
 40
0.0
 40
0.0
 40
0.0
 40
0.0
 40
0.1249999999999999
 40
0.1249999999999999
 40
0.2499999999999998
 40
0.2499999999999998
 40
0.3749999999999997
 40
0.3749999999999997
 40
0.4999999999999996
 40
0.4999999999999996
 40
0.6249999999999997
 40
0.6249999999999997
 40
0.7499999999999998
 40
0.7499999999999998
 40
0.8749999999999999
 40
0.8749999999999999
 40
1.0
 40
1.0
 40
1.0
 40
1.0
 10
246.431259169132
 20
447.4598796084138
 30
0.0
 10
247.8812255669992
 20
447.4598796084139
 30
0.0
 10
249.3311561115898
 20
447.4598796084139
 30
0.0
 10
252.1753675118047
 20
447.4598796084139
 30
0.0
 10
253.5695780386971
 20
447.4598796084139
 30
0.0
 10
256.2487665943343
 20
447.4598796084139
 30
0.0
 10
257.5336783748623
 20
447.4598796084139
 30
0.0
 10
259.944884372235
 20
447.4598796084139
 30
0.0
 10
261.0711189672597
 20
447.4598796084139
 30
0.0
 10
263.1216811121088
 20
447.4598796084138
 30
0.0
 10
264.0459579577431
 20
447.4598796084138
 30
0.0
 10
265.6570742968103
 20
447.4598796084138
 30
0.0
 10
266.3438739522169
 20
447.4598796084139
 30
0.0
 10
267.4536301881166
 20
447.4598796084138
 30
0.0
 10
267.8765593276999
 20
447.4598796084139
 30
0.0
 10
268.4423081506447
 20
447.4598796084138
 30
0.0
 10
268.5851138447518
 20
447.4598796084138
 30
0.0
 10
268.5851138447518
 20
447.4598796084138
 30
0.0
  0
LINE
  5
114
330
1F
100
AcDbEntity
  8
0
  6
Continuous
 62
     7
370
     0
100
AcDbLine
 10
224.2774044935
 20
447.4598796084
 30
0.0
 11
246.4312591691
 21
447.4598796084
 31
0.0
  0
LWPOLYLINE
  5
115
330
1F
100
AcDbEntity
  8
0
  6
Continuous
 62
     8
370
    15
100
AcDbPolyline
 90
        3
 70
   128
 43
0.0
 10
321.0781723732
 20
479.3071999489
 10
321.0786853537
 20
479.2820415174
 10
321.0790877847
 20
479.0887218999
  0
LWPOLYLINE
  5
116
330
1F
100
AcDbEntity
  8
0
  6
Continuous
 62
     8
370
    15
100
AcDbPolyline
 90
        3
 70
   128
 43
0.0
 10
325.0790526928
 20
479.0726989068
 10
325.0786502618
 20
479.2660185242
 10
325.0781375594
 20
479.2911769598
  0
SPLINE
  5
117
330
1F
100
AcDbEntity
  8
0
  6
Continuous
 62
     8
370
    15
100
AcDbSpline
210
0.0
220
0.0
230
1.0
 70
     8
 71
     3
 72
     9
 73
     5
 74
     0
 42
0.00000001
 43
0.00000001
 12
1.0
 22
0.0
 32
0.0
 13
1.0
 23
0.0
 33
0.0
 40
0.0
 40
0.0
 40
0.0
 40
0.0
 40
0.019539413762656
 40
1.0
 40
1.0
 40
1.0
 40
1.0
 10
420.9267986001796
 20
562.2802496383651
 30
0.0
 10
420.9290246105638
 20
562.280023802574
 30
0.0
 10
421.0429487237042
 20
562.2684658411182
 30
0.0
 10
420.8223313454125
 20
562.2908479585614
 30
0.0
 10
420.6060247013584
 20
562.3127927425509
 30
0.0
  0
SPLINE
  5
118
330
1F
100
AcDbEntity
  8
0
  6
Continuous
 62
     8
370
    15
100
AcDbSpline
210
0.0
220
0.0
230
1.0
 70
    24
 71
     3
 72
     8
 73
     4
 74
     0
 42
0.00000001
 43
0.00000001
 12
1.0
 22
0.0
 32
0.0
 13
1.0
 23
0.0
 33
0.0
 40
0.0
 40
0.0
 40
0.0
 40
0.0
 40
1.0
 40
1.0
 40
1.0
 40
1.0
 10
306.431259169132
 20
578.2786310571817
 30
0.0
 10
306.431259169132
 20
578.2786310571817
 30
0.0
 10
306.431259169132
 20
578.1334324570319
 30
0.0
 10
306.431259169132
 20
577.843269332022
 30
0.0
  0
SPLINE
  5
119
330
1F
100
AcDbEntity
  8
0
  6
Continuous
 62
     8
370
    15
100
AcDbSpline
210
0.0
220
0.0
230
1.0
 70
    24
 71
     3
 72
     8
 73
     4
 74
     0
 42
0.00000001
 43
0.00000001
 12
1.0
 22
0.0
 32
0.0
 13
1.0
 23
0.0
 33
0.0
 40
0.0
 40
0.0
 40
0.0
 40
0.0
 40
1.0
 40
1.0
 40
1.0
 40
1.0
 10
306.431259169132
 20
562.1427489725838
 30
0.0
 10
306.431259169132
 20
561.852585847574
 30
0.0
 10
306.431259169132
 20
561.7073872474243
 30
0.0
 10
306.431259169132
 20
561.7073872474243
 30
0.0
  0
LINE
  5
11A
330
1F
100
AcDbEntity
  8
0
  6
Continuous
 62
     8
370
    15
100
AcDbLine
 10
421.4940607686
 20
563.1872181938
 30
0.0
 11
421.8029075176
 21
563.151559743
 31
0.0
  0
LINE
  5
11B
330
1F
100
AcDbEntity
  8
0
  6
Continuous
 62
     8
370
    15
100
AcDbLine
 10
304.3566886882
 20
426.2700082747
 30
0.0
 11
304.4048447621
 21
426.2698153719
 31
0.0
  0
LINE
  5
11C
330
1F
100
AcDbEntity
  8
0
  6
Continuous
 62
     7
370
    15
100
AcDbLine
 10
132.170252476
 20
562.0898796783
 30
0.0
 11
132.170252476
 21
561.7930091523
 31
0.0
  0
LINE
  5
11D
330
1F
100
AcDbEntity
  8
0
  6
Continuous
 62
     7
370
    15
100
AcDbLine
 10
156.670252476
 20
561.7930091523
 30
0.0
 11
156.670252476
 21
562.088460259
 31
0.0
  0
LINE
  5
11E
330
1F
100
AcDbEntity
  8
0
  6
Continuous
 62
     7
370
    15
100
AcDbLine
 10
156.420252476
 20
554.6703594215
 30
0.0
 11
156.420252476
 21
561.7930091523
 31
0.0
  0
LINE
  5
11F
330
1F
100
AcDbEntity
  8
0
  6
Continuous
 62
     7
370
    15
100
AcDbLine
 10
132.420252476
 20
561.7930091523
 30
0.0
 11
132.420252476
 21
554.6703594215
 31
0.0
  0
LINE
  5
120
330
1F
100
AcDbEntity
  8
0
  6
Continuous
 62
     7
370
    15
100
AcDbLine
 10
155.420252476
 20
554.0930091523
 30
0.0
 11
156.420252476
 21
554.6703594215
 31
0.0
  0
LINE
  5
121
330
1F
100
AcDbEntity
  8
0
  6
Continuous
 62
     7
370
    15
100
AcDbLine
 10
132.420252476
 20
554.6703594215
 30
0.0
 11
133.420252476
 21
554.0930091523
 31
0.0
  0
LINE
  5
122
330
1F
100
AcDbEntity
  8
0
  6
Continuous
 62
     7
370
    15
100
AcDbLine
 10
166.4259669753
 20
410.682543517
 30
0.0
 11
166.3852040842
 21
410.815872926
 31
0.0
  0
LINE
  5
123
330
1F
100
AcDbEntity
  8
0
  6
Continuous
 62
     7
370
    15
100
AcDbLine
 10
122.3951858005
 20
397.3667729039
 30
0.0
 11
122.4359482009
 21
397.2334450998
 31
0.0
  0
SPLINE
  5
124
330
1F
100
AcDbEntity
  8
0
  6
Continuous
 62
     7
370
    15
100
AcDbSpline
210
0.0
220
0.0
230
1.0
 70
     8
 71
     3
 72
    13
 73
     9
 74
     0
 42
0.00000001
 43
0.00000001
 12
1.0
 22
0.0
 32
0.0
 13
1.0
 23
0.0
 33
0.0
 40
0.0
 40
0.0
 40
0.0
 40
0.0
 40
0.2676385049262749
 40
0.3722158538746493
 40
0.4285714417605146
 40
0.4955082586570375
 40
0.6647548901091775
 40
1.0
 40
1.0
 40
1.0
 40
1.0
 10
148.9780410202856
 20
426.5384717292413
 30
0.0
 10
148.9944519757535
 20
426.5347678455548
 30
0.0
 10
149.0172753651014
 20
426.5296167024881
 30
0.0
 10
148.9879500729613
 20
426.5364625534424
 30
0.0
 10
148.9398038211125
 20
426.549167989867
 30
0.0
 10
148.8438810426834
 20
426.5776626184018
 30
0.0
 10
148.6297633479414
 20
426.6537960077843
 30
0.0
 10
148.4632107173419
 20
426.761527861286
 30
0.0
 10
148.3525330781019
 20
426.8331178876554
 30
0.0
  0
SPLINE
  5
125
330
1F
100
AcDbEntity
  8
0
  6
Continuous
 62
     7
370
    15
100
AcDbSpline
210
0.0
220
0.0
230
1.0
 70
     8
 71
     3
 72
    14
 73
    10
 74
     0
 42
0.00000001
 43
0.00000001
 12
1.0
 22
0.0
 32
0.0
 13
1.0
 23
0.0
 33
0.0
 40
0.0
 40
0.0
 40
0.0
 40
0.0
 40
0.2607535547389176
 40
0.4313974241049365
 40
0.5130234269689299
 40
0.5708842815553018
 40
0.6444615664377479
 40
0.7680386654122725
 40
1.0
 40
1.0
 40
1.0
 40
1.0
 10
128.3065979377671
 20
420.5361638792432
 30
0.0
 10
128.2672555596257
 20
420.4649076592386
 30
0.0
 10
128.2021665118259
 20
420.3470195261613
 30
0.0
 10
128.104156384428
 20
420.2184140189358
 30
0.0
 10
128.0539167359159
 20
420.1584795502171
 30
0.0
 10
128.0322932395548
 20
420.1338795735271
 30
0.0
 10
128.0185579970859
 20
420.1186638910082
 30
0.0
 10
128.0124894956339
 20
420.1122271523822
 30
0.0
 10
128.0227029242745
 20
420.1230264488556
 30
0.0
 10
128.0293663966716
 20
420.1300721547094
 30
0.0
  0
SPLINE
  5
126
330
1F
100
AcDbEntity
  8
0
  6
Continuous
 62
     7
370
    15
100
AcDbSpline
210
0.0
220
0.0
230
1.0
 70
     8
 71
     3
 72
    13
 73
     9
 74
     0
 42
0.00000001
 43
0.00000001
 12
1.0
 22
0.0
 32
0.0
 13
1.0
 23
0.0
 33
0.0
 40
0.0
 40
0.0
 40
0.0
 40
0.0
 40
0.0792876189238441
 40
0.2917073494293186
 40
0.4807854273532865
 40
0.659529973506395
 40
0.8751900093218349
 40
1.0
 40
1.0
 40
1.0
 40
1.0
 10
128.729868250135
 20
577.8873190456352
 30
0.0
 10
128.6962613815658
 20
577.8754811063254
 30
0.0
 10
128.5726182366966
 20
577.8319281034029
 30
0.0
 10
128.4195864422856
 20
577.685481021385
 30
0.0
 10
128.2888838064144
 20
577.5121004158029
 30
0.0
 10
128.2219982606107
 20
577.370108386178
 30
0.0
 10
128.1929661596748
 20
577.2837749410713
 30
0.0
 10
128.1871419260091
 20
577.2574041710143
 30
0.0
 10
128.1850068700777
 20
577.247737136301
 30
0.0
  0
SPLINE
  5
127
330
1F
100
AcDbEntity
  8
0
  6
Continuous
 62
     7
370
    15
100
AcDbSpline
210
0.0
220
0.0
230
1.0
 70
     8
 71
     3
 72
    13
 73
     9
 74
     0
 42
0.00000001
 43
0.00000001
 12
1.0
 22
0.0
 32
0.0
 13
1.0
 23
0.0
 33
0.0
 40
0.0
 40
0.0
 40
0.0
 40
0.0
 40
0.2121901679593432
 40
0.3764232945673437
 40
0.5339532602257511
 40
0.7180516896468409
 40
0.9162731928475115
 40
1.0
 40
1.0
 40
1.0
 40
1.0
 10
160.6548849614138
 20
577.2479079241274
 30
0.0
 10
160.647716844988
 20
577.2777329825909
 30
0.0
 10
160.6350006761532
 20
577.3306423462786
 30
0.0
 10
160.5545282571607
 20
577.5113886109003
 30
0.0
 10
160.3881716106821
 20
577.7311106633467
 30
0.0
 10
160.1149020932755
 20
577.9179786957519
 30
0.0
 10
159.8215845397979
 20
578.0143612473513
 30
0.0
 10
159.6467738645545
 20
577.9802368610891
 30
0.0
 10
159.5948624355555
 20
577.9701033514959
 30
0.0
  0
SPLINE
  5
128
330
1F
100
AcDbEntity
  8
0
  6
Continuous
 62
     7
370
    15
100
AcDbSpline
210
0.0
220
0.0
230
1.0
 70
     8
 71
     3
 72
    20
 73
    16
 74
     0
 42
0.00000001
 43
0.00000001
 12
1.0
 22
0.0
 32
0.0
 13
1.0
 23
0.0
 33
0.0
 40
0.0
 40
0.0
 40
0.0
 40
0.0
 40
0.1166045159165556
 40
0.2379093152842587
 40
0.3379288450259377
 40
0.4328568641545816
 40
0.5254421376513431
 40
0.610346674205739
 40
0.6910684545923137
 40
0.7356708102395654
 40
0.7920028757374993
 40
0.8606425311821487
 40
0.941851949672497
 40
0.9847315062432846
 40
1.0
 40
1.0
 40
1.0
 40
1.0
 10
121.4309232219752
 20
434.8457014995377
 30
0.0
 10
121.441457562684
 20
433.5895657878656
 30
0.0
 10
121.4629508793475
 20
431.0266600142859
 30
0.0
 10
121.5568116287172
 20
427.1497738758025
 30
0.0
 10
121.5391219844298
 20
423.4498597982914
 30
0.0
 10
121.5351317681794
 20
420.1026613629827
 30
0.0
 10
121.5101492521872
 20
416.9219411367357
 30
0.0
 10
121.5183201687998
 20
413.9420987446281
 30
0.0
 10
121.5484867581027
 20
411.8489387847223
 30
0.0
 10
121.5817779790642
 20
410.4592151009869
 30
0.0
 10
121.5980478152707
 20
409.2598167527793
 30
0.0
 10
121.5907372625774
 20
407.9530133980072
 30
0.0
 10
121.5495016411553
 20
406.8002016091964
 30
0.0
 10
121.5131181629995
 20
406.0750923115206
 30
0.0
 10
121.4928612477375
 20
405.6439041000823
 30
0.0
 10
121.4875421943477
 20
405.530682857457
 30
0.0
  0
SPLINE
  5
129
330
1F
100
AcDbEntity
  8
0
  6
Continuous
 62
     7
370
    15
100
AcDbSpline
210
0.0
220
0.0
230
1.0
 70
     8
 71
     3
 72
    19
 73
    15
 74
     0
 42
0.00000001
 43
0.00000001
 12
1.0
 22
0.0
 32
0.0
 13
1.0
 23
0.0
 33
0.0
 40
0.0
 40
0.0
 40
0.0
 40
0.0
 40
0.0243125478836461
 40
0.0543344098045967
 40
0.0789701977690397
 40
0.1207143129470732
 40
0.1942439712984717
 40
0.2922414917262081
 40
0.4168694287218028
 40
0.5064902987004959
 40
0.6094250204467138
 40
0.7283310102866043
 40
0.86730895737111
 40
1.0
 40
1.0
 40
1.0
 40
1.0
 10
121.5278063580726
 20
401.6172953050152
 30
0.0
 10
121.5322154300151
 20
401.4986629717679
 30
0.0
 10
121.5420689559772
 20
401.2335398821774
 30
0.0
 10
121.5594392610687
 20
400.7183394507822
 30
0.0
 10
121.5848644765672
 20
399.995110495769
 30
0.0
 10
121.6546592483291
 20
398.6266724065891
 30
0.0
 10
121.7692316890185
 20
396.5901316472143
 30
0.0
 10
121.9131610096156
 20
393.7044936190317
 30
0.0
 10
122.0023027384157
 20
390.6559143227158
 30
0.0
 10
122.0350577565832
 20
387.5395820006595
 30
0.0
 10
122.0324546970677
 20
384.466946321621
 30
0.0
 10
122.0127093186306
 20
380.8919260413196
 30
0.0
 10
122.0084828516067
 20
377.0045931568971
 30
0.0
 10
122.0581304601593
 20
374.3095029989651
 30
0.0
 10
122.082379797376
 20
372.9931425140525
 30
0.0
  0
SPLINE
  5
12A
330
1F
100
AcDbEntity
  8
0
  6
Continuous
 62
     7
370
    15
100
AcDbSpline
210
0.0
220
0.0
230
1.0
 70
     8
 71
     3
 72
    20
 73
    16
 74
     0
 42
0.00000001
 43
0.00000001
 12
1.0
 22
0.0
 32
0.0
 13
1.0
 23
0.0
 33
0.0
 40
0.0
 40
0.0
 40
0.0
 40
0.0
 40
0.1164943788178202
 40
0.2310087035230687
 40
0.3055155265118807
 40
0.3783444950369736
 40
0.4496266665415952
 40
0.504479634814083
 40
0.5631316650381832
 40
0.6259419452268828
 40
0.6934927025735573
 40
0.7666295143017857
 40
0.8464503556595427
 40
0.9342204474344767
 40
0.9999999999999999
 40
0.9999999999999999
 40
0.9999999999999999
 40
0.9999999999999999
 10
162.5181994361404
 20
509.9930091523029
 30
0.0
 10
162.5179168020871
 20
513.3087226481767
 30
0.0
 10
162.5173563379096
 20
519.8837924816628
 30
0.0
 10
162.4648925425525
 20
528.5779002236809
 30
0.0
 10
162.367547171479
 20
535.9345133834121
 30
0.0
 10
162.2497907029367
 20
541.943421138562
 30
0.0
 10
162.113051562825
 20
547.1767115819289
 30
0.0
 10
161.9645667272511
 20
551.8025898892105
 30
0.0
 10
161.8044922096362
 20
556.0265620806208
 30
0.0
 10
161.6183553222885
 20
560.2430422083925
 30
0.0
 10
161.4121128333258
 20
564.3454935765747
 30
0.0
 10
161.1985728136511
 20
568.2114640219472
 30
0.0
 10
160.995341736197
 20
571.6850174771863
 30
0.0
 10
160.8342477487673
 20
574.4017746921069
 30
0.0
 10
160.7484828098213
 20
575.6466294641745
 30
0.0
 10
160.7117417327976
 20
576.1799162084542
 30
0.0
  0
SPLINE
  5
12B
330
1F
100
AcDbEntity
  8
0
  6
Continuous
 62
     7
370
    15
100
AcDbSpline
210
0.0
220
0.0
230
1.0
 70
     8
 71
     3
 72
    21
 73
    17
 74
     0
 42
0.00000001
 43
0.00000001
 12
1.0
 22
0.0
 32
0.0
 13
1.0
 23
0.0
 33
0.0
 40
0.0
 40
0.0
 40
0.0
 40
0.0
 40
0.066088414719262
 40
0.1465635758752424
 40
0.2177614216187062
 40
0.2809762144727023
 40
0.3372203809438112
 40
0.3872266931854235
 40
0.4319758706635071
 40
0.4780993352200729
 40
0.5452436380064419
 40
0.6195463323717318
 40
0.7018231275546306
 40
0.7927229645160178
 40
0.8923699112536287
 40
1.0
 40
1.0
 40
1.0
 40
1.0
 10
128.1312249575749
 20
576.2540427460766
 30
0.0
 10
128.0869386576439
 20
575.6441310203371
 30
0.0
 10
127.9887254003319
 20
574.2915362596314
 30
0.0
 10
127.8232787330474
 20
571.5980540623773
 30
0.0
 10
127.6363952686627
 20
568.4442371045542
 30
0.0
 10
127.4570801778377
 20
565.1880064375933
 30
0.0
 10
127.2956519027267
 20
561.9815407723676
 30
0.0
 10
127.15521733735
 20
558.9089888944718
 30
0.0
 10
127.0318195354844
 20
555.9677185918888
 30
0.0
 10
126.8963159164199
 20
552.4095663496092
 30
0.0
 10
126.7447965855329
 20
547.8217214221515
 30
0.0
 10
126.5894721613373
 20
541.9533799307067
 30
0.0
 10
126.4580326687643
 20
535.1477556599842
 30
0.0
 10
126.3662404799104
 20
527.4508932431314
 30
0.0
 10
126.3230334409694
 20
518.9615396641819
 30
0.0
 10
126.3225543087322
 20
513.058305744996
 30
0.0
 10
126.3223055158783
 20
509.9930091523029
 30
0.0
  0
SPLINE
  5
12C
330
1F
100
AcDbEntity
  8
0
  6
Continuous
 62
     7
370
    15
100
AcDbSpline
210
0.0
220
0.0
230
1.0
 70
     8
 71
     3
 72
    19
 73
    15
 74
     0
 42
0.00000001
 43
0.00000001
 12
1.0
 22
0.0
 32
0.0
 13
1.0
 23
0.0
 33
0.0
 40
0.0
 40
0.0
 40
0.0
 40
0.0
 40
0.0806016285978609
 40
0.1940962146813371
 40
0.2891687069641346
 40
0.369800279608535
 40
0.4386658379017651
 40
0.5414989993826591
 40
0.614576793732807
 40
0.6870162454868854
 40
0.7759289991130859
 40
0.8817759621313529
 40
0.9957671310601977
 40
1.0
 40
1.0
 40
1.0
 40
1.0
 10
166.8144041280421
 20
372.9934030321202
 30
0.0
 10
166.8336867973322
 20
373.7884495903944
 30
0.0
 10
166.8801212575693
 20
375.7029956131098
 30
0.0
 10
166.9203284162513
 20
378.5694450488443
 30
0.0
 10
166.9434531102427
 20
381.43783394633
 30
0.0
 10
166.9553924111517
 20
383.8635989293289
 30
0.0
 10
166.9706427381439
 20
386.3646361524965
 30
0.0
 10
166.9974486396018
 20
388.7880670192691
 30
0.0
 10
167.0538263455471
 20
391.2471574530979
 30
0.0
 10
167.1135402244676
 20
393.5634490607071
 30
0.0
 10
167.1933973436293
 20
396.1952711358348
 30
0.0
 10
167.2886813076514
 20
399.2327417961432
 30
0.0
 10
167.3667732247681
 20
401.4363184329206
 30
0.0
 10
167.3764071295545
 20
402.6089848101265
 30
0.0
 10
167.3767520598841
 20
402.6509707139605
 30
0.0
  0
SPLINE
  5
12D
330
1F
100
AcDbEntity
  8
0
  6
Continuous
 62
     7
370
    15
100
AcDbSpline
210
0.0
220
0.0
230
1.0
 70
     8
 71
     3
 72
    17
 73
    13
 74
     0
 42
0.00000001
 43
0.00000001
 12
1.0
 22
0.0
 32
0.0
 13
1.0
 23
0.0
 33
0.0
 40
0.0
 40
0.0
 40
0.0
 40
0.0
 40
0.0132280745091334
 40
0.0886595394299126
 40
0.2086087997134407
 40
0.3419337904011965
 40
0.487105136808529
 40
0.6062110698174439
 40
0.7345075628123018
 40
0.8257568421142975
 40
0.9218079623064461
 40
1.0
 40
1.0
 40
1.0
 40
1.0
 10
167.3967281976025
 20
404.9907706832431
 30
0.0
 10
167.398088342674
 20
405.1286784531548
 30
0.0
 10
167.4072045474186
 20
406.0529882879486
 30
0.0
 10
167.3705564387002
 20
408.2104157400133
 30
0.0
 10
167.3118175854336
 20
411.5524234812012
 30
0.0
 10
167.1803369441328
 20
415.717787874798
 30
0.0
 10
167.0888182424384
 20
419.84186115776
 30
0.0
 10
167.0197385485369
 20
423.9404080022056
 30
0.0
 10
167.1136804492061
 20
427.407718422781
 30
0.0
 10
167.2479773115274
 20
430.5128227843518
 30
0.0
 10
167.377296167291
 20
433.0310996320551
 30
0.0
 10
167.3980905931865
 20
434.5186570024932
 30
0.0
 10
167.4074221420012
 20
435.1862019631792
 30
0.0
  0
LINE
  5
12E
330
1F
100
AcDbEntity
  8
0
  6
Continuous
 62
     7
370
    15
100
AcDbLine
 10
119.420252476
 20
339.3930091523
 30
0.0
 11
119.420252476
 21
334.1930091523
 31
0.0
  0
LINE
  5
12F
330
1F
100
AcDbEntity
  8
0
  6
Continuous
 62
     7
370
    15
100
AcDbLine
 10
169.420252476
 20
334.1930091523
 30
0.0
 11
169.420252476
 21
339.3930091523
 31
0.0
  0
ARC
  5
130
330
1F
100
AcDbEntity
  8
0
  6
Continuous
 62
     7
370
    15
100
AcDbCircle
 10
168.420252476
 20
339.3930091523
 30
0.0
 40
1.0
100
AcDbArc
 50
0.0
 51
90.0
  0
ARC
  5
131
330
1F
100
AcDbEntity
  8
0
  6
Continuous
 62
     7
370
    15
100
AcDbCircle
 10
120.420252476
 20
339.3930091523
 30
0.0
 40
1.0
100
AcDbArc
 50
90.0
 51
180.0
  0
ARC
  5
132
330
1F
100
AcDbEntity
  8
0
  6
Continuous
 62
     7
370
    15
100
AcDbCircle
 10
119.620252476
 20
334.1930091523
 30
0.0
 40
0.2000000000000455
100
AcDbArc
 50
180.0
 51
270.0
  0
ARC
  5
133
330
1F
100
AcDbEntity
  8
0
  6
Continuous
 62
     7
370
    15
100
AcDbCircle
 10
169.220252476
 20
334.1930091523
 30
0.0
 40
0.2000000000000455
100
AcDbArc
 50
270.0
 51
0.0
  0
LINE
  5
134
330
1F
100
AcDbEntity
  8
0
  6
Continuous
 62
     7
370
    15
100
AcDbLine
 10
167.420252476
 20
435.1549117932
 30
0.0
 11
167.420252476
 21
445.9333930353
 31
0.0
  0
LINE
  5
135
330
1F
100
AcDbEntity
  8
0
  6
Continuous
 62
     7
370
    15
100
AcDbLine
 10
167.420252476
 20
340.3930091523
 30
0.0
 11
167.420252476
 21
372.8311065114
 31
0.0
  0
LINE
  5
136
330
1F
100
AcDbEntity
  8
0
  6
Continuous
 62
     7
370
    15
100
AcDbLine
 10
121.420252476
 20
372.8311065114
 30
0.0
 11
121.420252476
 21
340.3930091523
 31
0.0
  0
LINE
  5
137
330
1F
100
AcDbEntity
  8
0
  6
Continuous
 62
     7
370
    15
100
AcDbLine
 10
121.420252476
 20
445.0195831791
 30
0.0
 11
121.420252476
 21
435.1549117932
 31
0.0
  0
SPLINE
  5
138
330
1F
100
AcDbEntity
  8
0
  6
Continuous
 62
     7
370
    15
100
AcDbSpline
210
0.0
220
0.0
230
1.0
 70
     8
 71
     3
 72
    11
 73
     7
 74
     0
 42
0.00000001
 43
0.00000001
 12
1.0
 22
0.0
 32
0.0
 13
1.0
 23
0.0
 33
0.0
 40
0.0
 40
0.0
 40
0.0
 40
0.0
 40
0.2478917919539823
 40
0.5000000000000099
 40
0.7521082080460394
 40
1.0
 40
1.0
 40
1.0
 40
1.0
 10
167.4202524760094
 20
445.9333930353323
 30
0.0
 10
167.4192848987673
 20
446.0869039298338
 30
0.0
 10
167.4173332866658
 20
446.396536800877
 30
0.0
 10
167.2810697418507
 20
446.8539990785972
 30
0.0
 10
166.965328405577
 20
447.2119751919771
 30
0.0
 10
166.7037790356302
 20
447.3777106761098
 30
0.0
 10
166.5741071516291
 20
447.4598796084138
 30
0.0
  0
LINE
  5
139
330
1F
100
AcDbEntity
  8
0
  6
Continuous
 62
     7
370
    15
100
AcDbLine
 10
166.5841071516
 20
447.4536309149
 30
0.0
 11
162.6175220274
 21
449.9322283908
 31
0.0
  0
ARC
  5
13A
330
1F
100
AcDbEntity
  8
0
  6
Continuous
 62
     7
370
    15
100
AcDbCircle
 10
162.4055543217
 20
449.5930091523
 30
0.0
 40
0.3999999999999773
100
AcDbArc
 50
58.0
 51
90.0
  0
LINE
  5
13B
330
1F
100
AcDbEntity
  8
0
  6
Continuous
 62
     7
370
    15
100
AcDbLine
 10
162.520252476
 20
450.3930091523
 30
0.0
 11
162.520252476
 21
510.0433036719
 31
0.0
  0
LINE
  5
13C
330
1F
100
AcDbEntity
  8
0
  6
Continuous
 62
     7
370
    15
100
AcDbLine
 10
126.320252476
 20
510.0433036719
 30
0.0
 11
126.320252476
 21
478.975786408
 31
0.0
  0
ARC
  5
13D
330
1F
100
AcDbEntity
  8
0
  6
Continuous
 62
     7
370
    15
100
AcDbCircle
 10
162.120252476
 20
450.3930091523
 30
0.0
 40
0.3999999999999773
100
AcDbArc
 50
270.0
 51
0.0
  0
SPLINE
  5
13E
330
1F
100
AcDbEntity
  8
0
  6
Continuous
 62
     7
370
    15
100
AcDbSpline
210
0.0
220
0.0
230
1.0
 70
     8
 71
     3
 72
    22
 73
    18
 74
     0
 42
0.00000001
 43
0.00000001
 12
1.0
 22
0.0
 32
0.0
 13
1.0
 23
0.0
 33
0.0
 40
0.0
 40
0.0
 40
0.0
 40
0.0
 40
0.2500000000000064
 40
0.2500000000000064
 40
0.3125000000000074
 40
0.3125000000000074
 40
0.3750000000000084
 40
0.3750000000000084
 40
0.5000000000000068
 40
0.5000000000000068
 40
0.6250000000000051
 40
0.6250000000000051
 40
0.7500000000000033
 40
0.7500000000000033
 40
0.8750000000000017
 40
0.8750000000000017
 40
1.0
 40
1.0
 40
1.0
 40
1.0
 10
154.0082016281283
 20
577.6246325846496
 30
0.0
 10
154.8082778242938
 20
577.6204070292791
 30
0.0
 10
155.6059212965079
 20
577.616220190828
 30
0.0
 10
156.5683548730036
 20
577.6235327876174
 30
0.0
 10
156.759144444135
 20
577.6255577514708
 30
0.0
 10
157.1363106778946
 20
577.6308859693283
 30
0.0
 10
157.3241955516752
 20
577.6342218729321
 30
0.0
 10
157.8679564923475
 20
577.6461802616204
 30
0.0
 10
158.1980421747731
 20
577.6567202549372
 30
0.0
 10
158.758257097939
 20
577.68088469526
 30
0.0
 10
158.9693780715193
 20
577.6933996155983
 30
0.0
 10
159.2977386495825
 20
577.7134580390256
 30
0.0
 10
159.4101223811928
 20
577.7204782930507
 30
0.0
 10
159.56799257839
 20
577.7287246804872
 30
0.0
 10
159.6126880187517
 20
577.7305659389589
 30
0.0
 10
159.6588763288522
 20
577.7330670374408
 30
0.0
 10
159.6602659922031
 20
577.7337107978548
 30
0.0
 10
159.6606998076356
 20
577.7341676542187
 30
0.0
  0
SPLINE
  5
13F
330
1F
100
AcDbEntity
  8
0
  6
Continuous
 62
     7
370
    15
100
AcDbSpline
210
0.0
220
0.0
230
1.0
 70
     8
 71
     3
 72
    10
 73
     6
 74
     0
 42
0.00000001
 43
0.00000001
 12
1.0
 22
0.0
 32
0.0
 13
1.0
 23
0.0
 33
0.0
 40
0.0
 40
0.0
 40
0.0
 40
0.0
 40
0.5
 40
0.5
 40
1.0
 40
1.0
 40
1.0
 40
1.0
 10
160.600607601643
 20
576.8212710598433
 30
0.0
 10
160.5802458737996
 20
577.0585191455117
 30
0.0
 10
160.4718074235323
 20
577.2871957898037
 30
0.0
 10
160.1301812826365
 20
577.6190042316122
 30
0.0
 10
159.8984407018808
 20
577.720730506499
 30
0.0
 10
159.6606998076356
 20
577.7341676542187
 30
0.0
  0
SPLINE
  5
140
330
1F
100
AcDbEntity
  8
0
  6
Continuous
 62
     7
370
    15
100
AcDbSpline
210
0.0
220
0.0
230
1.0
 70
     8
 71
     3
 72
    10
 73
     6
 74
     0
 42
0.00000001
 43
0.00000001
 12
1.0
 22
0.0
 32
0.0
 13
1.0
 23
0.0
 33
0.0
 40
0.0
 40
0.0
 40
0.0
 40
0.0
 40
0.5
 40
0.5
 40
1.0
 40
1.0
 40
1.0
 40
1.0
 10
128.2397892820833
 20
576.821209691396
 30
0.0
 10
128.2601385710713
 20
577.0584681028095
 30
0.0
 10
128.3685721261112
 20
577.2871591830141
 30
0.0
 10
128.7102021846703
 20
577.6189900710058
 30
0.0
 10
128.9419513401978
 20
577.7207240459126
 30
0.0
 10
129.1797014392051
 20
577.7341618099758
 30
0.0
  0
SPLINE
  5
141
330
1F
100
AcDbEntity
  8
0
  6
Continuous
 62
     7
370
    15
100
AcDbSpline
210
0.0
220
0.0
230
1.0
 70
     8
 71
     3
 72
    22
 73
    18
 74
     0
 42
0.00000001
 43
0.00000001
 12
1.0
 22
0.0
 32
0.0
 13
1.0
 23
0.0
 33
0.0
 40
0.0
 40
0.0
 40
0.0
 40
0.0
 40
0.1250000000000017
 40
0.1250000000000017
 40
0.2500000000000035
 40
0.2500000000000035
 40
0.3750000000000052
 40
0.3750000000000052
 40
0.500000000000007
 40
0.500000000000007
 40
0.6250000000000088
 40
0.6250000000000088
 40
0.6875000000000077
 40
0.6875000000000077
 40
0.7500000000000064
 40
0.7500000000000064
 40
1.0
 40
1.0
 40
1.0
 40
1.0
 10
129.179805135491
 20
577.7341676621045
 30
0.0
 10
129.1802389329808
 20
577.7337108138447
 30
0.0
 10
129.1816285322776
 20
577.733067115408
 30
0.0
 10
129.2278172636085
 20
577.7305667774264
 30
0.0
 10
129.2725132049491
 20
577.7287262485595
 30
0.0
 10
129.4303854271662
 20
577.720482039464
 30
0.0
 10
129.5427708280552
 20
577.7134632256095
 30
0.0
 10
129.8711349463894
 20
577.6934071013837
 30
0.0
 10
130.0822579758596
 20
577.6808929605088
 30
0.0
 10
130.6424779060027
 20
577.656729163807
 30
0.0
 10
130.9725649633644
 20
577.6461891034554
 30
0.0
 10
131.5163288977565
 20
577.6342303950158
 30
0.0
 10
131.7042142993783
 20
577.6308943621674
 30
0.0
 10
132.0813818152224
 20
577.6255658643857
 30
0.0
 10
132.2721720154431
 20
577.6235407519217
 30
0.0
 10
133.2346086959831
 20
577.616227419476
 30
0.0
 10
134.0322545628122
 20
577.6204137618428
 30
0.0
 10
134.8323328078243
 20
577.6246386989977
 30
0.0
  0
SPLINE
  5
142
330
1F
100
AcDbEntity
  8
0
  6
Continuous
 62
     7
370
    15
100
AcDbSpline
210
0.0
220
0.0
230
1.0
 70
     8
 71
     3
 72
    10
 73
     6
 74
     0
 42
0.00000001
 43
0.00000001
 12
1.0
 22
0.0
 32
0.0
 13
1.0
 23
0.0
 33
0.0
 40
0.0
 40
0.0
 40
0.0
 40
0.0
 40
0.5
 40
0.5
 40
1.0
 40
1.0
 40
1.0
 40
1.0
 10
134.8323259181839
 20
577.6246270972222
 30
0.0
 10
138.0245740419987
 20
577.6414827560029
 30
0.0
 10
141.2206370005028
 20
577.6418771343167
 30
0.0
 10
147.6199427711004
 20
577.641875308162
 30
0.0
 10
150.8159600859662
 20
577.6414791531984
 30
0.0
 10
154.0082085177025
 20
577.6246209830158
 30
0.0
  0
SPLINE
  5
143
330
1F
100
AcDbEntity
  8
0
  6
Continuous
 62
     7
370
    15
100
AcDbSpline
210
0.0
220
0.0
230
1.0
 70
     8
 71
     3
 72
    24
 73
    20
 74
     0
 42
0.00000001
 43
0.00000001
 12
1.0
 22
0.0
 32
0.0
 13
1.0
 23
0.0
 33
0.0
 40
0.0
 40
0.0
 40
0.0
 40
0.0
 40
0.1249999999999968
 40
0.1249999999999968
 40
0.2499999999999936
 40
0.2499999999999936
 40
0.3124999999999962
 40
0.3124999999999962
 40
0.3749999999999989
 40
0.3749999999999989
 40
0.4375000000000016
 40
0.4375000000000016
 40
0.5000000000000042
 40
0.5000000000000042
 40
0.6250000000000033
 40
0.6250000000000033
 40
0.7500000000000024
 40
0.7500000000000024
 40
1.0
 40
1.0
 40
1.0
 40
1.0
 10
159.6611066634972
 20
562.2514781973512
 30
0.0
 10
159.6600889390873
 20
562.2519492167103
 30
0.0
 10
159.6546199184655
 20
562.2525720500782
 30
0.0
 10
159.5986579781026
 20
562.2546280946524
 30
0.0
 10
159.5485213965324
 20
562.2560569224768
 30
0.0
 10
159.4223577656021
 20
562.2606188760573
 30
0.0
 10
159.3718586451658
 20
562.2625793843246
 30
0.0
 10
159.2497258523013
 20
562.2677049835244
 30
0.0
 10
159.1774267743139
 20
562.270868566601
 30
0.0
 10
159.0089844447753
 20
562.2780018616535
 30
0.0
 10
158.9130121527523
 20
562.2819630459835
 30
0.0
 10
158.6924297960022
 20
562.2901535171719
 30
0.0
 10
158.5665014623241
 20
562.2944060768084
 30
0.0
 10
158.1459396314386
 20
562.3063902512556
 30
0.0
 10
157.8203495577102
 20
562.3129692660689
 30
0.0
 10
157.1053869426263
 20
562.3220925148911
 30
0.0
 10
156.7351325214608
 20
562.3244720233458
 30
0.0
 10
155.6083381155262
 20
562.3262665012381
 30
0.0
 10
154.8306073730978
 20
562.3193877289895
 30
0.0
 10
154.0505345517547
 20
562.3128051199417
 30
0.0
  0
ARC
  5
144
330
1F
100
AcDbEntity
  8
0
  6
Continuous
 62
     7
370
    15
100
AcDbCircle
 10
159.6046346408
 20
563.2498834905
 30
0.0
 40
1.000001109346195
100
AcDbArc
 50
273.2374660489
 51
355.0858750606
  0
SPLINE
  5
145
330
1F
100
AcDbEntity
  8
0
  6
Continuous
 62
     7
370
    15
100
AcDbSpline
210
0.0
220
0.0
230
1.0
 70
     8
 71
     3
 72
    24
 73
    20
 74
     0
 42
0.00000001
 43
0.00000001
 12
1.0
 22
0.0
 32
0.0
 13
1.0
 23
0.0
 33
0.0
 40
0.0
 40
0.0
 40
0.0
 40
0.0
 40
0.2499999999999995
 40
0.2499999999999995
 40
0.3749999999999992
 40
0.3749999999999992
 40
0.499999999999999
 40
0.499999999999999
 40
0.5624999999999991
 40
0.5624999999999991
 40
0.6249999999999992
 40
0.6249999999999992
 40
0.6874999999999993
 40
0.6874999999999993
 40
0.7499999999999993
 40
0.7499999999999993
 40
0.8749999999999997
 40
0.8749999999999997
 40
1.0
 40
1.0
 40
1.0
 40
1.0
 10
134.7900147132284
 20
562.3128043902237
 30
0.0
 10
134.0099380079458
 20
562.3193869471446
 30
0.0
 10
133.2322028358368
 20
562.3262659427779
 30
0.0
 10
132.1054014506118
 20
562.3244717118662
 30
0.0
 10
131.7351455012981
 20
562.3220922907324
 30
0.0
 10
131.02017600358
 20
562.3129691575639
 30
0.0
 10
130.6945825830792
 20
562.3063901839487
 30
0.0
 10
130.2740161252914
 20
562.2944060466631
 30
0.0
 10
130.1480858914042
 20
562.2901534776275
 30
0.0
 10
129.927500683462
 20
562.2819629925355
 30
0.0
 10
129.8315272041134
 20
562.2780017988377
 30
0.0
 10
129.6630828586442
 20
562.2708684902913
 30
0.0
 10
129.5907828911004
 20
562.2677049005181
 30
0.0
 10
129.4686486810838
 20
562.2625792986967
 30
0.0
 10
129.4181490155736
 20
562.260618794299
 30
0.0
 10
129.2919840902936
 20
562.2560568650031
 30
0.0
 10
129.2418471065466
 20
562.2546280624777
 30
0.0
 10
129.1858848632492
 20
562.2525720434378
 30
0.0
 10
129.1804159533635
 20
562.2519492115682
 30
0.0
 10
129.1793982697721
 20
562.2514781912216
 30
0.0
  0
ARC
  5
146
330
1F
100
AcDbEntity
  8
0
  6
Continuous
 62
     7
370
    15
100
AcDbCircle
 10
129.2358707657
 20
563.2498839687
 30
0.0
 40
1.000001619617106
100
AcDbArc
 50
184.9141519364
 51
266.7625086364
  0
SPLINE
  5
147
330
1F
100
AcDbEntity
  8
0
  6
Continuous
 62
     7
370
    15
100
AcDbSpline
210
0.0
220
0.0
230
1.0
 70
     8
 71
     3
 72
    11
 73
     7
 74
     0
 42
0.00000001
 43
0.00000001
 12
1.0
 22
0.0
 32
0.0
 13
1.0
 23
0.0
 33
0.0
 40
0.0
 40
0.0
 40
0.0
 40
0.0
 40
0.0001980594509014
 40
0.0001980594509014
 40
0.0001980594509014
 40
0.0001981194509015
 40
0.0001981194509015
 40
0.0001981194509015
 40
0.0001981194509015
 10
160.6009599544775
 20
563.1642208492189
 30
0.0
 10
160.601120922063
 20
563.1642676141736
 30
0.0
 10
160.6011784072805
 20
563.1642567156542
 30
0.0
 10
160.6012304431694
 20
563.1641894469055
 30
0.0
 10
160.6012304589331
 20
563.1641894265272
 30
0.0
 10
160.6012304746957
 20
563.1641894061437
 30
0.0
 10
160.6012304904592
 20
563.1641893857551
 30
0.0
  0
SPLINE
  5
148
330
1F
100
AcDbEntity
  8
0
  6
Continuous
 62
     7
370
    15
100
AcDbSpline
210
0.0
220
0.0
230
1.0
 70
     8
 71
     3
 72
    24
 73
    20
 74
     0
 42
0.00000001
 43
0.00000001
 12
1.0
 22
0.0
 32
0.0
 13
1.0
 23
0.0
 33
0.0
 40
0.0
 40
0.0
 40
0.0
 40
0.0
 40
0.0588892749134766
 40
0.1177520012905107
 40
0.1765918364936481
 40
0.2354124421478825
 40
0.2942174834628067
 40
0.3530106285513483
 40
0.4117955477458695
 40
0.4705759129120989
 40
0.5293553967617299
 40
0.5881376721641326
 40
0.6469264114579651
 40
0.7057252857632672
 40
0.7645379642947023
 40
0.8233681136765584
 40
0.8822193972601825
 40
0.9410954744444683
 40
1.0
 40
1.0
 40
1.0
 40
1.0
 10
160.6007126902458
 20
576.8212445185477
 30
0.0
 10
160.6228940682204
 20
576.553398054145
 30
0.0
 10
160.667246824333
 20
576.0178258762172
 30
0.0
 10
160.7235014599952
 20
575.2136736422605
 30
0.0
 10
160.7722134272045
 20
574.4092993862649
 30
0.0
 10
160.8126498224268
 20
573.6047070208116
 30
0.0
 10
160.8450109680048
 20
572.7999994851639
 30
0.0
 10
160.8692483115342
 20
571.9952530566396
 30
0.0
 10
160.8853809956778
 20
571.1905510023282
 30
0.0
 10
160.8934110949576
 20
570.3859745505766
 30
0.0
 10
160.8933462107358
 20
569.581605317369
 30
0.0
 10
160.8851938140495
 20
568.7775245774397
 30
0.0
 10
160.8689612695713
 20
567.9738137051218
 30
0.0
 10
160.8446613820685
 20
567.1705530909259
 30
0.0
 10
160.8122901650907
 20
566.3678259869869
 30
0.0
 10
160.7719102333432
 20
565.5657041554318
 30
0.0
 10
160.7233393103166
 20
564.7643014051679
 30
0.0
 10
160.6673134029012
 20
563.9635736430401
 30
0.0
 10
160.6232113031387
 20
563.4307079576791
 30
0.0
 10
160.6011549271135
 20
563.1642107616141
 30
0.0
  0
SPLINE
  5
149
330
1F
100
AcDbEntity
  8
0
  6
Continuous
 62
     7
370
    15
100
AcDbSpline
210
0.0
220
0.0
230
1.0
 70
     8
 71
     3
 72
    11
 73
     7
 74
     0
 42
0.00000001
 43
0.00000001
 12
1.0
 22
0.0
 32
0.0
 13
1.0
 23
0.0
 33
0.0
 40
-0.0000000600000001
 40
-0.0000000600000001
 40
-0.0000000600000001
 40
-0.0000000600000001
 40
0.0
 40
0.0
 40
0.0
 40
0.0001980525028401
 40
0.0001980525028401
 40
0.0001980525028401
 40
0.0001980525028401
 10
128.2392744615591
 20
563.1641893857595
 30
0.0
 10
128.2392744773447
 20
563.164189406525
 30
0.0
 10
128.2392744930852
 20
563.1641894265318
 30
0.0
 10
128.2392745088489
 20
563.1641894469102
 30
0.0
 10
128.2393265429097
 20
563.164256713299
 30
0.0
 10
128.2393840258744
 20
563.164267613422
 30
0.0
 10
128.2395449805927
 20
563.1642208541444
 30
0.0
  0
SPLINE
  5
14A
330
1F
100
AcDbEntity
  8
0
  6
Continuous
 62
     7
370
    15
100
AcDbSpline
210
0.0
220
0.0
230
1.0
 70
     8
 71
     3
 72
    24
 73
    20
 74
     0
 42
0.00000001
 43
0.00000001
 12
1.0
 22
0.0
 32
0.0
 13
1.0
 23
0.0
 33
0.0
 40
0.0
 40
0.0
 40
0.0
 40
0.0
 40
0.0589045254599678
 40
0.1177806025607859
 40
0.1766318860730105
 40
0.2354620353955179
 40
0.2942747138796209
 40
0.3530735881495873
 40
0.4118623274200382
 40
0.4706446028109847
 40
0.5294240866610662
 40
0.5882044518395996
 40
0.6469893710582371
 40
0.7057825161826804
 40
0.7645875575452278
 40
0.8234081632587819
 40
0.8822479985328692
 40
0.9411107249924487
 40
1.0
 40
1.0
 40
1.0
 40
1.0
 10
128.239350024869
 20
563.1642107620337
 30
0.0
 10
128.2172936488665
 20
563.4307079578316
 30
0.0
 10
128.1731915491449
 20
563.9635736427128
 30
0.0
 10
128.1171656417668
 20
564.7643014041969
 30
0.0
 10
128.0685947187567
 20
565.5657041539774
 30
0.0
 10
128.0282147870084
 20
566.3678259852094
 30
0.0
 10
127.9958435700178
 20
567.1705530889865
 30
0.0
 10
127.9715436824949
 20
567.9738137031808
 30
0.0
 10
127.955311137994
 20
568.7775245756587
 30
0.0
 10
127.9471587412875
 20
569.581605315909
 30
0.0
 10
127.9470938570529
 20
570.3859745495989
 30
0.0
 10
127.9551239563319
 20
571.1905510019933
 30
0.0
 10
127.9712566404918
 20
571.995253057109
 30
0.0
 10
127.9954939840593
 20
572.7999994865976
 30
0.0
 10
128.0278551297022
 20
573.6047070233695
 30
0.0
 10
128.0682915250209
 20
574.4092993901064
 30
0.0
 10
128.1170034923636
 20
575.2136736475446
 30
0.0
 10
128.1732581281981
 20
576.0178258831016
 30
0.0
 10
128.2176108844584
 20
576.553398062149
 30
0.0
 10
128.239792262509
 20
576.8212445271375
 30
0.0
  0
SPLINE
  5
14B
330
1F
100
AcDbEntity
  8
0
  6
Continuous
 62
     7
370
    15
100
AcDbSpline
210
0.0
220
0.0
230
1.0
 70
     8
 71
     3
 72
    10
 73
     6
 74
     0
 42
0.00000001
 43
0.00000001
 12
1.0
 22
0.0
 32
0.0
 13
1.0
 23
0.0
 33
0.0
 40
0.0
 40
0.0
 40
0.0
 40
0.0
 40
0.5
 40
0.5
 40
1.0
 40
1.0
 40
1.0
 40
1.0
 10
154.0505270378801
 20
562.3127934722904
 30
0.0
 10
150.8442127674991
 20
562.2857356355863
 30
0.0
 10
147.6340668352355
 20
562.2795850222229
 30
0.0
 10
141.2064361400377
 20
562.279584914305
 30
0.0
 10
137.9963366969222
 20
562.285735253187
 30
0.0
 10
134.7900222270793
 20
562.3127927425509
 30
0.0
  0
LINE
  5
14C
330
1F
100
AcDbEntity
  8
0
  6
Continuous
 62
     7
370
    15
100
AcDbLine
 10
159.6608034959
 20
577.7341617937
 30
0.0
 11
159.6609399253
 21
577.7343093146
 31
0.0
  0
LINE
  5
14D
330
1F
100
AcDbEntity
  8
0
  6
Continuous
 62
     7
370
    15
100
AcDbLine
 10
129.1795648852
 20
577.734309476
 30
0.0
 11
129.1797014472
 21
577.7341618016
 31
0.0
  0
SPLINE
  5
14E
330
1F
100
AcDbEntity
  8
0
  6
Continuous
 62
     7
370
    15
100
AcDbSpline
210
0.0
220
0.0
230
1.0
 70
     8
 71
     3
 72
    61
 73
    57
 74
     0
 42
0.00000001
 43
0.00000001
 12
1.0
 22
0.0
 32
0.0
 13
1.0
 23
0.0
 33
0.0
 40
0.0
 40
0.0
 40
0.0
 40
0.0
 40
0.0252451129584875
 40
0.0542143827108646
 40
0.0789052340939814
 40
0.0979699445917328
 40
0.1169234623558222
 40
0.1293499346766995
 40
0.1467591185393121
 40
0.1641733985962346
 40
0.1766056937611132
 40
0.2027181002691034
 40
0.2249412947043177
 40
0.2449317510018128
 40
0.2619275514344315
 40
0.2629074593694975
 40
0.2640711469292037
 40
0.2652961304179293
 40
0.2662393935394491
 40
0.2721129860246778
 40
0.2856148619951904
 40
0.2984908533623052
 40
0.3100380234769705
 40
0.3388704192277437
 40
0.3677007457833782
 40
0.4253886206388492
 40
0.4542408951842836
 40
0.4878336413043655
 40
0.495279716466333
 40
0.4979852452598007
 40
0.4986051356254977
 40
0.4992250308153435
 40
0.4999999068765719
 40
0.5171920402303793
 40
0.5485562976641437
 40
0.5965807827716335
 40
0.6251023395202736
 40
0.637160493842465
 40
0.6506609970596362
 40
0.6712107433540949
 40
0.6931241833267283
 40
0.731309223190867
 40
0.763726230034932
 40
0.779858635214183
 40
0.7987882648070979
 40
0.8205090560308854
 40
0.8462192003167375
 40
0.8731191566236661
 40
0.8870641809914123
 40
0.8958944358018018
 40
0.9115968025523404
 40
0.929146521168297
 40
0.9475297039456182
 40
0.960464003497069
 40
0.978783960942433
 40
1.0
 40
1.0
 40
1.0
 40
1.0
 10
159.6609555557323
 20
577.7343084286359
 30
0.0
 10
159.4060190620136
 20
577.7485462006407
 30
0.0
 10
158.8585378659435
 20
577.7791220994964
 30
0.0
 10
158.060764468073
 20
577.8206060483972
 30
0.0
 10
157.324704395535
 20
577.8568016081826
 30
0.0
 10
156.6890779396118
 20
577.8864341950454
 30
0.0
 10
156.1781016681259
 20
577.9091671953071
 30
0.0
 10
155.6836580059821
 20
577.9302824620089
 30
0.0
 10
155.2043076113374
 20
577.9499343561896
 30
0.0
 10
154.7245489453467
 20
577.9686470039039
 30
0.0
 10
154.1563799911376
 20
577.9898451943659
 30
0.0
 10
153.5392550990042
 20
578.0115199570829
 30
0.0
 10
152.8447576434793
 20
578.0339874492704
 30
0.0
 10
152.2428093622798
 20
578.0520126368534
 30
0.0
 10
151.8567522737491
 20
578.062763150959
 30
0.0
 10
151.6619821523956
 20
578.0679792118084
 30
0.0
 10
151.6277015663583
 20
578.0688930656809
 30
0.0
 10
151.5937937743849
 20
578.0697923903672
 30
0.0
 10
151.5119450126445
 20
578.0719525209931
 30
0.0
 10
151.3053998576937
 20
578.0773407743535
 30
0.0
 10
150.9772995713881
 20
578.085526671424
 30
0.0
 10
150.5914200272226
 20
578.0945782628164
 30
0.0
 10
150.049356170658
 20
578.1065354385688
 30
0.0
 10
149.3447477017619
 20
578.1204702356193
 30
0.0
 10
148.1701238636014
 20
578.1398892776226
 30
0.0
 10
146.9948265256781
 20
578.1535976867797
 30
0.0
 10
145.7707914571429
 20
578.161910583564
 30
0.0
 10
145.0585885723872
 20
578.1642567227151
 30
0.0
 10
144.6128487007911
 20
578.1646798361933
 30
0.0
 10
144.5030678665528
 20
578.1647251260687
 30
0.0
 10
144.4628781025901
 20
578.1647276168497
 30
0.0
 10
144.4423544397434
 20
578.1647277762844
 30
0.0
 10
144.2530131125858
 20
578.1647127487524
 30
0.0
 10
143.7502396065402
 20
578.1642331997895
 30
0.0
 10
142.7661069259418
 20
578.1605933942786
 30
0.0
 10
141.6665934327778
 20
578.1515872870316
 30
0.0
 10
140.7641200081141
 20
578.1403033241222
 30
0.0
 10
140.2132290818581
 20
578.1321786130873
 30
0.0
 10
139.7437245873775
 20
578.1245593342464
 30
0.0
 10
139.1739768904694
 20
578.114221224727
 30
0.0
 10
138.3530381587716
 20
578.0973663059568
 30
0.0
 10
137.4115674324824
 20
578.074842529808
 30
0.0
 10
136.5295083585941
 20
578.0501921330958
 30
0.0
 10
135.8438350026007
 20
578.0291204705375
 30
0.0
 10
135.2667276616514
 20
578.0102441367223
 30
0.0
 10
134.5925344708415
 20
577.9866279542323
 30
0.0
 10
133.8377805733253
 20
577.958147232633
 30
0.0
 10
133.1624823156364
 20
577.9306384650008
 30
0.0
 10
132.6588528779758
 20
577.9089497437027
 30
0.0
 10
132.2691558946204
 20
577.8916585928145
 30
0.0
 10
131.8430248836505
 20
577.8721594873184
 30
0.0
 10
131.3198450102492
 20
577.8472380104768
 30
0.0
 10
130.8250506321184
 20
577.8226607111468
 30
0.0
 10
130.3234434113719
 20
577.7968285747407
 30
0.0
 10
129.7929552368504
 20
577.7686577118461
 30
0.0
 10
129.3937665150581
 20
577.7463041942195
 30
0.0
 10
129.1795515145014
 20
577.7343087180715
 30
0.0
  0
SPLINE
  5
14F
330
1F
100
AcDbEntity
  8
0
  6
Continuous
 62
     7
370
    15
100
AcDbSpline
210
0.0
220
0.0
230
1.0
 70
     8
 71
     3
 72
    14
 73
    10
 74
     0
 42
0.00000001
 43
0.00000001
 12
1.0
 22
0.0
 32
0.0
 13
1.0
 23
0.0
 33
0.0
 40
0.0
 40
0.0
 40
0.0
 40
0.0
 40
0.4999999999999989
 40
0.4999999999999989
 40
0.7499999999999982
 40
0.7499999999999982
 40
0.874999999999999
 40
0.874999999999999
 40
1.0
 40
1.0
 40
1.0
 40
1.0
 10
134.627879814113
 20
561.9975221778456
 30
0.0
 10
133.7252593644035
 20
562.0304947277104
 30
0.0
 10
132.8235965168573
 20
562.0679576028531
 30
0.0
 10
131.4653622101781
 20
562.1312193331695
 30
0.0
 10
131.0117275020203
 20
562.1534829146352
 30
0.0
 10
130.3274036027743
 20
562.1887941791598
 30
0.0
 10
130.0983180789777
 20
562.2009021243659
 30
0.0
 10
129.6391450142694
 20
562.2257473262258
 30
0.0
 10
129.409441174208
 20
562.2384639766545
 30
0.0
 10
129.1793958552432
 20
562.2514783278185
 30
0.0
  0
SPLINE
  5
150
330
1F
100
AcDbEntity
  8
0
  6
Continuous
 62
     7
370
    15
100
AcDbSpline
210
0.0
220
0.0
230
1.0
 70
     8
 71
     3
 72
    14
 73
    10
 74
     0
 42
0.00000001
 43
0.00000001
 12
1.0
 22
0.0
 32
0.0
 13
1.0
 23
0.0
 33
0.0
 40
0.0
 40
0.0
 40
0.0
 40
0.0
 40
0.1249999999999984
 40
0.1249999999999984
 40
0.2499999999999969
 40
0.2499999999999969
 40
0.4999999999999968
 40
0.4999999999999968
 40
1.0
 40
1.0
 40
1.0
 40
1.0
 10
159.6611090828312
 20
562.2514783342201
 30
0.0
 10
159.4285901263133
 20
562.238324039528
 30
0.0
 10
159.1985625718357
 20
562.2255940144872
 30
0.0
 10
158.740260129852
 20
562.2007998463054
 30
0.0
 10
158.5121057703883
 20
562.188742360432
 30
0.0
 10
157.8291608327331
 20
562.1535035920824
 30
0.0
 10
157.3758632000444
 20
562.1312543138804
 30
0.0
 10
156.0180216996268
 20
562.0680066024086
 30
0.0
 10
155.115733884833
 20
562.0305125702268
 30
0.0
 10
154.2126279523609
 20
561.9975222761083
 30
0.0
  0
SPLINE
  5
151
330
1F
100
AcDbEntity
  8
0
  6
Continuous
 62
     7
370
    15
100
AcDbSpline
210
0.0
220
0.0
230
1.0
 70
     8
 71
     3
 72
    32
 73
    28
 74
     0
 42
0.00000001
 43
0.00000001
 12
1.0
 22
0.0
 32
0.0
 13
1.0
 23
0.0
 33
0.0
 40
0.0
 40
0.0
 40
0.0
 40
0.0
 40
0.1250000000000002
 40
0.1250000000000002
 40
0.1875000000000003
 40
0.1875000000000003
 40
0.2500000000000004
 40
0.2500000000000004
 40
0.3125000000000006
 40
0.3125000000000006
 40
0.3750000000000007
 40
0.3750000000000007
 40
0.5000000000000001
 40
0.5000000000000001
 40
0.5624999999999999
 40
0.5624999999999999
 40
0.6249999999999996
 40
0.6249999999999996
 40
0.6874999999999992
 40
0.6874999999999992
 40
0.7499999999999989
 40
0.7499999999999989
 40
0.8749999999999983
 40
0.8749999999999983
 40
0.9374999999999992
 40
0.9374999999999992
 40
1.0
 40
1.0
 40
1.0
 40
1.0
 10
154.2126279523994
 20
561.9975222761093
 30
0.0
 10
153.6412005308236
 20
561.9778697571636
 30
0.0
 10
152.9922724554191
 20
561.9608230493247
 30
0.0
 10
151.9051485789561
 20
561.9532363380825
 30
0.0
 10
151.52107360127
 20
561.9535221149577
 30
0.0
 10
150.7260734747137
 20
561.9594383303779
 30
0.0
 10
150.3167509977004
 20
561.9649440266638
 30
0.0
 10
149.4750901517788
 20
561.9780020927946
 30
0.0
 10
149.0427504976707
 20
561.9855589873024
 30
0.0
 10
148.1547472061509
 20
562.0003779196347
 30
0.0
 10
147.6959751347543
 20
562.0076803525661
 30
0.0
 10
146.3114770798167
 20
562.0261137204923
 30
0.0
 10
145.3771053044054
 20
562.033552618345
 30
0.0
 10
143.9586100593605
 20
562.0336356027487
 30
0.0
 10
143.480070784208
 20
562.0318529592446
 30
0.0
 10
142.5391180121978
 20
562.0250492644918
 30
0.0
 10
142.0750329247052
 20
562.020050397531
 30
0.0
 10
141.159367203383
 20
562.0078960612468
 30
0.0
 10
140.7077866814323
 20
562.0007350108053
 30
0.0
 10
139.8173517930968
 20
561.9858958540779
 30
0.0
 10
139.3766914809847
 20
561.9781892526065
 30
0.0
 10
138.106767735416
 20
561.958450243426
 30
0.0
 10
137.3188447665218
 20
561.9507408111357
 30
0.0
 10
136.2254536489303
 20
561.9581032042391
 30
0.0
 10
135.8755300079504
 20
561.9634540347872
 30
0.0
 10
135.2207894929544
 20
561.9782463175952
 30
0.0
 10
134.9139748583885
 20
561.9876828079556
 30
0.0
 10
134.6278798133032
 20
561.9975221778756
 30
0.0
  0
SPLINE
  5
152
330
1F
100
AcDbEntity
  8
0
  6
Continuous
 62
     7
370
    15
100
AcDbSpline
210
0.0
220
0.0
230
1.0
 70
     8
 71
     3
 72
    12
 73
     8
 74
     0
 42
0.00000001
 43
0.00000001
 12
1.0
 22
0.0
 32
0.0
 13
1.0
 23
0.0
 33
0.0
 40
0.0
 40
0.0
 40
0.0
 40
0.0
 40
0.2058522378139672
 40
0.4638331901514325
 40
0.7293041943205357
 40
0.9871260543423929
 40
1.0
 40
1.0
 40
1.0
 40
1.0
 10
134.6278798133285
 20
561.9975221778745
 30
0.0
 10
134.319801523022
 20
562.0085825106294
 30
0.0
 10
133.6256291510005
 20
562.0335040246254
 30
0.0
 10
132.8295771642161
 20
562.0652515961852
 30
0.0
 10
132.3270395388207
 20
562.08533880322
 30
0.0
 10
132.1183040461537
 20
562.0933768182314
 30
0.0
 10
132.1757741888202
 20
562.0900384470007
 30
0.0
 10
132.1785073951651
 20
562.0898796783426
 30
0.0
  0
SPLINE
  5
153
330
1F
100
AcDbEntity
  8
0
  6
Continuous
 62
     7
370
    15
100
AcDbSpline
210
0.0
220
0.0
230
1.0
 70
     8
 71
     3
 72
    11
 73
     7
 74
     0
 42
0.00000001
 43
0.00000001
 12
1.0
 22
0.0
 32
0.0
 13
1.0
 23
0.0
 33
0.0
 40
0.0
 40
0.0
 40
0.0
 40
0.0
 40
0.0873814924325335
 40
0.3452620453401403
 40
0.6106198584125371
 40
1.0
 40
1.0
 40
1.0
 40
1.0
 10
156.6306989515181
 20
562.088460258993
 30
0.0
 10
156.6417731759162
 20
562.0892010384749
 30
0.0
 10
156.6855296884204
 20
562.0921280088434
 30
0.0
 10
156.4013445696859
 20
562.0810165926778
 30
0.0
 10
155.7152769942196
 20
562.0528342070705
 30
0.0
 10
154.7730068010784
 20
562.0181496051313
 30
0.0
 10
154.2126279523991
 20
561.9975222761093
 30
0.0
  0
LINE
  5
154
330
1F
100
AcDbEntity
  8
0
  6
Continuous
 62
     7
370
    15
100
AcDbLine
 10
156.670252476
 20
561.7930091523
 30
0.0
 11
132.170252476
 21
561.7930091523
 31
0.0
  0
LINE
  5
155
330
1F
100
AcDbEntity
  8
0
  6
Continuous
 62
     7
370
    15
100
AcDbLine
 10
139.6244209527
 20
554.6703594215
 30
0.0
 11
139.6244209527
 21
558.0930091523
 31
0.0
  0
LINE
  5
156
330
1F
100
AcDbEntity
  8
0
  6
Continuous
 62
     7
370
    15
100
AcDbLine
 10
139.6244209527
 20
554.6703594215
 30
0.0
 11
132.420252476
 21
554.6703594215
 31
0.0
  0
LINE
  5
157
330
1F
100
AcDbEntity
  8
0
  6
Continuous
 62
     7
370
    15
100
AcDbLine
 10
156.420252476
 20
554.6703594215
 30
0.0
 11
149.2160839993
 21
554.6703594215
 31
0.0
  0
LINE
  5
158
330
1F
100
AcDbEntity
  8
0
  6
Continuous
 62
     7
370
    15
100
AcDbLine
 10
149.2160839993
 20
558.0930091523
 30
0.0
 11
149.2160839993
 21
554.6703594215
 31
0.0
  0
LINE
  5
159
330
1F
100
AcDbEntity
  8
0
  6
Continuous
 62
     7
370
    15
100
AcDbLine
 10
139.6244209527
 20
558.0930091523
 30
0.0
 11
149.2160839993
 21
558.0930091523
 31
0.0
  0
LINE
  5
15A
330
1F
100
AcDbEntity
  8
0
  6
Continuous
 62
     7
370
    15
100
AcDbLine
 10
155.420252476
 20
554.0930091523
 30
0.0
 11
144.420252476
 21
554.0930091523
 31
0.0
  0
SPLINE
  5
15B
330
1F
100
AcDbEntity
  8
0
  6
Continuous
 62
     7
370
    15
100
AcDbSpline
210
0.0
220
0.0
230
1.0
 70
     8
 71
     3
 72
     8
 73
     4
 74
     0
 42
0.00000001
 43
0.00000001
 12
1.0
 22
0.0
 32
0.0
 13
1.0
 23
0.0
 33
0.0
 40
0.0
 40
0.0
 40
0.0
 40
0.0
 40
1.0
 40
1.0
 40
1.0
 40
1.0
 10
149.2160839993217
 20
554.6703594214925
 30
0.0
 10
147.6352975649033
 20
554.305609468206
 30
0.0
 10
146.0387715573864
 20
554.0930091523028
 30
0.0
 10
144.4202524760082
 20
554.0930091523028
 30
0.0
  0
SPLINE
  5
15C
330
1F
100
AcDbEntity
  8
0
  6
Continuous
 62
     7
370
    15
100
AcDbSpline
210
0.0
220
0.0
230
1.0
 70
     8
 71
     3
 72
    10
 73
     6
 74
     0
 42
0.00000001
 43
0.00000001
 12
1.0
 22
0.0
 32
0.0
 13
1.0
 23
0.0
 33
0.0
 40
0.0
 40
0.0
 40
0.0
 40
0.0
 40
0.5
 40
0.5
 40
1.0
 40
1.0
 40
1.0
 40
1.0
 10
144.4202524760082
 20
554.0930091523028
 30
0.0
 10
143.6128776247324
 20
554.0930091523028
 30
0.0
 10
142.7960414878884
 20
554.1459727848732
 30
0.0
 10
141.1945718962419
 20
554.3450231131004
 30
0.0
 10
140.4051615276564
 20
554.4902116911945
 30
0.0
 10
139.6244209526957
 20
554.6703594214922
 30
0.0
  0
LINE
  5
15D
330
1F
100
AcDbEntity
  8
0
  6
Continuous
 62
     7
370
    15
100
AcDbLine
 10
144.420252476
 20
554.0930091523
 30
0.0
 11
133.420252476
 21
554.0930091523
 31
0.0
  0
SPLINE
  5
15E
330
1F
100
AcDbEntity
  8
0
  6
Continuous
 62
     7
370
    15
100
AcDbSpline
210
0.0
220
0.0
230
1.0
 70
     8
 71
     3
 72
     8
 73
     4
 74
     0
 42
0.00000001
 43
0.00000001
 12
1.0
 22
0.0
 32
0.0
 13
1.0
 23
0.0
 33
0.0
 40
0.0
 40
0.0
 40
0.0
 40
0.0
 40
0.0001969058746417
 40
0.0001969058746417
 40
0.0001969058746417
 40
0.0001969058746417
 10
159.6613649598716
 20
562.2512862783963
 30
0.0
 10
159.6613129660082
 20
562.2513521804402
 30
0.0
 10
159.6612607586734
 20
562.2514180704391
 30
0.0
 10
159.6611090828605
 20
562.2514783342
 30
0.0
  0
LINE
  5
15F
330
1F
100
AcDbEntity
  8
0
  6
Continuous
 62
     7
370
    15
100
AcDbLine
 10
159.7468891506
 20
562.1427489726
 30
0.0
 11
159.6612868921
 21
562.2512818626
 31
0.0
  0
LINE
  5
160
330
1F
100
AcDbEntity
  8
0
  6
Continuous
 62
     7
370
    15
100
AcDbLine
 10
129.1792180599
 20
562.2512818626
 30
0.0
 11
129.0936158014
 21
562.1427489726
 31
0.0
  0
SPLINE
  5
161
330
1F
100
AcDbEntity
  8
0
  6
Continuous
 62
     7
370
    15
100
AcDbSpline
210
0.0
220
0.0
230
1.0
 70
     8
 71
     3
 72
     8
 73
     4
 74
     0
 42
0.00000001
 43
0.00000001
 12
1.0
 22
0.0
 32
0.0
 13
1.0
 23
0.0
 33
0.0
 40
0.0
 40
0.0
 40
0.0
 40
0.0
 40
0.0001968990198044
 40
0.0001968990198044
 40
0.0001968990198044
 40
0.0001968990198044
 10
129.1793958533092
 20
562.2514783279063
 30
0.0
 10
129.179244189688
 20
562.2514180658525
 30
0.0
 10
129.1791919842282
 20
562.2513521781442
 30
0.0
 10
129.1791399921469
 20
562.251286278396
 30
0.0
  0
LINE
  5
162
330
1F
100
AcDbEntity
  8
0
  6
Continuous
 62
     7
370
    15
100
AcDbLine
 10
160.6008239642
 20
576.8213602195
 30
0.0
 11
160.6007156765
 21
576.8212096915
 31
0.0
  0
LINE
  5
163
330
1F
100
AcDbEntity
  8
0
  6
Continuous
 62
     7
370
    15
100
AcDbLine
 10
160.6863549741
 20
576.9316146913
 30
0.0
 11
160.6008235595
 21
576.8213649383
 31
0.0
  0
SPLINE
  5
164
330
1F
100
AcDbEntity
  8
0
  6
Continuous
 62
     7
370
    15
100
AcDbSpline
210
0.0
220
0.0
230
1.0
 70
     8
 71
     3
 72
     8
 73
     4
 74
     0
 42
0.00000001
 43
0.00000001
 12
1.0
 22
0.0
 32
0.0
 13
1.0
 23
0.0
 33
0.0
 40
0.0
 40
0.0
 40
0.0
 40
0.0
 40
1.0
 40
1.0
 40
1.0
 40
1.0
 10
160.6863549741402
 20
563.0544036133517
 30
0.0
 10
161.0880617510972
 20
567.6685064916192
 30
0.0
 10
161.0880617510972
 20
572.3175118129867
 30
0.0
 10
160.6863549741402
 20
576.9316146912543
 30
0.0
  0
LINE
  5
165
330
1F
100
AcDbEntity
  8
0
  6
Continuous
 62
     7
370
    15
100
AcDbLine
 10
160.6011561431
 20
563.1642249542
 30
0.0
 11
160.6863549741
 21
563.0544036134
 31
0.0
  0
LINE
  5
166
330
1F
100
AcDbEntity
  8
0
  6
Continuous
 62
     7
370
    15
100
AcDbLine
 10
128.2396812436
 20
576.8213651301
 30
0.0
 11
128.1541499779
 21
576.9316146913
 31
0.0
  0
LINE
  5
167
330
1F
100
AcDbEntity
  8
0
  6
Continuous
 62
     7
370
    15
100
AcDbLine
 10
128.2397892763
 20
576.8212097
 30
0.0
 11
128.2396808398
 21
576.8213604224
 31
0.0
  0
LINE
  5
168
330
1F
100
AcDbEntity
  8
0
  6
Continuous
 62
     7
370
    15
100
AcDbLine
 10
128.1541499779
 20
563.0544036134
 30
0.0
 11
128.2393488089
 21
563.1642249542
 31
0.0
  0
SPLINE
  5
169
330
1F
100
AcDbEntity
  8
0
  6
Continuous
 62
     7
370
    15
100
AcDbSpline
210
0.0
220
0.0
230
1.0
 70
     8
 71
     3
 72
     8
 73
     4
 74
     0
 42
0.00000001
 43
0.00000001
 12
1.0
 22
0.0
 32
0.0
 13
1.0
 23
0.0
 33
0.0
 40
0.0
 40
0.0
 40
0.0
 40
0.0
 40
1.0
 40
1.0
 40
1.0
 40
1.0
 10
128.1541499778785
 20
576.9316146912543
 30
0.0
 10
127.7524432009215
 20
572.3175118129867
 30
0.0
 10
127.7524432009215
 20
567.6685064916192
 30
0.0
 10
128.1541499778785
 20
563.0544036133517
 30
0.0
  0
SPLINE
  5
16A
330
1F
100
AcDbEntity
  8
0
  6
Continuous
 62
     7
370
    15
100
AcDbSpline
210
0.0
220
0.0
230
1.0
 70
     8
 71
     3
 72
    10
 73
     6
 74
     0
 42
0.00000001
 43
0.00000001
 12
1.0
 22
0.0
 32
0.0
 13
1.0
 23
0.0
 33
0.0
 40
0.0
 40
0.0
 40
0.0
 40
0.0
 40
0.5
 40
0.5
 40
1.0
 40
1.0
 40
1.0
 40
1.0
 10
160.600824033618
 20
576.8213603112532
 30
0.0
 10
160.5804747678294
 20
577.0586138100467
 30
0.0
 10
160.4720450220604
 20
577.287300249377
 30
0.0
 10
160.1304263738473
 20
577.6191287635165
 30
0.0
 10
159.8986846528272
 20
577.7208651303407
 30
0.0
 10
159.6609398454461
 20
577.7343092244802
 30
0.0
  0
SPLINE
  5
16B
330
1F
100
AcDbEntity
  8
0
  6
Continuous
 62
     7
370
    15
100
AcDbSpline
210
0.0
220
0.0
230
1.0
 70
     8
 71
     3
 72
    10
 73
     6
 74
     0
 42
0.00000001
 43
0.00000001
 12
1.0
 22
0.0
 32
0.0
 13
1.0
 23
0.0
 33
0.0
 40
0.0
 40
0.0
 40
0.0
 40
0.0
 40
0.5
 40
0.5
 40
1.0
 40
1.0
 40
1.0
 40
1.0
 10
128.2396812436286
 20
576.8213651300761
 30
0.0
 10
128.260030328138
 20
577.0586164041423
 30
0.0
 10
128.3684581783848
 20
577.2873008074843
 30
0.0
 10
128.7100714029278
 20
577.6191284847367
 30
0.0
 10
128.9418096725012
 20
577.7208661063938
 30
0.0
 10
129.1795520657688
 20
577.7343132521678
 30
0.0
  0
LINE
  5
16C
330
1F
100
AcDbEntity
  8
0
  6
Continuous
 62
     7
370
    15
100
AcDbLine
 10
159.6609527366
 20
577.7343130626
 30
0.0
 11
159.7468891506
 21
577.843269332
 31
0.0
  0
SPLINE
  5
16D
330
1F
100
AcDbEntity
  8
0
  6
Continuous
 62
     7
370
    15
100
AcDbSpline
210
0.0
220
0.0
230
1.0
 70
     8
 71
     3
 72
    10
 73
     6
 74
     0
 42
0.00000001
 43
0.00000001
 12
1.0
 22
0.0
 32
0.0
 13
1.0
 23
0.0
 33
0.0
 40
0.0
 40
0.0
 40
0.0
 40
0.0
 40
0.5
 40
0.5
 40
1.0
 40
1.0
 40
1.0
 40
1.0
 10
160.686355042865
 20
576.9316147799
 30
0.0
 10
160.665724678791
 20
577.1685779846363
 30
0.0
 10
160.557227727963
 20
577.3968844644368
 30
0.0
 10
160.2158280055871
 20
577.7281775542336
 30
0.0
 10
159.9843651384282
 20
577.8297668860756
 30
0.0
 10
159.7468890815344
 20
577.8432692444153
 30
0.0
  0
LINE
  5
16E
330
1F
100
AcDbEntity
  8
0
  6
Continuous
 62
     7
370
    15
100
AcDbLine
 10
128.7596293496
 20
577.7632373998
 30
0.0
 11
129.0936158705
 21
577.8432692444
 31
0.0
  0
LINE
  5
16F
330
1F
100
AcDbEntity
  8
0
  6
Continuous
 62
     7
370
    15
100
AcDbLine
 10
129.0936158014
 20
577.843269332
 30
0.0
 11
129.1795520658
 21
577.7343132522
 31
0.0
  0
SPLINE
  5
170
330
1F
100
AcDbEntity
  8
0
  6
Continuous
 62
     7
370
    15
100
AcDbSpline
210
0.0
220
0.0
230
1.0
 70
     8
 71
     3
 72
     8
 73
     4
 74
     0
 42
0.00000001
 43
0.00000001
 12
1.0
 22
0.0
 32
0.0
 13
1.0
 23
0.0
 33
0.0
 40
0.0
 40
0.0
 40
0.0
 40
0.0
 40
1.0
 40
1.0
 40
1.0
 40
1.0
 10
159.7468891505851
 20
577.843269332022
 30
0.0
 10
149.5401204387353
 20
578.4235955820417
 30
0.0
 10
139.3003845132834
 20
578.4235955820417
 30
0.0
 10
129.0936158014335
 20
577.843269332022
 30
0.0
  0
SPLINE
  5
171
330
1F
100
AcDbEntity
  8
0
  6
Continuous
 62
     7
370
    15
100
AcDbSpline
210
0.0
220
0.0
230
1.0
 70
     8
 71
     3
 72
    10
 73
     6
 74
     0
 42
0.00000001
 43
0.00000001
 12
1.0
 22
0.0
 32
0.0
 13
1.0
 23
0.0
 33
0.0
 40
0.0
 40
0.0
 40
0.0
 40
0.0
 40
0.5
 40
0.5
 40
1.0
 40
1.0
 40
1.0
 40
1.0
 10
129.1792180598899
 20
562.25128186264
 30
0.0
 10
128.9414767022475
 20
562.2647292234105
 30
0.0
 10
128.7097395037104
 20
562.3664662682538
 30
0.0
 10
128.3681271085103
 20
562.6982918662012
 30
0.0
 10
128.2596989885204
 20
562.9269747996934
 30
0.0
 10
128.239348808892
 20
563.1642249542452
 30
0.0
  0
SPLINE
  5
172
330
1F
100
AcDbEntity
  8
0
  6
Continuous
 62
     7
370
    15
100
AcDbSpline
210
0.0
220
0.0
230
1.0
 70
     8
 71
     3
 72
    10
 73
     6
 74
     0
 42
0.00000001
 43
0.00000001
 12
1.0
 22
0.0
 32
0.0
 13
1.0
 23
0.0
 33
0.0
 40
0.0
 40
0.0
 40
0.0
 40
0.0
 40
0.5
 40
0.5
 40
1.0
 40
1.0
 40
1.0
 40
1.0
 10
159.6613649596472
 20
562.2512862786807
 30
0.0
 10
159.8990995897067
 20
562.264733327945
 30
0.0
 10
160.1308304691445
 20
562.3664648865222
 30
0.0
 10
160.472439810663
 20
562.6982742971086
 30
0.0
 10
160.5808713707064
 20
562.9269467551374
 30
0.0
 10
160.6012304923355
 20
563.164189383278
 30
0.0
  0
SPLINE
  5
173
330
1F
100
AcDbEntity
  8
0
  6
Continuous
 62
     7
370
    15
100
AcDbSpline
210
0.0
220
0.0
230
1.0
 70
     8
 71
     3
 72
    10
 73
     6
 74
     0
 42
0.00000001
 43
0.00000001
 12
1.0
 22
0.0
 32
0.0
 13
1.0
 23
0.0
 33
0.0
 40
0.0
 40
0.0
 40
0.0
 40
0.0
 40
0.5
 40
0.5
 40
1.0
 40
1.0
 40
1.0
 40
1.0
 10
129.0936168171573
 20
562.1427490942868
 30
0.0
 10
128.8561404502337
 20
562.1562514221831
 30
0.0
 10
128.6246772751365
 20
562.257840960933
 30
0.0
 10
128.2832773500461
 20
562.589134725802
 30
0.0
 10
128.1747805126597
 20
562.8174416637748
 30
0.0
 10
128.154150511703
 20
563.0544052090888
 30
0.0
  0
SPLINE
  5
174
330
1F
100
AcDbEntity
  8
0
  6
Continuous
 62
     7
370
    15
100
AcDbSpline
210
0.0
220
0.0
230
1.0
 70
     8
 71
     3
 72
    10
 73
     6
 74
     0
 42
0.00000001
 43
0.00000001
 12
1.0
 22
0.0
 32
0.0
 13
1.0
 23
0.0
 33
0.0
 40
0.0
 40
0.0
 40
0.0
 40
0.0
 40
0.5
 40
0.5
 40
1.0
 40
1.0
 40
1.0
 40
1.0
 10
159.7468890815344
 20
562.1427490601907
 30
0.0
 10
159.9843651384282
 20
562.1562514185305
 30
0.0
 10
160.2158280055871
 20
562.2578407503723
 30
0.0
 10
160.557227727963
 20
562.5891338401692
 30
0.0
 10
160.665724678791
 20
562.8174403199697
 30
0.0
 10
160.686355042865
 20
563.054403524706
 30
0.0
  0
CIRCLE
  5
175
330
1F
100
AcDbEntity
  8
0
  6
Continuous
 62
     7
370
    15
100
AcDbCircle
 10
144.4310810189
 20
403.9580490004
 30
0.0
 40
22.99986597213478
  0
CIRCLE
  5
176
330
1F
100
AcDbEntity
  8
0
  6
Continuous
 62
     7
370
    15
100
AcDbCircle
 10
144.4329135354
 20
403.9520379628
 30
0.0
 40
21.49987098524489
  0
LINE
  5
177
330
1F
100
AcDbEntity
  8
0
  6
Continuous
 62
     7
370
    15
100
AcDbLine
 10
127.9686586588
 20
420.0435959046
 30
0.0
 11
127.9637599382
 21
420.0596188977
 31
0.0
  0
SPLINE
  5
178
330
1F
100
AcDbEntity
  8
0
  6
Continuous
 62
     7
370
    15
100
AcDbSpline
210
0.0
220
0.0
230
1.0
 70
     8
 71
     3
 72
    22
 73
    18
 74
     0
 42
0.00000001
 43
0.00000001
 12
1.0
 22
0.0
 32
0.0
 13
1.0
 23
0.0
 33
0.0
 40
0.0
 40
0.0
 40
0.0
 40
0.0
 40
0.125
 40
0.125
 40
0.25
 40
0.25
 40
0.375
 40
0.375
 40
0.5
 40
0.5
 40
0.625
 40
0.625
 40
0.75
 40
0.75
 40
0.875
 40
0.875
 40
1.0
 40
1.0
 40
1.0
 40
1.0
 10
130.2372885553285
 20
422.0632798579085
 30
0.0
 10
130.0803203290317
 20
421.9402009265146
 30
0.0
 10
129.9279118329514
 20
421.8175052439576
 30
0.0
 10
129.6314108770949
 20
421.5729285937691
 30
0.0
 10
129.4861033268832
 20
421.4499851160805
 30
0.0
 10
129.209405077173
 20
421.2104577632182
 30
0.0
 10
129.0798786344181
 20
421.0955551213321
 30
0.0
 10
128.8370157960959
 20
420.8759149735313
 30
0.0
 10
128.7225414700799
 20
420.7700860852318
 30
0.0
 10
128.5167528647887
 20
420.576780501284
 30
0.0
 10
128.425377917869
 20
420.4893113913596
 30
0.0
 10
128.2647665002804
 20
420.3338964343792
 30
0.0
 10
128.1949863625298
 20
420.2654012497068
 30
0.0
 10
128.083648395516
 20
420.1556264211842
 30
0.0
 10
128.0414206540038
 20
420.1137127805182
 30
0.0
 10
127.9839167921327
 20
420.0571610124549
 30
0.0
 10
127.9689029681852
 20
420.042796804608
 30
0.0
 10
127.9686586588051
 20
420.0435959045835
 30
0.0
  0
ARC
  5
179
330
1F
100
AcDbEntity
  8
0
  6
Continuous
 62
     7
370
    15
100
AcDbCircle
 10
144.4292339366
 20
403.9636321184
 30
0.0
 40
23.00018612966491
100
AcDbArc
 50
85.8999828921
 51
128.1000171079
  0
SPLINE
  5
17A
330
1F
100
AcDbEntity
  8
0
  6
Continuous
 62
     7
370
    15
100
AcDbSpline
210
0.0
220
0.0
230
1.0
 70
     8
 71
     3
 72
    20
 73
    16
 74
     0
 42
0.00000001
 43
0.00000001
 12
1.0
 22
0.0
 32
0.0
 13
1.0
 23
0.0
 33
0.0
 40
0.0
 40
0.0
 40
0.0
 40
0.0
 40
0.1250000000000012
 40
0.1250000000000012
 40
0.2500000000000024
 40
0.2500000000000024
 40
0.5000000000000058
 40
0.5000000000000058
 40
0.6250000000000043
 40
0.6250000000000043
 40
0.7500000000000029
 40
0.7500000000000029
 40
0.8750000000000014
 40
0.8750000000000014
 40
1.0
 40
1.0
 40
1.0
 40
1.0
 10
149.083867670469
 20
426.4991631448616
 30
0.0
 10
149.0841114897606
 20
426.4983656478931
 30
0.0
 10
149.0641926350263
 20
426.5017773249706
 30
0.0
 10
148.9857746081231
 20
426.5163332128146
 30
0.0
 10
148.9263013338487
 20
426.527661307946
 30
0.0
 10
148.6960783126692
 20
426.5707283808937
 30
0.0
 10
148.4696602155559
 20
426.6122748025571
 30
0.0
 10
148.0533168941448
 20
426.6797730106318
 30
0.0
 10
147.8995914155456
 20
426.7034556763944
 30
0.0
 10
147.5738965823894
 20
426.7499610349999
 30
0.0
 10
147.4022945273478
 20
426.7727672045348
 30
0.0
 10
147.0412976773274
 20
426.8163456533109
 30
0.0
 10
146.8509518235648
 20
426.8371627378485
 30
0.0
 10
146.4673384860498
 20
426.8742289235103
 30
0.0
 10
146.2722669348888
 20
426.8907214025957
 30
0.0
 10
146.0736953140764
 20
426.904955288117
 30
0.0
  0
LINE
  5
17B
330
1F
100
AcDbEntity
  8
0
  6
Continuous
 62
     7
370
    15
100
AcDbLine
 10
149.0789689499
 20
426.515186138
 30
0.0
 11
149.0838676705
 21
426.4991631449
 31
0.0
  0
SPLINE
  5
17C
330
1F
100
AcDbEntity
  8
0
  6
Continuous
 62
     7
370
    15
100
AcDbSpline
210
0.0
220
0.0
230
1.0
 70
     8
 71
     3
 72
     9
 73
     5
 74
     0
 42
0.00000001
 43
0.00000001
 12
1.0
 22
0.0
 32
0.0
 13
1.0
 23
0.0
 33
0.0
 40
0.0
 40
0.0
 40
0.0
 40
0.0
 40
0.6273480928400502
 40
1.0
 40
1.0
 40
1.0
 40
1.0
 10
166.3371133146419
 20
410.7989584578677
 30
0.0
 10
166.0627080596868
 20
411.6783820326581
 30
0.0
 10
165.6253029602103
 20
413.0801932198239
 30
0.0
 10
164.9544904912224
 20
414.3893763117124
 30
0.0
 10
164.7045109453074
 20
414.8772458877262
 30
0.0
  0
SPLINE
  5
17D
330
1F
100
AcDbEntity
  8
0
  6
Continuous
 62
     7
370
    15
100
AcDbSpline
210
0.0
220
0.0
230
1.0
 70
     8
 71
     3
 72
     9
 73
     5
 74
     0
 42
0.00000001
 43
0.00000001
 12
1.0
 22
0.0
 32
0.0
 13
1.0
 23
0.0
 33
0.0
 40
0.0
 40
0.0
 40
0.0
 40
0.0
 40
0.7976652510972432
 40
1.0
 40
1.0
 40
1.0
 40
1.0
 10
121.5174521313992
 20
401.6736369663548
 30
0.0
 10
121.6600192916574
 20
400.5021265124149
 30
0.0
 10
121.8387498557155
 20
399.0334522128534
 30
0.0
 10
122.3425972047928
 20
397.6616032272202
 30
0.0
 10
122.4445430316537
 20
397.3840305071796
 30
0.0
  0
ARC
  5
17E
330
1F
100
AcDbEntity
  8
0
  6
Continuous
 62
     7
370
    15
100
AcDbCircle
 10
144.3901301032
 20
404.0921648272
 30
0.0
 40
22.99982700975989
100
AcDbArc
 50
27.9642203581
 51
80.1455950954
  0
ARC
  5
17F
330
1F
100
AcDbEntity
  8
0
  6
Continuous
 62
     7
370
    15
100
AcDbCircle
 10
144.3897735631
 20
404.0920577393
 30
0.0
 40
22.99982275386308
100
AcDbArc
 50
135.1121521734
 51
186.0357822405
  0
ARC
  5
180
330
1F
100
AcDbEntity
  8
0
  6
Continuous
 62
     7
370
    15
100
AcDbCircle
 10
-135.3851056945
 20
215.7037553715
 30
0.0
 40
336.3621703956665
100
AcDbArc
 50
37.8432958165
 51
38.1853045499
  0
ARC
  5
181
330
1F
100
AcDbEntity
  8
0
  6
Continuous
 62
     7
370
    15
100
AcDbCircle
 10
126.5376642263
 20
421.4407860981
 30
0.0
 40
1.99996790284085
100
AcDbArc
 50
353.9804736454
 51
16.9999906811
  0
ARC
  5
182
330
1F
100
AcDbEntity
  8
0
  6
Continuous
 62
     7
370
    15
100
AcDbCircle
 10
481.679421914
 20
404.3593139018
 30
0.0
 40
336.3621703939959
100
AcDbArc
 50
175.8146954501
 51
176.1567041835
  0
ARC
  5
183
330
1F
100
AcDbEntity
  8
0
  6
Continuous
 62
     7
370
    15
100
AcDbCircle
 10
149.4889214274
 20
428.4576907103
 30
0.0
 40
1.999972877196903
100
AcDbArc
 50
197.0000396673
 51
237.6206471138
  0
ARC
  5
184
330
1F
100
AcDbEntity
  8
0
  6
Continuous
 62
     7
370
    15
100
AcDbCircle
 10
128.1576388342
 20
474.2871996774
 30
0.0
 40
3.999982454177675
100
AcDbArc
 50
17.0002513292
 51
107.000251327
  0
ARC
  5
185
330
1F
100
AcDbEntity
  8
0
  6
Continuous
 62
     7
370
    15
100
AcDbCircle
 10
128.1564196313
 20
474.2912025133
 30
0.0
 40
4.999978067722312
100
AcDbArc
 50
17.0002513293
 51
107.000251327
  0
LINE
  5
186
330
1F
100
AcDbEntity
  8
0
  6
Continuous
 62
     7
370
    15
100
AcDbLine
 10
126.988140366
 20
478.1123967922
 30
0.0
 11
117.4250928064
 21
475.1886797449
 31
0.0
  0
LINE
  5
187
330
1F
100
AcDbEntity
  8
0
  6
Continuous
 62
     7
370
    15
100
AcDbLine
 10
117.1314989865
 20
476.1489818595
 30
0.0
 11
126.6945465461
 21
479.0726989068
 31
0.0
  0
ARC
  5
188
330
1F
100
AcDbEntity
  8
0
  6
Continuous
 62
     7
370
    15
100
AcDbCircle
 10
118.5945577162
 20
471.3634723704
 30
0.0
 40
3.999982454177673
100
AcDbArc
 50
106.999748673
 51
196.9997486708
  0
ARC
  5
189
330
1F
100
AcDbEntity
  8
0
  6
Continuous
 62
     7
370
    15
100
AcDbCircle
 10
118.5933301237
 20
471.3674726413
 30
0.0
 40
4.999978067722195
100
AcDbArc
 50
106.999748673
 51
196.9997486708
  0
LINE
  5
18A
330
1F
100
AcDbEntity
  8
0
  6
Continuous
 62
     7
370
    15
100
AcDbLine
 10
146.2142524534
 20
428.9078322071
 30
0.0
 11
131.9828359489
 21
475.4566981457
 31
0.0
  0
LINE
  5
18B
330
1F
100
AcDbEntity
  8
0
  6
Continuous
 62
     7
370
    15
100
AcDbLine
 10
114.7693503415
 20
470.1940074607
 30
0.0
 11
129.0007668461
 21
423.645141522
 31
0.0
  0
LINE
  5
18C
330
1F
100
AcDbEntity
  8
0
  6
Continuous
 62
     7
370
    15
100
AcDbLine
 10
132.9379160247
 20
475.7530755987
 30
0.0
 11
147.5763382579
 21
427.8729539067
 31
0.0
  0
LINE
  5
18D
330
1F
100
AcDbEntity
  8
0
  6
Continuous
 62
     7
370
    15
100
AcDbLine
 10
128.4502431387
 20
422.0255198122
 30
0.0
 11
113.8118209054
 21
469.9056415043
 31
0.0
  0
ARC
  5
18E
330
1F
100
AcDbEntity
  8
0
  6
Continuous
 62
     7
370
    15
100
AcDbCircle
 10
128.1515209107
 20
474.3072255065
 30
0.0
 40
4.999978067722174
100
AcDbArc
 50
17.0002513292
 51
107.000251327
  0
LINE
  5
18F
330
1F
100
AcDbEntity
  8
0
  6
Continuous
 62
     7
370
    15
100
AcDbLine
 10
132.9330173041
 20
475.7690985919
 30
0.0
 11
132.9379160247
 21
475.7530755987
 31
0.0
  0
LINE
  5
190
330
1F
100
AcDbEntity
  8
0
  6
Continuous
 62
     7
370
    15
100
AcDbLine
 10
126.6896478255
 20
479.0887218999
 30
0.0
 11
117.1266002659
 21
476.1650048527
 31
0.0
  0
LINE
  5
191
330
1F
100
AcDbEntity
  8
0
  6
Continuous
 62
     7
370
    15
100
AcDbLine
 10
113.8118209054
 20
469.9056415043
 30
0.0
 11
113.8069221848
 21
469.9216644974
 31
0.0
  0
ARC
  5
192
330
1F
100
AcDbEntity
  8
0
  6
Continuous
 62
     7
370
    15
100
AcDbCircle
 10
118.5884314031
 20
471.3834956344
 30
0.0
 40
4.999978067722084
100
AcDbArc
 50
106.999748673
 51
196.9997486708
  0
ARC
  5
193
330
1F
100
AcDbEntity
  8
0
  6
Continuous
 62
     7
370
    15
100
AcDbCircle
 10
149.4840222598
 20
428.4737134551
 30
0.0
 40
1.999972377172291
100
AcDbArc
 50
197.0000366087
 51
235.4473114143
  0
ARC
  5
194
330
1F
100
AcDbEntity
  8
0
  6
Continuous
 62
     7
370
    15
100
AcDbCircle
 10
126.5327595071
 20
421.4568085683
 30
0.0
 40
1.999973792189033
100
AcDbArc
 50
332.559075896
 51
16.9999547631
  0
LINE
  5
195
330
1F
100
AcDbEntity
  8
0
  6
Continuous
 62
     7
370
    15
100
AcDbLine
 10
128.1532504947
 20
576.9255084272
 30
0.0
 11
128.147310083
 21
576.8852192468
 31
0.0
  0
LINE
  5
196
330
1F
100
AcDbEntity
  8
0
  6
Continuous
 62
     7
370
    15
100
AcDbLine
 10
160.6930666959
 20
576.8876832621
 30
0.0
 11
160.687251815
 21
576.9257395628
 31
0.0
  0
SPLINE
  5
197
330
1F
100
AcDbEntity
  8
0
  6
Continuous
 62
     7
370
    15
100
AcDbSpline
210
0.0
220
0.0
230
1.0
 70
     8
 71
     3
 72
    40
 73
    36
 74
     0
 42
0.00000001
 43
0.00000001
 12
1.0
 22
0.0
 32
0.0
 13
1.0
 23
0.0
 33
0.0
 40
0.0
 40
0.0
 40
0.0
 40
0.0
 40
0.0625000000000005
 40
0.0625000000000005
 40
0.1250000000000011
 40
0.1250000000000011
 40
0.1875000000000016
 40
0.1875000000000016
 40
0.218750000000002
 40
0.218750000000002
 40
0.2500000000000024
 40
0.2500000000000024
 40
0.3750000000000041
 40
0.3750000000000041
 40
0.4062500000000046
 40
0.4062500000000046
 40
0.4375000000000051
 40
0.4375000000000051
 40
0.5000000000000054
 40
0.5000000000000054
 40
0.6250000000000063
 40
0.6250000000000063
 40
0.6406250000000061
 40
0.6406250000000061
 40
0.6562500000000059
 40
0.6562500000000059
 40
0.6875000000000054
 40
0.6875000000000054
 40
0.7500000000000046
 40
0.7500000000000046
 40
0.8125000000000037
 40
0.8125000000000037
 40
0.8750000000000027
 40
0.8750000000000027
 40
1.0
 40
1.0
 40
1.0
 40
1.0
 10
129.0936167481043
 20
562.1427490066765
 30
0.0
 10
129.0921914318695
 20
562.1409406488922
 30
0.0
 10
129.0907481094635
 20
562.1386656180932
 30
0.0
 10
129.0867200777145
 20
562.0771278060516
 30
0.0
 10
129.0841373524281
 20
562.0180297835676
 30
0.0
 10
129.0770116801862
 20
561.7954280511481
 30
0.0
 10
129.0724698507403
 20
561.6321089335516
 30
0.0
 10
129.0637522437742
 20
561.27561195836
 30
0.0
 10
129.0605306856364
 20
561.1382009728308
 30
0.0
 10
129.0534029666132
 20
560.8204504246532
 30
0.0
 10
129.0494922970616
 20
560.6398624571156
 30
0.0
 10
129.0283390427142
 20
559.624940521182
 30
0.0
 10
129.0060677934657
 20
558.4525841414442
 30
0.0
 10
128.9725308395425
 20
556.3624038288002
 30
0.0
 10
128.9655538519693
 20
555.9132351413446
 30
0.0
 10
128.951329500094
 20
554.9625191074584
 30
0.0
 10
128.9440580748741
 20
554.4594990362497
 30
0.0
 10
128.921910608476
 20
552.8656072087089
 30
0.0
 10
128.9066875288161
 20
551.689151672473
 30
0.0
 10
128.8609973125251
 20
547.8064923006118
 30
0.0
 10
128.8321128318095
 20
544.8762836993026
 30
0.0
 10
128.8044141399663
 20
541.242470519109
 30
0.0
 10
128.8013968858486
 20
540.8332845443742
 30
0.0
 10
128.7955419867489
 20
540.0115149911244
 30
0.0
 10
128.7927002779062
 20
539.5984459505391
 30
0.0
 10
128.78443370656
 20
538.3529890582927
 30
0.0
 10
128.7792676605903
 20
537.5143566615213
 30
0.0
 10
128.7648054003685
 20
534.9756693570853
 30
0.0
 10
128.7565493017958
 20
533.2528554176407
 30
0.0
 10
128.7427118806622
 20
529.7567597579084
 30
0.0
 10
128.7371296149743
 20
527.9824814318878
 30
0.0
 10
128.7284023123707
 20
524.3970656559512
 30
0.0
 10
128.7252910575384
 20
522.6010137920831
 30
0.0
 10
128.7188519223
 20
517.2058664581289
 30
0.0
 10
128.718599972905
 20
513.5995727529995
 30
0.0
 10
128.7185999728778
 20
509.9930091523029
 30
0.0
  0
SPLINE
  5
198
330
1F
100
AcDbEntity
  8
0
  6
Continuous
 62
     7
370
    15
100
AcDbSpline
210
0.0
220
0.0
230
1.0
 70
     8
 71
     3
 72
    18
 73
    14
 74
     0
 42
0.00000001
 43
0.00000001
 12
1.0
 22
0.0
 32
0.0
 13
1.0
 23
0.0
 33
0.0
 40
0.0
 40
0.0
 40
0.0
 40
0.0
 40
0.0637355994256898
 40
0.1279715923531501
 40
0.2234370392900703
 40
0.3215029182844331
 40
0.4043445262808413
 40
0.4890115857716144
 40
0.5976855775545894
 40
0.7091561168568834
 40
0.790518025765757
 40
0.8723354931152347
 40
0.9999999999999999
 40
0.9999999999999999
 40
0.9999999999999999
 40
0.9999999999999999
 10
128.0203676813446
 20
533.9262069758145
 30
0.0
 10
128.0214880951306
 20
535.1737986356784
 30
0.0
 10
128.0237377191646
 20
537.6787769014815
 30
0.0
 10
128.0294360025187
 20
541.8883219669665
 30
0.0
 10
128.0383680533506
 20
546.477864437093
 30
0.0
 10
128.0514811215517
 20
550.8644017463679
 30
0.0
 10
128.0668824239733
 20
554.4603576215021
 30
0.0
 10
128.0847977393177
 20
557.5354845276572
 30
0.0
 10
128.1053113237722
 20
560.0584631015352
 30
0.0
 10
128.1233994966546
 20
561.645638807921
 30
0.0
 10
128.1361378450173
 20
562.4935419059098
 30
0.0
 10
128.1461865287434
 20
562.9861695754965
 30
0.0
 10
128.149706939714
 20
563.0006422006068
 30
0.0
 10
128.1518523822143
 20
563.0094622461253
 30
0.0
  0
SPLINE
  5
199
330
1F
100
AcDbEntity
  8
0
  6
Continuous
 62
     7
370
    15
100
AcDbSpline
210
0.0
220
0.0
230
1.0
 70
     8
 71
     3
 72
    40
 73
    36
 74
     0
 42
0.00000001
 43
0.00000001
 12
1.0
 22
0.0
 32
0.0
 13
1.0
 23
0.0
 33
0.0
 40
0.0
 40
0.0
 40
0.0
 40
0.0
 40
0.1250000000000007
 40
0.1250000000000007
 40
0.1875000000000005
 40
0.1875000000000005
 40
0.2500000000000004
 40
0.2500000000000004
 40
0.3125000000000002
 40
0.3125000000000002
 40
0.3437500000000002
 40
0.3437500000000002
 40
0.3593750000000001
 40
0.3593750000000001
 40
0.3750000000000001
 40
0.3750000000000001
 40
0.4999999999999997
 40
0.4999999999999997
 40
0.5624999999999991
 40
0.5624999999999991
 40
0.593749999999999
 40
0.593749999999999
 40
0.624999999999999
 40
0.624999999999999
 40
0.7499999999999989
 40
0.7499999999999989
 40
0.7812499999999989
 40
0.7812499999999989
 40
0.812499999999999
 40
0.812499999999999
 40
0.8749999999999993
 40
0.8749999999999993
 40
0.9374999999999997
 40
0.9374999999999997
 40
1.0
 40
1.0
 40
1.0
 40
1.0
 10
160.1219049791409
 20
509.9930091523029
 30
0.0
 10
160.121904979109
 20
513.5994985223384
 30
0.0
 10
160.1216530427906
 20
517.2057177692552
 30
0.0
 10
160.1152143010787
 20
522.6007420072268
 30
0.0
 10
160.1121032376368
 20
524.3967509810818
 30
0.0
 10
160.1033764928068
 20
527.982075713767
 30
0.0
 10
160.0977943106026
 20
529.7563941079089
 30
0.0
 10
160.0839574306397
 20
533.2524583089768
 30
0.0
 10
160.0757016822843
 20
534.9752459337145
 30
0.0
 10
160.0612401670932
 20
537.5138767589475
 30
0.0
 10
160.0560744063386
 20
538.3524875036471
 30
0.0
 10
160.0478083325904
 20
539.5979076220049
 30
0.0
 10
160.0449668012544
 20
540.0109636892705
 30
0.0
 10
160.0391122829813
 20
540.8327058637378
 30
0.0
 10
160.036095142283
 20
541.2418899669041
 30
0.0
 10
160.0083969553252
 20
544.8757503809176
 30
0.0
 10
159.9795130550173
 20
547.805968311017
 30
0.0
 10
159.9338240346478
 20
551.6886219531035
 30
0.0
 10
159.9186051933999
 20
552.864758182446
 30
0.0
 10
159.8964693879278
 20
554.4579132144596
 30
0.0
 10
159.8892026599591
 20
554.9606487209857
 30
0.0
 10
159.8749888792692
 20
555.9107619395804
 30
0.0
 10
159.8680217771268
 20
556.3593753799337
 30
0.0
 10
159.834450290153
 20
558.4519963551244
 30
0.0
 10
159.8121818243461
 20
559.6240784519008
 30
0.0
 10
159.791036442915
 20
560.6387456996347
 30
0.0
 10
159.7871275777205
 20
560.8192833588034
 30
0.0
 10
159.7799933901799
 20
561.1373744910549
 30
0.0
 10
159.7767691456294
 20
561.2749211913111
 30
0.0
 10
159.7680447500069
 20
561.631751416624
 30
0.0
 10
159.763500072133
 20
561.7951958949678
 30
0.0
 10
159.7563705066118
 20
562.017958667281
 30
0.0
 10
159.7537867404163
 20
562.0770915046177
 30
0.0
 10
159.7497573841226
 20
562.1386651318555
 30
0.0
 10
159.7483137901
 20
562.1409403063906
 30
0.0
 10
159.7468882039144
 20
562.1427490066765
 30
0.0
  0
SPLINE
  5
19A
330
1F
100
AcDbEntity
  8
0
  6
Continuous
 62
     7
370
    15
100
AcDbSpline
210
0.0
220
0.0
230
1.0
 70
     8
 71
     3
 72
    19
 73
    15
 74
     0
 42
0.00000001
 43
0.00000001
 12
1.0
 22
0.0
 32
0.0
 13
1.0
 23
0.0
 33
0.0
 40
0.0
 40
0.0
 40
0.0
 40
0.0
 40
0.1228129226195605
 40
0.2039157781673631
 40
0.2853793455130484
 40
0.3947376371454375
 40
0.5065375119010906
 40
0.5913846023218752
 40
0.6781273006731435
 40
0.7735842176934096
 40
0.8717690651638145
 40
0.9339782252485511
 40
0.9966902175608693
 40
1.0
 40
1.0
 40
1.0
 40
1.0
 10
160.6886938431626
 20
563.0102085353238
 30
0.0
 10
160.6907529527986
 20
563.0017808456904
 30
0.0
 10
160.6941718515171
 20
562.9877877018656
 30
0.0
 10
160.7038379773546
 20
562.5232783853504
 30
0.0
 10
160.7162416016888
 20
561.7103751435275
 30
0.0
 10
160.7341668302066
 20
560.1625111024209
 30
0.0
 10
160.7547261123976
 20
557.6805547259542
 30
0.0
 10
160.7731499566376
 20
554.5608161659765
 30
0.0
 10
160.7886917214247
 20
550.9615981654683
 30
0.0
 10
160.8019974765324
 20
546.5243730828246
 30
0.0
 10
160.8109951339351
 20
541.9846526966719
 30
0.0
 10
160.8164712309598
 20
537.7714972457188
 30
0.0
 10
160.819295309425
 20
535.3068021169659
 30
0.0
 10
160.8200572199144
 20
533.9863573059288
 30
0.0
 10
160.8200954157668
 20
533.9201611901191
 30
0.0
  0
SPLINE
  5
19B
330
1F
100
AcDbEntity
  8
0
  6
Continuous
 62
     7
370
    15
100
AcDbSpline
210
0.0
220
0.0
230
1.0
 70
    24
 71
     3
 72
     9
 73
     5
 74
     0
 42
0.00000001
 43
0.00000001
 12
1.0
 22
0.0
 32
0.0
 13
1.0
 23
0.0
 33
0.0
 40
0.0
 40
0.0
 40
0.0
 40
0.0
 40
0.8148857002216299
 40
1.0
 40
1.0
 40
1.0
 40
1.0
 10
121.4202524760094
 20
372.993009152303
 30
0.0
 10
121.4498287863111
 20
372.993009152303
 30
0.0
 10
121.4861238278043
 20
372.993009152303
 30
0.0
 10
122.0543300628264
 20
372.993009152303
 30
0.0
 10
122.1595131621522
 20
372.993009152303
 30
0.0
  0
LINE
  5
19C
330
1F
100
AcDbEntity
  8
0
  6
Continuous
 62
     7
370
    15
100
AcDbLine
 10
167.420252476
 20
372.9930091523
 30
0.0
 11
167.420252476
 21
403.9930091523
 31
0.0
  0
SPLINE
  5
19D
330
1F
100
AcDbEntity
  8
0
  6
Continuous
 62
     7
370
    15
100
AcDbSpline
210
0.0
220
0.0
230
1.0
 70
     8
 71
     3
 72
    54
 73
    50
 74
     0
 42
0.00000001
 43
0.00000001
 12
1.0
 22
0.0
 32
0.0
 13
1.0
 23
0.0
 33
0.0
 40
0.0
 40
0.0
 40
0.0
 40
0.0
 40
0.013557357132864
 40
0.0270300355591059
 40
0.0404199151410988
 40
0.0537290233973214
 40
0.0669594966989505
 40
0.0801135475590879
 40
0.0931934380472883
 40
0.1062014593094236
 40
0.119139917126115
 40
0.1320111234018278
 40
0.1448173934416162
 40
0.1575610488437841
 40
0.1702444258147177
 40
0.1828698886967977
 40
0.195439848491289
 40
0.2079567861547879
 40
0.2204232804491634
 40
0.2328420401297691
 40
0.2452159402635364
 40
0.2575480505837752
 40
0.2698414693691782
 40
0.2820991656852004
 40
0.2943240216110058
 40
0.3065188476451806
 40
0.3186863950740575
 40
0.3308293666103128
 40
0.3429504253951939
 40
0.3550522024402801
 40
0.3671373025665454
 40
0.3792083088804342
 40
0.391267785809282
 40
0.4033183799775715
 40
0.4153757280294783
 40
0.4274676500729616
 40
0.439598969147309
 40
0.4517563432870098
 40
0.4639179482430211
 40
0.4760631155238783
 40
0.4881819841476567
 40
0.5002852340632139
 40
0.6013950264318144
 40
0.7064622671077694
 40
0.8192359137032673
 40
0.9457663627232956
 40
0.9634416921917766
 40
0.9815157724982022
 40
1.0
 40
1.0
 40
1.0
 40
1.0
 10
167.4203683665779
 20
372.9929332703185
 30
0.0
 10
167.4192894510587
 20
372.9929453977661
 30
0.0
 10
167.4171383588831
 20
372.9929695769138
 30
0.0
 10
167.4010263237755
 20
372.9929907138667
 30
0.0
 10
167.3756260167478
 20
372.9930049674703
 30
0.0
 10
167.3401684158499
 20
372.9930134611897
 30
0.0
 10
167.2950555519784
 20
372.9930184119569
 30
0.0
 10
167.240389449056
 20
372.9930211001899
 30
0.0
 10
167.1763593484212
 20
372.9930225631431
 30
0.0
 10
167.1031358675505
 20
372.9930235357287
 30
0.0
 10
167.0208963988716
 20
372.9930245621921
 30
0.0
 10
166.929815885305
 20
372.9930260349159
 30
0.0
 10
166.8300669851315
 20
372.9930282272369
 30
0.0
 10
166.7218178917564
 20
372.9930313048449
 30
0.0
 10
166.6052308947152
 20
372.9930353224065
 30
0.0
 10
166.480460827839
 20
372.9930402053848
 30
0.0
 10
166.3476536291886
 20
372.993045721061
 30
0.0
 10
166.2069448565927
 20
372.9930514322174
 30
0.0
 10
166.0584584709752
 20
372.993056663657
 30
0.0
 10
165.9023047294416
 20
372.9930603749269
 30
0.0
 10
165.7385814800963
 20
372.9930613392169
 30
0.0
 10
165.5673640291093
 20
372.9930571474372
 30
0.0
 10
165.3887584284238
 20
372.9930490575593
 30
0.0
 10
165.2028817293354
 20
372.9930396456609
 30
0.0
 10
165.0098362827027
 20
372.9930303452379
 30
0.0
 10
164.8097169827984
 20
372.9930222062572
 30
0.0
 10
164.6026102092702
 20
372.9930158274876
 30
0.0
 10
164.3885950079499
 20
372.9930114863598
 30
0.0
 10
164.1677436657796
 20
372.9930091936847
 30
0.0
 10
163.9401224410712
 20
372.9930087563316
 30
0.0
 10
163.7057922492095
 20
372.9930097994896
 30
0.0
 10
163.4648093610948
 20
372.9930118708235
 30
0.0
 10
163.2172254210271
 20
372.9930141977225
 30
0.0
 10
162.9629966263581
 20
372.9930167001464
 30
0.0
 10
162.7018831611229
 20
372.9930161822583
 30
0.0
 10
162.4335957635724
 20
372.993011557179
 30
0.0
 10
162.1580347234405
 20
372.9930094166577
 30
0.0
 10
161.875483582555
 20
372.9930129550156
 30
0.0
 10
161.5864581611841
 20
372.9930193234511
 30
0.0
 10
161.2914972890426
 20
372.9930220402477
 30
0.0
 10
160.9908909621066
 20
372.9930128889518
 30
0.0
 10
159.9344899262581
 20
372.9929965773842
 30
0.0
 10
157.925871809839
 20
372.9929394200059
 30
0.0
 10
154.6261908388311
 20
372.9930037966863
 30
0.0
 10
150.747219983597
 20
372.9929793909517
 30
0.0
 10
147.6832243655775
 20
372.993306918421
 30
0.0
 10
145.7349683602275
 20
372.9929208878091
 30
0.0
 10
145.0826988481325
 20
372.9927646863662
 30
0.0
 10
144.6426847813962
 20
372.9930042841115
 30
0.0
 10
144.4202094918885
 20
372.9931254270063
 30
0.0
  0
LINE
  5
19E
330
1F
100
AcDbEntity
  8
0
  6
Continuous
 62
     7
370
    15
100
AcDbLine
 10
167.420252476
 20
404.6253527848
 30
0.0
 11
167.420252476
 21
434.9930091523
 31
0.0
  0
LINE
  5
19F
330
1F
100
AcDbEntity
  8
0
  6
Continuous
 62
     7
370
    15
100
AcDbLine
 10
120.4202524769
 20
340.3930091523
 30
0.0
 11
168.420252476
 21
340.3930091523
 31
0.0
  0
LINE
  5
1A0
330
1F
100
AcDbEntity
  8
0
  6
Continuous
 62
     7
370
    15
100
AcDbLine
 10
169.2202523708
 20
333.9930091523
 30
0.0
 11
119.620252476
 21
333.9930091523
 31
0.0
  0
LINE
  5
1A1
330
1F
100
AcDbEntity
  8
0
  6
Continuous
 62
     7
370
    15
100
AcDbLine
 10
140.8135586938
 20
449.9930091523
 30
0.0
 11
162.4055543217
 21
449.9930091523
 31
0.0
  0
LINE
  5
1A2
330
1F
100
AcDbEntity
  8
0
  6
Continuous
 62
     7
370
    15
100
AcDbLine
 10
160.1219428563
 20
450.3930091523
 30
0.0
 11
160.1219428563
 21
509.9930091523
 31
0.0
  0
ARC
  5
1A3
330
1F
100
AcDbEntity
  8
0
  6
Continuous
 62
     7
370
    15
100
AcDbCircle
 10
159.5652999417
 20
450.2970709616
 30
0.0
 40
0.5648499542216611
100
AcDbArc
 50
327.4316421173
 51
9.7789358449
  0
LINE
  5
1A4
330
1F
100
AcDbEntity
  8
0
  6
Continuous
 62
     7
370
    15
100
AcDbLine
 10
160.8268451315
 20
509.9930091523
 30
0.0
 11
160.8268451315
 21
450.3930091523
 31
0.0
  0
ARC
  5
1A5
330
1F
100
AcDbEntity
  8
0
  6
Continuous
 62
     7
370
    15
100
AcDbCircle
 10
160.4445911512
 20
450.3751727867
 30
0.0
 40
0.3826698857022525
100
AcDbArc
 50
272.9475180044
 51
2.671542515
  0
LINE
  5
1A6
330
1F
100
AcDbEntity
  8
0
  6
Continuous
 62
     8
370
    15
100
AcDbLine
 10
129.0936158014
 20
562.1427489726
 30
0.0
 11
132.170252476
 21
562.0553553794
 31
0.0
  0
LINE
  5
1A7
330
1F
100
AcDbEntity
  8
0
  6
Continuous
 62
     8
370
    15
100
AcDbLine
 10
156.670252476
 20
562.0553553794
 30
0.0
 11
159.7468891506
 21
562.1427489726
 31
0.0
  0
SPLINE
  5
1A8
330
1F
100
AcDbEntity
  8
0
  6
Continuous
 62
     8
370
    15
100
AcDbSpline
210
0.0
220
0.0
230
1.0
 70
     8
 71
     3
 72
    11
 73
     7
 74
     0
 42
0.00000001
 43
0.00000001
 12
1.0
 22
0.0
 32
0.0
 13
1.0
 23
0.0
 33
0.0
 40
0.0
 40
0.0
 40
0.0
 40
0.0
 40
0.3297841453372108
 40
0.6595682906744178
 40
0.9893524360116057
 40
1.0
 40
1.0
 40
1.0
 40
1.0
 10
128.1541499091548
 20
576.9316147798985
 30
0.0
 10
128.1765676426511
 20
577.0497468574066
 30
0.0
 10
128.2214031096437
 20
577.2860110124228
 30
0.0
 10
128.4433341382416
 20
577.568965197387
 30
0.0
 10
128.6369356476405
 20
577.7344942908368
 30
0.0
 10
128.7559082839227
 20
577.7623656762191
 30
0.0
 10
128.7596293496254
 20
577.763237399831
 30
0.0
  0
SPLINE
  5
1A9
330
1F
100
AcDbEntity
  8
0
  6
Continuous
 62
     8
370
    15
100
AcDbSpline
210
0.0
220
0.0
230
1.0
 70
     8
 71
     3
 72
     9
 73
     5
 74
     0
 42
0.00000001
 43
0.00000001
 12
1.0
 22
0.0
 32
0.0
 13
1.0
 23
0.0
 33
0.0
 40
0.0
 40
0.0
 40
0.0
 40
0.0
 40
0.4083423424440315
 40
1.0
 40
1.0
 40
1.0
 40
1.0
 10
148.9778906112344
 20
426.5377445296547
 30
0.0
 10
149.0076962968204
 20
426.5315337674569
 30
0.0
 10
149.0806882021113
 20
426.5163240731583
 30
0.0
 10
149.0796080375167
 20
426.5156091360173
 30
0.0
 10
149.0789689498629
 20
426.5151861379833
 30
0.0
  0
LINE
  5
1AA
330
1F
100
AcDbEntity
  8
0
  6
Continuous
 62
     8
370
    15
100
AcDbLine
 10
127.9637599382
 20
420.0596188977
 30
0.0
 11
128.0296822001
 21
420.1297779474
 31
0.0
  0
ARC
  5
1AB
330
1F
100
AcDbEntity
  8
0
  6
Continuous
 62
     8
370
    15
100
AcDbCircle
 10
126.5376433194
 20
421.4407900728
 30
0.0
 40
1.99998911129934
100
AcDbArc
 50
315.6851394842
 51
353.9804232163
  0
ARC
  5
1AC
330
1F
100
AcDbEntity
  8
0
  6
Continuous
 62
     8
370
    15
100
AcDbCircle
 10
149.4889346837
 20
428.4577099969
 30
0.0
 40
1.999996264213379
100
AcDbArc
 50
237.6206222812
 51
258.3148270233
  0
ARC
  5
1AD
330
1F
100
AcDbEntity
  8
0
  6
Continuous
 62
     8
370
    15
100
AcDbCircle
 10
149.4840357647
 20
428.4737323583
 30
0.0
 40
1.999995605419553
100
AcDbArc
 50
235.447299914
 51
258.314828925
  0
ARC
  5
1AE
330
1F
100
AcDbEntity
  8
0
  6
Continuous
 62
     8
370
    15
100
AcDbCircle
 10
126.5327377595
 20
421.4568179474
 30
0.0
 40
1.999997415103846
100
AcDbArc
 50
315.685176301
 51
332.5591245468
  0
LINE
  5
1AF
330
1F
100
AcDbEntity
  8
0
  6
Continuous
 62
     8
370
    15
100
AcDbLine
 10
128.1541505804
 20
576.9316130069
 30
0.0
 11
128.1532504947
 21
576.9255084272
 31
0.0
  0
LINE
  5
1B0
330
1F
100
AcDbEntity
  8
0
  6
Continuous
 62
     8
370
    15
100
AcDbLine
 10
129.0919307398
 20
577.8320962323
 30
0.0
 11
129.0936167481
 21
577.8432692979
 31
0.0
  0
LINE
  5
1B1
330
1F
100
AcDbEntity
  8
0
  6
Continuous
 62
     8
370
    15
100
AcDbLine
 10
160.687251815
 20
576.9257395628
 30
0.0
 11
160.6863543716
 21
576.9316130069
 31
0.0
  0
LINE
  5
1B2
330
1F
100
AcDbEntity
  8
0
  6
Continuous
 62
     8
370
    15
100
AcDbLine
 10
159.7468882039
 20
577.8432692979
 30
0.0
 11
159.7485555362
 21
577.8326536325
 31
0.0
  0
SPLINE
  5
1B3
330
1F
100
AcDbEntity
  8
0
  6
Continuous
 62
     8
370
    15
100
AcDbSpline
210
0.0
220
0.0
230
1.0
 70
     8
 71
     3
 72
    16
 73
    12
 74
     0
 42
0.00000001
 43
0.00000001
 12
1.0
 22
0.0
 32
0.0
 13
1.0
 23
0.0
 33
0.0
 40
0.0
 40
0.0
 40
0.0
 40
0.0
 40
0.2500000000000026
 40
0.2500000000000026
 40
0.5000000000000051
 40
0.5000000000000051
 40
0.6250000000000047
 40
0.6250000000000047
 40
0.7500000000000043
 40
0.7500000000000043
 40
1.0
 40
1.0
 40
1.0
 40
1.0
 10
128.0136461877049
 20
509.9930091523029
 30
0.0
 10
128.0136461876977
 20
512.0047354438041
 30
0.0
 10
128.013657772333
 20
514.0164321952942
 30
0.0
 10
128.0139502159817
 20
518.0365165657312
 30
0.0
 10
128.0142230847644
 20
520.0449167240695
 30
0.0
 10
128.0149138368718
 20
523.0529808149785
 30
0.0
 10
128.0151908180212
 20
524.0549154690716
 30
0.0
 10
128.0158577388686
 20
526.0569471118403
 30
0.0
 10
128.0162483183494
 20
527.0581449616197
 30
0.0
 10
128.0176191967727
 20
530.0379726231045
 30
0.0
 10
128.0187970046125
 20
531.9984089657852
 30
0.0
 10
128.0203676813446
 20
533.9262069758144
 30
0.0
  0
LINE
  5
1B4
330
1F
100
AcDbEntity
  8
0
  6
Continuous
 62
     8
370
    15
100
AcDbLine
 10
128.1518523822
 20
563.0094622461
 30
0.0
 11
128.1541505804
 21
563.0544052977
 31
0.0
  0
LINE
  5
1B5
330
1F
100
AcDbEntity
  8
0
  6
Continuous
 62
     8
370
    15
100
AcDbLine
 10
160.6863543716
 20
563.0544052977
 30
0.0
 11
160.6886938432
 21
563.0102085353
 31
0.0
  0
SPLINE
  5
1B6
330
1F
100
AcDbEntity
  8
0
  6
Continuous
 62
     8
370
    15
100
AcDbSpline
210
0.0
220
0.0
230
1.0
 70
     8
 71
     3
 72
    10
 73
     6
 74
     0
 42
0.00000001
 43
0.00000001
 12
1.0
 22
0.0
 32
0.0
 13
1.0
 23
0.0
 33
0.0
 40
0.0
 40
0.0
 40
0.0
 40
0.0
 40
0.3168234804677775
 40
0.6574725866208335
 40
1.0
 40
1.0
 40
1.0
 40
1.0
 10
160.8200954157668
 20
533.9201611901191
 30
0.0
 10
160.8217439889324
 20
531.4330646497316
 30
0.0
 10
160.8251651105672
 20
526.2718379844289
 30
0.0
 10
160.8267337257937
 20
518.2279306933463
 30
0.0
 10
160.826817008482
 20
512.743009697614
 30
0.0
 10
160.8268587643138
 20
509.9930091523029
 30
0.0
  0
SPLINE
  5
1B7
330
1F
100
AcDbEntity
  8
0
  6
Continuous
 62
     8
370
    15
100
AcDbSpline
210
0.0
220
0.0
230
1.0
 70
    24
 71
     3
 72
    14
 73
    10
 74
     0
 42
0.00000001
 43
0.00000001
 12
1.0
 22
0.0
 32
0.0
 13
1.0
 23
0.0
 33
0.0
 40
0.0
 40
0.0
 40
0.0
 40
0.0
 40
0.1141079240084519
 40
0.2617566033403764
 40
0.4094052826723013
 40
0.5570539620042261
 40
0.7047026413361507
 40
0.8523513206680754
 40
1.0
 40
1.0
 40
1.0
 40
1.0
 10
122.1595131621522
 20
372.993009152303
 30
0.0
 10
122.4567998074323
 20
372.993009152303
 30
0.0
 10
123.1387572013923
 20
372.9930091523029
 30
0.0
 10
125.1901504601343
 20
372.993009152303
 30
0.0
 10
128.0474108492277
 20
372.9930091523029
 30
0.0
 10
131.5609851952674
 20
372.993009152303
 30
0.0
 10
135.5614710690536
 20
372.993009152303
 30
0.0
 10
139.9043317181919
 20
372.993009152303
 30
0.0
 10
142.9149455567369
 20
372.993009152303
 30
0.0
 10
144.4202524760094
 20
372.993009152303
 30
0.0
  0
SPLINE
  5
1B8
330
1F
100
AcDbEntity
  8
0
  6
Continuous
 62
     7
370
     0
100
AcDbSpline
210
0.0
220
0.0
230
1.0
 70
    24
 71
     3
 72
    16
 73
    12
 74
     0
 42
0.00000001
 43
0.00000001
 12
1.0
 22
0.0
 32
0.0
 13
1.0
 23
0.0
 33
0.0
 40
0.0
 40
0.0
 40
0.0
 40
0.0
 40
0.1172719197522534
 40
0.2345438395045074
 40
0.3518157592567613
 40
0.4690876790090148
 40
0.5863595987612692
 40
0.7036315185135231
 40
0.8209034382657765
 40
0.9381753580180304
 40
1.0
 40
1.0
 40
1.0
 40
1.0
 10
167.4202524760094
 20
445.9333930353323
 30
0.0
 10
167.3346534248329
 20
445.9333930353323
 30
0.0
 10
167.16345532248
 20
445.9333930353323
 30
0.0
 10
165.7958097857727
 20
445.9333930353323
 30
0.0
 10
163.670195877043
 20
445.9333930353323
 30
0.0
 10
160.7877280598626
 20
445.9333930353323
 30
0.0
 10
157.2811425433063
 20
445.9333930353323
 30
0.0
 10
153.2779087796737
 20
445.9333930353323
 30
0.0
 10
148.9390508604375
 20
445.9333930353323
 30
0.0
 10
145.1236807805589
 20
445.9333930353323
 30
0.0
 10
142.8422606180393
 20
445.9333930353323
 30
0.0
 10
142.0547078956842
 20
445.9333930353323
 30
0.0
  0
SPLINE
  5
1B9
330
1F
100
AcDbEntity
  8
0
  6
Continuous
 62
     7
370
     0
100
AcDbSpline
210
0.0
220
0.0
230
1.0
 70
    24
 71
     3
 72
    16
 73
    12
 74
     0
 42
0.00000001
 43
0.00000001
 12
1.0
 22
0.0
 32
0.0
 13
1.0
 23
0.0
 33
0.0
 40
0.0
 40
0.0
 40
0.0
 40
0.0
 40
0.075711578093327
 40
0.1912476308316612
 40
0.3067836835699954
 40
0.4223197363083291
 40
0.5378557890466635
 40
0.6533918417849978
 40
0.7689278945233318
 40
0.8844639472616658
 40
1.0
 40
1.0
 40
1.0
 40
1.0
 10
141.5880141154585
 20
447.4598796084138
 30
0.0
 10
142.5307822527361
 20
447.4598796084138
 30
0.0
 10
144.9122168657573
 20
447.4598796084139
 30
0.0
 10
148.7725833917114
 20
447.4598796084138
 30
0.0
 10
152.9521055898266
 20
447.4598796084138
 30
0.0
 10
156.8079879893398
 20
447.4598796084138
 30
0.0
 10
160.1855905353691
 20
447.4598796084138
 30
0.0
 10
162.9620099485522
 20
447.4598796084138
 30
0.0
 10
165.0094262753452
 20
447.4598796084139
 30
0.0
 10
166.3267572123307
 20
447.4598796084139
 30
0.0
 10
166.491657171863
 20
447.4598796084138
 30
0.0
 10
166.5741071516291
 20
447.4598796084138
 30
0.0
  0
LINE
  5
1BA
330
1F
100
AcDbEntity
  8
0
  6
Continuous
 62
     8
370
    15
100
AcDbLine
 10
128.7185620957
 20
509.9930091523
 30
0.0
 11
128.7185620957
 21
479.2749421931
 31
0.0
  0
LINE
  5
1BB
330
1F
100
AcDbEntity
  8
0
  6
Continuous
 62
     8
370
    15
100
AcDbLine
 10
128.0136598205
 20
479.3052991151
 30
0.0
 11
128.0136598205
 21
509.9930091523
 31
0.0
  0
SPLINE
  5
1BC
330
1F
100
AcDbEntity
  8
0
  6
Continuous
 62
     7
370
    15
100
AcDbSpline
210
0.0
220
0.0
230
1.0
 70
     8
 71
     3
 72
    26
 73
    22
 74
     0
 42
0.00000001
 43
0.00000001
 12
1.0
 22
0.0
 32
0.0
 13
1.0
 23
0.0
 33
0.0
 40
0.0
 40
0.0
 40
0.0
 40
0.0
 40
0.0765491008972595
 40
0.1484196727071255
 40
0.2152122884762115
 40
0.2768928839802397
 40
0.3337022787692881
 40
0.3860321909248003
 40
0.4343164337060862
 40
0.4789528035126364
 40
0.5202576439741209
 40
0.5763932523720554
 40
0.6258590775316317
 40
0.6686509017442993
 40
0.7045684539371557
 40
0.7373276264657461
 40
0.7761364393861033
 40
0.8216415914762927
 40
0.8740879144002621
 40
0.9335857352160005
 40
0.9999999999999999
 40
0.9999999999999999
 40
0.9999999999999999
 40
0.9999999999999999
 10
126.3223055158783
 20
264.8642866690912
 30
0.0
 10
126.3224812011335
 20
264.823316132394
 30
0.0
 10
126.3228218341098
 20
264.743879096871
 30
0.0
 10
126.3493584887567
 20
264.3174316935225
 30
0.0
 10
126.4087880441445
 20
263.4366707160822
 30
0.0
 10
126.4992432653445
 20
262.0562321523513
 30
0.0
 10
126.6135896112641
 20
260.2013274516606
 30
0.0
 10
126.7427939924126
 20
257.9401187146258
 30
0.0
 10
126.8779043816633
 20
255.3636091548267
 30
0.0
 10
127.0112640793515
 20
252.5704437375957
 30
0.0
 10
127.155196615626
 20
249.2375705702732
 30
0.0
 10
127.3010646480622
 20
245.3922026804088
 30
0.0
 10
127.4362402053086
 20
241.1654377834369
 30
0.0
 10
127.5393799418788
 20
237.3198375287037
 30
0.0
 10
127.6169952444298
 20
233.8725270799991
 30
0.0
 10
127.6810034520792
 20
230.4840301649479
 30
0.0
 10
127.7385128399822
 20
226.720718714532
 30
0.0
 10
127.7889218839653
 20
222.2659648669609
 30
0.0
 10
127.8263679524073
 20
217.0932735340975
 30
0.0
 10
127.8470242737301
 20
211.2115700870259
 30
0.0
 10
127.850738409665
 20
207.0561349143819
 30
0.0
 10
127.8526974877491
 20
204.8642867646655
 30
0.0
  0
SPLINE
  5
1BD
330
1F
100
AcDbEntity
  8
0
  6
Continuous
 62
     7
370
    15
100
AcDbSpline
210
0.0
220
0.0
230
1.0
 70
     8
 71
     3
 72
    22
 73
    18
 74
     0
 42
0.00000001
 43
0.00000001
 12
1.0
 22
0.0
 32
0.0
 13
1.0
 23
0.0
 33
0.0
 40
0.0
 40
0.0
 40
0.0
 40
0.0
 40
0.0797806077554479
 40
0.1554583076581749
 40
0.2265020314136321
 40
0.2766848369184501
 40
0.3243020572601905
 40
0.3700812071586864
 40
0.4187635509784162
 40
0.4714793387177406
 40
0.5285283511477855
 40
0.5904748384642662
 40
0.6581234377271107
 40
0.732392824706472
 40
0.8140670115380352
 40
0.9034442002121686
 40
0.9999999999999999
 40
0.9999999999999999
 40
0.9999999999999999
 40
0.9999999999999999
 10
160.9878074642697
 20
204.8642867646655
 30
0.0
 10
160.9902037290418
 20
207.496146014929
 30
0.0
 10
160.9948730249603
 20
212.624514882394
 30
0.0
 10
161.0298931612601
 20
220.0870741060278
 30
0.0
 10
161.0964589614606
 20
226.5245463289355
 30
0.0
 10
161.1835557580268
 20
231.9405466811231
 30
0.0
 10
161.2783637339492
 20
236.4272920924157
 30
0.0
 10
161.3902078958587
 20
240.69354312864
 30
0.0
 10
161.5222699370964
 20
244.8889573597562
 30
0.0
 10
161.6775024056798
 20
249.0630695579971
 30
0.0
 10
161.8515678741406
 20
253.0833404263482
 30
0.0
 10
162.0342392728103
 20
256.7614810084377
 30
0.0
 10
162.2101718231049
 20
259.8987903415775
 30
0.0
 10
162.3604234983874
 20
262.3162551073798
 30
0.0
 10
162.4662620835768
 20
263.9011926346782
 30
0.0
 10
162.5169163703506
 20
264.6727196655786
 30
0.0
 10
162.517760879112
 20
264.7988082808042
 30
0.0
 10
162.5181994361404
 20
264.864286640443
 30
0.0
  0
SPLINE
  5
1BE
330
1F
100
AcDbEntity
  8
0
  6
Continuous
 62
     7
370
    15
100
AcDbSpline
210
0.0
220
0.0
230
1.0
 70
     8
 71
     3
 72
    15
 73
    11
 74
     0
 42
0.00000001
 43
0.00000001
 12
1.0
 22
0.0
 32
0.0
 13
1.0
 23
0.0
 33
0.0
 40
0.0
 40
0.0
 40
0.0
 40
0.0
 40
0.1970286231260127
 40
0.3475554685041963
 40
0.4477175841445099
 40
0.5021459124115544
 40
0.5561743609662073
 40
0.6548274548955197
 40
0.8030973724736379
 40
1.0
 40
1.0
 40
1.0
 40
1.0
 10
127.9474615128766
 20
96.25135329811229
 30
0.0
 10
127.9542824661128
 20
95.50615703679746
 30
0.0
 10
127.9663145229786
 20
94.19164226417381
 30
0.0
 10
128.3698900943742
 20
92.54622343919105
 30
0.0
 10
128.9090824774124
 20
91.53500958823363
 30
0.0
 10
129.3779762849586
 20
90.96088947799169
 30
0.0
 10
129.9221168643178
 20
90.45459904669664
 30
0.0
 10
130.8906120046677
 20
89.854867828561
 30
0.0
 10
132.5052762710507
 20
89.34574408724791
 30
0.0
 10
133.8192993865575
 20
89.24541726964064
 30
0.0
 10
134.5688798724427
 20
89.1881861419672
 30
0.0
  0
SPLINE
  5
1BF
330
1F
100
AcDbEntity
  8
0
  6
Continuous
 62
     7
370
    15
100
AcDbSpline
210
0.0
220
0.0
230
1.0
 70
     8
 71
     3
 72
    15
 73
    11
 74
     0
 42
0.00000001
 43
0.00000001
 12
1.0
 22
0.0
 32
0.0
 13
1.0
 23
0.0
 33
0.0
 40
0.0
 40
0.0
 40
0.0
 40
0.0
 40
0.1968793551372956
 40
0.3453111803164293
 40
0.4443671864610169
 40
0.4991608505984919
 40
0.5541394944170231
 40
0.6541584140871348
 40
0.8040400264415153
 40
1.0
 40
1.0
 40
1.0
 40
1.0
 10
154.271625158521
 20
89.18818614917559
 30
0.0
 10
155.0214755455121
 20
89.24554789200387
 30
0.0
 10
156.3366551996309
 20
89.34615595782796
 30
0.0
 10
157.9512895223009
 20
89.85502772880116
 30
0.0
 10
158.9229639547216
 20
90.45821997218897
 30
0.0
 10
159.4626409401243
 20
90.96112708856285
 30
0.0
 10
159.9297018077638
 20
91.5324058221958
 30
0.0
 10
160.4713888948294
 20
92.54704287142798
 30
0.0
 10
160.8740677540269
 20
94.19172231669481
 30
0.0
 10
160.8861802718287
 20
95.50642145827243
 30
0.0
 10
160.8930434391424
 20
96.2513532984989
 30
0.0
  0
ARC
  5
1C0
330
1F
100
AcDbEntity
  8
0
  6
Continuous
 62
     7
370
    15
100
AcDbCircle
 10
144.420252476
 20
238.8642867647
 30
0.0
 40
150.0
100
AcDbArc
 50
266.2614594309
 51
273.7391856781
  0
LINE
  5
1C1
330
1F
100
AcDbEntity
  8
0
  6
Continuous
 62
     7
370
    15
100
AcDbLine
 10
127.852636776
 20
204.9142886306
 30
0.0
 11
127.9475937645
 21
96.1016226833
 31
0.0
  0
LINE
  5
1C2
330
1F
100
AcDbEntity
  8
0
  6
Continuous
 62
     7
370
    15
100
AcDbLine
 10
160.8929111875
 20
96.1016226815
 30
0.0
 11
160.987868176
 21
204.9142886306
 31
0.0
  0
SPLINE
  5
1C3
330
1F
100
AcDbEntity
  8
0
  6
Continuous
 62
     7
370
    15
100
AcDbSpline
210
0.0
220
0.0
230
1.0
 70
     8
 71
     3
 72
    17
 73
    13
 74
     0
 42
0.00000001
 43
0.00000001
 12
1.0
 22
0.0
 32
0.0
 13
1.0
 23
0.0
 33
0.0
 40
0.0
 40
0.0
 40
0.0
 40
0.0
 40
0.222033138384114
 40
0.3378782165052167
 40
0.399253089993109
 40
0.4262097363548917
 40
0.4577605827010844
 40
0.5429840861273934
 40
0.6665059844847561
 40
0.7995506060854177
 40
0.9381001831807356
 40
1.0
 40
1.0
 40
1.0
 40
1.0
 10
114.7489013928781
 20
191.2372994229804
 30
0.0
 10
114.698458231673
 20
191.2365015053881
 30
0.0
 10
114.6216965128283
 20
191.2352872768502
 30
0.0
 10
114.5656970750274
 20
191.2332732948211
 30
0.0
 10
114.5231213042785
 20
191.2312526016776
 30
0.0
 10
114.4653257268462
 20
191.2256194198168
 30
0.0
 10
114.3595432840581
 20
191.2096027013418
 30
0.0
 10
114.1598602132804
 20
191.1498045249407
 30
0.0
 10
113.9108471710154
 20
190.9930069865974
 30
0.0
 10
113.700409160859
 20
190.7273530158245
 30
0.0
 10
113.5881431070939
 20
190.4538717090406
 30
0.0
 10
113.6007534460566
 20
190.2830591119459
 30
0.0
 10
113.6046475844053
 20
190.2303112923386
 30
0.0
  0
LINE
  5
1C4
330
1F
100
AcDbEntity
  8
0
  6
Continuous
 62
     7
370
    15
100
AcDbLine
 10
113.5884497143
 20
190.231278589
 30
0.0
 11
113.5933484349
 21
186.2313136809
 31
0.0
  0
SPLINE
  5
1C5
330
1F
100
AcDbEntity
  8
0
  6
Continuous
 62
     7
370
    15
100
AcDbSpline
210
0.0
220
0.0
230
1.0
 70
     8
 71
     3
 72
    20
 73
    16
 74
     0
 42
0.00000001
 43
0.00000001
 12
1.0
 22
0.0
 32
0.0
 13
1.0
 23
0.0
 33
0.0
 40
0.0
 40
0.0
 40
0.0
 40
0.0
 40
0.0629199254195821
 40
0.1641327012823574
 40
0.2463851361682563
 40
0.3159221897888713
 40
0.373878768337193
 40
0.4194311528839009
 40
0.4485492643959543
 40
0.4666139596710284
 40
0.4866329449762315
 40
0.5209150617604325
 40
0.6114363980665194
 40
0.9672454357603528
 40
1.0
 40
1.0
 40
1.0
 40
1.0
 10
113.6095618835097
 20
186.2297393188752
 30
0.0
 10
113.6073868633017
 20
186.1615244840341
 30
0.0
 10
113.6017131130597
 20
185.9835795002259
 30
0.0
 10
113.7130892950216
 20
185.7321936628956
 30
0.0
 10
113.8806920054346
 20
185.5160768606365
 30
0.0
 10
114.0616783675489
 20
185.3772362856925
 30
0.0
 10
114.2296716594751
 20
185.2959158978241
 30
0.0
 10
114.3660997936109
 20
185.256172147878
 30
0.0
 10
114.4569980728991
 20
185.2410871411685
 30
0.0
 10
114.5037351152632
 20
185.2360595548676
 30
0.0
 10
114.5363794006081
 20
185.2335170292708
 30
0.0
 10
114.5751284249844
 20
185.2315039515412
 30
0.0
 10
114.6654986017299
 20
185.2290837812273
 30
0.0
 10
114.7728086401147
 20
185.2271125237839
 30
0.0
 10
115.0076032507303
 20
185.2260013025104
 30
0.0
 10
115.0273956222192
 20
185.2259076304103
 30
0.0
  0
SPLINE
  5
1C6
330
1F
100
AcDbEntity
  8
0
  6
Continuous
 62
     7
370
    15
100
AcDbSpline
210
0.0
220
0.0
230
1.0
 70
     8
 71
     3
 72
    12
 73
     8
 74
     0
 42
0.00000001
 43
0.00000001
 12
1.0
 22
0.0
 32
0.0
 13
1.0
 23
0.0
 33
0.0
 40
0.0
 40
0.0
 40
0.0
 40
0.0
 40
0.0060460047785891
 40
0.2266156787723751
 40
0.4695754019714738
 40
0.7324174145620328
 40
1.0
 40
1.0
 40
1.0
 40
1.0
 10
167.4169042118262
 20
242.8522305438434
 30
0.0
 10
167.4171026258415
 20
242.8972839988469
 30
0.0
 10
167.4245395578994
 20
244.5859725891742
 30
0.0
 10
167.3859699274811
 20
248.0751027746477
 30
0.0
 10
167.3631437723253
 20
253.4464367565577
 30
0.0
 10
167.4017966235754
 20
259.1144951418154
 30
0.0
 10
167.4126993576251
 20
262.9363088006332
 30
0.0
 10
167.4181994452459
 20
264.864294010387
 30
0.0
  0
SPLINE
  5
1C7
330
1F
100
AcDbEntity
  8
0
  6
Continuous
 62
     7
370
    15
100
AcDbSpline
210
0.0
220
0.0
230
1.0
 70
     8
 71
     3
 72
    18
 73
    14
 74
     0
 42
0.00000001
 43
0.00000001
 12
1.0
 22
0.0
 32
0.0
 13
1.0
 23
0.0
 33
0.0
 40
0.0
 40
0.0
 40
0.0
 40
0.0
 40
0.019294259174776
 40
0.1530609551671627
 40
0.2681135248895468
 40
0.3657875086093113
 40
0.4484759218006995
 40
0.5554574080239749
 40
0.6580256987702069
 40
0.7940155976098857
 40
0.8631824227965244
 40
0.9318577766515928
 40
1.0
 40
1.0
 40
1.0
 40
1.0
 10
167.1508020490238
 20
261.3785715473883
 30
0.0
 10
167.1440052604977
 20
261.3254339175428
 30
0.0
 10
167.0900864790387
 20
260.9038942094988
 30
0.0
 10
166.9234645769789
 20
260.0536258652286
 30
0.0
 10
166.6509612349193
 20
258.867798113139
 30
0.0
 10
166.3231142501703
 20
257.7139660101022
 30
0.0
 10
165.8966450293749
 20
256.4365052565404
 30
0.0
 10
165.277872457363
 20
254.9418073585489
 30
0.0
 10
164.4650569493936
 20
253.300442135187
 30
0.0
 10
163.6729521808467
 20
251.9280590855212
 30
0.0
 10
163.0231557406619
 20
250.8406911840318
 30
0.0
 10
162.3940970754193
 20
249.8954125513016
 30
0.0
 10
161.9184152396853
 20
249.3287813410786
 30
0.0
 10
161.6815011051428
 20
249.0465697183295
 30
0.0
  0
SPLINE
  5
1C8
330
1F
100
AcDbEntity
  8
0
  6
Continuous
 62
     7
370
    15
100
AcDbSpline
210
0.0
220
0.0
230
1.0
 70
     8
 71
     3
 72
    11
 73
     7
 74
     0
 42
0.00000001
 43
0.00000001
 12
1.0
 22
0.0
 32
0.0
 13
1.0
 23
0.0
 33
0.0
 40
0.0
 40
0.0
 40
0.0
 40
0.0
 40
0.2641356129682632
 40
0.5536596272735586
 40
0.8158919723475222
 40
1.0
 40
1.0
 40
1.0
 40
1.0
 10
121.4253195970757
 20
264.8642976237119
 30
0.0
 10
121.4278730858544
 20
262.9394626873192
 30
0.0
 10
121.4332255017196
 20
258.9047799670665
 30
0.0
 10
121.47173062729
 20
252.9160611094282
 30
0.0
 10
121.4361749714381
 20
247.5029503188128
 30
0.0
 10
121.4275801640867
 20
244.2156807475968
 30
0.0
 10
121.4240349480897
 20
242.8597363739752
 30
0.0
  0
LINE
  5
1C9
330
1F
100
AcDbEntity
  8
0
  6
Continuous
 62
     7
370
    15
100
AcDbLine
 10
167.420252476
 20
220.8642867647
 30
0.0
 11
167.420252476
 21
242.8663626203
 31
0.0
  0
LINE
  5
1CA
330
1F
100
AcDbEntity
  8
0
  6
Continuous
 62
     7
370
    15
100
AcDbLine
 10
121.420252476
 20
242.863792978
 30
0.0
 11
121.420252476
 21
220.8642867647
 31
0.0
  0
LINE
  5
1CB
330
1F
100
AcDbEntity
  8
0
  6
Continuous
 62
     7
370
    15
100
AcDbLine
 10
167.4309403396
 20
182.0672364914
 30
0.0
 11
167.3913656933
 21
214.3812240276
 31
0.0
  0
LINE
  5
1CC
330
1F
100
AcDbEntity
  8
0
  6
Continuous
 62
     7
370
    15
100
AcDbLine
 10
121.3899480515
 20
215.510606858
 30
0.0
 11
121.4195584206
 21
191.3327761935
 31
0.0
  0
LINE
  5
1CD
330
1F
100
AcDbEntity
  8
0
  6
Continuous
 62
     7
370
    15
100
AcDbLine
 10
121.4270438359
 20
185.2206907919
 30
0.0
 11
121.4309748366
 21
182.0109007525
 31
0.0
  0
ARC
  5
1CE
330
1F
100
AcDbEntity
  8
0
  6
Continuous
 62
     7
370
    15
100
AcDbCircle
 10
122.420252476
 20
220.8642867647
 30
0.0
 40
1.0
100
AcDbArc
 50
180.0
 51
270.0
  0
ARC
  5
1CF
330
1F
100
AcDbEntity
  8
0
  6
Continuous
 62
     7
370
    15
100
AcDbCircle
 10
166.420252476
 20
220.8642867647
 30
0.0
 40
1.0
100
AcDbArc
 50
270.0
 51
0.0
  0
SPLINE
  5
1D0
330
1F
100
AcDbEntity
  8
0
  6
Continuous
 62
     7
370
    15
100
AcDbSpline
210
0.0
220
0.0
230
1.0
 70
     8
 71
     3
 72
    16
 73
    12
 74
     0
 42
0.00000001
 43
0.00000001
 12
1.0
 22
0.0
 32
0.0
 13
1.0
 23
0.0
 33
0.0
 40
0.0
 40
0.0
 40
0.0
 40
0.0
 40
0.2117171222303267
 40
0.386711754897328
 40
0.5325288243942092
 40
0.6558611837649823
 40
0.7550158663608115
 40
0.8260107028773338
 40
0.8890508932905532
 40
0.9757153418181004
 40
1.0
 40
1.0
 40
1.0
 40
1.0
 10
121.4367917281321
 20
182.0099361622069
 30
0.0
 10
121.4535276281469
 20
181.8290515918484
 30
0.0
 10
121.4840965740892
 20
181.4986570120417
 30
0.0
 10
121.7187007224244
 20
181.1001592035185
 30
0.0
 10
121.9844265657266
 20
180.8319969030607
 30
0.0
 10
122.24753649464
 20
180.6675172751947
 30
0.0
 10
122.4684104742203
 20
180.5811801694883
 30
0.0
 10
122.6174264219217
 20
180.5438028808098
 30
0.0
 10
122.7116387677965
 20
180.527083459306
 30
0.0
 10
122.7626004994002
 20
180.5204248711018
 30
0.0
 10
122.7793177909359
 20
180.518965166976
 30
0.0
 10
122.7829768894425
 20
180.5186456653883
 30
0.0
  0
SPLINE
  5
1D1
330
1F
100
AcDbEntity
  8
0
  6
Continuous
 62
     7
370
    15
100
AcDbSpline
210
0.0
220
0.0
230
1.0
 70
     8
 71
     3
 72
    18
 73
    14
 74
     0
 42
0.00000001
 43
0.00000001
 12
1.0
 22
0.0
 32
0.0
 13
1.0
 23
0.0
 33
0.0
 40
0.0
 40
0.0
 40
0.0
 40
0.0
 40
0.1620755620788237
 40
0.4748132234174059
 40
0.6366108530273495
 40
0.69436717550907
 40
0.7259495292995075
 40
0.750763590461072
 40
0.7780390256749328
 40
0.8249957213113953
 40
0.8805010882710095
 40
0.9430525528474504
 40
1.0
 40
1.0
 40
1.0
 40
1.0
 10
165.0129981631743
 20
180.539222545821
 30
0.0
 10
165.1351492679813
 20
180.5410758127927
 30
0.0
 10
165.4930006249256
 20
180.5465051054842
 30
0.0
 10
165.8015907886512
 20
180.5542352322637
 30
0.0
 10
165.9593089073794
 20
180.5606926013974
 30
0.0
 10
166.0644861420028
 20
180.5688779911703
 30
0.0
 10
166.1586789830041
 20
180.5806390178739
 30
0.0
 10
166.2880426348776
 20
180.6051211748138
 30
0.0
 10
166.5133392955254
 20
180.6727910639863
 30
0.0
 10
166.8245344403623
 20
180.8357676872736
 30
0.0
 10
167.1469874656999
 20
181.1474443609825
 30
0.0
 10
167.3871641660265
 20
181.5730721652465
 30
0.0
 10
167.4084359656423
 20
181.8990216541075
 30
0.0
 10
167.418573084608
 20
182.0543535397519
 30
0.0
  0
LINE
  5
1D2
330
1F
100
AcDbEntity
  8
0
  6
Continuous
 62
     7
370
    15
100
AcDbLine
 10
166.420252476
 20
219.8637867647
 30
0.0
 11
166.420252476
 21
219.8642867647
 31
0.0
  0
LINE
  5
1D3
330
1F
100
AcDbEntity
  8
0
  6
Continuous
 62
     7
370
    15
100
AcDbLine
 10
122.420252476
 20
219.8642867647
 30
0.0
 11
122.420252476
 21
219.8637867647
 31
0.0
  0
LINE
  5
1D4
330
1F
100
AcDbEntity
  8
0
  6
Continuous
 62
     7
370
    15
100
AcDbLine
 10
165.920252476
 20
218.0332259896
 30
0.0
 11
165.920252476
 21
219.8637867647
 31
0.0
  0
LINE
  5
1D5
330
1F
100
AcDbEntity
  8
0
  6
Continuous
 62
     7
370
    15
100
AcDbLine
 10
122.920252476
 20
219.8637867647
 30
0.0
 11
122.920252476
 21
218.0332259896
 31
0.0
  0
ARC
  5
1D6
330
1F
100
AcDbEntity
  8
0
  6
Continuous
 62
     7
370
    15
100
AcDbCircle
 10
132.920252476
 20
218.0332259896
 30
0.0
 40
9.999999999999986
100
AcDbArc
 50
180.0
 51
189.0468459803
  0
ARC
  5
1D7
330
1F
100
AcDbEntity
  8
0
  6
Continuous
 62
     7
370
    15
100
AcDbCircle
 10
155.920252476
 20
218.0332259896
 30
0.0
 40
10.00000000000003
100
AcDbArc
 50
350.9531540197
 51
0.0
  0
ARC
  5
1D8
330
1F
100
AcDbEntity
  8
0
  6
Continuous
 62
     7
370
    15
100
AcDbCircle
 10
144.420252476
 20
219.8642867646
 30
0.0
 40
21.64486082191336
100
AcDbArc
 50
348.2717346309
 51
350.9531540197
  0
ARC
  5
1D9
330
1F
100
AcDbEntity
  8
0
  6
Continuous
 62
     7
370
    15
100
AcDbCircle
 10
144.420252476
 20
219.8642867646
 30
0.0
 40
21.64486082191338
100
AcDbArc
 50
189.0468459803
 51
191.5965982747
  0
LINE
  5
1DA
330
1F
100
AcDbEntity
  8
0
  6
Continuous
 62
     7
370
    15
100
AcDbLine
 10
164.7971700438
 20
215.5208898467
 30
0.0
 11
163.0217843121
 21
215.5208898467
 31
0.0
  0
LINE
  5
1DB
330
1F
100
AcDbEntity
  8
0
  6
Continuous
 62
     7
370
    15
100
AcDbLine
 10
123.2156562004
 20
215.5208898467
 30
0.0
 11
121.5555827682
 21
215.5208898467
 31
0.0
  0
SPLINE
  5
1DC
330
1F
100
AcDbEntity
  8
0
  6
Continuous
 62
     7
370
    15
100
AcDbSpline
210
0.0
220
0.0
230
1.0
 70
     8
 71
     3
 72
    25
 73
    21
 74
     0
 42
0.00000001
 43
0.00000001
 12
1.0
 22
0.0
 32
0.0
 13
1.0
 23
0.0
 33
0.0
 40
0.0
 40
0.0
 40
0.0
 40
0.0
 40
0.0718487577244022
 40
0.1437697364416433
 40
0.2290927580807071
 40
0.2723188171796394
 40
0.3157868398522279
 40
0.3856528958256299
 40
0.421399980363616
 40
0.4574198887506148
 40
0.5012481608297984
 40
0.566391186954204
 40
0.6333744798701595
 40
0.6757656571726188
 40
0.7185083316369938
 40
0.7621630708611434
 40
0.8060537071457381
 40
0.8550287624304301
 40
0.9041535858100266
 40
1.0
 40
1.0
 40
1.0
 40
1.0
 10
128.1541505804305
 20
204.8642867646656
 30
0.0
 10
128.1520365384387
 20
207.5378759927265
 30
0.0
 10
128.1478063294607
 20
212.8877418894472
 30
0.0
 10
128.1378858648376
 20
221.4087662957211
 30
0.0
 10
128.1245631381488
 20
228.8325920820051
 30
0.0
 10
128.1102581102454
 20
235.0896752708198
 30
0.0
 10
128.0960232111638
 20
240.6723425034695
 30
0.0
 10
128.0817253136416
 20
245.790998225244
 30
0.0
 10
128.0687440303956
 20
250.3443412302369
 30
0.0
 10
128.0587565197162
 20
253.8562990656619
 30
0.0
 10
128.0474032656969
 20
257.9243148260496
 30
0.0
 10
128.0359990037342
 20
262.2154325873794
 30
0.0
 10
128.0278064224116
 20
265.5874494221833
 30
0.0
 10
128.0226940088826
 20
267.8842373914167
 30
0.0
 10
128.0195060911463
 20
269.4289311088296
 30
0.0
 10
128.0172295356735
 20
270.6125981236099
 30
0.0
 10
128.0156066918714
 20
271.4964416007545
 30
0.0
 10
128.0145389200093
 20
272.0796951229505
 30
0.0
 10
128.0137036413464
 20
272.4981126804987
 30
0.0
 10
128.0136748435878
 20
272.5017040557975
 30
0.0
 10
128.0136558042119
 20
272.5040784608876
 30
0.0
  0
SPLINE
  5
1DD
330
1F
100
AcDbEntity
  8
0
  6
Continuous
 62
     7
370
    15
100
AcDbSpline
210
0.0
220
0.0
230
1.0
 70
     8
 71
     3
 72
    10
 73
     6
 74
     0
 42
0.00000001
 43
0.00000001
 12
1.0
 22
0.0
 32
0.0
 13
1.0
 23
0.0
 33
0.0
 40
0.0
 40
0.0
 40
0.0
 40
0.0
 40
0.5
 40
0.5
 40
1.0
 40
1.0
 40
1.0
 40
1.0
 10
128.0136598205175
 20
272.5084817802811
 30
0.0
 10
128.0792514825027
 20
272.6492599364624
 30
0.0
 10
128.1781687424916
 20
272.7743777659838
 30
0.0
 10
128.421857908701
 20
272.9669877651824
 30
0.0
 10
128.5664403802845
 20
273.0343302072131
 30
0.0
 10
128.7185620957055
 20
273.0656309911833
 30
0.0
  0
SPLINE
  5
1DE
330
1F
100
AcDbEntity
  8
0
  6
Continuous
 62
     7
370
    15
100
AcDbSpline
210
0.0
220
0.0
230
1.0
 70
     8
 71
     3
 72
    46
 73
    42
 74
     0
 42
0.00000001
 43
0.00000001
 12
1.0
 22
0.0
 32
0.0
 13
1.0
 23
0.0
 33
0.0
 40
0.0
 40
0.0
 40
0.0
 40
0.0
 40
0.0625000000000012
 40
0.0625000000000012
 40
0.1250000000000025
 40
0.1250000000000025
 40
0.1875000000000037
 40
0.1875000000000037
 40
0.218750000000004
 40
0.218750000000004
 40
0.2500000000000043
 40
0.2500000000000043
 40
0.3125000000000055
 40
0.3125000000000055
 40
0.3437500000000062
 40
0.3437500000000062
 40
0.3593750000000061
 40
0.3593750000000061
 40
0.3750000000000061
 40
0.3750000000000061
 40
0.5000000000000059
 40
0.5000000000000059
 40
0.5312500000000056
 40
0.5312500000000056
 40
0.5625000000000051
 40
0.5625000000000051
 40
0.6250000000000044
 40
0.6250000000000044
 40
0.6875000000000039
 40
0.6875000000000039
 40
0.7500000000000032
 40
0.7500000000000032
 40
0.8125000000000026
 40
0.8125000000000026
 40
0.8437500000000022
 40
0.8437500000000022
 40
0.8750000000000018
 40
0.8750000000000018
 40
0.937500000000001
 40
0.937500000000001
 40
1.0
 40
1.0
 40
1.0
 40
1.0
 10
128.7185999728778
 20
273.0656375028705
 30
0.0
 10
128.7185999728869
 20
273.0656375028749
 30
0.0
 10
128.7186206716828
 20
273.0650260650584
 30
0.0
 10
128.7198408256033
 20
272.9888267644894
 30
0.0
 10
128.7210339554672
 20
272.9134631146148
 30
0.0
 10
128.7253541467942
 20
272.6251813635762
 30
0.0
 10
128.728477153045
 20
272.4125162168206
 30
0.0
 10
128.7350196672807
 20
271.9461716447689
 30
0.0
 10
128.7375078720589
 20
271.7662226641683
 30
0.0
 10
128.7431092028091
 20
271.3531569690689
 30
0.0
 10
128.7462254433389
 20
271.1198222241514
 30
0.0
 10
128.7565535784358
 20
270.3309752212916
 30
0.0
 10
128.7647489212755
 20
269.6868065901303
 30
0.0
 10
128.7790555756921
 20
268.5080477541824
 30
0.0
 10
128.7841590221491
 20
268.0796779357644
 30
0.0
 10
128.7923130145448
 20
267.3789650039644
 30
0.0
 10
128.7951140871061
 20
267.1356952194063
 30
0.0
 10
128.8008811152378
 20
266.6288422624418
 30
0.0
 10
128.8038521686861
 20
266.3647913582658
 30
0.0
 10
128.8311149774377
 20
263.9115924585423
 30
0.0
 10
128.8593871435282
 20
261.1677976371681
 30
0.0
 10
128.8965518690887
 20
256.9463402202996
 30
0.0
 10
128.9040033268895
 20
256.0699256826127
 30
0.0
 10
128.9188434364759
 20
254.2536530569314
 30
0.0
 10
128.9262386028049
 20
253.3126534928933
 30
0.0
 10
128.9479283975828
 20
250.4308800453861
 30
0.0
 10
128.9618128453654
 20
248.4209479644822
 30
0.0
 10
128.9878874182105
 20
244.2416251492403
 30
0.0
 10
129.0000886526764
 20
242.0700363835979
 30
0.0
 10
129.0223274864384
 20
237.5903986452687
 30
0.0
 10
129.0321729156946
 20
235.3215470491915
 30
0.0
 10
129.0493381805134
 20
230.7369538938953
 30
0.0
 10
129.0566553632432
 20
228.4211509798867
 30
0.0
 10
129.0658721270322
 20
224.9196659336513
 30
0.0
 10
129.0686527458186
 20
223.7478705045918
 30
0.0
 10
129.0736761696285
 20
221.3962763082431
 30
0.0
 10
129.0759194397625
 20
220.2159274075953
 30
0.0
 10
129.0819205128878
 20
216.6765713591607
 30
0.0
 10
129.0849501286772
 20
214.3152529698382
 30
0.0
 10
129.0898647404726
 20
209.5907276825109
 30
0.0
 10
129.0917468250335
 20
207.227514872568
 30
0.0
 10
129.0936167481045
 20
204.8642867646656
 30
0.0
  0
SPLINE
  5
1DF
330
1F
100
AcDbEntity
  8
0
  6
Continuous
 62
     7
370
    15
100
AcDbSpline
210
0.0
220
0.0
230
1.0
 70
     8
 71
     3
 72
    27
 73
    23
 74
     0
 42
0.00000001
 43
0.00000001
 12
1.0
 22
0.0
 32
0.0
 13
1.0
 23
0.0
 33
0.0
 40
0.0
 40
0.0
 40
0.0
 40
0.0
 40
0.0950903925540681
 40
0.1443596085880175
 40
0.1937538722999315
 40
0.2363046892852928
 40
0.279050979856384
 40
0.3225713263261971
 40
0.366444999288851
 40
0.4316189114626048
 40
0.4649968891914416
 40
0.4986207278561058
 40
0.5441533798404489
 40
0.57901253413523
 40
0.6141315800808158
 40
0.6499973155953774
 40
0.686087265690743
 40
0.7287377633837208
 40
0.7716407955097351
 40
0.8587614412328357
 40
0.9293169960241898
 40
1.0
 40
1.0
 40
1.0
 40
1.0
 10
160.826848329393
 20
272.5037166841685
 30
0.0
 10
160.8268295513462
 20
272.501346010206
 30
0.0
 10
160.8268010438238
 20
272.4977470181719
 30
0.0
 10
160.8259714389295
 20
272.0826390862594
 30
0.0
 10
160.8249118669754
 20
271.5038473105255
 30
0.0
 10
160.8233187004676
 20
270.6362435435258
 30
0.0
 10
160.8211002395489
 20
269.4803240956957
 30
0.0
 10
160.8179248984314
 20
267.9364899670487
 30
0.0
 10
160.8128254716702
 20
265.6418397840848
 30
0.0
 10
160.8061654769812
 20
262.8984174619928
 30
0.0
 10
160.798247477824
 20
259.8589193028425
 30
0.0
 10
160.7905171450407
 20
256.9971464670678
 30
0.0
 10
160.781564993275
 20
253.7912875822321
 30
0.0
 10
160.7715667249412
 20
250.2763089290856
 30
0.0
 10
160.7618629754428
 20
246.8725168418662
 30
0.0
 10
160.7517538371207
 20
243.2752124581627
 30
0.0
 10
160.74095168494
 20
239.2936284960805
 30
0.0
 10
160.7299190637855
 20
234.9520571146827
 30
0.0
 10
160.7155987250293
 20
228.6705804283723
 30
0.0
 10
160.702370698533
 20
221.2411503565951
 30
0.0
 10
160.6925881242469
 20
212.7488894732984
 30
0.0
 10
160.6884335387964
 20
207.4940682620675
 30
0.0
 10
160.6863543715882
 20
204.8642867646656
 30
0.0
  0
SPLINE
  5
1E0
330
1F
100
AcDbEntity
  8
0
  6
Continuous
 62
     7
370
    15
100
AcDbSpline
210
0.0
220
0.0
230
1.0
 70
     8
 71
     3
 72
    46
 73
    42
 74
     0
 42
0.00000001
 43
0.00000001
 12
1.0
 22
0.0
 32
0.0
 13
1.0
 23
0.0
 33
0.0
 40
0.0
 40
0.0
 40
0.0
 40
0.0
 40
0.0625000000000002
 40
0.0625000000000002
 40
0.1250000000000003
 40
0.1250000000000003
 40
0.1562500000000004
 40
0.1562500000000004
 40
0.1875000000000006
 40
0.1875000000000006
 40
0.2500000000000007
 40
0.2500000000000007
 40
0.3125000000000008
 40
0.3125000000000008
 40
0.3750000000000009
 40
0.3750000000000009
 40
0.437500000000001
 40
0.437500000000001
 40
0.4687500000000008
 40
0.4687500000000008
 40
0.5000000000000006
 40
0.5000000000000006
 40
0.625000000000001
 40
0.625000000000001
 40
0.640625000000001
 40
0.640625000000001
 40
0.6562500000000011
 40
0.6562500000000011
 40
0.6875000000000011
 40
0.6875000000000011
 40
0.7500000000000013
 40
0.7500000000000013
 40
0.7812500000000014
 40
0.7812500000000014
 40
0.8125000000000014
 40
0.8125000000000014
 40
0.875000000000001
 40
0.875000000000001
 40
0.9375000000000004
 40
0.9375000000000004
 40
1.0
 40
1.0
 40
1.0
 40
1.0
 10
159.7468882039143
 20
204.8642867646656
 30
0.0
 10
159.7487581329512
 20
207.2275224122853
 30
0.0
 10
159.7506402187584
 20
209.5907433087741
 30
0.0
 10
159.7555549349302
 20
214.3153515845111
 30
0.0
 10
159.758584648853
 20
216.676744679113
 30
0.0
 10
159.7645861937303
 20
220.2163046330554
 30
0.0
 10
159.7668292372831
 20
221.3964775881275
 30
0.0
 10
159.7718510664073
 20
223.7473488380783
 30
0.0
 10
159.7746308668435
 20
224.9188552121572
 30
0.0
 10
159.7838454688757
 20
228.4197198184868
 30
0.0
 10
159.7911615687866
 20
230.7354387801007
 30
0.0
 10
159.8083282325345
 20
235.3206570291825
 30
0.0
 10
159.818178659579
 20
237.5907222068619
 30
0.0
 10
159.8404248043721
 20
242.0716670272141
 30
0.0
 10
159.8526103196352
 20
244.2403722974988
 30
0.0
 10
159.8786817005704
 20
248.4193770947518
 30
0.0
 10
159.8925684043106
 20
250.4297944992245
 30
0.0
 10
159.9142698348994
 20
253.3131183827499
 30
0.0
 10
159.9216685104926
 20
254.2545273776943
 30
0.0
 10
159.9365058651476
 20
256.0704269253171
 30
0.0
 10
159.9439565769116
 20
256.9467465174332
 30
0.0
 10
159.9811208625603
 20
261.1681080743946
 30
0.0
 10
160.0093926575836
 20
263.9118482809409
 30
0.0
 10
160.0366552195059
 20
266.3650089262296
 30
0.0
 10
160.0396261976942
 20
266.6290514046438
 30
0.0
 10
160.04539301371
 20
267.135882669704
 30
0.0
 10
160.0481939875958
 20
267.3791425248778
 30
0.0
 10
160.0563477038968
 20
268.0798280223914
 30
0.0
 10
160.0614509928402
 20
268.5081826763398
 30
0.0
 10
160.0757572374324
 20
269.6869027922528
 30
0.0
 10
160.0839523901052
 20
270.3310545021506
 30
0.0
 10
160.0942803054143
 20
271.1198823213907
 30
0.0
 10
160.097396483723
 20
271.353211743394
 30
0.0
 10
160.1029977041655
 20
271.7662681446191
 30
0.0
 10
160.1054858700304
 20
271.9462137876311
 30
0.0
 10
160.1120281439213
 20
272.4125400110711
 30
0.0
 10
160.1151510400748
 20
272.6251972754193
 30
0.0
 10
160.1194710802171
 20
272.9134684694356
 30
0.0
 10
160.120664169251
 20
272.9888294730063
 30
0.0
 10
160.1218842811037
 20
273.0650260833116
 30
0.0
 10
160.1219049791227
 20
273.0656375028767
 30
0.0
 10
160.1219049791409
 20
273.0656375028705
 30
0.0
  0
SPLINE
  5
1E1
330
1F
100
AcDbEntity
  8
0
  6
Continuous
 62
     7
370
    15
100
AcDbSpline
210
0.0
220
0.0
230
1.0
 70
     8
 71
     3
 72
    10
 73
     6
 74
     0
 42
0.00000001
 43
0.00000001
 12
1.0
 22
0.0
 32
0.0
 13
1.0
 23
0.0
 33
0.0
 40
0.0
 40
0.0
 40
0.0
 40
0.0
 40
0.5
 40
0.5
 40
1.0
 40
1.0
 40
1.0
 40
1.0
 10
160.8268587643138
 20
272.5083881516973
 30
0.0
 10
160.7612744087224
 20
272.6491908082791
 30
0.0
 10
160.662354415419
 20
272.7743328180172
 30
0.0
 10
160.418645238194
 20
272.9669791783034
 30
0.0
 10
160.2740455973085
 20
273.0343336995491
 30
0.0
 10
160.1219049791409
 20
273.0656375028705
 30
0.0
  0
SPLINE
  5
1E2
330
1F
100
AcDbEntity
  8
0
  6
Continuous
 62
     7
370
    15
100
AcDbSpline
210
0.0
220
0.0
230
1.0
 70
     8
 71
     3
 72
    10
 73
     6
 74
     0
 42
0.00000001
 43
0.00000001
 12
1.0
 22
0.0
 32
0.0
 13
1.0
 23
0.0
 33
0.0
 40
0.0
 40
0.0
 40
0.0
 40
0.0
 40
0.5000000000000001
 40
0.5000000000000001
 40
1.0
 40
1.0
 40
1.0
 40
1.0
 10
160.1219237911721
 20
273.0656336321849
 30
0.0
 10
154.9600707106608
 20
274.1277157868332
 30
0.0
 10
149.6902165989667
 20
274.6639334757599
 30
0.0
 10
139.150288353052
 20
274.6639334757599
 30
0.0
 10
133.8804342413579
 20
274.1277157868332
 30
0.0
 10
128.7185811608466
 20
273.0656336321849
 30
0.0
  0
LINE
  5
1E3
330
1F
100
AcDbEntity
  8
0
  6
Continuous
 62
     7
370
    15
100
AcDbLine
 10
159.6609527366
 20
96.3393891818
 30
0.0
 11
159.7468891506
 21
204.8642867647
 31
0.0
  0
LINE
  5
1E4
330
1F
100
AcDbEntity
  8
0
  6
Continuous
 62
     7
370
    15
100
AcDbLine
 10
129.0936158014
 20
204.8642867647
 30
0.0
 11
129.1795520658
 21
96.3395779792
 31
0.0
  0
LINE
  5
1E5
330
1F
100
AcDbEntity
  8
0
  6
Continuous
 62
     7
370
    15
100
AcDbLine
 10
159.6608034959
 20
96.2008667525
 30
0.0
 11
159.6609399253
 21
96.3395424054
 31
0.0
  0
SPLINE
  5
1E6
330
1F
100
AcDbEntity
  8
0
  6
Continuous
 62
     7
370
    15
100
AcDbSpline
210
0.0
220
0.0
230
1.0
 70
     8
 71
     3
 72
    22
 73
    18
 74
     0
 42
0.00000001
 43
0.00000001
 12
1.0
 22
0.0
 32
0.0
 13
1.0
 23
0.0
 33
0.0
 40
0.0
 40
0.0
 40
0.0
 40
0.0
 40
0.2500000000000064
 40
0.2500000000000064
 40
0.3125000000000074
 40
0.3125000000000074
 40
0.3750000000000084
 40
0.3750000000000084
 40
0.5000000000000068
 40
0.5000000000000068
 40
0.6250000000000051
 40
0.6250000000000051
 40
0.7500000000000033
 40
0.7500000000000033
 40
0.8750000000000017
 40
0.8750000000000017
 40
1.0
 40
1.0
 40
1.0
 40
1.0
 10
154.0082016281283
 20
90.11704658552702
 30
0.0
 10
154.8082778242938
 20
90.17164551491067
 30
0.0
 10
155.6059212965079
 20
90.23815637265953
 30
0.0
 10
156.5683548730036
 20
90.49062153740941
 30
0.0
 10
156.759144444135
 20
90.5494159840663
 30
0.0
 10
157.1363106778946
 20
90.68859318435993
 30
0.0
 10
157.3241955516752
 20
90.76970132842513
 30
0.0
 10
157.8679564923475
 20
91.0514708002268
 30
0.0
 10
158.1980421747731
 20
91.28712258047139
 30
0.0
 10
158.758257097939
 20
91.88841156309942
 30
0.0
 10
158.9693780715193
 20
92.23281011505505
 30
0.0
 10
159.2977386495825
 20
92.98133733503904
 30
0.0
 10
159.4101223811928
 20
93.37257704113439
 30
0.0
 10
159.56799257839
 20
94.16647145576736
 30
0.0
 10
159.6126880187517
 20
94.5730296269674
 30
0.0
 10
159.6588763288522
 20
95.38614484364844
 30
0.0
 10
159.6602659922031
 20
95.79348834836878
 30
0.0
 10
159.6606998076356
 20
96.20086685623642
 30
0.0
  0
SPLINE
  5
1E7
330
1F
100
AcDbEntity
  8
0
  6
Continuous
 62
     7
370
    15
100
AcDbSpline
210
0.0
220
0.0
230
1.0
 70
     8
 71
     3
 72
    10
 73
     6
 74
     0
 42
0.00000001
 43
0.00000001
 12
1.0
 22
0.0
 32
0.0
 13
1.0
 23
0.0
 33
0.0
 40
0.0
 40
0.0
 40
0.0
 40
0.0
 40
0.5
 40
0.5
 40
1.0
 40
1.0
 40
1.0
 40
1.0
 10
134.8323259181839
 20
90.11694207765225
 30
0.0
 10
138.0245740419987
 20
89.89909526399201
 30
0.0
 10
141.2206370005028
 20
89.79171397906444
 30
0.0
 10
147.6199427711004
 20
89.79171602213995
 30
0.0
 10
150.8159600859662
 20
89.899097311327
 30
0.0
 10
154.0082085177025
 20
90.11694472991091
 30
0.0
  0
SPLINE
  5
1E8
330
1F
100
AcDbEntity
  8
0
  6
Continuous
 62
     7
370
    15
100
AcDbSpline
210
0.0
220
0.0
230
1.0
 70
     8
 71
     3
 72
    22
 73
    18
 74
     0
 42
0.00000001
 43
0.00000001
 12
1.0
 22
0.0
 32
0.0
 13
1.0
 23
0.0
 33
0.0
 40
0.0
 40
0.0
 40
0.0
 40
0.0
 40
0.1250000000000017
 40
0.1250000000000017
 40
0.2500000000000035
 40
0.2500000000000035
 40
0.3750000000000052
 40
0.3750000000000052
 40
0.500000000000007
 40
0.500000000000007
 40
0.6250000000000088
 40
0.6250000000000088
 40
0.6875000000000077
 40
0.6875000000000077
 40
0.7500000000000064
 40
0.7500000000000064
 40
1.0
 40
1.0
 40
1.0
 40
1.0
 10
129.179805135491
 20
96.20086688241564
 30
0.0
 10
129.1802389329808
 20
95.7934871302812
 30
0.0
 10
129.1816285322776
 20
95.38614237925258
 30
0.0
 10
129.2278172636085
 20
94.57302468177137
 30
0.0
 10
129.2725132049491
 20
94.16646532624395
 30
0.0
 10
129.4303854271662
 20
93.37256885173021
 30
0.0
 10
129.5427708280552
 20
92.98132789399952
 30
0.0
 10
129.8711349463894
 20
92.23279993852701
 30
0.0
 10
130.0822579758596
 20
91.88840118597393
 30
0.0
 10
130.6424779060027
 20
91.28711234264716
 30
0.0
 10
130.9725649633644
 20
91.05146177236045
 30
0.0
 10
131.5163288977565
 20
90.76969322950171
 30
0.0
 10
131.7042142993783
 20
90.68858561453352
 30
0.0
 10
132.0813818152224
 20
90.54940927017871
 30
0.0
 10
132.2721720154431
 20
90.49061523282629
 30
0.0
 10
133.2346086959831
 20
90.23815206310456
 30
0.0
 10
134.0322545628122
 20
90.17164285653784
 30
0.0
 10
134.8323328078243
 20
90.11704393361639
 30
0.0
  0
LINE
  5
1E9
330
1F
100
AcDbEntity
  8
0
  6
Continuous
 62
     7
370
    15
100
AcDbLine
 10
129.1795648852
 20
96.3396943572
 30
0.0
 11
129.1797014472
 21
96.2008667787
 31
0.0
  0
SPLINE
  5
1EA
330
1F
100
AcDbEntity
  8
0
  6
Continuous
 62
     7
370
    15
100
AcDbSpline
210
0.0
220
0.0
230
1.0
 70
     8
 71
     3
 72
    30
 73
    26
 74
     0
 42
0.00000001
 43
0.00000001
 12
1.0
 22
0.0
 32
0.0
 13
1.0
 23
0.0
 33
0.0
 40
0.0
 40
0.0
 40
0.0
 40
0.0
 40
0.1250000000000007
 40
0.1250000000000007
 40
0.2500000000000013
 40
0.2500000000000013
 40
0.3125000000000016
 40
0.3125000000000016
 40
0.3750000000000018
 40
0.3750000000000018
 40
0.5000000000000022
 40
0.5000000000000022
 40
0.6250000000000028
 40
0.6250000000000028
 40
0.687500000000003
 40
0.687500000000003
 40
0.7500000000000032
 40
0.7500000000000032
 40
0.8750000000000013
 40
0.8750000000000013
 40
0.9375000000000004
 40
0.9375000000000004
 40
0.9687500000000002
 40
0.9687500000000002
 40
1.0
 40
1.0
 40
1.0
 40
1.0
 10
160.600607601643
 20
96.20117277045046
 30
0.0
 10
160.6002447949129
 20
95.73513993621988
 30
0.0
 10
160.5982976418358
 20
95.26916271171007
 30
0.0
 10
160.5378622878321
 20
94.3392139921517
 30
0.0
 10
160.4802045436259
 20
93.87573610404063
 30
0.0
 10
160.3310557781326
 20
93.1981510968336
 30
0.0
 10
160.2709402591547
 20
92.97475477596576
 30
0.0
 10
160.1252094373222
 20
92.5340051329174
 30
0.0
 10
160.038777093245
 20
92.31504600891921
 30
0.0
 10
159.7385885196049
 20
91.68504472616692
 30
0.0
 10
159.4846344282825
 20
91.29977798827849
 30
0.0
 10
158.8371959501203
 20
90.61914449158601
 30
0.0
 10
158.4640477267213
 20
90.34527583300215
 30
0.0
 10
157.8506895018398
 20
90.01316438703208
 30
0.0
 10
157.6363577636294
 20
89.915403823127
 30
0.0
 10
157.2061358798912
 20
89.74744841655452
 30
0.0
 10
156.9884283777623
 20
89.67617646417658
 30
0.0
 10
156.3291559892615
 20
89.49243361410822
 30
0.0
 10
155.8814285131587
 20
89.41009750364675
 30
0.0
 10
155.2023470250228
 20
89.32315747913108
 30
0.0
 10
154.9747297546335
 20
89.30031271505365
 30
0.0
 10
154.6321482420266
 20
89.27167488525805
 30
0.0
 10
154.5177638196149
 20
89.26305731602142
 30
0.0
 10
154.2887645917351
 20
89.24694106633821
 30
0.0
 10
154.1757024794303
 20
89.23954188182998
 30
0.0
 10
154.0595053071084
 20
89.23208107684633
 30
0.0
  0
SPLINE
  5
1EB
330
1F
100
AcDbEntity
  8
0
  6
Continuous
 62
     7
370
    15
100
AcDbSpline
210
0.0
220
0.0
230
1.0
 70
     8
 71
     3
 72
    28
 73
    24
 74
     0
 42
0.00000001
 43
0.00000001
 12
1.0
 22
0.0
 32
0.0
 13
1.0
 23
0.0
 33
0.0
 40
0.0
 40
0.0
 40
0.0
 40
0.0
 40
0.0625000000000017
 40
0.0625000000000017
 40
0.1250000000000035
 40
0.1250000000000035
 40
0.2500000000000074
 40
0.2500000000000074
 40
0.3125000000000093
 40
0.3125000000000093
 40
0.3750000000000113
 40
0.3750000000000113
 40
0.5000000000000121
 40
0.5000000000000121
 40
0.6250000000000129
 40
0.6250000000000129
 40
0.6875000000000132
 40
0.6875000000000132
 40
0.7500000000000134
 40
0.7500000000000134
 40
0.8750000000000068
 40
0.8750000000000068
 40
1.0
 40
1.0
 40
1.0
 40
1.0
 10
134.7810001675834
 20
89.23208126821264
 30
0.0
 10
134.5538849900993
 20
89.24666391815131
 30
0.0
 10
134.3225523973566
 20
89.26212904763767
 30
0.0
 10
133.8657769998509
 20
89.30031280839614
 30
0.0
 10
133.6381597056684
 20
89.32315756250107
 30
0.0
 10
132.9590781477272
 20
89.41009755214255
 30
0.0
 10
132.5113506274466
 20
89.49243363385162
 30
0.0
 10
131.8520781781225
 20
89.67617643694648
 30
0.0
 10
131.6343706565634
 20
89.74744837277362
 30
0.0
 10
131.2041487351032
 20
89.91540374150009
 30
0.0
 10
130.9898169744802
 20
90.01316428474954
 30
0.0
 10
130.3764586399858
 20
90.34527568534776
 30
0.0
 10
130.0033103839657
 20
90.61914426518943
 30
0.0
 10
129.3558716386137
 20
91.29977773844558
 30
0.0
 10
129.1019174101953
 20
91.68504446731335
 30
0.0
 10
128.8017286074086
 20
92.31504572829724
 30
0.0
 10
128.7152961754421
 20
92.53400486229579
 30
0.0
 10
128.5695651866465
 20
92.97475452912204
 30
0.0
 10
128.5094495876037
 20
93.19815086137862
 30
0.0
 10
128.3603006147669
 20
93.87573590336685
 30
0.0
 10
128.3026427771198
 20
94.33921381419175
 30
0.0
 10
128.242207320845
 20
95.26916262215565
 30
0.0
 10
128.2402601476206
 20
95.7351398910893
 30
0.0
 10
128.2398973511054
 20
96.20117277067935
 30
0.0
  0
SPLINE
  5
1EC
330
1F
100
AcDbEntity
  8
0
  6
Continuous
 62
     7
370
    15
100
AcDbSpline
210
0.0
220
0.0
230
1.0
 70
     8
 71
     3
 72
    10
 73
     6
 74
     0
 42
0.00000001
 43
0.00000001
 12
1.0
 22
0.0
 32
0.0
 13
1.0
 23
0.0
 33
0.0
 40
0.0
 40
0.0
 40
0.0
 40
0.0
 40
0.5
 40
0.5
 40
1.0
 40
1.0
 40
1.0
 40
1.0
 10
154.0595413272644
 20
89.23198083015387
 30
0.0
 10
150.8497742422758
 20
89.02588684079713
 30
0.0
 10
147.6366802417015
 20
88.92254074642378
 30
0.0
 10
141.2038664470633
 20
88.92253992061941
 30
0.0
 10
137.9907312042105
 20
89.02588695777041
 30
0.0
 10
134.7809641487576
 20
89.23198102121368
 30
0.0
  0
LINE
  5
1ED
330
1F
100
AcDbEntity
  8
0
  6
Continuous
 62
     7
370
    15
100
AcDbLine
 10
160.6863549741
 20
204.8642867647
 30
0.0
 11
160.6008235595
 21
96.3395637147
 31
0.0
  0
LINE
  5
1EE
330
1F
100
AcDbEntity
  8
0
  6
Continuous
 62
     7
370
    15
100
AcDbLine
 10
128.2396812436
 20
96.339752512
 30
0.0
 11
128.1541499779
 21
204.8642867647
 31
0.0
  0
LINE
  5
1EF
330
1F
100
AcDbEntity
  8
0
  6
Continuous
 62
     7
370
    15
100
AcDbLine
 10
128.2397892763
 20
96.2011887898
 30
0.0
 11
128.2396808398
 21
96.3397525166
 31
0.0
  0
LINE
  5
1F0
330
1F
100
AcDbEntity
  8
0
  6
Continuous
 62
     7
370
    15
100
AcDbLine
 10
160.6008239642
 20
96.3395637193
 30
0.0
 11
160.6007156765
 21
96.2011887892
 31
0.0
  0
SPLINE
  5
1F1
330
1F
100
AcDbEntity
  8
0
  6
Continuous
 62
     7
370
    15
100
AcDbSpline
210
0.0
220
0.0
230
1.0
 70
     8
 71
     3
 72
     9
 73
     5
 74
     0
 42
0.00000001
 43
0.00000001
 12
1.0
 22
0.0
 32
0.0
 13
1.0
 23
0.0
 33
0.0
 40
0.0
 40
0.0
 40
0.0
 40
0.0
 40
0.4680658105043092
 40
1.0
 40
1.0
 40
1.0
 40
1.0
 10
128.0136406832619
 20
272.5084407062134
 30
0.0
 10
127.5498156179992
 20
271.361510573504
 30
0.0
 10
126.558875765411
 20
268.9111497332758
 30
0.0
 10
126.4031276980374
 20
266.2696348544217
 30
0.0
 10
126.3202799760535
 20
264.8645227782977
 30
0.0
  0
SPLINE
  5
1F2
330
1F
100
AcDbEntity
  8
0
  6
Continuous
 62
     7
370
    15
100
AcDbSpline
210
0.0
220
0.0
230
1.0
 70
     8
 71
     3
 72
     9
 73
     5
 74
     0
 42
0.00000001
 43
0.00000001
 12
1.0
 22
0.0
 32
0.0
 13
1.0
 23
0.0
 33
0.0
 40
0.0
 40
0.0
 40
0.0
 40
0.0
 40
0.5319341894956906
 40
1.0
 40
1.0
 40
1.0
 40
1.0
 10
162.5202249759652
 20
264.8645227782977
 30
0.0
 10
162.4373772539813
 20
266.2696348544217
 30
0.0
 10
162.2816291866077
 20
268.9111497332758
 30
0.0
 10
161.2906893340195
 20
271.361510573504
 30
0.0
 10
160.8268642687568
 20
272.5084407062134
 30
0.0
  0
LWPOLYLINE
  5
1F3
330
1F
100
AcDbEntity
  8
0
  6
Continuous
 62
     7
370
    15
100
AcDbPolyline
 90
        3
 70
   128
 43
0.0
 10
126.9807922851
 20
191.2206381541
 10
127.7495266604
 20
191.2209600989
 10
127.8645863741
 20
191.2210613119
  0
LWPOLYLINE
  5
1F4
330
1F
100
AcDbEntity
  8
0
  6
Continuous
 62
     7
370
    15
100
AcDbPolyline
 90
        3
 70
   128
 43
0.0
 10
127.869822319
 20
185.2211119711
 10
127.7568747413
 20
185.2210127367
 10
126.988140366
 20
185.2206907919
  0
LINE
  5
1F5
330
1F
100
AcDbEntity
  8
0
  6
Continuous
 62
     7
370
    15
100
AcDbLine
 10
126.6896478255
 20
190.2164581491
 30
0.0
 11
117.1266002659
 21
190.2164581491
 31
0.0
  0
LINE
  5
1F6
330
1F
100
AcDbEntity
  8
0
  6
Continuous
 62
     7
370
    15
100
AcDbLine
 10
117.4177447255
 20
191.2206381541
 30
0.0
 11
126.9807922851
 21
191.2206381541
 31
0.0
  0
LINE
  5
1F7
330
1F
100
AcDbEntity
  8
0
  6
Continuous
 62
     7
370
    15
100
AcDbLine
 10
117.1314989865
 20
186.216493241
 30
0.0
 11
126.6945465461
 21
186.216493241
 31
0.0
  0
LINE
  5
1F8
330
1F
100
AcDbEntity
  8
0
  6
Continuous
 62
     7
370
    15
100
AcDbLine
 10
126.988140366
 20
185.2206907919
 30
0.0
 11
117.4250928064
 21
185.2206907919
 31
0.0
  0
ARC
  5
1F9
330
1F
100
AcDbEntity
  8
0
  6
Continuous
 62
     7
370
    15
100
AcDbCircle
 10
116.7855300999
 20
413.9965354775
 30
0.0
 40
222.7767944009639
100
AcDbArc
 50
269.4462676822
 51
270.162598975
  0
LINE
  5
1FA
330
1F
100
AcDbEntity
  8
0
  6
Continuous
 62
     7
370
    15
100
AcDbLine
 10
127.8644083065
 20
191.4251116744
 30
0.0
 11
114.7620022606
 21
191.2373932659
 31
0.0
  0
ARC
  5
1FB
330
1F
100
AcDbEntity
  8
0
  6
Continuous
 62
     7
370
    15
100
AcDbCircle
 10
117.0186511178
 20
554.694892513
 30
0.0
 40
369.4744252749761
100
AcDbArc
 50
269.6905711554
 51
270.0630284439
  0
SPLINE
  5
1FC
330
1F
100
AcDbEntity
  8
0
  6
Continuous
 62
     7
370
    15
100
AcDbSpline
210
0.0
220
0.0
230
1.0
 70
     8
 71
     3
 72
    27
 73
    23
 74
     0
 42
0.00000001
 43
0.00000001
 12
1.0
 22
0.0
 32
0.0
 13
1.0
 23
0.0
 33
0.0
 40
0.0
 40
0.0
 40
0.0
 40
0.0
 40
0.0509191976958239
 40
0.1018383953916478
 40
0.1527575930874719
 40
0.2036767907832957
 40
0.2545959884791197
 40
0.3055151861749438
 40
0.3564343838707678
 40
0.4073535815665915
 40
0.4582727792624152
 40
0.5091919769582393
 40
0.5601111746540632
 40
0.6110303723498872
 40
0.6619495700457112
 40
0.7128687677415352
 40
0.7637879654373592
 40
0.8147071631331829
 40
0.8656263608290067
 40
0.9165455585248308
 40
0.9674647562206549
 40
1.0
 40
1.0
 40
1.0
 40
1.0
 10
121.4202524760094
 20
264.8642867646656
 30
0.0
 10
121.5058518457148
 20
266.3696207569757
 30
0.0
 10
121.6770505851257
 20
269.3802887415957
 30
0.0
 10
123.0446913438983
 20
273.7227432951708
 30
0.0
 10
125.1703234087798
 20
277.724772332097
 30
0.0
 10
128.0527233792876
 20
281.23258012114
 30
0.0
 10
131.5595621263823
 20
284.1113635750806
 30
0.0
 10
135.561850814534
 20
286.2504926642825
 30
0.0
 10
139.9042358051553
 20
287.5677618423404
 30
0.0
 10
144.4202563826753
 20
288.0125492499953
 30
0.0
 10
148.9362535201994
 20
287.567761745672
 30
0.0
 10
153.2787088308087
 20
286.2504930509561
 30
0.0
 10
157.2807396790043
 20
284.1113621250548
 30
0.0
 10
160.7885394659355
 20
281.2325855345696
 30
0.0
 10
163.6673531170536
 20
277.7247521284041
 30
0.0
 10
165.8063694196576
 20
273.7228186965128
 30
0.0
 10
167.1240595469296
 20
269.3800073399209
 30
0.0
 10
167.5672759443259
 20
264.865336970023
 30
0.0
 10
167.128351531823
 20
260.3443653679807
 30
0.0
 10
165.789201480084
 20
256.0204577078225
 30
0.0
 10
163.9793435458194
 20
252.4391740390636
 30
0.0
 10
162.3511672020063
 20
250.5828743341832
 30
0.0
 10
161.7164123186789
 20
249.8591841104127
 30
0.0
  0
SPLINE
  5
1FD
330
1F
100
AcDbEntity
  8
0
  6
Continuous
 62
     7
370
    15
100
AcDbSpline
210
0.0
220
0.0
230
1.0
 70
     8
 71
     3
 72
    11
 73
     7
 74
     0
 42
0.00000001
 43
0.00000001
 12
1.0
 22
0.0
 32
0.0
 13
1.0
 23
0.0
 33
0.0
 40
0.0
 40
0.0
 40
0.0
 40
0.0
 40
0.1757478552328903
 40
0.4504985701552594
 40
0.7252492850776285
 40
1.0
 40
1.0
 40
1.0
 40
1.0
 10
127.1261082128576
 20
249.8567281196641
 30
0.0
 10
126.490193340138
 20
250.5812077814926
 30
0.0
 10
124.860137937635
 20
252.4382833704257
 30
0.0
 10
123.0619492132228
 20
256.0203644114053
 30
0.0
 10
121.6727361177945
 20
260.3446512434242
 30
0.0
 10
121.5044136899377
 20
263.3577415909185
 30
0.0
 10
121.4202524760094
 20
264.8642867646656
 30
0.0
  0
SPLINE
  5
1FE
330
1F
100
AcDbEntity
  8
0
  6
Continuous
 62
     7
370
    15
100
AcDbSpline
210
0.0
220
0.0
230
1.0
 70
     8
 71
     3
 72
    12
 73
     8
 74
     0
 42
0.00000001
 43
0.00000001
 12
1.0
 22
0.0
 32
0.0
 13
1.0
 23
0.0
 33
0.0
 40
0.0
 40
0.0
 40
0.0
 40
0.0
 40
0.5000000000000022
 40
0.5000000000000022
 40
0.7500000000000011
 40
0.7500000000000011
 40
1.0
 40
1.0
 40
1.0
 40
1.0
 10
167.2561248334125
 20
214.7972141958144
 30
0.0
 10
167.0988212741312
 20
215.0428416877656
 30
0.0
 10
166.8075915287681
 20
215.2265465025463
 30
0.0
 10
166.1712497935864
 20
215.4080810089172
 30
0.0
 10
165.9256698581567
 20
215.4529015258265
 30
0.0
 10
165.3650792608112
 20
215.5106980018426
 30
0.0
 10
165.050298982571
 20
215.523483713159
 30
0.0
 10
164.7045109453074
 20
215.5204511982181
 30
0.0
  0
ELLIPSE
  5
1FF
330
1F
100
AcDbEntity
  8
0
  6
Continuous
 62
     7
370
    15
100
AcDbEllipse
 10
144.389930803
 20
215.5387747275
 30
0.0
 11
23.00060511100031
 21
-1.190438894791214
 31
0.0
210
0.0
220
0.0
230
1.0
 40
0.1641666762
 41
0.0086981356434476
 42
0.1169904314727706
  0
LINE
  5
200
330
1F
100
AcDbEntity
  8
0
  6
Continuous
 62
     7
370
    15
100
AcDbLine
 10
121.5174521314
 20
215.5204511982
 30
0.0
 11
121.5555210983
 21
215.5140236798
 31
0.0
  0
LWPOLYLINE
  5
201
330
1F
100
AcDbEntity
  8
0
  6
Continuous
 62
     7
370
    15
100
AcDbPolyline
 90
        4
 70
   128
 43
0.0
 10
164.7045109453
 20
215.5204511982
 10
163.2679629826
 20
215.5092646717
 10
161.5601183089
 20
215.4985022351
 10
161.0683841273
 20
215.4957589638
  0
LWPOLYLINE
  5
202
330
1F
100
AcDbEntity
  8
0
  6
Continuous
 62
     7
370
    15
100
AcDbPolyline
 90
        9
 70
   128
 43
0.0
 10
127.8085265485
 20
215.4546196731
 10
127.3172409239
 20
215.4561305557
 10
125.5956886388
 20
215.4626495024
 10
124.1442289162
 20
215.4702624467
 10
122.983720723
 20
215.4788599829
 10
122.1308417539
 20
215.4883185555
 10
121.5978487556
 20
215.4985022351
 10
121.3924013848
 20
215.5092646717
 10
121.5174521314
 20
215.5204511982
  0
LWPOLYLINE
  5
203
330
1F
100
AcDbEntity
  8
0
  6
Continuous
 62
     7
370
    15
100
AcDbPolyline
 90
        3
 70
   128
 43
0.0
 10
162.9315984527
 20
215.5204511982
 10
161.44193908
 20
215.5094179593
 10
161.1361245185
 20
215.5074369247
  0
ARC
  5
204
330
1F
100
AcDbEntity
  8
0
  6
Continuous
 62
     7
370
    15
100
AcDbCircle
 10
126.9417836678
 20
355.0841113145
 30
0.0
 40
139.6205568932964
100
AcDbArc
 50
268.4713794088
 51
270.3516163524
  0
LINE
  5
205
330
1F
100
AcDbEntity
  8
0
  6
Continuous
 62
     7
370
    15
100
AcDbLine
 10
164.7045109453
 20
215.5204511982
 30
0.0
 11
162.9315984527
 21
215.5204511982
 31
0.0
  0
LINE
  5
206
330
1F
100
AcDbEntity
  8
0
  6
Continuous
 62
     7
370
    15
100
AcDbLine
 10
166.4202524374
 20
219.8642867647
 30
0.0
 11
161.0952779729
 21
219.8642867647
 31
0.0
  0
LINE
  5
207
330
1F
100
AcDbEntity
  8
0
  6
Continuous
 62
     7
370
    15
100
AcDbLine
 10
127.7785354823
 20
219.8642867647
 30
0.0
 11
122.420252476
 21
219.8642867647
 31
0.0
  0
LWPOLYLINE
  5
208
330
1F
100
AcDbEntity
  8
0
  6
Continuous
 62
     7
370
    15
100
AcDbPolyline
 90
        5
 70
   128
 43
0.0
 10
164.9933468615
 20
180.5390817814
 10
164.0650403623
 20
180.5280146185
 10
162.8391290294
 20
180.5171152225
 10
161.3341964291
 20
180.5065488171
 10
160.9665664171
 20
180.5042771462
  0
ARC
  5
209
330
1F
100
AcDbEntity
  8
0
  6
Continuous
 62
     7
370
    15
100
AcDbCircle
 10
127.4240917674
 20
397.5422946426
 30
0.0
 40
217.078890283258
100
AcDbArc
 50
268.8184233391
 51
270.1187419005
  0
LINE
  5
20A
330
1F
100
AcDbEntity
  8
0
  6
Continuous
 62
     7
370
    15
100
AcDbLine
 10
166.420252476
 20
219.8637867647
 30
0.0
 11
161.0674305763
 21
219.8637867647
 31
0.0
  0
LINE
  5
20B
330
1F
100
AcDbEntity
  8
0
  6
Continuous
 62
     7
370
    15
100
AcDbLine
 10
127.8015444027
 20
219.8637867647
 30
0.0
 11
122.420252476
 21
219.8637867647
 31
0.0
  0
LINE
  5
20C
330
1F
100
AcDbEntity
  8
0
  6
Continuous
 62
     7
370
    15
100
AcDbLine
 10
162.9315984527
 20
215.5204511982
 30
0.0
 11
163.0217493791
 21
215.5156647339
 31
0.0
  0
ARC
  5
20D
330
1F
100
AcDbEntity
  8
0
  6
Continuous
 62
     7
370
    15
100
AcDbCircle
 10
144.420252476
 20
264.8642867647
 30
0.0
 40
24.99999999999998
100
AcDbArc
 50
337.4012552079
 51
0.0
  0
ARC
  5
20E
330
1F
100
AcDbEntity
  8
0
  6
Continuous
 62
     7
370
    15
100
AcDbCircle
 10
144.420252476
 20
264.8642867647
 30
0.0
 40
25.00000000000003
100
AcDbArc
 50
0.0
 51
203.1905163716
  0
LINE
  5
20F
330
1F
100
AcDbEntity
  8
0
  6
Continuous
 62
     8
370
    15
100
AcDbLine
 10
134.7809664965
 20
89.2319818795
 30
0.0
 11
134.636170578
 21
89.250174008
 31
0.0
  0
LWPOLYLINE
  5
210
330
1F
100
AcDbEntity
  8
0
  6
Continuous
 62
     8
370
    15
100
AcDbPolyline
 90
        3
 70
   128
 43
0.0
 10
127.8654625344
 20
190.217055788
 10
127.6505657946
 20
190.2168605801
 10
126.6896478255
 20
190.2164581491
  0
LWPOLYLINE
  5
211
330
1F
100
AcDbEntity
  8
0
  6
Continuous
 62
     8
370
    15
100
AcDbPolyline
 90
        3
 70
   128
 43
0.0
 10
126.6945465461
 20
186.216493241
 10
127.6554645152
 20
186.216895672
 10
127.8689531644
 20
186.2170894794
  0
LWPOLYLINE
  5
212
330
1F
100
AcDbEntity
  8
0
  6
Continuous
 62
     8
370
    15
100
AcDbPolyline
 90
        4
 70
   128
 43
0.0
 10
114.7620022606
 20
191.2373932659
 10
114.6073492131
 20
191.2341245058
 10
114.6056404173
 20
191.2309813622
 10
114.6325479528
 20
191.2301448539
  0
ARC
  5
213
330
1F
100
AcDbEntity
  8
0
  6
Continuous
 62
     8
370
    15
100
AcDbCircle
 10
115.9721074721
 20
336.9544753088
 30
0.0
 40
146.7425586990916
100
AcDbArc
 50
269.069257501
 51
270.4507775219
  0
ARC
  5
214
330
1F
100
AcDbEntity
  8
0
  6
Continuous
 62
     8
370
    15
100
AcDbCircle
 10
116.2490992165
 20
397.9039516204
 30
0.0
 40
211.6892974727098
100
AcDbArc
 50
269.2811762105
 51
270.2388308227
  0
ARC
  5
215
330
1F
100
AcDbEntity
  8
0
  6
Continuous
 62
     8
370
    15
100
AcDbCircle
 10
144.420252476
 20
264.8642867647
 30
0.0
 40
17.98530184569647
100
AcDbArc
 50
27.6659069431
 51
152.3166062666
  0
ARC
  5
216
330
1F
100
AcDbEntity
  8
0
  6
Continuous
 62
     8
370
    15
100
AcDbCircle
 10
144.420252476
 20
264.8642867647
 30
0.0
 40
18.19726955138977
100
AcDbArc
 50
359.5213736612
 51
180.0
  0
LWPOLYLINE
  5
217
330
1F
100
AcDbEntity
  8
0
  6
Continuous
 62
     8
370
    15
100
AcDbPolyline
 90
        3
 70
   128
 43
0.0
 10
126.4628187717
 20
261.9195976671
 10
126.3853482777
 20
262.43882811
 10
126.2229829246
 20
264.8642867647
  0
SPLINE
  5
218
330
1F
100
AcDbEntity
  8
0
  6
Continuous
 62
     8
370
    15
100
AcDbSpline
210
0.0
220
0.0
230
1.0
 70
     8
 71
     3
 72
    11
 73
     7
 74
     0
 42
0.00000001
 43
0.00000001
 12
1.0
 22
0.0
 32
0.0
 13
1.0
 23
0.0
 33
0.0
 40
0.0
 40
0.0
 40
0.0
 40
0.0
 40
0.2952578446394282
 40
0.5905156892788564
 40
0.8857735339182833
 40
1.0
 40
1.0
 40
1.0
 40
1.0
 10
122.2663978003896
 20
264.8642867646656
 30
0.0
 10
122.3466390222305
 20
263.4125749512615
 30
0.0
 10
122.5071214659122
 20
260.5091513244533
 30
0.0
 10
123.8575837717769
 20
256.3528126701239
 30
0.0
 10
125.3863877701094
 20
253.2061436068545
 30
0.0
 10
126.699556761263
 20
251.6825146711192
 30
0.0
 10
127.0658678733137
 20
251.2574953373079
 30
0.0
  0
ARC
  5
219
330
1F
100
AcDbEntity
  8
0
  6
Continuous
 62
     8
370
    15
100
AcDbCircle
 10
144.3862672702
 20
264.9299008991
 30
0.0
 40
22.11996678519796
100
AcDbArc
 50
321.8301361354
 51
180.1699558831
  0
LINE
  5
21A
330
1F
100
AcDbEntity
  8
0
  6
Continuous
 62
     8
370
    15
100
AcDbLine
 10
121.420252476
 20
220.8642867647
 30
0.0
 11
127.7253752414
 21
220.8642867647
 31
0.0
  0
LINE
  5
21B
330
1F
100
AcDbEntity
  8
0
  6
Continuous
 62
     8
370
    15
100
AcDbLine
 10
161.0545399475
 20
220.8642867647
 30
0.0
 11
167.420252476
 21
220.8642867647
 31
0.0
  0
LINE
  5
21C
330
1F
100
AcDbEntity
  8
0
  6
Continuous
 62
     8
370
    15
100
AcDbLine
 10
123.2157460547
 20
215.5204511982
 30
0.0
 11
121.5174521314
 21
215.5204511982
 31
0.0
  0
LINE
  5
21D
330
1F
100
AcDbEntity
  8
0
  6
Continuous
 62
     8
370
    15
100
AcDbLine
 10
122.920252476
 20
218.0332259896
 30
0.0
 11
127.7462339777
 21
218.0332259896
 31
0.0
  0
LINE
  5
21E
330
1F
100
AcDbEntity
  8
0
  6
Continuous
 62
     8
370
    15
100
AcDbLine
 10
161.1509276505
 20
218.0332259896
 30
0.0
 11
165.920252476
 21
218.0332259896
 31
0.0
  0
LINE
  5
21F
330
1F
100
AcDbEntity
  8
0
  6
Continuous
 62
     8
370
    15
100
AcDbLine
 10
165.7958535466
 20
216.4608063592
 30
0.0
 11
161.0724862772
 21
216.4608063592
 31
0.0
  0
LINE
  5
220
330
1F
100
AcDbEntity
  8
0
  6
Continuous
 62
     8
370
    15
100
AcDbLine
 10
127.7017071739
 20
216.4608063592
 30
0.0
 11
123.0446514054
 21
216.4608063592
 31
0.0
  0
ENDSEC
  0
SECTION
  2
OBJECTS
  0
DICTIONARY
  5
C
330
0
100
AcDbDictionary
281
     1
  3
ACAD_GROUP
350
D
  3
ACAD_LAYOUT
350
1A
  3
ACAD_MATERIAL
350
3B
  3
ACAD_MLEADERSTYLE
350
222
  3
ACAD_MLINESTYLE
350
17
  3
ACAD_PLOTSETTINGS
350
19
  3
ACAD_PLOTSTYLENAME
350
E
  3
ACAD_TABLESTYLE
350
221
  3
ACAD_VISUALSTYLE
350
2A
  0
DICTIONARY
  5
D
102
{ACAD_REACTORS
330
C
102
}
330
C
100
AcDbDictionary
281
     1
  0
DICTIONARY
  5
1A
102
{ACAD_REACTORS
330
C
102
}
330
C
100
AcDbDictionary
281
     1
  3
Layout1
350
1E
  3
Layout2
350
26
  3
Model
350
22
  0
DICTIONARY
  5
3B
102
{ACAD_REACTORS
330
C
102
}
330
C
100
AcDbDictionary
281
     1
  3
ByBlock
350
3D
  3
ByLayer
350
3C
  3
Global
350
3E
  0
DICTIONARY
  5
222
102
{ACAD_REACTORS
330
C
102
}
330
C
100
AcDbDictionary
281
     1
  0
DICTIONARY
  5
17
102
{ACAD_REACTORS
330
C
102
}
330
C
100
AcDbDictionary
281
     1
  3
Standard
350
18
  0
DICTIONARY
  5
19
102
{ACAD_REACTORS
330
C
102
}
330
C
100
AcDbDictionary
281
     1
  0
ACDBDICTIONARYWDFLT
  5
E
102
{ACAD_REACTORS
330
C
102
}
330
C
100
AcDbDictionary
281
     1
  3
Normal
350
F
100
AcDbDictionaryWithDefault
340
F
  0
DICTIONARY
  5
221
102
{ACAD_REACTORS
330
C
102
}
330
C
100
AcDbDictionary
281
     1
  0
DICTIONARY
  5
2A
102
{ACAD_REACTORS
330
C
102
}
330
C
100
AcDbDictionary
281
     1
  3
2dWireframe
350
2F
  3
3D Hidden
350
31
  3
3dWireframe
350
30
  3
Basic
350
32
  3
Brighten
350
36
  3
ColorChange
350
3A
  3
Conceptual
350
34
  3
Dim
350
35
  3
Facepattern
350
39
  3
Flat
350
2B
  3
FlatWithEdges
350
2C
  3
Gouraud
350
2D
  3
GouraudWithEdges
350
2E
  3
Linepattern
350
38
  3
Realistic
350
33
  3
Thicken
350
37
  0
LAYOUT
  5
1E
102
{ACAD_REACTORS
330
1A
102
}
330
1A
100
AcDbPlotSettings
  1

  2
none_device
  4

  6

 40
0.0
 41
0.0
 42
0.0
 43
0.0
 44
0.0
 45
0.0
 46
0.0
 47
0.0
 48
0.0
 49
0.0
140
0.0
141
0.0
142
1.0
143
1.0
 70
   688
 72
     0
 73
     0
 74
     5
  7

 75
    16
 76
     0
 77
     2
 78
   300
147
1.0
148
0.0
149
0.0
100
AcDbLayout
  1
Layout1
 70
     1
 71
     1
 10
0.0
 20
0.0
 11
420.0
 21
297.0
 12
0.0
 22
0.0
 32
0.0
 14
1.0000000000E+20
 24
1.0000000000E+20
 34
1.0000000000E+20
 15
-1.0000000000E+20
 25
-1.0000000000E+20
 35
-1.0000000000E+20
146
0.0
 13
0.0
 23
0.0
 33
0.0
 16
1.0
 26
0.0
 36
0.0
 17
0.0
 27
1.0
 37
0.0
 76
     0
330
1B
  0
LAYOUT
  5
26
102
{ACAD_REACTORS
330
1A
102
}
330
1A
100
AcDbPlotSettings
  1

  2
none_device
  4

  6

 40
0.0
 41
0.0
 42
0.0
 43
0.0
 44
0.0
 45
0.0
 46
0.0
 47
0.0
 48
0.0
 49
0.0
140
0.0
141
0.0
142
1.0
143
1.0
 70
   688
 72
     0
 73
     0
 74
     5
  7

 75
    16
 76
     0
 77
     2
 78
   300
147
1.0
148
0.0
149
0.0
100
AcDbLayout
  1
Layout2
 70
     1
 71
     2
 10
0.0
 20
0.0
 11
0.0
 21
0.0
 12
0.0
 22
0.0
 32
0.0
 14
0.0
 24
0.0
 34
0.0
 15
0.0
 25
0.0
 35
0.0
146
0.0
 13
0.0
 23
0.0
 33
0.0
 16
1.0
 26
0.0
 36
0.0
 17
0.0
 27
1.0
 37
0.0
 76
     0
330
23
  0
LAYOUT
  5
22
102
{ACAD_REACTORS
330
1A
102
}
330
1A
100
AcDbPlotSettings
  1

  2
none_device
  4

  6

 40
0.0
 41
0.0
 42
0.0
 43
0.0
 44
0.0
 45
0.0
 46
0.0
 47
0.0
 48
0.0
 49
0.0
140
0.0
141
0.0
142
1.0
143
1.0
 70
  1712
 72
     0
 73
     0
 74
     0
  7

 75
     0
 76
     0
 77
     2
 78
   300
147
1.0
148
0.0
149
0.0
100
AcDbLayout
  1
Model
 70
     1
 71
     0
 10
0.0
 20
0.0
 11
594.0
 21
841.0
 12
0.0
 22
0.0
 32
0.0
 14
0.0
 24
0.0
 34
0.0
 15
594.0
 25
841.0
 35
0.0
146
0.0
 13
0.0
 23
0.0
 33
0.0
 16
1.0
 26
0.0
 36
0.0
 17
0.0
 27
1.0
 37
0.0
 76
     0
330
1F
331
29
  0
MATERIAL
  5
3D
102
{ACAD_REACTORS
330
3B
102
}
330
3B
100
AcDbMaterial
  1
ByBlock
 72
     1
 94
      127
  0
MATERIAL
  5
3C
102
{ACAD_REACTORS
330
3B
102
}
330
3B
100
AcDbMaterial
  1
ByLayer
 72
     1
 94
      127
  0
MATERIAL
  5
3E
102
{ACAD_REACTORS
330
3B
102
}
330
3B
100
AcDbMaterial
  1
Global
 72
     1
 94
      127
  0
MLINESTYLE
  5
18
102
{ACAD_REACTORS
330
17
102
}
330
17
100
AcDbMlineStyle
  2
Standard
 70
     0
  3

 62
   256
 51
90.0
 52
90.0
 71
     2
 49
0.5
 62
   256
  6
BYLAYER
 49
-0.5
 62
   256
  6
BYLAYER
  0
ACDBPLACEHOLDER
  5
F
102
{ACAD_REACTORS
330
E
102
}
330
E
  0
VISUALSTYLE
  5
2F
102
{ACAD_REACTORS
330
2A
102
}
330
2A
100
AcDbVisualStyle
  2
2dWireframe
 70
     4
177
     2
291
     0
 71
     0
176
     1
 72
     2
176
     1
 73
     0
176
     1
 90
        0
176
     1
 40
-0.6
176
     1
 41
-30.0
176
     1
 62
     5
 63
     7
421
 16777215
176
     1
 74
     1
176
     1
 91
        4
176
     1
 64
     7
176
     1
 65
   257
176
     1
 75
     1
176
     1
175
     1
176
     1
 42
1.0
176
     1
 92
        0
176
     1
 66
   257
176
     1
 43
1.0
176
     1
 76
     1
176
     1
 77
     6
176
     1
 78
     2
176
     1
 67
     7
176
     1
 79
     5
176
     1
170
     0
176
     1
171
     0
176
     1
290
     0
176
     1
 93
        1
176
     1
 44
0.0
176
     1
173
     0
176
     1
  0
VISUALSTYLE
  5
31
102
{ACAD_REACTORS
330
2A
102
}
330
2A
100
AcDbVisualStyle
  2
3D Hidden
 70
     6
177
     2
291
     0
 71
     1
176
     1
 72
     2
176
     1
 73
     2
176
     1
 90
        0
176
     1
 40
-0.6
176
     1
 41
-30.0
176
     1
 62
     5
 63
     7
421
 16777215
176
     1
 74
     2
176
     1
 91
        2
176
     1
 64
     7
176
     1
 65
   257
176
     1
 75
     2
176
     1
175
     1
176
     1
 42
40.0
176
     1
 92
        0
176
     1
 66
   257
176
     1
 43
1.0
176
     1
 76
     1
176
     1
 77
     6
176
     1
 78
     2
176
     1
 67
     7
176
     1
 79
     3
176
     1
170
     0
176
     1
171
     0
176
     1
290
     0
176
     1
 93
        1
176
     1
 44
0.0
176
     1
173
     0
176
     1
  0
VISUALSTYLE
  5
30
102
{ACAD_REACTORS
330
2A
102
}
330
2A
100
AcDbVisualStyle
  2
3dWireframe
 70
     5
177
     2
291
     0
 71
     0
176
     1
 72
     2
176
     1
 73
     0
176
     1
 90
        0
176
     1
 40
-0.6
176
     1
 41
-30.0
176
     1
 62
     5
 63
     7
421
 16777215
176
     1
 74
     1
176
     1
 91
        4
176
     1
 64
     7
176
     1
 65
   257
176
     1
 75
     1
176
     1
175
     1
176
     1
 42
1.0
176
     1
 92
        0
176
     1
 66
   257
176
     1
 43
1.0
176
     1
 76
     1
176
     1
 77
     6
176
     1
 78
     2
176
     1
 67
     7
176
     1
 79
     5
176
     1
170
     0
176
     1
171
     0
176
     1
290
     0
176
     1
 93
        1
176
     1
 44
0.0
176
     1
173
     0
176
     1
  0
VISUALSTYLE
  5
32
102
{ACAD_REACTORS
330
2A
102
}
330
2A
100
AcDbVisualStyle
  2
Basic
 70
     7
177
     2
291
     1
 71
     1
176
     1
 72
     0
176
     1
 73
     1
176
     1
 90
        0
176
     1
 40
-0.6
176
     1
 41
-30.0
176
     1
 62
     5
 63
     7
421
 16777215
176
     1
 74
     0
176
     1
 91
        4
176
     1
 64
     7
176
     1
 65
   257
176
     1
 75
     1
176
     1
175
     1
176
     1
 42
1.0
176
     1
 92
        8
176
     1
 66
     7
176
     1
 43
1.0
176
     1
 76
     1
176
     1
 77
     6
176
     1
 78
     2
176
     1
 67
     7
176
     1
 79
     5
176
     1
170
     0
176
     1
171
     0
176
     1
290
     0
176
     1
 93
        1
176
     1
 44
0.0
176
     1
173
     0
176
     1
  0
VISUALSTYLE
  5
36
102
{ACAD_REACTORS
330
2A
102
}
330
2A
100
AcDbVisualStyle
  2
Brighten
 70
    12
177
     2
291
     1
 71
     2
176
     1
 72
     2
176
     1
 73
     0
176
     1
 90
        0
176
     1
 40
-0.6
176
     1
 41
-30.0
176
     1
 62
     5
 63
     7
421
 16777215
176
     1
 74
     1
176
     1
 91
        4
176
     1
 64
     7
176
     1
 65
   257
176
     1
 75
     1
176
     1
175
     1
176
     1
 42
1.0
176
     1
 92
        8
176
     1
 66
     7
176
     1
 43
1.0
176
     1
 76
     1
176
     1
 77
     6
176
     1
 78
     2
176
     1
 67
     7
176
     1
 79
     5
176
     1
170
     0
176
     1
171
     0
176
     1
290
     0
176
     1
 93
        1
176
     1
 44
50.0
176
     1
173
     0
176
     1
  0
VISUALSTYLE
  5
3A
102
{ACAD_REACTORS
330
2A
102
}
330
2A
100
AcDbVisualStyle
  2
ColorChange
 70
    16
177
     2
291
     1
 71
     2
176
     1
 72
     2
176
     1
 73
     3
176
     1
 90
        0
176
     1
 40
-0.6
176
     1
 41
-30.0
176
     1
 62
     5
 63
     8
421
  8421504
176
     1
 74
     1
176
     1
 91
        4
176
     1
 64
     7
176
     1
 65
   257
176
     1
 75
     1
176
     1
175
     1
176
     1
 42
1.0
176
     1
 92
        8
176
     1
 66
     8
424
  8421504
176
     1
 43
1.0
176
     1
 76
     1
176
     1
 77
     6
176
     1
 78
     2
176
     1
 67
     7
176
     1
 79
     5
176
     1
170
     0
176
     1
171
     0
176
     1
290
     0
176
     1
 93
        1
176
     1
 44
0.0
176
     1
173
     0
176
     1
  0
VISUALSTYLE
  5
34
102
{ACAD_REACTORS
330
2A
102
}
330
2A
100
AcDbVisualStyle
  2
Conceptual
 70
     9
177
     2
291
     0
 71
     3
176
     1
 72
     2
176
     1
 73
     0
176
     1
 90
        0
176
     1
 40
-0.6
176
     1
 41
-30.0
176
     1
 62
     5
 63
     7
421
 16777215
176
     1
 74
     2
176
     1
 91
        2
176
     1
 64
     7
176
     1
 65
   257
176
     1
 75
     1
176
     1
175
     1
176
     1
 42
40.0
176
     1
 92
        8
176
     1
 66
     7
176
     1
 43
1.0
176
     1
 76
     1
176
     1
 77
     6
176
     1
 78
     2
176
     1
 67
     7
176
     1
 79
     3
176
     1
170
     0
176
     1
171
     0
176
     1
290
     0
176
     1
 93
        1
176
     1
 44
0.0
176
     1
173
     0
176
     1
  0
VISUALSTYLE
  5
35
102
{ACAD_REACTORS
330
2A
102
}
330
2A
100
AcDbVisualStyle
  2
Dim
 70
    11
177
     2
291
     1
 71
     2
176
     1
 72
     2
176
     1
 73
     0
176
     1
 90
        0
176
     1
 40
-0.6
176
     1
 41
-30.0
176
     1
 62
     5
 63
     7
421
 16777215
176
     1
 74
     1
176
     1
 91
        4
176
     1
 64
     7
176
     1
 65
   257
176
     1
 75
     1
176
     1
175
     1
176
     1
 42
1.0
176
     1
 92
        8
176
     1
 66
     7
176
     1
 43
1.0
176
     1
 76
     1
176
     1
 77
     6
176
     1
 78
     2
176
     1
 67
     7
176
     1
 79
     5
176
     1
170
     0
176
     1
171
     0
176
     1
290
     0
176
     1
 93
        1
176
     1
 44
-50.0
176
     1
173
     0
176
     1
  0
VISUALSTYLE
  5
39
102
{ACAD_REACTORS
330
2A
102
}
330
2A
100
AcDbVisualStyle
  2
Facepattern
 70
    15
177
     2
291
     1
 71
     2
176
     1
 72
     2
176
     1
 73
     0
176
     1
 90
        0
176
     1
 40
-0.6
176
     1
 41
-30.0
176
     1
 62
     5
 63
     7
421
 16777215
176
     1
 74
     1
176
     1
 91
        4
176
     1
 64
     7
176
     1
 65
   257
176
     1
 75
     1
176
     1
175
     1
176
     1
 42
1.0
176
     1
 92
        8
176
     1
 66
     7
176
     1
 43
1.0
176
     1
 76
     1
176
     1
 77
     6
176
     1
 78
     2
176
     1
 67
     7
176
     1
 79
     5
176
     1
170
     0
176
     1
171
     0
176
     1
290
     0
176
     1
 93
        1
176
     1
 44
0.0
176
     1
173
     0
176
     1
  0
VISUALSTYLE
  5
2B
102
{ACAD_REACTORS
330
2A
102
}
330
2A
100
AcDbVisualStyle
  2
Flat
 70
     0
177
     2
291
     1
 71
     2
176
     1
 72
     1
176
     1
 73
     1
176
     1
 90
        2
176
     1
 40
-0.6
176
     1
 41
30.0
176
     1
 62
     5
 63
     7
421
 16777215
176
     1
 74
     0
176
     1
 91
        4
176
     1
 64
     7
176
     1
 65
   257
176
     1
 75
     1
176
     1
175
     1
176
     1
 42
1.0
176
     1
 92
        8
176
     1
 66
     7
176
     1
 43
1.0
176
     1
 76
     1
176
     1
 77
     6
176
     1
 78
     2
176
     1
 67
     7
176
     1
 79
     5
176
     1
170
     0
176
     1
171
     0
176
     1
290
     0
176
     1
 93
       13
176
     1
 44
0.0
176
     1
173
     0
176
     1
  0
VISUALSTYLE
  5
2C
102
{ACAD_REACTORS
330
2A
102
}
330
2A
100
AcDbVisualStyle
  2
FlatWithEdges
 70
     1
177
     2
291
     1
 71
     2
176
     1
 72
     1
176
     1
 73
     1
176
     1
 90
        2
176
     1
 40
-0.6
176
     1
 41
30.0
176
     1
 62
     5
 63
     7
421
 16777215
176
     1
 74
     1
176
     1
 91
        4
176
     1
 64
     7
176
     1
 65
   257
176
     1
 75
     1
176
     1
175
     1
176
     1
 42
1.0
176
     1
 92
        0
176
     1
 66
   257
176
     1
 43
1.0
176
     1
 76
     1
176
     1
 77
     6
176
     1
 78
     2
176
     1
 67
     7
176
     1
 79
     5
176
     1
170
     0
176
     1
171
     0
176
     1
290
     0
176
     1
 93
       13
176
     1
 44
0.0
176
     1
173
     0
176
     1
  0
VISUALSTYLE
  5
2D
102
{ACAD_REACTORS
330
2A
102
}
330
2A
100
AcDbVisualStyle
  2
Gouraud
 70
     2
177
     2
291
     1
 71
     2
176
     1
 72
     2
176
     1
 73
     1
176
     1
 90
        2
176
     1
 40
-0.6
176
     1
 41
30.0
176
     1
 62
     5
 63
     7
421
 16777215
176
     1
 74
     0
176
     1
 91
        4
176
     1
 64
     7
176
     1
 65
   257
176
     1
 75
     1
176
     1
175
     1
176
     1
 42
1.0
176
     1
 92
        0
176
     1
 66
     7
176
     1
 43
1.0
176
     1
 76
     1
176
     1
 77
     6
176
     1
 78
     2
176
     1
 67
     7
176
     1
 79
     5
176
     1
170
     0
176
     1
171
     0
176
     1
290
     0
176
     1
 93
       13
176
     1
 44
0.0
176
     1
173
     0
176
     1
  0
VISUALSTYLE
  5
2E
102
{ACAD_REACTORS
330
2A
102
}
330
2A
100
AcDbVisualStyle
  2
GouraudWithEdges
 70
     3
177
     2
291
     1
 71
     2
176
     1
 72
     2
176
     1
 73
     1
176
     1
 90
        2
176
     1
 40
-0.6
176
     1
 41
30.0
176
     1
 62
     5
 63
     7
421
 16777215
176
     1
 74
     1
176
     1
 91
        4
176
     1
 64
     7
176
     1
 65
   257
176
     1
 75
     1
176
     1
175
     1
176
     1
 42
1.0
176
     1
 92
        0
176
     1
 66
   257
176
     1
 43
1.0
176
     1
 76
     1
176
     1
 77
     6
176
     1
 78
     2
176
     1
 67
     7
176
     1
 79
     5
176
     1
170
     0
176
     1
171
     0
176
     1
290
     0
176
     1
 93
       13
176
     1
 44
0.0
176
     1
173
     0
176
     1
  0
VISUALSTYLE
  5
38
102
{ACAD_REACTORS
330
2A
102
}
330
2A
100
AcDbVisualStyle
  2
Linepattern
 70
    14
177
     2
291
     1
 71
     2
176
     1
 72
     2
176
     1
 73
     0
176
     1
 90
        0
176
     1
 40
-0.6
176
     1
 41
-30.0
176
     1
 62
     5
 63
     7
421
 16777215
176
     1
 74
     1
176
     1
 91
        4
176
     1
 64
     7
176
     1
 65
   257
176
     1
 75
     7
176
     1
175
     7
176
     1
 42
1.0
176
     1
 92
        8
176
     1
 66
     7
176
     1
 43
1.0
176
     1
 76
     1
176
     1
 77
     6
176
     1
 78
     2
176
     1
 67
     7
176
     1
 79
     5
176
     1
170
     0
176
     1
171
     0
176
     1
290
     0
176
     1
 93
        1
176
     1
 44
0.0
176
     1
173
     0
176
     1
  0
VISUALSTYLE
  5
33
102
{ACAD_REACTORS
330
2A
102
}
330
2A
100
AcDbVisualStyle
  2
Realistic
 70
     8
177
     2
291
     0
 71
     2
176
     1
 72
     2
176
     1
 73
     0
176
     1
 90
        0
176
     1
 40
-0.6
176
     1
 41
-30.0
176
     1
 62
     5
 63
     7
421
 16777215
176
     1
 74
     1
176
     1
 91
        0
176
     1
 64
     7
176
     1
 65
   257
176
     1
 75
     1
176
     1
175
     1
176
     1
 42
1.0
176
     1
 92
        8
176
     1
 66
     8
424
  7895160
176
     1
 43
1.0
176
     1
 76
     1
176
     1
 77
     6
176
     1
 78
     2
176
     1
 67
     7
176
     1
 79
     5
176
     1
170
     0
176
     1
171
     0
176
     1
290
     0
176
     1
 93
       13
176
     1
 44
0.0
176
     1
173
     0
176
     1
  0
VISUALSTYLE
  5
37
102
{ACAD_REACTORS
330
2A
102
}
330
2A
100
AcDbVisualStyle
  2
Thicken
 70
    13
177
     2
291
     1
 71
     2
176
     1
 72
     2
176
     1
 73
     0
176
     1
 90
        0
176
     1
 40
-0.6
176
     1
 41
-30.0
176
     1
 62
     5
 63
     7
421
 16777215
176
     1
 74
     1
176
     1
 91
        4
176
     1
 64
     7
176
     1
 65
   257
176
     1
 75
     1
176
     1
175
     1
176
     1
 42
1.0
176
     1
 92
       12
176
     1
 66
     7
176
     1
 43
1.0
176
     1
 76
     1
176
     1
 77
     6
176
     1
 78
     2
176
     1
 67
     7
176
     1
 79
     5
176
     1
170
     0
176
     1
171
     0
176
     1
290
     0
176
     1
 93
        1
176
     1
 44
0.0
176
     1
173
     0
176
     1
  0
ENDSEC
  0
EOF
