  0
SECTION
  2
HEADER
  9
$ACADVER
  1
AC1015
  9
$ACADMAINTVER
 70
     6
  9
$DWGCODEPAGE
  3
ANSI_1252
  9
$INSBASE
 10
0.0
 20
0.0
 30
0.0
  9
$EXTMIN
 10
0.0
 20
0.0
 30
0.0
  9
$EXTMAX
 10
594.0
 20
841.0
 30
0.0
  9
$LIMMIN
 10
0.0
 20
0.0
  9
$LIMMAX
 10
594.0
 20
841.0
  9
$ORTHOMODE
 70
     0
  9
$REGENMODE
 70
     1
  9
$FILLMODE
 70
     1
  9
$QTEXTMODE
 70
     0
  9
$MIRRTEXT
 70
     1
  9
$LTSCALE
 40
1.0
  9
$ATTMODE
 70
     1
  9
$TEXTSIZE
 40
10.0
  9
$TRACEWID
 40
1.0
  9
$TEXTSTYLE
  7
Standard
  9
$CLAYER
  8
0
  9
$CELTYPE
  6
ByLayer
  9
$CECOLOR
 62
   256
  9
$CELTSCALE
 40
1.0
  9
$DISPSILH
 70
     0
  9
$DIMSCALE
 40
1.0
  9
$DIMASZ
 40
2.5
  9
$DIMEXO
 40
0.0
  9
$DIMDLI
 40
3.75
  9
$DIMRND
 40
0.0
  9
$DIMDLE
 40
0.0
  9
$DIMEXE
 40
1.0
  9
$DIMTP
 40
0.0
  9
$DIMTM
 40
0.0
  9
$DIMTXT
 40
3.5
  9
$DIMCEN
 40
2.5
  9
$DIMTSZ
 40
0.0
  9
$DIMTOL
 70
     0
  9
$DIMLIM
 70
     0
  9
$DIMTIH
 70
     1
  9
$DIMTOH
 70
     1
  9
$DIMSE1
 70
     0
  9
$DIMSE2
 70
     0
  9
$DIMTAD
 70
     1
  9
$DIMZIN
 70
     0
  9
$DIMBLK
  1

  9
$DIMASO
 70
     1
  9
$DIMSHO
 70
     1
  9
$DIMPOST
  1

  9
$DIMAPOST
  1

  9
$DIMALT
 70
     0
  9
$DIMALTD
 70
     3
  9
$DIMALTF
 40
0.0393700787
  9
$DIMLFAC
 40
2.0
  9
$DIMTOFL
 70
     1
  9
$DIMTVP
 40
0.0
  9
$DIMTIX
 70
     0
  9
$DIMSOXD
 70
     0
  9
$DIMSAH
 70
     0
  9
$DIMBLK1
  1

  9
$DIMBLK2
  1

  9
$DIMSTYLE
  2
ISO-25
  9
$DIMCLRD
 70
     0
  9
$DIMCLRE
 70
     0
  9
$DIMCLRT
 70
     0
  9
$DIMTFAC
 40
1.0
  9
$DIMGAP
 40
1.5
  9
$DIMJUST
 70
     0
  9
$DIMSD1
 70
     0
  9
$DIMSD2
 70
     0
  9
$DIMTOLJ
 70
     0
  9
$DIMTZIN
 70
     0
  9
$DIMALTZ
 70
     0
  9
$DIMALTTZ
 70
     0
  9
$DIMUPT
 70
     0
  9
$DIMDEC
 70
     2
  9
$DIMTDEC
 70
     2
  9
$DIMALTU
 70
     2
  9
$DIMALTTD
 70
     3
  9
$DIMTXSTY
  7
Standard
  9
$DIMAUNIT
 70
     0
  9
$DIMADEC
 70
     2
  9
$DIMALTRND
 40
0.0
  9
$DIMAZIN
 70
     0
  9
$DIMDSEP
 70
    44
  9
$DIMATFIT
 70
     3
  9
$DIMFRAC
 70
     0
  9
$DIMLDRBLK
  1

  9
$DIMLUNIT
 70
     2
  9
$DIMLWD
 70
    -2
  9
$DIMLWE
 70
    -2
  9
$DIMTMOVE
 70
     0
  9
$LUNITS
 70
     2
  9
$LUPREC
 70
     2
  9
$SKETCHINC
 40
1.0
  9
$FILLETRAD
 40
10.0
  9
$AUNITS
 70
     0
  9
$AUPREC
 70
     2
  9
$MENU
  1
.
  9
$ELEVATION
 40
0.0
  9
$PELEVATION
 40
0.0
  9
$THICKNESS
 40
0.0
  9
$LIMCHECK
 70
     0
  9
$CHAMFERA
 40
0.0
  9
$CHAMFERB
 40
0.0
  9
$CHAMFERC
 40
0.0
  9
$CHAMFERD
 40
0.0
  9
$SKPOLY
 70
     0
  9
$TDCREATE
 40
2457771.588551678
  9
$TDUCREATE
 40
2457771.546885012
  9
$TDUPDATE
 40
2457771.588554213
  9
$TDUUPDATE
 40
2457771.546887546
  9
$TDINDWG
 40
0.0000000116
  9
$TDUSRTIMER
 40
0.0000000116
  9
$USRTIMER
 70
     1
  9
$ANGBASE
 50
0.0
  9
$ANGDIR
 70
     0
  9
$PDMODE
 70
     0
  9
$PDSIZE
 40
-1.0
  9
$PLINEWID
 40
0.0
  9
$SPLFRAME
 70
     0
  9
$SPLINETYPE
 70
     6
  9
$SPLINESEGS
 70
     8
  9
$HANDSEED
  5
241
  9
$SURFTAB1
 70
     6
  9
$SURFTAB2
 70
     6
  9
$SURFTYPE
 70
     6
  9
$SURFU
 70
     6
  9
$SURFV
 70
     6
  9
$UCSBASE
  2

  9
$UCSNAME
  2

  9
$UCSORG
 10
0.0
 20
0.0
 30
0.0
  9
$UCSXDIR
 10
1.0
 20
0.0
 30
0.0
  9
$UCSYDIR
 10
0.0
 20
1.0
 30
0.0
  9
$UCSORTHOREF
  2

  9
$UCSORTHOVIEW
 70
     0
  9
$UCSORGTOP
 10
0.0
 20
0.0
 30
0.0
  9
$UCSORGBOTTOM
 10
0.0
 20
0.0
 30
0.0
  9
$UCSORGLEFT
 10
0.0
 20
0.0
 30
0.0
  9
$UCSORGRIGHT
 10
0.0
 20
0.0
 30
0.0
  9
$UCSORGFRONT
 10
0.0
 20
0.0
 30
0.0
  9
$UCSORGBACK
 10
0.0
 20
0.0
 30
0.0
  9
$PUCSBASE
  2

  9
$PUCSNAME
  2

  9
$PUCSORG
 10
0.0
 20
0.0
 30
0.0
  9
$PUCSXDIR
 10
1.0
 20
0.0
 30
0.0
  9
$PUCSYDIR
 10
0.0
 20
1.0
 30
0.0
  9
$PUCSORTHOREF
  2

  9
$PUCSORTHOVIEW
 70
     0
  9
$PUCSORGTOP
 10
0.0
 20
0.0
 30
0.0
  9
$PUCSORGBOTTOM
 10
0.0
 20
0.0
 30
0.0
  9
$PUCSORGLEFT
 10
0.0
 20
0.0
 30
0.0
  9
$PUCSORGRIGHT
 10
0.0
 20
0.0
 30
0.0
  9
$PUCSORGFRONT
 10
0.0
 20
0.0
 30
0.0
  9
$PUCSORGBACK
 10
0.0
 20
0.0
 30
0.0
  9
$USERI1
 70
     0
  9
$USERI2
 70
     0
  9
$USERI3
 70
     0
  9
$USERI4
 70
     0
  9
$USERI5
 70
     0
  9
$USERR1
 40
0.0
  9
$USERR2
 40
0.0
  9
$USERR3
 40
0.0
  9
$USERR4
 40
0.0
  9
$USERR5
 40
0.0
  9
$WORLDVIEW
 70
     1
  9
$SHADEDGE
 70
     3
  9
$SHADEDIF
 70
    70
  9
$TILEMODE
 70
     1
  9
$MAXACTVP
 70
    64
  9
$PINSBASE
 10
0.0
 20
0.0
 30
0.0
  9
$PLIMCHECK
 70
     0
  9
$PEXTMIN
 10
1.0000000000E+20
 20
1.0000000000E+20
 30
1.0000000000E+20
  9
$PEXTMAX
 10
-1.0000000000E+20
 20
-1.0000000000E+20
 30
-1.0000000000E+20
  9
$PLIMMIN
 10
0.0
 20
0.0
  9
$PLIMMAX
 10
420.0
 20
297.0
  9
$UNITMODE
 70
     0
  9
$VISRETAIN
 70
     1
  9
$PLINEGEN
 70
     0
  9
$PSLTSCALE
 70
     1
  9
$TREEDEPTH
 70
  3020
  9
$CMLSTYLE
  2
Standard
  9
$CMLJUST
 70
     0
  9
$CMLSCALE
 40
20.0
  9
$PROXYGRAPHICS
 70
     1
  9
$MEASUREMENT
 70
     1
  9
$CELWEIGHT
370
    -1
  9
$ENDCAPS
280
     0
  9
$JOINSTYLE
280
     0
  9
$LWDISPLAY
290
     1
  9
$INSUNITS
 70
     4
  9
$HYPERLINKBASE
  1

  9
$STYLESHEET
  1

  9
$XEDIT
290
     1
  9
$CEPSNTYPE
380
     0
  9
$PSTYLEMODE
290
     1
  9
$FINGERPRINTGUID
  2
{256A2C29-393D-4067-84BB-A86004FB78EE}
  9
$VERSIONGUID
  2
{FAEB1C32-E019-11D5-929B-00C0DF256EC4}
  9
$EXTNAMES
290
     1
  9
$PSVPSCALE
 40
0.0
  9
$OLESTARTUP
290
     0
  0
ENDSEC
  0
SECTION
  2
CLASSES
  0
CLASS
  1
ACDBDICTIONARYWDFLT
  2
AcDbDictionaryWithDefault
  3
ObjectDBX Classes
 90
        0
280
     0
281
     0
  0
CLASS
  1
VISUALSTYLE
  2
AcDbVisualStyle
  3
ObjectDBX Classes
 90
     4095
280
     0
281
     0
  0
CLASS
  1
MATERIAL
  2
AcDbMaterial
  3
ObjectDBX Classes
 90
     1153
280
     0
281
     0
  0
CLASS
  1
SCALE
  2
AcDbScale
  3
ObjectDBX Classes
 90
     1153
280
     0
281
     0
  0
CLASS
  1
TABLESTYLE
  2
AcDbTableStyle
  3
ObjectDBX Classes
 90
     4095
280
     0
281
     0
  0
CLASS
  1
MLEADERSTYLE
  2
AcDbMLeaderStyle
  3
ACDB_MLEADERSTYLE_CLASS
 90
     4095
280
     0
281
     0
  0
CLASS
  1
SUN
  2
AcDbSun
  3
SCENEOE
 90
     1153
280
     0
281
     0
  0
CLASS
  1
ACDBPLACEHOLDER
  2
AcDbPlaceHolder
  3
ObjectDBX Classes
 90
        0
280
     0
281
     0
  0
CLASS
  1
LAYOUT
  2
AcDbLayout
  3
ObjectDBX Classes
 90
        0
280
     0
281
     0
  0
ENDSEC
  0
SECTION
  2
TABLES
  0
TABLE
  2
VPORT
  5
8
330
0
100
AcDbSymbolTable
 70
     1
  0
VPORT
  5
29
330
8
100
AcDbSymbolTableRecord
100
AcDbViewportTableRecord
  2
*Active
 70
     0
 10
0.0
 20
0.0
 11
1.0
 21
1.0
 12
297.0
 22
420.5
 13
0.0
 23
0.0
 14
10.0
 24
10.0
 15
10.0
 25
10.0
 16
0.0
 26
0.0
 36
1.0
 17
0.0
 27
0.0
 37
0.0
 40
841.0
 41
0.7063020214
 42
50.0
 43
0.0
 44
0.0
 50
0.0
 51
0.0
 71
     0
 72
  2000
 73
     1
 74
     3
 75
     0
 76
     0
 77
     0
 78
     0
281
     0
 65
     1
110
0.0
120
0.0
130
0.0
111
1.0
121
0.0
131
0.0
112
0.0
122
1.0
132
0.0
 79
     0
146
0.0
  0
ENDTAB
  0
TABLE
  2
LTYPE
  5
5
330
0
100
AcDbSymbolTable
 70
     6
  0
LTYPE
  5
14
330
5
100
AcDbSymbolTableRecord
100
AcDbLinetypeTableRecord
  2
ByBlock
 70
     0
  3

 72
    65
 73
     0
 40
0.0
  0
LTYPE
  5
15
330
5
100
AcDbSymbolTableRecord
100
AcDbLinetypeTableRecord
  2
ByLayer
 70
     0
  3

 72
    65
 73
     0
 40
0.0
  0
LTYPE
  5
16
330
5
100
AcDbSymbolTableRecord
100
AcDbLinetypeTableRecord
  2
Continuous
 70
     0
  3
Solid line
 72
    65
 73
     0
 40
0.0
  0
LTYPE
  5
6E
330
5
100
AcDbSymbolTableRecord
100
AcDbLinetypeTableRecord
  2
HIDDEN
 70
     0
  3
Hidden __ __ __ __ __ __ __ __ __ __ __ __ __ __
 72
    65
 73
     2
 40
1.905
 49
1.27
 74
     0
 49
-0.635
 74
     0
  0
LTYPE
  5
6F
330
5
100
AcDbSymbolTableRecord
100
AcDbLinetypeTableRecord
  2
PHANTOM
 70
     0
  3
Phantom ______  __  __  ______  __  __  ______
 72
    65
 73
     6
 40
12.7
 49
6.35
 74
     0
 49
-1.27
 74
     0
 49
1.27
 74
     0
 49
-1.27
 74
     0
 49
1.27
 74
     0
 49
-1.27
 74
     0
  0
LTYPE
  5
70
330
5
100
AcDbSymbolTableRecord
100
AcDbLinetypeTableRecord
  2
CENTER
 70
     0
  3
Center ____ _ ____ _ ____ _ ____ _ ____ _ ____
 72
    65
 73
     4
 40
10.16
 49
6.35
 74
     0
 49
-1.27
 74
     0
 49
1.27
 74
     0
 49
-1.27
 74
     0
  0
LTYPE
  5
71
330
5
100
AcDbSymbolTableRecord
100
AcDbLinetypeTableRecord
  2
CENTERX2
 70
     0
  3
Center (2x) ________  __  ________  __  _____
 72
    65
 73
     4
 40
20.32
 49
12.7
 74
     0
 49
-2.54
 74
     0
 49
2.54
 74
     0
 49
-2.54
 74
     0
  0
LTYPE
  5
72
330
5
100
AcDbSymbolTableRecord
100
AcDbLinetypeTableRecord
  2
DOT2
 70
     0
  3
Dot (.5x) ........................................
 72
    65
 73
     2
 40
0.635
 49
0.0
 74
     0
 49
-0.635
 74
     0
  0
ENDTAB
  0
TABLE
  2
LAYER
  5
2
330
0
100
AcDbSymbolTable
 70
     1
  0
LAYER
  5
10
330
2
100
AcDbSymbolTableRecord
100
AcDbLayerTableRecord
  2
0
 70
     0
 62
     7
  6
Continuous
370
    -3
390
F
  0
ENDTAB
  0
TABLE
  2
STYLE
  5
3
330
0
100
AcDbSymbolTable
 70
     3
  0
STYLE
  5
11
330
3
100
AcDbSymbolTableRecord
100
AcDbTextStyleTableRecord
  2
Standard
 70
     0
 40
0.0
 41
1.0
 50
0.0
 71
     0
 42
10.0
  3
txt
  4

  0
STYLE
  5
78
330
3
100
AcDbSymbolTableRecord
100
AcDbTextStyleTableRecord
  2
SLDTEXTSTYLE0
 70
     0
 40
0.0
 41
0.96
 50
0.0
 71
     0
 42
10.0
  3
ISOCP3
  4

  0
STYLE
  5
8F
330
3
100
AcDbSymbolTableRecord
100
AcDbTextStyleTableRecord
  2
SLDTEXTSTYLE1
 70
     0
 40
0.0
 41
0.605
 50
0.0
 71
     0
 42
10.0
  3
TXT
  4

  0
ENDTAB
  0
TABLE
  2
VIEW
  5
6
330
0
100
AcDbSymbolTable
 70
     0
  0
ENDTAB
  0
TABLE
  2
UCS
  5
7
330
0
100
AcDbSymbolTable
 70
     0
  0
ENDTAB
  0
TABLE
  2
APPID
  5
9
330
0
100
AcDbSymbolTable
 70
     1
  0
APPID
  5
12
330
9
100
AcDbSymbolTableRecord
100
AcDbRegAppTableRecord
  2
ACAD
 70
     0
  0
ENDTAB
  0
TABLE
  2
DIMSTYLE
  5
A
330
0
100
AcDbSymbolTable
 70
     2
100
AcDbDimStyleTable
  0
DIMSTYLE
105
27
330
A
100
AcDbSymbolTableRecord
100
AcDbDimStyleTableRecord
  2
ISO-25
 70
     0
 41
2.5
 42
0.625
 43
3.75
 44
1.25
 73
     0
 74
     0
 77
     1
 78
     8
140
2.5
141
2.5
143
0.0393700787
147
0.625
171
     3
172
     1
178
     0
271
     2
272
     2
274
     3
278
    44
283
     0
284
     8
340
11
  0
DIMSTYLE
105
79
102
{ACAD_REACTORS
330
77
330
84
102
}
330
A
100
AcDbSymbolTableRecord
100
AcDbDimStyleTableRecord
  2
SLDDIMSTYLE0
 70
     0
 41
2.5
 44
0.0
 45
0.000000001
 73
     0
 74
     0
 77
     1
 78
    12
 79
     3
140
6.0
144
2.0
147
1.5
173
     1
178
     0
271
     2
272
     2
276
     2
284
    12
340
78
  0
ENDTAB
  0
TABLE
  2
BLOCK_RECORD
  5
1
330
0
100
AcDbSymbolTable
 70
     3
  0
BLOCK_RECORD
  5
1F
330
1
100
AcDbSymbolTableRecord
100
AcDbBlockTableRecord
  2
*Model_Space
340
22
  0
BLOCK_RECORD
  5
1B
330
1
100
AcDbSymbolTableRecord
100
AcDbBlockTableRecord
  2
*Paper_Space
340
1E
  0
BLOCK_RECORD
  5
23
330
1
100
AcDbSymbolTableRecord
100
AcDbBlockTableRecord
  2
*Paper_Space0
340
26
  0
BLOCK_RECORD
  5
7A
330
1
100
AcDbSymbolTableRecord
100
AcDbBlockTableRecord
  2
_D
340
0
  0
BLOCK_RECORD
  5
85
330
1
100
AcDbSymbolTableRecord
100
AcDbBlockTableRecord
  2
_D_1
340
0
  0
ENDTAB
  0
ENDSEC
  0
SECTION
  2
BLOCKS
  0
BLOCK
  5
20
330
1F
100
AcDbEntity
  8
0
100
AcDbBlockBegin
  2
*Model_Space
 70
     0
 10
0.0
 20
0.0
 30
0.0
  3
*Model_Space
  1

  0
ENDBLK
  5
21
330
1F
100
AcDbEntity
  8
0
100
AcDbBlockEnd
  0
BLOCK
  5
1C
330
1B
100
AcDbEntity
 67
     1
  8
0
100
AcDbBlockBegin
  2
*Paper_Space
 70
     0
 10
0.0
 20
0.0
 30
0.0
  3
*Paper_Space
  1

  0
ENDBLK
  5
1D
330
1B
100
AcDbEntity
 67
     1
  8
0
100
AcDbBlockEnd
  0
BLOCK
  5
24
330
23
100
AcDbEntity
  8
0
100
AcDbBlockBegin
  2
*Paper_Space0
 70
     0
 10
0.0
 20
0.0
 30
0.0
  3
*Paper_Space0
  1

  0
ENDBLK
  5
25
330
23
100
AcDbEntity
  8
0
100
AcDbBlockEnd
  0
BLOCK
  5
7B
330
7A
100
AcDbEntity
  8
0
100
AcDbBlockBegin
  2
_D
 70
     0
 10
0.0
 20
0.0
 30
0.0
  3
_D
  1

  0
SOLID
  5
7D
330
7A
100
AcDbEntity
  8
0
  6
Continuous
 62
     7
370
    18
100
AcDbTrace
 10
42.7614395004
 20
152.0299240879
 30
0.0
 11
42.4614395004
 21
149.5299240879
 31
0.0
 12
43.0614395004
 22
149.5299240879
 32
0.0
 13
43.0614395004
 23
149.5299240879
 33
0.0
  0
SOLID
  5
7E
330
7A
100
AcDbEntity
  8
0
  6
Continuous
 62
     7
370
    18
100
AcDbTrace
 10
42.7614395004
 20
52.0299240879
 30
0.0
 11
43.0614395004
 21
54.5299240879
 31
0.0
 12
42.4614395004
 22
54.5299240879
 32
0.0
 13
42.4614395004
 23
54.5299240879
 33
0.0
  0
LINE
  5
7F
330
7A
100
AcDbEntity
  8
0
  6
Continuous
 62
     7
370
    18
100
AcDbLine
 10
56.6850079902
 20
152.0299240879
 30
0.0
 11
41.7614395004
 21
152.0299240879
 31
0.0
  0
LINE
  5
80
330
7A
100
AcDbEntity
  8
0
  6
Continuous
 62
     7
370
    18
100
AcDbLine
 10
56.6850079902
 20
52.0299240879
 30
0.0
 11
41.7614395004
 21
52.0299240879
 31
0.0
  0
LINE
  5
81
330
7A
100
AcDbEntity
  8
0
  6
Continuous
 62
     7
370
    18
100
AcDbLine
 10
42.7614395004
 20
152.0299240879
 30
0.0
 11
42.7614395004
 21
52.0299240879
 31
0.0
  0
MTEXT
  5
82
330
7A
100
AcDbEntity
  8
0
  6
Continuous
 62
     7
370
    18
100
AcDbMText
 10
35.0270332946
 20
94.3680541463
 30
0.0
 40
6.0
 41
0.0
 71
     1
 72
     1
  1
100
  7
SLDTEXTSTYLE0
 11
-7.044195017643634E-15
 21
1.0
 31
0.0
 73
     1
 44
1.0
  0
MTEXT
  5
83
330
7A
100
AcDbEntity
  8
0
  6
Continuous
 62
     7
370
    18
100
AcDbMText
 10
35.0270332946
 20
105.7430548466
 30
0.0
 40
6.0
 41
0.0
 71
     1
 72
     1
  1
mm
  7
SLDTEXTSTYLE0
 11
-7.044195017643634E-15
 21
1.0
 31
0.0
 73
     1
 44
1.0
  0
ENDBLK
  5
7C
330
7A
100
AcDbEntity
  8
0
100
AcDbBlockEnd
  0
BLOCK
  5
86
330
85
100
AcDbEntity
  8
0
100
AcDbBlockBegin
  2
_D_1
 70
     0
 10
0.0
 20
0.0
 30
0.0
  3
_D_1
  1

  0
SOLID
  5
88
330
85
100
AcDbEntity
  8
0
  6
Continuous
 62
     7
370
    18
100
AcDbTrace
 10
56.6850079902
 20
38.4602342313
 30
0.0
 11
59.1850079902
 21
38.1602342313
 31
0.0
 12
59.1850079902
 22
38.7602342313
 32
0.0
 13
59.1850079902
 23
38.7602342313
 33
0.0
  0
SOLID
  5
89
330
85
100
AcDbEntity
  8
0
  6
Continuous
 62
     7
370
    18
100
AcDbTrace
 10
156.6850079902
 20
38.4602342313
 30
0.0
 11
154.1850079902
 21
38.7602342313
 31
0.0
 12
154.1850079902
 22
38.1602342313
 32
0.0
 13
154.1850079902
 23
38.1602342313
 33
0.0
  0
LINE
  5
8A
330
85
100
AcDbEntity
  8
0
  6
Continuous
 62
     7
370
    18
100
AcDbLine
 10
56.6850079902
 20
52.0299240879
 30
0.0
 11
56.6850079902
 21
37.4602342313
 31
0.0
  0
LINE
  5
8B
330
85
100
AcDbEntity
  8
0
  6
Continuous
 62
     7
370
    18
100
AcDbLine
 10
156.6850079902
 20
52.0299240879
 30
0.0
 11
156.6850079902
 21
37.4602342313
 31
0.0
  0
LINE
  5
8C
330
85
100
AcDbEntity
  8
0
  6
Continuous
 62
     7
370
    18
100
AcDbLine
 10
56.6850079902
 20
38.4602342313
 30
0.0
 11
156.6850079902
 21
38.4602342313
 31
0.0
  0
MTEXT
  5
8D
330
85
100
AcDbEntity
  8
0
  6
Continuous
 62
     7
370
    18
100
AcDbMText
 10
93.9626484861
 20
46.1946404371
 30
0.0
 40
6.0
 41
0.0
 71
     1
 72
     1
  1
100
  7
SLDTEXTSTYLE0
 73
     1
 44
1.0
  0
MTEXT
  5
8E
330
85
100
AcDbEntity
  8
0
  6
Continuous
 62
     7
370
    18
100
AcDbMText
 10
105.3376491864
 20
46.1946404371
 30
0.0
 40
6.0
 41
0.0
 71
     1
 72
     1
  1
mm
  7
SLDTEXTSTYLE0
 73
     1
 44
1.0
  0
ENDBLK
  5
87
330
85
100
AcDbEntity
  8
0
100
AcDbBlockEnd
  0
ENDSEC
  0
SECTION
  2
ENTITIES
  0
LINE
  5
73
330
1F
100
AcDbEntity
  8
0
  6
Continuous
 62
     7
370
    18
100
AcDbLine
 10
56.6850079902
 20
152.0299240879
 30
0.0
 11
56.6850079902
 21
52.0299240879
 31
0.0
  0
LINE
  5
74
330
1F
100
AcDbEntity
  8
0
  6
Continuous
 62
     7
370
    18
100
AcDbLine
 10
56.6850079902
 20
52.0299240879
 30
0.0
 11
156.6850079902
 21
52.0299240879
 31
0.0
  0
ARC
  5
75
330
1F
100
AcDbEntity
  8
0
  6
Continuous
 62
     7
370
    18
100
AcDbCircle
 10
116.6028306595
 20
640.4217859657
 30
0.0
 40
16.31025800208529
100
AcDbArc
 50
178.8880005164
 51
255.3103518066
  0
ARC
  5
76
330
1F
100
AcDbEntity
  8
0
  6
Continuous
 62
     7
370
    18
100
AcDbCircle
 10
132.6352429886
 20
639.9268502819
 30
0.0
 40
15.59629776465979
100
AcDbArc
 50
282.799447007
 51
2.2883297921
  0
DIMENSION
  5
77
330
1F
100
AcDbEntity
  8
0
  6
Continuous
 62
     7
370
    18
100
AcDbDimension
  2
_D
 10
42.7614395004
 20
52.0299240879
 30
0.0
 11
42.7614395004
 21
105.4472211621
 31
0.0
 70
   160
  1
<>mm
 71
     2
 42
-1.0
  3
SLDDIMSTYLE0
100
AcDbAlignedDimension
 13
56.6850079902
 23
152.0299240879
 33
0.0
 14
56.6850079902
 24
52.0299240879
 34
0.0
 50
90.0
100
AcDbRotatedDimension
  0
DIMENSION
  5
84
330
1F
100
AcDbEntity
  8
0
  6
Continuous
 62
     7
370
    18
100
AcDbDimension
  2
_D_1
 10
156.6850079902
 20
38.4602342313
 30
0.0
 11
105.0418155019
 21
38.4602342313
 31
0.0
 70
   160
  1
<>mm
 71
     2
 42
-1.0
  3
SLDDIMSTYLE0
100
AcDbAlignedDimension
 13
56.6850079902
 23
52.0299240879
 33
0.0
 14
156.6850079902
 24
52.0299240879
 34
0.0
100
AcDbRotatedDimension
  0
MTEXT
  5
90
330
1F
100
AcDbEntity
  8
0
  6
Continuous
 62
     7
370
     0
100
AcDbMText
 10
412.8252631579
 20
48.4342449499
 30
0.0
 40
10.0
 41
0.0
 71
     1
 72
     1
  1
KLUDI GmbH & Co KG
  7
SLDTEXTSTYLE1
 73
     1
 44
1.0
  0
MTEXT
  5
91
330
1F
100
AcDbEntity
  8
0
  6
Continuous
 62
     7
370
     0
100
AcDbMText
 10
210.0873490389
 20
48.4342449499
 30
0.0
 40
10.0
 41
0.0
 71
     1
 72
     1
  1
41 298 05 75
  7
SLDTEXTSTYLE1
 73
     1
 44
1.0
  0
SPLINE
  5
92
330
1F
100
AcDbEntity
  8
0
  6
Continuous
 62
     7
370
    25
100
AcDbSpline
210
0.0
220
0.0
230
1.0
 70
     8
 71
     3
 72
    11
 73
     7
 74
     0
 42
0.000000001
 43
0.00000001
 40
0.0
 40
0.0
 40
0.0
 40
0.0
 40
0.1085007773994961
 40
0.4482234491754208
 40
0.863693868418892
 40
1.0
 40
1.0
 40
1.0
 40
1.0
 10
148.2582732577539
 20
633.1389779765692
 30
0.0
 10
148.2582189640264
 20
633.411738852347
 30
0.0
 10
148.2579946732663
 20
634.5385309682321
 30
0.0
 10
148.2535313902338
 20
636.4923743777642
 30
0.0
 10
148.2474677913545
 20
638.4448613419648
 30
0.0
 10
148.2441378681713
 20
639.5601257101913
 30
0.0
 10
148.243315272599
 20
639.8356310238839
 30
0.0
  0
SPLINE
  5
93
330
1F
100
AcDbEntity
  8
0
  6
Continuous
 62
     7
370
    25
100
AcDbSpline
210
0.0
220
0.0
230
1.0
 70
     8
 71
     3
 72
    16
 73
    12
 74
     0
 42
0.000000001
 43
0.00000001
 40
0.0
 40
0.0
 40
0.0
 40
0.0
 40
0.0353248310344926
 40
0.1536864064266086
 40
0.2631009977660158
 40
0.3664362932926722
 40
0.53847606122727
 40
0.7010007818137496
 40
0.8455914041100808
 40
0.9789282614686227
 40
1.0
 40
1.0
 40
1.0
 40
1.0
 10
148.2585948818287
 20
579.881994142435
 30
0.0
 10
148.2585013254154
 20
580.1118049159971
 30
0.0
 10
148.2580942930662
 20
581.1116339572852
 30
0.0
 10
148.2562560770609
 20
583.0102551815487
 30
0.0
 10
148.251929562426
 20
585.5137189625316
 30
0.0
 10
148.2461467917719
 20
588.5798494009747
 30
0.0
 10
148.248355079695
 20
592.1002596236732
 30
0.0
 10
148.2537716060148
 20
595.8113288179786
 30
0.0
 10
148.2573215620058
 20
599.2404933335602
 30
0.0
 10
148.2592082177773
 20
601.538368804271
 30
0.0
 10
148.2592499916891
 20
602.7516211147098
 30
0.0
 10
148.259255692466
 20
602.9171904945156
 30
0.0
  0
SPLINE
  5
94
330
1F
100
AcDbEntity
  8
0
  6
Continuous
 62
     7
370
    25
100
AcDbSpline
210
0.0
220
0.0
230
1.0
 70
     8
 71
     3
 72
    16
 73
    12
 74
     0
 42
0.000000001
 43
0.00000001
 40
0.0
 40
0.0
 40
0.0
 40
0.0
 40
0.0918444433003663
 40
0.2515597637453272
 40
0.3712665236422503
 40
0.5016825655974404
 40
0.6350702305845112
 40
0.7379806853055031
 40
0.8469454421241959
 40
0.9648203993981461
 40
1.0
 40
1.0
 40
1.0
 40
1.0
 10
100.2594955798616
 20
603.0108189709871
 30
0.0
 10
100.2596064175564
 20
602.289093104378
 30
0.0
 10
100.2599099993878
 20
600.3123029800229
 30
0.0
 10
100.2632178970318
 20
597.4443019921993
 30
0.0
 10
100.2667169018195
 20
594.2298460822183
 30
0.0
 10
100.2715990496993
 20
591.2454203399789
 30
0.0
 10
100.2717443811367
 20
588.2737178410923
 30
0.0
 10
100.2666795386912
 20
585.5143604415546
 30
0.0
 10
100.2623145176026
 20
583.0100571856419
 30
0.0
 10
100.260485959286
 20
581.1116465075793
 30
0.0
 10
100.2600784588488
 20
580.1118072615561
 30
0.0
 10
100.2599847948454
 20
579.8819941424349
 30
0.0
  0
SPLINE
  5
95
330
1F
100
AcDbEntity
  8
0
  6
Continuous
 62
     7
370
    25
100
AcDbSpline
210
0.0
220
0.0
230
1.0
 70
     8
 71
     3
 72
    11
 73
     7
 74
     0
 42
0.000000001
 43
0.00000001
 40
0.0
 40
0.0
 40
0.0
 40
0.0
 40
0.1363061315811192
 40
0.5517765508246306
 40
0.891499222600585
 40
1.0
 40
1.0
 40
1.0
 40
1.0
 10
100.2752644040751
 20
639.8356310238838
 30
0.0
 10
100.2744418085028
 20
639.5601257101912
 30
0.0
 10
100.2711118853196
 20
638.4448613419648
 30
0.0
 10
100.2650482864403
 20
636.4923743777642
 30
0.0
 10
100.2605850034079
 20
634.5385309682322
 30
0.0
 10
100.2603607126478
 20
633.4117388523474
 30
0.0
 10
100.2603064189202
 20
633.1389779765699
 30
0.0
  0
LINE
  5
96
330
1F
100
AcDbEntity
  8
0
  6
Continuous
 62
     7
370
    25
100
AcDbLine
 10
136.2592898383
 20
619.2595737327
 30
0.0
 11
136.2592898383
 21
624.7574472483
 31
0.0
  0
LINE
  5
97
330
1F
100
AcDbEntity
  8
0
  6
Continuous
 62
     7
370
    25
100
AcDbLine
 10
112.2592898383
 20
624.7567646009
 30
0.0
 11
112.2592898383
 21
619.2595737327
 31
0.0
  0
LINE
  5
98
330
1F
100
AcDbEntity
  8
0
  6
Continuous
 62
     7
370
    25
100
AcDbLine
 10
134.7554633747
 20
618.1304975455
 30
0.0
 11
135.7096609689
 21
618.6485002726
 31
0.0
  0
LINE
  5
99
330
1F
100
AcDbEntity
  8
0
  6
Continuous
 62
     7
370
    25
100
AcDbLine
 10
112.8089187077
 20
618.6485002726
 30
0.0
 11
113.763116302
 21
618.1304975455
 31
0.0
  0
SPLINE
  5
9A
330
1F
100
AcDbEntity
  8
0
  6
Continuous
 62
     7
370
    25
100
AcDbSpline
210
0.0
220
0.0
230
1.0
 70
     8
 71
     3
 72
    15
 73
    11
 74
     0
 42
0.000000001
 43
0.00000001
 40
0.0
 40
0.0
 40
0.0
 40
0.0
 40
0.1387512436538783
 40
0.2783745164890442
 40
0.4056281473965452
 40
0.5239833262630219
 40
0.6377733178813179
 40
0.75187975806616
 40
0.871179669836461
 40
1.0
 40
1.0
 40
1.0
 40
1.0
 10
122.4712989369593
 20
679.6983219498616
 30
0.0
 10
122.0422917516394
 20
679.6924282532191
 30
0.0
 10
121.1815811400526
 20
679.6806038190014
 30
0.0
 10
119.3799634988911
 20
679.6316774272874
 30
0.0
 10
117.2121022913627
 20
679.5432754472815
 30
0.0
 10
114.6993601082674
 20
679.3989951930491
 30
0.0
 10
111.8509115264711
 20
679.1815642851377
 30
0.0
 10
108.6789531302008
 20
678.8697923950025
 30
0.0
 10
105.1982408348199
 20
678.451186617632
 30
0.0
 10
102.8102750665327
 20
678.0851043385883
 30
0.0
 10
101.5704788439738
 20
677.8950398775596
 30
0.0
  0
SPLINE
  5
9B
330
1F
100
AcDbEntity
  8
0
  6
Continuous
 62
     7
370
    25
100
AcDbSpline
210
0.0
220
0.0
230
1.0
 70
     8
 71
     3
 72
    15
 73
    11
 74
     0
 42
0.000000001
 43
0.00000001
 40
0.0
 40
0.0
 40
0.0
 40
0.0
 40
0.1111839925117417
 40
0.2198827573278074
 40
0.3300790328245378
 40
0.4455860846748288
 40
0.5697146748297914
 40
0.7051338667291107
 40
0.8538710974487671
 40
1.0
 40
1.0
 40
1.0
 40
1.0
 10
146.9481008327025
 20
677.8950398775596
 30
0.0
 10
145.9118643677036
 20
678.0551852074475
 30
0.0
 10
143.8625537968181
 20
678.3718962367371
 30
0.0
 10
140.837681495506
 20
678.754211949934
 30
0.0
 10
137.9589174751759
 20
679.0617571200507
 30
0.0
 10
135.2299683084956
 20
679.2973480745743
 30
0.0
 10
132.6498102996754
 20
679.4717417506947
 30
0.0
 10
130.2211133101835
 20
679.5923152954437
 30
0.0
 10
127.9987581275733
 20
679.6678892827802
 30
0.0
 10
126.7426809936971
 20
679.6870863290128
 30
0.0
 10
126.1201979331402
 20
679.6965999454703
 30
0.0
  0
SPLINE
  5
9C
330
1F
100
AcDbEntity
  8
0
  6
Continuous
 62
     7
370
    25
100
AcDbSpline
210
0.0
220
0.0
230
1.0
 70
     8
 71
     3
 72
    10
 73
     6
 74
     0
 42
0.000000001
 43
0.00000001
 40
0.0
 40
0.0
 40
0.0
 40
0.0
 40
0.3187585731814496
 40
0.6894119217376969
 40
1.0
 40
1.0
 40
1.0
 40
1.0
 10
104.2823415592323
 20
643.6641093868834
 30
0.0
 10
103.9590692016339
 20
643.6102949759696
 30
0.0
 10
103.2598948545029
 20
643.4939050195364
 30
0.0
 10
102.3211517569297
 20
643.3112868720943
 30
0.0
 10
101.8729184442233
 20
643.2191790531982
 30
0.0
 10
101.6685622237616
 20
643.1771857313923
 30
0.0
  0
SPLINE
  5
9D
330
1F
100
AcDbEntity
  8
0
  6
Continuous
 62
     7
370
    25
100
AcDbSpline
210
0.0
220
0.0
230
1.0
 70
     8
 71
     3
 72
     9
 73
     5
 74
     0
 42
0.000000001
 43
0.00000001
 40
0.0
 40
0.0
 40
0.0
 40
0.0
 40
0.4123311619813759
 40
1.0
 40
1.0
 40
1.0
 40
1.0
 10
124.2592999110686
 20
644.9075633115376
 30
0.0
 10
123.738069028272
 20
644.9077995527601
 30
0.0
 10
122.4739616047826
 20
644.9083724932609
 30
0.0
 10
121.2106972248687
 20
644.8779002712246
 30
0.0
 10
120.4683161146143
 20
644.8599926959085
 30
0.0
  0
LINE
  5
9E
330
1F
100
AcDbEntity
  8
0
  6
Continuous
 62
     7
370
    25
100
AcDbLine
 10
121.8876873099
 20
644.8917552196
 30
0.0
 11
118.1520358763
 21
644.7778706941
 31
0.0
  0
SPLINE
  5
9F
330
1F
100
AcDbEntity
  8
0
  6
Continuous
 62
     7
370
    25
100
AcDbSpline
210
0.0
220
0.0
230
1.0
 70
     8
 71
     3
 72
    10
 73
     6
 74
     0
 42
0.000000001
 43
0.00000001
 40
0.0
 40
0.0
 40
0.0
 40
0.0
 40
0.3105880782623054
 40
0.6812414268185515
 40
0.9999999999999999
 40
0.9999999999999999
 40
0.9999999999999999
 40
0.9999999999999999
 10
146.8500174529126
 20
643.1771857313923
 30
0.0
 10
146.6456612324508
 20
643.2191790531982
 30
0.0
 10
146.1974279197444
 20
643.3112868720942
 30
0.0
 10
145.2586848221712
 20
643.4939050195363
 30
0.0
 10
144.5595104750402
 20
643.6102949759696
 30
0.0
 10
144.2362381174419
 20
643.6641093868835
 30
0.0
  0
SPLINE
  5
A0
330
1F
100
AcDbEntity
  8
0
  6
Continuous
 62
     7
370
    25
100
AcDbSpline
210
0.0
220
0.0
230
1.0
 70
     8
 71
     3
 72
    15
 73
    11
 74
     0
 42
0.000000001
 43
0.00000001
 40
0.0
 40
0.0
 40
0.0
 40
0.0
 40
0.0015254532253143
 40
0.0034545041354007
 40
0.0055374253235412
 40
0.0104808416441771
 40
0.0247314157716522
 40
0.0740651740546954
 40
0.261640530051135
 40
1.0
 40
1.0
 40
1.0
 40
1.0
 10
132.0660437721507
 20
644.6920582855513
 30
0.0
 10
132.0659602876742
 20
644.6920679469089
 30
0.0
 10
132.0657712307665
 20
644.6920898257838
 30
0.0
 10
132.0622239508083
 20
644.6923039250419
 30
0.0
 10
132.0535543925231
 20
644.6928095709932
 30
0.0
 10
132.023744694478
 20
644.6945063413335
 30
0.0
 10
131.9061433345687
 20
644.7010681036829
 30
0.0
 10
131.4509820571643
 20
644.7257050446915
 30
0.0
 10
129.669245298444
 20
644.8155544067529
 30
0.0
 10
127.9788490747334
 20
644.8579489438987
 30
0.0
 10
126.6308923667996
 20
644.8917552195659
 30
0.0
  0
SPLINE
  5
A1
330
1F
100
AcDbEntity
  8
0
  6
Continuous
 62
     7
370
    25
100
AcDbSpline
210
0.0
220
0.0
230
1.0
 70
     8
 71
     3
 72
     9
 73
     5
 74
     0
 42
0.000000001
 43
0.00000001
 40
0.0
 40
0.0
 40
0.0
 40
0.0
 40
0.6028081541554279
 40
1.0
 40
1.0
 40
1.0
 40
1.0
 10
128.0502635620598
 20
644.8599926959085
 30
0.0
 10
127.3078849519648
 20
644.8779923398381
 30
0.0
 10
126.0763511630181
 20
644.9078519955272
 30
0.0
 10
124.8439955032407
 20
644.907446177087
 30
0.0
 10
124.3545138839968
 20
644.9072849893116
 30
0.0
  0
SPLINE
  5
A2
330
1F
100
AcDbEntity
  8
0
  6
Continuous
 62
     7
370
    25
100
AcDbSpline
210
0.0
220
0.0
230
1.0
 70
     8
 71
     3
 72
    13
 73
     9
 74
     0
 42
0.000000001
 43
0.00000001
 40
0.0
 40
0.0
 40
0.0
 40
0.0
 40
0.1028250103508106
 40
0.2944576765060773
 40
0.5164915324921049
 40
0.7103604031157801
 40
0.8964319662823265
 40
1.0
 40
1.0
 40
1.0
 40
1.0
 10
148.1281202940283
 20
641.9954665168158
 30
0.0
 10
148.1285797418916
 20
641.9944974835284
 30
0.0
 10
148.1298954524355
 20
641.9917224846321
 30
0.0
 10
148.0774349762173
 20
642.1657886578699
 30
0.0
 10
147.9850383253252
 20
642.3838084613602
 30
0.0
 10
147.7431994705155
 20
642.727403265797
 30
0.0
 10
147.3368033417757
 20
643.0796857490085
 30
0.0
 10
146.9825633587988
 20
643.1348151113332
 30
0.0
 10
146.8558958074841
 20
643.1545280225424
 30
0.0
  0
SPLINE
  5
A3
330
1F
100
AcDbEntity
  8
0
  6
Continuous
 62
     7
370
    25
100
AcDbSpline
210
0.0
220
0.0
230
1.0
 70
     8
 71
     3
 72
    13
 73
     9
 74
     0
 42
0.000000001
 43
0.00000001
 40
0.0
 40
0.0
 40
0.0
 40
0.0
 40
0.1235186603366709
 40
0.3063385204342438
 40
0.4892414836756208
 40
0.7037810760453936
 40
0.993102258428964
 40
1.0
 40
1.0
 40
1.0
 40
1.0
 10
101.6642207064975
 20
643.1500839203004
 30
0.0
 10
101.5131841422954
 20
643.1235525698536
 30
0.0
 10
101.1385984927829
 20
643.0577521910374
 30
0.0
 10
100.7540924597997
 20
642.7004158675358
 30
0.0
 10
100.5291640418332
 20
642.3709278130964
 30
0.0
 10
100.4320513971649
 20
642.1534275963029
 30
0.0
 10
100.3617935552655
 20
641.8883937491911
 30
0.0
 10
100.3777931469734
 20
641.9467539347021
 30
0.0
 10
100.378165712802
 20
641.9481129075601
 30
0.0
  0
SPLINE
  5
A4
330
1F
100
AcDbEntity
  8
0
  6
Continuous
 62
     7
370
    25
100
AcDbSpline
210
0.0
220
0.0
230
1.0
 70
     8
 71
     3
 72
    11
 73
     7
 74
     0
 42
0.000000001
 43
0.00000001
 40
0.0
 40
0.0
 40
0.0
 40
0.0
 40
0.1979472185431005
 40
0.572396393607974
 40
0.9080296814310839
 40
0.9999999999999999
 40
0.9999999999999999
 40
0.9999999999999999
 40
0.9999999999999999
 10
100.2770470510946
 20
674.0921370569021
 30
0.0
 10
100.2755200949574
 20
673.3679259009754
 30
0.0
 10
100.2711046543536
 20
671.2737522272348
 30
0.0
 10
100.2650882866909
 20
668.0124510778755
 30
0.0
 10
100.2618189346327
 20
665.1689521784139
 30
0.0
 10
100.2608037890113
 20
664.0148627863572
 30
0.0
 10
100.2605854483219
 20
663.7666376370419
 30
0.0
  0
SPLINE
  5
A5
330
1F
100
AcDbEntity
  8
0
  6
Continuous
 62
     7
370
    25
100
AcDbSpline
210
0.0
220
0.0
230
1.0
 70
     8
 71
     3
 72
    11
 73
     7
 74
     0
 42
0.000000001
 43
0.00000001
 40
0.0
 40
0.0
 40
0.0
 40
0.0
 40
0.0919703185689837
 40
0.4276036063920629
 40
0.8020527814568732
 40
0.9999999999999999
 40
0.9999999999999999
 40
0.9999999999999999
 40
0.9999999999999999
 10
148.2579942283543
 20
663.7666376370389
 30
0.0
 10
148.257775887665
 20
664.0148627863546
 30
0.0
 10
148.2567607420435
 20
665.1689521784119
 30
0.0
 10
148.2534913899853
 20
668.0124510778743
 30
0.0
 10
148.2474750223227
 20
671.2737522272347
 30
0.0
 10
148.2430595817189
 20
673.3679259009758
 30
0.0
 10
148.2415326255816
 20
674.0921370569029
 30
0.0
  0
ARC
  5
A6
330
1F
100
AcDbEntity
  8
0
  6
Continuous
 62
     7
370
    25
100
AcDbCircle
 10
135.7592898383
 20
643.2414524339
 30
0.0
 40
9.999999999999982
100
AcDbArc
 50
0.3565237064
 51
9.0468459803
  0
ARC
  5
A7
330
1F
100
AcDbEntity
  8
0
  6
Continuous
 62
     7
370
    25
100
AcDbCircle
 10
112.7592898383
 20
643.2414524339
 30
0.0
 40
10.00000000000001
100
AcDbArc
 50
170.9531540197
 51
179.6014102344
  0
ARC
  5
A8
330
1F
100
AcDbEntity
  8
0
  6
Continuous
 62
     7
370
    25
100
AcDbCircle
 10
124.2592898383
 20
641.4103916589
 30
0.0
 40
21.64486082191335
100
AcDbArc
 50
163.5541781023
 51
170.9531540197
  0
ARC
  5
A9
330
1F
100
AcDbEntity
  8
0
  6
Continuous
 62
     7
370
    25
100
AcDbCircle
 10
124.2592898383
 20
641.4103916589
 30
0.0
 40
21.64486082191335
100
AcDbArc
 50
9.0468459803
 51
16.4455807753
  0
LINE
  5
AA
330
1F
100
AcDbEntity
  8
0
  6
Continuous
 62
     7
370
    25
100
AcDbLine
 10
101.629637409
 20
677.9158065202
 30
0.0
 11
100.780770176
 21
677.5073477126
 31
0.0
  0
LINE
  5
AB
330
1F
100
AcDbEntity
  8
0
  6
Continuous
 62
     7
370
    25
100
AcDbLine
 10
147.7378095007
 20
677.5073477126
 30
0.0
 11
146.8889422677
 21
677.9158065202
 31
0.0
  0
SPLINE
  5
AC
330
1F
100
AcDbEntity
  8
0
  6
Continuous
 62
     7
370
    25
100
AcDbSpline
210
0.0
220
0.0
230
1.0
 70
     8
 71
     3
 72
     9
 73
     5
 74
     0
 42
0.000000001
 43
0.00000001
 40
0.0
 40
0.0
 40
0.0
 40
0.0
 40
0.479086820934073
 40
1.0
 40
1.0
 40
1.0
 40
1.0
 10
101.1446507117372
 20
648.2076669274265
 30
0.0
 10
101.2372573217836
 20
648.0737049004084
 30
0.0
 10
101.4305555007356
 20
647.7940853801781
 30
0.0
 10
101.7630213657027
 20
647.6777411267817
 30
0.0
 10
101.9362072163536
 20
647.6171358718789
 30
0.0
  0
SPLINE
  5
AD
330
1F
100
AcDbEntity
  8
0
  6
Continuous
 62
     7
370
    25
100
AcDbSpline
210
0.0
220
0.0
230
1.0
 70
     8
 71
     3
 72
    13
 73
     9
 74
     0
 42
0.000000001
 43
0.00000001
 40
0.0
 40
0.0
 40
0.0
 40
0.0
 40
0.0001282763808876
 40
0.2086520204064785
 40
0.430378800290789
 40
0.6458862342077981
 40
0.8741038929105095
 40
1.0
 40
1.0
 40
1.0
 40
1.0
 10
145.9491164026307
 20
647.5612690826995
 30
0.0
 10
145.9493165431862
 20
647.5612596835714
 30
0.0
 10
146.2748615186713
 20
647.545971233343
 30
0.0
 10
146.7470768895914
 20
647.6742669209585
 30
0.0
 10
147.3728384745243
 20
648.0361409978022
 30
0.0
 10
147.7375407065957
 20
648.6670824923215
 30
0.0
 10
147.917255624313
 20
649.2901849888011
 30
0.0
 10
147.9737833374907
 20
649.8312863263477
 30
0.0
 10
147.993880322469
 20
650.0236610898243
 30
0.0
  0
SPLINE
  5
AE
330
1F
100
AcDbEntity
  8
0
  6
Continuous
 62
     7
370
    25
100
AcDbSpline
210
0.0
220
0.0
230
1.0
 70
     8
 71
     3
 72
    14
 73
    10
 74
     0
 42
0.000000001
 43
0.00000001
 40
0.0
 40
0.0
 40
0.0
 40
0.0
 40
0.0276424157882332
 40
0.0719434950241168
 40
0.1459029693835033
 40
0.2950474541044126
 40
0.6020708183639495
 40
0.9084404166410519
 40
1.0
 40
1.0
 40
1.0
 40
1.0
 10
100.3748946634375
 20
641.914796766049
 30
0.0
 10
100.3638289907189
 20
641.8792389352361
 30
0.0
 10
100.3350289330007
 20
641.7866943963021
 30
0.0
 10
100.3207888265294
 20
641.6841987293661
 30
0.0
 10
100.3040633956533
 20
641.5629612219974
 30
0.0
 10
100.2982778039834
 20
641.4377762710573
 30
0.0
 10
100.2898628133224
 20
641.215418413677
 30
0.0
 10
100.2843343906888
 20
640.9202348971387
 30
0.0
 10
100.2813982582939
 20
640.6014303134319
 30
0.0
 10
100.2807226831636
 20
640.5280765203347
 30
0.0
  0
SPLINE
  5
AF
330
1F
100
AcDbEntity
  8
0
  6
Continuous
 62
     7
370
    25
100
AcDbSpline
210
0.0
220
0.0
230
1.0
 70
     8
 71
     3
 72
    15
 73
    11
 74
     0
 42
0.000000001
 43
0.00000001
 40
0.0
 40
0.0
 40
0.0
 40
0.0
 40
0.1267314038243789
 40
0.4209520790000151
 40
0.7626490689515488
 40
0.9138252663100348
 40
0.9598467828112724
 40
0.9893713971496706
 40
0.9966798208844329
 40
1.0
 40
1.0
 40
1.0
 40
1.0
 10
148.2379280868643
 20
640.5183200813138
 30
0.0
 10
148.2369494920619
 20
640.6184895192132
 30
0.0
 10
148.233698983473
 20
640.9512131525315
 30
0.0
 10
148.2278232353562
 20
641.2708198763437
 30
0.0
 10
148.2172640360079
 20
641.4777529055025
 30
0.0
 10
148.2102485216749
 20
641.6279473186279
 30
0.0
 10
148.174325255658
 20
641.819362039259
 30
0.0
 10
148.1457391633419
 20
641.9218801112436
 30
0.0
 10
148.1275165051471
 20
641.9768195486396
 30
0.0
 10
148.122075578814
 20
641.9919672209755
 30
0.0
 10
148.1203759339751
 20
641.9966990738868
 30
0.0
  0
SPLINE
  5
B0
330
1F
100
AcDbEntity
  8
0
  6
Continuous
 62
     7
370
    25
100
AcDbSpline
210
0.0
220
0.0
230
1.0
 70
     8
 71
     3
 72
     9
 73
     5
 74
     0
 42
0.000000001
 43
0.00000001
 40
0.0
 40
0.0
 40
0.0
 40
0.0
 40
0.6800415249594802
 40
1.0
 40
1.0
 40
1.0
 40
1.0
 10
147.9830816268154
 20
649.9846689031255
 30
0.0
 10
147.9957686651399
 20
650.0613301364805
 30
0.0
 10
148.0144249351748
 20
650.1740603603586
 30
0.0
 10
148.0257424129396
 20
650.2864168166747
 30
0.0
 10
148.0293635358666
 20
650.3223662170986
 30
0.0
  0
LINE
  5
B1
330
1F
100
AcDbEntity
  8
0
  6
Continuous
 62
     7
370
    25
100
AcDbLine
 10
147.7381903235
 20
677.5069687167
 30
0.0
 11
147.7378750188
 21
677.5072766898
 31
0.0
  0
LINE
  5
B2
330
1F
100
AcDbEntity
  8
0
  6
Continuous
 62
     7
370
    25
100
AcDbLine
 10
100.7807033995
 20
677.5072754609
 30
0.0
 11
100.7803881257
 21
677.5069675175
 31
0.0
  0
LINE
  5
B3
330
1F
100
AcDbEntity
  8
0
  6
Continuous
 62
     7
370
    25
100
AcDbLine
 10
100.7700033867
 20
677.4945992099
 30
0.0
 11
100.7297964617
 21
677.4410541227
 31
0.0
  0
SPLINE
  5
B4
330
1F
100
AcDbEntity
  8
0
  6
Continuous
 62
     7
370
    25
100
AcDbSpline
210
0.0
220
0.0
230
1.0
 70
     8
 71
     3
 72
     9
 73
     5
 74
     0
 42
0.000000001
 43
0.00000001
 40
0.0
 40
0.0
 40
0.0
 40
0.0
 40
0.3747474511991961
 40
1.0
 40
1.0
 40
1.0
 40
1.0
 10
148.0969439509643
 20
676.4143266213705
 30
0.0
 10
148.0831841967333
 20
676.5656136392347
 30
0.0
 10
148.0464667909525
 20
676.9693175667201
 30
0.0
 10
147.9709871757717
 20
677.1412375792072
 30
0.0
 10
147.9237933539975
 20
677.2487310052046
 30
0.0
  0
LINE
  5
B5
330
1F
100
AcDbEntity
  8
0
  6
Continuous
 62
     7
370
    25
100
AcDbLine
 10
147.7923877529
 20
677.4362538228
 30
0.0
 11
147.74857629
 21
677.4945992099
 31
0.0
  0
SPLINE
  5
B6
330
1F
100
AcDbEntity
  8
0
  6
Continuous
 62
     7
370
    25
100
AcDbSpline
210
0.0
220
0.0
230
1.0
 70
     8
 71
     3
 72
    22
 73
    18
 74
     0
 42
0.000000001
 43
0.00000001
 40
0.0
 40
0.0
 40
0.0
 40
0.0
 40
0.1249999999999989
 40
0.1249999999999989
 40
0.2499999999999979
 40
0.2499999999999979
 40
0.3124999999999976
 40
0.3124999999999976
 40
0.3749999999999973
 40
0.3749999999999973
 40
0.4999999999999978
 40
0.4999999999999978
 40
0.6249999999999982
 40
0.6249999999999982
 40
0.7499999999999988
 40
0.7499999999999988
 40
1.0
 40
1.0
 40
1.0
 40
1.0
 10
148.2556162714322
 20
636.556452369214
 30
0.0
 10
148.2543442727082
 20
637.2245966478179
 30
0.0
 10
148.2526758643259
 20
637.8327162180681
 30
0.0
 10
148.2486682778015
 20
638.9397172618268
 30
0.0
 10
148.2463216763984
 20
639.4406708168343
 30
0.0
 10
148.2425543884463
 20
640.0637095370904
 30
0.0
 10
148.2412521563561
 20
640.2514058650248
 30
0.0
 10
148.2385337892722
 20
640.5851285883292
 30
0.0
 10
148.2371110979595
 20
640.7312875506146
 30
0.0
 10
148.2326581101686
 20
641.1017716000073
 30
0.0
 10
148.2295732072274
 20
641.2478087227346
 30
0.0
 10
148.2231204159294
 20
641.4145777616851
 30
0.0
 10
148.2197340627618
 20
641.4328979236623
 30
0.0
 10
148.2129536153533
 20
641.4543396716177
 30
0.0
 10
148.2095909353545
 20
641.4603349044121
 30
0.0
 10
148.1996836552965
 20
641.4950209662134
 30
0.0
 10
148.1932629569828
 20
641.5277591327578
 30
0.0
 10
148.1867253099342
 20
641.5529142597969
 30
0.0
  0
SPLINE
  5
B7
330
1F
100
AcDbEntity
  8
0
  6
Continuous
 62
     7
370
    25
100
AcDbSpline
210
0.0
220
0.0
230
1.0
 70
     8
 71
     3
 72
    12
 73
     8
 74
     0
 42
0.000000001
 43
0.00000001
 40
0.0
 40
0.0
 40
0.0
 40
0.0
 40
0.4999999999999996
 40
0.4999999999999996
 40
0.7499999999999998
 40
0.7499999999999998
 40
1.0
 40
1.0
 40
1.0
 40
1.0
 10
148.2583028965698
 20
578.4666474992464
 30
0.0
 10
148.2606684417967
 20
587.4160357559872
 30
0.0
 10
148.2598218315763
 20
596.365424688582
 30
0.0
 10
148.258842022085
 20
609.7895078847673
 30
0.0
 10
148.258482916519
 20
614.2642022848007
 30
0.0
 10
148.2580713340065
 20
623.2135911030826
 30
0.0
 10
148.2578609948819
 20
627.6882855277686
 30
0.0
 10
148.2584886023365
 20
632.1629799532209
 30
0.0
  0
SPLINE
  5
B8
330
1F
100
AcDbEntity
  8
0
  6
Continuous
 62
     7
370
    25
100
AcDbSpline
210
0.0
220
0.0
230
1.0
 70
     8
 71
     3
 72
    28
 73
    24
 74
     0
 42
0.000000001
 43
0.00000001
 40
0.0
 40
0.0
 40
0.0
 40
0.0
 40
0.1249999999999968
 40
0.1249999999999968
 40
0.2499999999999937
 40
0.2499999999999937
 40
0.3749999999999905
 40
0.3749999999999905
 40
0.4374999999999907
 40
0.4374999999999907
 40
0.499999999999991
 40
0.499999999999991
 40
0.5624999999999912
 40
0.5624999999999912
 40
0.6249999999999915
 40
0.6249999999999915
 40
0.7499999999999946
 40
0.7499999999999946
 40
0.8124999999999961
 40
0.8124999999999961
 40
0.8749999999999976
 40
0.8749999999999976
 40
1.0
 40
1.0
 40
1.0
 40
1.0
 10
136.2592898383371
 20
624.7574472482804
 30
0.0
 10
136.2592898383371
 20
624.8427474484615
 30
0.0
 10
136.1815768773578
 20
624.9095468743026
 30
0.0
 10
135.8761679974174
 20
625.0242064288453
 30
0.0
 10
135.6450536707549
 20
625.0724544897964
 30
0.0
 10
135.0473600688067
 20
625.1687576187677
 30
0.0
 10
134.6805316180033
 20
625.2175611697882
 30
0.0
 10
134.0252279155148
 20
625.3047995050193
 30
0.0
 10
133.7883581862747
 20
625.3362643015874
 30
0.0
 10
133.2896182499917
 20
625.40329401655
 30
0.0
 10
133.0266231085513
 20
625.439004561731
 30
0.0
 10
132.4738309985472
 20
625.5146833044302
 30
0.0
 10
132.1840335509638
 20
625.5546495300963
 30
0.0
 10
131.577323410938
 20
625.6379204271549
 30
0.0
 10
131.2590513642713
 20
625.681407786703
 30
0.0
 10
130.2713167805406
 20
625.8130946544303
 30
0.0
 10
129.5796871594382
 20
625.9011603516296
 30
0.0
 10
128.4936936973743
 20
626.0189399954335
 30
0.0
 10
128.1235436547584
 20
626.0557910151316
 30
0.0
 10
127.3663930995896
 20
626.1220111776078
 30
0.0
 10
126.9814543946384
 20
626.15113182668
 30
0.0
 10
125.8255722391097
 20
626.2223192625395
 30
0.0
 10
125.0466558646108
 20
626.2485956609171
 30
0.0
 10
124.259289838337
 20
626.249358549188
 30
0.0
  0
SPLINE
  5
B9
330
1F
100
AcDbEntity
  8
0
  6
Continuous
 62
     7
370
    25
100
AcDbSpline
210
0.0
220
0.0
230
1.0
 70
     8
 71
     3
 72
    12
 73
     8
 74
     0
 42
0.000000001
 43
0.00000001
 40
0.0
 40
0.0
 40
0.0
 40
0.0
 40
0.4999999999999996
 40
0.4999999999999996
 40
0.7499999999999998
 40
0.7499999999999998
 40
1.0
 40
1.0
 40
1.0
 40
1.0
 10
100.2602767801043
 20
578.4666474992464
 30
0.0
 10
100.2579112348774
 20
587.4160357559872
 30
0.0
 10
100.2587578450978
 20
596.365424688582
 30
0.0
 10
100.2597376545891
 20
609.7895078847673
 30
0.0
 10
100.2600967601551
 20
614.2642022848007
 30
0.0
 10
100.2605083426676
 20
623.2135911030826
 30
0.0
 10
100.2607186817922
 20
627.6882855277686
 30
0.0
 10
100.2600910743376
 20
632.1629799532209
 30
0.0
  0
SPLINE
  5
BA
330
1F
100
AcDbEntity
  8
0
  6
Continuous
 62
     7
370
    25
100
AcDbSpline
210
0.0
220
0.0
230
1.0
 70
     8
 71
     3
 72
    10
 73
     6
 74
     0
 42
0.000000001
 43
0.00000001
 40
0.0
 40
0.0
 40
0.0
 40
0.0
 40
0.4724546329159645
 40
0.626289757244988
 40
1.0
 40
1.0
 40
1.0
 40
1.0
 10
100.2629634052419
 20
636.556452369214
 30
0.0
 10
100.2649597251933
 20
637.3560192976222
 30
0.0
 10
100.2676060633826
 20
638.4159318111333
 30
0.0
 10
100.2737161558126
 20
639.7501262031735
 30
0.0
 10
100.2776557366983
 20
640.2054952095966
 30
0.0
 10
100.2804465141765
 20
640.5280761145796
 30
0.0
  0
SPLINE
  5
BB
330
1F
100
AcDbEntity
  8
0
  6
Continuous
 62
     7
370
    25
100
AcDbSpline
210
0.0
220
0.0
230
1.0
 70
     8
 71
     3
 72
    16
 73
    12
 74
     0
 42
0.000000001
 43
0.00000001
 40
0.0
 40
0.0
 40
0.0
 40
0.0
 40
0.0433807276023799
 40
0.2551132868251618
 40
0.3606823835898086
 40
0.4693467450156485
 40
0.5741022513025608
 40
0.6819745625121365
 40
0.8915653035439735
 40
0.9981778920979675
 40
1.0
 40
1.0
 40
1.0
 40
1.0
 10
124.2592898383371
 20
626.249358549188
 30
0.0
 10
123.9870287448921
 20
626.2472391609779
 30
0.0
 10
122.3859163094349
 20
626.2347754674848
 30
0.0
 10
120.1334137312327
 20
626.05001821369
 30
0.0
 10
117.7616125480333
 20
625.7518203971288
 30
0.0
 10
116.1615241223176
 20
625.5304511006781
 30
0.0
 10
114.7829185390348
 20
625.3416713794624
 30
0.0
 10
113.3097912252572
 20
625.1527982583702
 30
0.0
 10
112.4848829404178
 20
624.996100360338
 30
0.0
 10
112.2037396099602
 20
624.8444152042273
 30
0.0
 10
112.2612279062184
 20
624.7582537369728
 30
0.0
 10
112.2621939243133
 20
624.7568059025114
 30
0.0
  0
LINE
  5
BC
330
1F
100
AcDbEntity
  8
0
  6
Continuous
 62
     7
370
    25
100
AcDbLine
 10
118.1572033411
 20
644.6548887705
 30
0.0
 11
117.1941746906
 21
644.6144242532
 31
0.0
  0
LINE
  5
BD
330
1F
100
AcDbEntity
  8
0
  6
Continuous
 62
     7
370
    25
100
AcDbLine
 10
119.463458315
 20
621.1318782235
 30
0.0
 11
119.463458315
 21
624.504584302
 31
0.0
  0
LWPOLYLINE
  5
BE
330
1F
100
AcDbEntity
  8
0
  6
Continuous
 62
     7
370
    25
100
AcDbPolyline
 90
       10
 70
   128
 43
0.0
 10
119.463458315
 20
621.1318782235
 10
117.5874766695
 20
620.9572964609
 10
115.9232946087
 20
620.7288197587
 10
114.5237423093
 20
620.453701208
 10
113.4332491622
 20
620.140674566
 10
112.6864333425
 20
619.7996769982
 10
112.3070028403
 20
619.4415336195
 10
112.3070028403
 20
619.0776138458
 10
112.6864333425
 20
618.7194704671
 10
112.8089187077
 20
618.6485002726
  0
LWPOLYLINE
  5
BF
330
1F
100
AcDbEntity
  8
0
  6
Continuous
 62
     7
370
    25
100
AcDbPolyline
 90
       10
 70
   128
 43
0.0
 10
135.7096609689
 20
618.6485002726
 10
135.8321463341
 20
618.7194704671
 10
136.2115768364
 20
619.0776138458
 10
136.2115768364
 20
619.4415336195
 10
135.8321463341
 20
619.7996769982
 10
135.0853305144
 20
620.140674566
 10
133.9948373674
 20
620.453701208
 10
132.595285068
 20
620.7288197587
 10
130.9311030071
 20
620.9572964609
 10
129.0551213616
 20
621.1318782235
  0
LINE
  5
C0
330
1F
100
AcDbEntity
  8
0
  6
Continuous
 62
     7
370
    25
100
AcDbLine
 10
129.0551213616
 20
624.504584302
 30
0.0
 11
129.0551213616
 21
621.1318782235
 31
0.0
  0
ARC
  5
C1
330
1F
100
AcDbEntity
  8
0
  6
Continuous
 62
     7
370
    25
100
AcDbCircle
 10
124.2592898383
 20
557.5063590559
 30
0.0
 40
67.16965227037889
100
AcDbArc
 50
85.9056672793
 51
94.0943327207
  0
LWPOLYLINE
  5
C2
330
1F
100
AcDbEntity
  8
0
  6
Continuous
 62
     7
370
    25
100
AcDbPolyline
 90
       18
 70
   128
 43
0.0
 10
124.2592898383
 20
616.8183437264
 10
126.2805345343
 20
616.8502232683
 10
128.2329481664
 20
616.9447762745
 10
130.05004363
 20
617.0987828558
 10
131.6699419184
 20
617.3069985028
 10
133.0374793384
 20
617.5623326812
 10
134.1060860432
 20
617.856090292
 10
134.8393719132
 20
618.1782677719
 10
135.2123657776
 20
618.5178937534
 10
135.2123657776
 20
618.863402681
 10
134.8393719132
 20
619.2030286625
 10
134.1060860432
 20
619.5252061425
 10
133.0374793384
 20
619.8189637533
 10
131.6699419184
 20
620.0742979317
 10
130.05004363
 20
620.2825135786
 10
128.2329481664
 20
620.4365201599
 10
126.2805345343
 20
620.5310731661
 10
124.2592898383
 20
620.5629527081
  0
SPLINE
  5
C3
330
1F
100
AcDbEntity
  8
0
  6
Continuous
 62
     7
370
    25
100
AcDbSpline
210
0.0
220
0.0
230
1.0
 70
     8
 71
     3
 72
     8
 73
     4
 74
     0
 42
0.000000001
 43
0.00000001
 40
0.0
 40
0.0
 40
0.0
 40
0.0
 40
1.0
 40
1.0
 40
1.0
 40
1.0
 10
129.0551213616498
 20
621.1318782235105
 30
0.0
 10
127.4743349272317
 20
620.7724507385705
 30
0.0
 10
125.877808919715
 20
620.5629527080594
 30
0.0
 10
124.2592898383371
 20
620.5629527080594
 30
0.0
  0
SPLINE
  5
C4
330
1F
100
AcDbEntity
  8
0
  6
Continuous
 62
     7
370
    25
100
AcDbSpline
210
0.0
220
0.0
230
1.0
 70
     8
 71
     3
 72
    10
 73
     6
 74
     0
 42
0.000000001
 43
0.00000001
 40
0.0
 40
0.0
 40
0.0
 40
0.0
 40
0.5
 40
0.5
 40
1.0
 40
1.0
 40
1.0
 40
1.0
 10
124.2592898383371
 20
620.5629527080594
 30
0.0
 10
123.4519149870612
 20
620.5629527080594
 30
0.0
 10
122.6350788502173
 20
620.6151434899267
 30
0.0
 10
121.0336092585706
 20
620.8112892555577
 30
0.0
 10
120.244198889985
 20
620.9543592271813
 30
0.0
 10
119.4634583150243
 20
621.1318782235105
 30
0.0
  0
LINE
  5
C5
330
1F
100
AcDbEntity
  8
0
  6
Continuous
 62
     7
370
    25
100
AcDbLine
 10
119.463458315
 20
624.504584302
 30
0.0
 11
129.0551213616
 21
624.504584302
 31
0.0
  0
LWPOLYLINE
  5
C6
330
1F
100
AcDbEntity
  8
0
  6
Continuous
 62
     7
370
    25
100
AcDbPolyline
 90
       18
 70
   128
 43
0.0
 10
124.2592898383
 20
620.5629527081
 10
122.2380451424
 20
620.5310731661
 10
120.2856315103
 20
620.4365201599
 10
118.4685360467
 20
620.2825135786
 10
116.8486377582
 20
620.0742979317
 10
115.4811003383
 20
619.8189637533
 10
114.4124936334
 20
619.5252061425
 10
113.6792077634
 20
619.2030286625
 10
113.3062138991
 20
618.863402681
 10
113.3062138991
 20
618.5178937534
 10
113.6792077634
 20
618.1782677719
 10
114.4124936334
 20
617.856090292
 10
115.4811003383
 20
617.5623326812
 10
116.8486377582
 20
617.3069985028
 10
118.4685360467
 20
617.0987828558
 10
120.2856315103
 20
616.9447762745
 10
122.2380451424
 20
616.8502232683
 10
124.2592898383
 20
616.8183437264
  0
LINE
  5
C7
330
1F
100
AcDbEntity
  8
0
  6
Continuous
 62
     7
370
    25
100
AcDbLine
 10
101.6299200299
 20
677.9170859874
 30
0.0
 11
101.7427412497
 21
677.9221104828
 31
0.0
  0
LINE
  5
C8
330
1F
100
AcDbEntity
  8
0
  6
Continuous
 62
     7
370
    25
100
AcDbLine
 10
146.8886596468
 20
677.9170859874
 30
0.0
 11
146.775918449
 21
677.922106919
 31
0.0
  0
LINE
  5
C9
330
1F
100
AcDbEntity
  8
0
  6
Continuous
 62
     7
370
    25
100
AcDbLine
 10
126.1175261086
 20
679.6326850977
 30
0.0
 11
125.7009235309
 21
679.6501002841
 31
0.0
  0
SPLINE
  5
CA
330
1F
100
AcDbEntity
  8
0
  6
Continuous
 62
     7
370
    25
100
AcDbSpline
210
0.0
220
0.0
230
1.0
 70
     8
 71
     3
 72
    10
 73
     6
 74
     0
 42
0.000000001
 43
0.00000001
 40
0.0
 40
0.0
 40
0.0
 40
0.0
 40
0.5
 40
0.5
 40
1.0
 40
1.0
 40
1.0
 40
1.0
 10
128.2087641105526
 20
658.1441526336347
 30
0.0
 10
128.127129811817
 20
658.4476017732403
 30
0.0
 10
128.0095863522309
 20
658.7305281467001
 30
0.0
 10
127.7106049807487
 20
659.261554954041
 30
0.0
 10
127.5270754801809
 20
659.5113187833957
 30
0.0
 10
127.3157745330707
 20
659.7368301128985
 30
0.0
  0
SPLINE
  5
CB
330
1F
100
AcDbEntity
  8
0
  6
Continuous
 62
     7
370
    25
100
AcDbSpline
210
0.0
220
0.0
230
1.0
 70
     8
 71
     3
 72
    14
 73
    10
 74
     0
 42
0.000000001
 43
0.00000001
 40
0.0
 40
0.0
 40
0.0
 40
0.0
 40
0.49999999999998
 40
0.49999999999998
 40
0.7499999999999687
 40
0.7499999999999687
 40
0.8749999999999843
 40
0.8749999999999843
 40
1.0
 40
1.0
 40
1.0
 40
1.0
 10
127.3157745330694
 20
659.7368301128977
 30
0.0
 10
127.2568797853155
 20
659.7996856421718
 30
0.0
 10
127.1917952524189
 20
659.8554951219064
 30
0.0
 10
127.0793921757838
 20
659.9227803858229
 30
0.0
 10
127.0393164732318
 20
659.9425545233061
 30
0.0
 10
126.9756074853312
 20
659.9614934680774
 30
0.0
 10
126.9535032565217
 20
659.9661448602633
 30
0.0
 10
126.9081829014224
 20
659.9672265119592
 30
0.0
 10
126.8840508467199
 20
659.9633885902613
 30
0.0
 10
126.8659702721913
 20
659.9492127512289
 30
0.0
  0
SPLINE
  5
CC
330
1F
100
AcDbEntity
  8
0
  6
Continuous
 62
     7
370
    25
100
AcDbSpline
210
0.0
220
0.0
230
1.0
 70
     8
 71
     3
 72
    10
 73
     6
 74
     0
 42
0.000000001
 43
0.00000001
 40
0.0
 40
0.0
 40
0.0
 40
0.0
 40
0.5
 40
0.5
 40
1.0
 40
1.0
 40
1.0
 40
1.0
 10
126.8659702721912
 20
659.9492127512289
 30
0.0
 10
126.4484879616118
 20
659.8051025939913
 30
0.0
 10
126.0241271011077
 20
659.6850708171413
 30
0.0
 10
125.1550658385591
 20
659.5162058770263
 30
0.0
 10
124.707372463297
 20
659.4680717035371
 30
0.0
 10
124.2592898383381
 20
659.4680714098545
 30
0.0
  0
SPLINE
  5
CD
330
1F
100
AcDbEntity
  8
0
  6
Continuous
 62
     7
370
    25
100
AcDbSpline
210
0.0
220
0.0
230
1.0
 70
     8
 71
     3
 72
     8
 73
     4
 74
     0
 42
0.000000001
 43
0.00000001
 40
0.0
 40
0.0
 40
0.0
 40
0.0
 40
1.0
 40
1.0
 40
1.0
 40
1.0
 10
124.2592898383382
 20
659.4680714097781
 30
0.0
 10
123.3570384043898
 20
659.4680720011323
 30
0.0
 10
122.4944214087983
 20
659.6586287977717
 30
0.0
 10
121.6526094044683
 20
659.9492127512347
 30
0.0
  0
SPLINE
  5
CE
330
1F
100
AcDbEntity
  8
0
  6
Continuous
 62
     7
370
    25
100
AcDbSpline
210
0.0
220
0.0
230
1.0
 70
     8
 71
     3
 72
    14
 73
    10
 74
     0
 42
0.000000001
 43
0.00000001
 40
0.0
 40
0.0
 40
0.0
 40
0.0
 40
0.1249999999999904
 40
0.1249999999999904
 40
0.2499999999999808
 40
0.2499999999999808
 40
0.4999999999999637
 40
0.4999999999999637
 40
1.0
 40
1.0
 40
1.0
 40
1.0
 10
121.6526094044839
 20
659.9492127512292
 30
0.0
 10
121.6344525680329
 20
659.9634483824289
 30
0.0
 10
121.6104089265771
 20
659.9672307859639
 30
0.0
 10
121.5650032080515
 20
659.9661391235701
 30
0.0
 10
121.5429586192982
 20
659.9614990180278
 30
0.0
 10
121.4788601890503
 20
659.9424154521995
 30
0.0
 10
121.4396436557159
 20
659.9230261595654
 30
0.0
 10
121.3268593127239
 20
659.855594161442
 30
0.0
 10
121.2616975608421
 20
659.799683154923
 30
0.0
 10
121.2028051436057
 20
659.7368301128981
 30
0.0
  0
SPLINE
  5
CF
330
1F
100
AcDbEntity
  8
0
  6
Continuous
 62
     7
370
    25
100
AcDbSpline
210
0.0
220
0.0
230
1.0
 70
     8
 71
     3
 72
    10
 73
     6
 74
     0
 42
0.000000001
 43
0.00000001
 40
0.0
 40
0.0
 40
0.0
 40
0.0
 40
0.5
 40
0.5
 40
1.0
 40
1.0
 40
1.0
 40
1.0
 10
121.2028051436057
 20
659.7368301128982
 30
0.0
 10
120.9918969453023
 20
659.5117379452914
 30
0.0
 10
120.8116181726142
 20
659.2669973614591
 30
0.0
 10
120.5114000140617
 20
658.7358110035113
 30
0.0
 10
120.3912543815864
 20
658.4468751273158
 30
0.0
 10
120.3098155661223
 20
658.1441526336358
 30
0.0
  0
SPLINE
  5
D0
330
1F
100
AcDbEntity
  8
0
  6
Continuous
 62
     7
370
    25
100
AcDbSpline
210
0.0
220
0.0
230
1.0
 70
     8
 71
     3
 72
     9
 73
     5
 74
     0
 42
0.000000001
 43
0.00000001
 40
0.0
 40
0.0
 40
0.0
 40
0.0
 40
0.1602612271081626
 40
0.9999999999999999
 40
0.9999999999999999
 40
0.9999999999999999
 40
0.9999999999999999
 10
101.6687843233934
 20
643.1760527681679
 30
0.0
 10
101.6624014759438
 20
643.1785853331144
 30
0.0
 10
101.6225737049678
 20
643.1943880633949
 30
0.0
 10
101.6525763070387
 20
643.1678527522469
 30
0.0
 10
101.6777706552852
 20
643.1455700226252
 30
0.0
  0
SPLINE
  5
D1
330
1F
100
AcDbEntity
  8
0
  6
Continuous
 62
     7
370
    25
100
AcDbSpline
210
0.0
220
0.0
230
1.0
 70
     8
 71
     3
 72
     9
 73
     5
 74
     0
 42
0.000000001
 43
0.00000001
 40
0.0
 40
0.0
 40
0.0
 40
0.0
 40
0.1602612271081639
 40
1.0
 40
1.0
 40
1.0
 40
1.0
 10
146.8497953532808
 20
643.1760527681679
 30
0.0
 10
146.8561782007303
 20
643.1785853331144
 30
0.0
 10
146.8960059717063
 20
643.1943880633949
 30
0.0
 10
146.8660033696354
 20
643.1678527522469
 30
0.0
 10
146.8408090213889
 20
643.1455700226252
 30
0.0
  0
SPLINE
  5
D2
330
1F
100
AcDbEntity
  8
0
  6
Continuous
 62
     7
370
    25
100
AcDbSpline
210
0.0
220
0.0
230
1.0
 70
     8
 71
     3
 72
    20
 73
    16
 74
     0
 42
0.000000001
 43
0.00000001
 40
0.0
 40
0.0
 40
0.0
 40
0.0
 40
0.0639572731196472
 40
0.1254719613805888
 40
0.1879473032080992
 40
0.245985158735045
 40
0.3684131929322846
 40
0.492601438226114
 40
0.6173968684144023
 40
0.6804283622391506
 40
0.7421129903348493
 40
0.803953576483583
 40
0.8680637991580644
 40
0.9329348342807074
 40
1.0
 40
1.0
 40
1.0
 40
1.0
 10
100.3235112163972
 20
676.4267519319371
 30
0.0
 10
100.3211414914459
 20
676.4244197055001
 30
0.0
 10
100.3164925434364
 20
676.4198443224175
 30
0.0
 10
100.3097531269715
 20
676.3674074017301
 30
0.0
 10
100.3033761045802
 20
676.2291148002643
 30
0.0
 10
100.2951513723589
 20
675.9023104997497
 30
0.0
 10
100.2855279495891
 20
675.1880094681889
 30
0.0
 10
100.2755223039941
 20
673.9372902066891
 30
0.0
 10
100.2688948401193
 20
672.6336328786924
 30
0.0
 10
100.2648850959806
 20
671.4768690697211
 30
0.0
 10
100.2625820890614
 20
670.5599932700466
 30
0.0
 10
100.260982424492
 20
669.599390152776
 30
0.0
 10
100.2600489591105
 20
668.5993092685176
 30
0.0
 10
100.2596716330336
 20
667.5628784106849
 30
0.0
 10
100.2596988310593
 20
666.8650898447346
 30
0.0
 10
100.259712656227
 20
666.5103933663318
 30
0.0
  0
SPLINE
  5
D3
330
1F
100
AcDbEntity
  8
0
  6
Continuous
 62
     7
370
    25
100
AcDbSpline
210
0.0
220
0.0
230
1.0
 70
     8
 71
     3
 72
    10
 73
     6
 74
     0
 42
0.000000001
 43
0.00000001
 40
0.0
 40
0.0
 40
0.0
 40
0.0
 40
0.5
 40
0.5
 40
1.0
 40
1.0
 40
1.0
 40
1.0
 10
100.2626284403187
 20
654.1339516349425
 30
0.0
 10
100.2706954525259
 20
653.5044114450887
 30
0.0
 10
100.2849112287546
 20
652.8750917294501
 30
0.0
 10
100.3501689300674
 20
651.6174524766489
 30
0.0
 10
100.4001839854384
 20
650.9892755859212
 30
0.0
 10
100.4839218118744
 20
650.3616426390987
 30
0.0
  0
SPLINE
  5
D4
330
1F
100
AcDbEntity
  8
0
  6
Continuous
 62
     7
370
    25
100
AcDbSpline
210
0.0
220
0.0
230
1.0
 70
     8
 71
     3
 72
     9
 73
     5
 74
     0
 42
0.000000001
 43
0.00000001
 40
0.0
 40
0.0
 40
0.0
 40
0.0
 40
0.5536405179984742
 40
0.9999999999999999
 40
0.9999999999999999
 40
0.9999999999999999
 40
0.9999999999999999
 10
100.2603090226032
 20
663.7666375769495
 30
0.0
 10
100.2606694825947
 20
661.9889596015493
 30
0.0
 10
100.2613205548696
 20
658.7780710960856
 30
0.0
 10
100.2622236248956
 20
655.5671828208598
 30
0.0
 10
100.2626267187646
 20
654.1339723935652
 30
0.0
  0
SPLINE
  5
D5
330
1F
100
AcDbEntity
  8
0
  6
Continuous
 62
     7
370
    25
100
AcDbSpline
210
0.0
220
0.0
230
1.0
 70
     8
 71
     3
 72
    24
 73
    20
 74
     0
 42
0.000000001
 43
0.00000001
 40
0.0
 40
0.0
 40
0.0
 40
0.0
 40
0.1249999999999954
 40
0.1249999999999954
 40
0.1874999999999958
 40
0.1874999999999958
 40
0.2499999999999961
 40
0.2499999999999961
 40
0.3749999999999968
 40
0.3749999999999968
 40
0.4999999999999974
 40
0.4999999999999974
 40
0.6249999999999981
 40
0.6249999999999981
 40
0.7499999999999988
 40
0.7499999999999988
 40
0.8749999999999994
 40
0.8749999999999994
 40
1.0
 40
1.0
 40
1.0
 40
1.0
 10
148.2588670193256
 20
666.510393366331
 30
0.0
 10
148.2589226610705
 20
667.2309539379739
 30
0.0
 10
148.2588656730997
 20
667.9300635680389
 30
0.0
 10
148.2582158308599
 20
668.9377265176496
 30
0.0
 10
148.2579082670781
 20
669.266691255896
 30
0.0
 10
148.257064884506
 20
669.919073359424
 30
0.0
 10
148.2565303058931
 20
670.2407332142612
 30
0.0
 10
148.2545734212419
 20
671.1818882885245
 30
0.0
 10
148.2527931448626
 20
671.777424107745
 30
0.0
 10
148.2483429331542
 20
672.8977800149859
 30
0.0
 10
148.2456913318182
 20
673.418988906807
 30
0.0
 10
148.2396847181534
 20
674.3592455190305
 30
0.0
 10
148.2363266052634
 20
674.7782125465226
 30
0.0
 10
148.22910059775
 20
675.4817294079843
 30
0.0
 10
148.2252245465103
 20
675.7671072157972
 30
0.0
 10
148.2171876065745
 20
676.1734402901725
 30
0.0
 10
148.2130867338894
 20
676.2897912749709
 30
0.0
 10
148.204447127413
 20
676.4162164228815
 30
0.0
 10
148.1999675544535
 20
676.4225782643645
 30
0.0
 10
148.1950684602791
 20
676.4267519319371
 30
0.0
  0
SPLINE
  5
D6
330
1F
100
AcDbEntity
  8
0
  6
Continuous
 62
     7
370
    25
100
AcDbSpline
210
0.0
220
0.0
230
1.0
 70
     8
 71
     3
 72
     9
 73
     5
 74
     0
 42
0.000000001
 43
0.00000001
 40
0.0
 40
0.0
 40
0.0
 40
0.0
 40
0.5536405180454076
 40
1.0
 40
1.0
 40
1.0
 40
1.0
 10
148.2582706540731
 20
663.7666375769464
 30
0.0
 10
148.2579101940816
 20
661.9889596015472
 30
0.0
 10
148.2572591218067
 20
658.7780710963576
 30
0.0
 10
148.2563560517808
 20
655.5671828214058
 30
0.0
 10
148.2559529579119
 20
654.1339723943842
 30
0.0
  0
SPLINE
  5
D7
330
1F
100
AcDbEntity
  8
0
  6
Continuous
 62
     7
370
    25
100
AcDbSpline
210
0.0
220
0.0
230
1.0
 70
     8
 71
     3
 72
    10
 73
     6
 74
     0
 42
0.000000001
 43
0.00000001
 40
0.0
 40
0.0
 40
0.0
 40
0.0
 40
0.5
 40
0.5
 40
1.0
 40
1.0
 40
1.0
 40
1.0
 10
148.0346578648019
 20
650.3616426390986
 30
0.0
 10
148.1183981219932
 20
650.9892938049531
 30
0.0
 10
148.1684079368517
 20
651.6174146775011
 30
0.0
 10
148.2336666891712
 20
652.8750414859635
 30
0.0
 10
148.2478841089147
 20
653.504402452235
 30
0.0
 10
148.2559512363575
 20
654.1339516349425
 30
0.0
  0
SPLINE
  5
D8
330
1F
100
AcDbEntity
  8
0
  6
Continuous
 62
     7
370
    25
100
AcDbSpline
210
0.0
220
0.0
230
1.0
 70
    24
 71
     3
 72
    30
 73
    26
 74
     0
 42
0.000000001
 43
0.00000001
 40
0.0
 40
0.0
 40
0.0
 40
0.0
 40
0.1250000000000002
 40
0.1250000000000002
 40
0.1875000000000005
 40
0.1875000000000005
 40
0.2500000000000007
 40
0.2500000000000007
 40
0.3750000000000008
 40
0.3750000000000008
 40
0.4375000000000008
 40
0.4375000000000008
 40
0.5000000000000007
 40
0.5000000000000007
 40
0.6250000000000006
 40
0.6250000000000006
 40
0.6875000000000004
 40
0.6875000000000004
 40
0.7500000000000003
 40
0.7500000000000003
 40
0.8750000000000002
 40
0.8750000000000002
 40
0.9375000000000001
 40
0.9375000000000001
 40
1.0
 40
1.0
 40
1.0
 40
1.0
 10
145.9061854190436
 20
647.5103916588893
 30
0.0
 10
145.5523674264199
 20
647.5103916588894
 30
0.0
 10
145.1060009010402
 20
647.5103916588891
 30
0.0
 10
144.2953466501971
 20
647.5103916588891
 30
0.0
 10
144.0016143410818
 20
647.5103916588891
 30
0.0
 10
143.3663551660582
 20
647.5103916588891
 30
0.0
 10
143.0246049762812
 20
647.5103916588893
 30
0.0
 10
141.9463337339928
 20
647.5103916588893
 30
0.0
 10
141.1516887816761
 20
647.5103916588893
 30
0.0
 10
139.8538040596422
 20
647.5103916588893
 30
0.0
 10
139.4016519551703
 20
647.5103916588893
 30
0.0
 10
138.4733756085288
 20
647.5103916588893
 30
0.0
 10
137.9972857342609
 20
647.5103916588893
 30
0.0
 10
136.5353715823707
 20
647.5103916588893
 30
0.0
 10
135.5161627973238
 20
647.5103916588893
 30
0.0
 10
133.9244084620008
 20
647.5103916588893
 30
0.0
 10
133.381354594091
 20
647.5103916588893
 30
0.0
 10
132.2862512487714
 20
647.5103916588894
 30
0.0
 10
131.7338870890295
 20
647.5103916588894
 30
0.0
 10
130.0626455923852
 20
647.5103916588894
 30
0.0
 10
128.9298628677755
 20
647.5103916588894
 30
0.0
 10
127.2002921683669
 20
647.5103916588894
 30
0.0
 10
126.6186544577816
 20
647.5103916588891
 30
0.0
 10
125.4437322372255
 20
647.5103916588893
 30
0.0
 10
124.8512092548907
 20
647.5103916588893
 30
0.0
 10
124.2592898383381
 20
647.5103916588893
 30
0.0
  0
SPLINE
  5
D9
330
1F
100
AcDbEntity
  8
0
  6
Continuous
 62
     7
370
    25
100
AcDbSpline
210
0.0
220
0.0
230
1.0
 70
    24
 71
     3
 72
    30
 73
    26
 74
     0
 42
0.000000001
 43
0.00000001
 40
0.0
 40
0.0
 40
0.0
 40
0.0
 40
0.0624999999999999
 40
0.0624999999999999
 40
0.1249999999999998
 40
0.1249999999999998
 40
0.2499999999999998
 40
0.2499999999999998
 40
0.3124999999999998
 40
0.3124999999999998
 40
0.3749999999999998
 40
0.3749999999999998
 40
0.4999999999999998
 40
0.4999999999999998
 40
0.5624999999999997
 40
0.5624999999999997
 40
0.6249999999999996
 40
0.6249999999999996
 40
0.7499999999999997
 40
0.7499999999999997
 40
0.8124999999999998
 40
0.8124999999999998
 40
0.8749999999999999
 40
0.8749999999999999
 40
1.0
 40
1.0
 40
1.0
 40
1.0
 10
124.2592898383381
 20
647.5103916588893
 30
0.0
 10
123.6673704217855
 20
647.5103916588893
 30
0.0
 10
123.0748474394507
 20
647.5103916588893
 30
0.0
 10
121.8999252188947
 20
647.5103916588894
 30
0.0
 10
121.3182875083093
 20
647.5103916588894
 30
0.0
 10
119.5887168089008
 20
647.5103916588894
 30
0.0
 10
118.4559340842911
 20
647.5103916588894
 30
0.0
 10
116.7846925876468
 20
647.5103916588894
 30
0.0
 10
116.2323284279049
 20
647.5103916588893
 30
0.0
 10
115.1372250825853
 20
647.5103916588893
 30
0.0
 10
114.5941712146755
 20
647.5103916588891
 30
0.0
 10
113.0024168793524
 20
647.5103916588893
 30
0.0
 10
111.9832080943056
 20
647.5103916588891
 30
0.0
 10
110.5212939424153
 20
647.5103916588891
 30
0.0
 10
110.0452040681474
 20
647.5103916588891
 30
0.0
 10
109.1169277215059
 20
647.5103916588893
 30
0.0
 10
108.6647756170341
 20
647.5103916588893
 30
0.0
 10
107.3668908950002
 20
647.5103916588893
 30
0.0
 10
106.5722459426835
 20
647.5103916588893
 30
0.0
 10
105.493974700395
 20
647.5103916588894
 30
0.0
 10
105.152224510618
 20
647.5103916588893
 30
0.0
 10
104.5169653355944
 20
647.5103916588893
 30
0.0
 10
104.2232330264792
 20
647.5103916588894
 30
0.0
 10
103.4125787756361
 20
647.5103916588893
 30
0.0
 10
102.9662122502564
 20
647.5103916588893
 30
0.0
 10
102.6123942576326
 20
647.5103916588893
 30
0.0
  0
ARC
  5
DA
330
1F
100
AcDbEntity
  8
0
  6
Continuous
 62
     7
370
    25
100
AcDbCircle
 10
124.2592898383
 20
657.5103916589
 30
0.0
 40
4.000000000000017
100
AcDbArc
 50
170.8836260251
 51
9.1163739749
  0
ARC
  5
DB
330
1F
100
AcDbEntity
  8
0
  6
Continuous
 62
     7
370
    25
100
AcDbCircle
 10
124.2592898383
 20
657.5103916589
 30
0.0
 40
3.56968222742368
100
AcDbArc
 50
136.9054767406
 51
43.0945232595
  0
LINE
  5
DC
330
1F
100
AcDbEntity
  8
0
  6
Continuous
 62
     7
370
    25
100
AcDbLine
 10
148.2573868403
 20
347.1603916589
 30
0.0
 11
148.2573868403
 21
542.9103916589
 31
0.0
  0
SPLINE
  5
DD
330
1F
100
AcDbEntity
  8
0
  6
Continuous
 62
     7
370
    25
100
AcDbSpline
210
0.0
220
0.0
230
1.0
 70
     8
 71
     3
 72
    20
 73
    16
 74
     0
 42
0.000000001
 43
0.00000001
 40
0.0
 40
0.0
 40
0.0
 40
0.0
 40
0.0000011676824082
 40
0.1017449267034
 40
0.1727385144391445
 40
0.2455541896423681
 40
0.3143228591435087
 40
0.3849424384756469
 40
0.4537670995359089
 40
0.5245933885053345
 40
0.6141825805648535
 40
0.7054714793364562
 40
0.7274034680947323
 40
0.8151660482791119
 40
1.0
 40
1.0
 40
1.0
 40
1.0
 10
124.2592898383371
 20
347.1603916588894
 30
0.0
 10
124.2593098383367
 20
347.1603916588894
 30
0.0
 10
126.0019913128357
 20
347.1603916592003
 30
0.0
 10
128.9731519138157
 20
347.1603916587902
 30
0.0
 10
133.0242965206189
 20
347.1603916589125
 30
0.0
 10
136.3275964986525
 20
347.1603916588834
 30
0.0
 10
139.3252595177524
 20
347.1603916588909
 30
0.0
 10
141.8974401216799
 20
347.1603916588889
 30
0.0
 10
144.0413317158884
 20
347.1603916588895
 30
0.0
 10
145.81448309963
 20
347.1603916588892
 30
0.0
 10
146.946038086792
 20
347.1603916588894
 30
0.0
 10
147.4897479017288
 20
347.1603916588892
 30
0.0
 10
147.8709770905649
 20
347.1603916588894
 30
0.0
 10
148.2166917506308
 20
347.1603916588892
 30
0.0
 10
148.2338318634112
 20
347.1603916588893
 30
0.0
 10
148.2454537089131
 20
347.1603916588893
 30
0.0
  0
SPLINE
  5
DE
330
1F
100
AcDbEntity
  8
0
  6
Continuous
 62
     7
370
    25
100
AcDbSpline
210
0.0
220
0.0
230
1.0
 70
     8
 71
     3
 72
    20
 73
    16
 74
     0
 42
0.000000001
 43
0.00000001
 40
0.0
 40
0.0
 40
0.0
 40
0.0
 40
0.0000011676600939
 40
0.101742982355235
 40
0.1736546536115683
 40
0.2455425960790525
 40
0.3152380512624662
 40
0.3849219448579396
 40
0.4547513219799926
 40
0.5245649530215767
 40
0.6148725034322672
 40
0.7054771077839763
 40
0.7274086774213835
 40
0.8151695804605993
 40
1.0
 40
1.0
 40
1.0
 40
1.0
 10
124.2592898383371
 20
347.1603916588894
 30
0.0
 10
124.2592698383374
 20
347.1603916588894
 30
0.0
 10
122.5165883649488
 20
347.160391660069
 30
0.0
 10
119.5291173769104
 20
347.1603916585079
 30
0.0
 10
115.4806952307761
 20
347.1603916589764
 30
0.0
 10
112.1625569449515
 20
347.1603916588668
 30
0.0
 10
109.1830650851241
 20
347.1603916588952
 30
0.0
 10
106.5983430918383
 20
347.1603916588877
 30
0.0
 10
104.4692091534333
 20
347.1603916588898
 30
0.0
 10
102.6987543336844
 20
347.1603916588892
 30
0.0
 10
101.5424599177527
 20
347.1603916588894
 30
0.0
 10
101.0289740008994
 20
347.1603916588893
 30
0.0
 10
100.6467930223495
 20
347.1603916588893
 30
0.0
 10
100.3025598051214
 20
347.1603916588894
 30
0.0
 10
100.2850192994657
 20
347.1603916588894
 30
0.0
 10
100.273125967761
 20
347.1603916588893
 30
0.0
  0
LINE
  5
DF
330
1F
100
AcDbEntity
  8
0
  6
Continuous
 62
     7
370
    25
100
AcDbLine
 10
100.2611928364
 20
347.1603916589
 30
0.0
 11
100.2611928364
 21
542.9103916589
 31
0.0
  0
ARC
  5
E0
330
1F
100
AcDbEntity
  8
0
  6
Continuous
 62
     7
370
    25
100
AcDbCircle
 10
100.5111923604
 20
347.1603911829
 30
0.0
 40
0.2499995240108303
100
AcDbArc
 50
179.999890911
 51
269.9998909106
  0
ARC
  5
E1
330
1F
100
AcDbEntity
  8
0
  6
Continuous
 62
     7
370
    25
100
AcDbCircle
 10
148.0073873163
 20
347.1603911829
 30
0.0
 40
0.2499995240108303
100
AcDbArc
 50
270.0001090894
 51
0.000109089
  0
SPLINE
  5
E2
330
1F
100
AcDbEntity
  8
0
  6
Continuous
 62
     7
370
    25
100
AcDbSpline
210
0.0
220
0.0
230
1.0
 70
     8
 71
     3
 72
     9
 73
     5
 74
     0
 42
0.000000001
 43
0.00000001
 40
0.0
 40
0.0
 40
0.0
 40
0.0
 40
0.5410982958924772
 40
1.0
 40
1.0
 40
1.0
 40
1.0
 10
100.5347533613457
 20
650.0075408713066
 30
0.0
 10
100.6015476673818
 20
649.6371241949133
 30
0.0
 10
100.7249897601459
 20
648.952559709671
 30
0.0
 10
100.9719748426088
 20
648.5611429382736
 30
0.0
 10
101.0853167178401
 20
648.3815211148631
 30
0.0
  0
SPLINE
  5
E3
330
1F
100
AcDbEntity
  8
0
  6
Continuous
 62
     7
370
    25
100
AcDbSpline
210
0.0
220
0.0
230
1.0
 70
     8
 71
     3
 72
    11
 73
     7
 74
     0
 42
0.000000001
 43
0.00000001
 40
0.0
 40
0.0
 40
0.0
 40
0.0
 40
0.0006000014014084
 40
0.0006000014014084
 40
0.0006000014014084
 40
0.0010146059072764
 40
0.0010146059072764
 40
0.0010146059072764
 40
0.0010146059072764
 10
100.4839306747941
 20
650.3616354483248
 30
0.0
 10
100.4932091874969
 20
650.2918140746301
 30
0.0
 10
100.5029112307634
 20
650.2220047444513
 30
0.0
 10
100.5130614369773
 20
650.152209052783
 30
0.0
 10
100.5200752976764
 20
650.1039797608411
 30
0.0
 10
100.5273031824047
 20
650.0557568437855
 30
0.0
 10
100.5347533613456
 20
650.0075408713066
 30
0.0
  0
LWPOLYLINE
  5
E4
330
1F
100
AcDbEntity
  8
0
  6
Continuous
 62
     7
370
    25
100
AcDbPolyline
 90
        4
 70
   128
 43
0.0
 10
148.2573596999
 20
544.3326236664
 10
148.2578148666
 20
560.6885162607
 10
148.2578694656
 20
562.7741944739
 10
148.2582111673
 20
578.4666364893
  0
LWPOLYLINE
  5
E5
330
1F
100
AcDbEntity
  8
0
  6
Continuous
 62
     7
370
    25
100
AcDbPolyline
 90
        4
 70
   128
 43
0.0
 10
100.2612595559
 20
542.9103960357
 10
100.2607648101
 20
560.6885162607
 10
100.2607102111
 20
562.7741944739
 10
100.2603685094
 20
578.4666364893
  0
LINE
  5
E6
330
1F
100
AcDbEntity
  8
0
  6
Continuous
 62
     7
370
    25
100
AcDbLine
 10
144.8716506573
 20
643.5622863821
 30
0.0
 11
144.4822391645
 21
643.6229306048
 31
0.0
  0
SPLINE
  5
E7
330
1F
100
AcDbEntity
  8
0
  6
Continuous
 62
     7
370
    25
100
AcDbSpline
210
0.0
220
0.0
230
1.0
 70
     8
 71
     3
 72
    14
 73
    10
 74
     0
 42
0.000000001
 43
0.00000001
 40
0.0
 40
0.0
 40
0.0
 40
0.0
 40
0.0173083366287513
 40
0.2016093585899262
 40
0.3802251611723277
 40
0.5640335108537753
 40
0.7424655998311254
 40
0.9260191154613706
 40
1.0
 40
1.0
 40
1.0
 40
1.0
 10
144.0516797795144
 20
643.6899829124123
 30
0.0
 10
144.0150175232371
 20
643.69577212058
 30
0.0
 10
143.5879716359824
 20
643.7632054372808
 30
0.0
 10
142.2510478912096
 20
643.9119892393587
 30
0.0
 10
140.0395617770013
 20
644.1323687786673
 30
0.0
 10
137.3515532414133
 20
644.3610310239482
 30
0.0
 10
134.2864061870625
 20
644.580900516509
 30
0.0
 10
131.6125226299772
 20
644.7303513379717
 30
0.0
 10
129.9661259601202
 20
644.7952335957367
 30
0.0
 10
129.4931721261562
 20
644.8138720642953
 30
0.0
  0
SPLINE
  5
E8
330
1F
100
AcDbEntity
  8
0
  6
Continuous
 62
     7
370
    25
100
AcDbSpline
210
0.0
220
0.0
230
1.0
 70
     8
 71
     3
 72
    13
 73
     9
 74
     0
 42
0.000000001
 43
0.00000001
 40
0.0
 40
0.0
 40
0.0
 40
0.0
 40
0.1854823779207196
 40
0.3763493912868988
 40
0.5616210187134417
 40
0.7523430849981123
 40
0.9363413795929552
 40
1.0
 40
1.0
 40
1.0
 40
1.0
 10
119.0254075505166
 20
644.8138720642952
 30
0.0
 10
117.8813568221168
 20
644.7647812332941
 30
0.0
 10
115.5600430668089
 20
644.6651744427616
 30
0.0
 10
112.3807355200875
 20
644.4532408138683
 30
0.0
 10
109.4910395160499
 20
644.2221998996354
 30
0.0
 10
107.0948981814153
 20
643.9987792495427
 30
0.0
 10
105.4859000225677
 20
643.8282351739686
 30
0.0
 10
104.8954173236778
 20
643.744715179706
 30
0.0
 10
104.743637535961
 20
643.7232469012569
 30
0.0
  0
SPLINE
  5
E9
330
1F
100
AcDbEntity
  8
0
  6
Continuous
 62
     7
370
    25
100
AcDbSpline
210
0.0
220
0.0
230
1.0
 70
     8
 71
     3
 72
     9
 73
     5
 74
     0
 42
0.000000001
 43
0.00000001
 40
0.0
 40
0.0
 40
0.0
 40
0.0
 40
0.5555602794262343
 40
1.0
 40
1.0
 40
1.0
 40
1.0
 10
104.137865346801
 20
643.6402715949947
 30
0.0
 10
104.0139649250129
 20
643.6244908709014
 30
0.0
 10
103.7909460621166
 20
643.5960858090605
 30
0.0
 10
103.6877401596848
 20
643.5725209201056
 30
0.0
 10
103.6418713572464
 20
643.5620477474431
 30
0.0
  0
SPLINE
  5
EA
330
1F
100
AcDbEntity
  8
0
  6
Continuous
 62
     7
370
    25
100
AcDbSpline
210
0.0
220
0.0
230
1.0
 70
     8
 71
     3
 72
     8
 73
     4
 74
     0
 42
0.000000001
 43
0.00000001
 40
0.0
 40
0.0
 40
0.0
 40
0.0
 40
1.0
 40
1.0
 40
1.0
 40
1.0
 10
124.2592898383371
 20
644.9117466257103
 30
0.0
 10
122.4892611319619
 20
644.910616332291
 30
0.0
 10
120.7446070893582
 20
644.8767973122351
 30
0.0
 10
119.0254075505163
 20
644.8138720642951
 30
0.0
  0
SPLINE
  5
EB
330
1F
100
AcDbEntity
  8
0
  6
Continuous
 62
     7
370
    25
100
AcDbSpline
210
0.0
220
0.0
230
1.0
 70
     8
 71
     3
 72
     8
 73
     4
 74
     0
 42
0.000000001
 43
0.00000001
 40
0.0
 40
0.0
 40
0.0
 40
0.0
 40
1.0
 40
1.0
 40
1.0
 40
1.0
 10
129.4931721261583
 20
644.8138720642951
 30
0.0
 10
127.7739725873167
 20
644.8767973122351
 30
0.0
 10
126.0293185447117
 20
644.910616332291
 30
0.0
 10
124.2592898383371
 20
644.9117466257103
 30
0.0
  0
LINE
  5
EC
330
1F
100
AcDbEntity
  8
0
  6
Continuous
 62
     7
370
    25
100
AcDbLine
 10
102.6123942576
 20
647.5103916589
 30
0.0
 11
102.0353315297
 21
647.6047258646
 31
0.0
  0
LINE
  5
ED
330
1F
100
AcDbEntity
  8
0
  6
Continuous
 62
     7
370
    25
100
AcDbLine
 10
147.9807863134
 20
649.9619808566
 30
0.0
 11
147.9838263153
 21
650.0075408713
 31
0.0
  0
ARC
  5
EE
330
1F
100
AcDbEntity
  8
0
  6
Continuous
 62
     7
370
    25
100
AcDbCircle
 10
101.8285147648
 20
676.4340766206
 30
0.0
 40
1.499888096797096
100
AcDbArc
 50
134.2595224797
 51
180.0334404016
  0
ARC
  5
EF
330
1F
100
AcDbEntity
  8
0
  6
Continuous
 62
     7
370
    25
100
AcDbCircle
 10
146.6900649119
 20
676.4340766206
 30
0.0
 40
1.4998880967968
100
AcDbArc
 50
359.9665595984
 51
45.7404775202
  0
LINE
  5
F0
330
1F
100
AcDbEntity
  8
0
  6
Continuous
 62
     7
370
    25
100
AcDbLine
 10
124.2592898383
 20
679.7103916589
 30
0.0
 11
125.7054120985
 21
679.6762386988
 31
0.0
  0
LINE
  5
F1
330
1F
100
AcDbEntity
  8
0
  6
Continuous
 62
     7
370
    25
100
AcDbLine
 10
124.2592898383
 20
679.7103916589
 30
0.0
 11
122.8131675782
 21
679.6762386988
 31
0.0
  0
SPLINE
  5
F2
330
1F
100
AcDbEntity
  8
0
  6
Continuous
 62
     8
370
    18
100
AcDbSpline
210
0.0
220
0.0
230
1.0
 70
     8
 71
     3
 72
    14
 73
    10
 74
     0
 42
0.000000001
 43
0.00000001
 40
0.0
 40
0.0
 40
0.0
 40
0.0
 40
0.1249999999999999
 40
0.1249999999999999
 40
0.2499999999999999
 40
0.2499999999999999
 40
0.4999999999999999
 40
0.4999999999999999
 40
1.0
 40
1.0
 40
1.0
 40
1.0
 10
148.1867278588285
 20
641.5532270987634
 30
0.0
 10
148.1815002699783
 20
641.5741278731626
 30
0.0
 10
148.1761850106965
 20
641.5889610416141
 30
0.0
 10
148.1652072088762
 20
641.6035783815399
 30
0.0
 10
148.1595464362618
 20
641.6036458796284
 30
0.0
 10
148.1420395578984
 20
641.5925062627808
 30
0.0
 10
148.1296760457369
 20
641.5720869811028
 30
0.0
 10
148.0911703729954
 20
641.5265356208723
 30
0.0
 10
148.0639500998167
 20
641.5189148250001
 30
0.0
 10
148.0354371248594
 20
641.5145576533679
 30
0.0
  0
SPLINE
  5
F3
330
1F
100
AcDbEntity
  8
0
  6
Continuous
 62
     8
370
    18
100
AcDbSpline
210
0.0
220
0.0
230
1.0
 70
     8
 71
     3
 72
    14
 73
    10
 74
     0
 42
0.000000001
 43
0.00000001
 40
0.0
 40
0.0
 40
0.0
 40
0.0
 40
0.25
 40
0.25
 40
0.5
 40
0.5
 40
0.75
 40
0.75
 40
1.0
 40
1.0
 40
1.0
 40
1.0
 10
148.2584890093352
 20
632.1629815199199
 30
0.0
 10
148.2585340536824
 20
632.5400081875706
 30
0.0
 10
148.258562638071
 20
632.9170662502215
 30
0.0
 10
148.2584840295911
 20
633.6701527466287
 30
0.0
 10
148.25837314743
 20
634.0477509065488
 30
0.0
 10
148.2579544947205
 20
634.7887635720109
 30
0.0
 10
148.2576471974249
 20
635.1525719535017
 30
0.0
 10
148.2568026444279
 20
635.865046824585
 30
0.0
 10
148.2562679954046
 20
636.2141621437042
 30
0.0
 10
148.2556163216179
 20
636.5564620359678
 30
0.0
  0
SPLINE
  5
F4
330
1F
100
AcDbEntity
  8
0
  6
Continuous
 62
     8
370
    18
100
AcDbSpline
210
0.0
220
0.0
230
1.0
 70
    24
 71
     3
 72
     8
 73
     4
 74
     0
 42
0.000000001
 43
0.00000001
 40
0.0112506082801846
 40
0.0112506082801846
 40
0.0112506082801846
 40
0.0112506082801846
 40
0.2942137732452782
 40
0.2942137732452782
 40
0.2942137732452782
 40
0.2942137732452782
 10
147.5794226488636
 20
578.466636489285
 30
0.0
 10
148.1762036501412
 20
578.4666364892845
 30
0.0
 10
148.2470420118664
 20
578.4666364892842
 30
0.0
 10
148.2582112497714
 20
578.4666364892842
 30
0.0
  0
SPLINE
  5
F5
330
1F
100
AcDbEntity
  8
0
  6
Continuous
 62
     8
370
    18
100
AcDbSpline
210
0.0
220
0.0
230
1.0
 70
     8
 71
     3
 72
    16
 73
    12
 74
     0
 42
0.000000001
 43
0.00000001
 40
0.0
 40
0.0
 40
0.0
 40
0.0
 40
0.1103535374586605
 40
0.2074295746216991
 40
0.4413505844430337
 40
0.554081867210062
 40
0.6580518002149723
 40
0.7631783346206491
 40
0.8616090048348527
 40
0.9316045160265978
 40
1.0
 40
1.0
 40
1.0
 40
1.0
 10
100.2602768576457
 20
578.4666475000668
 30
0.0
 10
100.2616332667976
 20
578.4666458126624
 30
0.0
 10
100.2641828848693
 20
578.4666426408784
 30
0.0
 10
100.2785428797814
 20
578.466621604948
 30
0.0
 10
100.3100901953994
 20
578.4667322846468
 30
0.0
 10
100.3828017401601
 20
578.466484597356
 30
0.0
 10
100.4591697542149
 20
578.4666972862577
 30
0.0
 10
100.5593513736403
 20
578.4665439480073
 30
0.0
 10
100.6780369058206
 20
578.4666918979663
 30
0.0
 10
100.8040481789871
 20
578.4665288347701
 30
0.0
 10
100.8945253915575
 20
578.4665457218744
 30
0.0
 10
100.9392409652474
 20
578.4665540678051
 30
0.0
  0
SPLINE
  5
F6
330
1F
100
AcDbEntity
  8
0
  6
Continuous
 62
     8
370
    18
100
AcDbSpline
210
0.0
220
0.0
230
1.0
 70
     8
 71
     3
 72
    14
 73
    10
 74
     0
 42
0.000000001
 43
0.00000001
 40
0.0
 40
0.0
 40
0.0
 40
0.0
 40
0.25
 40
0.25
 40
0.5
 40
0.5
 40
0.75
 40
0.75
 40
1.0
 40
1.0
 40
1.0
 40
1.0
 10
100.2600906673389
 20
632.1629815199199
 30
0.0
 10
100.2600456229918
 20
632.5400081875706
 30
0.0
 10
100.2600170386031
 20
632.9170662502215
 30
0.0
 10
100.260095647083
 20
633.6701527466287
 30
0.0
 10
100.2602065292441
 20
634.0477509065488
 30
0.0
 10
100.2606251819536
 20
634.7887635720109
 30
0.0
 10
100.2609324792493
 20
635.1525719535017
 30
0.0
 10
100.2617770322462
 20
635.865046824585
 30
0.0
 10
100.2623116812695
 20
636.2141621437042
 30
0.0
 10
100.2629633550562
 20
636.5564620359678
 30
0.0
  0
SPLINE
  5
F7
330
1F
100
AcDbEntity
  8
0
  6
Continuous
 62
     8
370
    18
100
AcDbSpline
210
0.0
220
0.0
230
1.0
 70
     8
 71
     3
 72
    12
 73
     8
 74
     0
 42
0.000000001
 43
0.00000001
 40
0.0
 40
0.0
 40
0.0
 40
0.0
 40
0.0534836351020164
 40
0.2521907910847953
 40
0.4524062406719833
 40
0.8636244986473652
 40
1.0
 40
1.0
 40
1.0
 40
1.0
 10
100.2804465141765
 20
640.5280761145796
 30
0.0
 10
100.2811713540127
 20
640.6345262477435
 30
0.0
 10
100.2845891832491
 20
641.1364693793663
 30
0.0
 10
100.292434547027
 20
641.3576700493714
 30
0.0
 10
100.3068623879378
 20
641.4907735671378
 30
0.0
 10
100.3200141789996
 20
641.5001100511158
 30
0.0
 10
100.3294935712597
 20
641.5423857158308
 30
0.0
 10
100.3318543667399
 20
641.5529142597969
 30
0.0
  0
SPLINE
  5
F8
330
1F
100
AcDbEntity
  8
0
  6
Continuous
 62
     8
370
    18
100
AcDbSpline
210
0.0
220
0.0
230
1.0
 70
     8
 71
     3
 72
    14
 73
    10
 74
     0
 42
0.000000001
 43
0.00000001
 40
0.0
 40
0.0
 40
0.0
 40
0.0
 40
0.1249999999999999
 40
0.1249999999999999
 40
0.2499999999999999
 40
0.2499999999999999
 40
0.4999999999999999
 40
0.4999999999999999
 40
1.0
 40
1.0
 40
1.0
 40
1.0
 10
100.3318518178456
 20
641.5532270987634
 30
0.0
 10
100.3370794066958
 20
641.5741278731626
 30
0.0
 10
100.3423946659777
 20
641.5889610416141
 30
0.0
 10
100.3533724677979
 20
641.6035783815399
 30
0.0
 10
100.3590332404124
 20
641.6036458796284
 30
0.0
 10
100.3765401187757
 20
641.5925062627808
 30
0.0
 10
100.3889036309373
 20
641.5720869811028
 30
0.0
 10
100.4274093036788
 20
641.5265356208723
 30
0.0
 10
100.4546295768575
 20
641.5189148250001
 30
0.0
 10
100.4831425518147
 20
641.5145576533679
 30
0.0
  0
SPLINE
  5
F9
330
1F
100
AcDbEntity
  8
0
  6
Continuous
 62
     8
370
    18
100
AcDbSpline
210
0.0
220
0.0
230
1.0
 70
     8
 71
     3
 72
    14
 73
    10
 74
     0
 42
0.000000001
 43
0.00000001
 40
0.0
 40
0.0
 40
0.0
 40
0.0
 40
0.25
 40
0.25
 40
0.5
 40
0.5
 40
0.75
 40
0.75
 40
1.0
 40
1.0
 40
1.0
 40
1.0
 10
100.4831382194996
 20
641.514733905636
 30
0.0
 10
100.4784295993625
 20
641.706313868371
 30
0.0
 10
100.5085065101021
 20
641.898695883919
 30
0.0
 10
100.6344219199555
 20
642.2606971426887
 30
0.0
 10
100.7302256507754
 20
642.4302164278131
 30
0.0
 10
100.9753908073553
 20
642.7248211912133
 30
0.0
 10
101.1246845367917
 20
642.8498253212587
 30
0.0
 10
101.4577849559464
 20
643.0394041916916
 30
0.0
 10
101.6414996680335
 20
643.1039265842068
 30
0.0
 10
101.8307443475946
 20
643.1340957625794
 30
0.0
  0
SPLINE
  5
FA
330
1F
100
AcDbEntity
  8
0
  6
Continuous
 62
     8
370
    18
100
AcDbSpline
210
0.0
220
0.0
230
1.0
 70
     8
 71
     3
 72
    50
 73
    46
 74
     0
 42
0.000000001
 43
0.00000001
 40
0.0
 40
0.0
 40
0.0
 40
0.0
 40
0.0312499999999994
 40
0.0312499999999994
 40
0.0468749999999991
 40
0.0468749999999991
 40
0.0624999999999988
 40
0.0624999999999988
 40
0.0781249999999984
 40
0.0781249999999984
 40
0.0859374999999982
 40
0.0859374999999982
 40
0.093749999999998
 40
0.093749999999998
 40
0.1015624999999978
 40
0.1015624999999978
 40
0.1054687499999977
 40
0.1054687499999977
 40
0.1093749999999976
 40
0.1093749999999976
 40
0.1171874999999978
 40
0.1171874999999978
 40
0.1210937499999979
 40
0.1210937499999979
 40
0.124999999999998
 40
0.124999999999998
 40
0.1406249999999983
 40
0.1406249999999983
 40
0.1562499999999987
 40
0.1562499999999987
 40
0.1718749999999991
 40
0.1718749999999991
 40
0.1874999999999994
 40
0.1874999999999994
 40
0.2187499999999997
 40
0.2187499999999997
 40
0.2499999999999999
 40
0.2499999999999999
 40
0.5000000000000002
 40
0.5000000000000002
 40
0.7500000000000001
 40
0.7500000000000001
 40
0.875
 40
0.875
 40
1.0
 40
1.0
 40
1.0
 40
1.0
 10
124.2592898383371
 20
643.4140467710328
 30
0.0
 10
122.3409575670065
 20
643.4135345025749
 30
0.0
 10
120.4225320260406
 20
643.3995434226674
 30
0.0
 10
117.5458725307749
 20
643.3614761531403
 30
0.0
 10
116.5876712446568
 20
643.3458088605969
 30
0.0
 10
114.6724399733031
 20
643.3062213770755
 30
0.0
 10
113.7151440217718
 20
643.2820977527458
 30
0.0
 10
111.8053953703163
 20
643.2305764378011
 30
0.0
 10
110.85285313605
 20
643.2035323511427
 30
0.0
 10
109.4373341774998
 20
643.168029735612
 30
0.0
 10
108.9636230087892
 20
643.1569577953969
 30
0.0
 10
108.0528537777455
 20
643.1385086611352
 30
0.0
 10
107.6150010751257
 20
643.1311832747559
 30
0.0
 10
106.7851880970623
 20
643.1201607295075
 30
0.0
 10
106.4077121557939
 20
643.1164462497028
 30
0.0
 10
105.898200661008
 20
643.1119773726793
 30
0.0
 10
105.7375902112587
 20
643.1106803201138
 30
0.0
 10
105.4347366768542
 20
643.108559822066
 30
0.0
 10
105.2928210926494
 20
643.1077654739948
 30
0.0
 10
104.9037069747292
 20
643.1061689334472
 30
0.0
 10
104.6893332583078
 20
643.1060543516554
 30
0.0
 10
104.4191025758612
 20
643.1062980477575
 30
0.0
 10
104.3374147700833
 20
643.1064959755337
 30
0.0
 10
104.1905588441903
 20
643.1072938458112
 30
0.0
 10
104.1252235945384
 20
643.1079244536916
 30
0.0
 10
103.8321608938931
 20
643.1118049716314
 30
0.0
 10
103.7024649656931
 20
643.1168538396653
 30
0.0
 10
103.5406651807751
 20
643.1247964691026
 30
0.0
 10
103.5065782249734
 20
643.128175560306
 30
0.0
 10
103.4505286453068
 20
643.135412847341
 30
0.0
 10
103.4312955095222
 20
643.1387271060454
 30
0.0
 10
103.3947398234112
 20
643.1439615008785
 30
0.0
 10
103.3780698990871
 20
643.1457346705629
 30
0.0
 10
103.3306527559154
 20
643.1488094803451
 30
0.0
 10
103.3037580359878
 20
643.1485486500543
 30
0.0
 10
103.2491013135958
 20
643.1478889717193
 30
0.0
 10
103.2227538493956
 20
643.1474121399556
 30
0.0
 10
102.9848013489038
 20
643.1449213398464
 30
0.0
 10
102.7920508035848
 20
643.1438212044611
 30
0.0
 10
102.4468093737003
 20
643.1408123676399
 30
0.0
 10
102.2940972098354
 20
643.1394479919626
 30
0.0
 10
102.098927483985
 20
643.13786672151
 30
0.0
 10
102.0406136415444
 20
643.1375885524258
 30
0.0
 10
101.9305277765395
 20
643.1363367342469
 30
0.0
 10
101.878690353666
 20
643.1353475159704
 30
0.0
 10
101.8307443475945
 20
643.1340957625794
 30
0.0
  0
SPLINE
  5
FB
330
1F
100
AcDbEntity
  8
0
  6
Continuous
 62
     8
370
    18
100
AcDbSpline
210
0.0
220
0.0
230
1.0
 70
     8
 71
     3
 72
    50
 73
    46
 74
     0
 42
0.000000001
 43
0.00000001
 40
0.0
 40
0.0
 40
0.0
 40
0.0
 40
0.0312499999999994
 40
0.0312499999999994
 40
0.0468749999999991
 40
0.0468749999999991
 40
0.0624999999999988
 40
0.0624999999999988
 40
0.0781249999999984
 40
0.0781249999999984
 40
0.0859374999999982
 40
0.0859374999999982
 40
0.093749999999998
 40
0.093749999999998
 40
0.1015624999999978
 40
0.1015624999999978
 40
0.1054687499999977
 40
0.1054687499999977
 40
0.1093749999999976
 40
0.1093749999999976
 40
0.1171874999999978
 40
0.1171874999999978
 40
0.1210937499999979
 40
0.1210937499999979
 40
0.124999999999998
 40
0.124999999999998
 40
0.1406249999999983
 40
0.1406249999999983
 40
0.1562499999999987
 40
0.1562499999999987
 40
0.1718749999999991
 40
0.1718749999999991
 40
0.1874999999999994
 40
0.1874999999999994
 40
0.2187499999999997
 40
0.2187499999999997
 40
0.2499999999999999
 40
0.2499999999999999
 40
0.5000000000000002
 40
0.5000000000000002
 40
0.7500000000000001
 40
0.7500000000000001
 40
0.875
 40
0.875
 40
1.0
 40
1.0
 40
1.0
 40
1.0
 10
124.2592898383371
 20
643.4140467710328
 30
0.0
 10
126.1776221095524
 20
643.4135342788175
 30
0.0
 10
128.0960476506335
 20
643.3995434226674
 30
0.0
 10
130.9727071458992
 20
643.3614761531403
 30
0.0
 10
131.9309084320173
 20
643.3458088605969
 30
0.0
 10
133.846139703371
 20
643.3062213770755
 30
0.0
 10
134.8034356549023
 20
643.2820977527458
 30
0.0
 10
136.7131843063578
 20
643.2305764378011
 30
0.0
 10
137.6657265406241
 20
643.2035323511427
 30
0.0
 10
139.0812454991744
 20
643.168029735612
 30
0.0
 10
139.5549566678849
 20
643.1569577953969
 30
0.0
 10
140.4657258989286
 20
643.1385086611352
 30
0.0
 10
140.9035786015484
 20
643.1311832747559
 30
0.0
 10
141.7333915796118
 20
643.1201607295075
 30
0.0
 10
142.1108675208802
 20
643.1164462497028
 30
0.0
 10
142.6203790156661
 20
643.1119773726793
 30
0.0
 10
142.7809894654154
 20
643.1106803201138
 30
0.0
 10
143.08384299982
 20
643.108559822066
 30
0.0
 10
143.2257585840247
 20
643.1077654739948
 30
0.0
 10
143.6148727019449
 20
643.1061689334472
 30
0.0
 10
143.8292464183663
 20
643.1060543516554
 30
0.0
 10
144.0994771008129
 20
643.1062980477575
 30
0.0
 10
144.1811649065908
 20
643.1064959755337
 30
0.0
 10
144.3280208324838
 20
643.1072938458112
 30
0.0
 10
144.3933560821358
 20
643.1079244536916
 30
0.0
 10
144.686418782781
 20
643.1118049716314
 30
0.0
 10
144.816114710981
 20
643.1168538396653
 30
0.0
 10
144.9779144958991
 20
643.1247964691026
 30
0.0
 10
145.0120014517007
 20
643.128175560306
 30
0.0
 10
145.0680510313673
 20
643.135412847341
 30
0.0
 10
145.0872841671519
 20
643.1387271060454
 30
0.0
 10
145.1238398532629
 20
643.1439615008785
 30
0.0
 10
145.1405097775871
 20
643.1457346705629
 30
0.0
 10
145.1879269207587
 20
643.1488094803451
 30
0.0
 10
145.2148216406863
 20
643.1485486500543
 30
0.0
 10
145.2694783630783
 20
643.1478889717193
 30
0.0
 10
145.2958258272785
 20
643.1474121399556
 30
0.0
 10
145.5337783277703
 20
643.1449213398464
 30
0.0
 10
145.7265288730893
 20
643.1438212044611
 30
0.0
 10
146.0717703029738
 20
643.1408123676399
 30
0.0
 10
146.2244824668387
 20
643.1394479919626
 30
0.0
 10
146.4196521926891
 20
643.13786672151
 30
0.0
 10
146.4779660351297
 20
643.1375885524258
 30
0.0
 10
146.5880519001346
 20
643.1363367342469
 30
0.0
 10
146.6398893230082
 20
643.1353475159704
 30
0.0
 10
146.6878353290796
 20
643.1340957625794
 30
0.0
  0
SPLINE
  5
FC
330
1F
100
AcDbEntity
  8
0
  6
Continuous
 62
     8
370
    18
100
AcDbSpline
210
0.0
220
0.0
230
1.0
 70
     8
 71
     3
 72
    14
 73
    10
 74
     0
 42
0.000000001
 43
0.00000001
 40
0.0
 40
0.0
 40
0.0
 40
0.0
 40
0.25
 40
0.25
 40
0.5
 40
0.5
 40
0.75
 40
0.75
 40
1.0
 40
1.0
 40
1.0
 40
1.0
 10
146.6876875335853
 20
643.1339472202199
 30
0.0
 10
146.8769471659726
 20
643.1037932768595
 30
0.0
 10
147.0606792622312
 20
643.0392810894202
 30
0.0
 10
147.3938141069078
 20
642.8497123120432
 30
0.0
 10
147.5431248440661
 20
642.7247080806693
 30
0.0
 10
147.7883190004055
 20
642.4300948519212
 30
0.0
 10
147.8841346973907
 20
642.2605672262043
 30
0.0
 10
148.0100658691674
 20
641.8985448754116
 30
0.0
 10
148.0401465619901
 20
641.7061501402745
 30
0.0
 10
148.0354371248594
 20
641.5145576533679
 30
0.0
  0
LINE
  5
FD
330
1F
100
AcDbEntity
  8
0
  6
Continuous
 62
     8
370
    18
100
AcDbLine
 10
124.2592897994
 20
644.9112861096
 30
0.0
 11
118.1572033411
 21
644.6548887705
 31
0.0
  0
SPLINE
  5
FE
330
1F
100
AcDbEntity
  8
0
  6
Continuous
 62
     8
370
    18
100
AcDbSpline
210
0.0
220
0.0
230
1.0
 70
     8
 71
     3
 72
     9
 73
     5
 74
     0
 42
0.000000001
 43
0.00000001
 40
0.0
 40
0.0
 40
0.0
 40
0.0
 40
0.3158527602113107
 40
1.0
 40
1.0
 40
1.0
 40
1.0
 10
117.1941746905744
 20
644.614424253187
 30
0.0
 10
115.5678479131219
 20
644.5663773776989
 30
0.0
 10
110.4188450158085
 20
644.4142594242072
 30
0.0
 10
105.3195045578727
 20
643.6541394150605
 30
0.0
 10
101.8308048588331
 20
643.1341054088948
 30
0.0
  0
SPLINE
  5
FF
330
1F
100
AcDbEntity
  8
0
  6
Continuous
 62
     8
370
    18
100
AcDbSpline
210
0.0
220
0.0
230
1.0
 70
     8
 71
     3
 72
    26
 73
    22
 74
     0
 42
0.000000001
 43
0.00000001
 40
0.0
 40
0.0
 40
0.0
 40
0.0
 40
0.0528663929238353
 40
0.1056851903441111
 40
0.1584609920111482
 40
0.211197774228597
 40
0.2638984919907654
 40
0.3165663572143687
 40
0.3692058292836376
 40
0.4218208663292501
 40
0.4744150219613114
 40
0.5269918548434037
 40
0.5795549589228208
 40
0.6321079453003385
 40
0.6846544260667589
 40
0.7371980132678982
 40
0.7897423356423794
 40
0.8422910565562789
 40
0.8948478612576712
 40
0.9474163769738387
 40
1.0
 40
1.0
 40
1.0
 40
1.0
 10
124.2592691317508
 20
644.9111062677295
 30
0.0
 10
124.6561589509355
 20
644.9101631384227
 30
0.0
 10
125.4495812702263
 20
644.9082777289068
 30
0.0
 10
126.6391284239074
 20
644.8926687127084
 30
0.0
 10
127.8275369708014
 20
644.8679674679515
 30
0.0
 10
129.0148167641632
 20
644.8333867739802
 30
0.0
 10
130.2009569918289
 20
644.7889449335704
 30
0.0
 10
131.385939655726
 20
644.7342933479316
 30
0.0
 10
132.5697845338826
 20
644.6698448645423
 30
0.0
 10
133.7525071432786
 20
644.5956956281534
 30
0.0
 10
134.9341076831973
 20
644.5118094381885
 30
0.0
 10
136.1145843637884
 20
644.4181712623415
 30
0.0
 10
137.2939360414602
 20
644.3147737579267
 30
0.0
 10
138.472162731381
 20
644.2016196945764
 30
0.0
 10
139.6492643614826
 20
644.0787099975872
 30
0.0
 10
140.8252405915982
 20
643.9460393053629
 30
0.0
 10
142.0000857389551
 20
643.8035636313866
 30
0.0
 10
143.1738048253556
 20
643.6513052558931
 30
0.0
 10
144.346357664962
 20
643.4890113723467
 30
0.0
 10
145.5178808483875
 20
643.317559645149
 30
0.0
 10
146.2977549764584
 20
643.1951507950323
 30
0.0
 10
146.6877480631309
 20
643.1339375766747
 30
0.0
  0
SPLINE
  5
100
330
1F
100
AcDbEntity
  8
0
  6
Continuous
 62
     8
370
    18
100
AcDbSpline
210
0.0
220
0.0
230
1.0
 70
     8
 71
     3
 72
    26
 73
    22
 74
     0
 42
0.000000001
 43
0.00000001
 40
0.0
 40
0.0
 40
0.0
 40
0.0
 40
0.0198067341554862
 40
0.0354858818469119
 40
0.0470601643043725
 40
0.0545516184709669
 40
0.0745299380694964
 40
0.1119481173503084
 40
0.1785054974944449
 40
0.2359450354793553
 40
0.3000146728050583
 40
0.3637210695169696
 40
0.4906372644088227
 40
0.6179924630011355
 40
0.7454531344156277
 40
0.8283653313802626
 40
0.8914394695212117
 40
0.9462194326858334
 40
0.9733326051637228
 40
0.9869130414454503
 40
1.0
 40
1.0
 40
1.0
 40
1.0
 10
108.4076943429734
 20
677.9266766400739
 30
0.0
 10
108.5094841791632
 20
677.9287283304543
 30
0.0
 10
108.6918515534054
 20
677.932404153124
 30
0.0
 10
108.9353697432176
 20
677.937116844435
 30
0.0
 10
109.1157153991878
 20
677.9405728027729
 30
0.0
 10
109.318918984525
 20
677.9445024343206
 30
0.0
 10
109.6579657871174
 20
677.9513697194413
 30
0.0
 10
110.308464964344
 20
677.9638383323921
 30
0.0
 10
111.1598450461628
 20
677.977395458703
 30
0.0
 10
112.1540612203692
 20
677.9879475549845
 30
0.0
 10
113.1338845001125
 20
677.9927395952568
 30
0.0
 10
114.482084561784
 20
677.9962124437247
 30
0.0
 10
116.1660252586269
 20
678.0025081513556
 30
0.0
 10
118.1879816905851
 20
678.0084015241392
 30
0.0
 10
119.9772211492148
 20
678.0116292295909
 30
0.0
 10
121.4260662545117
 20
678.0120362392573
 30
0.0
 10
122.4898112709568
 20
678.0080547931979
 30
0.0
 10
123.2578964879302
 20
678.0014950375071
 30
0.0
 10
123.7637142116879
 20
677.9958135847451
 30
0.0
 10
124.048649158115
 20
677.9932500720491
 30
0.0
 10
124.189947850934
 20
677.9929588622299
 30
0.0
 10
124.2592898375843
 20
677.9928159517259
 30
0.0
  0
SPLINE
  5
101
330
1F
100
AcDbEntity
  8
0
  6
Continuous
 62
     8
370
    18
100
AcDbSpline
210
0.0
220
0.0
230
1.0
 70
     8
 71
     3
 72
    38
 73
    34
 74
     0
 42
0.000000001
 43
0.00000001
 40
0.0
 40
0.0
 40
0.0
 40
0.0
 40
0.03125
 40
0.03125
 40
0.0625000000000001
 40
0.0625000000000001
 40
0.1250000000000002
 40
0.1250000000000002
 40
0.2500000000000004
 40
0.2500000000000004
 40
0.3750000000000005
 40
0.3750000000000005
 40
0.5000000000000006
 40
0.5000000000000006
 40
0.6250000000000007
 40
0.6250000000000007
 40
0.6875000000000006
 40
0.6875000000000006
 40
0.7500000000000004
 40
0.7500000000000004
 40
0.875
 40
0.875
 40
0.9374999999999999
 40
0.9374999999999999
 40
0.9687499999999999
 40
0.9687499999999999
 40
0.9843750000000001
 40
0.9843750000000001
 40
0.9921875000000001
 40
0.9921875000000001
 40
0.9960937500000001
 40
0.9960937500000001
 40
1.0
 40
1.0
 40
1.0
 40
1.0
 10
124.2592898383052
 20
677.9928137175804
 30
0.0
 10
124.4239419583441
 20
677.9928944854466
 30
0.0
 10
124.5877462783077
 20
677.9942629682025
 30
0.0
 10
124.9213665152319
 20
677.9974643937228
 30
0.0
 10
125.0897796475407
 20
677.9993579775455
 30
0.0
 10
125.5969379325164
 20
678.0046408782349
 30
0.0
 10
125.9364610317297
 20
678.0069923499594
 30
0.0
 10
126.9528268546518
 20
678.0116354996525
 30
0.0
 10
127.6295606400124
 20
678.0118517010361
 30
0.0
 10
128.9810429403937
 20
678.0110235722635
 30
0.0
 10
129.6558434263275
 20
678.0096758240455
 30
0.0
 10
131.0063329926887
 20
678.0063761070058
 30
0.0
 10
131.6828915044125
 20
678.0043608444331
 30
0.0
 10
133.0267385979309
 20
678.0000855883821
 30
0.0
 10
133.6982104176817
 20
677.9976661289255
 30
0.0
 10
134.7074597362565
 20
677.9943980427586
 30
0.0
 10
135.0444772056771
 20
677.9935425103081
 30
0.0
 10
135.7208597559304
 20
677.9911659131516
 30
0.0
 10
136.0611138797258
 20
677.9894441779815
 30
0.0
 10
137.0761795713113
 20
677.9813852889927
 30
0.0
 10
137.7394083426859
 20
677.9718362854906
 30
0.0
 10
138.6743065507634
 20
677.9549945631002
 30
0.0
 10
138.9754400140803
 20
677.9489802142957
 30
0.0
 10
139.4091897121287
 20
677.9404072464964
 30
0.0
 10
139.5510109086009
 20
677.93760565698
 30
0.0
 10
139.7601386126579
 20
677.9335121643372
 30
0.0
 10
139.8292654360665
 20
677.9321672906318
 30
0.0
 10
139.9320558730735
 20
677.930174985014
 30
0.0
 10
139.9661628498734
 20
677.929514459616
 30
0.0
 10
140.0170856982781
 20
677.9285280047956
 30
0.0
 10
140.0337189556543
 20
677.9282070615818
 30
0.0
 10
140.0720167613196
 20
677.9274601557738
 30
0.0
 10
140.0916602894254
 20
677.9270696501427
 30
0.0
 10
140.1108853312284
 20
677.9266766006522
 30
0.0
  0
SPLINE
  5
102
330
1F
100
AcDbEntity
  8
0
  6
Continuous
 62
     8
370
    18
100
AcDbSpline
210
0.0
220
0.0
230
1.0
 70
     8
 71
     3
 72
     8
 73
     4
 74
     0
 42
0.000000001
 43
0.00000001
 40
0.6054101133028381
 40
0.6054101133028381
 40
0.6054101133028381
 40
0.6054101133028381
 40
1.0
 40
1.0
 40
1.0
 40
1.0
 10
124.2592898383381
 20
671.4859860454284
 30
0.0
 10
117.2953435172593
 20
671.4859860454284
 30
0.0
 10
112.0106390875194
 20
671.560314026102
 30
0.0
 10
108.2592898338246
 20
672.0113736742813
 30
0.0
  0
SPLINE
  5
103
330
1F
100
AcDbEntity
  8
0
  6
Continuous
 62
     8
370
    18
100
AcDbSpline
210
0.0
220
0.0
230
1.0
 70
     8
 71
     3
 72
    10
 73
     6
 74
     0
 42
0.000000001
 43
0.00000001
 40
0.0
 40
0.0
 40
0.0
 40
0.0
 40
0.0600593588377821
 40
0.2570824178667416
 40
1.0
 40
1.0
 40
1.0
 40
1.0
 10
140.2592898428516
 20
672.0113736742813
 30
0.0
 10
140.0339862118981
 20
671.9842833210141
 30
0.0
 10
139.0459049569552
 20
671.8741406303042
 30
0.0
 10
134.8060121975925
 20
671.5378891575249
 30
0.0
 10
129.4329280012998
 20
671.4859860454284
 30
0.0
 10
124.2592898383381
 20
671.4859860454284
 30
0.0
  0
SPLINE
  5
104
330
1F
100
AcDbEntity
  8
0
  6
Continuous
 62
     8
370
    18
100
AcDbSpline
210
0.0
220
0.0
230
1.0
 70
     8
 71
     3
 72
     9
 73
     5
 74
     0
 42
0.000000001
 43
0.00000001
 40
0.0
 40
0.0
 40
0.0
 40
0.0
 40
0.4977344376655771
 40
1.0
 40
1.0
 40
1.0
 40
1.0
 10
102.2824323101586
 20
677.9224048085237
 30
0.0
 10
102.2917986267182
 20
677.9221576531937
 30
0.0
 10
102.3106165260856
 20
677.921661092556
 30
0.0
 10
102.3330564425512
 20
677.9181094900804
 30
0.0
 10
102.3443272398136
 20
677.9163256424657
 30
0.0
  0
SPLINE
  5
105
330
1F
100
AcDbEntity
  8
0
  6
Continuous
 62
     8
370
    18
100
AcDbSpline
210
0.0
220
0.0
230
1.0
 70
     8
 71
     3
 72
     8
 73
     4
 74
     0
 42
0.000000001
 43
0.00000001
 40
0.0
 40
0.0
 40
0.0
 40
0.0
 40
1.0
 40
1.0
 40
1.0
 40
1.0
 10
102.2825077157844
 20
677.9220840904383
 30
0.0
 10
109.5471532139362
 20
679.1110357890584
 30
0.0
 10
116.896270580742
 20
679.7080181499608
 30
0.0
 10
124.2592895824792
 20
679.7069297997153
 30
0.0
  0
SPLINE
  5
106
330
1F
100
AcDbEntity
  8
0
  6
Continuous
 62
     8
370
    18
100
AcDbSpline
210
0.0
220
0.0
230
1.0
 70
     8
 71
     3
 72
    23
 73
    19
 74
     0
 42
0.000000001
 43
0.00000001
 40
0.0
 40
0.0
 40
0.0
 40
0.0
 40
0.0473762381553986
 40
0.1169273846899138
 40
0.2094578964583033
 40
0.357849542985208
 40
0.4651219645183926
 40
0.5287060517258461
 40
0.5867229008568243
 40
0.6390626137618878
 40
0.6856413375237379
 40
0.7263978193802526
 40
0.7955317573660526
 40
0.8567522682164052
 40
0.888753679970379
 40
0.9233043483774417
 40
0.9603993773716881
 40
1.0
 40
1.0
 40
1.0
 40
1.0
 10
102.3440766985464
 20
677.9162859165391
 30
0.0
 10
102.3471077898466
 20
677.9155880086798
 30
0.0
 10
102.3545887041674
 20
677.9138655304095
 30
0.0
 10
102.3763461097317
 20
677.9088117366726
 30
0.0
 10
102.4645708347342
 20
677.9010239110098
 30
0.0
 10
102.7006193557673
 20
677.891176416663
 30
0.0
 10
103.1073358329077
 20
677.8854540124972
 30
0.0
 10
103.5158058975114
 20
677.8834692552456
 30
0.0
 10
103.8883361407703
 20
677.882470737453
 30
0.0
 10
104.2817343340801
 20
677.881868024726
 30
0.0
 10
104.6781833352526
 20
677.8821162007335
 30
0.0
 10
105.1684939627922
 20
677.88352956504
 30
0.0
 10
105.7690958873343
 20
677.8869047479997
 30
0.0
 10
106.404331165009
 20
677.892959965782
 30
0.0
 10
106.9368525503102
 20
677.9004782794425
 30
0.0
 10
107.3845479039383
 20
677.9079019409862
 30
0.0
 10
107.878090731041
 20
677.9167295869116
 30
0.0
 10
108.2273563700384
 20
677.9232895099284
 30
0.0
 10
108.4076943223781
 20
677.9266766254997
 30
0.0
  0
SPLINE
  5
107
330
1F
100
AcDbEntity
  8
0
  6
Continuous
 62
     8
370
    18
100
AcDbSpline
210
0.0
220
0.0
230
1.0
 70
     8
 71
     3
 72
    11
 73
     7
 74
     0
 42
0.000000001
 43
0.00000001
 40
0.0546333037656703
 40
0.0546333037656703
 40
0.0546333037656703
 40
0.0546333037656703
 40
0.3046333037656703
 40
0.5546333037656703
 40
0.8046333037656703
 40
1.0
 40
1.0
 40
1.0
 40
1.0
 10
124.2592898383381
 20
679.7086606995534
 30
0.0
 10
126.2049228189027
 20
679.7089483044729
 30
0.0
 10
130.0963177172533
 20
679.6258537872453
 30
0.0
 10
135.922914596412
 20
679.2505135392319
 30
0.0
 10
141.305271119665
 20
678.6708420265536
 30
0.0
 10
144.7355247780503
 20
678.1680991665629
 30
0.0
 10
146.2361250692353
 20
677.9224084592213
 30
0.0
  0
SPLINE
  5
108
330
1F
100
AcDbEntity
  8
0
  6
Continuous
 62
     8
370
    18
100
AcDbSpline
210
0.0
220
0.0
230
1.0
 70
     8
 71
     3
 72
     8
 73
     4
 74
     0
 42
0.000000001
 43
0.00000001
 40
0.0
 40
0.0
 40
0.0
 40
0.0
 40
1.0
 40
1.0
 40
1.0
 40
1.0
 10
146.1742546025217
 20
677.9163393079313
 30
0.0
 10
146.1978011928187
 20
677.9200988568035
 30
0.0
 10
146.2180789358667
 20
677.9222871322063
 30
0.0
 10
146.2361473665177
 20
677.9224048085237
 30
0.0
  0
SPLINE
  5
109
330
1F
100
AcDbEntity
  8
0
  6
Continuous
 62
     8
370
    18
100
AcDbSpline
210
0.0
220
0.0
230
1.0
 70
     8
 71
     3
 72
    36
 73
    32
 74
     0
 42
0.000000001
 43
0.00000001
 40
0.0
 40
0.0
 40
0.0
 40
0.0
 40
0.0078125000000004
 40
0.0078125000000004
 40
0.0156250000000009
 40
0.0156250000000009
 40
0.0312500000000011
 40
0.0312500000000011
 40
0.0625000000000017
 40
0.0625000000000017
 40
0.1250000000000014
 40
0.1250000000000014
 40
0.2500000000000007
 40
0.2500000000000007
 40
0.3749999999999999
 40
0.3749999999999999
 40
0.4999999999999992
 40
0.4999999999999992
 40
0.6249999999999984
 40
0.6249999999999984
 40
0.7499999999999978
 40
0.7499999999999978
 40
0.874999999999997
 40
0.874999999999997
 40
0.9374999999999976
 40
0.9374999999999976
 40
0.9687499999999988
 40
0.9687499999999988
 40
0.9843749999999993
 40
0.9843749999999993
 40
1.0
 40
1.0
 40
1.0
 40
1.0
 10
140.1108852606727
 20
677.9266751342203
 30
0.0
 10
140.1528441117097
 20
677.9258869274507
 30
0.0
 10
140.2021000131204
 20
677.9249627724008
 30
0.0
 10
140.2972571812959
 20
677.9231467098647
 30
0.0
 10
140.343428256567
 20
677.9222597824759
 30
0.0
 10
140.4758211480835
 20
677.9197431113357
 30
0.0
 10
140.558540162542
 20
677.9181982870999
 30
0.0
 10
140.8060905877703
 20
677.9136559245107
 30
0.0
 10
140.967579367277
 20
677.9107476271513
 30
0.0
 10
141.4330551054719
 20
677.9026993661881
 30
0.0
 10
141.7196820549219
 20
677.8982982313472
 30
0.0
 10
142.5296456537143
 20
677.8881950886985
 30
0.0
 10
143.0098171219336
 20
677.8851180970331
 30
0.0
 10
143.8568210363639
 20
677.8817499513597
 30
0.0
 10
144.2239202116119
 20
677.8816980834529
 30
0.0
 10
144.8489196584866
 20
677.882818945237
 30
0.0
 10
145.1074112240397
 20
677.8838851511294
 30
0.0
 10
145.5349653746081
 20
677.88670232041
 30
0.0
 10
145.6939242553151
 20
677.889370754478
 30
0.0
 10
145.929105466962
 20
677.8955485327996
 30
0.0
 10
146.0054167405707
 20
677.8991543364014
 30
0.0
 10
146.1063616949056
 20
677.9054711048007
 30
0.0
 10
146.1316927967815
 20
677.9082989834715
 30
0.0
 10
146.1543889662368
 20
677.9119344354256
 30
0.0
 10
146.1594352352353
 20
677.913054016007
 30
0.0
 10
146.1655767411244
 20
677.9144566225806
 30
0.0
 10
146.167368846043
 20
677.9148792074799
 30
0.0
 10
146.1699177809735
 20
677.9154397715155
 30
0.0
 10
146.170730065021
 20
677.9156123434481
 30
0.0
 10
146.1724156515559
 20
677.9159418572747
 30
0.0
 10
146.1733557141059
 20
677.916106069406
 30
0.0
 10
146.1745029823197
 20
677.9162859429779
 30
0.0
  0
SPLINE
  5
10A
330
1F
100
AcDbEntity
  8
0
  6
Continuous
 62
     8
370
    18
100
AcDbSpline
210
0.0
220
0.0
230
1.0
 70
     8
 71
     3
 72
    14
 73
    10
 74
     0
 42
0.000000001
 43
0.00000001
 40
0.0
 40
0.0
 40
0.0
 40
0.0
 40
0.25
 40
0.25
 40
0.5
 40
0.5
 40
0.75
 40
0.75
 40
1.0
 40
1.0
 40
1.0
 40
1.0
 10
101.0794333867284
 20
676.4104259227419
 30
0.0
 10
101.0768797171843
 20
676.574294025813
 30
0.0
 10
101.1015008354597
 20
676.7492005477629
 30
0.0
 10
101.2181997015816
 20
677.0906567575227
 30
0.0
 10
101.3104608109332
 20
677.2564514509303
 30
0.0
 10
101.5506156493609
 20
677.5424496452646
 30
0.0
 10
101.6979646773353
 20
677.6620032695927
 30
0.0
 10
102.0141403521144
 20
677.8360025273001
 30
0.0
 10
102.1822138279767
 20
677.8906094127076
 30
0.0
 10
102.3440745340159
 20
677.9162995598289
 30
0.0
  0
SPLINE
  5
10B
330
1F
100
AcDbEntity
  8
0
  6
Continuous
 62
     8
370
    18
100
AcDbSpline
210
0.0
220
0.0
230
1.0
 70
     8
 71
     3
 72
    14
 73
    10
 74
     0
 42
0.000000001
 43
0.00000001
 40
0.0
 40
0.0
 40
0.0
 40
0.0
 40
0.25
 40
0.25
 40
0.5
 40
0.5
 40
0.75
 40
0.75
 40
1.0
 40
1.0
 40
1.0
 40
1.0
 10
147.439399299947
 20
676.4104218897816
 30
0.0
 10
147.4420552728396
 20
676.5743072798518
 30
0.0
 10
147.4173017385644
 20
676.7493105132332
 30
0.0
 10
147.3005260685755
 20
677.0908360257536
 30
0.0
 10
147.2082147418456
 20
677.256644022445
 30
0.0
 10
146.9679762953462
 20
677.5426223293913
 30
0.0
 10
146.8205953260502
 20
677.6621434572718
 30
0.0
 10
146.5043992528683
 20
677.8360651464109
 30
0.0
 10
146.3363370441456
 20
677.8906283687052
 30
0.0
 10
146.1745029823197
 20
677.9162859429779
 30
0.0
  0
SPLINE
  5
10C
330
1F
100
AcDbEntity
  8
0
  6
Continuous
 62
     8
370
    18
100
AcDbSpline
210
0.0
220
0.0
230
1.0
 70
     8
 71
     3
 72
     9
 73
     5
 74
     0
 42
0.000000001
 43
0.00000001
 40
0.0878924825295642
 40
0.0878924825295642
 40
0.0878924825295642
 40
0.0878924825295642
 40
0.5791147900437639
 40
0.605410113302838
 40
0.605410113302838
 40
0.605410113302838
 40
0.605410113302838
 10
140.2592898428516
 20
672.0113736742813
 30
0.0
 10
144.9293194072582
 20
672.5728948097059
 30
0.0
 10
147.3458000303081
 20
673.7795711792152
 30
0.0
 10
147.4371244327351
 20
676.2818271263586
 30
0.0
 10
147.4391475078201
 20
676.4104262573169
 30
0.0
  0
SPLINE
  5
10D
330
1F
100
AcDbEntity
  8
0
  6
Continuous
 62
     8
370
    18
100
AcDbSpline
210
0.0
220
0.0
230
1.0
 70
     8
 71
     3
 72
    17
 73
    13
 74
     0
 42
0.000000001
 43
0.00000001
 40
0.1451632654175024
 40
0.1451632654175024
 40
0.1451632654175024
 40
0.1451632654175024
 40
0.1707901201640645
 40
0.1874986320127443
 40
0.2498728326723989
 40
0.301181592534415
 40
0.3833305547572288
 40
0.4655161850332177
 40
0.5259141954812419
 40
0.7685937766117664
 40
0.7685937766117664
 40
1.0
 40
1.0
 40
1.0
 40
1.0
 10
101.0791814221165
 20
676.4104223126596
 30
0.0
 10
101.0804556021376
 20
676.3345911695035
 30
0.0
 10
101.0840971994537
 20
676.2101749348558
 30
0.0
 10
101.1035320764744
 20
675.9082623231583
 30
0.0
 10
101.1603844202113
 20
675.550503867922
 30
0.0
 10
101.3174029714552
 20
675.0512214974632
 30
0.0
 10
101.583589202694
 20
674.5489168259842
 30
0.0
 10
101.9822998726051
 20
674.0830660515302
 30
0.0
 10
102.8486262785143
 20
673.365232116208
 30
0.0
 10
103.8387566154859
 20
672.9295517298943
 30
0.0
 10
105.7888086779936
 20
672.3791518240769
 30
0.0
 10
106.92740628329
 20
672.171518434231
 30
0.0
 10
108.2592898338246
 20
672.0113736742813
 30
0.0
  0
SPLINE
  5
10E
330
1F
100
AcDbEntity
  8
0
  6
Continuous
 62
     8
370
    18
100
AcDbSpline
210
0.0
220
0.0
230
1.0
 70
     8
 71
     3
 72
     8
 73
     4
 74
     0
 42
0.000000001
 43
0.00000001
 40
0.0
 40
0.0
 40
0.0
 40
0.0
 40
1.0
 40
1.0
 40
1.0
 40
1.0
 10
147.4935080790318
 20
676.4205623580492
 30
0.0
 10
147.4757850612834
 20
676.4202039585607
 30
0.0
 10
147.45766013629
 20
676.4170883226942
 30
0.0
 10
147.4391616809637
 20
676.4114121346936
 30
0.0
  0
SPLINE
  5
10F
330
1F
100
AcDbEntity
  8
0
  6
Continuous
 62
     8
370
    18
100
AcDbSpline
210
0.0
220
0.0
230
1.0
 70
     8
 71
     3
 72
     9
 73
     5
 74
     0
 42
0.000000001
 43
0.00000001
 40
0.0
 40
0.0
 40
0.0
 40
0.0
 40
0.497670857832107
 40
1.0
 40
1.0
 40
1.0
 40
1.0
 10
101.0794167113643
 20
676.4114121146222
 30
0.0
 10
101.0703085103932
 20
676.4139364643622
 30
0.0
 10
101.0520068541322
 20
676.4190087921874
 30
0.0
 10
101.0340778559309
 20
676.4200428970437
 30
0.0
 10
101.0250715976444
 20
676.4205623580492
 30
0.0
  0
SPLINE
  5
110
330
1F
100
AcDbEntity
  8
0
  6
Continuous
 62
     8
370
    18
100
AcDbSpline
210
0.0
220
0.0
230
1.0
 70
     8
 71
     3
 72
     8
 73
     4
 74
     0
 42
0.000000001
 43
0.00000001
 40
0.0
 40
0.0
 40
0.0
 40
0.0
 40
1.0
 40
1.0
 40
1.0
 40
1.0
 10
101.0248792930376
 20
676.4201791031619
 30
0.0
 10
100.9891074234204
 20
676.4198599572688
 30
0.0
 10
100.9547648011004
 20
676.4197950307391
 30
0.0
 10
100.9217204910304
 20
676.4199844536915
 30
0.0
  0
LINE
  5
111
330
1F
100
AcDbEntity
  8
0
  6
Continuous
 62
     8
370
    18
100
AcDbLine
 10
101.0250772018
 20
676.4201729373
 30
0.0
 11
101.024879293
 21
676.4201791032
 31
0.0
  0
SPLINE
  5
112
330
1F
100
AcDbEntity
  8
0
  6
Continuous
 62
     8
370
    18
100
AcDbSpline
210
0.0
220
0.0
230
1.0
 70
     8
 71
     3
 72
     8
 73
     4
 74
     0
 42
0.000000001
 43
0.00000001
 40
0.6115885202648413
 40
0.6115885202648413
 40
0.6115885202648413
 40
0.6115885202648413
 40
1.0
 40
1.0
 40
1.0
 40
1.0
 10
108.2592898383381
 20
671.4331034629614
 30
0.0
 10
112.0521203771626
 20
670.8907304463705
 30
0.0
 10
117.3421767328664
 20
670.7394433858265
 30
0.0
 10
124.2592898383381
 20
670.7394433858265
 30
0.0
  0
LWPOLYLINE
  5
113
330
1F
100
AcDbEntity
  8
0
  6
Continuous
 62
     8
370
    18
100
AcDbPolyline
 90
        3
 70
   128
 43
0.0
 10
108.2589704937
 20
671.7381427916
 10
108.2591395984
 20
671.585638907
 10
108.259288491
 20
671.4331011938
  0
SPLINE
  5
114
330
1F
100
AcDbEntity
  8
0
  6
Continuous
 62
     8
370
    18
100
AcDbSpline
210
0.0
220
0.0
230
1.0
 70
     8
 71
     3
 72
    18
 73
    14
 74
     0
 42
0.000000001
 43
0.00000001
 40
0.0
 40
0.0
 40
0.0
 40
0.0
 40
0.2499999999999998
 40
0.2499999999999998
 40
0.4999999999999996
 40
0.4999999999999996
 40
0.6249999999999997
 40
0.6249999999999997
 40
0.7499999999999998
 40
0.7499999999999998
 40
0.8749999999999999
 40
0.8749999999999999
 40
0.881639668037712
 40
0.881639668037712
 40
0.881639668037712
 40
0.881639668037712
 10
108.258970493658
 20
671.738142791641
 30
0.0
 10
107.3624648278289
 20
671.8557164393754
 30
0.0
 10
106.4720134645258
 20
672.0026960107103
 30
0.0
 10
104.7171173533768
 20
672.4229700416677
 30
0.0
 10
103.8436049445541
 20
672.6917369766333
 30
0.0
 10
102.6414939948052
 20
673.3316701455535
 30
0.0
 10
102.2657853735568
 20
673.5836359739616
 30
0.0
 10
101.6161319810262
 20
674.2068575004853
 30
0.0
 10
101.3454273426832
 20
674.5844931120486
 30
0.0
 10
101.0003996591267
 20
675.4277274350642
 30
0.0
 10
100.9333160507469
 20
675.8831626171523
 30
0.0
 10
100.9226234373371
 20
676.3641902092971
 30
0.0
 10
100.9221299917326
 20
676.3884526660346
 30
0.0
 10
100.9216790691373
 20
676.4127153919349
 30
0.0
  0
SPLINE
  5
115
330
1F
100
AcDbEntity
  8
0
  6
Continuous
 62
     8
370
    18
100
AcDbSpline
210
0.0
220
0.0
230
1.0
 70
     8
 71
     3
 72
     9
 73
     5
 74
     0
 42
0.000000001
 43
0.00000001
 40
0.0
 40
0.0
 40
0.0
 40
0.0
 40
0.5
 40
1.0
 40
1.0
 40
1.0
 40
1.0
 10
124.2592898383381
 20
670.7394433858265
 30
0.0
 10
127.717846391074
 20
670.7394433858265
 30
0.0
 10
133.8214311216618
 20
670.8150869160985
 30
0.0
 10
138.3628745689259
 20
671.1619169546659
 30
0.0
 10
140.2592898383381
 20
671.4331034629614
 30
0.0
  0
LINE
  5
116
330
1F
100
AcDbEntity
  8
0
  6
Continuous
 62
     8
370
    18
100
AcDbLine
 10
147.4935024748
 20
676.4201729373
 30
0.0
 11
147.4937003836
 21
676.4201791032
 31
0.0
  0
SPLINE
  5
117
330
1F
100
AcDbEntity
  8
0
  6
Continuous
 62
     8
370
    18
100
AcDbSpline
210
0.0
220
0.0
230
1.0
 70
     8
 71
     3
 72
     8
 73
     4
 74
     0
 42
0.000000001
 43
0.00000001
 40
0.0
 40
0.0
 40
0.0
 40
0.0
 40
1.0
 40
1.0
 40
1.0
 40
1.0
 10
147.5968517271395
 20
676.4199846287094
 30
0.0
 10
147.5638188946178
 20
676.4207602391494
 30
0.0
 10
147.5294771863215
 20
676.4212953045453
 30
0.0
 10
147.4937003836387
 20
676.4201791031619
 30
0.0
  0
SPLINE
  5
118
330
1F
100
AcDbEntity
  8
0
  6
Continuous
 62
     8
370
    18
100
AcDbSpline
210
0.0
220
0.0
230
1.0
 70
     8
 71
     3
 72
    22
 73
    18
 74
     0
 42
0.000000001
 43
0.00000001
 40
0.0
 40
0.0
 40
0.0
 40
0.0
 40
0.0374151404237061
 40
0.0750714459623307
 40
0.1129509116411728
 40
0.1514243116274386
 40
0.1910193201971619
 40
0.2324165418863646
 40
0.2764285909144938
 40
0.3239654360146
 40
0.3759953407409177
 40
0.4335110512442995
 40
0.5661889653381629
 40
0.6965698655810597
 40
0.8171011229468875
 40
0.9203553501808673
 40
1.0
 40
1.0
 40
1.0
 40
1.0
 10
147.5967552294427
 20
676.4127178822898
 30
0.0
 10
147.5939756137228
 20
676.2933591873104
 30
0.0
 10
147.5883984658371
 20
676.0538724522934
 30
0.0
 10
147.5466008509782
 20
675.6953466829336
 30
0.0
 10
147.4677553932599
 20
675.3396268183063
 30
0.0
 10
147.3469293768449
 20
674.9891387937387
 30
0.0
 10
147.1793135317156
 20
674.6458002557849
 30
0.0
 10
146.9598953081927
 20
674.3115657207223
 30
0.0
 10
146.6836607463369
 20
673.9883587241602
 30
0.0
 10
146.3455118886512
 20
673.6779315330527
 30
0.0
 10
145.9401848006819
 20
673.3817403180665
 30
0.0
 10
145.2728177854465
 20
672.9901580001489
 30
0.0
 10
144.3246953842125
 20
672.5952663485738
 30
0.0
 10
143.1485464686265
 20
672.2536331431379
 30
0.0
 10
142.0435712262014
 20
672.015444686456
 30
0.0
 10
141.0893476398775
 20
671.8519791816047
 30
0.0
 10
140.5113168888806
 20
671.7726759584775
 30
0.0
 10
140.2596091830183
 20
671.738142791641
 30
0.0
  0
SPLINE
  5
119
330
1F
100
AcDbEntity
  8
0
  6
Continuous
 62
     8
370
    18
100
AcDbSpline
210
0.0
220
0.0
230
1.0
 70
     8
 71
     3
 72
    17
 73
    13
 74
     0
 42
0.000000001
 43
0.00000001
 40
0.65401376483189
 40
0.65401376483189
 40
0.65401376483189
 40
0.65401376483189
 40
0.6844227112538338
 40
0.7061433872917314
 40
0.735104288675595
 40
0.7857858660973561
 40
0.7891646379254735
 40
0.8702551618002914
 40
0.9189094761251821
 40
0.9513456856751092
 40
0.9791481510036183
 40
1.0
 40
1.0
 40
1.0
 40
1.0
 10
140.259291185722
 20
671.4331011937898
 30
0.0
 10
140.2592981466787
 20
671.4422351434823
 30
0.0
 10
140.2593108557591
 20
671.4573053641014
 30
0.0
 10
140.2593321730779
 20
671.4812244018237
 30
0.0
 10
140.2593605876886
 20
671.5109873478635
 30
0.0
 10
140.2593857464039
 20
671.5353979916061
 30
0.0
 10
140.2594280957683
 20
671.5751149566438
 30
0.0
 10
140.2594718753314
 20
671.6142333825926
 30
0.0
 10
140.2595258742194
 20
671.6618887994915
 30
0.0
 10
140.2595615704583
 20
671.693887009006
 30
0.0
 10
140.2595876155
 20
671.7177163585311
 30
0.0
 10
140.2596036371541
 20
671.7328453597173
 30
0.0
 10
140.2596091830183
 20
671.738142791641
 30
0.0
  0
LWPOLYLINE
  5
11A
330
1F
100
AcDbEntity
  8
0
  6
Continuous
 62
     8
370
    18
100
AcDbPolyline
 90
        3
 70
   128
 43
0.0
 10
102.2823256285
 20
677.9220900397
 10
102.2824278655
 20
677.9220888999
 10
102.2825299576
 20
677.9220877399
  0
SPLINE
  5
11B
330
1F
100
AcDbEntity
  8
0
  6
Continuous
 62
     8
370
    18
100
AcDbSpline
210
0.0
220
0.0
230
1.0
 70
     8
 71
     3
 72
    10
 73
     6
 74
     0
 42
0.000000001
 43
0.00000001
 40
0.0
 40
0.0
 40
0.0
 40
0.0
 40
0.4965199982285588
 40
0.7473474849113952
 40
1.0
 40
1.0
 40
1.0
 40
1.0
 10
102.1801840810641
 20
677.9215079686102
 30
0.0
 10
102.1963315237612
 20
677.9220739320908
 30
0.0
 10
102.220636185669
 20
677.922925803889
 30
0.0
 10
102.2548914414866
 20
677.9225486427678
 30
0.0
 10
102.2731588274501
 20
677.922243276351
 30
0.0
 10
102.2823256284978
 20
677.9220900396923
 30
0.0
  0
SPLINE
  5
11C
330
1F
100
AcDbEntity
  8
0
  6
Continuous
 62
     8
370
    18
100
AcDbSpline
210
0.0
220
0.0
230
1.0
 70
     8
 71
     3
 72
    15
 73
    11
 74
     0
 42
0.000000001
 43
0.00000001
 40
0.0
 40
0.0
 40
0.0
 40
0.0
 40
0.0510956450227232
 40
0.1428083941503636
 40
0.2499458770181842
 40
0.4999929585779317
 40
0.5706745620003725
 40
0.7500307425316012
 40
0.881857365686741
 40
1.0
 40
1.0
 40
1.0
 40
1.0
 10
101.798431098347
 20
677.9245217148695
 30
0.0
 10
101.8059654935539
 20
677.9248678852701
 30
0.0
 10
101.8270235481084
 20
677.9258354048897
 30
0.0
 10
101.8592409403918
 20
677.9265623903809
 30
0.0
 10
101.9169917241071
 20
677.927416995196
 30
0.0
 10
101.9667128028949
 20
677.926554457085
 30
0.0
 10
102.0209959897206
 20
677.9240201088552
 30
0.0
 10
102.0662461594363
 20
677.9220493342867
 30
0.0
 10
102.1236663123644
 20
677.920465873384
 30
0.0
 10
102.1622160414894
 20
677.9212013580482
 30
0.0
 10
102.1804357481727
 20
677.9215489691768
 30
0.0
  0
LINE
  5
11D
330
1F
100
AcDbEntity
  8
0
  6
Continuous
 62
     8
370
    18
100
AcDbLine
 10
101.7427412497
 20
677.9221104828
 30
0.0
 11
101.7990273307
 21
677.9246171846
 31
0.0
  0
LINE
  5
11E
330
1F
100
AcDbEntity
  8
0
  6
Continuous
 62
     8
370
    18
100
AcDbLine
 10
122.4739154216
 20
679.6357309328
 30
0.0
 11
124.2592898383
 21
679.7103647202
 31
0.0
  0
LINE
  5
11F
330
1F
100
AcDbEntity
  8
0
  6
Continuous
 62
     8
370
    18
100
AcDbLine
 10
146.775918449
 20
677.922106919
 30
0.0
 11
146.7195523459
 21
677.9246171846
 31
0.0
  0
SPLINE
  5
120
330
1F
100
AcDbEntity
  8
0
  6
Continuous
 62
     8
370
    18
100
AcDbSpline
210
0.0
220
0.0
230
1.0
 70
     8
 71
     3
 72
    18
 73
    14
 74
     0
 42
0.000000001
 43
0.00000001
 40
0.0
 40
0.0
 40
0.0
 40
0.0
 40
0.2499999999999998
 40
0.2499999999999998
 40
0.4999999999999996
 40
0.4999999999999996
 40
0.7499999999999996
 40
0.7499999999999996
 40
0.8749999999999998
 40
0.8749999999999998
 40
0.9374999999999999
 40
0.9374999999999999
 40
1.0
 40
1.0
 40
1.0
 40
1.0
 10
146.3381620828147
 20
677.9216604152384
 30
0.0
 10
146.377578772985
 20
677.9207743538507
 30
0.0
 10
146.4138480259394
 20
677.9208188885051
 30
0.0
 10
146.4763994455361
 20
677.9230756672848
 30
0.0
 10
146.5042463737552
 20
677.9246088537611
 30
0.0
 10
146.5607864732887
 20
677.9265870019489
 30
0.0
 10
146.5894204461979
 20
677.9271554276785
 30
0.0
 10
146.635849566247
 20
677.9269507310275
 30
0.0
 10
146.6518484877365
 20
677.9267155050868
 30
0.0
 10
146.6766673630358
 20
677.9261115164403
 30
0.0
 10
146.6850859180242
 20
677.9258667079506
 30
0.0
 10
146.7023126390612
 20
677.925273699534
 30
0.0
 10
146.7097227173249
 20
677.9251493931349
 30
0.0
 10
146.7201485783282
 20
677.9245217148695
 30
0.0
  0
SPLINE
  5
121
330
1F
100
AcDbEntity
  8
0
  6
Continuous
 62
     8
370
    18
100
AcDbSpline
210
0.0
220
0.0
230
1.0
 70
     8
 71
     3
 72
     8
 73
     4
 74
     0
 42
0.000000001
 43
0.00000001
 40
0.0
 40
0.0
 40
0.0
 40
0.0
 40
1.0
 40
1.0
 40
1.0
 40
1.0
 10
146.2362540481784
 20
677.9220900396923
 30
0.0
 10
146.2735955787509
 20
677.9225134198489
 30
0.0
 10
146.3063109884184
 20
677.9221148329635
 30
0.0
 10
146.3383823266336
 20
677.9214265133536
 30
0.0
  0
LINE
  5
122
330
1F
100
AcDbEntity
  8
0
  6
Continuous
 62
     8
370
    18
100
AcDbLine
 10
125.7009235309
 20
679.6501002841
 30
0.0
 11
124.2592898383
 21
679.7103647202
 31
0.0
  0
SPLINE
  5
123
330
1F
100
AcDbEntity
  8
0
  6
Continuous
 62
     8
370
    18
100
AcDbSpline
210
0.0
220
0.0
230
1.0
 70
     8
 71
     3
 72
    14
 73
    10
 74
     0
 42
0.000000001
 43
0.00000001
 40
0.0
 40
0.0
 40
0.0
 40
0.0
 40
0.25
 40
0.25
 40
0.5
 40
0.5
 40
0.75
 40
0.75
 40
1.0
 40
1.0
 40
1.0
 40
1.0
 10
146.3381306488565
 20
677.9214675341985
 30
0.0
 10
146.4992689084486
 20
677.8952035866131
 30
0.0
 10
146.6664028260237
 20
677.8402890320543
 30
0.0
 10
146.9806869987328
 20
677.666287519563
 30
0.0
 10
147.1270944541928
 20
677.5470753121506
 30
0.0
 10
147.3658711385205
 20
677.2622555321445
 30
0.0
 10
147.4577078938326
 20
677.0972828704524
 30
0.0
 10
147.5742032324839
 20
676.7574278949875
 30
0.0
 10
147.5991420871662
 20
676.5832446664315
 30
0.0
 10
147.5968591737943
 20
676.4199844538574
 30
0.0
  0
SPLINE
  5
124
330
1F
100
AcDbEntity
  8
0
  6
Continuous
 62
     8
370
    18
100
AcDbSpline
210
0.0
220
0.0
230
1.0
 70
     8
 71
     3
 72
    14
 73
    10
 74
     0
 42
0.000000001
 43
0.00000001
 40
0.0
 40
0.0
 40
0.0
 40
0.0
 40
0.25
 40
0.25
 40
0.5
 40
0.5
 40
0.75
 40
0.75
 40
1.0
 40
1.0
 40
1.0
 40
1.0
 10
102.180417593935
 20
677.9216604152399
 30
0.0
 10
102.0193704373352
 20
677.895423975408
 30
0.0
 10
101.8523183544499
 20
677.84052768379
 30
0.0
 10
101.5381424509461
 20
677.6666592428383
 30
0.0
 10
101.3917528689155
 20
677.5475296595415
 30
0.0
 10
101.1529412028074
 20
677.2627877051883
 30
0.0
 10
101.0610538208088
 20
677.0978060178425
 30
0.0
 10
100.9444797979465
 20
676.7577844122765
 30
0.0
 10
100.9195166612245
 20
676.5834449618352
 30
0.0
 10
100.9218254551981
 20
676.4199859362569
 30
0.0
  0
SPLINE
  5
125
330
1F
100
AcDbEntity
  8
0
  6
Continuous
 62
     8
370
    18
100
AcDbSpline
210
0.0
220
0.0
230
1.0
 70
     8
 71
     3
 72
     9
 73
     5
 74
     0
 42
0.000000001
 43
0.00000001
 40
0.0
 40
0.0
 40
0.0
 40
0.0
 40
0.6430496530349679
 40
1.0
 40
1.0
 40
1.0
 40
1.0
 10
101.8308921430887
 20
643.1339472202199
 30
0.0
 10
101.8058353487586
 20
643.135106908358
 30
0.0
 10
101.7668697817734
 20
643.1369103276319
 30
0.0
 10
101.6945860327037
 20
643.1657562176997
 30
0.0
 10
101.6687843233934
 20
643.1760527681679
 30
0.0
  0
SPLINE
  5
126
330
1F
100
AcDbEntity
  8
0
  6
Continuous
 62
     8
370
    18
100
AcDbSpline
210
0.0
220
0.0
230
1.0
 70
     8
 71
     3
 72
    13
 73
     9
 74
     0
 42
0.000000001
 43
0.00000001
 40
0.0
 40
0.0
 40
0.0
 40
0.0
 40
0.1009315140101579
 40
0.2879409397449779
 40
0.4749514127549875
 40
0.6619617026690788
 40
0.8489721270084962
 40
1.0
 40
1.0
 40
1.0
 40
1.0
 10
103.7020258319663
 20
643.5658278512681
 30
0.0
 10
103.8937711362285
 20
643.601265927132
 30
0.0
 10
104.4407888208674
 20
643.7023649046623
 30
0.0
 10
106.1673267804515
 20
643.9016980203427
 30
0.0
 10
108.7340528430801
 20
644.1565978649252
 30
0.0
 10
111.9182936752041
 20
644.4172499429388
 30
0.0
 10
115.294216739257
 20
644.6516540902917
 30
0.0
 10
117.696221281394
 20
644.7519023709053
 30
0.0
 10
118.7693826355342
 20
644.7966910374903
 30
0.0
  0
LINE
  5
127
330
1F
100
AcDbEntity
  8
0
  6
Continuous
 62
     8
370
    18
100
AcDbLine
 10
120.5297048089
 20
644.8503559629
 30
0.0
 11
123.1960450879
 21
644.9014578147
 31
0.0
  0
SPLINE
  5
128
330
1F
100
AcDbEntity
  8
0
  6
Continuous
 62
     8
370
    18
100
AcDbSpline
210
0.0
220
0.0
230
1.0
 70
     8
 71
     3
 72
     9
 73
     5
 74
     0
 42
0.000000001
 43
0.00000001
 40
0.0
 40
0.0
 40
0.0
 40
0.0
 40
0.4999774969936455
 40
1.0
 40
1.0
 40
1.0
 40
1.0
 10
123.6339122143665
 20
644.9099610625129
 30
0.0
 10
123.7381084353416
 20
644.9103813756151
 30
0.0
 10
123.9465102566268
 20
644.9112220396543
 30
0.0
 10
124.1549798890481
 20
644.9114121247424
 30
0.0
 10
124.2592193964522
 20
644.9115071715639
 30
0.0
  0
SPLINE
  5
129
330
1F
100
AcDbEntity
  8
0
  6
Continuous
 62
     8
370
    18
100
AcDbSpline
210
0.0
220
0.0
230
1.0
 70
     8
 71
     3
 72
     9
 73
     5
 74
     0
 42
0.000000001
 43
0.00000001
 40
0.0
 40
0.0
 40
0.0
 40
0.0
 40
0.5000725277979559
 40
1.0
 40
1.0
 40
1.0
 40
1.0
 10
124.2593154461423
 20
644.9106136515421
 30
0.0
 10
124.3635722640745
 20
644.9106835506514
 30
0.0
 10
124.5720556582559
 20
644.9108233285943
 30
0.0
 10
124.7804717582322
 20
644.9101742948294
 30
0.0
 10
124.8846646922596
 20
644.9098498250199
 30
0.0
  0
SPLINE
  5
12A
330
1F
100
AcDbEntity
  8
0
  6
Continuous
 62
     8
370
    18
100
AcDbSpline
210
0.0
220
0.0
230
1.0
 70
     8
 71
     3
 72
    13
 73
     9
 74
     0
 42
0.000000001
 43
0.00000001
 40
0.0
 40
0.0
 40
0.0
 40
0.0
 40
0.1024144303623742
 40
0.2921671889885971
 40
0.4819210102530027
 40
0.6716746457355661
 40
0.8614284176154067
 40
1.0
 40
1.0
 40
1.0
 40
1.0
 10
144.8165681580967
 20
643.5658254064639
 30
0.0
 10
144.6248209154462
 20
643.601264731092
 30
0.0
 10
144.0778056883607
 20
643.7023657948736
 30
0.0
 10
142.3511871295056
 20
643.9016833106961
 30
0.0
 10
139.784770206369
 20
644.1566518614666
 30
0.0
 10
136.59937827835
 20
644.4170486667
 30
0.0
 10
133.3203361567153
 20
644.645864152519
 30
0.0
 10
131.0227699946029
 20
644.7421994502722
 30
0.0
 10
130.0530691336063
 20
644.7828583103808
 30
0.0
  0
SPLINE
  5
12B
330
1F
100
AcDbEntity
  8
0
  6
Continuous
 62
     8
370
    18
100
AcDbSpline
210
0.0
220
0.0
230
1.0
 70
     8
 71
     3
 72
     9
 73
     5
 74
     0
 42
0.000000001
 43
0.00000001
 40
0.0
 40
0.0
 40
0.0
 40
0.0
 40
0.6430496530349683
 40
1.0
 40
1.0
 40
1.0
 40
1.0
 10
146.6876875335854
 20
643.1339472202199
 30
0.0
 10
146.7127443279155
 20
643.1351069083581
 30
0.0
 10
146.7517098949008
 20
643.1369103276319
 30
0.0
 10
146.8239936439704
 20
643.1657562176997
 30
0.0
 10
146.8497953532808
 20
643.1760527681679
 30
0.0
  0
LINE
  5
12C
330
1F
100
AcDbEntity
  8
0
  6
Continuous
 62
     8
370
    18
100
AcDbLine
 10
148.1115819289
 20
641.9926153899
 30
0.0
 11
148.1867276765
 21
641.5529051536
 31
0.0
  0
LINE
  5
12D
330
1F
100
AcDbEntity
  8
0
  6
Continuous
 62
     8
370
    18
100
AcDbLine
 10
100.3987430427
 20
641.9446418967
 30
0.0
 11
100.3318518178
 21
641.5532270988
 31
0.0
  0
LWPOLYLINE
  5
12E
330
1F
100
AcDbEntity
  8
0
  6
Continuous
 62
     8
370
    18
100
AcDbPolyline
 90
        3
 70
   128
 43
0.0
 10
100.3286269234
 20
676.4332012183
 10
100.3260588994
 20
676.4310522456
 10
100.3235110592
 20
676.4289188454
  0
LINE
  5
12F
330
1F
100
AcDbEntity
  8
0
  6
Continuous
 62
     8
370
    18
100
AcDbLine
 10
100.3287663454
 20
676.4333157231
 30
0.0
 11
100.3286269234
 21
676.4332012183
 31
0.0
  0
LINE
  5
130
330
1F
100
AcDbEntity
  8
0
  6
Continuous
 62
     8
370
    18
100
AcDbLine
 10
148.1898133313
 20
676.4333157231
 30
0.0
 11
148.1899527532
 21
676.4332012183
 31
0.0
  0
LINE
  5
131
330
1F
100
AcDbEntity
  8
0
  6
Continuous
 62
     8
370
    18
100
AcDbLine
 10
148.1899527532
 20
676.4332012183
 30
0.0
 11
148.1950686175
 21
676.4289188454
 31
0.0
  0
ARC
  5
132
330
1F
100
AcDbEntity
  8
0
  6
Continuous
 62
     8
370
    18
100
AcDbCircle
 10
145.8991606573
 20
647.8036835877
 30
0.0
 40
0.2933760432992833
100
AcDbArc
 50
271.3720536458
 51
1.2991069737
  0
LINE
  5
133
330
1F
100
AcDbEntity
  8
0
  6
Continuous
 62
     8
370
    18
100
AcDbLine
 10
124.2592898383
 20
647.8104391617
 30
0.0
 11
124.2592898383
 21
647.5103916589
 31
0.0
  0
ARC
  5
134
330
1F
100
AcDbEntity
  8
0
  6
Continuous
 62
     8
370
    18
100
AcDbCircle
 10
102.6194190194
 20
647.8036835877
 30
0.0
 40
0.2933760432992833
100
AcDbArc
 50
178.7008930263
 51
268.6279463542
  0
ARC
  5
135
330
1F
100
AcDbEntity
  8
0
  6
Continuous
 62
     8
370
    18
100
AcDbCircle
 10
124.2592898383
 20
657.5103916589
 30
0.0
 40
3.781418633081833
100
AcDbArc
 50
143.9292417127
 51
36.0707582873
  0
LINE
  5
136
330
1F
100
AcDbEntity
  8
0
  6
Continuous
 62
     8
370
    18
100
AcDbLine
 10
124.2592898383
 20
346.9103916589
 30
0.0
 11
124.2592898383
 21
347.1603916589
 31
0.0
  0
SPLINE
  5
137
330
1F
100
AcDbEntity
  8
0
  6
Continuous
 62
     8
370
    18
100
AcDbSpline
210
0.0
220
0.0
230
1.0
 70
     8
 71
     3
 72
    11
 73
     7
 74
     0
 42
0.000000001
 43
0.00000001
 40
0.0
 40
0.0
 40
0.0
 40
0.0
 40
0.0006000015722992
 40
0.0006000015722992
 40
0.0006000015722992
 40
0.0010146058036105
 40
0.0010146058036105
 40
0.0010146058036105
 40
0.0010146058036105
 10
147.9838263153306
 20
650.0075408713066
 30
0.0
 10
147.9946079486369
 20
650.077317307402
 30
0.0
 10
148.0049240649081
 20
650.1471083355804
 30
0.0
 10
148.0147996496578
 20
650.216912253842
 30
0.0
 10
148.0216237399931
 20
650.2651471944599
 30
0.0
 10
148.0282374902097
 20
650.3133884321536
 30
0.0
 10
148.0346490018821
 20
650.3616354483255
 30
0.0
  0
SPLINE
  5
138
330
1F
100
AcDbEntity
  8
0
  6
Continuous
 62
     8
370
    18
100
AcDbSpline
210
0.0
220
0.0
230
1.0
 70
     8
 71
     3
 72
    14
 73
    10
 74
     0
 42
0.000000001
 43
0.00000001
 40
0.0
 40
0.0
 40
0.0
 40
0.0
 40
0.2499999999999999
 40
0.2499999999999999
 40
0.4999999999999998
 40
0.4999999999999998
 40
0.7499999999999999
 40
0.7499999999999999
 40
1.0
 40
1.0
 40
1.0
 40
1.0
 10
146.1924612920599
 20
647.8103349363988
 30
0.0
 10
146.5112629328447
 20
647.8103301463634
 30
0.0
 10
146.7511687961967
 20
647.8539646440163
 30
0.0
 10
147.1460557096394
 20
648.0326083103612
 30
0.0
 10
147.300775074604
 20
648.1675995649199
 30
0.0
 10
147.5666121170169
 20
648.5311346662561
 30
0.0
 10
147.6752955512312
 20
648.7595595191714
 30
0.0
 10
147.8556293851832
 20
649.3136695860571
 30
0.0
 10
147.9266727943727
 20
649.6376554476925
 30
0.0
 10
147.9838263153306
 20
650.0075408713062
 30
0.0
  0
SPLINE
  5
139
330
1F
100
AcDbEntity
  8
0
  6
Continuous
 62
     8
370
    18
100
AcDbSpline
210
0.0
220
0.0
230
1.0
 70
     8
 71
     3
 72
    10
 73
     6
 74
     0
 42
0.000000001
 43
0.00000001
 40
0.0
 40
0.0
 40
0.0
 40
0.0
 40
0.0754873368660976
 40
0.5348803487214094
 40
1.0
 40
1.0
 40
1.0
 40
1.0
 10
101.0853167178401
 20
648.3815211148631
 30
0.0
 10
101.1024637164468
 20
648.3471185034524
 30
0.0
 10
101.2239621422099
 20
648.103352044703
 30
0.0
 10
101.5606285505665
 20
647.8903324176555
 30
0.0
 10
102.069903585221
 20
647.8371106526795
 30
0.0
 10
102.3261183846164
 20
647.8103349363987
 30
0.0
  0
LINE
  5
13A
330
1F
100
AcDbEntity
  8
0
  6
Continuous
 62
     8
370
    18
100
AcDbLine
 10
148.2573201208
 20
542.9103960357
 30
0.0
 11
148.2573596999
 21
544.3326236664
 31
0.0
  0
SPLINE
  5
13B
330
1F
100
AcDbEntity
  8
0
  6
Continuous
 62
     8
370
    18
100
AcDbSpline
210
0.0
220
0.0
230
1.0
 70
     8
 71
     3
 72
    10
 73
     6
 74
     0
 42
0.000000001
 43
0.00000001
 40
0.0
 40
0.0
 40
0.0
 40
0.0
 40
0.113917032602541
 40
0.5710806719653794
 40
1.0
 40
1.0
 40
1.0
 40
1.0
 10
100.7926366347223
 20
677.4929713435572
 30
0.0
 10
100.7566057123954
 20
677.465504549643
 30
0.0
 10
100.5759780848676
 20
677.327809994519
 30
0.0
 10
100.3862351388272
 20
676.9509859186056
 30
0.0
 10
100.3475111587478
 20
676.6021709385179
 30
0.0
 10
100.328766341247
 20
676.4333227692466
 30
0.0
  0
SPLINE
  5
13C
330
1F
100
AcDbEntity
  8
0
  6
Continuous
 62
     8
370
    18
100
AcDbSpline
210
0.0
220
0.0
230
1.0
 70
     8
 71
     3
 72
    10
 73
     6
 74
     0
 42
0.000000001
 43
0.00000001
 40
0.0
 40
0.0
 40
0.0
 40
0.0
 40
0.1139205418125204
 40
0.571082581388063
 40
1.0
 40
1.0
 40
1.0
 40
1.0
 10
147.7259397180663
 20
677.4929669169411
 30
0.0
 10
147.7619719029674
 20
677.4654992032491
 30
0.0
 10
147.9426008996257
 20
677.3278038184625
 30
0.0
 10
148.1323447067847
 20
676.9509786487164
 30
0.0
 10
148.1710685941197
 20
676.6021637490303
 30
0.0
 10
148.1898133575164
 20
676.4333157016409
 30
0.0
  0
SPLINE
  5
13D
330
1F
100
AcDbEntity
  8
0
  6
Continuous
 62
     7
370
    25
100
AcDbSpline
210
0.0
220
0.0
230
1.0
 70
     8
 71
     3
 72
     9
 73
     5
 74
     0
 42
0.000000001
 43
0.00000001
 40
0.0
 40
0.0
 40
0.0
 40
0.0
 40
0.4578698743632636
 40
1.0
 40
1.0
 40
1.0
 40
1.0
 10
282.2532883352312
 20
644.9111993568253
 30
0.0
 10
281.5643245054991
 20
644.9113685442812
 30
0.0
 10
280.0596091522772
 20
644.9117380541909
 30
0.0
 10
278.5548920016732
 20
644.9110513622776
 30
0.0
 10
277.7391395037685
 20
644.9106790859043
 30
0.0
  0
LINE
  5
13E
330
1F
100
AcDbEntity
  8
0
  6
Continuous
 62
     7
370
    25
100
AcDbLine
 10
231.7820208622
 20
637.8740203792
 30
0.0
 11
231.4523996357
 21
637.1043264012
 31
0.0
  0
SPLINE
  5
13F
330
1F
100
AcDbEntity
  8
0
  6
Continuous
 62
     7
370
    25
100
AcDbSpline
210
0.0
220
0.0
230
1.0
 70
     8
 71
     3
 72
     9
 73
     5
 74
     0
 42
0.000000001
 43
0.00000001
 40
0.0
 40
0.0
 40
0.0
 40
0.0
 40
0.5663440297535858
 40
1.0
 40
1.0
 40
1.0
 40
1.0
 10
234.8086256964378
 20
642.8995964444053
 30
0.0
 10
234.0678421596152
 20
642.0431329487519
 30
0.0
 10
232.7598323671488
 20
640.5308657566251
 30
0.0
 10
232.0777918181972
 20
638.6776698487059
 30
0.0
 10
231.7820208621942
 20
637.8740203792006
 30
0.0
  0
SPLINE
  5
140
330
1F
100
AcDbEntity
  8
0
  6
Continuous
 62
     7
370
    25
100
AcDbSpline
210
0.0
220
0.0
230
1.0
 70
     8
 71
     3
 72
    12
 73
     8
 74
     0
 42
0.000000001
 43
0.00000001
 40
0.0
 40
0.0
 40
0.0
 40
0.0
 40
0.1600460572377164
 40
0.3954454333878192
 40
0.6390677537878143
 40
0.8959507076303938
 40
1.0
 40
1.0
 40
1.0
 40
1.0
 10
438.5945070500659
 20
626.1217099653203
 30
0.0
 10
439.3498809667227
 20
626.4733814451117
 30
0.0
 10
441.2162759969893
 20
627.3422993249803
 30
0.0
 10
443.9947468745336
 20
629.1684170777551
 30
0.0
 10
446.8712330736749
 20
631.6223074181454
 30
0.0
 10
448.9702552495615
 20
633.8864910375062
 30
0.0
 10
449.9968532260262
 20
635.3738935049436
 30
0.0
 10
450.2928001637692
 20
635.8026808350584
 30
0.0
  0
SPLINE
  5
141
330
1F
100
AcDbEntity
  8
0
  6
Continuous
 62
     7
370
    25
100
AcDbSpline
210
0.0
220
0.0
230
1.0
 70
     8
 71
     3
 72
    10
 73
     6
 74
     0
 42
0.000000001
 43
0.00000001
 40
0.0
 40
0.0
 40
0.0
 40
0.0
 40
0.2162020071505268
 40
0.7475186250937426
 40
1.0
 40
1.0
 40
1.0
 40
1.0
 10
404.879211396167
 20
621.9540736623385
 30
0.0
 10
405.6459150873644
 20
621.9716156033961
 30
0.0
 10
408.2967937570484
 20
622.0322668796432
 30
0.0
 10
411.8358438807194
 20
622.1148181491166
 30
0.0
 10
414.5968530613918
 20
622.1777346365492
 30
0.0
 10
415.4862447164159
 20
622.1980016459013
 30
0.0
  0
LINE
  5
142
330
1F
100
AcDbEntity
  8
0
  6
Continuous
 62
     7
370
    25
100
AcDbLine
 10
231.5657891593
 20
657.7008752072
 30
0.0
 11
231.5660551937
 21
657.5245550107
 31
0.0
  0
SPLINE
  5
143
330
1F
100
AcDbEntity
  8
0
  6
Continuous
 62
     7
370
    25
100
AcDbSpline
210
0.0
220
0.0
230
1.0
 70
     8
 71
     3
 72
    11
 73
     7
 74
     0
 42
0.000000001
 43
0.00000001
 40
0.0
 40
0.0
 40
0.0
 40
0.0
 40
0.251144996067288
 40
0.4999941237312651
 40
0.7492933281463361
 40
1.0
 40
1.0
 40
1.0
 40
1.0
 10
301.0334832812406
 20
670.7394433858265
 30
0.0
 10
303.2486095907987
 20
670.8018981491102
 30
0.0
 10
307.6586123997131
 20
670.9262367388883
 30
0.0
 10
314.3619686896715
 20
671.114240783247
 30
0.0
 10
321.0401984013636
 20
671.2988994078797
 30
0.0
 10
325.4659333124078
 20
671.4235069136149
 30
0.0
 10
327.6850297725024
 20
671.4859860454284
 30
0.0
  0
SPLINE
  5
144
330
1F
100
AcDbEntity
  8
0
  6
Continuous
 62
     7
370
    25
100
AcDbSpline
210
0.0
220
0.0
230
1.0
 70
     8
 71
     3
 72
    11
 73
     7
 74
     0
 42
0.000000001
 43
0.00000001
 40
0.0
 40
0.0
 40
0.0
 40
0.0
 40
0.2196269331871907
 40
0.4507144114672321
 40
0.7124650477796883
 40
1.0
 40
1.0
 40
1.0
 40
1.0
 10
441.9534725107804
 20
644.6411193069772
 30
0.0
 10
440.7922574466032
 20
644.6976768938133
 30
0.0
 10
438.409232939352
 20
644.8137433483912
 30
0.0
 10
434.4321586571284
 20
644.8963659312429
 30
0.0
 10
430.0990816265365
 20
644.9093508158525
 30
0.0
 10
427.1326543819994
 20
644.9100684082294
 30
0.0
 10
425.5798164160492
 20
644.9104440468664
 30
0.0
  0
SPLINE
  5
145
330
1F
100
AcDbEntity
  8
0
  6
Continuous
 62
     7
370
    25
100
AcDbSpline
210
0.0
220
0.0
230
1.0
 70
     8
 71
     3
 72
    14
 73
    10
 74
     0
 42
0.000000001
 43
0.00000001
 40
0.0
 40
0.0
 40
0.0
 40
0.0
 40
0.0004892424404848
 40
0.1135905990060706
 40
0.2404482690782919
 40
0.3884284007532048
 40
0.5616238879553561
 40
0.763691531709748
 40
1.0
 40
1.0
 40
1.0
 40
1.0
 10
340.0435588757512
 20
678.0108254440534
 30
0.0
 10
340.0428694928016
 20
678.0110076043329
 30
0.0
 10
339.882810970266
 20
678.0533009410227
 30
0.0
 10
339.4662505983123
 20
678.1557391714183
 30
0.0
 10
338.8188537223991
 20
678.3046686162202
 30
0.0
 10
338.1200781456864
 20
678.453542179517
 30
0.0
 10
337.4178384853902
 20
678.5928515767573
 30
0.0
 10
336.7401658997408
 20
678.7177211855827
 30
0.0
 10
336.4186331125728
 20
678.7721084804732
 30
0.0
 10
336.2453095250115
 20
678.8014261782147
 30
0.0
  0
SPLINE
  5
146
330
1F
100
AcDbEntity
  8
0
  6
Continuous
 62
     7
370
    25
100
AcDbSpline
210
0.0
220
0.0
230
1.0
 70
     8
 71
     3
 72
     9
 73
     5
 74
     0
 42
0.000000001
 43
0.00000001
 40
0.0
 40
0.0
 40
0.0
 40
0.0
 40
0.4850777392395534
 40
1.0
 40
1.0
 40
1.0
 40
1.0
 10
330.1192481794355
 20
679.4957272463774
 30
0.0
 10
329.0503147254705
 20
679.5577614610546
 30
0.0
 10
326.8466814364212
 20
679.6856465599966
 30
0.0
 10
324.586191222858
 20
679.6821982006842
 30
0.0
 10
323.4222144916632
 20
679.6804225637112
 30
0.0
  0
ARC
  5
147
330
1F
100
AcDbEntity
  8
0
  6
Continuous
 62
     7
370
    25
100
AcDbCircle
 10
244.7411332588
 20
643.2414524339
 30
0.0
 40
10.00000000000001
100
AcDbArc
 50
170.9531540197
 51
180.0
  0
LINE
  5
148
330
1F
100
AcDbEntity
  8
0
  6
Continuous
 62
     7
370
    25
100
AcDbLine
 10
234.7411332588
 20
643.2414524339
 30
0.0
 11
234.7411332588
 21
642.8908626569
 31
0.0
  0
ARC
  5
149
330
1F
100
AcDbEntity
  8
0
  6
Continuous
 62
     7
370
    25
100
AcDbCircle
 10
256.2411332588
 20
641.4103916589
 30
0.0
 40
21.64486082191338
100
AcDbArc
 50
142.6950447721
 51
170.9531540197
  0
ARC
  5
14A
330
1F
100
AcDbEntity
  8
0
  6
Continuous
 62
     7
370
    25
100
AcDbCircle
 10
256.2411332588
 20
641.4103916589
 30
0.0
 40
21.64486082191334
100
AcDbArc
 50
9.3141638191
 51
16.3689831131
  0
LINE
  5
14B
330
1F
100
AcDbEntity
  8
0
  6
Continuous
 62
     7
370
    25
100
AcDbLine
 10
439.3213422894
 20
624.6747938012
 30
0.0
 11
439.0493677319
 21
626.2493585492
 31
0.0
  0
LINE
  5
14C
330
1F
100
AcDbEntity
  8
0
  6
Continuous
 62
     7
370
    25
100
AcDbLine
 10
415.3965005423
 20
622.1821481231
 30
0.0
 11
415.6715527258
 21
620.5897658212
 31
0.0
  0
LINE
  5
14D
330
1F
100
AcDbEntity
  8
0
  6
Continuous
 62
     7
370
    25
100
AcDbLine
 10
280.008010174
 20
653.5103916589
 30
0.0
 11
280.608557544
 21
653.7289730258
 31
0.0
  0
LINE
  5
14E
330
1F
100
AcDbEntity
  8
0
  6
Continuous
 62
     7
370
    25
100
AcDbLine
 10
279.6755296999
 20
653.5103916589
 30
0.0
 11
280.008010174
 21
653.5103916589
 31
0.0
  0
ARC
  5
14F
330
1F
100
AcDbEntity
  8
0
  6
Continuous
 62
     7
370
    25
100
AcDbCircle
 10
280.5401535153
 20
653.91691155
 30
0.0
 40
0.1999999999999318
100
AcDbArc
 50
290.0
 51
0.0
  0
LINE
  5
150
330
1F
100
AcDbEntity
  8
0
  6
Continuous
 62
     7
370
    25
100
AcDbLine
 10
280.7401535153
 20
653.91691155
 30
0.0
 11
280.7401535153
 21
659.9673014328
 31
0.0
  0
LINE
  5
151
330
1F
100
AcDbEntity
  8
0
  6
Continuous
 62
     7
370
    25
100
AcDbLine
 10
231.5657891593
 20
657.7008752072
 30
0.0
 11
231.5660551949
 21
657.5245542408
 31
0.0
  0
SPLINE
  5
152
330
1F
100
AcDbEntity
  8
0
  6
Continuous
 62
     7
370
    25
100
AcDbSpline
210
0.0
220
0.0
230
1.0
 70
     8
 71
     3
 72
     9
 73
     5
 74
     0
 42
0.000000001
 43
0.00000001
 40
0.0
 40
0.0
 40
0.0
 40
0.0
 40
0.7694062848920822
 40
1.0
 40
1.0
 40
1.0
 40
1.0
 10
453.6634394062025
 20
641.0436424749422
 30
0.0
 10
452.8898575927132
 20
639.6366929765969
 30
0.0
 10
451.8844306438057
 20
637.8080758649719
 30
0.0
 10
450.5705491631673
 20
636.1946845936822
 30
0.0
 10
450.2675763513354
 20
635.8226467065127
 30
0.0
  0
LINE
  5
153
330
1F
100
AcDbEntity
  8
0
  6
Continuous
 62
     7
370
    25
100
AcDbLine
 10
440.0135528819
 20
626.8165260997
 30
0.0
 11
439.0493677319
 21
626.2493585492
 31
0.0
  0
SPLINE
  5
154
330
1F
100
AcDbEntity
  8
0
  6
Continuous
 62
     7
370
    25
100
AcDbSpline
210
0.0
220
0.0
230
1.0
 70
     8
 71
     3
 72
    58
 73
    54
 74
     0
 42
0.000000001
 43
0.00000001
 40
0.0
 40
0.0
 40
0.0
 40
0.0
 40
0.03125
 40
0.03125
 40
0.0625000000000001
 40
0.0625000000000001
 40
0.1250000000000001
 40
0.1250000000000001
 40
0.2499999999999997
 40
0.2499999999999997
 40
0.3749999999999993
 40
0.3749999999999993
 40
0.437499999999999
 40
0.437499999999999
 40
0.4999999999999987
 40
0.4999999999999987
 40
0.5312499999999987
 40
0.5312499999999987
 40
0.5624999999999988
 40
0.5624999999999988
 40
0.593749999999999
 40
0.593749999999999
 40
0.6249999999999991
 40
0.6249999999999991
 40
0.6562499999999992
 40
0.6562499999999992
 40
0.6874999999999993
 40
0.6874999999999993
 40
0.7187499999999996
 40
0.7187499999999996
 40
0.7343749999999996
 40
0.7343749999999996
 40
0.7499999999999996
 40
0.7499999999999996
 40
0.7812499999999997
 40
0.7812499999999997
 40
0.7968749999999998
 40
0.7968749999999998
 40
0.8124999999999999
 40
0.8124999999999999
 40
0.84375
 40
0.84375
 40
0.859375
 40
0.859375
 40
0.875
 40
0.875
 40
0.90625
 40
0.90625
 40
0.9375
 40
0.9375
 40
0.9687500000000001
 40
0.9687500000000001
 40
1.0
 40
1.0
 40
1.0
 40
1.0
 10
415.3965005423416
 20
622.1821481230874
 30
0.0
 10
413.6977677354762
 20
622.1500396638879
 30
0.0
 10
411.9993949879883
 20
622.11211311949
 30
0.0
 10
408.6025642371637
 20
622.0376376528952
 30
0.0
 10
406.9042456839807
 20
621.9988353999255
 30
0.0
 10
401.8092785496318
 20
621.8826140586666
 30
0.0
 10
398.4125935845007
 20
621.8057828873242
 30
0.0
 10
388.2225591400759
 20
621.5749589125851
 30
0.0
 10
381.4292278177781
 20
621.4204436014761
 30
0.0
 10
367.8425349751814
 20
621.1123393250018
 30
0.0
 10
361.0492045179445
 20
620.9575792448709
 30
0.0
 10
350.8591701181628
 20
620.7271559315312
 30
0.0
 10
347.4625066042764
 20
620.6496998500029
 30
0.0
 10
340.6691552086778
 20
620.4958683019623
 30
0.0
 10
337.2724446269198
 20
620.4207707235189
 30
0.0
 10
332.1770934565565
 20
620.3198869566867
 30
0.0
 10
330.4785407596653
 20
620.2899428458678
 30
0.0
 10
327.0812597661439
 20
620.2363775325932
 30
0.0
 10
325.3825434527134
 20
620.2123248450182
 30
0.0
 10
321.9858792037507
 20
620.1365520994069
 30
0.0
 10
320.2879573955343
 20
620.0838912619301
 30
0.0
 10
316.8940763883026
 20
619.9079009277616
 30
0.0
 10
315.1960083234714
 20
619.7848682049278
 30
0.0
 10
311.8276230463995
 20
619.4335866633575
 30
0.0
 10
310.1553101392737
 20
619.2049476552555
 30
0.0
 10
306.8409347410159
 20
618.6127155167412
 30
0.0
 10
305.1986320120983
 20
618.2501941428127
 30
0.0
 10
301.9523625775855
 20
617.3541255028993
 30
0.0
 10
300.3490513208869
 20
616.8176541273561
 30
0.0
 10
297.9796108503945
 20
615.8544554883811
 30
0.0
 10
297.1930202602963
 20
615.5060928245864
 30
0.0
 10
295.6561756430037
 20
614.7601468284537
 30
0.0
 10
294.904070765655
 20
614.3617442804833
 30
0.0
 10
292.7018525467597
 20
613.0822312448247
 30
0.0
 10
291.3054124668163
 20
612.1174748168186
 30
0.0
 10
289.3303722220593
 20
610.4839211527598
 30
0.0
 10
288.6898575961046
 20
609.9053589261482
 30
0.0
 10
287.4762488432697
 20
608.7044821034052
 30
0.0
 10
286.9004343654909
 20
608.0803295158931
 30
0.0
 10
285.265637166732
 20
606.1369767449181
 30
0.0
 10
284.2999703168032
 20
604.7463691319368
 30
0.0
 10
283.0318348356445
 20
602.5224384650312
 30
0.0
 10
282.6380474475259
 20
601.7549049733432
 30
0.0
 10
281.9219455748452
 20
600.2041456711369
 30
0.0
 10
281.597725067773
 20
599.4182906429213
 30
0.0
 10
280.7166360473538
 20
597.032370716206
 30
0.0
 10
280.251344732449
 20
595.4039495210425
 30
0.0
 10
279.5269338896689
 20
592.0832673490206
 30
0.0
 10
279.2666784250297
 20
590.3853224810648
 30
0.0
 10
278.9072102162434
 20
586.9907160128478
 30
0.0
 10
278.807648865175
 20
585.2889210129139
 30
0.0
 10
278.6968826388149
 20
581.8803807452571
 30
0.0
 10
278.6816141829067
 20
580.1738631440631
 30
0.0
 10
278.6789993168068
 20
578.4666366117194
 30
0.0
  0
LINE
  5
155
330
1F
100
AcDbEntity
  8
0
  6
Continuous
 62
     7
370
    25
100
AcDbLine
 10
438.6973060298
 20
626.1346815336
 30
0.0
 11
439.0493677319
 21
626.2493585492
 31
0.0
  0
LINE
  5
156
330
1F
100
AcDbEntity
  8
0
  6
Continuous
 62
     7
370
    25
100
AcDbLine
 10
282.2532883525
 20
644.9109937384
 30
0.0
 11
283.5894969172
 21
644.9111062698
 31
0.0
  0
SPLINE
  5
157
330
1F
100
AcDbEntity
  8
0
  6
Continuous
 62
     7
370
    25
100
AcDbSpline
210
0.0
220
0.0
230
1.0
 70
     8
 71
     3
 72
     9
 73
     5
 74
     0
 42
0.000000001
 43
0.00000001
 40
0.0
 40
0.0
 40
0.0
 40
0.0
 40
0.8649342544882823
 40
0.9999999999999999
 40
0.9999999999999999
 40
0.9999999999999999
 40
0.9999999999999999
 10
231.3898191096727
 20
637.1258186400213
 30
0.0
 10
231.6903741403198
 20
637.9842202067605
 30
0.0
 10
232.0378630148644
 20
638.9766673925262
 30
0.0
 10
232.6042720476422
 20
639.8541674170111
 30
0.0
 10
232.680774505919
 20
639.9726876120048
 30
0.0
  0
SPLINE
  5
158
330
1F
100
AcDbEntity
  8
0
  6
Continuous
 62
     7
370
    25
100
AcDbSpline
210
0.0
220
0.0
230
1.0
 70
     8
 71
     3
 72
     9
 73
     5
 74
     0
 42
0.000000001
 43
0.00000001
 40
0.0
 40
0.0
 40
0.0
 40
0.0
 40
0.557814096756127
 40
1.0
 40
1.0
 40
1.0
 40
1.0
 10
233.0922152764837
 20
640.6252196487246
 30
0.0
 10
233.3556761324836
 20
641.0820241922031
 30
0.0
 10
233.8279855587461
 20
641.9009431584589
 30
0.0
 10
234.4621669575798
 20
642.6009168736875
 30
0.0
 10
234.7425930322435
 20
642.910435383203
 30
0.0
  0
SPLINE
  5
159
330
1F
100
AcDbEntity
  8
0
  6
Continuous
 62
     7
370
    25
100
AcDbSpline
210
0.0
220
0.0
230
1.0
 70
     8
 71
     3
 72
    17
 73
    13
 74
     0
 42
0.000000001
 43
0.00000001
 40
0.0
 40
0.0
 40
0.0
 40
0.0
 40
0.139077313095329
 40
0.2755736488724687
 40
0.3932178820947659
 40
0.4919897471549158
 40
0.5589592152396667
 40
0.6236353479412687
 40
0.6860183329603118
 40
0.7461084046699481
 40
0.8743810213045149
 40
1.0
 40
1.0
 40
1.0
 40
1.0
 10
234.7945101629785
 20
642.9102571924914
 30
0.0
 10
234.885391431078
 20
642.9098344057076
 30
0.0
 10
235.0654674054188
 20
642.9089966781581
 30
0.0
 10
236.3546908762672
 20
642.9137637597889
 30
0.0
 10
238.0269381796078
 20
642.9234903604722
 30
0.0
 10
239.7470628466661
 20
642.9378735856451
 30
0.0
 10
241.3459992277409
 20
642.9561238326725
 30
0.0
 10
242.8175853574487
 20
642.9757948928883
 30
0.0
 10
244.3412784324017
 20
642.9993235099796
 30
0.0
 10
246.5022868169892
 20
643.0375827824985
 30
0.0
 10
249.4082044132418
 20
643.098455940595
 30
0.0
 10
251.9174530694642
 20
643.1694870587996
 30
0.0
 10
253.158964247012
 20
643.204631414456
 30
0.0
  0
SPLINE
  5
15A
330
1F
100
AcDbEntity
  8
0
  6
Continuous
 62
     7
370
    25
100
AcDbSpline
210
0.0
220
0.0
230
1.0
 70
     8
 71
     3
 72
     8
 73
     4
 74
     0
 42
0.000000001
 43
0.00000001
 40
0.0
 40
0.0
 40
0.0
 40
0.0
 40
1.0
 40
1.0
 40
1.0
 40
1.0
 10
254.3361652976042
 20
643.2414524338678
 30
0.0
 10
253.9426009053192
 20
643.229173689685
 30
0.0
 10
253.5500018828714
 20
643.2168949455022
 30
0.0
 10
253.1589646353325
 20
643.2046162013193
 30
0.0
  0
SPLINE
  5
15B
330
1F
100
AcDbEntity
  8
0
  6
Continuous
 62
     7
370
    25
100
AcDbSpline
210
0.0
220
0.0
230
1.0
 70
     8
 71
     3
 72
     8
 73
     4
 74
     0
 42
0.000000001
 43
0.00000001
 40
0.0
 40
0.0
 40
0.0
 40
0.0
 40
1.0
 40
1.0
 40
1.0
 40
1.0
 10
256.2414767016835
 20
643.3070662758622
 30
0.0
 10
255.6055454870102
 20
643.2851953090686
 30
0.0
 10
254.969601742866
 20
643.2633238714685
 30
0.0
 10
254.3361652976071
 20
643.2414524338678
 30
0.0
  0
SPLINE
  5
15C
330
1F
100
AcDbEntity
  8
0
  6
Continuous
 62
     7
370
    25
100
AcDbSpline
210
0.0
220
0.0
230
1.0
 70
    24
 71
     3
 72
    44
 73
    40
 74
     0
 42
0.000000001
 43
0.00000001
 40
0.0
 40
0.0
 40
0.0
 40
0.0
 40
0.015625
 40
0.015625
 40
0.03125
 40
0.0624999999999999
 40
0.0937499999999999
 40
0.0937499999999999
 40
0.1249999999999998
 40
0.1249999999999998
 40
0.1874999999999997
 40
0.1874999999999997
 40
0.2187499999999996
 40
0.2187499999999996
 40
0.2499999999999996
 40
0.2499999999999996
 40
0.3124999999999994
 40
0.3124999999999994
 40
0.3749999999999993
 40
0.3749999999999993
 40
0.4062499999999993
 40
0.4062499999999993
 40
0.4374999999999993
 40
0.4374999999999993
 40
0.4999999999999993
 40
0.4999999999999993
 40
0.5312499999999994
 40
0.5312499999999994
 40
0.5624999999999996
 40
0.5624999999999996
 40
0.6249999999999997
 40
0.6249999999999997
 40
0.6874999999999997
 40
0.6874999999999997
 40
0.7499999999999998
 40
0.7499999999999998
 40
0.8749999999999998
 40
0.8749999999999998
 40
1.0
 40
1.0
 40
1.0
 40
1.0
 10
278.7411332588449
 20
347.1603916588893
 30
0.0
 10
278.7411343411808
 20
347.1603916588893
 30
0.0
 10
278.7369658790709
 20
347.1603916588894
 30
0.0
 10
278.7201464227579
 20
347.1603916588894
 30
0.0
 10
278.6821937961147
 20
347.1603916588894
 30
0.0
 10
278.5542506222076
 20
347.1603916588894
 30
0.0
 10
278.3805392584791
 20
347.1603916588894
 30
0.0
 10
278.1699325598375
 20
347.1603916588894
 30
0.0
 10
278.0463544008546
 20
347.1603916588894
 30
0.0
 10
277.6245809377312
 20
347.1603916588894
 30
0.0
 10
277.273803689827
 20
347.1603916588893
 30
0.0
 10
276.640956611835
 20
347.1603916588894
 30
0.0
 10
276.4122502555892
 20
347.1603916588894
 30
0.0
 10
275.9180954435787
 20
347.1603916588893
 30
0.0
 10
275.6515677450482
 20
347.1603916588894
 30
0.0
 10
274.8029093244973
 20
347.1603916588894
 30
0.0
 10
274.1753129652252
 20
347.1603916588894
 30
0.0
 10
272.7981713041908
 20
347.1603916588893
 30
0.0
 10
272.0486610849
 20
347.1603916588894
 30
0.0
 10
270.8281332709338
 20
347.1603916588894
 30
0.0
 10
270.4072722027266
 20
347.1603916588894
 30
0.0
 10
269.5465863747073
 20
347.1603916588894
 30
0.0
 10
269.1054446732121
 20
347.1603916588894
 30
0.0
 10
267.7500331556824
 20
347.1603916588894
 30
0.0
 10
266.8040045249226
 20
347.1603916588894
 30
0.0
 10
265.3186503075979
 20
347.1603916588894
 30
0.0
 10
264.8100435774156
 20
347.1603916588894
 30
0.0
 10
263.7852194206488
 20
347.1603916588894
 30
0.0
 10
263.2683654053143
 20
347.1603916588894
 30
0.0
 10
261.7070661871125
 20
347.1603916588894
 30
0.0
 10
260.6522557193427
 20
347.1603916588894
 30
0.0
 10
258.5274804959583
 20
347.1603916588895
 30
0.0
 10
257.4573544421527
 20
347.1603916588894
 30
0.0
 10
255.3034443266314
 20
347.1603916588893
 30
0.0
 10
254.2211027217999
 20
347.1603916588894
 30
0.0
 10
250.9722631811059
 20
347.1603916588893
 30
0.0
 10
248.7995561951024
 20
347.1603916588893
 30
0.0
 10
244.4556132246171
 20
347.1603916588894
 30
0.0
 10
242.2830007026455
 20
347.1603916588893
 30
0.0
 10
240.1102817887988
 20
347.1603916588893
 30
0.0
  0
LINE
  5
15D
330
1F
100
AcDbEntity
  8
0
  6
Continuous
 62
     7
370
    25
100
AcDbLine
 10
278.7411332588
 20
347.1603916589
 30
0.0
 11
278.7411332588
 21
542.9103916589
 31
0.0
  0
ARC
  5
15E
330
1F
100
AcDbEntity
  8
0
  6
Continuous
 62
     7
370
    25
100
AcDbCircle
 10
217.4622115866
 20
347.0978921349
 30
0.0
 40
22.64815643877352
100
AcDbArc
 50
359.5256519583
 51
0.1581128028
  0
ARC
  5
15F
330
1F
100
AcDbEntity
  8
0
  6
Continuous
 62
     7
370
    25
100
AcDbCircle
 10
278.4911332588
 20
347.1603916589
 30
0.0
 40
0.2500000000031832
100
AcDbArc
 50
270.0
 51
0.0
  0
SPLINE
  5
160
330
1F
100
AcDbEntity
  8
0
  6
Continuous
 62
     7
370
    18
100
AcDbSpline
210
0.0
220
0.0
230
1.0
 70
     8
 71
     3
 72
    19
 73
    15
 74
     0
 42
0.000000001
 43
0.00000001
 40
0.0
 40
0.0
 40
0.0
 40
0.0
 40
0.0059445774164399
 40
0.0180794239961027
 40
0.0318434026694638
 40
0.0454623422470405
 40
0.0575937390855196
 40
0.0699735399838448
 40
0.1031978638415967
 40
0.1364420858764088
 40
0.2029443257601637
 40
0.4686294376802508
 40
0.734314650760644
 40
1.0
 40
1.0
 40
1.0
 40
1.0
 10
451.9012627470973
 20
643.185275804901
 30
0.0
 10
451.8459313512633
 20
643.1763938585808
 30
0.0
 10
451.6776502951843
 20
643.1493809252495
 30
0.0
 10
450.9205326641897
 20
643.1206436947339
 30
0.0
 10
449.3491549325785
 20
643.1065589476768
 30
0.0
 10
447.2858082624193
 20
643.1047996341787
 30
0.0
 10
445.1602065804583
 20
643.1122987813528
 30
0.0
 10
441.8733402287289
 20
643.1276643091361
 30
0.0
 10
437.3648285333135
 20
643.1426084285746
 30
0.0
 10
429.7651478710002
 20
643.1517778681124
 30
0.0
 10
408.8787037207483
 20
643.1396448131292
 30
0.0
 10
374.7066945920261
 20
643.1441993728366
 30
0.0
 10
329.148662121345
 20
643.1379253941202
 30
0.0
 10
298.7758970381974
 20
643.1353723066444
 30
0.0
 10
283.5895106052486
 20
643.1340957625794
 30
0.0
  0
SPLINE
  5
161
330
1F
100
AcDbEntity
  8
0
  6
Continuous
 62
     7
370
    25
100
AcDbSpline
210
0.0
220
0.0
230
1.0
 70
     8
 71
     3
 72
    18
 73
    14
 74
     0
 42
0.000000001
 43
0.00000001
 40
0.0
 40
0.0
 40
0.0
 40
0.0
 40
0.1250000000000034
 40
0.1250000000000034
 40
0.2500000000000068
 40
0.2500000000000068
 40
0.3750000000000102
 40
0.3750000000000102
 40
0.5000000000000135
 40
0.5000000000000135
 40
0.7500000000000068
 40
0.7500000000000068
 40
1.0
 40
1.0
 40
1.0
 40
1.0
 10
453.6634394062026
 20
641.0436424749423
 30
0.0
 10
453.7274023158972
 20
641.1545413290418
 30
0.0
 10
453.7769552840927
 20
641.2707734593376
 30
0.0
 10
453.8482543469444
 20
641.5135293464946
 30
0.0
 10
453.8696496416733
 20
641.6409455909686
 30
0.0
 10
453.881639949968
 20
641.8931885767126
 30
0.0
 10
453.8726273103624
 20
642.0208204041785
 30
0.0
 10
453.8244587639605
 20
642.2707769091571
 30
0.0
 10
453.786040772574
 20
642.3910009730505
 30
0.0
 10
453.6281311790046
 20
642.7375252055808
 30
0.0
 10
453.4664945388404
 20
642.943226230039
 30
0.0
 10
453.0682326681043
 20
643.2568638855727
 30
0.0
 10
452.8320518226387
 20
643.3655266853527
 30
0.0
 10
452.5806456992759
 20
643.4140467710328
 30
0.0
  0
SPLINE
  5
162
330
1F
100
AcDbEntity
  8
0
  6
Continuous
 62
     7
370
    25
100
AcDbSpline
210
0.0
220
0.0
230
1.0
 70
     8
 71
     3
 72
    12
 73
     8
 74
     0
 42
0.000000001
 43
0.00000001
 40
0.0
 40
0.0
 40
0.0
 40
0.0
 40
0.2499999999999998
 40
0.2499999999999998
 40
0.4999999999999996
 40
0.4999999999999996
 40
1.0
 40
1.0
 40
1.0
 40
1.0
 10
264.1239427735151
 20
647.5103916588893
 30
0.0
 10
263.1104573061536
 20
647.5103916588893
 30
0.0
 10
262.084907358674
 20
647.5545337820586
 30
0.0
 10
260.0243838241272
 20
647.7359285897251
 30
0.0
 10
258.9875709112857
 20
647.8734260871444
 30
0.0
 10
255.8880210341067
 20
648.4284845408341
 30
0.0
 10
253.8469115485182
 20
648.9864884534693
 30
0.0
 10
251.8666844294337
 20
649.7268650351954
 30
0.0
  0
SPLINE
  5
163
330
1F
100
AcDbEntity
  8
0
  6
Continuous
 62
     7
370
    25
100
AcDbSpline
210
0.0
220
0.0
230
1.0
 70
    24
 71
     3
 72
    12
 73
     8
 74
     0
 42
0.000000001
 43
0.00000001
 40
0.0
 40
0.0
 40
0.0
 40
0.0
 40
0.2500000000000018
 40
0.2500000000000018
 40
0.5000000000000037
 40
0.5000000000000037
 40
1.0
 40
1.0
 40
1.0
 40
1.0
 10
240.8306232911081
 20
653.853079216673
 30
0.0
 10
240.732958096428
 20
653.8895947366827
 30
0.0
 10
240.6367705512264
 20
653.9255577861908
 30
0.0
 10
240.4472958240226
 20
653.9963994838419
 30
0.0
 10
240.3536221080677
 20
654.031422651108
 30
0.0
 10
240.0894687408785
 20
654.1301855481342
 30
0.0
 10
239.9293659667771
 20
654.1900455225139
 30
0.0
 10
239.8035184735208
 20
654.2370979721939
 30
0.0
  0
SPLINE
  5
164
330
1F
100
AcDbEntity
  8
0
  6
Continuous
 62
     7
370
    25
100
AcDbSpline
210
0.0
220
0.0
230
1.0
 70
     8
 71
     3
 72
    21
 73
    17
 74
     0
 42
0.000000001
 43
0.00000001
 40
0.0
 40
0.0
 40
0.0
 40
0.0
 40
0.0623178940026294
 40
0.1212778781466969
 40
0.1819665571544943
 40
0.240472153763411
 40
0.3007184753993692
 40
0.417774196691841
 40
0.4773169674774532
 40
0.5386670659315405
 40
0.6561877280187813
 40
0.7730031713768057
 40
0.8321990781575281
 40
0.8931144311680876
 40
0.9522189637916483
 40
1.0
 40
1.0
 40
1.0
 40
1.0
 10
438.5994710417779
 20
626.1116429972167
 30
0.0
 10
438.4805322653567
 20
626.0717219311426
 30
0.0
 10
438.2490635569769
 20
625.9940308880756
 30
0.0
 10
437.2490493141099
 20
625.7480246672743
 30
0.0
 10
436.0647099461804
 20
625.5313424529396
 30
0.0
 10
434.5878236516798
 20
625.3417739356996
 30
0.0
 10
432.3745018501196
 20
625.1509626290239
 30
0.0
 10
429.8071239573879
 20
625.0081531854237
 30
0.0
 10
427.142521598327
 20
624.7715905492554
 30
0.0
 10
424.479926529458
 20
624.4349960346482
 30
0.0
 10
421.3362574134853
 20
623.8148125188999
 30
0.0
 10
418.7810989218911
 20
623.1302160768668
 30
0.0
 10
417.2021004925489
 20
622.6824463072592
 30
0.0
 10
416.2919588554168
 20
622.4223022121045
 30
0.0
 10
415.6873317733899
 20
622.25472701333
 30
0.0
 10
415.5482851274061
 20
622.2198831209539
 30
0.0
 10
415.486127130784
 20
622.2043068621431
 30
0.0
  0
SPLINE
  5
165
330
1F
100
AcDbEntity
  8
0
  6
Continuous
 62
     7
370
    25
100
AcDbSpline
210
0.0
220
0.0
230
1.0
 70
     8
 71
     3
 72
     9
 73
     5
 74
     0
 42
0.000000001
 43
0.00000001
 40
0.0
 40
0.0
 40
0.0
 40
0.0
 40
0.5
 40
1.0
 40
1.0
 40
1.0
 40
1.0
 10
415.4217246012023
 20
622.1876094153932
 30
0.0
 10
415.4133040385732
 20
622.1856353736197
 30
0.0
 10
415.4007136483594
 20
622.1828017256995
 30
0.0
 10
415.3965181991619
 20
622.1820459010014
 30
0.0
 10
415.3965005423416
 20
622.1821481230874
 30
0.0
  0
SPLINE
  5
166
330
1F
100
AcDbEntity
  8
0
  6
Continuous
 62
     7
370
    25
100
AcDbSpline
210
0.0
220
0.0
230
1.0
 70
    24
 71
     3
 72
    10
 73
     6
 74
     0
 42
0.000000001
 43
0.00000001
 40
0.0
 40
0.0
 40
0.0
 40
0.0
 40
0.5
 40
0.5
 40
1.0
 40
1.0
 40
1.0
 40
1.0
 10
250.9192590982239
 20
650.0810928514906
 30
0.0
 10
249.2390528342018
 20
650.7092962319828
 30
0.0
 10
247.557729306352
 20
651.3379173403032
 30
0.0
 10
244.1944043970236
 20
652.5954129960307
 30
0.0
 10
242.5125464616113
 20
653.2242339111514
 30
0.0
 10
240.8306232859342
 20
653.8530792186075
 30
0.0
  0
SPLINE
  5
167
330
1F
100
AcDbEntity
  8
0
  6
Continuous
 62
     7
370
    25
100
AcDbSpline
210
0.0
220
0.0
230
1.0
 70
     8
 71
     3
 72
    10
 73
     6
 74
     0
 42
0.000000001
 43
0.00000001
 40
0.4600991615419364
 40
0.4600991615419364
 40
0.4600991615419364
 40
0.4600991615419364
 40
0.7500099759595785
 40
0.8900868383148721
 40
1.0
 40
1.0
 40
1.0
 40
1.0
 10
278.7411332588449
 20
542.9103916588894
 30
0.0
 10
278.7411332588449
 20
549.274452866489
 30
0.0
 10
278.7411332588449
 20
558.7134518875963
 30
0.0
 10
278.7411332588449
 20
570.5652415108415
 30
0.0
 10
278.6761098749985
 20
576.0516016365663
 30
0.0
 10
278.6790792512087
 20
578.4666364892882
 30
0.0
  0
LINE
  5
168
330
1F
100
AcDbEntity
  8
0
  6
Continuous
 62
     7
370
    25
100
AcDbLine
 10
239.0456136749
 20
346.9103916589
 30
0.0
 11
240.1095918688
 21
346.9103916589
 31
0.0
  0
SPLINE
  5
169
330
1F
100
AcDbEntity
  8
0
  6
Continuous
 62
     7
370
    25
100
AcDbSpline
210
0.0
220
0.0
230
1.0
 70
     8
 71
     3
 72
     9
 73
     5
 74
     0
 42
0.000000001
 43
0.00000001
 40
0.1052345213834648
 40
0.1052345213834648
 40
0.1052345213834648
 40
0.1052345213834648
 40
0.5
 40
1.0
 40
1.0
 40
1.0
 40
1.0
 10
279.5660472577519
 20
647.8104391617162
 30
0.0
 10
279.5659878494527
 20
648.1856271390725
 30
0.0
 10
279.5656499667653
 20
649.0360139129938
 30
0.0
 10
279.5656903610227
 20
649.8864137015526
 30
0.0
 10
279.5661628497293
 20
650.3616354483264
 30
0.0
  0
SPLINE
  5
16A
330
1F
100
AcDbEntity
  8
0
  6
Continuous
 62
     7
370
    25
100
AcDbSpline
210
0.0
220
0.0
230
1.0
 70
    24
 71
     3
 72
     8
 73
     4
 74
     0
 42
0.000000001
 43
0.00000001
 40
0.0
 40
0.0
 40
0.0
 40
0.0
 40
0.0010127502704989
 40
0.0010127502704989
 40
0.0010127502704989
 40
0.0010127502704989
 10
251.8666844294337
 20
649.7268650351954
 30
0.0
 10
251.5509389352815
 20
649.8449174380753
 30
0.0
 10
251.2351242646311
 20
649.962995704988
 30
0.0
 10
250.9192594959414
 20
650.08109270279
 30
0.0
  0
SPLINE
  5
16B
330
1F
100
AcDbEntity
  8
0
  6
Continuous
 62
     7
370
    25
100
AcDbSpline
210
0.0
220
0.0
230
1.0
 70
     8
 71
     3
 72
    20
 73
    16
 74
     0
 42
0.000000001
 43
0.00000001
 40
0.0
 40
0.0
 40
0.0
 40
0.0
 40
0.1131615038583329
 40
0.1250000000000001
 40
0.2237477797371932
 40
0.2500000000000002
 40
0.3692024635059348
 40
0.5000000000000002
 40
0.5000000000000002
 40
0.6081791800525065
 40
0.7288293317323673
 40
0.7500000000000002
 40
0.856247063563363
 40
0.8750000000000001
 40
1.0
 40
1.0
 40
1.0
 40
1.0
 10
244.5660725595733
 20
679.7103916588892
 30
0.0
 10
243.7438758681155
 20
679.7103916588892
 30
0.0
 10
242.8343771515933
 20
679.7051731375229
 30
0.0
 10
241.2207362318642
 20
679.5434247009424
 30
0.0
 10
240.243070717496
 20
679.3550541385888
 30
0.0
 10
238.5520969713548
 20
678.7953679043559
 30
0.0
 10
236.7251200976902
 20
677.8389793095079
 30
0.0
 10
235.3072377543764
 20
676.5703434559927
 30
0.0
 10
234.125196893876
 20
675.212289797655
 30
0.0
 10
233.1371138443472
 20
673.811102760849
 30
0.0
 10
232.4065285196448
 20
672.1842000718851
 30
0.0
 10
231.9080795694143
 20
670.6048073859328
 30
0.0
 10
231.7307481898756
 20
669.6999167302052
 30
0.0
 10
231.5697635697213
 20
668.2157219461837
 30
0.0
 10
231.5660725595733
 20
667.4081669449234
 30
0.0
 10
231.5660725595733
 20
666.7103916588892
 30
0.0
  0
SPLINE
  5
16C
330
1F
100
AcDbEntity
  8
0
  6
Continuous
 62
     7
370
    25
100
AcDbSpline
210
0.0
220
0.0
230
1.0
 70
     8
 71
     3
 72
     9
 73
     5
 74
     0
 42
0.000000001
 43
0.00000001
 40
0.0
 40
0.0
 40
0.0
 40
0.0
 40
0.1883983612170554
 40
1.0
 40
1.0
 40
1.0
 40
1.0
 10
231.5647633099732
 20
662.1670033911184
 30
0.0
 10
231.5649716463586
 20
661.8856366324377
 30
0.0
 10
231.566077475433
 20
660.3921695085036
 30
0.0
 10
231.5660646255339
 20
658.8987018881874
 30
0.0
 10
231.5660541965347
 20
657.6866011200694
 30
0.0
  0
LWPOLYLINE
  5
16D
330
1F
100
AcDbEntity
  8
0
  6
Continuous
 62
     7
370
    25
100
AcDbPolyline
 90
        4
 70
   128
 43
0.0
 10
230.7405867384
 20
632.1639267147
 10
230.7410288176
 20
623.6102303206
 10
230.7413393104
 20
601.4200508849
 10
230.7412494505
 20
542.9103916636
  0
SPLINE
  5
16E
330
1F
100
AcDbEntity
  8
0
  6
Continuous
 62
     7
370
    25
100
AcDbSpline
210
0.0
220
0.0
230
1.0
 70
     8
 71
     3
 72
     9
 73
     5
 74
     0
 42
0.000000001
 43
0.00000001
 40
0.8169718670307293
 40
0.8169718670307293
 40
0.8169718670307293
 40
0.8169718670307293
 40
0.9063482992693497
 40
1.0
 40
1.0
 40
1.0
 40
1.0
 10
231.3896932355275
 20
637.125808242052
 30
0.0
 10
231.1179367556344
 20
636.3543631023409
 30
0.0
 10
230.7531218890854
 20
634.7048043386687
 30
0.0
 10
230.741133258844
 20
633.0225019116252
 30
0.0
 10
230.741133258844
 20
632.1639267065751
 30
0.0
  0
ARC
  5
16F
330
1F
100
AcDbEntity
  8
0
  6
Continuous
 62
     7
370
    25
100
AcDbCircle
 10
231.8660852123
 20
657.5250654721
 30
0.0
 40
0.3000000000566791
100
AcDbArc
 50
180.0966354428
 51
249.5
  0
SPLINE
  5
170
330
1F
100
AcDbEntity
  8
0
  6
Continuous
 62
     7
370
    25
100
AcDbSpline
210
0.0
220
0.0
230
1.0
 70
    24
 71
     3
 72
    20
 73
    16
 74
     0
 42
0.000000001
 43
0.00000001
 40
0.0
 40
0.0
 40
0.0
 40
0.0
 40
0.1250000000000001
 40
0.1250000000000001
 40
0.2500000000000002
 40
0.2500000000000002
 40
0.5000000000000004
 40
0.5000000000000004
 40
0.5625000000000004
 40
0.5625000000000004
 40
0.6250000000000006
 40
0.6250000000000006
 40
0.7500000000000004
 40
0.7500000000000004
 40
1.0
 40
1.0
 40
1.0
 40
1.0
 10
239.8035184510656
 20
654.2370979805896
 30
0.0
 10
239.1638853457188
 20
654.47624699917
 30
0.0
 10
238.5558494212365
 20
654.7035823159102
 30
0.0
 10
237.4165109455552
 20
655.1295635167152
 30
0.0
 10
236.8836796598342
 20
655.3287809711964
 30
0.0
 10
235.3952420222305
 20
655.885285000265
 30
0.0
 10
234.5488482118389
 20
656.2017386787812
 30
0.0
 10
233.6834238965061
 20
656.5253075715377
 30
0.0
 10
233.5198437221546
 20
656.5864676925952
 30
0.0
 10
233.2153552867892
 20
656.7003112536587
 30
0.0
 10
233.0740486533113
 20
656.7531436390256
 30
0.0
 10
232.6825682698547
 20
656.899512156719
 30
0.0
 10
232.4647781810854
 20
656.9809405342533
 30
0.0
 10
231.9401055753662
 20
657.1771075832771
 30
0.0
 10
231.7610023474479
 20
657.2440715362421
 30
0.0
 10
231.7610229978818
 20
657.2440638153612
 30
0.0
  0
LINE
  5
171
330
1F
100
AcDbEntity
  8
0
  6
Continuous
 62
     7
370
    25
100
AcDbLine
 10
230.7412494505
 20
347.1603916589
 30
0.0
 11
230.7412494505
 21
542.9103916589
 31
0.0
  0
ARC
  5
172
330
1F
100
AcDbEntity
  8
0
  6
Continuous
 62
     7
370
    25
100
AcDbCircle
 10
230.9912494505
 20
347.1603916589
 30
0.0
 40
0.2500000000200186
100
AcDbArc
 50
179.9992759522
 51
270.0000000092
  0
SPLINE
  5
173
330
1F
100
AcDbEntity
  8
0
  6
Continuous
 62
     7
370
    25
100
AcDbSpline
210
0.0
220
0.0
230
1.0
 70
    24
 71
     3
 72
    18
 73
    14
 74
     0
 42
0.000000001
 43
0.00000001
 40
0.0
 40
0.0
 40
0.0
 40
0.0
 40
0.1250000000000001
 40
0.1250000000000001
 40
0.2500000000000003
 40
0.2500000000000003
 40
0.5000000000000004
 40
0.5000000000000004
 40
0.6250000000000004
 40
0.6250000000000004
 40
0.7500000000000003
 40
0.7500000000000003
 40
1.0
 40
1.0
 40
1.0
 40
1.0
 10
230.9912494504977
 20
346.9103916588893
 30
0.0
 10
230.9912628080845
 20
346.9103916588892
 30
0.0
 10
231.0349927237684
 20
346.9103916588892
 30
0.0
 10
231.2101522340925
 20
346.9103916588894
 30
0.0
 10
231.3420512801508
 20
346.9103916588893
 30
0.0
 10
231.8663377052127
 20
346.9103916588892
 30
0.0
 10
232.383052553767
 20
346.9103916588894
 30
0.0
 10
233.4001000246701
 20
346.9103916588893
 30
0.0
 10
233.7795161397976
 20
346.9103916588893
 30
0.0
 10
234.6207168932771
 20
346.9103916588892
 30
0.0
 10
235.0835375243706
 20
346.9103916588893
 30
0.0
 10
236.5929023165856
 20
346.9103916588892
 30
0.0
 10
237.7454928851509
 20
346.9103916588893
 30
0.0
 10
239.0456136749156
 20
346.9103916588893
 30
0.0
  0
SPLINE
  5
174
330
1F
100
AcDbEntity
  8
0
  6
Continuous
 62
     7
370
    25
100
AcDbSpline
210
0.0
220
0.0
230
1.0
 70
     8
 71
     3
 72
    44
 73
    40
 74
     0
 42
0.000000001
 43
0.00000001
 40
0.2989502842320226
 40
0.2989502842320226
 40
0.2989502842320226
 40
0.2989502842320226
 40
0.3020021551871317
 40
0.3125
 40
0.3244314874295766
 40
0.34375
 40
0.3498835751721123
 40
0.3753356873307961
 40
0.4007877107618224
 40
0.4262397607829523
 40
0.4516636220131124
 40
0.4785943635265914
 40
0.5
 40
0.5048884304996332
 40
0.5215000616466413
 40
0.5438515139298757
 40
0.5589848682292642
 40
0.5729833350553624
 40
0.577137465883865
 40
0.590502857704946
 40
0.6053925427796771
 40
0.6215667590034366
 40
0.6339725085321417
 40
0.6434407849353203
 40
0.6543602134628634
 40
0.65625
 40
0.6624411545211395
 40
0.6725634182061047
 40
0.6808731272949462
 40
0.6944411494051371
 40
0.7078598486430923
 40
0.7242884517519568
 40
0.7353739147670982
 40
0.7436745797442625
 40
0.7486801075150962
 40
0.75
 40
0.7784820705334783
 40
0.78125
 40
0.8102216185360576
 40
0.8102216185360576
 40
0.8102216185360576
 40
0.8102216185360576
 10
251.3660725595758
 20
679.710364720231
 30
0.0
 10
251.5099335732484
 20
679.7103639496422
 30
0.0
 10
252.1475673544979
 20
679.7103686912864
 30
0.0
 10
253.3400261466092
 20
679.7104232708705
 30
0.0
 10
255.2977888079902
 20
679.710426699977
 30
0.0
 10
257.0540456928881
 20
679.7104154658402
 30
0.0
 10
259.445556123251
 20
679.7105512671908
 30
0.0
 10
262.1253057916146
 20
679.7108893098925
 30
0.0
 10
265.7128158152455
 20
679.7115259833133
 30
0.0
 10
269.29909594472
 20
679.7121296804072
 30
0.0
 10
272.9549114455166
 20
679.7124908289722
 30
0.0
 10
276.4206180846725
 20
679.7123699210528
 30
0.0
 10
278.9214263909752
 20
679.7118221374103
 30
0.0
 10
280.9373653673516
 20
679.7111256598293
 30
0.0
 10
282.997729960473
 20
679.7102131860796
 30
0.0
 10
285.5394308082348
 20
679.7087329850564
 30
0.0
 10
287.9583445360138
 20
679.7071154856784
 30
0.0
 10
289.522266524333
 20
679.7060041956445
 30
0.0
 10
291.0031236243901
 20
679.7049347813036
 30
0.0
 10
292.5258566270405
 20
679.7038244411848
 30
0.0
 10
294.6133581373752
 20
679.702323716231
 30
0.0
 10
296.6557869337427
 20
679.7009324363859
 30
0.0
 10
298.4435073665836
 20
679.6998239301523
 30
0.0
 10
299.9843421559733
 20
679.6989644848228
 30
0.0
 10
301.0310833107047
 20
679.698452949824
 30
0.0
 10
301.9238500099385
 20
679.6980625474795
 30
0.0
 10
302.7791641797799
 20
679.6977170029944
 30
0.0
 10
303.9361165131421
 20
679.6973519595839
 30
0.0
 10
305.4395998236253
 20
679.6970869260975
 30
0.0
 10
307.097791372071
 20
679.697132182622
 30
0.0
 10
309.1369818320286
 20
679.6978573194282
 30
0.0
 10
311.0589671978794
 20
679.6994012607976
 30
0.0
 10
312.7399900521228
 20
679.7016061643815
 30
0.0
 10
313.8844893450682
 20
679.7035694760407
 30
0.0
 10
314.5706053979213
 20
679.7049527344791
 30
0.0
 10
316.2032417005304
 20
679.7084885825057
 30
0.0
 10
317.7300369449231
 20
679.7128852236176
 30
0.0
 10
320.5584005311318
 20
679.7161760639451
 30
0.0
 10
322.0522941886969
 20
679.7149589554713
 30
0.0
 10
323.4222144916632
 20
679.7069297402176
 30
0.0
  0
LINE
  5
175
330
1F
100
AcDbEntity
  8
0
  6
Continuous
 62
     7
370
    25
100
AcDbLine
 10
251.3660725596
 20
679.7103647202
 30
0.0
 11
244.5660725596
 21
679.7104011443
 31
0.0
  0
SPLINE
  5
176
330
1F
100
AcDbEntity
  8
0
  6
Continuous
 62
     7
370
    25
100
AcDbSpline
210
0.0
220
0.0
230
1.0
 70
     8
 71
     3
 72
    52
 73
    48
 74
     0
 42
0.000000001
 43
0.00000001
 40
0.4934115228876447
 40
0.4934115228876447
 40
0.4934115228876447
 40
0.4934115228876447
 40
0.4958417230511807
 40
0.5251406864240972
 40
0.5340166157694074
 40
0.567256244050235
 40
0.6004959520456468
 40
0.6334728304748043
 40
0.6664498072273095
 40
0.6994188156498877
 40
0.7323879372402432
 40
0.7656390192909661
 40
0.798890228945407
 40
0.8125
 40
0.8268281363763476
 40
0.8547661399292001
 40
0.875
 40
0.890625
 40
0.8942111390964831
 40
0.90625
 40
0.9095337204460916
 40
0.9213302657489915
 40
0.9271040162348015
 40
0.9296875
 40
0.9314388232179497
 40
0.9343313643998147
 40
0.9375
 40
0.9378119402999653
 40
0.9378119402999653
 40
0.9378407113716374
 40
0.9416704564208767
 40
0.9453125
 40
0.9459909592890994
 40
0.9459972758419403
 40
0.9460273256831814
 40
0.9507841396190302
 40
0.953125
 40
0.9558493174010422
 40
0.95703125
 40
0.9609544630780864
 40
0.96484375
 40
0.9656651418878186
 40
0.9658945122592981
 40
0.96875
 40
0.9695059722407678
 40
0.9697762764727084
 40
0.9703922344293171
 40
0.9703922344293171
 40
0.9703922344293171
 40
0.9703922344293171
 10
283.5894973244232
 20
644.9112861096033
 30
0.0
 10
283.8771965280919
 20
644.9112622310586
 30
0.0
 10
287.6334605271578
 20
644.9109540987942
 30
0.0
 10
292.440627242883
 20
644.9106199765689
 30
0.0
 10
300.8954808514931
 20
644.9101481157268
 30
0.0
 10
309.8171131930887
 20
644.9097808975274
 30
0.0
 10
321.592499383735
 20
644.9095365084431
 30
0.0
 10
333.3369883459003
 20
644.9094996938312
 30
0.0
 10
345.0494902987509
 20
644.9096372210169
 30
0.0
 10
356.7610025670748
 20
644.9099176461659
 30
0.0
 10
368.5047620149148
 20
644.9103107625602
 30
0.0
 10
380.281588842099
 20
644.9107861125734
 30
0.0
 10
389.765993247002
 20
644.9112087806457
 30
0.0
 10
397.0098552645117
 20
644.9115391774798
 30
0.0
 10
403.6245542441136
 20
644.911841912713
 30
0.0
 10
411.0244039799143
 20
644.9118656635846
 30
0.0
 10
418.5817710423643
 20
644.9108053767072
 30
0.0
 10
423.2571924405585
 20
644.9094112491422
 30
0.0
 10
426.9462595372273
 20
644.9110445956705
 30
0.0
 10
429.1779019581016
 20
644.9122261283073
 30
0.0
 10
432.475053157255
 20
644.908673190971
 30
0.0
 10
434.9722242262574
 20
644.8942525011325
 30
0.0
 10
437.3447060841078
 20
644.8361779186292
 30
0.0
 10
438.4798588309086
 20
644.798538399601
 30
0.0
 10
439.3453070598484
 20
644.7657085118896
 30
0.0
 10
440.2845855957665
 20
644.7255807700066
 30
0.0
 10
441.0459154444731
 20
644.6886782311187
 30
0.0
 10
441.457111176891
 20
644.667482655432
 30
0.0
 10
441.4971534711556
 20
644.6654066535053
 30
0.0
 10
441.95255179237
 20
644.6417844913763
 30
0.0
 10
442.828003944479
 20
644.5930764020211
 30
0.0
 10
443.7867849415643
 20
644.5271352737251
 30
0.0
 10
444.3053355133414
 20
644.4861230053766
 30
0.0
 10
444.3913269357566
 20
644.479194573702
 30
0.0
 10
444.9680033529607
 20
644.4326853977002
 30
0.0
 10
445.8399584007516
 20
644.3534371784095
 30
0.0
 10
446.9952853161332
 20
644.2385539684099
 30
0.0
 10
447.6933110123631
 20
644.1661378705406
 30
0.0
 10
448.556573681933
 20
644.0686656799866
 30
0.0
 10
449.5527289681013
 20
643.9411785336706
 30
0.0
 10
450.5941559435558
 20
643.7724007354358
 30
0.0
 10
451.1549749515236
 20
643.6753022821171
 30
0.0
 10
451.5879599612546
 20
643.5993381560153
 30
0.0
 10
451.9858649574319
 20
643.5267120910215
 30
0.0
 10
452.3259164410088
 20
643.4627195633159
 30
0.0
 10
452.4626425231828
 20
643.4367348480348
 30
0.0
 10
452.5331575488305
 20
643.4232117392427
 30
0.0
 10
452.5806456992759
 20
643.4140467710328
 30
0.0
  0
LINE
  5
177
330
1F
100
AcDbEntity
  8
0
  6
Continuous
 62
     7
370
    25
100
AcDbLine
 10
323.4222144917
 20
679.7086606996
 30
0.0
 11
325.5081734805
 21
679.6627265754
 31
0.0
  0
SPLINE
  5
178
330
1F
100
AcDbEntity
  8
0
  6
Continuous
 62
     7
370
    25
100
AcDbSpline
210
0.0
220
0.0
230
1.0
 70
     8
 71
     3
 72
    10
 73
     6
 74
     0
 42
0.000000001
 43
0.00000001
 40
0.0
 40
0.0
 40
0.0
 40
0.0
 40
0.0707678892069458
 40
0.573611570327661
 40
1.0
 40
1.0
 40
1.0
 40
1.0
 10
327.618404930621
 20
679.6162579564477
 30
0.0
 10
327.8275402810095
 20
679.6121616846749
 30
0.0
 10
329.5226940872304
 20
679.5789592123315
 30
0.0
 10
332.4742754058631
 20
679.3462517342848
 30
0.0
 10
335.1922987810033
 20
678.9503460150815
 30
0.0
 10
336.4394938631336
 20
678.7686802978203
 30
0.0
  0
LINE
  5
179
330
1F
100
AcDbEntity
  8
0
  6
Continuous
 62
     7
370
    25
100
AcDbLine
 10
340.0420069635
 20
678.0049117622
 30
0.0
 11
340.0604713112
 21
677.9928137176
 31
0.0
  0
ARC
  5
17A
330
1F
100
AcDbEntity
  8
0
  6
Continuous
 62
     7
370
    25
100
AcDbCircle
 10
279.2660472615
 20
647.8103916589
 30
0.0
 40
0.3000000000000682
100
AcDbArc
 50
270.0
 51
0.0090723717
  0
SPLINE
  5
17B
330
1F
100
AcDbEntity
  8
0
  6
Continuous
 62
     7
370
    25
100
AcDbSpline
210
0.0
220
0.0
230
1.0
 70
    24
 71
     3
 72
    30
 73
    26
 74
     0
 42
0.000000001
 43
0.00000001
 40
0.0
 40
0.0
 40
0.0
 40
0.0
 40
0.0624999999999999
 40
0.0624999999999999
 40
0.1249999999999998
 40
0.1249999999999998
 40
0.2499999999999998
 40
0.2499999999999998
 40
0.3124999999999998
 40
0.3124999999999998
 40
0.3749999999999998
 40
0.3749999999999998
 40
0.4999999999999998
 40
0.4999999999999998
 40
0.5624999999999997
 40
0.5624999999999997
 40
0.6249999999999996
 40
0.6249999999999996
 40
0.7499999999999997
 40
0.7499999999999997
 40
0.8124999999999998
 40
0.8124999999999998
 40
0.8749999999999999
 40
0.8749999999999999
 40
1.0
 40
1.0
 40
1.0
 40
1.0
 10
279.2660472615128
 20
647.5103916588893
 30
0.0
 10
279.2660472615128
 20
647.5103916588893
 30
0.0
 10
279.2371641663985
 20
647.5103916588893
 30
0.0
 10
279.1315260771337
 20
647.5103916588894
 30
0.0
 10
279.05492948308
 20
647.5103916588894
 30
0.0
 10
278.7624949465403
 20
647.5103916588894
 30
0.0
 10
278.4847968922475
 20
647.5103916588894
 30
0.0
 10
277.9541981261091
 20
647.5103916588894
 30
0.0
 10
277.7580745652213
 20
647.5103916588893
 30
0.0
 10
277.3265276682372
 20
647.5103916588893
 30
0.0
 10
277.0907615786128
 20
647.5103916588891
 30
0.0
 10
276.332957867774
 20
647.5103916588893
 30
0.0
 10
275.7580641780733
 20
647.5103916588891
 30
0.0
 10
274.7846133318637
 20
647.5103916588891
 30
0.0
 10
274.4415033659051
 20
647.5103916588891
 30
0.0
 10
273.7155830884719
 20
647.5103916588893
 30
0.0
 10
273.3324795476306
 20
647.5103916588893
 30
0.0
 10
272.1384334590082
 20
647.5103916588893
 30
0.0
 10
271.2776479042001
 20
647.5103916588893
 30
0.0
 10
269.8822036369284
 20
647.5103916588894
 30
0.0
 10
269.3973829296833
 20
647.5103916588893
 30
0.0
 10
268.4042268332946
 20
647.5103916588893
 30
0.0
 10
267.8960971338709
 20
647.5103916588894
 30
0.0
 10
266.3376085711244
 20
647.5103916588893
 30
0.0
 10
265.2531440850412
 20
647.5103916588893
 30
0.0
 10
264.1239427735151
 20
647.5103916588893
 30
0.0
  0
SPLINE
  5
17C
330
1F
100
AcDbEntity
  8
0
  6
Continuous
 62
     7
370
    25
100
AcDbSpline
210
0.0
220
0.0
230
1.0
 70
     8
 71
     3
 72
    28
 73
    24
 74
     0
 42
0.000000001
 43
0.00000001
 40
0.0
 40
0.0
 40
0.0
 40
0.0
 40
0.1249999999999998
 40
0.1249999999999998
 40
0.2499999999999995
 40
0.2499999999999995
 40
0.3124999999999994
 40
0.3124999999999994
 40
0.3749999999999994
 40
0.3749999999999994
 40
0.4999999999999993
 40
0.4999999999999993
 40
0.5624999999999993
 40
0.5624999999999993
 40
0.6249999999999993
 40
0.6249999999999993
 40
0.7499999999999996
 40
0.7499999999999996
 40
0.8124999999999997
 40
0.8124999999999997
 40
0.8749999999999998
 40
0.8749999999999998
 40
1.0
 40
1.0
 40
1.0
 40
1.0
 10
276.9660650398455
 20
644.8138720642952
 30
0.0
 10
276.679871242143
 20
644.7713817704588
 30
0.0
 10
276.3026045666871
 20
644.7178420790522
 30
0.0
 10
275.3719466626154
 20
644.5972212137934
 30
0.0
 10
274.818612388208
 20
644.5297921311211
 30
0.0
 10
273.8504624314511
 20
644.4214458544012
 30
0.0
 10
273.5076325689983
 20
644.3845142342966
 30
0.0
 10
272.7872234581182
 20
644.3104164138473
 30
0.0
 10
272.4089498117944
 20
644.2731823846589
 30
0.0
 10
271.2205088614284
 20
644.1618517735859
 30
0.0
 10
270.3570901546695
 20
644.0882450363073
 30
0.0
 10
268.9513384641394
 20
643.979073538134
 30
0.0
 10
268.4668648839387
 20
643.9430593575638
 30
0.0
 10
267.4782583492586
 20
643.872822604138
 30
0.0
 10
266.9724306750992
 20
643.8385069976794
 30
0.0
 10
265.4208639596175
 20
643.7382234836336
 30
0.0
 10
264.3412795505233
 20
643.6749452588423
 30
0.0
 10
262.6519615456111
 20
643.5841942289613
 30
0.0
 10
262.0791515943625
 20
643.5547450356328
 30
0.0
 10
260.9310294553605
 20
643.4983509693299
 30
0.0
 10
260.3533412697923
 20
643.4712627339037
 30
0.0
 10
258.6095290002168
 20
643.3941475551657
 30
0.0
 10
257.4326425028354
 20
643.3502976253667
 30
0.0
 10
256.2412876181036
 20
643.3071450697308
 30
0.0
  0
SPLINE
  5
17D
330
1F
100
AcDbEntity
  8
0
  6
Continuous
 62
     7
370
    25
100
AcDbSpline
210
0.0
220
0.0
230
1.0
 70
     8
 71
     3
 72
     8
 73
     4
 74
     0
 42
0.000000001
 43
0.00000001
 40
0.0
 40
0.0
 40
0.0
 40
0.0
 40
1.0
 40
1.0
 40
1.0
 40
1.0
 10
277.6009205563857
 20
644.9117466257103
 30
0.0
 10
277.6011058371857
 20
644.910616332291
 30
0.0
 10
277.3898986746204
 20
644.8767973122351
 30
0.0
 10
276.9660650398454
 20
644.8138720642951
 30
0.0
  0
LINE
  5
17E
330
1F
100
AcDbEntity
  8
0
  6
Continuous
 62
     7
370
    25
100
AcDbLine
 10
277.7397092856
 20
644.9115071374
 30
0.0
 11
277.6009205564
 21
644.9117466257
 31
0.0
  0
LINE
  5
17F
330
1F
100
AcDbEntity
  8
0
  6
Continuous
 62
     7
370
    25
100
AcDbLine
 10
234.7411332588
 20
642.9088799871
 30
0.0
 11
234.7634201251
 21
642.9088640504
 31
0.0
  0
SPLINE
  5
180
330
1F
100
AcDbEntity
  8
0
  6
Continuous
 62
     7
370
    25
100
AcDbSpline
210
0.0
220
0.0
230
1.0
 70
     8
 71
     3
 72
    14
 73
    10
 74
     0
 42
0.000000001
 43
0.00000001
 40
0.0
 40
0.0
 40
0.0
 40
0.0
 40
0.25
 40
0.25
 40
0.5
 40
0.5
 40
0.75
 40
0.75
 40
1.0
 40
1.0
 40
1.0
 40
1.0
 10
341.0603726926359
 20
676.567909317721
 30
0.0
 10
341.0732320494212
 20
676.7123993588397
 30
0.0
 10
341.0630000919727
 20
676.8680488131432
 30
0.0
 10
340.9841206564778
 20
677.1763539889288
 30
0.0
 10
340.9152009640977
 20
677.3284464398849
 30
0.0
 10
340.7263003368936
 20
677.5976383751281
 30
0.0
 10
340.6067135760848
 20
677.7141761417994
 30
0.0
 10
340.3436131727616
 20
677.8932076186725
 30
0.0
 10
340.2007218044039
 20
677.9557657475261
 30
0.0
 10
340.0604713112158
 20
677.9928137175807
 30
0.0
  0
SPLINE
  5
181
330
1F
100
AcDbEntity
  8
0
  6
Continuous
 62
     7
370
    25
100
AcDbSpline
210
0.0
220
0.0
230
1.0
 70
     8
 71
     3
 72
    11
 73
     7
 74
     0
 42
0.000000001
 43
0.00000001
 40
0.9250147628747161
 40
0.9250147628747161
 40
0.9250147628747161
 40
0.9250147628747161
 40
0.9307786514404626
 40
0.9809605883919689
 40
0.9809605883919689
 40
1.0
 40
1.0
 40
1.0
 40
1.0
 10
279.6755296999384
 20
653.5103916588893
 30
0.0
 10
279.6698726310176
 20
653.4333954007927
 30
0.0
 10
279.61711517122
 20
652.6831448100877
 30
0.0
 10
279.5851890668386
 20
651.9046265775692
 30
0.0
 10
279.5683025782658
 20
650.9092734415665
 30
0.0
 10
279.566435096746
 20
650.6354572370399
 30
0.0
 10
279.5661628497293
 20
650.3616354483264
 30
0.0
  0
SPLINE
  5
182
330
1F
100
AcDbEntity
  8
0
  6
Continuous
 62
     7
370
    25
100
AcDbSpline
210
0.0
220
0.0
230
1.0
 70
     8
 71
     3
 72
    26
 73
    22
 74
     0
 42
0.000000001
 43
0.00000001
 40
0.0
 40
0.0
 40
0.0
 40
0.0
 40
0.0311483734690532
 40
0.0622967469381063
 40
0.1201731720529872
 40
0.1780495971678681
 40
0.1780495971678681
 40
0.1945013883333333
 40
0.2282315341193744
 40
0.2784134710708807
 40
0.328595408022387
 40
0.3787773449738933
 40
0.4289592819253996
 40
0.4630009255555555
 40
0.4791412188769059
 40
0.5369990744444445
 40
0.5795050927799185
 40
0.6296870297314248
 40
0.6798689666829311
 40
0.7300509036344374
 40
0.7580358691994313
 40
0.7580358691994313
 40
0.7580358691994313
 40
0.7580358691994313
 10
301.0334832812406
 20
670.7394433858265
 30
0.0
 10
300.6356093581852
 20
670.7256319520789
 30
0.0
 10
299.8400038590242
 20
670.6940271407069
 30
0.0
 10
298.3067678166845
 20
670.608165960965
 30
0.0
 10
296.436878774167
 20
670.4430708432118
 30
0.0
 10
294.9742979993374
 20
670.2337204012534
 30
0.0
 10
294.0406499081959
 20
670.0681761150109
 30
0.0
 10
293.4175969318953
 20
669.9515441710016
 30
0.0
 10
292.215724171534
 20
669.6882475440364
 30
0.0
 10
290.7076541288787
 20
669.2677837779581
 30
0.0
 10
289.1435980387726
 20
668.7003521551629
 30
0.0
 10
287.7063882515563
 20
668.0343789958753
 30
0.0
 10
286.5345556232663
 20
667.3490083492347
 30
0.0
 10
285.7280334962513
 20
666.7785603915735
 30
0.0
 10
284.9032385197242
 20
666.1260879761402
 30
0.0
 10
284.082451404143
 20
665.3608631900163
 30
0.0
 10
283.1395858253257
 20
664.260381649465
 30
0.0
 10
282.346367489484
 20
663.1157992790264
 30
0.0
 10
281.6242356980035
 20
661.7922223769688
 30
0.0
 10
281.1036485818687
 20
660.5609287782726
 30
0.0
 10
280.8308099332085
 20
659.7609761163903
 30
0.0
 10
280.738732620035
 20
659.4680714098545
 30
0.0
  0
SPLINE
  5
183
330
1F
100
AcDbEntity
  8
0
  6
Continuous
 62
     7
370
    25
100
AcDbSpline
210
0.0
220
0.0
230
1.0
 70
     8
 71
     3
 72
    14
 73
    10
 74
     0
 42
0.000000001
 43
0.00000001
 40
0.0
 40
0.0
 40
0.0
 40
0.0
 40
0.1249999999999904
 40
0.1249999999999904
 40
0.2499999999999808
 40
0.2499999999999808
 40
0.4999999999999637
 40
0.4999999999999637
 40
1.0
 40
1.0
 40
1.0
 40
1.0
 10
280.738732620035
 20
659.9492127512292
 30
0.0
 10
280.741487096748
 20
659.9634483824289
 30
0.0
 10
280.7399091580865
 20
659.9672307859639
 30
0.0
 10
280.7339844132653
 20
659.9661391235701
 30
0.0
 10
280.7296479256772
 20
659.9614990180278
 30
0.0
 10
280.715025978201
 20
659.9424154521995
 30
0.0
 10
280.7033089097962
 20
659.9230261595654
 30
0.0
 10
280.6654931816132
 20
659.855594161442
 30
0.0
 10
280.6376679476803
 20
659.799683154923
 30
0.0
 10
280.6085575439701
 20
659.7368301128981
 30
0.0
  0
SPLINE
  5
184
330
1F
100
AcDbEntity
  8
0
  6
Continuous
 62
     7
370
    25
100
AcDbSpline
210
0.0
220
0.0
230
1.0
 70
     8
 71
     3
 72
    10
 73
     6
 74
     0
 42
0.000000001
 43
0.00000001
 40
0.0
 40
0.0
 40
0.0
 40
0.0
 40
0.5
 40
0.5
 40
1.0
 40
1.0
 40
1.0
 40
1.0
 10
280.6085575439701
 20
659.7368301128982
 30
0.0
 10
280.5043060446005
 20
659.5117379452914
 30
0.0
 10
280.3994925760422
 20
659.2669973614591
 30
0.0
 10
280.1962353595627
 20
658.7358110035113
 30
0.0
 10
280.0971567522192
 20
658.4468751273158
 30
0.0
 10
280.0080101740489
 20
658.1441526336358
 30
0.0
  0
SPLINE
  5
185
330
1F
100
AcDbEntity
  8
0
  6
Continuous
 62
     7
370
    25
100
AcDbSpline
210
0.0
220
0.0
230
1.0
 70
     8
 71
     3
 72
    22
 73
    18
 74
     0
 42
0.000000001
 43
0.00000001
 40
0.0
 40
0.0
 40
0.0
 40
0.0
 40
0.125
 40
0.125
 40
0.25
 40
0.25
 40
0.375
 40
0.375
 40
0.5
 40
0.5
 40
0.625
 40
0.625
 40
0.75
 40
0.75
 40
0.875
 40
0.875
 40
1.0
 40
1.0
 40
1.0
 40
1.0
 10
280.008010174049
 20
658.1441526336358
 30
0.0
 10
279.9313822685414
 20
657.8654767847155
 30
0.0
 10
279.865090503757
 20
657.584626688862
 30
0.0
 10
279.7531061852381
 20
657.0185953131906
 30
0.0
 10
279.7072374264699
 20
656.7304720492243
 30
0.0
 10
279.6388122194539
 20
656.177172362132
 30
0.0
 10
279.6155215860279
 20
655.9092960203403
 30
0.0
 10
279.5867174570357
 20
655.3925128816849
 30
0.0
 10
279.5816629512178
 20
655.1521465776092
 30
0.0
 10
279.5835009343717
 20
654.7104358007783
 30
0.0
 10
279.5905532583787
 20
654.5069262324497
 30
0.0
 10
279.6096883454104
 20
654.1561501330149
 30
0.0
 10
279.6217284072114
 20
654.0065514887937
 30
0.0
 10
279.6449134595186
 20
653.7603947360461
 30
0.0
 10
279.655660227702
 20
653.6677483148599
 30
0.0
 10
279.6709552761203
 20
653.5428184591386
 30
0.0
 10
279.6755301239974
 20
653.5103916588894
 30
0.0
 10
279.6755296999384
 20
653.5103916588894
 30
0.0
  0
SPLINE
  5
186
330
1F
100
AcDbEntity
  8
0
  6
Continuous
 62
     7
370
    25
100
AcDbSpline
210
0.0
220
0.0
230
1.0
 70
     8
 71
     3
 72
    25
 73
    21
 74
     0
 42
0.000000001
 43
0.00000001
 40
0.157289839899332
 40
0.157289839899332
 40
0.157289839899332
 40
0.157289839899332
 40
0.1650186264599843
 40
0.1727474130206366
 40
0.1882049861419414
 40
0.239730229879624
 40
0.2938317358041906
 40
0.384000912345135
 40
0.5530681183594056
 40
0.654508441967968
 40
0.7559487655765303
 40
0.8168129597416678
 40
0.8427334466198156
 40
0.8859342580833952
 40
0.9274070370884318
 40
0.9688798160934683
 40
0.9854689276954829
 40
0.9937634834964902
 40
0.9937634834964902
 40
1.0
 40
1.0
 40
1.0
 40
1.0
 10
327.6850297725024
 20
671.4859860454284
 30
0.0
 10
327.7579402197629
 20
671.4885339037602
 30
0.0
 10
327.9037611142836
 20
671.4936296204235
 30
0.0
 10
328.1935032050048
 20
671.5054218332717
 30
0.0
 10
328.8883903946205
 20
671.5382767809872
 30
0.0
 10
329.9875278737034
 20
671.6127794818165
 30
0.0
 10
331.6891688729208
 20
671.7848728508334
 30
0.0
 10
334.2302279339812
 20
672.1683409152058
 30
0.0
 10
336.7219387264304
 20
672.8159673625285
 30
0.0
 10
338.71097017445
 20
673.6710716557823
 30
0.0
 10
339.7761598170857
 20
674.3659217002922
 30
0.0
 10
340.3184272768488
 20
674.9060179003371
 30
0.0
 10
340.6078286495995
 20
675.2939268634457
 30
0.0
 10
340.799531702364
 20
675.6276820609726
 30
0.0
 10
340.9493353286211
 20
675.9987438631539
 30
0.0
 10
341.0196579876198
 20
676.2728862373573
 30
0.0
 10
341.0468535438715
 20
676.442077202554
 30
0.0
 10
341.0539309597741
 20
676.5027517801817
 30
0.0
 10
341.0576065932388
 20
676.5379035061951
 30
0.0
 10
341.0590365520284
 20
676.5528998004228
 30
0.0
 10
341.0603723748309
 20
676.5679093460049
 30
0.0
  0
LINE
  5
187
330
1F
100
AcDbEntity
  8
0
  6
Continuous
 62
     7
370
    25
100
AcDbLine
 10
438.9185018874
 20
621.1318782235
 30
0.0
 11
438.3359343909
 21
624.504584302
 31
0.0
  0
LINE
  5
188
330
1F
100
AcDbEntity
  8
0
  6
Continuous
 62
     7
370
    25
100
AcDbLine
 10
438.9185018874
 20
621.1318782235
 30
0.0
 11
417.2395281208
 21
617.3872692419
 31
0.0
  0
LINE
  5
189
330
1F
100
AcDbEntity
  8
0
  6
Continuous
 62
     7
370
    25
100
AcDbLine
 10
417.2395281208
 20
617.3872692419
 30
0.0
 11
416.6569606243
 21
620.7599753203
 31
0.0
  0
LINE
  5
18A
330
1F
100
AcDbEntity
  8
0
  6
Continuous
 62
     7
370
    25
100
AcDbLine
 10
415.6715527258
 20
620.5897658212
 30
0.0
 11
416.6569606243
 21
620.7599753203
 31
0.0
  0
LINE
  5
18B
330
1F
100
AcDbEntity
  8
0
  6
Continuous
 62
     7
370
    25
100
AcDbLine
 10
438.3359343909
 20
624.504584302
 30
0.0
 11
439.3213422894
 21
624.6747938012
 31
0.0
  0
SPLINE
  5
18C
330
1F
100
AcDbEntity
  8
0
  6
Continuous
 62
     7
370
    25
100
AcDbSpline
210
0.0
220
0.0
230
1.0
 70
    24
 71
     3
 72
    10
 73
     6
 74
     0
 42
0.000000001
 43
0.00000001
 40
0.0
 40
0.0
 40
0.0
 40
0.0
 40
0.5
 40
0.5
 40
1.0
 40
1.0
 40
1.0
 40
1.0
 10
439.016772387599
 20
620.5629527080594
 30
0.0
 10
439.016772387599
 20
620.5629527080594
 30
0.0
 10
439.0077574742252
 20
620.6151434899267
 30
0.0
 10
438.9738772175488
 20
620.8112892555577
 30
0.0
 10
438.9491647423866
 20
620.9543592271813
 30
0.0
 10
438.9185018874369
 20
621.1318782235105
 30
0.0
  0
LINE
  5
18D
330
1F
100
AcDbEntity
  8
0
  6
Continuous
 62
     7
370
    25
100
AcDbLine
 10
439.0167723876
 20
620.5629527081
 30
0.0
 11
417.337798621
 21
616.8183437264
 31
0.0
  0
SPLINE
  5
18E
330
1F
100
AcDbEntity
  8
0
  6
Continuous
 62
     7
370
    25
100
AcDbSpline
210
0.0
220
0.0
230
1.0
 70
    24
 71
     3
 72
    10
 73
     6
 74
     0
 42
0.000000001
 43
0.00000001
 40
0.0
 40
0.0
 40
0.0
 40
0.0
 40
0.5
 40
0.5
 40
1.0
 40
1.0
 40
1.0
 40
1.0
 10
417.3377986209622
 20
616.8183437264067
 30
0.0
 10
417.3377986209622
 20
616.8183437264067
 30
0.0
 10
417.3287837075883
 20
616.870534508274
 30
0.0
 10
417.2949034509119
 20
617.066680273905
 30
0.0
 10
417.2701909757499
 20
617.2097502455287
 30
0.0
 10
417.2395281208
 20
617.3872692418578
 30
0.0
  0
LINE
  5
18F
330
1F
100
AcDbEntity
  8
0
  6
Continuous
 62
     7
370
    25
100
AcDbLine
 10
280.008010174
 20
653.5103916589
 30
0.0
 11
280.008010174
 21
658.1441526336
 31
0.0
  0
SPLINE
  5
190
330
1F
100
AcDbEntity
  8
0
  6
Continuous
 62
     8
370
    18
100
AcDbSpline
210
0.0
220
0.0
230
1.0
 70
     8
 71
     3
 72
    14
 73
    10
 74
     0
 42
0.000000001
 43
0.00000001
 40
0.0
 40
0.0
 40
0.0
 40
0.0
 40
0.5
 40
0.5
 40
0.75
 40
0.75
 40
0.875
 40
0.875
 40
1.0
 40
1.0
 40
1.0
 40
1.0
 10
283.5895099542175
 20
643.1339472202199
 30
0.0
 10
279.031214520977
 20
643.1340849582704
 30
0.0
 10
274.4729140430807
 20
643.1363639756578
 30
0.0
 10
267.6358573756469
 20
643.1671824008458
 30
0.0
 10
265.3568530805491
 20
643.1810300756111
 30
0.0
 10
261.9382617928421
 20
643.1875766555069
 30
0.0
 10
260.7987600763329
 20
643.1870241888112
 30
0.0
 10
258.519864507086
 20
643.1747840754789
 30
0.0
 10
257.380473669966
 20
643.1629541625159
 30
0.0
 10
256.2411335496548
 20
643.1455700226252
 30
0.0
  0
SPLINE
  5
191
330
1F
100
AcDbEntity
  8
0
  6
Continuous
 62
     8
370
    18
100
AcDbSpline
210
0.0
220
0.0
230
1.0
 70
     8
 71
     3
 72
     9
 73
     5
 74
     0
 42
0.000000001
 43
0.00000001
 40
0.0
 40
0.0
 40
0.0
 40
0.0
 40
0.5054647770261694
 40
1.0
 40
1.0
 40
1.0
 40
1.0
 10
256.2411602488333
 20
643.1452094767776
 30
0.0
 10
256.2411188000891
 20
643.1741134386934
 30
0.0
 10
256.2410367988379
 20
643.2312963784938
 30
0.0
 10
256.2413324960019
 20
643.2821204421065
 30
0.0
 10
256.2414787286649
 20
643.3072547317377
 30
0.0
  0
SPLINE
  5
192
330
1F
100
AcDbEntity
  8
0
  6
Continuous
 62
     8
370
    18
100
AcDbSpline
210
0.0
220
0.0
230
1.0
 70
     8
 71
     3
 72
    31
 73
    27
 74
     0
 42
0.000000001
 43
0.00000001
 40
0.0
 40
0.0
 40
0.0
 40
0.0
 40
0.0125537347666332
 40
0.0251100901772405
 40
0.0376649548850766
 40
0.0502181575525265
 40
0.0627758424848489
 40
0.0753348144386645
 40
0.0878891842406703
 40
0.1336676614356037
 40
0.1794461535154199
 40
0.2252236047752446
 40
0.2710493694382259
 40
0.3625957688798341
 40
0.45421243002401
 40
0.5000069034583096
 40
0.5686954160879906
 40
0.6374772803506653
 40
0.6832913040117813
 40
0.7748658122662344
 40
0.8434979295126953
 40
0.9121519490691756
 40
0.9349982466639755
 40
0.9578482849930906
 40
0.9789222452655695
 40
1.0
 40
1.0
 40
1.0
 40
1.0
 10
256.2411517611515
 20
643.3073013307458
 30
0.0
 10
256.3798758384912
 20
643.312322696031
 30
0.0
 10
256.6573529523943
 20
643.3223664748318
 30
0.0
 10
257.0734056433441
 20
643.3375255055158
 30
0.0
 10
257.4891305615536
 20
643.3529031222473
 30
0.0
 10
257.904388566165
 20
643.3686086169723
 30
0.0
 10
258.3190517983488
 20
643.384729025848
 30
0.0
 10
258.7329384374657
 20
643.4013215330579
 30
0.0
 10
259.5099989903169
 20
643.4334878424617
 30
0.0
 10
260.6444526751993
 20
643.4840243909756
 30
0.0
 10
262.118519644965
 20
643.5556452209843
 30
0.0
 10
263.5638241414572
 20
643.6312801479722
 30
0.0
 10
265.4413456542526
 20
643.7370515560849
 30
0.0
 10
267.6817888680966
 20
643.8795491108048
 30
0.0
 10
269.7313635780969
 20
644.0324322303265
 30
0.0
 10
271.4190689586908
 20
644.1731790936437
 30
0.0
 10
272.7959412460258
 20
644.300703629353
 30
0.0
 10
274.0084288484335
 20
644.4272796604417
 30
0.0
 10
275.2041955680571
 20
644.562885691779
 30
0.0
 10
276.1914234720371
 20
644.6861387688122
 30
0.0
 10
276.9963322946302
 20
644.7984449915223
 30
0.0
 10
277.3792280507052
 20
644.8561767200689
 30
0.0
 10
277.564423137953
 20
644.8844892495572
 30
0.0
 10
277.6464420837366
 20
644.8970535208289
 30
0.0
 10
277.7037079247026
 20
644.9058000345912
 30
0.0
 10
277.7216343629658
 20
644.908573968877
 30
0.0
 10
277.7305983889589
 20
644.9099610608736
 30
0.0
  0
SPLINE
  5
193
330
1F
100
AcDbEntity
  8
0
  6
Continuous
 62
     8
370
    18
100
AcDbSpline
210
0.0
220
0.0
230
1.0
 70
     8
 71
     3
 72
     9
 73
     5
 74
     0
 42
0.000000001
 43
0.00000001
 40
0.0
 40
0.0
 40
0.0
 40
0.0
 40
0.4999774969936455
 40
1.0
 40
1.0
 40
1.0
 40
1.0
 10
277.7305950109342
 20
644.9099610625129
 30
0.0
 10
277.7332479580748
 20
644.9103813756151
 30
0.0
 10
277.7385540911638
 20
644.9112220396543
 30
0.0
 10
277.7393006991234
 20
644.9114121247424
 30
0.0
 10
277.739674019904
 20
644.9115071715639
 30
0.0
  0
SPLINE
  5
194
330
1F
100
AcDbEntity
  8
0
  6
Continuous
 62
     8
370
    18
100
AcDbSpline
210
0.0
220
0.0
230
1.0
 70
     8
 71
     3
 72
     8
 73
     4
 74
     0
 42
0.000000001
 43
0.00000001
 40
0.0
 40
0.0
 40
0.0
 40
0.0
 40
1.0
 40
1.0
 40
1.0
 40
1.0
 10
283.5894973244232
 20
644.911286109601
 30
0.0
 10
283.5895753246356
 20
644.9108096081861
 30
0.0
 10
283.5895783851063
 20
644.3165269675142
 30
0.0
 10
283.5895106058016
 20
643.1341054088948
 30
0.0
  0
SPLINE
  5
195
330
1F
100
AcDbEntity
  8
0
  6
Continuous
 62
     8
370
    18
100
AcDbSpline
210
0.0
220
0.0
230
1.0
 70
     8
 71
     3
 72
    32
 73
    28
 74
     0
 42
0.000000001
 43
0.00000001
 40
0.0
 40
0.0
 40
0.0
 40
0.0
 40
0.2500000000000006
 40
0.2500000000000006
 40
0.312500000000001
 40
0.312500000000001
 40
0.3750000000000014
 40
0.3750000000000014
 40
0.4375000000000018
 40
0.4375000000000018
 40
0.5000000000000022
 40
0.5000000000000022
 40
0.5625000000000026
 40
0.5625000000000026
 40
0.5937500000000022
 40
0.5937500000000022
 40
0.6250000000000019
 40
0.6250000000000019
 40
0.7499999999999994
 40
0.7499999999999994
 40
0.8124999999999996
 40
0.8124999999999996
 40
0.8749999999999997
 40
0.8749999999999997
 40
0.9374999999999999
 40
0.9374999999999999
 40
1.0
 40
1.0
 40
1.0
 40
1.0
 10
256.2411602877517
 20
643.1451506835498
 30
0.0
 10
254.686145259839
 20
643.122286761864
 30
0.0
 10
253.1317515462578
 20
643.0900965575295
 30
0.0
 10
251.1878748748807
 20
643.0631667752457
 30
0.0
 10
250.7990175345261
 20
643.0588811896763
 30
0.0
 10
250.0213074339121
 20
643.0501415370404
 30
0.0
 10
249.6324424656639
 20
643.0458510717516
 30
0.0
 10
248.8556792402698
 20
643.0246587901796
 30
0.0
 10
248.4678156239806
 20
643.0073035200368
 30
0.0
 10
247.6943500546617
 20
642.9432592609148
 30
0.0
 10
247.3087760324561
 20
642.8962906349203
 30
0.0
 10
246.5406738376622
 20
642.762546900463
 30
0.0
 10
246.158114643112
 20
642.6760938167808
 30
0.0
 10
245.5870771455594
 20
642.5092420153553
 30
0.0
 10
245.3972001414839
 20
642.4474034044732
 30
0.0
 10
245.0184723345783
 20
642.3100446658751
 30
0.0
 10
244.8298182320168
 20
642.2344978993644
 30
0.0
 10
243.9095365671117
 20
641.8297010372952
 30
0.0
 10
243.2298846249431
 20
641.4139236143099
 30
0.0
 10
242.2854330238791
 20
640.6647816371
 30
0.0
 10
241.9827345035923
 20
640.3925679150656
 30
0.0
 10
241.4179216065662
 20
639.8209346181192
 30
0.0
 10
241.1535369778495
 20
639.5200777510565
 30
0.0
 10
240.6611647005951
 20
638.8879644725857
 30
0.0
 10
240.4331461831802
 20
638.5567846693068
 30
0.0
 10
240.0171166847855
 20
637.8612561890176
 30
0.0
 10
239.831082090468
 20
637.4987848399046
 30
0.0
 10
239.6688193428606
 20
637.1258763519858
 30
0.0
  0
SPLINE
  5
196
330
1F
100
AcDbEntity
  8
0
  6
Continuous
 62
     8
370
    18
100
AcDbSpline
210
0.0
220
0.0
230
1.0
 70
     8
 71
     3
 72
    22
 73
    18
 74
     0
 42
0.000000001
 43
0.00000001
 40
0.0
 40
0.0
 40
0.0
 40
0.0
 40
0.1249999999999989
 40
0.1249999999999989
 40
0.2499999999999979
 40
0.2499999999999979
 40
0.3124999999999976
 40
0.3124999999999976
 40
0.3749999999999973
 40
0.3749999999999973
 40
0.4999999999999978
 40
0.4999999999999978
 40
0.6249999999999982
 40
0.6249999999999982
 40
0.7499999999999988
 40
0.7499999999999988
 40
1.0
 40
1.0
 40
1.0
 40
1.0
 10
240.8887403135425
 20
636.556452369214
 30
0.0
 10
241.2018226273759
 20
637.2245966478179
 30
0.0
 10
241.6003340665564
 20
637.8327162180681
 30
0.0
 10
242.5528283833642
 20
638.9397172618268
 30
0.0
 10
243.1104998727306
 20
639.4406708168343
 30
0.0
 10
244.0103560215631
 20
640.0637095370904
 30
0.0
 10
244.3217711852037
 20
640.2514058650248
 30
0.0
 10
244.9685048248546
 20
640.5851285883292
 30
0.0
 10
245.3052278349563
 20
640.7312875506146
 30
0.0
 10
246.3450357795534
 20
641.1017716000073
 30
0.0
 10
247.0458925083963
 20
641.2478087227346
 30
0.0
 10
248.4571025342377
 20
641.4145777616851
 30
0.0
 10
249.1676385521253
 20
641.4328979236623
 30
0.0
 10
250.5898625723375
 20
641.4543396716177
 30
0.0
 10
251.301332902904
 20
641.4603349044121
 30
0.0
 10
253.4344788743732
 20
641.4950209662134
 30
0.0
 10
254.8559438142105
 20
641.5277591327578
 30
0.0
 10
256.2776964714512
 20
641.5529142597969
 30
0.0
  0
LINE
  5
197
330
1F
100
AcDbEntity
  8
0
  6
Continuous
 62
     8
370
    18
100
AcDbLine
 10
240.1102817888
 20
347.1603916589
 30
0.0
 11
240.1102817888
 21
542.9103916589
 31
0.0
  0
SPLINE
  5
198
330
1F
100
AcDbEntity
  8
0
  6
Continuous
 62
     8
370
    18
100
AcDbSpline
210
0.0
220
0.0
230
1.0
 70
     8
 71
     3
 72
    54
 73
    50
 74
     0
 42
0.000000001
 43
0.00000001
 40
0.0
 40
0.0
 40
0.0
 40
0.0
 40
0.1249999999999996
 40
0.1249999999999996
 40
0.2499999999999992
 40
0.2499999999999992
 40
0.4999999999999983
 40
0.4999999999999983
 40
0.7499999999999976
 40
0.7499999999999976
 40
0.7812499999999972
 40
0.7812499999999972
 40
0.8124999999999969
 40
0.8124999999999969
 40
0.8281249999999969
 40
0.8281249999999969
 40
0.843749999999997
 40
0.843749999999997
 40
0.859374999999997
 40
0.859374999999997
 40
0.8671874999999972
 40
0.8671874999999972
 40
0.8749999999999974
 40
0.8749999999999974
 40
0.8828124999999977
 40
0.8828124999999977
 40
0.8867187499999977
 40
0.8867187499999977
 40
0.8906249999999978
 40
0.8906249999999978
 40
0.898437499999998
 40
0.898437499999998
 40
0.9023437499999981
 40
0.9023437499999981
 40
0.9062499999999982
 40
0.9062499999999982
 40
0.9140624999999983
 40
0.9140624999999983
 40
0.9218749999999984
 40
0.9218749999999984
 40
0.9374999999999988
 40
0.9374999999999988
 40
0.953124999999999
 40
0.953124999999999
 40
0.9687499999999993
 40
0.9687499999999993
 40
0.9843749999999996
 40
0.9843749999999996
 40
1.0
 40
1.0
 40
1.0
 40
1.0
 10
283.5978739033774
 20
641.5147339055131
 30
0.0
 10
291.4275193069603
 20
641.5088221209701
 30
0.0
 10
299.2571324851993
 20
641.504528176259
 30
0.0
 10
314.9163084280722
 20
641.5027919732538
 30
0.0
 10
322.7458699933546
 20
641.5050519663383
 30
0.0
 10
346.2343854920683
 20
641.5059271611129
 30
0.0
 10
361.8932299694525
 20
641.5043754050897
 30
0.0
 10
393.2104323521098
 20
641.5040497382964
 30
0.0
 10
408.868786949702
 20
641.5046022975372
 30
0.0
 10
426.4841394155961
 20
641.5039762417314
 30
0.0
 10
428.4413882133193
 20
641.5039420484235
 30
0.0
 10
432.3558706363672
 20
641.5021922508822
 30
0.0
 10
434.3131080596559
 20
641.5017505198184
 30
0.0
 10
437.24890115549
 20
641.4907871214918
 30
0.0
 10
438.2275049691242
 20
641.4862628758401
 30
0.0
 10
440.18456282477
 20
641.469660837653
 30
0.0
 10
441.163038780713
 20
641.4550942579801
 30
0.0
 10
443.1190534040673
 20
641.4081757973194
 30
0.0
 10
444.0979211413705
 20
641.3802213759972
 30
0.0
 10
445.5418213587671
 20
641.3243763237687
 30
0.0
 10
446.0195617161485
 20
641.3029897277851
 30
0.0
 10
446.9653849613049
 20
641.2542092775196
 30
0.0
 10
447.4362546290396
 20
641.2266972903188
 30
0.0
 10
448.3513054565469
 20
641.1661488203302
 30
0.0
 10
448.7918244234212
 20
641.1331578025774
 30
0.0
 10
449.4222590939642
 20
641.0819924803781
 30
0.0
 10
449.6273579829254
 20
641.0647071004438
 30
0.0
 10
450.0266600456376
 20
641.0302206546469
 30
0.0
 10
450.2211404786344
 20
641.012989655417
 30
0.0
 10
450.7745345840502
 20
640.9632819000028
 30
0.0
 10
451.1080273120554
 20
640.9322297042046
 30
0.0
 10
451.555769757847
 20
640.8920765271271
 30
0.0
 10
451.6962429240703
 20
640.8797882204525
 30
0.0
 10
451.9596136237081
 20
640.8580827284527
 30
0.0
 10
452.0824221481142
 20
640.8487085343284
 30
0.0
 10
452.4182031643704
 20
640.8262417007471
 30
0.0
 10
452.6014844390862
 20
640.8187724590636
 30
0.0
 10
452.9021241088538
 20
640.8160783644289
 30
0.0
 10
453.0190084351906
 20
640.8206033668644
 30
0.0
 10
453.292743514895
 20
640.843418196134
 30
0.0
 10
453.3813555381978
 20
640.8731502810525
 30
0.0
 10
453.4996308337713
 20
640.9295524211341
 30
0.0
 10
453.5287011821842
 20
640.9539932231309
 30
0.0
 10
453.5815961220832
 20
640.9887054689201
 30
0.0
 10
453.6039468080591
 20
641.0007086989384
 30
0.0
 10
453.6376406847739
 20
641.0218300091012
 30
0.0
 10
453.6467401052247
 20
641.0291106788801
 30
0.0
 10
453.6582641887759
 20
641.0387915397775
 30
0.0
 10
453.6622774477653
 20
641.0431181990065
 30
0.0
 10
453.6634394062025
 20
641.0436424749422
 30
0.0
  0
SPLINE
  5
199
330
1F
100
AcDbEntity
  8
0
  6
Continuous
 62
     8
370
    18
100
AcDbSpline
210
0.0
220
0.0
230
1.0
 70
     8
 71
     3
 72
    14
 73
    10
 74
     0
 42
0.000000001
 43
0.00000001
 40
0.0
 40
0.0
 40
0.0
 40
0.0
 40
0.25
 40
0.25
 40
0.5
 40
0.5
 40
0.75
 40
0.75
 40
1.0
 40
1.0
 40
1.0
 40
1.0
 10
283.5978737405042
 20
641.514733905636
 30
0.0
 10
283.5978967120204
 20
641.706313868371
 30
0.0
 10
283.5977026934385
 20
641.898695883919
 30
0.0
 10
283.5969085300673
 20
642.2606971426887
 30
0.0
 10
283.5963086188651
 20
642.4302164278131
 30
0.0
 10
283.594782401359
 20
642.7248211912133
 30
0.0
 10
283.5938565307827
 20
642.8498253212587
 30
0.0
 10
283.591799815681
 20
643.0394041916916
 30
0.0
 10
283.5906695533693
 20
643.1039265842068
 30
0.0
 10
283.5895106052486
 20
643.1340957625794
 30
0.0
  0
SPLINE
  5
19A
330
1F
100
AcDbEntity
  8
0
  6
Continuous
 62
     8
370
    18
100
AcDbSpline
210
0.0
220
0.0
230
1.0
 70
     8
 71
     3
 72
    12
 73
     8
 74
     0
 42
0.000000001
 43
0.00000001
 40
0.0
 40
0.0
 40
0.0
 40
0.0
 40
0.0000042174783265
 40
0.4137426526059353
 40
0.7414723377163492
 40
0.9068941473727373
 40
0.9999999999999999
 40
0.9999999999999999
 40
0.9999999999999999
 40
0.9999999999999999
 10
452.5806456992759
 20
643.4140467710328
 30
0.0
 10
452.5806457202045
 20
643.4140467656906
 30
0.0
 10
452.5826988515998
 20
643.4135226970143
 30
0.0
 10
452.5614716497801
 20
643.3884346880551
 30
0.0
 10
452.3643783524794
 20
643.3062415977587
 30
0.0
 10
452.2533225230239
 20
643.2261019045097
 30
0.0
 10
451.9944814655171
 20
643.1960857779335
 30
0.0
 10
451.9012627470974
 20
643.185275804901
 30
0.0
  0
LWPOLYLINE
  5
19B
330
1F
100
AcDbEntity
  8
0
  6
Continuous
 62
     8
370
    18
100
AcDbPolyline
 90
        9
 70
   128
 43
0.0
 10
264.213642948
 20
647.8103349364
 10
264.2119164896
 20
647.7518158846
 10
264.2068100617
 20
647.6955473268
 10
264.1985198546
 20
647.6436911133
 10
264.1873643798
 20
647.5982395711
 10
264.173772233
 20
647.5609389583
 10
264.1582656275
 20
647.5332223728
 10
264.1414403305
 20
647.5161546916
 10
264.1239427735
 20
647.5103916589
  0
ARC
  5
19C
330
1F
100
AcDbEntity
  8
0
  6
Continuous
 62
     8
370
    18
100
AcDbCircle
 10
250.6137843017
 20
650.4392785702
 30
0.0
 40
1.441281296267248
100
AcDbArc
 50
330.376937936
 51
342.5693442999
  0
SPLINE
  5
19D
330
1F
100
AcDbEntity
  8
0
  6
Continuous
 62
     8
370
    18
100
AcDbSpline
210
0.0
220
0.0
230
1.0
 70
     8
 71
     3
 72
    10
 73
     6
 74
     0
 42
0.000000001
 43
0.00000001
 40
0.0
 40
0.0
 40
0.0
 40
0.0
 40
0.5
 40
0.5
 40
1.0
 40
1.0
 40
1.0
 40
1.0
 10
240.9371405704229
 20
654.1339709819629
 30
0.0
 10
240.9096120852878
 20
654.0603413386929
 30
0.0
 10
240.8821021804951
 20
653.9871764142291
 30
0.0
 10
240.8426770508816
 20
653.883152544639
 30
0.0
 10
240.8310054260762
 20
653.852936342263
 30
0.0
 10
240.8306750349191
 20
653.8530598704547
 30
0.0
  0
SPLINE
  5
19E
330
1F
100
AcDbEntity
  8
0
  6
Continuous
 62
     8
370
    18
100
AcDbSpline
210
0.0
220
0.0
230
1.0
 70
     8
 71
     3
 72
    10
 73
     6
 74
     0
 42
0.000000001
 43
0.00000001
 40
0.0
 40
0.0
 40
0.0
 40
0.0
 40
0.5
 40
0.5
 40
1.0
 40
1.0
 40
1.0
 40
1.0
 10
239.6729001381525
 20
654.5181199541456
 30
0.0
 10
239.6638856125668
 20
654.4551756697103
 30
0.0
 10
239.6718373417666
 20
654.3924098794015
 30
0.0
 10
239.7185496943238
 20
654.2918910801475
 30
0.0
 10
239.7571773453558
 20
654.2544242100448
 30
0.0
 10
239.8034895725494
 20
654.2371087778242
 30
0.0
  0
SPLINE
  5
19F
330
1F
100
AcDbEntity
  8
0
  6
Continuous
 62
     8
370
    18
100
AcDbSpline
210
0.0
220
0.0
230
1.0
 70
     8
 71
     3
 72
    12
 73
     8
 74
     0
 42
0.000000001
 43
0.00000001
 40
0.0
 40
0.0
 40
0.0
 40
0.0
 40
0.4999999999999996
 40
0.4999999999999996
 40
0.7499999999999998
 40
0.7499999999999998
 40
1.0
 40
1.0
 40
1.0
 40
1.0
 10
240.1109075448842
 20
578.4666474992464
 30
0.0
 10
240.1086651733253
 20
587.4160357559872
 30
0.0
 10
240.1101886094764
 20
596.365424688582
 30
0.0
 10
240.111440508562
 20
609.7895078847673
 30
0.0
 10
240.1115651888132
 20
614.2642022848007
 30
0.0
 10
240.1109710028534
 20
623.2135911030826
 30
0.0
 10
240.1088192586217
 20
627.6882855277686
 30
0.0
 10
240.1101486264502
 20
632.1629799532209
 30
0.0
  0
SPLINE
  5
1A0
330
1F
100
AcDbEntity
  8
0
  6
Continuous
 62
     8
370
    18
100
AcDbSpline
210
0.0
220
0.0
230
1.0
 70
     8
 71
     3
 72
    14
 73
    10
 74
     0
 42
0.000000001
 43
0.00000001
 40
0.0
 40
0.0
 40
0.0
 40
0.0
 40
0.25
 40
0.25
 40
0.5
 40
0.5
 40
0.75
 40
0.75
 40
1.0
 40
1.0
 40
1.0
 40
1.0
 10
240.1099762423732
 20
632.1629815199199
 30
0.0
 10
240.1134029255069
 20
632.5400081875706
 30
0.0
 10
240.1159943570508
 20
632.9170662502215
 30
0.0
 10
240.1485690153984
 20
633.6701527466287
 30
0.0
 10
240.1805874275722
 20
634.0477509065488
 30
0.0
 10
240.2936573244605
 20
634.7887635720109
 30
0.0
 10
240.3748566537801
 20
635.1525719535017
 30
0.0
 10
240.5930134323209
 20
635.865046824585
 30
0.0
 10
240.728318106686
 20
636.2141621437042
 30
0.0
 10
240.8887196840716
 20
636.5564620359678
 30
0.0
  0
SPLINE
  5
1A1
330
1F
100
AcDbEntity
  8
0
  6
Continuous
 62
     8
370
    18
100
AcDbSpline
210
0.0
220
0.0
230
1.0
 70
     8
 71
     3
 72
    14
 73
    10
 74
     0
 42
0.000000001
 43
0.00000001
 40
0.0
 40
0.0
 40
0.0
 40
0.0
 40
0.1249999999999999
 40
0.1249999999999999
 40
0.2499999999999999
 40
0.2499999999999999
 40
0.4999999999999999
 40
0.4999999999999999
 40
1.0
 40
1.0
 40
1.0
 40
1.0
 10
256.2776909480993
 20
641.5532270987634
 30
0.0
 10
257.4159145990828
 20
641.5741278731626
 30
0.0
 10
258.5541702626055
 20
641.5889610416141
 30
0.0
 10
260.8307603541306
 20
641.6035783815399
 30
0.0
 10
261.9690932759679
 20
641.6036458796284
 30
0.0
 10
265.3841501219777
 20
641.5925062627808
 30
0.0
 10
267.6608463954374
 20
641.5720869811028
 30
0.0
 10
274.4909244132052
 20
641.5265356208723
 30
0.0
 10
279.0444097039002
 20
641.5189148250001
 30
0.0
 10
283.5978737431982
 20
641.5145576533679
 30
0.0
  0
SPLINE
  5
1A2
330
1F
100
AcDbEntity
  8
0
  6
Continuous
 62
     8
370
    18
100
AcDbSpline
210
0.0
220
0.0
230
1.0
 70
     8
 71
     3
 72
    16
 73
    12
 74
     0
 42
0.000000001
 43
0.00000001
 40
0.0
 40
0.0
 40
0.0
 40
0.0
 40
0.499999999999996
 40
0.499999999999996
 40
0.749999999999998
 40
0.749999999999998
 40
0.8750000000000031
 40
0.8750000000000031
 40
0.9375000000000016
 40
0.9375000000000016
 40
1.0
 40
1.0
 40
1.0
 40
1.0
 10
239.6687630399271
 20
637.1258934770992
 30
0.0
 10
239.3289820810895
 20
636.3461382663506
 30
0.0
 10
239.0979273313612
 20
635.538947072531
 30
0.0
 10
238.9157877671305
 20
634.2866471537234
 30
0.0
 10
238.8810075956086
 20
633.8616313105352
 30
0.0
 10
238.8568676624841
 20
633.2253491216479
 30
0.0
 10
238.8530801396531
 20
633.0131332644595
 30
0.0
 10
238.8504708295664
 20
632.6947219975134
 30
0.0
 10
238.8501114163404
 20
632.5885703401598
 30
0.0
 10
238.8498396515262
 20
632.3762539384687
 30
0.0
 10
238.8499275168323
 20
632.2688680679569
 30
0.0
 10
238.8499442095511
 20
632.1639267062344
 30
0.0
  0
SPLINE
  5
1A3
330
1F
100
AcDbEntity
  8
0
  6
Continuous
 62
     8
370
    18
100
AcDbSpline
210
0.0
220
0.0
230
1.0
 70
     8
 71
     3
 72
    10
 73
     6
 74
     0
 42
0.000000001
 43
0.00000001
 40
0.0
 40
0.0
 40
0.0
 40
0.0
 40
0.5
 40
0.5
 40
1.0
 40
1.0
 40
1.0
 40
1.0
 10
240.1109075476486
 20
578.4666364665677
 30
0.0
 10
239.8695850853409
 20
578.4666239425959
 30
0.0
 10
239.628338462142
 20
578.4666260232555
 30
0.0
 10
239.1939178900635
 20
578.466645951682
 30
0.0
 10
239.0010444945418
 20
578.4666636948841
 30
0.0
 10
238.8516640959201
 20
578.4666809426618
 30
0.0
  0
SPLINE
  5
1A4
330
1F
100
AcDbEntity
  8
0
  6
Continuous
 62
     8
370
    18
100
AcDbSpline
210
0.0
220
0.0
230
1.0
 70
     8
 71
     3
 72
    23
 73
    19
 74
     0
 42
0.000000001
 43
0.00000001
 40
0.0
 40
0.0
 40
0.0
 40
0.0
 40
0.0053528564019958
 40
0.0053528564019958
 40
0.0053528564019958
 40
0.0267613236956381
 40
0.0267613236956381
 40
0.0267613236956381
 40
0.037465487505717
 40
0.037465487505717
 40
0.037465487505717
 40
0.0455811581494781
 40
0.0455811581494781
 40
0.0455811581494781
 40
0.0496389956023291
 40
0.0496389956023291
 40
0.0496389956023291
 40
0.0536972383924155
 40
0.0536972383924155
 40
0.0536972383924155
 40
0.0536972383924155
 10
238.8497317815891
 20
632.1639194598785
 30
0.0
 10
238.8482920809151
 20
630.3796346552284
 30
0.0
 10
238.8487231711603
 20
628.5953486333974
 30
0.0
 10
238.8487798730864
 20
626.811063166978
 30
0.0
 10
238.8490066494582
 20
619.6749072651422
 30
0.0
 10
238.8508323469725
 20
612.5387515158833
 30
0.0
 10
238.8517455100799
 20
605.4025956910534
 30
0.0
 10
238.8522020886546
 20
601.8345410582858
 30
0.0
 10
238.8525339656821
 20
598.2664864046203
 30
0.0
 10
238.8528036713962
 20
594.698431748049
 30
0.0
 10
238.8530081565649
 20
591.9932081637164
 30
0.0
 10
238.8531542480884
 20
589.2879845553293
 30
0.0
 10
238.8530660123865
 20
586.5827609632012
 30
0.0
 10
238.8530218945125
 20
585.2301484612435
 30
0.0
 10
238.8528459439147
 20
583.8775359698627
 30
0.0
 10
238.8526091501455
 20
582.5249235183558
 30
0.0
 10
238.8523723327228
 20
581.1721759535205
 30
0.0
 10
238.8519751316244
 20
579.8194284710808
 30
0.0
 10
238.8516640959197
 20
578.4666809407173
 30
0.0
  0
SPLINE
  5
1A5
330
1F
100
AcDbEntity
  8
0
  6
Continuous
 62
     8
370
    18
100
AcDbSpline
210
0.0
220
0.0
230
1.0
 70
     8
 71
     3
 72
    20
 73
    16
 74
     0
 42
0.000000001
 43
0.00000001
 40
0.0
 40
0.0
 40
0.0
 40
0.0
 40
0.0639572731196472
 40
0.1254719613805888
 40
0.1879473032080992
 40
0.245985158735045
 40
0.3684131929322846
 40
0.492601438226114
 40
0.6173968684144023
 40
0.6804283622391506
 40
0.7421129903348493
 40
0.803953576483583
 40
0.8680637991580644
 40
0.9329348342807074
 40
1.0
 40
1.0
 40
1.0
 40
1.0
 10
250.6469183571768
 20
676.4267519319371
 30
0.0
 10
250.3086532396962
 20
676.4244197055001
 30
0.0
 10
249.6450416489155
 20
676.4198443224175
 30
0.0
 10
248.651643915837
 20
676.3674074017301
 30
0.0
 10
247.6969847524014
 20
676.2291148002643
 30
0.0
 10
246.4515148201013
 20
675.9023104997497
 30
0.0
 10
244.9863981066924
 20
675.1880094681889
 30
0.0
 10
243.4525543781957
 20
673.9372902066891
 30
0.0
 10
242.4177408423384
 20
672.6336328786924
 30
0.0
 10
241.7774159883216
 20
671.4768690697211
 30
0.0
 10
241.4058770394398
 20
670.5599932700466
 30
0.0
 10
241.1477262800423
 20
669.599390152776
 30
0.0
 10
240.9974501289937
 20
668.5993092685176
 30
0.0
 10
240.9441504264432
 20
667.5628784106849
 30
0.0
 10
240.9390532666629
 20
666.8650898447346
 30
0.0
 10
240.9364623032792
 20
666.5103933663318
 30
0.0
  0
LWPOLYLINE
  5
1A6
330
1F
100
AcDbEntity
  8
0
  6
Continuous
 62
     8
370
    18
100
AcDbPolyline
 90
        3
 70
   128
 43
0.0
 10
251.3660725596
 20
676.4332012183
 10
251.0064928074
 20
676.4310522456
 10
250.6469053155
 20
676.4289188454
  0
LINE
  5
1A7
330
1F
100
AcDbEntity
  8
0
  6
Continuous
 62
     8
370
    18
100
AcDbLine
 10
251.3855181516
 20
676.4333157231
 30
0.0
 11
251.3660725596
 21
676.4332012183
 31
0.0
  0
SPLINE
  5
1A8
330
1F
100
AcDbEntity
  8
0
  6
Continuous
 62
     8
370
    18
100
AcDbSpline
210
0.0
220
0.0
230
1.0
 70
     8
 71
     3
 72
    15
 73
    11
 74
     0
 42
0.000000001
 43
0.00000001
 40
0.0
 40
0.0
 40
0.0
 40
0.0
 40
0.1671592841549225
 40
0.3338538291254952
 40
0.5000823084869757
 40
0.7501398401927437
 40
0.8502588840984637
 40
0.9254618127262094
 40
0.9669753030697904
 40
1.0
 40
1.0
 40
1.0
 40
1.0
 10
273.8104291774775
 20
676.346996820845
 30
0.0
 10
272.5609789432154
 20
676.3566450315144
 30
0.0
 10
270.0655522182268
 20
676.3759146287281
 30
0.0
 10
266.3275168053931
 20
676.3973240741441
 30
0.0
 10
261.9697506567961
 20
676.415663282451
 30
0.0
 10
258.1095649812464
 20
676.4240322059677
 30
0.0
 10
254.9297836666604
 20
676.4281550639865
 30
0.0
 10
253.3089107257939
 20
676.4334173690983
 30
0.0
 10
252.1895675099034
 20
676.4363089204926
 30
0.0
 10
251.632382890135
 20
676.4342395979521
 30
0.0
 10
251.3855181101473
 20
676.4333227692466
 30
0.0
  0
SPLINE
  5
1A9
330
1F
100
AcDbEntity
  8
0
  6
Continuous
 62
     8
370
    18
100
AcDbSpline
210
0.0
220
0.0
230
1.0
 70
     8
 71
     3
 72
    12
 73
     8
 74
     0
 42
0.000000001
 43
0.00000001
 40
0.0
 40
0.0
 40
0.0
 40
0.0
 40
0.0746852050552383
 40
0.2170259455030689
 40
0.4270125137572436
 40
0.7462052859285734
 40
1.0
 40
1.0
 40
1.0
 40
1.0
 10
240.936717179334
 20
666.5103916588886
 30
0.0
 10
240.9357579746228
 20
666.2022810851744
 30
0.0
 10
240.9329706446663
 20
665.306949961288
 30
0.0
 10
240.9335604966465
 20
663.5453181265157
 30
0.0
 10
240.9345585435622
 20
660.774980659079
 30
0.0
 10
240.9363175842361
 20
657.5448411016515
 30
0.0
 10
240.9369238007349
 20
655.1809959830331
 30
0.0
 10
240.9371923136548
 20
654.1339724259867
 30
0.0
  0
SPLINE
  5
1AA
330
1F
100
AcDbEntity
  8
0
  6
Continuous
 62
     8
370
    18
100
AcDbSpline
210
0.0
220
0.0
230
1.0
 70
     8
 71
     3
 72
    10
 73
     6
 74
     0
 42
0.000000001
 43
0.00000001
 40
0.0
 40
0.0
 40
0.0
 40
0.0
 40
0.5
 40
0.5
 40
1.0
 40
1.0
 40
1.0
 40
1.0
 10
251.0392434278675
 20
650.3617056019808
 30
0.0
 10
251.0115139429147
 20
650.2873694338386
 30
0.0
 10
250.9823400259502
 20
650.2135449562313
 30
0.0
 10
250.9378880482329
 20
650.109393048019
 30
0.0
 10
250.9228950131933
 20
650.0797334385876
 30
0.0
 10
250.9194479266745
 20
650.0810222514257
 30
0.0
  0
SPLINE
  5
1AB
330
1F
100
AcDbEntity
  8
0
  6
Continuous
 62
     8
370
    18
100
AcDbSpline
210
0.0
220
0.0
230
1.0
 70
     8
 71
     3
 72
    22
 73
    18
 74
     0
 42
0.000000001
 43
0.00000001
 40
0.0
 40
0.0
 40
0.0
 40
0.0
 40
0.122873684423126
 40
0.1868444796776039
 40
0.2497648137606425
 40
0.3051492535465388
 40
0.3769125111843799
 40
0.4444623155219948
 40
0.5032807597435595
 40
0.6385080372137906
 40
0.7574348644716351
 40
0.7890911115352846
 40
0.8207100437487139
 40
0.8456937917313918
 40
0.8820250887595771
 40
0.9419719353815543
 40
1.0
 40
1.0
 40
1.0
 40
1.0
 10
239.6788428751675
 20
666.5082186780122
 30
0.0
 10
239.6848263418742
 20
667.2465345137482
 30
0.0
 10
239.6939249355132
 20
668.3692341285068
 30
0.0
 10
239.9077573725282
 20
669.8557768799507
 30
0.0
 10
240.1816947599843
 20
670.9168894692687
 30
0.0
 10
240.5864608719817
 20
671.9848851235197
 30
0.0
 10
241.1301618798388
 20
673.0222581366545
 30
0.0
 10
241.8068848045446
 20
674.002252883109
 30
0.0
 10
242.8323587344645
 20
675.1915638536343
 30
0.0
 10
244.2865754902987
 20
676.4056829616627
 30
0.0
 10
245.8311883898595
 20
677.1792191432099
 30
0.0
 10
246.8694229847559
 20
677.5114573056746
 30
0.0
 10
247.3818823123039
 20
677.6390332583187
 30
0.0
 10
247.9281967494135
 20
677.7435226588433
 30
0.0
 10
248.6478540152881
 20
677.8418849695142
 30
0.0
 10
249.5716713499315
 20
677.8981796910824
 30
0.0
 10
250.2795103057335
 20
677.9046433316532
 30
0.0
 10
250.6276735231063
 20
677.9078225885713
 30
0.0
  0
SPLINE
  5
1AC
330
1F
100
AcDbEntity
  8
0
  6
Continuous
 62
     8
370
    18
100
AcDbSpline
210
0.0
220
0.0
230
1.0
 70
     8
 71
     3
 72
    16
 73
    12
 74
     0
 42
0.000000001
 43
0.00000001
 40
0.0
 40
0.0
 40
0.0
 40
0.0
 40
0.2499999999999983
 40
0.2499999999999983
 40
0.4999999999999966
 40
0.4999999999999966
 40
0.7499999999999949
 40
0.7499999999999949
 40
0.8749999999999974
 40
0.8749999999999974
 40
1.0
 40
1.0
 40
1.0
 40
1.0
 10
239.6729227846189
 20
654.518119884043
 30
0.0
 10
239.6732035021022
 20
655.5158600773796
 30
0.0
 10
239.6734690268706
 20
656.5178693972291
 30
0.0
 10
239.6738889849528
 20
658.5251116030148
 30
0.0
 10
239.6740349230992
 20
659.5283288436638
 30
0.0
 10
239.6740350506435
 20
661.5105683257884
 30
0.0
 10
239.6738384746031
 20
662.4866785171257
 30
0.0
 10
239.6741378147729
 20
663.9825790746797
 30
0.0
 10
239.6743330908507
 20
664.4866225976442
 30
0.0
 10
239.6751264054034
 20
665.5138608616177
 30
0.0
 10
239.675539586251
 20
666.0416744538142
 30
0.0
 10
239.6789891497428
 20
666.5191828202859
 30
0.0
  0
LWPOLYLINE
  5
1AD
330
1F
100
AcDbEntity
  8
0
  6
Continuous
 62
     8
370
    18
100
AcDbPolyline
 90
        4
 70
   128
 43
0.0
 10
240.1108817126
 20
542.9103960357
 10
240.1110073098
 20
560.6885162607
 10
240.1110164969
 20
562.7741944739
 10
240.1110018968
 20
578.4666364893
  0
SPLINE
  5
1AE
330
1F
100
AcDbEntity
  8
0
  6
Continuous
 62
     8
370
    18
100
AcDbSpline
210
0.0
220
0.0
230
1.0
 70
     8
 71
     3
 72
    10
 73
     6
 74
     0
 42
0.000000001
 43
0.00000001
 40
0.0
 40
0.0
 40
0.0
 40
0.0
 40
0.5
 40
0.5
 40
1.0
 40
1.0
 40
1.0
 40
1.0
 10
240.1102816257774
 20
542.9103916607824
 30
0.0
 10
239.8687118810645
 20
542.9103907591159
 30
0.0
 10
239.6271706639555
 20
542.9103914638861
 30
0.0
 10
239.1922203996663
 20
542.910392626275
 30
0.0
 10
238.9991135032139
 20
542.9103930599127
 30
0.0
 10
238.8495923419088
 20
542.9103916429642
 30
0.0
  0
LWPOLYLINE
  5
1AF
330
1F
100
AcDbEntity
  8
0
  6
Continuous
 62
     8
370
    18
100
AcDbPolyline
 90
        3
 70
   128
 43
0.0
 10
238.8515888782
 20
578.4666809844
 10
238.8506981675
 20
559.5742515775
 10
238.8495923419
 20
542.9103916633
  0
LINE
  5
1B0
330
1F
100
AcDbEntity
  8
0
  6
Continuous
 62
     8
370
    18
100
AcDbLine
 10
240.1102817888
 20
347.1603916589
 30
0.0
 11
238.8492705961
 21
347.1603916589
 31
0.0
  0
LINE
  5
1B1
330
1F
100
AcDbEntity
  8
0
  6
Continuous
 62
     8
370
    18
100
AcDbLine
 10
238.8492705961
 20
542.9103916589
 30
0.0
 11
238.8492705961
 21
347.1603916589
 31
0.0
  0
ARC
  5
1B2
330
1F
100
AcDbEntity
  8
0
  6
Continuous
 62
     8
370
    18
100
AcDbCircle
 10
239.0761079958
 20
347.1364422635
 30
0.0
 40
0.2280981794104906
100
AcDbArc
 50
173.9730641636
 51
262.3171558532
  0
LWPOLYLINE
  5
1B3
330
1F
100
AcDbEntity
  8
0
  6
Continuous
 62
     8
370
    18
100
AcDbPolyline
 90
        3
 70
   128
 43
0.0
 10
250.6276469287
 20
677.9101940986
 10
250.9871406911
 20
677.9127410148
 10
251.346634455
 20
677.9152877923
  0
SPLINE
  5
1B4
330
1F
100
AcDbEntity
  8
0
  6
Continuous
 62
     8
370
    18
100
AcDbSpline
210
0.0
220
0.0
230
1.0
 70
     8
 71
     3
 72
    16
 73
    12
 74
     0
 42
0.000000001
 43
0.00000001
 40
0.0
 40
0.0
 40
0.0
 40
0.0
 40
0.0416527772969001
 40
0.0834009545711122
 40
0.1251395300581697
 40
0.166852015672292
 40
0.2085463768955512
 40
0.2502287096017886
 40
0.5001752719931154
 40
0.7479356987990948
 40
1.0
 40
1.0
 40
1.0
 40
1.0
 10
251.3660725743568
 20
677.9154302726906
 30
0.0
 10
251.6774687021721
 20
677.9168267474688
 30
0.0
 10
252.3009741679522
 20
677.9196228954592
 30
0.0
 10
253.2365254309685
 20
677.9173872461872
 30
0.0
 10
254.1725211532515
 20
677.9164043873179
 30
0.0
 10
255.1081165236087
 20
677.9158650708401
 30
0.0
 10
256.0432913186133
 20
677.9157815820186
 30
0.0
 10
258.5352401872868
 20
677.9162459302585
 30
0.0
 10
262.567711659515
 20
677.9181964551757
 30
0.0
 10
268.1729454903866
 20
677.920871532661
 30
0.0
 10
271.9095203899536
 20
677.9233614871636
 30
0.0
 10
273.7938952281094
 20
677.9246171846243
 30
0.0
  0
LINE
  5
1B5
330
1F
100
AcDbEntity
  8
0
  6
Continuous
 62
     8
370
    18
100
AcDbLine
 10
251.346634455
 20
677.9152877923
 30
0.0
 11
251.3660725596
 21
677.9154256712
 31
0.0
  0
SPLINE
  5
1B6
330
1F
100
AcDbEntity
  8
0
  6
Continuous
 62
     8
370
    18
100
AcDbSpline
210
0.0
220
0.0
230
1.0
 70
     8
 71
     3
 72
    15
 73
    11
 74
     0
 42
0.000000001
 43
0.00000001
 40
0.0
 40
0.0
 40
0.0
 40
0.0
 40
0.0510956450227232
 40
0.1428083941503636
 40
0.2499458770181842
 40
0.4999929585779317
 40
0.5706745620003725
 40
0.7500307425316012
 40
0.881857365686741
 40
1.0
 40
1.0
 40
1.0
 40
1.0
 10
273.7939023995833
 20
677.9245217148695
 30
0.0
 10
274.4961200314526
 20
677.9248678852701
 30
0.0
 10
276.4587642510672
 20
677.9258354048897
 30
0.0
 10
279.8938677745613
 20
677.9265623903809
 30
0.0
 10
286.0632377142738
 20
677.927416995196
 30
0.0
 10
291.9436180600399
 20
677.926554457085
 30
0.0
 10
298.8165649674053
 20
677.9240201088552
 30
0.0
 10
304.0647115170646
 20
677.9220493342867
 30
0.0
 10
309.9650789304766
 20
677.920465873384
 30
0.0
 10
313.400438194411
 20
677.9212013580482
 30
0.0
 10
315.0240874277771
 20
677.9215489691768
 30
0.0
  0
SPLINE
  5
1B7
330
1F
100
AcDbEntity
  8
0
  6
Continuous
 62
     8
370
    18
100
AcDbSpline
210
0.0
220
0.0
230
1.0
 70
     8
 71
     3
 72
    16
 73
    12
 74
     0
 42
0.000000001
 43
0.00000001
 40
0.0
 40
0.0
 40
0.0
 40
0.0
 40
0.0943630820300892
 40
0.1775845571951027
 40
0.2500777413471155
 40
0.3751192595257203
 40
0.5001519078489797
 40
0.7501686258017959
 40
0.8751357881250194
 40
0.9477564758537981
 40
1.0
 40
1.0
 40
1.0
 40
1.0
 10
315.0399791868339
 20
676.412715497645
 30
0.0
 10
313.7431523206791
 20
676.4110780062975
 30
0.0
 10
311.3026171046781
 20
676.4079963649436
 30
0.0
 10
307.8657660460213
 20
676.3984355656117
 30
0.0
 10
304.0072863163221
 20
676.3829092994894
 30
0.0
 10
299.5741780246578
 20
676.358694446004
 30
0.0
 10
292.7013014543397
 20
676.3218927067401
 30
0.0
 10
285.8293365412094
 20
676.3028081883426
 30
0.0
 10
279.6778061945209
 20
676.3178047134642
 30
0.0
 10
276.2443456966901
 20
676.3299357868635
 30
0.0
 10
274.5283733138147
 20
676.3424267408557
 30
0.0
 10
273.8104058251901
 20
676.347652989808
 30
0.0
  0
SPLINE
  5
1B8
330
1F
100
AcDbEntity
  8
0
  6
Continuous
 62
     8
370
    18
100
AcDbSpline
210
0.0
220
0.0
230
1.0
 70
     8
 71
     3
 72
    11
 73
     7
 74
     0
 42
0.000000001
 43
0.00000001
 40
0.0
 40
0.0
 40
0.0
 40
0.0
 40
0.0006000014014084
 40
0.0006000014014084
 40
0.0006000014014084
 40
0.0010146059072764
 40
0.0010146059072764
 40
0.0010146059072764
 40
0.0010146059072764
 10
251.0394315056928
 20
650.3616354483248
 30
0.0
 10
251.2266187697683
 20
650.2918140746301
 30
0.0
 10
251.4137900699868
 20
650.2220047444513
 30
0.0
 10
251.6009416705491
 20
650.152209052783
 30
0.0
 10
251.7302646841213
 20
650.1039797608411
 30
0.0
 10
251.8595786590491
 20
650.0557568437855
 30
0.0
 10
251.9888822379407
 20
650.0075408713066
 30
0.0
  0
SPLINE
  5
1B9
330
1F
100
AcDbEntity
  8
0
  6
Continuous
 62
     8
370
    18
100
AcDbSpline
210
0.0
220
0.0
230
1.0
 70
     8
 71
     3
 72
    10
 73
     6
 74
     0
 42
0.000000001
 43
0.00000001
 40
0.0
 40
0.0
 40
0.0
 40
0.0
 40
0.0078166815397227
 40
0.0234500446191681
 40
0.0325751471078963
 40
0.0325751471078963
 40
0.0325751471078963
 40
0.0325751471078963
 10
231.5660725595733
 20
666.7103916588892
 30
0.0
 10
231.5660957015779
 20
666.7103876229831
 30
0.0
 10
231.5669529371694
 20
666.7103573270753
 30
0.0
 10
231.5648845081786
 20
666.7105476540384
 30
0.0
 10
231.566895614074
 20
666.7100525949734
 30
0.0
 10
231.5680676682796
 20
666.7097933772864
 30
0.0
  0
SPLINE
  5
1BA
330
1F
100
AcDbEntity
  8
0
  6
Continuous
 62
     8
370
    25
100
AcDbSpline
210
0.0
220
0.0
230
1.0
 70
     8
 71
     3
 72
     9
 73
     5
 74
     0
 42
0.000000001
 43
0.00000001
 40
0.0
 40
0.0
 40
0.0
 40
0.0
 40
0.3525070009406948
 40
1.0
 40
1.0
 40
1.0
 40
1.0
 10
231.5562573413826
 20
666.7121034175535
 30
0.0
 10
231.5587270264005
 20
666.1780470339222
 30
0.0
 10
231.5657330858869
 20
664.6630235529531
 30
0.0
 10
231.5651444485366
 20
663.1479821152899
 30
0.0
 10
231.5647633099732
 20
662.1670033911184
 30
0.0
  0
LINE
  5
1BB
330
1F
100
AcDbEntity
  8
0
  6
Continuous
 62
     8
370
    25
100
AcDbLine
 10
231.5660541965
 20
657.6866011201
 30
0.0
 11
231.5660856389
 21
657.5245594988
 31
0.0
  0
SPLINE
  5
1BC
330
1F
100
AcDbEntity
  8
0
  6
Continuous
 62
     8
370
    18
100
AcDbSpline
210
0.0
220
0.0
230
1.0
 70
     8
 71
     3
 72
     8
 73
     4
 74
     0
 42
0.000000001
 43
0.00000001
 40
0.0
 40
0.0
 40
0.0
 40
0.0
 40
1.0
 40
1.0
 40
1.0
 40
1.0
 10
323.4222144916631
 20
676.4201791031619
 30
0.0
 10
320.5861819413419
 20
676.4198599572688
 30
0.0
 10
317.7961171078285
 20
676.4197950307391
 30
0.0
 10
315.0393551312994
 20
676.4199844536915
 30
0.0
  0
LINE
  5
1BD
330
1F
100
AcDbEntity
  8
0
  6
Continuous
 62
     8
370
    18
100
AcDbLine
 10
323.4378951653
 20
676.4201729373
 30
0.0
 11
323.4222144917
 21
676.4201791032
 31
0.0
  0
SPLINE
  5
1BE
330
1F
100
AcDbEntity
  8
0
  6
Continuous
 62
     8
370
    18
100
AcDbSpline
210
0.0
220
0.0
230
1.0
 70
     8
 71
     3
 72
     9
 73
     5
 74
     0
 42
0.000000001
 43
0.00000001
 40
0.0
 40
0.0
 40
0.0
 40
0.0
 40
0.497670857832107
 40
1.0
 40
1.0
 40
1.0
 40
1.0
 10
327.6850297725025
 20
676.4114121146222
 30
0.0
 10
326.9804747648684
 20
676.4139364643622
 30
0.0
 10
325.5647699942431
 20
676.4190087921874
 30
0.0
 10
324.1490517370004
 20
676.4200428970437
 30
0.0
 10
323.4378951992882
 20
676.4205623580492
 30
0.0
  0
SPLINE
  5
1BF
330
1F
100
AcDbEntity
  8
0
  6
Continuous
 62
     8
370
    18
100
AcDbSpline
210
0.0
220
0.0
230
1.0
 70
    24
 71
     3
 72
    18
 73
    14
 74
     0
 42
0.000000001
 43
0.00000001
 40
0.0
 40
0.0
 40
0.0
 40
0.0
 40
0.2500000000000009
 40
0.2500000000000009
 40
0.375000000000001
 40
0.375000000000001
 40
0.5000000000000009
 40
0.5000000000000009
 40
0.7500000000000004
 40
0.7500000000000004
 40
0.8750000000000003
 40
0.8750000000000003
 40
1.0
 40
1.0
 40
1.0
 40
1.0
 10
238.8492705960691
 20
347.1603916588894
 30
0.0
 10
237.5409138929663
 20
347.1603916588892
 30
0.0
 10
236.380971439113
 20
347.1603916588893
 30
0.0
 10
234.861900379623
 20
347.1603916588892
 30
0.0
 10
234.3960747084216
 20
347.1603916588894
 30
0.0
 10
233.5493821030337
 20
347.1603916588894
 30
0.0
 10
233.1674685649845
 20
347.1603916588894
 30
0.0
 10
232.1436594415908
 20
347.1603916588894
 30
0.0
 10
231.6234061684641
 20
347.1603916588894
 30
0.0
 10
231.0953078287451
 20
347.1603916588894
 30
0.0
 10
230.9621351041134
 20
347.1603916588892
 30
0.0
 10
230.7853649121766
 20
347.1603916588894
 30
0.0
 10
230.7412628045502
 20
347.1603916588894
 30
0.0
 10
230.7412494504775
 20
347.1603916588894
 30
0.0
  0
SPLINE
  5
1C0
330
1F
100
AcDbEntity
  8
0
  6
Continuous
 62
     8
370
    18
100
AcDbSpline
210
0.0
220
0.0
230
1.0
 70
     8
 71
     3
 72
    10
 73
     6
 74
     0
 42
0.000000001
 43
0.00000001
 40
0.0
 40
0.0
 40
0.0
 40
0.0
 40
0.4965199982285588
 40
0.7473474849113952
 40
1.0
 40
1.0
 40
1.0
 40
1.0
 10
315.0240903454835
 20
677.9215079686102
 30
0.0
 10
316.4114786956703
 20
677.9220739320908
 30
0.0
 10
318.4997353576512
 20
677.922925803889
 30
0.0
 10
321.2939394972416
 20
677.9225486427678
 30
0.0
 10
322.7007523984939
 20
677.922243276351
 30
0.0
 10
323.4067085765147
 20
677.9220900396923
 30
0.0
  0
LWPOLYLINE
  5
1C1
330
1F
100
AcDbEntity
  8
0
  6
Continuous
 62
     8
370
    18
100
AcDbPolyline
 90
        3
 70
   128
 43
0.0
 10
323.4067085765
 20
677.9220900397
 10
323.4144609615
 20
677.9220888999
 10
323.4222131577
 20
677.9220877399
  0
SPLINE
  5
1C2
330
1F
100
AcDbEntity
  8
0
  6
Continuous
 62
     8
370
    18
100
AcDbSpline
210
0.0
220
0.0
230
1.0
 70
     8
 71
     3
 72
     9
 73
     5
 74
     0
 42
0.000000001
 43
0.00000001
 40
0.0
 40
0.0
 40
0.0
 40
0.0
 40
0.4977344376655771
 40
1.0
 40
1.0
 40
1.0
 40
1.0
 10
323.4222144916631
 20
677.9224048085237
 30
0.0
 10
324.1275488495075
 20
677.9221576531937
 30
0.0
 10
325.5446385754114
 20
677.921661092556
 30
0.0
 10
326.9616712219502
 20
677.9181094900804
 30
0.0
 10
327.6733979210101
 20
677.9163256424657
 30
0.0
  0
SPLINE
  5
1C3
330
1F
100
AcDbEntity
  8
0
  6
Continuous
 62
     8
370
    18
100
AcDbSpline
210
0.0
220
0.0
230
1.0
 70
     8
 71
     3
 72
    25
 73
    21
 74
     0
 42
0.000000001
 43
0.00000001
 40
0.0
 40
0.0
 40
0.0
 40
0.0
 40
0.012623344790511
 40
0.039627083909042
 40
0.0768069732232713
 40
0.1113188968616998
 40
0.1495903768965568
 40
0.2252843583155602
 40
0.2881534159776596
 40
0.3579445495265587
 40
0.4223069527469465
 40
0.48712836392974
 40
0.5547424214016721
 40
0.6062024421494887
 40
0.6837038463231654
 40
0.7498443440770304
 40
0.8023567529398854
 40
0.8694451362496215
 40
0.9350136615367347
 40
1.0
 40
1.0
 40
1.0
 40
1.0
 10
340.3605436344095
 20
676.296883662794
 30
0.0
 10
340.3444388073513
 20
676.2934139436476
 30
0.0
 10
340.293882687419
 20
676.2825218343022
 30
0.0
 10
340.1826623693257
 20
676.2610511453217
 30
0.0
 10
340.0114283867943
 20
676.2321931996627
 30
0.0
 10
339.785533612987
 20
676.2059385889733
 30
0.0
 10
339.4270428488641
 20
676.1781619216536
 30
0.0
 10
338.9005392564723
 20
676.1555123237786
 30
0.0
 10
338.1606847912222
 20
676.1427188184574
 30
0.0
 10
337.3702182476684
 20
676.144647335895
 30
0.0
 10
336.4995500577668
 20
676.1607178081097
 30
0.0
 10
335.5835770238231
 20
676.190012387145
 30
0.0
 10
334.6893649512503
 20
676.2299475653583
 30
0.0
 10
333.7073766263078
 20
676.2694448378429
 30
0.0
 10
332.7111279549248
 20
676.299247704818
 30
0.0
 10
331.6955350128372
 20
676.3259280612934
 30
0.0
 10
330.7265720522031
 20
676.3507087708869
 30
0.0
 10
329.7553177582806
 20
676.375640148945
 30
0.0
 10
328.7153535638555
 20
676.3997660897093
 30
0.0
 10
328.0274485050951
 20
676.4062221560455
 30
0.0
 10
327.6850297725025
 20
676.4094357943583
 30
0.0
  0
SPLINE
  5
1C4
330
1F
100
AcDbEntity
  8
0
  6
Continuous
 62
     8
370
    18
100
AcDbSpline
210
0.0
220
0.0
230
1.0
 70
     8
 71
     3
 72
    23
 73
    19
 74
     0
 42
0.000000001
 43
0.00000001
 40
0.0
 40
0.0
 40
0.0
 40
0.0
 40
0.0473762381553986
 40
0.1169273846899138
 40
0.2094578964583033
 40
0.357849542985208
 40
0.4651219645183926
 40
0.5287060517258461
 40
0.5867229008568243
 40
0.6390626137618878
 40
0.6856413375237379
 40
0.7263978193802526
 40
0.7955317573660526
 40
0.8567522682164052
 40
0.888753679970379
 40
0.9233043483774417
 40
0.9603993773716881
 40
1.0
 40
1.0
 40
1.0
 40
1.0
 10
327.6734019463051
 20
677.9162859165391
 30
0.0
 10
327.8977373797866
 20
677.9155880086798
 30
0.0
 10
328.4514106251006
 20
677.9138655304095
 30
0.0
 10
329.443181721044
 20
677.9088117366726
 30
0.0
 10
330.9112601188492
 20
677.9010239110098
 30
0.0
 10
332.547788509609
 20
677.891176416663
 30
0.0
 10
334.0084069727507
 20
677.8854540124972
 30
0.0
 10
335.0137667521416
 20
677.8834692552456
 30
0.0
 10
335.7495700223852
 20
677.882470737453
 30
0.0
 10
336.381226952645
 20
677.881868024726
 30
0.0
 10
336.9116897368192
 20
677.8821162007335
 30
0.0
 10
337.4681082616004
 20
677.88352956504
 30
0.0
 10
338.0162976696225
 20
677.8869047479997
 30
0.0
 10
338.4537501793038
 20
677.892959965782
 30
0.0
 10
338.7420327758497
 20
677.9004782794425
 30
0.0
 10
338.9439650000108
 20
677.9079019409862
 30
0.0
 10
339.1296342450518
 20
677.9167295869116
 30
0.0
 10
339.229541834769
 20
677.9232895099284
 30
0.0
 10
339.2811275853871
 20
677.9266766254997
 30
0.0
  0
SPLINE
  5
1C5
330
1F
100
AcDbEntity
  8
0
  6
Continuous
 62
     8
370
    18
100
AcDbSpline
210
0.0
220
0.0
230
1.0
 70
     8
 71
     3
 72
    22
 73
    18
 74
     0
 42
0.000000001
 43
0.00000001
 40
0.0
 40
0.0
 40
0.0
 40
0.0
 40
0.0549497657248727
 40
0.1096167472614634
 40
0.1636677971861991
 40
0.2167790920251605
 40
0.2686450409475561
 40
0.3189858037260664
 40
0.3675529773515478
 40
0.4141332317857468
 40
0.4585498957243583
 40
0.5006626787720453
 40
0.6061550223555484
 40
0.7101013345356267
 40
0.8111152999921644
 40
0.9080404566606481
 40
1.0
 40
1.0
 40
1.0
 40
1.0
 10
339.281127340765
 20
677.9266751342203
 30
0.0
 10
339.3197768713793
 20
677.9188125859527
 30
0.0
 10
339.396877033195
 20
677.9031279519071
 30
0.0
 10
339.5088754393772
 20
677.8666240214106
 30
0.0
 10
339.6162899916933
 20
677.8214793858172
 30
0.0
 10
339.7176777533009
 20
677.7677737814905
 30
0.0
 10
339.8120355521873
 20
677.7070050341027
 30
0.0
 10
339.8985831575562
 20
677.6405063289355
 30
0.0
 10
339.976843630153
 20
677.569764130479
 30
0.0
 10
340.0466169579421
 20
677.4962472859135
 30
0.0
 10
340.1079646994208
 20
677.4213562355885
 30
0.0
 10
340.1888716321388
 20
677.3073619309666
 30
0.0
 10
340.2771780297593
 20
677.1455557481208
 30
0.0
 10
340.3519013111513
 20
676.9303638250622
 30
0.0
 10
340.3892729007586
 20
676.7122829398388
 30
0.0
 10
340.3943234729392
 20
676.499581439835
 30
0.0
 10
340.371736244906
 20
676.3638369579161
 30
0.0
 10
340.3607395301104
 20
676.2977490187258
 30
0.0
  0
SPLINE
  5
1C6
330
1F
100
AcDbEntity
  8
0
  6
Continuous
 62
     8
370
    18
100
AcDbSpline
210
0.0
220
0.0
230
1.0
 70
     8
 71
     3
 72
    11
 73
     7
 74
     0
 42
0.000000001
 43
0.00000001
 40
0.0
 40
0.0
 40
0.0
 40
0.0
 40
0.2823753856422203
 40
0.5876523380845219
 40
0.8930874307013739
 40
1.0
 40
1.0
 40
1.0
 40
1.0
 10
339.2811274979543
 20
677.9266766006524
 30
0.0
 10
339.47325113801
 20
677.9507413541144
 30
0.0
 10
339.8730802733407
 20
678.0008225912063
 30
0.0
 10
339.9382260129234
 20
677.9972056275294
 30
0.0
 10
340.0306858880404
 20
678.0178924022914
 30
0.0
 10
340.0396760218977
 20
678.0075843982078
 30
0.0
 10
340.0420069634739
 20
678.0049117622193
 30
0.0
  0
SPLINE
  5
1C7
330
1F
100
AcDbEntity
  8
0
  6
Continuous
 62
     8
370
    18
100
AcDbSpline
210
0.0
220
0.0
230
1.0
 70
     8
 71
     3
 72
    22
 73
    18
 74
     0
 42
0.000000001
 43
0.00000001
 40
0.0
 40
0.0
 40
0.0
 40
0.0
 40
0.0248466288655638
 40
0.0629444714697011
 40
0.0950381292779439
 40
0.1259030257033298
 40
0.2518517103705004
 40
0.5038945427193925
 40
0.6044289080271812
 40
0.6799362172943011
 40
0.7555963021693723
 40
0.7948849813345967
 40
0.8560211639728325
 40
0.8823721700308889
 40
0.9294404519795039
 40
0.9651189270745064
 40
1.0
 40
1.0
 40
1.0
 40
1.0
 10
341.0603723748309
 20
676.5679093460049
 30
0.0
 10
341.0603536476127
 20
676.5685266304433
 30
0.0
 10
341.0603062055692
 20
676.5700904096963
 30
0.0
 10
341.0598038238616
 20
676.5773118293919
 30
0.0
 10
341.0583708845432
 20
676.5842066049606
 30
0.0
 10
341.0538832105988
 20
676.5938148416411
 30
0.0
 10
341.0346735338719
 20
676.5997856642916
 30
0.0
 10
340.9856389266214
 20
676.5932142735741
 30
0.0
 10
340.9166527674302
 20
676.5807472148439
 30
0.0
 10
340.8680074554409
 20
676.5695011587609
 30
0.0
 10
340.8249552543792
 20
676.5456523740642
 30
0.0
 10
340.7766378600114
 20
676.4914069028117
 30
0.0
 10
340.7307196263017
 20
676.4489284572069
 30
0.0
 10
340.6622917801915
 20
676.4026555795435
 30
0.0
 10
340.5896790459176
 20
676.3654676636817
 30
0.0
 10
340.4853949172442
 20
676.3281077837802
 30
0.0
 10
340.4019041409616
 20
676.3084191234163
 30
0.0
 10
340.3606305226091
 20
676.2986860452261
 30
0.0
  0
LINE
  5
1C8
330
1F
100
AcDbEntity
  8
0
  6
Continuous
 62
     8
370
    18
100
AcDbLine
 10
280.608557544
 20
653.7289730258
 30
0.0
 11
280.608557544
 21
659.7368301129
 31
0.0
  0
SPLINE
  5
1C9
330
1F
100
AcDbEntity
  8
0
  6
Continuous
 62
     8
370
    18
100
AcDbSpline
210
0.0
220
0.0
230
1.0
 70
     8
 71
     3
 72
     8
 73
     4
 74
     0
 42
0.000000001
 43
0.00000001
 40
0.0
 40
0.0
 40
0.0
 40
0.0
 40
1.0
 40
1.0
 40
1.0
 40
1.0
 10
231.5660678745145
 20
666.7098106303825
 30
0.0
 10
231.5596230067133
 20
666.7100325826895
 30
0.0
 10
231.5563420733739
 20
666.7102557609122
 30
0.0
 10
231.5562427191351
 20
666.7104800188135
 30
0.0
  0
SPLINE
  5
1CA
330
1F
100
AcDbEntity
  8
0
  6
Continuous
 62
     7
370
    25
100
AcDbSpline
210
0.0
220
0.0
230
1.0
 70
     8
 71
     3
 72
     9
 73
     5
 74
     0
 42
0.000000001
 43
0.00000001
 40
0.0
 40
0.0
 40
0.0
 40
0.0
 40
0.203019401929407
 40
1.0
 40
1.0
 40
1.0
 40
1.0
 10
100.2601862736779
 20
296.1768342158477
 30
0.0
 10
100.2603085337148
 20
296.1090769614652
 30
0.0
 10
100.2609107423501
 20
295.7753292814965
 30
0.0
 10
100.2618853672075
 20
295.565351365711
 30
0.0
 10
100.2626621243092
 20
295.3980030408068
 30
0.0
  0
LINE
  5
1CB
330
1F
100
AcDbEntity
  8
0
  6
Continuous
 62
     7
370
    25
100
AcDbLine
 10
100.3294507166
 20
280.696060745
 30
0.0
 11
100.3317524547
 21
280.2849340428
 31
0.0
  0
SPLINE
  5
1CC
330
1F
100
AcDbEntity
  8
0
  6
Continuous
 62
     7
370
    25
100
AcDbSpline
210
0.0
220
0.0
230
1.0
 70
     8
 71
     3
 72
     9
 73
     5
 74
     0
 42
0.000000001
 43
0.00000001
 40
0.0
 40
0.0
 40
0.0
 40
0.0
 40
0.8681179453653619
 40
1.0
 40
1.0
 40
1.0
 40
1.0
 10
148.1821319137089
 20
279.5321474387369
 30
0.0
 10
148.1846270808528
 20
279.909909445047
 30
0.0
 10
148.1875013068233
 20
280.3450600007139
 30
0.0
 10
148.1897668756647
 20
280.7582901349175
 30
0.0
 10
148.1900656635384
 20
280.8127877740532
 30
0.0
  0
SPLINE
  5
1CD
330
1F
100
AcDbEntity
  8
0
  6
Continuous
 62
     7
370
    25
100
AcDbSpline
210
0.0
220
0.0
230
1.0
 70
     8
 71
     3
 72
    10
 73
     6
 74
     0
 42
0.000000001
 43
0.00000001
 40
0.0
 40
0.0
 40
0.0
 40
0.0
 40
0.0341767159330939
 40
0.7888196226941321
 40
1.0
 40
1.0
 40
1.0
 40
1.0
 10
148.2560318067089
 20
295.3969371338848
 30
0.0
 10
148.2560631892919
 20
295.4036551791534
 30
0.0
 10
148.2567875186072
 20
295.558711795604
 30
0.0
 10
148.2577133295179
 20
295.8022625105142
 30
0.0
 10
148.2582713828374
 20
296.1096278029397
 30
0.0
 10
148.2583934029963
 20
296.1768342158477
 30
0.0
  0
SPLINE
  5
1CE
330
1F
100
AcDbEntity
  8
0
  6
Continuous
 62
     7
370
    25
100
AcDbSpline
210
0.0
220
0.0
230
1.0
 70
     8
 71
     3
 72
    10
 73
     6
 74
     0
 42
0.000000001
 43
0.00000001
 40
0.0
 40
0.0
 40
0.0
 40
0.0
 40
0.2438522899307491
 40
0.4958314665921519
 40
1.0
 40
1.0
 40
1.0
 40
1.0
 10
108.0934801234053
 20
195.953931282857
 30
0.0
 10
109.4058468045583
 20
195.7785175381371
 30
0.0
 10
112.0743175267629
 20
195.4218440193868
 30
0.0
 10
117.5137664592234
 20
195.3363809575012
 30
0.0
 10
121.6190237734257
 20
195.2845797152131
 30
0.0
 10
124.3562423509622
 20
195.250040754101
 30
0.0
  0
SPLINE
  5
1CF
330
1F
100
AcDbEntity
  8
0
  6
Continuous
 62
     7
370
    25
100
AcDbSpline
210
0.0
220
0.0
230
1.0
 70
     8
 71
     3
 72
    10
 73
     6
 74
     0
 42
0.000000001
 43
0.00000001
 40
0.0
 40
0.0
 40
0.0
 40
0.0
 40
0.5041685334078483
 40
0.7561477100692513
 40
1.0
 40
1.0
 40
1.0
 40
1.0
 10
124.1623373257141
 20
195.250040754101
 30
0.0
 10
126.8995559032505
 20
195.2845797152132
 30
0.0
 10
131.0048132174528
 20
195.3363809575013
 30
0.0
 10
136.4442621499134
 20
195.4218440193868
 30
0.0
 10
139.112732872118
 20
195.7785175381371
 30
0.0
 10
140.4250995532709
 20
195.953931282857
 30
0.0
  0
SPLINE
  5
1D0
330
1F
100
AcDbEntity
  8
0
  6
Continuous
 62
     7
370
    25
100
AcDbSpline
210
0.0
220
0.0
230
1.0
 70
     8
 71
     3
 72
     9
 73
     5
 74
     0
 42
0.000000001
 43
0.00000001
 40
0.0
 40
0.0
 40
0.0
 40
0.0
 40
0.531115416001311
 40
1.0
 40
1.0
 40
1.0
 40
1.0
 10
100.5496040413047
 20
262.4978084392063
 30
0.0
 10
100.6137851859528
 20
255.1547326292294
 30
0.0
 10
100.7346273658529
 20
241.3289697371224
 30
0.0
 10
100.8765614111725
 20
227.5034554562536
 30
0.0
 10
100.9431120969674
 20
221.0208849441005
 30
0.0
  0
SPLINE
  5
1D1
330
1F
100
AcDbEntity
  8
0
  6
Continuous
 62
     7
370
    25
100
AcDbSpline
210
0.0
220
0.0
230
1.0
 70
     8
 71
     3
 72
     9
 73
     5
 74
     0
 42
0.000000001
 43
0.00000001
 40
0.0
 40
0.0
 40
0.0
 40
0.0
 40
0.406360888214635
 40
1.0
 40
1.0
 40
1.0
 40
1.0
 10
147.5754675797089
 20
221.0208849441005
 30
0.0
 10
147.6344176123853
 20
226.6390194715852
 30
0.0
 10
147.7794857879557
 20
240.4644999506938
 30
0.0
 10
147.8983896514556
 20
254.2902829184753
 30
0.0
 10
147.9689756353715
 20
262.4978084392063
 30
0.0
  0
SPLINE
  5
1D2
330
1F
100
AcDbEntity
  8
0
  6
Continuous
 62
     7
370
    25
100
AcDbSpline
210
0.0
220
0.0
230
1.0
 70
     8
 71
     3
 72
    17
 73
    13
 74
     0
 42
0.000000001
 43
0.00000001
 40
0.0
 40
0.0
 40
0.0
 40
0.0
 40
0.0568838856261224
 40
0.1161622129211074
 40
0.2356522245355729
 40
0.3590909189843265
 40
0.488575785746802
 40
0.6241613933175746
 40
0.7595581274395243
 40
0.8442445535226082
 40
0.9232784931415089
 40
1.0
 40
1.0
 40
1.0
 40
1.0
 10
140.2026890111879
 20
195.9021646960792
 30
0.0
 10
140.4966188527836
 20
195.9764639755922
 30
0.0
 10
141.0968510708799
 20
196.1281900511173
 30
0.0
 10
142.2690518104171
 20
196.5861803620087
 30
0.0
 10
143.6494313338184
 20
197.4518064293698
 30
0.0
 10
145.0256832405242
 20
198.9095835535165
 30
0.0
 10
146.0802579970724
 20
200.7103159775589
 30
0.0
 10
146.7863905246012
 20
202.7349510310792
 30
0.0
 10
147.1534466360781
 20
204.5997503859147
 30
0.0
 10
147.3278408771669
 20
206.1854846403038
 30
0.0
 10
147.3996312664615
 20
207.4658472418874
 30
0.0
 10
147.4144832551924
 20
208.2960835142876
 30
0.0
 10
147.4217989990784
 20
208.7050385736945
 30
0.0
  0
SPLINE
  5
1D3
330
1F
100
AcDbEntity
  8
0
  6
Continuous
 62
     7
370
    25
100
AcDbSpline
210
0.0
220
0.0
230
1.0
 70
     8
 71
     3
 72
    16
 73
    12
 74
     0
 42
0.000000001
 43
0.00000001
 40
0.0
 40
0.0
 40
0.0
 40
0.0
 40
0.1156075359052173
 40
0.2404210070685631
 40
0.375821460615477
 40
0.5114107927996735
 40
0.6408992165847696
 40
0.7643413019643645
 40
0.8838345960371186
 40
0.9431145517413251
 40
1.0
 40
1.0
 40
1.0
 40
1.0
 10
101.0967806775978
 20
208.7050385736945
 30
0.0
 10
101.1089731844189
 20
208.0887225004662
 30
0.0
 10
101.1343290986823
 20
206.8070125337425
 30
0.0
 10
101.3240422768887
 20
204.8099468354021
 30
0.0
 10
101.7321008929651
 20
202.7349996340878
 30
0.0
 10
102.4383442016691
 20
200.710303574985
 30
0.0
 10
103.4928908110266
 20
198.9095866511912
 30
0.0
 10
104.8691497991312
 20
197.4518056274213
 30
0.0
 10
106.2495276906467
 20
196.5861804587159
 30
0.0
 10
107.4217286351585
 20
196.128190034948
 30
0.0
 10
108.0219608335446
 20
195.976463970277
 30
0.0
 10
108.3158906654883
 20
195.9021646960792
 30
0.0
  0
SPLINE
  5
1D4
330
1F
100
AcDbEntity
  8
0
  6
Continuous
 62
     7
370
    25
100
AcDbSpline
210
0.0
220
0.0
230
1.0
 70
     8
 71
     3
 72
     9
 73
     5
 74
     0
 42
0.000000001
 43
0.00000001
 40
0.0
 40
0.0
 40
0.0
 40
0.0
 40
0.5097182380692069
 40
1.0
 40
1.0
 40
1.0
 40
1.0
 10
148.1742362354191
 20
285.6628294343964
 30
0.0
 10
148.1827975947915
 20
286.0069108973773
 30
0.0
 10
148.1995938534554
 20
286.6819533763053
 30
0.0
 10
148.2058702720171
 20
287.3494425281011
 30
0.0
 10
148.2089474855682
 20
287.6767002855133
 30
0.0
  0
SPLINE
  5
1D5
330
1F
100
AcDbEntity
  8
0
  6
Continuous
 62
     7
370
    25
100
AcDbSpline
210
0.0
220
0.0
230
1.0
 70
     8
 71
     3
 72
     9
 73
     5
 74
     0
 42
0.000000001
 43
0.00000001
 40
0.0
 40
0.0
 40
0.0
 40
0.0
 40
0.4902817619307965
 40
1.0
 40
1.0
 40
1.0
 40
1.0
 10
100.3096321911081
 20
287.6767002855125
 30
0.0
 10
100.3127094046592
 20
287.3494425281004
 30
0.0
 10
100.3189858232209
 20
286.6819533763049
 30
0.0
 10
100.3357820818848
 20
286.0069108973772
 30
0.0
 10
100.3443434412571
 20
285.6628294343964
 30
0.0
  0
LINE
  5
1D6
330
1F
100
AcDbEntity
  8
0
  6
Continuous
 62
     7
370
    25
100
AcDbLine
 10
147.9684326167
 20
262.4977710176
 30
0.0
 11
148.1690500329
 21
284.9242404635
 31
0.0
  0
LINE
  5
1D7
330
1F
100
AcDbEntity
  8
0
  6
Continuous
 62
     7
370
    25
100
AcDbLine
 10
100.3495296437
 20
284.9242404635
 30
0.0
 11
100.55014706
 21
262.4977710176
 31
0.0
  0
LINE
  5
1D8
330
1F
100
AcDbEntity
  8
0
  6
Continuous
 62
     7
370
    25
100
AcDbLine
 10
147.4251193326
 20
207.9432437837
 30
0.0
 11
147.4153038883
 21
208.4361201819
 31
0.0
  0
LINE
  5
1D9
330
1F
100
AcDbEntity
  8
0
  6
Continuous
 62
     7
370
    25
100
AcDbLine
 10
101.1040682153
 20
208.4759114087
 30
0.0
 11
101.0934603441
 21
207.9432437837
 31
0.0
  0
SPLINE
  5
1DA
330
1F
100
AcDbEntity
  8
0
  6
Continuous
 62
     7
370
    25
100
AcDbSpline
210
0.0
220
0.0
230
1.0
 70
     8
 71
     3
 72
    12
 73
     8
 74
     0
 42
0.000000001
 43
0.00000001
 40
0.0
 40
0.0
 40
0.0
 40
0.0
 40
0.0899736042242613
 40
0.2142183489065036
 40
0.4830771039818305
 40
0.747556537134513
 40
1.0
 40
1.0
 40
1.0
 40
1.0
 10
148.1975587002285
 20
286.0042421414035
 30
0.0
 10
148.2002601288045
 20
286.3864987035027
 30
0.0
 10
148.2066919659441
 20
287.2966141790088
 30
0.0
 10
148.2197946946536
 20
288.8894402999148
 30
0.0
 10
148.2334922311922
 20
290.1957400622466
 30
0.0
 10
148.2503699213675
 20
292.167422520585
 30
0.0
 10
148.2557692917852
 20
294.1068415386135
 30
0.0
 10
148.2584061178496
 20
295.0539724485222
 30
0.0
  0
LINE
  5
1DB
330
1F
100
AcDbEntity
  8
0
  6
Continuous
 62
     7
370
    25
100
AcDbLine
 10
148.2581234702
 20
295.2306305905
 30
0.0
 11
148.2584061178
 21
295.0539724485
 31
0.0
  0
SPLINE
  5
1DC
330
1F
100
AcDbEntity
  8
0
  6
Continuous
 62
     7
370
    25
100
AcDbSpline
210
0.0
220
0.0
230
1.0
 70
     8
 71
     3
 72
     9
 73
     5
 74
     0
 42
0.000000001
 43
0.00000001
 40
0.0
 40
0.0
 40
0.0
 40
0.0
 40
0.8690136167434998
 40
1.0
 40
1.0
 40
1.0
 40
1.0
 10
148.2501693156989
 20
293.9705029760472
 30
0.0
 10
148.2478407973285
 20
292.823123664493
 30
0.0
 10
148.2451613014892
 20
291.5027999210586
 30
0.0
 10
148.2470068285193
 20
292.0403035534925
 30
0.0
 10
148.2472485674301
 20
292.1107092102923
 30
0.0
  0
LINE
  5
1DD
330
1F
100
AcDbEntity
  8
0
  6
Continuous
 62
     7
370
    25
100
AcDbLine
 10
100.2611497916
 20
295.3719280435
 30
0.0
 11
100.2611678549
 21
295.3644527628
 31
0.0
  0
SPLINE
  5
1DE
330
1F
100
AcDbEntity
  8
0
  6
Continuous
 62
     7
370
    25
100
AcDbSpline
210
0.0
220
0.0
230
1.0
 70
     8
 71
     3
 72
     9
 73
     5
 74
     0
 42
0.000000001
 43
0.00000001
 40
0.0
 40
0.0
 40
0.0
 40
0.0
 40
0.1309863832615174
 40
1.0
 40
1.0
 40
1.0
 40
1.0
 10
100.2713311092461
 20
292.1107092102932
 30
0.0
 10
100.271572848157
 20
292.0403035534905
 30
0.0
 10
100.2734183751871
 20
291.5027999210542
 30
0.0
 10
100.2707388793478
 20
292.8231236644931
 30
0.0
 10
100.2684103609774
 20
293.9705029760447
 30
0.0
  0
SPLINE
  5
1DF
330
1F
100
AcDbEntity
  8
0
  6
Continuous
 62
     7
370
    25
100
AcDbSpline
210
0.0
220
0.0
230
1.0
 70
     8
 71
     3
 72
    13
 73
     9
 74
     0
 42
0.000000001
 43
0.00000001
 40
0.0
 40
0.0
 40
0.0
 40
0.0
 40
0.031565387899374
 40
0.2760403749368029
 40
0.532171412190107
 40
0.7925435363707686
 40
0.9128664474928309
 40
1.0
 40
1.0
 40
1.0
 40
1.0
 10
100.2604728474441
 20
295.2410314088222
 30
0.0
 10
100.2603446047414
 20
295.1825559717006
 30
0.0
 10
100.2592231180091
 20
294.6711863145602
 30
0.0
 10
100.269657840304
 20
291.9702646927259
 30
0.0
 10
100.284674600863
 20
290.2519491583855
 30
0.0
 10
100.2988327464297
 20
288.882937141065
 30
0.0
 10
100.3118822550775
 20
287.2973569703557
 30
0.0
 10
100.3183179342036
 20
286.3867184056024
 30
0.0
 10
100.3210209764479
 20
286.0042421413834
 30
0.0
  0
SPLINE
  5
1E0
330
1F
100
AcDbEntity
  8
0
  6
Continuous
 62
     7
370
    25
100
AcDbSpline
210
0.0
220
0.0
230
1.0
 70
     8
 71
     3
 72
    16
 73
    12
 74
     0
 42
0.000000001
 43
0.00000001
 40
0.0
 40
0.0
 40
0.0
 40
0.0
 40
0.2037539733813173
 40
0.3685675816369032
 40
0.4958486185263427
 40
0.5868226343144225
 40
0.6351330723161656
 40
0.6788043623398401
 40
0.7541876066098074
 40
0.8647357020081013
 40
1.0
 40
1.0
 40
1.0
 40
1.0
 10
124.2592898383381
 20
304.7440679883455
 30
0.0
 10
122.509104852344
 20
304.6748699369998
 30
0.0
 10
119.3432208354572
 20
304.5496985942514
 30
0.0
 10
115.1604262070144
 20
303.6909283733285
 30
0.0
 10
112.0315760971157
 20
302.747722996062
 30
0.0
 10
109.9186069723323
 20
301.9304931741266
 30
0.0
 10
108.5982483404785
 20
301.3488834574935
 30
0.0
 10
107.560527441614
 20
300.8607037846533
 30
0.0
 10
105.8434274620033
 20
299.9766188032652
 30
0.0
 10
103.5590687946078
 20
298.6335363221633
 30
0.0
 10
101.8982309784057
 20
297.3909959814461
 30
0.0
 10
100.9843142381282
 20
296.7072576857657
 30
0.0
  0
SPLINE
  5
1E1
330
1F
100
AcDbEntity
  8
0
  6
Continuous
 62
     7
370
    25
100
AcDbSpline
210
0.0
220
0.0
230
1.0
 70
     8
 71
     3
 72
    16
 73
    12
 74
     0
 42
0.000000001
 43
0.00000001
 40
0.0
 40
0.0
 40
0.0
 40
0.0
 40
0.1450983650170298
 40
0.2543892700655658
 40
0.3289152305723754
 40
0.3720898759076838
 40
0.4198509112604489
 40
0.5097903397559004
 40
0.635623893622667
 40
0.798563185753183
 40
1.0
 40
1.0
 40
1.0
 40
1.0
 10
147.7696799727649
 20
296.5383461624277
 30
0.0
 10
146.7783574205666
 20
297.2810061417755
 30
0.0
 10
145.0403514793993
 20
298.5830520334094
 30
0.0
 10
142.675303957471
 20
299.9769915525812
 30
0.0
 10
140.9580340028827
 20
300.860658998126
 30
0.0
 10
139.9203354503155
 20
301.3488935636402
 30
0.0
 10
138.5999704098247
 20
301.930487537746
 30
0.0
 10
136.4870046756935
 20
302.747725688663
 30
0.0
 10
133.3581530304963
 20
303.690927294538
 30
0.0
 10
129.1753589961185
 20
304.5496989747542
 30
0.0
 10
126.0094748794784
 20
304.6748700724638
 30
0.0
 10
124.2592898383381
 20
304.7440679883454
 30
0.0
  0
SPLINE
  5
1E2
330
1F
100
AcDbEntity
  8
0
  6
Continuous
 62
     7
370
    25
100
AcDbSpline
210
0.0
220
0.0
230
1.0
 70
     8
 71
     3
 72
     9
 73
     5
 74
     0
 42
0.000000001
 43
0.00000001
 40
0.0
 40
0.0
 40
0.0
 40
0.0
 40
0.5251511579211683
 40
1.0
 40
1.0
 40
1.0
 40
1.0
 10
148.2175634741822
 20
295.7340673272403
 30
0.0
 10
148.1603316514573
 20
295.9116669413633
 30
0.0
 10
148.0513500337617
 20
296.2498545497196
 30
0.0
 10
147.8005189006012
 20
296.4858195953969
 30
0.0
 10
147.6814120274626
 20
296.5978673241078
 30
0.0
  0
SPLINE
  5
1E3
330
1F
100
AcDbEntity
  8
0
  6
Continuous
 62
     7
370
    25
100
AcDbSpline
210
0.0
220
0.0
230
1.0
 70
     8
 71
     3
 72
     9
 73
     5
 74
     0
 42
0.000000001
 43
0.00000001
 40
0.0
 40
0.0
 40
0.0
 40
0.0
 40
0.4766548824776085
 40
1.0
 40
1.0
 40
1.0
 40
1.0
 10
100.8395320237613
 20
296.6004777485696
 30
0.0
 10
100.7195186991302
 20
296.4876451493901
 30
0.0
 10
100.4677362690263
 20
296.2509275507096
 30
0.0
 10
100.3582928706693
 20
295.9116346238974
 30
0.0
 10
100.3010162024941
 20
295.7340673272403
 30
0.0
  0
SPLINE
  5
1E4
330
1F
100
AcDbEntity
  8
0
  6
Continuous
 62
     7
370
    25
100
AcDbSpline
210
0.0
220
0.0
230
1.0
 70
     8
 71
     3
 72
    18
 73
    14
 74
     0
 42
0.000000001
 43
0.00000001
 40
0.0
 40
0.0
 40
0.0
 40
0.0
 40
0.0048790916526374
 40
0.0836294305923644
 40
0.1521774035358076
 40
0.2177064039158435
 40
0.2811970902410302
 40
0.3460000901939895
 40
0.4109896226650082
 40
0.5033854809754394
 40
0.6099580325266314
 40
0.7688068229734366
 40
1.0
 40
1.0
 40
1.0
 40
1.0
 10
103.3305070958645
 20
88.07066196268536
 30
0.0
 10
103.3434839251035
 20
88.0354446989966
 30
0.0
 10
103.5659115647992
 20
87.4318078093878
 30
0.0
 10
104.2197392385278
 20
86.4394510354975
 30
0.0
 10
105.2686884983643
 20
85.18113706276803
 30
0.0
 10
106.4586195323158
 20
84.21921839857605
 30
0.0
 10
107.7772400528194
 20
83.50345574848855
 30
0.0
 10
109.2087072259432
 20
83.07875766940154
 30
0.0
 10
110.887110154489
 20
82.75447909184066
 30
0.0
 10
112.9124670929431
 20
82.57361812874845
 30
0.0
 10
115.6634394657426
 20
82.54361603678254
 30
0.0
 10
119.4810273322676
 20
82.4426912218369
 30
0.0
 10
122.4809762786037
 20
82.43719666391067
 30
0.0
 10
124.2591637190829
 20
82.43393982385436
 30
0.0
  0
SPLINE
  5
1E5
330
1F
100
AcDbEntity
  8
0
  6
Continuous
 62
     7
370
    25
100
AcDbSpline
210
0.0
220
0.0
230
1.0
 70
     8
 71
     3
 72
    17
 73
    13
 74
     0
 42
0.000000001
 43
0.00000001
 40
0.0
 40
0.0
 40
0.0
 40
0.0
 40
0.225945488543752
 40
0.4316659801003517
 40
0.5462742688217309
 40
0.6356630794899972
 40
0.7002812379736065
 40
0.7641641087477266
 40
0.8294824256476079
 40
0.8971680048830045
 40
0.9682749368341411
 40
1.0
 40
1.0
 40
1.0
 40
1.0
 10
124.2593549445282
 20
82.4403229124478
 30
0.0
 10
125.9949767254146
 20
82.44420427884849
 30
0.0
 10
129.3108600473548
 20
82.45161957995626
 30
0.0
 10
133.5035938225912
 20
82.53174653262582
 30
0.0
 10
136.651359215339
 20
82.62890630635755
 30
0.0
 10
138.6946812253106
 20
82.93642262774873
 30
0.0
 10
140.3212719646742
 20
83.34920040789962
 30
0.0
 10
141.6812673484603
 20
83.97752618880031
 30
0.0
 10
142.9136467175614
 20
84.87186792360684
 30
0.0
 10
143.9878690896041
 20
86.01946912900408
 30
0.0
 10
144.7506678056206
 20
87.10003915330152
 30
0.0
 10
145.0567402213441
 20
87.82925674990862
 30
0.0
 10
145.1511677067887
 20
88.0542302543874
 30
0.0
  0
SPLINE
  5
1E6
330
1F
100
AcDbEntity
  8
0
  6
Continuous
 62
     7
370
    25
100
AcDbSpline
210
0.0
220
0.0
230
1.0
 70
     8
 71
     3
 72
    14
 73
    10
 74
     0
 42
0.000000001
 43
0.00000001
 40
0.0
 40
0.0
 40
0.0
 40
0.0
 40
0.2894909802439952
 40
0.439132584245799
 40
0.4785406708895254
 40
0.5231675493148885
 40
0.6314242584193605
 40
0.8733598420079842
 40
1.0
 40
1.0
 40
1.0
 40
1.0
 10
100.2991428893805
 20
296.5488815755364
 30
0.0
 10
100.29708641889
 20
296.541230434522
 30
0.0
 10
100.2939669324031
 20
296.5296243204966
 30
0.0
 10
100.2939586514685
 20
296.5289936599867
 30
0.0
 10
100.2919052467131
 20
296.5190253143716
 30
0.0
 10
100.2888165003136
 20
296.5035847422748
 30
0.0
 10
100.2815861213117
 20
296.4646880548148
 30
0.0
 10
100.2726362281247
 20
296.4082438925904
 30
0.0
 10
100.2702097761971
 20
296.3764637360918
 30
0.0
 10
100.2693760635547
 20
296.365544287018
 30
0.0
  0
SPLINE
  5
1E7
330
1F
100
AcDbEntity
  8
0
  6
Continuous
 62
     7
370
    25
100
AcDbSpline
210
0.0
220
0.0
230
1.0
 70
     8
 71
     3
 72
    13
 73
     9
 74
     0
 42
0.000000001
 43
0.00000001
 40
0.0
 40
0.0
 40
0.0
 40
0.0
 40
0.0131935971139739
 40
0.0301498839207671
 40
0.4001498019876938
 40
0.6684667391465279
 40
0.8855515389338199
 40
1.0
 40
1.0
 40
1.0
 40
1.0
 10
148.2263531526334
 20
296.5205426222264
 30
0.0
 10
148.2257986477082
 20
296.5232543432746
 30
0.0
 10
148.2245314982731
 20
296.529451142686
 30
0.0
 10
148.2165962727138
 20
296.5665562588882
 30
0.0
 10
148.1952833389938
 20
296.6739872202779
 30
0.0
 10
148.0943113853197
 20
296.9144448509412
 30
0.0
 10
147.934043679805
 20
297.2190436972798
 30
0.0
 10
147.7124677374884
 20
297.3855343420635
 30
0.0
 10
147.635977597277
 20
297.4430085092959
 30
0.0
  0
LINE
  5
1E8
330
1F
100
AcDbEntity
  8
0
  6
Continuous
 62
     7
370
    25
100
AcDbLine
 10
148.1186481963
 20
296.8528994117
 30
0.0
 11
148.1118043108
 21
296.8680963417
 31
0.0
  0
SPLINE
  5
1E9
330
1F
100
AcDbEntity
  8
0
  6
Continuous
 62
     7
370
    25
100
AcDbSpline
210
0.0
220
0.0
230
1.0
 70
     8
 71
     3
 72
     9
 73
     5
 74
     0
 42
0.000000001
 43
0.00000001
 40
0.0
 40
0.0
 40
0.0
 40
0.0
 40
0.160679140210064
 40
1.0
 40
1.0
 40
1.0
 40
1.0
 10
100.4005884025811
 20
296.8537635700933
 30
0.0
 10
100.3987291836005
 20
296.8498713219215
 30
0.0
 10
100.3871581795602
 20
296.8256475915313
 30
0.0
 10
100.3937080074338
 20
296.8396466392163
 30
0.0
 10
100.3992054145962
 20
296.8513963319554
 30
0.0
  0
SPLINE
  5
1EA
330
1F
100
AcDbEntity
  8
0
  6
Continuous
 62
     7
370
    25
100
AcDbSpline
210
0.0
220
0.0
230
1.0
 70
     8
 71
     3
 72
    10
 73
     6
 74
     0
 42
0.000000001
 43
0.00000001
 40
0.0
 40
0.0
 40
0.0
 40
0.0
 40
0.0078166815397227
 40
0.0234500446191681
 40
0.0325751471078963
 40
0.0325751471078963
 40
0.0325751471078963
 40
0.0325751471078963
 10
124.2592898383381
 20
304.7417887073355
 30
0.0
 10
124.1944134247962
 20
304.7417655653308
 30
0.0
 10
123.9998665995452
 20
304.7409083297393
 30
0.0
 10
123.7093073965977
 20
304.7429767587302
 30
0.0
 10
123.4910418606281
 20
304.7409656528347
 30
0.0
 10
123.4108727835489
 20
304.7397935986291
 30
0.0
  0
SPLINE
  5
1EB
330
1F
100
AcDbEntity
  8
0
  6
Continuous
 62
     7
370
    25
100
AcDbSpline
210
0.0
220
0.0
230
1.0
 70
     8
 71
     3
 72
     8
 73
     4
 74
     0
 42
0.000000001
 43
0.00000001
 40
0.0
 40
0.0
 40
0.0
 40
0.0
 40
1.0
 40
1.0
 40
1.0
 40
1.0
 10
125.1077525287765
 20
304.7417933923942
 30
0.0
 10
124.8252489151643
 20
304.7482382601954
 30
0.0
 10
124.5424128131629
 20
304.7515191935348
 30
0.0
 10
124.2592933578833
 20
304.7516185477737
 30
0.0
  0
SPLINE
  5
1EC
330
1F
100
AcDbEntity
  8
0
  6
Continuous
 62
     7
370
    25
100
AcDbSpline
210
0.0
220
0.0
230
1.0
 70
     8
 71
     3
 72
     9
 73
     5
 74
     0
 42
0.000000001
 43
0.00000001
 40
0.0
 40
0.0
 40
0.0
 40
0.0
 40
0.1239039215521864
 40
1.0
 40
1.0
 40
1.0
 40
1.0
 10
100.2590513372863
 20
296.1977815853858
 30
0.0
 10
100.2589083217003
 20
296.1978770832097
 30
0.0
 10
100.2577540758606
 20
296.1986478241405
 30
0.0
 10
100.2586968134405
 20
296.1982204233384
 30
0.0
 10
100.2595227421371
 20
296.1978459791717
 30
0.0
  0
SPLINE
  5
1ED
330
1F
100
AcDbEntity
  8
0
  6
Continuous
 62
     7
370
    25
100
AcDbSpline
210
0.0
220
0.0
230
1.0
 70
     8
 71
     3
 72
    11
 73
     7
 74
     0
 42
0.000000001
 43
0.00000001
 40
0.0
 40
0.0
 40
0.0
 40
0.0
 40
0.178569105191956
 40
0.4010240130026669
 40
0.8508280104850142
 40
1.0
 40
1.0
 40
1.0
 40
1.0
 10
100.2842507608929
 20
290.3641695817012
 30
0.0
 10
100.2868509694145
 20
289.7653945994628
 30
0.0
 10
100.2926904233045
 20
288.4206874845076
 30
0.0
 10
100.3069764161359
 20
285.4547205442801
 30
0.0
 10
100.3199989433751
 20
282.6203674643174
 30
0.0
 10
100.3294905334537
 20
280.5466210280362
 30
0.0
 10
100.3318543667399
 20
280.0301647954576
 30
0.0
  0
SPLINE
  5
1EE
330
1F
100
AcDbEntity
  8
0
  6
Continuous
 62
     7
370
    25
100
AcDbSpline
210
0.0
220
0.0
230
1.0
 70
     8
 71
     3
 72
    14
 73
    10
 74
     0
 42
0.000000001
 43
0.00000001
 40
0.0
 40
0.0
 40
0.0
 40
0.0
 40
0.1249999999999999
 40
0.1249999999999999
 40
0.2499999999999999
 40
0.2499999999999999
 40
0.4999999999999999
 40
0.4999999999999999
 40
1.0
 40
1.0
 40
1.0
 40
1.0
 10
100.3318518178456
 20
280.0301703188094
 30
0.0
 10
100.3370794066958
 20
278.8919466678259
 30
0.0
 10
100.3423946659777
 20
277.7536910043032
 30
0.0
 10
100.3533724677979
 20
275.4771009127781
 30
0.0
 10
100.3590332404124
 20
274.3387679909408
 30
0.0
 10
100.3765401187757
 20
270.9237111449311
 30
0.0
 10
100.3889036309373
 20
268.6470148714714
 30
0.0
 10
100.4274093036788
 20
261.8169368537035
 30
0.0
 10
100.4546295768575
 20
257.2634515630086
 30
0.0
 10
100.4831425518147
 20
252.7099875237105
 30
0.0
  0
SPLINE
  5
1EF
330
1F
100
AcDbEntity
  8
0
  6
Continuous
 62
     7
370
    25
100
AcDbSpline
210
0.0
220
0.0
230
1.0
 70
     8
 71
     3
 72
    16
 73
    12
 74
     0
 42
0.000000001
 43
0.00000001
 40
0.0
 40
0.0
 40
0.0
 40
0.0
 40
0.4325214187161313
 40
0.5530401238153705
 40
0.8295597050875245
 40
0.8989386324265403
 40
0.9336285027855603
 40
0.9683251691936265
 40
0.9821036525217939
 40
0.9960977263291356
 40
1.0
 40
1.0
 40
1.0
 40
1.0
 10
100.4831382205187
 20
252.7099873635313
 30
0.0
 10
100.650230858165
 20
228.9545238725
 30
0.0
 10
100.8638825503446
 20
198.5797865719321
 30
0.0
 10
101.3450207553225
 20
153.0177479395217
 30
0.0
 10
101.6851615525565
 20
127.4066475614215
 30
0.0
 10
101.9453323945273
 20
106.4978330312922
 30
0.0
 10
102.0930689137494
 20
98.88478037048442
 30
0.0
 10
102.0744219640726
 20
94.29829366994765
 30
0.0
 10
102.4724507044179
 20
90.90677220672511
 30
0.0
 10
102.7706391795872
 20
89.15553472447252
 30
0.0
 10
103.2561630782198
 20
88.30048075674146
 30
0.0
 10
103.3620308888732
 20
88.1140374285982
 30
0.0
  0
SPLINE
  5
1F0
330
1F
100
AcDbEntity
  8
0
  6
Continuous
 62
     7
370
    25
100
AcDbSpline
210
0.0
220
0.0
230
1.0
 70
     8
 71
     3
 72
    16
 73
    12
 74
     0
 42
0.000000001
 43
0.00000001
 40
0.0
 40
0.0
 40
0.0
 40
0.0
 40
0.4324379796981808
 40
0.5529334351687011
 40
0.8293996722102414
 40
0.8987652154500816
 40
0.9334483936810583
 40
0.9681383666500345
 40
0.9819141919292174
 40
0.9959055660973619
 40
1.0
 40
1.0
 40
1.0
 40
1.0
 10
148.0354414561555
 20
252.7099873635313
 30
0.0
 10
147.8683549702741
 20
228.9545212647116
 30
0.0
 10
147.6547111440007
 20
198.5797806297154
 30
0.0
 10
147.1735394783447
 20
153.0177561815871
 30
0.0
 10
146.8335475339115
 20
127.4065927034473
 30
0.0
 10
146.5731615358124
 20
106.4978693799337
 30
0.0
 10
146.4256626583493
 20
98.88471598064952
 30
0.0
 10
146.4437237121082
 20
94.29847764665517
 30
0.0
 10
146.0467172612187
 20
90.90652282574973
 30
0.0
 10
145.7445077400624
 20
89.14555206407243
 30
0.0
 10
145.2528875950975
 20
88.28164451298304
 30
0.0
 10
145.1415900417405
 20
88.08606506460661
 30
0.0
  0
SPLINE
  5
1F1
330
1F
100
AcDbEntity
  8
0
  6
Continuous
 62
     7
370
    25
100
AcDbSpline
210
0.0
220
0.0
230
1.0
 70
     8
 71
     3
 72
    14
 73
    10
 74
     0
 42
0.000000001
 43
0.00000001
 40
0.0
 40
0.0
 40
0.0
 40
0.0
 40
0.1249999999999999
 40
0.1249999999999999
 40
0.2499999999999999
 40
0.2499999999999999
 40
0.4999999999999999
 40
0.4999999999999999
 40
1.0
 40
1.0
 40
1.0
 40
1.0
 10
148.1867278588285
 20
280.0301703188094
 30
0.0
 10
148.1815002699783
 20
278.8919466678259
 30
0.0
 10
148.1761850106965
 20
277.7536910043032
 30
0.0
 10
148.1652072088762
 20
275.4771009127781
 30
0.0
 10
148.1595464362618
 20
274.3387679909408
 30
0.0
 10
148.1420395578984
 20
270.9237111449311
 30
0.0
 10
148.1296760457369
 20
268.6470148714714
 30
0.0
 10
148.0911703729954
 20
261.8169368537035
 30
0.0
 10
148.0639500998167
 20
257.2634515630086
 30
0.0
 10
148.0354371248594
 20
252.7099875237105
 30
0.0
  0
SPLINE
  5
1F2
330
1F
100
AcDbEntity
  8
0
  6
Continuous
 62
     7
370
    25
100
AcDbSpline
210
0.0
220
0.0
230
1.0
 70
     8
 71
     3
 72
    11
 73
     7
 74
     0
 42
0.000000001
 43
0.00000001
 40
0.0
 40
0.0
 40
0.0
 40
0.0
 40
0.1785691051344041
 40
0.4010240129607005
 40
0.8508280104745627
 40
1.0
 40
1.0
 40
1.0
 40
1.0
 10
148.234328915778
 20
290.3641695809922
 30
0.0
 10
148.2317287072575
 20
289.7653945989881
 30
0.0
 10
148.2258892533685
 20
288.4206874842661
 30
0.0
 10
148.2116032605382
 20
285.4547205442784
 30
0.0
 10
148.198580733299
 20
282.6203674643176
 30
0.0
 10
148.1890891432204
 20
280.5466210280362
 30
0.0
 10
148.1867253099342
 20
280.0301647954576
 30
0.0
  0
SPLINE
  5
1F3
330
1F
100
AcDbEntity
  8
0
  6
Continuous
 62
     7
370
    25
100
AcDbSpline
210
0.0
220
0.0
230
1.0
 70
     8
 71
     3
 72
     9
 73
     5
 74
     0
 42
0.000000001
 43
0.00000001
 40
0.0
 40
0.0
 40
0.0
 40
0.0
 40
0.1240832266971839
 40
1.0
 40
1.0
 40
1.0
 40
1.0
 10
148.2595278067868
 20
296.1977812255806
 30
0.0
 10
148.2596710298584
 20
296.1978768604529
 30
0.0
 10
148.2608252799157
 20
296.1986475921217
 30
0.0
 10
148.2598827665673
 20
296.1982203077656
 30
0.0
 10
148.2590572033164
 20
296.1978460422312
 30
0.0
  0
LWPOLYLINE
  5
1F4
330
1F
100
AcDbEntity
  8
0
  6
Continuous
 62
     7
370
    25
100
AcDbPolyline
 90
        3
 70
   128
 43
0.0
 10
100.3286269234
 20
284.9417887073
 10
100.3260588994
 20
285.3013684595
 10
100.3235110592
 20
285.6609559514
  0
LINE
  5
1F5
330
1F
100
AcDbEntity
  8
0
  6
Continuous
 62
     7
370
    25
100
AcDbLine
 10
148.1899527532
 20
284.9417887073
 30
0.0
 11
148.1950686175
 21
285.6609559514
 31
0.0
  0
LINE
  5
1F6
330
1F
100
AcDbEntity
  8
0
  6
Continuous
 62
     7
370
    25
100
AcDbLine
 10
100.5727518287
 20
262.4980882328
 30
0.0
 11
100.5387445182
 21
262.4974554417
 31
0.0
  0
LINE
  5
1F7
330
1F
100
AcDbEntity
  8
0
  6
Continuous
 62
     7
370
    25
100
AcDbLine
 10
147.4130865751
 20
207.9436934702
 30
0.0
 11
147.4393830374
 21
208.6228364421
 31
0.0
  0
LINE
  5
1F8
330
1F
100
AcDbEntity
  8
0
  6
Continuous
 62
     7
370
    25
100
AcDbLine
 10
101.1054931016
 20
207.9436934702
 30
0.0
 11
101.0791966393
 21
208.6228364421
 31
0.0
  0
SPLINE
  5
1F9
330
1F
100
AcDbEntity
  8
0
  6
Continuous
 62
     7
370
    25
100
AcDbSpline
210
0.0
220
0.0
230
1.0
 70
     8
 71
     3
 72
     9
 73
     5
 74
     0
 42
0.000000001
 43
0.00000001
 40
0.0
 40
0.0
 40
0.0
 40
0.0
 40
0.0325312145929478
 40
1.0
 40
1.0
 40
1.0
 40
1.0
 10
148.2583423519484
 20
295.2788961694288
 30
0.0
 10
148.2583727921908
 20
295.2837885316279
 30
0.0
 10
148.2593085163174
 20
295.4341783114203
 30
0.0
 10
148.259084117844
 20
295.4022696233358
 30
0.0
 10
148.2588670193256
 20
295.3713989636307
 30
0.0
  0
SPLINE
  5
1FA
330
1F
100
AcDbEntity
  8
0
  6
Continuous
 62
     7
370
    25
100
AcDbSpline
210
0.0
220
0.0
230
1.0
 70
     8
 71
     3
 72
    10
 73
     6
 74
     0
 42
0.000000001
 43
0.00000001
 40
0.0
 40
0.0
 40
0.0
 40
0.0
 40
0.5
 40
0.5
 40
1.0
 40
1.0
 40
1.0
 40
1.0
 10
148.2588669958719
 20
295.3713993404613
 30
0.0
 10
148.2590815574514
 20
295.604229711905
 30
0.0
 10
148.2057989190272
 20
295.8494048682422
 30
0.0
 10
147.992173768622
 20
296.290666238518
 30
0.0
 10
147.832906523327
 20
296.4845317622007
 30
0.0
 10
147.6501422528845
 20
296.6287788451268
 30
0.0
  0
SPLINE
  5
1FB
330
1F
100
AcDbEntity
  8
0
  6
Continuous
 62
     7
370
    25
100
AcDbSpline
210
0.0
220
0.0
230
1.0
 70
     8
 71
     3
 72
     9
 73
     5
 74
     0
 42
0.000000001
 43
0.00000001
 40
0.0
 40
0.0
 40
0.0
 40
0.0
 40
0.0393085032356619
 40
1.0
 40
1.0
 40
1.0
 40
1.0
 10
100.2602373247279
 20
295.2788961694289
 30
0.0
 10
100.2602067992268
 20
295.2838019289508
 30
0.0
 10
100.2594302369416
 20
295.4086034125509
 30
0.0
 10
100.2596137772843
 20
295.3825370154051
 30
0.0
 10
100.2597901029308
 20
295.3574952493158
 30
0.0
  0
SPLINE
  5
1FC
330
1F
100
AcDbEntity
  8
0
  6
Continuous
 62
     7
370
    25
100
AcDbSpline
210
0.0
220
0.0
230
1.0
 70
     8
 71
     3
 72
    10
 73
     6
 74
     0
 42
0.000000001
 43
0.00000001
 40
0.0
 40
0.0
 40
0.0
 40
0.0
 40
0.5
 40
0.5
 40
1.0
 40
1.0
 40
1.0
 40
1.0
 10
100.8683136183576
 20
296.6289356579018
 30
0.0
 10
100.6855509200792
 20
296.4846605905337
 30
0.0
 10
100.526293513389
 20
296.2907619995783
 30
0.0
 10
100.3127109899365
 20
295.8494418609245
 30
0.0
 10
100.2594610802611
 20
295.6042419862962
 30
0.0
 10
100.2597126573507
 20
295.3713989636307
 30
0.0
  0
SPLINE
  5
1FD
330
1F
100
AcDbEntity
  8
0
  6
Continuous
 62
     7
370
    25
100
AcDbSpline
210
0.0
220
0.0
230
1.0
 70
     8
 71
     3
 72
     8
 73
     4
 74
     0
 42
0.000000001
 43
0.00000001
 40
0.0
 40
0.0
 40
0.0
 40
0.0
 40
1.0
 40
1.0
 40
1.0
 40
1.0
 10
101.0248792930376
 20
212.8856467752455
 30
0.0
 10
100.9891074234204
 20
215.7216793255668
 30
0.0
 10
100.9547648011004
 20
218.5117441590802
 30
0.0
 10
100.9217204910304
 20
221.2685061356093
 30
0.0
  0
SPLINE
  5
1FE
330
1F
100
AcDbEntity
  8
0
  6
Continuous
 62
     7
370
    25
100
AcDbSpline
210
0.0
220
0.0
230
1.0
 70
     8
 71
     3
 72
     8
 73
     4
 74
     0
 42
0.000000001
 43
0.00000001
 40
0.0
 40
0.0
 40
0.0
 40
0.0
 40
1.0
 40
1.0
 40
1.0
 40
1.0
 10
147.5968517271395
 20
221.267884637449
 30
0.0
 10
147.5638188946178
 20
218.5109679137357
 30
0.0
 10
147.5294771863215
 20
215.7204308274123
 30
0.0
 10
147.4937003836387
 20
212.8856467752455
 30
0.0
  0
SPLINE
  5
1FF
330
1F
100
AcDbEntity
  8
0
  6
Continuous
 62
     7
370
    25
100
AcDbSpline
210
0.0
220
0.0
230
1.0
 70
     8
 71
     3
 72
     8
 73
     4
 74
     0
 42
0.000000001
 43
0.00000001
 40
0.0
 40
0.0
 40
0.0
 40
0.0
 40
1.0
 40
1.0
 40
1.0
 40
1.0
 10
147.4935080790318
 20
212.8699660676205
 30
0.0
 10
147.4757850612834
 20
211.4655757237974
 30
0.0
 10
147.45766013629
 20
210.0501347489511
 30
0.0
 10
147.4391616809637
 20
208.6228315105892
 30
0.0
  0
SPLINE
  5
200
330
1F
100
AcDbEntity
  8
0
  6
Continuous
 62
     7
370
    25
100
AcDbSpline
210
0.0
220
0.0
230
1.0
 70
     8
 71
     3
 72
     9
 73
     5
 74
     0
 42
0.000000001
 43
0.00000001
 40
0.0
 40
0.0
 40
0.0
 40
0.0
 40
0.497670857832107
 40
1.0
 40
1.0
 40
1.0
 40
1.0
 10
101.0794167113643
 20
208.6228314944062
 30
0.0
 10
101.0703085103932
 20
209.3273865020403
 30
0.0
 10
101.0520068541322
 20
210.7430912726655
 30
0.0
 10
101.0340778559309
 20
212.1588095299083
 30
0.0
 10
101.0250715976444
 20
212.8699660676205
 30
0.0
  0
LINE
  5
201
330
1F
100
AcDbEntity
  8
0
  6
Continuous
 62
     7
370
    25
100
AcDbLine
 10
100.3287663454
 20
284.9223431153
 30
0.0
 11
100.3286269234
 21
284.9417887073
 31
0.0
  0
LINE
  5
202
330
1F
100
AcDbEntity
  8
0
  6
Continuous
 62
     7
370
    25
100
AcDbLine
 10
147.4391475078
 20
208.6228314944
 30
0.0
 11
147.4115856042
 21
208.6228314944
 31
0.0
  0
LINE
  5
203
330
1F
100
AcDbEntity
  8
0
  6
Continuous
 62
     7
370
    25
100
AcDbLine
 10
101.0791814221
 20
208.6228314944
 30
0.0
 11
101.099395327
 21
208.6228314944
 31
0.0
  0
LINE
  5
204
330
1F
100
AcDbEntity
  8
0
  6
Continuous
 62
     7
370
    25
100
AcDbLine
 10
148.258866745
 20
295.3711440877
 30
0.0
 11
148.2572558629
 21
295.3719285679
 31
0.0
  0
SPLINE
  5
205
330
1F
100
AcDbEntity
  8
0
  6
Continuous
 62
     7
370
    25
100
AcDbSpline
210
0.0
220
0.0
230
1.0
 70
     8
 71
     3
 72
     9
 73
     5
 74
     0
 42
0.000000001
 43
0.00000001
 40
0.0
 40
0.0
 40
0.0
 40
0.0
 40
0.7612048989167668
 40
1.0
 40
1.0
 40
1.0
 40
1.0
 10
100.2597129316535
 20
295.371144087652
 30
0.0
 10
100.2602442230091
 20
295.3718295616765
 30
0.0
 10
100.2609421840395
 20
295.3727300735171
 30
0.0
 10
100.2619177245102
 20
295.371556319208
 30
0.0
 10
100.2621506787955
 20
295.3712760324291
 30
0.0
  0
LINE
  5
206
330
1F
100
AcDbEntity
  8
0
  6
Continuous
 62
     7
370
    25
100
AcDbLine
 10
100.8695317975
 20
296.6308516863
 30
0.0
 11
100.8694513657
 21
296.6306884988
 31
0.0
  0
LINE
  5
207
330
1F
100
AcDbEntity
  8
0
  6
Continuous
 62
     7
370
    25
100
AcDbLine
 10
147.6467439391
 20
296.634582812
 30
0.0
 11
147.6470430246
 21
296.6343532595
 31
0.0
  0
LINE
  5
208
330
1F
100
AcDbEntity
  8
0
  6
Continuous
 62
     7
370
    25
100
AcDbLine
 10
147.649059025
 20
296.6308850434
 30
0.0
 11
147.6491383248
 21
296.6307250957
 31
0.0
  0
SPLINE
  5
209
330
1F
100
AcDbEntity
  8
0
  6
Continuous
 62
     7
370
    25
100
AcDbSpline
210
0.0
220
0.0
230
1.0
 70
     8
 71
     3
 72
     9
 73
     5
 74
     0
 42
0.000000001
 43
0.00000001
 40
0.0
 40
0.0
 40
0.0
 40
0.0
 40
0.4777457775314
 40
1.0
 40
1.0
 40
1.0
 40
1.0
 10
100.4027000130828
 20
295.9885291549655
 30
0.0
 10
100.3783721131927
 20
295.9498702732035
 30
0.0
 10
100.3274498423234
 20
295.8689509148749
 30
0.0
 10
100.320921649405
 20
295.7745451974108
 30
0.0
 10
100.3175122730883
 20
295.72524141284
 30
0.0
  0
SPLINE
  5
20A
330
1F
100
AcDbEntity
  8
0
  6
Continuous
 62
     7
370
    25
100
AcDbSpline
210
0.0
220
0.0
230
1.0
 70
     8
 71
     3
 72
    10
 73
     6
 74
     0
 42
0.000000001
 43
0.00000001
 40
0.0
 40
0.0
 40
0.0
 40
0.0
 40
0.5
 40
0.5
 40
0.9700052590010805
 40
0.9700052590010805
 40
0.9700052590010805
 40
0.9700052590010805
 10
124.2592898383371
 20
305.5667280080647
 30
0.0
 10
128.6194558570747
 20
305.5672023275224
 30
0.0
 10
132.9470799341908
 20
304.812095251562
 30
0.0
 10
140.9029413252888
 20
301.950561577981
 30
0.0
 10
144.4412028450019
 20
299.9887181085638
 30
0.0
 10
147.6492012906801
 20
297.4580912205373
 30
0.0
  0
SPLINE
  5
20B
330
1F
100
AcDbEntity
  8
0
  6
Continuous
 62
     7
370
    25
100
AcDbSpline
210
0.0
220
0.0
230
1.0
 70
     8
 71
     3
 72
     8
 73
     4
 74
     0
 42
0.000000001
 43
0.00000001
 40
0.0
 40
0.0
 40
0.0
 40
0.0
 40
1.0
 40
1.0
 40
1.0
 40
1.0
 10
100.8694854078644
 20
297.4579554281647
 30
0.0
 10
107.5280127508481
 20
302.7057360385705
 30
0.0
 10
115.7663456058029
 20
305.5671338961445
 30
0.0
 10
124.2592898383371
 20
305.5672745285261
 30
0.0
  0
SPLINE
  5
20C
330
1F
100
AcDbEntity
  8
0
  6
Continuous
 62
     7
370
    25
100
AcDbSpline
210
0.0
220
0.0
230
1.0
 70
     8
 71
     3
 72
    10
 73
     6
 74
     0
 42
0.000000001
 43
0.00000001
 40
0.0
 40
0.0
 40
0.0
 40
0.0
 40
0.5
 40
0.5
 40
1.0
 40
1.0
 40
1.0
 40
1.0
 10
147.6488734186489
 20
297.4581294853196
 30
0.0
 10
147.8385640619175
 20
297.3086310894673
 30
0.0
 10
147.9937060368955
 20
297.115566561543
 30
0.0
 10
148.2040263044731
 20
296.6807164869977
 30
0.0
 10
148.2590586115165
 20
296.4392327744831
 30
0.0
 10
148.2584886023365
 20
296.1977126404586
 30
0.0
  0
SPLINE
  5
20D
330
1F
100
AcDbEntity
  8
0
  6
Continuous
 62
     7
370
    25
100
AcDbSpline
210
0.0
220
0.0
230
1.0
 70
     8
 71
     3
 72
    10
 73
     6
 74
     0
 42
0.000000001
 43
0.00000001
 40
0.0
 40
0.0
 40
0.0
 40
0.0
 40
0.5
 40
0.5
 40
1.0
 40
1.0
 40
1.0
 40
1.0
 10
100.2600906673319
 20
296.1978850240075
 30
0.0
 10
100.2595209465013
 20
296.4393232388507
 30
0.0
 10
100.3145117014522
 20
296.6807098773236
 30
0.0
 10
100.5246470993964
 20
297.1154059340313
 30
0.0
 10
100.6796455259015
 20
297.3084146267501
 30
0.0
 10
100.8691574936341
 20
297.4579170557378
 30
0.0
  0
LINE
  5
20E
330
1F
100
AcDbEntity
  8
0
  6
Continuous
 62
     8
370
    18
100
AcDbLine
 10
101.5926070988
 20
284.9612268119
 30
0.0
 11
101.5927575196
 21
284.9417887073
 31
0.0
  0
LWPOLYLINE
  5
20F
330
1F
100
AcDbEntity
  8
0
  6
Continuous
 62
     8
370
    18
100
AcDbPolyline
 90
        3
 70
   128
 43
0.0
 10
101.5870841258
 20
285.6802143382
 10
101.5898456507
 20
285.3207205758
 10
101.5926070988
 20
284.9612268119
  0
SPLINE
  5
210
330
1F
100
AcDbEntity
  8
0
  6
Continuous
 62
     8
370
    18
100
AcDbSpline
210
0.0
220
0.0
230
1.0
 70
     8
 71
     3
 72
    25
 73
    21
 74
     0
 42
0.000000001
 43
0.00000001
 40
0.0
 40
0.0
 40
0.0
 40
0.0
 40
0.0265870421687291
 40
0.0531580029932307
 40
0.0797178662861997
 40
0.106271576867182
 40
0.1328241171761157
 40
0.1593804473980164
 40
0.185945531338717
 40
0.21252432404129
 40
0.239121771454893
 40
0.2657428081562695
 40
0.3984976819582565
 40
0.5314911541539437
 40
0.6640594731399996
 40
0.7969143024292579
 40
0.8476853781681927
 40
0.898434438985469
 40
0.9491948447863525
 40
1.0
 40
1.0
 40
1.0
 40
1.0
 10
124.259289838338
 20
291.7417887073354
 30
0.0
 10
124.0481787422365
 20
291.7409439958918
 30
0.0
 10
123.6260842419438
 20
291.7392550839336
 30
0.0
 10
122.9932322949983
 20
291.7255817897909
 30
0.0
 10
122.3609181416153
 20
291.7037513942795
 30
0.0
 10
121.7291562797801
 20
291.6729655599509
 30
0.0
 10
121.0979642384878
 20
291.6334380941473
 30
0.0
 10
120.4673575911914
 20
291.5851117624153
 30
0.0
 10
119.8373522453112
 20
291.5280017894127
 30
0.0
 10
119.2079659468358
 20
291.4621046432821
 30
0.0
 10
118.5792079229832
 20
291.3874193750654
 30
0.0
 10
117.1166982466144
 20
291.1930684516281
 30
0.0
 10
114.8313040337219
 20
290.7921268776568
 30
0.0
 10
111.7677720180921
 20
290.031595477607
 30
0.0
 10
108.7678388573375
 20
289.0628307731975
 30
0.0
 10
106.4496905677743
 20
288.1321366256631
 30
0.0
 10
104.7692564203651
 20
287.3631129567942
 30
0.0
 10
103.6918851472397
 20
286.8346459059682
 30
0.0
 10
102.6280682403261
 20
286.2800459451557
 30
0.0
 10
101.9320394487401
 20
285.8870141813615
 30
0.0
 10
101.5838717190838
 20
285.6904117152893
 30
0.0
  0
LINE
  5
211
330
1F
100
AcDbEntity
  8
0
  6
Continuous
 62
     8
370
    18
100
AcDbLine
 10
146.9314955509
 20
285.6802143382
 30
0.0
 11
146.9259725779
 21
284.9612268119
 31
0.0
  0
LINE
  5
212
330
1F
100
AcDbEntity
  8
0
  6
Continuous
 62
     8
370
    18
100
AcDbLine
 10
146.9259725779
 20
284.9612268119
 30
0.0
 11
146.9258221372
 21
284.9417856242
 31
0.0
  0
SPLINE
  5
213
330
1F
100
AcDbEntity
  8
0
  6
Continuous
 62
     8
370
    18
100
AcDbSpline
210
0.0
220
0.0
230
1.0
 70
     8
 71
     3
 72
    26
 73
    22
 74
     0
 42
0.000000001
 43
0.00000001
 40
0.0
 40
0.0
 40
0.0
 40
0.0
 40
0.0665622444973089
 40
0.2067612152861945
 40
0.2908805977595259
 40
0.3749999802328573
 40
0.403840911366571
 40
0.4254716097168562
 40
0.4254716097168562
 40
0.4561860708431063
 40
0.4582337015848563
 40
0.5073768393868565
 40
0.5128371880315232
 40
0.6111234636355236
 40
0.6438855555035238
 40
0.7749339229755243
 40
0.8400729358065468
 40
0.8791563435051604
 40
0.9182397512037738
 40
0.9338731142832192
 40
0.9416897958229419
 40
0.9416897958229419
 40
0.9416897958229419
 40
0.9416897958229419
 10
146.9296362780552
 20
285.6820107597985
 30
0.0
 10
146.4483884345401
 20
285.9608008366425
 30
0.0
 10
144.9448433275368
 20
286.8115873295739
 30
0.0
 10
142.748616807236
 20
287.8661301639802
 30
0.0
 10
140.3468475868978
 20
288.8292437660878
 30
0.0
 10
138.7830594106043
 20
289.3728706129842
 30
0.0
 10
137.7043634714594
 20
289.7122982339702
 30
0.0
 10
137.298244771848
 20
289.834396009578
 30
0.0
 10
136.876302961497
 20
289.9585729523147
 30
0.0
 10
136.6115509876794
 20
290.0341133537976
 30
0.0
 10
135.947813747997
 20
290.2167375366383
 30
0.0
 10
135.486798835637
 20
290.336461221738
 30
0.0
 10
134.2376019012745
 20
290.6404878601327
 30
0.0
 10
133.113852579272
 20
290.8795575408831
 30
0.0
 10
130.9404273342921
 20
291.2592602260787
 30
0.0
 10
129.0262433306901
 20
291.5040679764207
 30
0.0
 10
127.048094751586
 20
291.6473054360251
 30
0.0
 10
125.8409948051967
 20
291.7042050604635
 30
0.0
 10
125.0502325132867
 20
291.7278254406469
 30
0.0
 10
124.515456118189
 20
291.7377774768267
 30
0.0
 10
124.3233463861515
 20
291.7409341915807
 30
0.0
 10
124.2592898383381
 20
291.7417887073354
 30
0.0
  0
SPLINE
  5
214
330
1F
100
AcDbEntity
  8
0
  6
Continuous
 62
     8
370
    18
100
AcDbSpline
210
0.0
220
0.0
230
1.0
 70
     8
 71
     3
 72
    22
 73
    18
 74
     0
 42
0.000000001
 43
0.00000001
 40
0.0
 40
0.0
 40
0.0
 40
0.0
 40
0.122873684423126
 40
0.1868444796776039
 40
0.2497648137606425
 40
0.3051492535465388
 40
0.3769125111843799
 40
0.4444623155219948
 40
0.5032807597435595
 40
0.6385080372137906
 40
0.7574348644716351
 40
0.7890911115352846
 40
0.8207100437487139
 40
0.8456937917313918
 40
0.8820250887595771
 40
0.9419719353815543
 40
1.0
 40
1.0
 40
1.0
 40
1.0
 10
100.868324015385
 20
296.6290183917413
 30
0.0
 10
100.8677248063431
 20
296.6230349250345
 30
0.0
 10
100.8668136356383
 20
296.6139363313956
 30
0.0
 10
100.8824738389872
 20
296.4001038943805
 30
0.0
 10
100.9024059696294
 20
296.1261665069244
 30
0.0
 10
100.932314145156
 20
295.721400394927
 30
0.0
 10
100.9680239439867
 20
295.1776993870699
 30
0.0
 10
101.0087559192556
 20
294.5009764623642
 30
0.0
 10
101.0706159666827
 20
293.4755025324442
 30
0.0
 10
101.1641587607633
 20
292.02128577661
 30
0.0
 10
101.2852726533493
 20
290.4766728770493
 30
0.0
 10
101.3759643641046
 20
289.4384382821528
 30
0.0
 10
101.420879787437
 20
288.9259789546048
 30
0.0
 10
101.4631788935096
 20
288.3796645174953
 30
0.0
 10
101.5135029154659
 20
287.6600072516206
 30
0.0
 10
101.5668233355329
 20
286.7361899169773
 30
0.0
 10
101.5795411713549
 20
286.0283509611752
 30
0.0
 10
101.5857966657743
 20
285.6801877438024
 30
0.0
  0
SPLINE
  5
215
330
1F
100
AcDbEntity
  8
0
  6
Continuous
 62
     8
370
    18
100
AcDbSpline
210
0.0
220
0.0
230
1.0
 70
     8
 71
     3
 72
    25
 73
    21
 74
     0
 42
0.000000001
 43
0.00000001
 40
0.0325751471078963
 40
0.0325751471078963
 40
0.0325751471078963
 40
0.0325751471078963
 40
0.0625334523177816
 40
0.1016168600163951
 40
0.1667558728474175
 40
0.2978042403194181
 40
0.3305663321874182
 40
0.4288526077914186
 40
0.4343129564360854
 40
0.4834560942380856
 40
0.4855037249798356
 40
0.5162181861060857
 40
0.5162181861060857
 40
0.5378488844563709
 40
0.5666898155900846
 40
0.650809198063416
 40
0.7349285805367474
 40
0.875127551325633
 40
0.9531728317471124
 40
0.9703009293615498
 40
0.9703009293615498
 40
0.9703009293615498
 40
0.9703009293615498
 10
123.4108727835489
 20
304.7397935986291
 30
0.0
 10
123.1476724871688
 20
304.7359456684106
 30
0.0
 10
122.5479573944963
 20
304.7163758679013
 30
0.0
 10
121.3863290976692
 20
304.650831839929
 30
0.0
 10
119.3613440745182
 20
304.4640021888659
 30
0.0
 10
117.4171068676178
 20
304.1510800550721
 30
0.0
 10
115.216060908176
 20
303.6675693567683
 30
0.0
 10
114.0799140415598
 20
303.3635313269209
 30
0.0
 10
112.8163650428322
 20
302.9767150408673
 30
0.0
 10
112.3499119413488
 20
302.8243567846447
 30
0.0
 10
111.6778757642288
 20
302.5918445498855
 30
0.0
 10
111.4095382852183
 20
302.4956846812011
 30
0.0
 10
110.9820896760768
 20
302.3374248492815
 30
0.0
 10
110.5708119496982
 20
302.1816910270294
 30
0.0
 10
109.4822211801189
 20
301.7474626282405
 30
0.0
 10
107.9143418569704
 20
301.0499005415414
 30
0.0
 10
105.5297289793074
 20
299.8185794977145
 30
0.0
 10
103.2919266791764
 20
298.4349972872658
 30
0.0
 10
101.6388302497416
 20
297.230276137953
 30
0.0
 10
100.9853795277034
 20
296.7214317809311
 30
0.0
 10
100.8683451166815
 20
296.6290350508792
 30
0.0
  0
SPLINE
  5
216
330
1F
100
AcDbEntity
  8
0
  6
Continuous
 62
     8
370
    18
100
AcDbSpline
210
0.0
220
0.0
230
1.0
 70
     8
 71
     3
 72
    24
 73
    20
 74
     0
 42
0.000000001
 43
0.00000001
 40
0.0
 40
0.0
 40
0.0
 40
0.0
 40
0.1250000000000004
 40
0.1250000000000004
 40
0.1875000000000003
 40
0.1875000000000003
 40
0.2500000000000003
 40
0.2500000000000003
 40
0.3750000000000002
 40
0.3750000000000002
 40
0.5000000000000002
 40
0.5000000000000002
 40
0.6250000000000002
 40
0.6250000000000002
 40
0.7500000000000001
 40
0.7500000000000001
 40
0.875
 40
0.875
 40
1.0
 40
1.0
 40
1.0
 40
1.0
 10
146.932783010902
 20
285.6801877438024
 30
0.0
 10
146.9392287523114
 20
286.3766604471986
 30
0.0
 10
146.9669117267309
 20
287.0731414088128
 30
0.0
 10
147.0402883538649
 20
288.1625952856533
 30
0.0
 10
147.0663389715606
 20
288.524672967991
 30
0.0
 10
147.1242062933459
 20
289.2476823045096
 30
0.0
 10
147.1577792465873
 20
289.6162488063513
 30
0.0
 10
147.2525674900569
 20
290.6997810780591
 30
0.0
 10
147.3043601269602
 20
291.3854224098316
 30
0.0
 10
147.3948579679188
 20
292.6549700380226
 30
0.0
 10
147.4325889438797
 20
293.2387744061027
 30
0.0
 10
147.4972500954996
 20
294.2853858000981
 30
0.0
 10
147.5244301523309
 20
294.7489641989637
 30
0.0
 10
147.573496697595
 20
295.5368427349008
 30
0.0
 10
147.5965675605523
 20
295.8597962361809
 30
0.0
 10
147.6309189379726
 20
296.3279410995332
 30
0.0
 10
147.6416044341212
 20
296.4738554865614
 30
0.0
 10
147.6515811354973
 20
296.6177904915089
 30
0.0
 10
147.650944758328
 20
296.6235393346138
 30
0.0
 10
147.6502556612912
 20
296.6290183917413
 30
0.0
  0
SPLINE
  5
217
330
1F
100
AcDbEntity
  8
0
  6
Continuous
 62
     8
370
    18
100
AcDbSpline
210
0.0
220
0.0
230
1.0
 70
     8
 71
     3
 72
    28
 73
    24
 74
     0
 42
0.000000001
 43
0.00000001
 40
0.0
 40
0.0
 40
0.0
 40
0.0
 40
0.025346757466443
 40
0.0506614080608386
 40
0.0759460054864693
 40
0.1012025597393812
 40
0.1264330391883549
 40
0.1516393726575119
 40
0.1768234515151513
 40
0.2019871317732069
 40
0.2271322362024075
 40
0.2832500714111414
 40
0.345098097042805
 40
0.4126863147799847
 40
0.4860360724193362
 40
0.5237049137514412
 40
0.6092779617801871
 40
0.7429059151096761
 40
0.8029735180804533
 40
0.8587244205079048
 40
0.9101535621679399
 40
0.9572503465993515
 40
1.0
 40
1.0
 40
1.0
 40
1.0
 10
147.6501082982817
 20
296.6288773284523
 30
0.0
 10
147.4878076225458
 20
296.7557217164316
 30
0.0
 10
147.1634118582002
 20
297.0092498179316
 30
0.0
 10
146.6693307333693
 20
297.3791735286205
 30
0.0
 10
146.1703204953296
 20
297.7411270691983
 30
0.0
 10
145.6659275086581
 20
298.0943489911863
 30
0.0
 10
145.1564178772511
 20
298.4389901392243
 30
0.0
 10
144.6418645810612
 20
298.7749575930147
 30
0.0
 10
144.1223947659863
 20
299.102222661592
 30
0.0
 10
143.5981120130066
 20
299.4207431117886
 30
0.0
 10
142.8518672289035
 20
299.8577009744874
 30
0.0
 10
141.8330068550503
 20
300.4189192540346
 30
0.0
 10
140.4850590859976
 20
301.0958192919601
 30
0.0
 10
138.9823143880943
 20
301.7734249397463
 30
0.0
 10
137.6329014404319
 20
302.3094923137456
 30
0.0
 10
136.128224328406
 20
302.8456789436106
 30
0.0
 10
134.1351462008465
 20
303.4678613128457
 30
0.0
 10
131.9238175410138
 20
303.9899467316397
 30
0.0
 10
129.9258244480042
 20
304.3313845651364
 30
0.0
 10
128.5784341083073
 20
304.5103301862178
 30
0.0
 10
127.3305469485023
 20
304.6315773867016
 30
0.0
 10
126.1848605602767
 20
304.7086133905096
 30
0.0
 10
125.4550176298335
 20
304.7310959912325
 30
0.0
 10
125.1077525287765
 20
304.7417933923942
 30
0.0
  0
SPLINE
  5
218
330
1F
100
AcDbEntity
  8
0
  6
Continuous
 62
     8
370
    18
100
AcDbSpline
210
0.0
220
0.0
230
1.0
 70
     8
 71
     3
 72
    14
 73
    10
 74
     0
 42
0.000000001
 43
0.00000001
 40
0.0
 40
0.0
 40
0.0
 40
0.0
 40
0.5
 40
0.5
 40
0.75
 40
0.75
 40
0.875
 40
0.875
 40
1.0
 40
1.0
 40
1.0
 40
1.0
 10
146.7195523459121
 20
262.5139660387995
 30
0.0
 10
146.7640838866715
 20
266.2508484016309
 30
0.0
 10
146.8034926595802
 20
269.9870256626845
 30
0.0
 10
146.8539832169037
 20
275.5922093397964
 30
0.0
 10
146.8694936566749
 20
277.4606771505144
 30
0.0
 10
146.8913926630169
 20
280.2640915009223
 30
0.0
 10
146.8984816536945
 20
281.19882283613
 30
0.0
 10
146.9123017426145
 20
283.0702540759208
 30
0.0
 10
146.9187117200694
 20
284.0086807867151
 30
0.0
 10
146.9258374615046
 20
284.941788692552
 30
0.0
  0
SPLINE
  5
219
330
1F
100
AcDbEntity
  8
0
  6
Continuous
 62
     8
370
    18
100
AcDbSpline
210
0.0
220
0.0
230
1.0
 70
     8
 71
     3
 72
    18
 73
    14
 74
     0
 42
0.000000001
 43
0.00000001
 40
0.0
 40
0.0
 40
0.0
 40
0.0
 40
0.2499999999999998
 40
0.2499999999999998
 40
0.4999999999999996
 40
0.4999999999999996
 40
0.7499999999999996
 40
0.7499999999999996
 40
0.8749999999999998
 40
0.8749999999999998
 40
0.9374999999999999
 40
0.9374999999999999
 40
1.0
 40
1.0
 40
1.0
 40
1.0
 10
146.3381620828147
 20
221.2837736740866
 30
0.0
 10
146.377578772985
 20
224.7175647470754
 30
0.0
 10
146.4138480259394
 20
228.153863140359
 30
0.0
 10
146.4763994455361
 20
235.0260215730976
 30
0.0
 10
146.5042463737552
 20
238.4624149408303
 30
0.0
 10
146.5607864732887
 20
245.3358288789921
 30
0.0
 10
146.5894204461979
 20
248.772630409796
 30
0.0
 10
146.635849566247
 20
253.9267076279791
 30
0.0
 10
146.6518484877365
 20
255.6445478108855
 30
0.0
 10
146.6766673630358
 20
258.2208588204346
 30
0.0
 10
146.6850859180242
 20
259.0795561423947
 30
0.0
 10
146.7023126390612
 20
260.7968358813537
 30
0.0
 10
146.7097227173249
 20
261.6554300132334
 30
0.0
 10
146.7201485783282
 20
262.5139588673254
 30
0.0
  0
SPLINE
  5
21A
330
1F
100
AcDbEntity
  8
0
  6
Continuous
 62
     8
370
    18
100
AcDbSpline
210
0.0
220
0.0
230
1.0
 70
     8
 71
     3
 72
     8
 73
     4
 74
     0
 42
0.000000001
 43
0.00000001
 40
0.0
 40
0.0
 40
0.0
 40
0.0
 40
1.0
 40
1.0
 40
1.0
 40
1.0
 10
146.2362540481784
 20
212.901152690394
 30
0.0
 10
146.2735955787509
 20
215.7354864794556
 30
0.0
 10
146.3063109884184
 20
218.5271751984614
 30
0.0
 10
146.3383823266336
 20
221.2837710467847
 30
0.0
  0
LINE
  5
21B
330
1F
100
AcDbEntity
  8
0
  6
Continuous
 62
     8
370
    18
100
AcDbLine
 10
146.2362540482
 20
212.9011526904
 30
0.0
 11
146.2360497191
 21
212.8856481092
 31
0.0
  0
LWPOLYLINE
  5
21C
330
1F
100
AcDbEntity
  8
0
  6
Continuous
 62
     8
370
    18
100
AcDbPolyline
 90
        3
 70
   128
 43
0.0
 10
102.2823256285
 20
212.9011526904
 10
102.2824278655
 20
212.8934003054
 10
102.2825299576
 20
212.8856481092
  0
SPLINE
  5
21D
330
1F
100
AcDbEntity
  8
0
  6
Continuous
 62
     8
370
    18
100
AcDbSpline
210
0.0
220
0.0
230
1.0
 70
     8
 71
     3
 72
    10
 73
     6
 74
     0
 42
0.000000001
 43
0.00000001
 40
0.0
 40
0.0
 40
0.0
 40
0.0
 40
0.4965199982285588
 40
0.7473474849113952
 40
1.0
 40
1.0
 40
1.0
 40
1.0
 10
102.1801840810641
 20
221.2837709214252
 30
0.0
 10
102.1963315237612
 20
219.8963825712384
 30
0.0
 10
102.220636185669
 20
217.8081259092576
 30
0.0
 10
102.2548914414866
 20
215.0139217696671
 30
0.0
 10
102.2731588274501
 20
213.6071088684148
 30
0.0
 10
102.2823256284978
 20
212.901152690394
 30
0.0
  0
SPLINE
  5
21E
330
1F
100
AcDbEntity
  8
0
  6
Continuous
 62
     8
370
    18
100
AcDbSpline
210
0.0
220
0.0
230
1.0
 70
     8
 71
     3
 72
    15
 73
    11
 74
     0
 42
0.000000001
 43
0.00000001
 40
0.0
 40
0.0
 40
0.0
 40
0.0
 40
0.0510956450227232
 40
0.1428083941503636
 40
0.2499458770181842
 40
0.4999929585779317
 40
0.5706745620003725
 40
0.7500307425316012
 40
0.881857365686741
 40
1.0
 40
1.0
 40
1.0
 40
1.0
 10
101.798431098347
 20
262.5139588673254
 30
0.0
 10
101.8059654935539
 20
261.8117412354562
 30
0.0
 10
101.8270235481084
 20
259.8490970158416
 30
0.0
 10
101.8592409403918
 20
256.4139934923474
 30
0.0
 10
101.9169917241071
 20
250.2446235526349
 30
0.0
 10
101.9667128028949
 20
244.3642432068688
 30
0.0
 10
102.0209959897206
 20
237.4912962995034
 30
0.0
 10
102.0662461594363
 20
232.2431497498442
 30
0.0
 10
102.1236663123644
 20
226.3427823364321
 30
0.0
 10
102.1622160414894
 20
222.9074230724977
 30
0.0
 10
102.1804357481727
 20
221.2837738391316
 30
0.0
  0
SPLINE
  5
21F
330
1F
100
AcDbEntity
  8
0
  6
Continuous
 62
     8
370
    18
100
AcDbSpline
210
0.0
220
0.0
230
1.0
 70
     8
 71
     3
 72
    16
 73
    12
 74
     0
 42
0.000000001
 43
0.00000001
 40
0.0
 40
0.0
 40
0.0
 40
0.0
 40
0.0416527772969001
 40
0.0834009545711122
 40
0.1251395300581697
 40
0.166852015672292
 40
0.2085463768955512
 40
0.2502287096017886
 40
0.5001752719931154
 40
0.7479356987990948
 40
1.0
 40
1.0
 40
1.0
 40
1.0
 10
101.5927422151557
 20
284.9417886925518
 30
0.0
 10
101.5951123512541
 20
284.6303925647367
 30
0.0
 10
101.5998580519227
 20
284.0068870989566
 30
0.0
 10
101.6069129258882
 20
283.0713358359401
 30
0.0
 10
101.6138844503257
 20
282.1353401136572
 30
0.0
 10
101.6207816862531
 20
281.1997447433001
 30
0.0
 10
101.6276680050751
 20
280.2645699482954
 30
0.0
 10
101.6456798233917
 20
277.772621079622
 30
0.0
 10
101.6803362131355
 20
273.7401496073937
 30
0.0
 10
101.7341842681902
 20
268.1349157765222
 30
0.0
 10
101.7772892542279
 20
264.398340876955
 30
0.0
 10
101.7990273307476
 20
262.5139660387994
 30
0.0
  0
SPLINE
  5
220
330
1F
100
AcDbEntity
  8
0
  6
Continuous
 62
     8
370
    18
100
AcDbSpline
210
0.0
220
0.0
230
1.0
 70
     8
 71
     3
 72
     9
 73
     5
 74
     0
 42
0.000000001
 43
0.00000001
 40
0.0
 40
0.0
 40
0.0
 40
0.0
 40
0.4977344376655771
 40
1.0
 40
1.0
 40
1.0
 40
1.0
 10
102.2824323101586
 20
212.8856467752456
 30
0.0
 10
102.2917986267182
 20
212.1803124174012
 30
0.0
 10
102.3106165260856
 20
210.7632226914973
 30
0.0
 10
102.3330564425512
 20
209.3461900449586
 30
0.0
 10
102.3443272398136
 20
208.6344633458986
 30
0.0
  0
SPLINE
  5
221
330
1F
100
AcDbEntity
  8
0
  6
Continuous
 62
     8
370
    18
100
AcDbSpline
210
0.0
220
0.0
230
1.0
 70
     8
 71
     3
 72
    26
 73
    22
 74
     0
 42
0.000000001
 43
0.00000001
 40
0.0
 40
0.0
 40
0.0
 40
0.0
 40
0.0198067341554862
 40
0.0354858818469119
 40
0.0470601643043725
 40
0.0545516184709669
 40
0.0745299380694964
 40
0.1119481173503084
 40
0.1785054974944449
 40
0.2359450354793553
 40
0.3000146728050583
 40
0.3637210695169696
 40
0.4906372644088227
 40
0.6179924630011355
 40
0.7454531344156277
 40
0.8283653313802626
 40
0.8914394695212117
 40
0.9462194326858334
 40
0.9733326051637228
 40
0.9869130414454503
 40
1.0
 40
1.0
 40
1.0
 40
1.0
 10
108.4076943429734
 20
197.0267337624878
 30
0.0
 10
108.5094841791632
 20
197.0012452264092
 30
0.0
 10
108.6918515534054
 20
196.9555797889557
 30
0.0
 10
108.9353697432176
 20
196.9020486470885
 30
0.0
 10
109.1157153991878
 20
196.8652139217884
 30
0.0
 10
109.318918984525
 20
196.8265730960877
 30
0.0
 10
109.6579657871174
 20
196.76970552936
 30
0.0
 10
110.308464964344
 20
196.6791502500229
 30
0.0
 10
111.1598450461628
 20
196.5956914135175
 30
0.0
 10
112.1540612203692
 20
196.5289053379621
 30
0.0
 10
113.1338845001125
 20
196.4735305291589
 30
0.0
 10
114.482084561784
 20
196.4138726419172
 30
0.0
 10
116.1660252586269
 20
196.3586784762862
 30
0.0
 10
118.1879816905851
 20
196.3066527098451
 30
0.0
 10
119.9772211492148
 20
196.2757248817361
 30
0.0
 10
121.4260662545117
 20
196.2654507164274
 30
0.0
 10
122.4898112709568
 20
196.2590197615432
 30
0.0
 10
123.2578964879302
 20
196.25547847247
 30
0.0
 10
123.7637142116879
 20
196.2508799509778
 30
0.0
 10
124.048649158115
 20
196.2479312201392
 30
0.0
 10
124.189947850934
 20
196.2475677416938
 30
0.0
 10
124.2592898375843
 20
196.2473893655389
 30
0.0
  0
SPLINE
  5
222
330
1F
100
AcDbEntity
  8
0
  6
Continuous
 62
     8
370
    18
100
AcDbSpline
210
0.0
220
0.0
230
1.0
 70
     8
 71
     3
 72
    23
 73
    19
 74
     0
 42
0.000000001
 43
0.00000001
 40
0.0
 40
0.0
 40
0.0
 40
0.0
 40
0.0473762381553986
 40
0.1169273846899138
 40
0.2094578964583033
 40
0.357849542985208
 40
0.4651219645183926
 40
0.5287060517258461
 40
0.5867229008568243
 40
0.6390626137618878
 40
0.6856413375237379
 40
0.7263978193802526
 40
0.7955317573660526
 40
0.8567522682164052
 40
0.888753679970379
 40
0.9233043483774417
 40
0.9603993773716881
 40
1.0
 40
1.0
 40
1.0
 40
1.0
 10
102.3440766985464
 20
208.6344593206035
 30
0.0
 10
102.3471077898466
 20
208.4101238871221
 30
0.0
 10
102.3545887041674
 20
207.8564506418082
 30
0.0
 10
102.3763461097317
 20
206.8646795458647
 30
0.0
 10
102.4645708347342
 20
205.3966011480596
 30
0.0
 10
102.7006193557673
 20
203.7600727572997
 30
0.0
 10
103.1073358329077
 20
202.299454294158
 30
0.0
 10
103.5158058975114
 20
201.2940945147671
 30
0.0
 10
103.8883361407703
 20
200.5582912445235
 30
0.0
 10
104.2817343340801
 20
199.9266343142638
 30
0.0
 10
104.6781833352526
 20
199.3961715300895
 30
0.0
 10
105.1684939627922
 20
198.8397530053083
 30
0.0
 10
105.7690958873343
 20
198.2915635972862
 30
0.0
 10
106.404331165009
 20
197.8541110876049
 30
0.0
 10
106.9368525503102
 20
197.565828491059
 30
0.0
 10
107.3845479039383
 20
197.363896266898
 30
0.0
 10
107.878090731041
 20
197.1782270218569
 30
0.0
 10
108.2273563700384
 20
197.0783194321397
 30
0.0
 10
108.4076943223781
 20
197.0267336815216
 30
0.0
  0
SPLINE
  5
223
330
1F
100
AcDbEntity
  8
0
  6
Continuous
 62
     8
370
    18
100
AcDbSpline
210
0.0
220
0.0
230
1.0
 70
     8
 71
     3
 72
    38
 73
    34
 74
     0
 42
0.000000001
 43
0.00000001
 40
0.0
 40
0.0
 40
0.0
 40
0.0
 40
0.03125
 40
0.03125
 40
0.0625000000000001
 40
0.0625000000000001
 40
0.1250000000000002
 40
0.1250000000000002
 40
0.2500000000000004
 40
0.2500000000000004
 40
0.3750000000000005
 40
0.3750000000000005
 40
0.5000000000000006
 40
0.5000000000000006
 40
0.6250000000000007
 40
0.6250000000000007
 40
0.6875000000000006
 40
0.6875000000000006
 40
0.7500000000000004
 40
0.7500000000000004
 40
0.875
 40
0.875
 40
0.9374999999999999
 40
0.9374999999999999
 40
0.9687499999999999
 40
0.9687499999999999
 40
0.9843750000000001
 40
0.9843750000000001
 40
0.9921875000000001
 40
0.9921875000000001
 40
0.9960937500000001
 40
0.9960937500000001
 40
1.0
 40
1.0
 40
1.0
 40
1.0
 10
124.2592898383052
 20
196.2473899556915
 30
0.0
 10
124.4239419583441
 20
196.2475160258542
 30
0.0
 10
124.5877462783077
 20
196.249239388698
 30
0.0
 10
124.9213665152319
 20
196.252296835882
 30
0.0
 10
125.0897796475407
 20
196.2538372017948
 30
0.0
 10
125.5969379325164
 20
196.2577167100787
 30
0.0
 10
125.9364610317297
 20
196.2587579065073
 30
0.0
 10
126.9528268546518
 20
196.2633719648175
 30
0.0
 10
127.6295606400124
 20
196.2676324070977
 30
0.0
 10
128.9810429403937
 20
196.2839961154922
 30
0.0
 10
129.6558434263275
 20
196.2952546464998
 30
0.0
 10
131.0063329926887
 20
196.3237713229774
 30
0.0
 10
131.6828915044125
 20
196.3410550543055
 30
0.0
 10
133.0267385979309
 20
196.3811788327848
 30
0.0
 10
133.6982104176817
 20
196.4033275038105
 30
0.0
 10
134.7074597362565
 20
196.4432891815715
 30
0.0
 10
135.0444772056771
 20
196.4582122056374
 30
0.0
 10
135.7208597559304
 20
196.4927920957096
 30
0.0
 10
136.0611138797258
 20
196.5117701250556
 30
0.0
 10
137.0761795713113
 20
196.5748103165895
 30
0.0
 10
137.7394083426859
 20
196.6264809206509
 30
0.0
 10
138.6743065507634
 20
196.7417515424114
 30
0.0
 10
138.9754400140803
 20
196.7862597378532
 30
0.0
 10
139.4091897121287
 20
196.8656114426277
 30
0.0
 10
139.5510109086009
 20
196.8941470441455
 30
0.0
 10
139.7601386126579
 20
196.9404028289811
 30
0.0
 10
139.8292654360665
 20
196.9564044704858
 30
0.0
 10
139.9320558730735
 20
196.981283057461
 30
0.0
 10
139.9661628498734
 20
196.9897189003123
 30
0.0
 10
140.0170856982781
 20
197.0025849084182
 30
0.0
 10
140.0337189556543
 20
197.0068369174805
 30
0.0
 10
140.0720167613196
 20
197.0166996386281
 30
0.0
 10
140.0916602894254
 20
197.0217716731424
 30
0.0
 10
140.1108853312284
 20
197.0267337689527
 30
0.0
  0
SPLINE
  5
224
330
1F
100
AcDbEntity
  8
0
  6
Continuous
 62
     8
370
    18
100
AcDbSpline
210
0.0
220
0.0
230
1.0
 70
     8
 71
     3
 72
     8
 73
     4
 74
     0
 42
0.000000001
 43
0.00000001
 40
0.0
 40
0.0
 40
0.0
 40
0.0
 40
1.0
 40
1.0
 40
1.0
 40
1.0
 10
146.1742546025217
 20
208.6344632754994
 30
0.0
 10
146.1978011928187
 20
210.062484335049
 30
0.0
 10
146.2180789358667
 20
211.4802550400529
 30
0.0
 10
146.2361473665177
 20
212.8856467752456
 30
0.0
  0
SPLINE
  5
225
330
1F
100
AcDbEntity
  8
0
  6
Continuous
 62
     8
370
    18
100
AcDbSpline
210
0.0
220
0.0
230
1.0
 70
     8
 71
     3
 72
    36
 73
    32
 74
     0
 42
0.000000001
 43
0.00000001
 40
0.0
 40
0.0
 40
0.0
 40
0.0
 40
0.0078125000000004
 40
0.0078125000000004
 40
0.0156250000000009
 40
0.0156250000000009
 40
0.0312500000000011
 40
0.0312500000000011
 40
0.0625000000000017
 40
0.0625000000000017
 40
0.1250000000000014
 40
0.1250000000000014
 40
0.2500000000000007
 40
0.2500000000000007
 40
0.3749999999999999
 40
0.3749999999999999
 40
0.4999999999999992
 40
0.4999999999999992
 40
0.6249999999999984
 40
0.6249999999999984
 40
0.7499999999999978
 40
0.7499999999999978
 40
0.874999999999997
 40
0.874999999999997
 40
0.9374999999999976
 40
0.9374999999999976
 40
0.9687499999999988
 40
0.9687499999999988
 40
0.9843749999999993
 40
0.9843749999999993
 40
1.0
 40
1.0
 40
1.0
 40
1.0
 10
140.1108852606727
 20
197.0267339261437
 30
0.0
 10
140.1528441117097
 20
197.0379887776025
 30
0.0
 10
140.2021000131204
 20
197.0515375137294
 30
0.0
 10
140.2972571812959
 20
197.0784110634314
 30
0.0
 10
140.343428256567
 20
197.091809498577
 30
0.0
 10
140.4758211480835
 20
197.1314151999606
 30
0.0
 10
140.558540162542
 20
197.1577282460533
 30
0.0
 10
140.8060905877703
 20
197.2407692570208
 30
0.0
 10
140.967579367277
 20
197.3006744172535
 30
0.0
 10
141.4330551054719
 20
197.4912636702848
 30
0.0
 10
141.7196820549219
 20
197.633446942326
 30
0.0
 10
142.5296456537143
 20
198.1121013058996
 30
0.0
 10
143.0098171219336
 20
198.5029357407122
 30
0.0
 10
143.8568210363639
 20
199.3890492370602
 30
0.0
 10
144.2239202116119
 20
199.8846482523834
 30
0.0
 10
144.8489196584866
 20
200.9490817476085
 30
0.0
 10
145.1074112240397
 20
201.5186615866371
 30
0.0
 10
145.5349653746081
 20
202.7050707990164
 30
0.0
 10
145.6939242553151
 20
203.320838974079
 30
0.0
 10
145.929105466962
 20
204.5255892083103
 30
0.0
 10
146.0054167405707
 20
205.1125052385647
 30
0.0
 10
146.1063616949056
 20
206.2110017622745
 30
0.0
 10
146.1316927967815
 20
206.7253411669656
 30
0.0
 10
146.1543889662368
 20
207.4583502285963
 30
0.0
 10
146.1594352352353
 20
207.6963249387071
 30
0.0
 10
146.1655767411244
 20
208.0505988290876
 30
0.0
 10
146.167368846043
 20
208.1673827789581
 30
0.0
 10
146.1699177809735
 20
208.3375417552609
 30
0.0
 10
146.170730065021
 20
208.3926652749701
 30
0.0
 10
146.1724156515559
 20
208.5043093760717
 30
0.0
 10
146.1733557141059
 20
208.5642752541439
 30
0.0
 10
146.1745029823197
 20
208.6344593204673
 30
0.0
  0
LINE
  5
226
330
1F
100
AcDbEntity
  8
0
  6
Continuous
 62
     8
370
    18
100
AcDbLine
 10
100.2595227421
 20
296.1978459792
 30
0.0
 11
100.2600910743
 21
296.1977126405
 31
0.0
  0
SPLINE
  5
227
330
1F
100
AcDbEntity
  8
0
  6
Continuous
 62
     8
370
    18
100
AcDbSpline
210
0.0
220
0.0
230
1.0
 70
     8
 71
     3
 72
    14
 73
    10
 74
     0
 42
0.000000001
 43
0.00000001
 40
0.0
 40
0.0
 40
0.0
 40
0.0
 40
0.25
 40
0.25
 40
0.5
 40
0.5
 40
0.75
 40
0.75
 40
1.0
 40
1.0
 40
1.0
 40
1.0
 10
100.2600906673389
 20
296.1978850245355
 30
0.0
 10
100.2600456229918
 20
296.1944583414019
 30
0.0
 10
100.2600170386031
 20
296.1918669098579
 30
0.0
 10
100.260095647083
 20
296.1592922515104
 30
0.0
 10
100.2602065292441
 20
296.1272738393365
 30
0.0
 10
100.2606251819536
 20
296.0142039424481
 30
0.0
 10
100.2609324792493
 20
295.9330046131286
 30
0.0
 10
100.2617770322462
 20
295.7148478345878
 30
0.0
 10
100.2623116812695
 20
295.5795431602227
 30
0.0
 10
100.2629633550562
 20
295.4191415828371
 30
0.0
  0
SPLINE
  5
228
330
1F
100
AcDbEntity
  8
0
  6
Continuous
 62
     8
370
    18
100
AcDbSpline
210
0.0
220
0.0
230
1.0
 70
     8
 71
     3
 72
    14
 73
    10
 74
     0
 42
0.000000001
 43
0.00000001
 40
0.0
 40
0.0
 40
0.0
 40
0.0
 40
0.25
 40
0.25
 40
0.5
 40
0.5
 40
0.75
 40
0.75
 40
1.0
 40
1.0
 40
1.0
 40
1.0
 10
148.2584890093352
 20
296.1978850245355
 30
0.0
 10
148.2585340536824
 20
296.1944583414019
 30
0.0
 10
148.258562638071
 20
296.1918669098579
 30
0.0
 10
148.2584840295911
 20
296.1592922515104
 30
0.0
 10
148.25837314743
 20
296.1272738393365
 30
0.0
 10
148.2579544947205
 20
296.0142039424481
 30
0.0
 10
148.2576471974249
 20
295.9330046131286
 30
0.0
 10
148.2568026444279
 20
295.7148478345878
 30
0.0
 10
148.2562679954046
 20
295.5795431602227
 30
0.0
 10
148.2556163216179
 20
295.4191415828371
 30
0.0
  0
LINE
  5
229
330
1F
100
AcDbEntity
  8
0
  6
Continuous
 62
     8
370
    18
100
AcDbLine
 10
148.2590572033
 20
296.1978460422
 30
0.0
 11
148.2584886023
 21
296.1977126405
 31
0.0
  0
SPLINE
  5
22A
330
1F
100
AcDbEntity
  8
0
  6
Continuous
 62
     8
370
    18
100
AcDbSpline
210
0.0
220
0.0
230
1.0
 70
     8
 71
     3
 72
    14
 73
    10
 74
     0
 42
0.000000001
 43
0.00000001
 40
0.0
 40
0.0
 40
0.0
 40
0.0
 40
0.25
 40
0.25
 40
0.5
 40
0.5
 40
0.75
 40
0.75
 40
1.0
 40
1.0
 40
1.0
 40
1.0
 10
124.2592898383374
 20
195.2474885742728
 30
0.0
 10
124.259310434699
 20
195.2346292174875
 30
0.0
 10
124.2593243221139
 20
195.244861174936
 30
0.0
 10
124.2593383016472
 20
195.3237406104309
 30
0.0
 10
124.2593383853673
 20
195.392660302811
 30
0.0
 10
124.2593297884301
 20
195.5815609300151
 30
0.0
 10
124.2593212600708
 20
195.7011476908239
 30
0.0
 10
124.2593039270579
 20
195.9642480941471
 30
0.0
 10
124.2592952660561
 20
196.1071394625048
 30
0.0
 10
124.2592898383053
 20
196.2473899556929
 30
0.0
  0
LINE
  5
22B
330
1F
100
AcDbEntity
  8
0
  6
Continuous
 62
     8
370
    18
100
AcDbLine
 10
101.0250772018
 20
212.8699661016
 30
0.0
 11
101.024879293
 21
212.8856467752
 31
0.0
  0
LWPOLYLINE
  5
22C
330
1F
100
AcDbEntity
  8
0
  6
Continuous
 62
     8
370
    18
100
AcDbPolyline
 90
        9
 70
   128
 43
0.0
 10
101.024879293
 20
212.8856467752
 10
101.0447181893
 20
212.8858332281
 10
101.1112538899
 20
212.8866107735
 10
101.2223869059
 20
212.8879548763
 10
101.3746105102
 20
212.8898231245
 10
101.5631213899
 20
212.8921565666
 10
101.7819712117
 20
212.8948815724
 10
102.0242543178
 20
212.8979121564
 10
102.2823256285
 20
212.9011526904
  0
ARC
  5
22D
330
1F
100
AcDbEntity
  8
0
  6
Continuous
 62
     8
370
    18
100
AcDbCircle
 10
101.6118143496
 20
242.6068169913
 30
0.0
 40
42.35441417575254
100
AcDbArc
 50
90.025982993
 51
91.7361230729
  0
SPLINE
  5
22E
330
1F
100
AcDbEntity
  8
0
  6
Continuous
 62
     8
370
    18
100
AcDbSpline
210
0.0
220
0.0
230
1.0
 70
     8
 71
     3
 72
    11
 73
     7
 74
     0
 42
0.000000001
 43
0.00000001
 40
0.0
 40
0.0
 40
0.0
 40
0.0
 40
0.2791744845935653
 40
0.5784938497570835
 40
0.8778132149206402
 40
1.0
 40
1.0
 40
1.0
 40
1.0
 10
101.798431098347
 20
262.5139588673254
 30
0.0
 10
101.6251084141593
 20
262.5118138062018
 30
0.0
 10
101.265956298335
 20
262.5073688990349
 30
0.0
 10
100.8427380322241
 20
262.5019324970993
 30
0.0
 10
100.5963303624556
 20
262.4986304816218
 30
0.0
 10
100.5780507484733
 20
262.4982100950364
 30
0.0
 10
100.5727518287216
 20
262.4980882327923
 30
0.0
  0
SPLINE
  5
22F
330
1F
100
AcDbEntity
  8
0
  6
Continuous
 62
     8
370
    18
100
AcDbSpline
210
0.0
220
0.0
230
1.0
 70
     8
 71
     3
 72
    14
 73
    10
 74
     0
 42
0.000000001
 43
0.00000001
 40
0.0
 40
0.0
 40
0.0
 40
0.0
 40
0.25
 40
0.25
 40
0.5
 40
0.5
 40
0.75
 40
0.75
 40
1.0
 40
1.0
 40
1.0
 40
1.0
 10
147.9792416425474
 20
262.4974625634364
 30
0.0
 10
147.9899815294698
 20
262.497480090636
 30
0.0
 10
147.9724517211802
 20
262.4978450307803
 30
0.0
 10
147.8651870708143
 20
262.4994340288044
 30
0.0
 10
147.7750620711066
 20
262.5006621783655
 30
0.0
 10
147.5338509174717
 20
262.503814002683
 30
0.0
 10
147.3833905799341
 20
262.5057296470259
 30
0.0
 10
147.0591078603249
 20
262.5097914719966
 30
0.0
 10
146.8861681154083
 20
262.5119272414543
 30
0.0
 10
146.7201485592677
 20
262.5139588674701
 30
0.0
  0
SPLINE
  5
230
330
1F
100
AcDbEntity
  8
0
  6
Continuous
 62
     8
370
    18
100
AcDbSpline
210
0.0
220
0.0
230
1.0
 70
     8
 71
     3
 72
    14
 73
    10
 74
     0
 42
0.000000001
 43
0.00000001
 40
0.0
 40
0.0
 40
0.0
 40
0.0
 40
0.1453545938603065
 40
0.2847835860872696
 40
0.426648823590178
 40
0.5705537308949717
 40
0.7151622223845752
 40
0.8594216570657571
 40
0.9999999999999999
 40
0.9999999999999999
 40
0.9999999999999999
 40
0.9999999999999999
 10
148.1950684603848
 20
285.6609429247137
 30
0.0
 10
148.1996808289637
 20
286.3249075087619
 30
0.0
 10
148.2087175358841
 20
287.6257691482771
 30
0.0
 10
148.2214586238117
 20
289.5577135088849
 30
0.0
 10
148.2330502536252
 20
291.3208760755626
 30
0.0
 10
148.243065592001
 20
292.8567422031793
 30
0.0
 10
148.2509588599687
 20
294.0887993136806
 30
0.0
 10
148.2564352346995
 20
294.9730322696909
 30
0.0
 10
148.2577121469099
 20
295.1778237414893
 30
0.0
 10
148.2583423519484
 20
295.2788961694288
 30
0.0
  0
SPLINE
  5
231
330
1F
100
AcDbEntity
  8
0
  6
Continuous
 62
     8
370
    18
100
AcDbSpline
210
0.0
220
0.0
230
1.0
 70
     8
 71
     3
 72
    14
 73
    10
 74
     0
 42
0.000000001
 43
0.00000001
 40
0.0
 40
0.0
 40
0.0
 40
0.0
 40
0.1453545938603059
 40
0.2847835860872684
 40
0.4266488235901762
 40
0.5705537308949694
 40
0.7151622223845723
 40
0.8594216570657536
 40
1.0
 40
1.0
 40
1.0
 40
1.0
 10
100.3235112162914
 20
285.6609429247137
 30
0.0
 10
100.3188988477125
 20
286.324907508762
 30
0.0
 10
100.3098621407921
 20
287.6257691482771
 30
0.0
 10
100.2971210528645
 20
289.5577135088849
 30
0.0
 10
100.2855294230511
 20
291.3208760755626
 30
0.0
 10
100.2755140846752
 20
292.8567422031793
 30
0.0
 10
100.2676208167075
 20
294.0887993136806
 30
0.0
 10
100.2621444419768
 20
294.9730322696909
 30
0.0
 10
100.2608675297664
 20
295.1778237414893
 30
0.0
 10
100.2602373247279
 20
295.2788961694289
 30
0.0
  0
LWPOLYLINE
  5
232
330
1F
100
AcDbEntity
  8
0
  6
Continuous
 62
     8
370
    18
100
AcDbPolyline
 90
        9
 70
   128
 43
0.0
 10
147.4937003836
 20
212.8856467752
 10
147.4738614874
 20
212.8858332281
 10
147.4073257867
 20
212.8866107735
 10
147.2961927707
 20
212.8879548763
 10
147.1439691665
 20
212.8898231245
 10
146.9554582868
 20
212.8921565666
 10
146.7366084649
 20
212.8948815724
 10
146.4943253589
 20
212.8979121564
 10
146.2362540482
 20
212.9011526904
  0
SPLINE
  5
233
330
1F
100
AcDbEntity
  8
0
  6
Continuous
 62
     8
370
    18
100
AcDbSpline
210
0.0
220
0.0
230
1.0
 70
     8
 71
     3
 72
    14
 73
    10
 74
     0
 42
0.000000001
 43
0.00000001
 40
0.0
 40
0.0
 40
0.0
 40
0.0
 40
0.25
 40
0.25
 40
0.5
 40
0.5
 40
0.75
 40
0.75
 40
1.0
 40
1.0
 40
1.0
 40
1.0
 10
148.1898133575164
 20
284.9223467688201
 30
0.0
 10
148.1899094152625
 20
284.9234828263498
 30
0.0
 10
148.162964903578
 20
284.9248852020301
 30
0.0
 10
148.0435502689452
 20
284.9280951256259
 30
0.0
 10
147.9508206651248
 20
284.9298997836224
 30
0.0
 10
147.7115002366007
 20
284.9335809934211
 30
0.0
 10
147.5654271915799
 20
284.9354495806824
 30
0.0
 10
147.2523933104598
 20
284.9388915454209
 30
0.0
 10
147.0861433147892
 20
284.9404608699988
 30
0.0
 10
146.9258363717881
 20
284.9417891591417
 30
0.0
  0
LINE
  5
234
330
1F
100
AcDbEntity
  8
0
  6
Continuous
 62
     8
370
    18
100
AcDbLine
 10
148.1898133313
 20
284.9223431153
 30
0.0
 11
148.1899527532
 21
284.9417887073
 31
0.0
  0
SPLINE
  5
235
330
1F
100
AcDbEntity
  8
0
  6
Continuous
 62
     8
370
    18
100
AcDbSpline
210
0.0
220
0.0
230
1.0
 70
     8
 71
     3
 72
     9
 73
     5
 74
     0
 42
0.000000001
 43
0.00000001
 40
0.0
 40
0.0
 40
0.0
 40
0.0
 40
0.1334307783771864
 40
0.9999999999999999
 40
0.9999999999999999
 40
0.9999999999999999
 40
0.9999999999999999
 10
148.257255862914
 20
295.3719285678954
 30
0.0
 10
148.2572086896908
 20
295.3719576721593
 30
0.0
 10
148.2568551488984
 20
295.3721757947263
 30
0.0
 10
148.2563718070668
 20
295.3714239538775
 30
0.0
 10
148.2559529579119
 20
295.3707724317383
 30
0.0
  0
LINE
  5
236
330
1F
100
AcDbEntity
  8
0
  6
Continuous
 62
     8
370
    18
100
AcDbLine
 10
100.2621506788
 20
295.3712760324
 30
0.0
 11
100.2626267188
 21
295.3707724317
 31
0.0
  0
LINE
  5
237
330
1F
100
AcDbEntity
  8
0
  6
Continuous
 62
     8
370
    18
100
AcDbLine
 10
100.8723010513
 20
296.6349384823
 30
0.0
 11
100.8715310146
 21
296.6343492044
 31
0.0
  0
LINE
  5
238
330
1F
100
AcDbEntity
  8
0
  6
Continuous
 62
     8
370
    18
100
AcDbLine
 10
100.8694513657
 20
296.6306884988
 30
0.0
 11
100.8685561074
 21
296.6288721172
 31
0.0
  0
SPLINE
  5
239
330
1F
100
AcDbEntity
  8
0
  6
Continuous
 62
     8
370
    18
100
AcDbSpline
210
0.0
220
0.0
230
1.0
 70
    24
 71
     3
 72
    14
 73
    10
 74
     0
 42
0.000000001
 43
0.00000001
 40
0.0710594971401061
 40
0.0710594971401061
 40
0.0710594971401061
 40
0.0710594971401061
 40
0.0914755590470074
 40
0.09375
 40
0.115707703930753
 40
0.125
 40
0.1283061042700326
 40
0.1362411064927967
 40
0.136414200749065
 40
0.136414200749065
 40
0.136414200749065
 40
0.136414200749065
 10
124.2592898383381
 20
304.7417756280096
 30
0.0
 10
124.2592898383381
 20
304.7433825293626
 30
0.0
 10
124.2592898383381
 20
304.7451376362519
 30
0.0
 10
124.2592898383381
 20
304.7426427018401
 30
0.0
 10
124.2592898383381
 20
304.7354740804451
 30
0.0
 10
124.2592898383381
 20
304.7421448318336
 30
0.0
 10
124.2592898383381
 20
304.751615674223
 30
0.0
 10
124.2592898383381
 20
304.7552647410292
 30
0.0
 10
124.2592898383381
 20
304.7516832511022
 30
0.0
 10
124.2592898383381
 20
304.7516039255261
 30
0.0
  0
LINE
  5
23A
330
1F
100
AcDbEntity
  8
0
  6
Continuous
 62
     8
370
    18
100
AcDbLine
 10
147.6491383248
 20
296.6307250957
 30
0.0
 11
147.6500174336
 21
296.6289519315
 31
0.0
  0
SPLINE
  5
23B
330
1F
100
AcDbEntity
  8
0
  6
Continuous
 62
     8
370
    18
100
AcDbSpline
210
0.0
220
0.0
230
1.0
 70
     8
 71
     3
 72
    22
 73
    18
 74
     0
 42
0.000000001
 43
0.00000001
 40
0.0
 40
0.0
 40
0.0
 40
0.0
 40
0.0000004459598385
 40
0.0437495091247764
 40
0.0784039320103334
 40
0.0957818848920904
 40
0.1133126397386873
 40
0.1287792884869972
 40
0.1463223717161566
 40
0.1636805932138929
 40
0.1791428450433946
 40
0.1949217039528517
 40
0.2372593150808087
 40
0.2796336812579625
 40
0.3643950977707755
 40
0.7030279990396088
 40
1.0
 40
1.0
 40
1.0
 40
1.0
 10
124.2592898383371
 20
83.72721556763277
 30
0.0
 10
124.2592698383487
 20
83.72721554670396
 30
0.0
 10
122.2972329090603
 20
83.72516239060757
 30
0.0
 10
118.7808563129786
 20
83.76037501439166
 30
0.0
 10
114.4879232776001
 20
83.9130819200714
 30
0.0
 10
111.3761767666429
 20
84.12060023663904
 30
0.0
 10
109.1387619989249
 20
84.4918135735832
 30
0.0
 10
107.0174883530778
 20
85.37351182208452
 30
0.0
 10
105.3279772759532
 20
86.96257457730519
 30
0.0
 10
104.3192794006564
 20
89.02114074093365
 30
0.0
 10
103.8066621483077
 20
91.14791138006959
 30
0.0
 10
103.4557353228969
 20
94.4337532348761
 30
0.0
 10
103.4209144421751
 20
98.9444646790473
 30
0.0
 10
103.2774469732692
 20
106.5418974163938
 30
0.0
 10
103.0191566000351
 20
127.4302211371805
 30
0.0
 10
102.5899321152054
 20
159.732536611005
 30
0.0
 10
102.33157846733
 20
188.2366236281008
 30
0.0
 10
102.2108685742882
 20
201.5545129762281
 30
0.0
  0
SPLINE
  5
23C
330
1F
100
AcDbEntity
  8
0
  6
Continuous
 62
     8
370
    18
100
AcDbSpline
210
0.0
220
0.0
230
1.0
 70
     8
 71
     3
 72
    22
 73
    18
 74
     0
 42
0.000000001
 43
0.00000001
 40
0.0
 40
0.0
 40
0.0
 40
0.0
 40
0.0000004459598385
 40
0.0437495091247783
 40
0.0784039320103366
 40
0.0957818848920942
 40
0.1133126397386942
 40
0.1287792884870048
 40
0.1463223717161649
 40
0.163680593213902
 40
0.1791428450434043
 40
0.1949217039528621
 40
0.2372593150808213
 40
0.2796336812579766
 40
0.3643950977707932
 40
0.703027999039641
 40
1.0
 40
1.0
 40
1.0
 40
1.0
 10
124.2592898383371
 20
83.72721556763274
 30
0.0
 10
124.2593098383254
 20
83.72721554670393
 30
0.0
 10
126.2213467676139
 20
83.72516239151517
 30
0.0
 10
129.7377233636957
 20
83.76037501404903
 30
0.0
 10
134.0306563990736
 20
83.9130819201147
 30
0.0
 10
137.1424029100318
 20
84.12060023662629
 30
0.0
 10
139.3798176777489
 20
84.49181357358613
 30
0.0
 10
141.5010913235963
 20
85.37351182208371
 30
0.0
 10
143.1906024007209
 20
86.9625745773053
 30
0.0
 10
144.1993002760178
 20
89.02114074093365
 30
0.0
 10
144.7119175283665
 20
91.14791138006962
 30
0.0
 10
145.0628443537772
 20
94.4337532348761
 30
0.0
 10
145.097665234499
 20
98.94446467904744
 30
0.0
 10
145.2411327034049
 20
106.5418974163938
 30
0.0
 10
145.499423076639
 20
127.4302211371806
 30
0.0
 10
145.9286475614687
 20
159.7325366110029
 30
0.0
 10
146.1870012093441
 20
188.2366236280968
 30
0.0
 10
146.3077111023859
 20
201.554512976222
 30
0.0
  0
SPLINE
  5
23D
330
1F
100
AcDbEntity
  8
0
  6
Continuous
 62
     8
370
    18
100
AcDbSpline
210
0.0
220
0.0
230
1.0
 70
     8
 71
     3
 72
    16
 73
    12
 74
     0
 42
0.000000001
 43
0.00000001
 40
0.0
 40
0.0
 40
0.0
 40
0.0
 40
0.499999999999996
 40
0.499999999999996
 40
0.749999999999998
 40
0.749999999999998
 40
0.8750000000000031
 40
0.8750000000000031
 40
0.9375000000000016
 40
0.9375000000000016
 40
1.0
 40
1.0
 40
1.0
 40
1.0
 10
147.5256426431668
 20
296.6390982269816
 30
0.0
 10
147.5621505119078
 20
296.9788791858192
 30
0.0
 10
147.5902068580087
 20
297.2099339355475
 30
0.0
 10
147.6189497856469
 20
297.3920734997782
 30
0.0
 10
147.6264541215336
 20
297.4268536713001
 30
0.0
 10
147.6357858062207
 20
297.4509936044246
 30
0.0
 10
147.6386537486125
 20
297.4547811272556
 30
0.0
 10
147.6428064565258
 20
297.4573904373423
 30
0.0
 10
147.6441634442884
 20
297.4577498505683
 30
0.0
 10
147.6468305786825
 20
297.4580216153825
 30
0.0
 10
147.6481554553979
 20
297.457933755702
 30
0.0
 10
147.6494220703659
 20
297.4579170573576
 30
0.0
  0
SPLINE
  5
23E
330
1F
100
AcDbEntity
  8
0
  6
Continuous
 62
     8
370
    18
100
AcDbSpline
210
0.0
220
0.0
230
1.0
 70
     8
 71
     3
 72
    16
 73
    12
 74
     0
 42
0.000000001
 43
0.00000001
 40
0.0
 40
0.0
 40
0.0
 40
0.0
 40
0.499999999999996
 40
0.499999999999996
 40
0.749999999999998
 40
0.749999999999998
 40
0.8750000000000031
 40
0.8750000000000031
 40
0.9375000000000016
 40
0.9375000000000016
 40
1.0
 40
1.0
 40
1.0
 40
1.0
 10
100.9929370335073
 20
296.6390982269816
 30
0.0
 10
100.9564291647663
 20
296.9788791858192
 30
0.0
 10
100.9283728186654
 20
297.2099339355475
 30
0.0
 10
100.8996298910273
 20
297.3920734997782
 30
0.0
 10
100.8921255551406
 20
297.4268536713001
 30
0.0
 10
100.8827938704534
 20
297.4509936044246
 30
0.0
 10
100.8799259280617
 20
297.4547811272556
 30
0.0
 10
100.8757732201483
 20
297.4573904373423
 30
0.0
 10
100.8744162323858
 20
297.4577498505683
 30
0.0
 10
100.8717490979917
 20
297.4580216153825
 30
0.0
 10
100.8704242309087
 20
297.4579337500763
 30
0.0
 10
100.8691576063082
 20
297.4579170573576
 30
0.0
  0
ARC
  5
23F
330
1F
100
AcDbEntity
  8
0
  6
Continuous
 62
     8
370
    18
100
AcDbCircle
 10
148.2579806543
 20
296.198513946
 30
0.0
 40
0.0016705275582175
100
AcDbArc
 50
246.7088195236
 51
277.9210910342
  0
ARC
  5
240
330
1F
100
AcDbEntity
  8
0
  6
Continuous
 62
     8
370
    18
100
AcDbCircle
 10
100.2605990224
 20
296.198513946
 30
0.0
 40
0.001670527558101
100
AcDbArc
 50
262.0789089663
 51
293.2911804774
  0
ENDSEC
  0
SECTION
  2
OBJECTS
  0
DICTIONARY
  5
C
330
0
100
AcDbDictionary
281
     1
  3
ACAD_GROUP
350
D
  3
ACAD_LAYOUT
350
1A
  3
ACAD_MLINESTYLE
350
17
  3
ACAD_PLOTSETTINGS
350
19
  3
ACAD_PLOTSTYLENAME
350
E
  3
ACAD_SCALELIST
350
47
  0
DICTIONARY
  5
D
102
{ACAD_REACTORS
330
C
102
}
330
C
100
AcDbDictionary
281
     1
  0
DICTIONARY
  5
1A
102
{ACAD_REACTORS
330
C
102
}
330
C
100
AcDbDictionary
281
     1
  3
Layout1
350
1E
  3
Layout2
350
26
  3
Model
350
22
  0
DICTIONARY
  5
17
102
{ACAD_REACTORS
330
C
102
}
330
C
100
AcDbDictionary
281
     1
  3
Standard
350
18
  0
DICTIONARY
  5
19
102
{ACAD_REACTORS
330
C
102
}
330
C
100
AcDbDictionary
281
     1
  0
ACDBDICTIONARYWDFLT
  5
E
102
{ACAD_REACTORS
330
C
102
}
330
C
100
AcDbDictionary
281
     1
  3
Normal
350
F
100
AcDbDictionaryWithDefault
340
F
  0
DICTIONARY
  5
47
102
{ACAD_REACTORS
330
C
102
}
330
C
100
AcDbDictionary
281
     1
  3
A0
350
48
  3
A1
350
49
  3
A2
350
4A
  3
A3
350
4B
  3
A4
350
4C
  3
A5
350
4D
  3
A6
350
4E
  3
A7
350
4F
  3
A8
350
50
  3
A9
350
51
  3
B0
350
52
  3
B1
350
53
  3
B2
350
54
  3
B3
350
55
  3
B4
350
56
  3
B5
350
57
  3
B6
350
58
  3
B7
350
59
  3
B8
350
5A
  3
B9
350
5B
  3
C0
350
5C
  3
C1
350
5D
  3
C2
350
5E
  3
C3
350
5F
  3
C4
350
60
  3
C5
350
61
  3
C6
350
62
  3
C7
350
63
  3
C8
350
64
  3
C9
350
65
  3
D0
350
66
  3
D1
350
67
  3
D2
350
68
  0
LAYOUT
  5
1E
102
{ACAD_REACTORS
330
1A
102
}
330
1A
100
AcDbPlotSettings
  1

  2
none_device
  4

  6

 40
0.0
 41
0.0
 42
0.0
 43
0.0
 44
0.0
 45
0.0
 46
0.0
 47
0.0
 48
0.0
 49
0.0
140
0.0
141
0.0
142
1.0
143
1.0
 70
   688
 72
     1
 73
     0
 74
     5
  7

 75
    16
147
1.0
148
0.0
149
0.0
100
AcDbLayout
  1
Layout1
 70
     1
 71
     1
 10
0.0
 20
0.0
 11
420.0
 21
297.0
 12
0.0
 22
0.0
 32
0.0
 14
1.0000000000E+20
 24
1.0000000000E+20
 34
1.0000000000E+20
 15
-1.0000000000E+20
 25
-1.0000000000E+20
 35
-1.0000000000E+20
146
0.0
 13
0.0
 23
0.0
 33
0.0
 16
1.0
 26
0.0
 36
0.0
 17
0.0
 27
1.0
 37
0.0
 76
     0
330
1B
  0
LAYOUT
  5
26
102
{ACAD_REACTORS
330
1A
102
}
330
1A
100
AcDbPlotSettings
  1

  2
none_device
  4

  6

 40
0.0
 41
0.0
 42
0.0
 43
0.0
 44
0.0
 45
0.0
 46
0.0
 47
0.0
 48
0.0
 49
0.0
140
0.0
141
0.0
142
1.0
143
1.0
 70
   688
 72
     1
 73
     0
 74
     5
  7

 75
    16
147
1.0
148
0.0
149
0.0
100
AcDbLayout
  1
Layout2
 70
     1
 71
     2
 10
0.0
 20
0.0
 11
0.0
 21
0.0
 12
0.0
 22
0.0
 32
0.0
 14
0.0
 24
0.0
 34
0.0
 15
0.0
 25
0.0
 35
0.0
146
0.0
 13
0.0
 23
0.0
 33
0.0
 16
1.0
 26
0.0
 36
0.0
 17
0.0
 27
1.0
 37
0.0
 76
     0
330
23
  0
LAYOUT
  5
22
102
{ACAD_REACTORS
330
1A
102
}
330
1A
100
AcDbPlotSettings
  1

  2
none_device
  4
Letter_(8.50_x_11.00_Inches)
  6

 40
6.35
 41
6.35
 42
6.35000508
 43
6.35000508
 44
215.9
 45
279.4
 46
0.0
 47
0.0
 48
0.0
 49
0.0
140
0.0
141
0.0
142
1.0
143
1.0
 70
  1712
 72
     1
 73
     0
 74
     0
  7

 75
     0
147
1.0
148
0.0
149
0.0
100
AcDbLayout
  1
Model
 70
     1
 71
     0
 10
0.0
 20
0.0
 11
594.0
 21
841.0
 12
0.0
 22
0.0
 32
0.0
 14
0.0
 24
0.0
 34
0.0
 15
594.0
 25
841.0
 35
0.0
146
0.0
 13
0.0
 23
0.0
 33
0.0
 16
1.0
 26
0.0
 36
0.0
 17
0.0
 27
1.0
 37
0.0
 76
     0
330
1F
331
29
  0
MLINESTYLE
  5
18
102
{ACAD_REACTORS
330
17
102
}
330
17
100
AcDbMlineStyle
  2
Standard
 70
     0
  3

 62
   256
 51
90.0
 52
90.0
 71
     2
 49
0.5
 62
   256
  6
BYLAYER
 49
-0.5
 62
   256
  6
BYLAYER
  0
ACDBPLACEHOLDER
  5
F
102
{ACAD_REACTORS
330
E
102
}
330
E
  0
SCALE
  5
48
102
{ACAD_REACTORS
330
47
102
}
330
47
100
AcDbScale
 70
     0
300
1:1
140
1.0
141
1.0
290
     1
  0
SCALE
  5
49
102
{ACAD_REACTORS
330
47
102
}
330
47
100
AcDbScale
 70
     0
300
1:2
140
1.0
141
2.0
290
     0
  0
SCALE
  5
4A
102
{ACAD_REACTORS
330
47
102
}
330
47
100
AcDbScale
 70
     0
300
1:4
140
1.0
141
4.0
290
     0
  0
SCALE
  5
4B
102
{ACAD_REACTORS
330
47
102
}
330
47
100
AcDbScale
 70
     0
300
1:5
140
1.0
141
5.0
290
     0
  0
SCALE
  5
4C
102
{ACAD_REACTORS
330
47
102
}
330
47
100
AcDbScale
 70
     0
300
1:8
140
1.0
141
8.0
290
     0
  0
SCALE
  5
4D
102
{ACAD_REACTORS
330
47
102
}
330
47
100
AcDbScale
 70
     0
300
1:10
140
1.0
141
10.0
290
     0
  0
SCALE
  5
4E
102
{ACAD_REACTORS
330
47
102
}
330
47
100
AcDbScale
 70
     0
300
1:16
140
1.0
141
16.0
290
     0
  0
SCALE
  5
4F
102
{ACAD_REACTORS
330
47
102
}
330
47
100
AcDbScale
 70
     0
300
1:20
140
1.0
141
20.0
290
     0
  0
SCALE
  5
50
102
{ACAD_REACTORS
330
47
102
}
330
47
100
AcDbScale
 70
     0
300
1:30
140
1.0
141
30.0
290
     0
  0
SCALE
  5
51
102
{ACAD_REACTORS
330
47
102
}
330
47
100
AcDbScale
 70
     0
300
1:40
140
1.0
141
40.0
290
     0
  0
SCALE
  5
52
102
{ACAD_REACTORS
330
47
102
}
330
47
100
AcDbScale
 70
     0
300
1:50
140
1.0
141
50.0
290
     0
  0
SCALE
  5
53
102
{ACAD_REACTORS
330
47
102
}
330
47
100
AcDbScale
 70
     0
300
1:100
140
1.0
141
100.0
290
     0
  0
SCALE
  5
54
102
{ACAD_REACTORS
330
47
102
}
330
47
100
AcDbScale
 70
     0
300
2:1
140
2.0
141
1.0
290
     0
  0
SCALE
  5
55
102
{ACAD_REACTORS
330
47
102
}
330
47
100
AcDbScale
 70
     0
300
4:1
140
4.0
141
1.0
290
     0
  0
SCALE
  5
56
102
{ACAD_REACTORS
330
47
102
}
330
47
100
AcDbScale
 70
     0
300
8:1
140
8.0
141
1.0
290
     0
  0
SCALE
  5
57
102
{ACAD_REACTORS
330
47
102
}
330
47
100
AcDbScale
 70
     0
300
10:1
140
10.0
141
1.0
290
     0
  0
SCALE
  5
58
102
{ACAD_REACTORS
330
47
102
}
330
47
100
AcDbScale
 70
     0
300
100:1
140
100.0
141
1.0
290
     0
  0
SCALE
  5
59
102
{ACAD_REACTORS
330
47
102
}
330
47
100
AcDbScale
 70
     0
300
1/128" = 1'-0"
140
0.0078125
141
12.0
290
     0
  0
SCALE
  5
5A
102
{ACAD_REACTORS
330
47
102
}
330
47
100
AcDbScale
 70
     0
300
1/64" = 1'-0"
140
0.015625
141
12.0
290
     0
  0
SCALE
  5
5B
102
{ACAD_REACTORS
330
47
102
}
330
47
100
AcDbScale
 70
     0
300
1/32" = 1'-0"
140
0.03125
141
12.0
290
     0
  0
SCALE
  5
5C
102
{ACAD_REACTORS
330
47
102
}
330
47
100
AcDbScale
 70
     0
300
1/16" = 1'-0"
140
0.0625
141
12.0
290
     0
  0
SCALE
  5
5D
102
{ACAD_REACTORS
330
47
102
}
330
47
100
AcDbScale
 70
     0
300
3/32" = 1'-0"
140
0.09375
141
12.0
290
     0
  0
SCALE
  5
5E
102
{ACAD_REACTORS
330
47
102
}
330
47
100
AcDbScale
 70
     0
300
1/8" = 1'-0"
140
0.125
141
12.0
290
     0
  0
SCALE
  5
5F
102
{ACAD_REACTORS
330
47
102
}
330
47
100
AcDbScale
 70
     0
300
3/16" = 1'-0"
140
0.1875
141
12.0
290
     0
  0
SCALE
  5
60
102
{ACAD_REACTORS
330
47
102
}
330
47
100
AcDbScale
 70
     0
300
1/4" = 1'-0"
140
0.25
141
12.0
290
     0
  0
SCALE
  5
61
102
{ACAD_REACTORS
330
47
102
}
330
47
100
AcDbScale
 70
     0
300
3/8" = 1'-0"
140
0.375
141
12.0
290
     0
  0
SCALE
  5
62
102
{ACAD_REACTORS
330
47
102
}
330
47
100
AcDbScale
 70
     0
300
1/2" = 1'-0"
140
0.5
141
12.0
290
     0
  0
SCALE
  5
63
102
{ACAD_REACTORS
330
47
102
}
330
47
100
AcDbScale
 70
     0
300
3/4" = 1'-0"
140
0.75
141
12.0
290
     0
  0
SCALE
  5
64
102
{ACAD_REACTORS
330
47
102
}
330
47
100
AcDbScale
 70
     0
300
1" = 1'-0"
140
1.0
141
12.0
290
     0
  0
SCALE
  5
65
102
{ACAD_REACTORS
330
47
102
}
330
47
100
AcDbScale
 70
     0
300
1-1/2" = 1'-0"
140
1.5
141
12.0
290
     0
  0
SCALE
  5
66
102
{ACAD_REACTORS
330
47
102
}
330
47
100
AcDbScale
 70
     0
300
3" = 1'-0"
140
3.0
141
12.0
290
     0
  0
SCALE
  5
67
102
{ACAD_REACTORS
330
47
102
}
330
47
100
AcDbScale
 70
     0
300
6" = 1'-0"
140
6.0
141
12.0
290
     0
  0
SCALE
  5
68
102
{ACAD_REACTORS
330
47
102
}
330
47
100
AcDbScale
 70
     0
300
1'-0" = 1'-0"
140
12.0
141
12.0
290
     0
  0
ENDSEC
  0
EOF
