  0
SECTION
  2
HEADER
  9
$ACADVER
  1
AC1015
  9
$ACADMAINTVER
 70
     6
  9
$DWGCODEPAGE
  3
ANSI_1252
  9
$INSBASE
 10
0.0
 20
0.0
 30
0.0
  9
$EXTMIN
 10
0.0
 20
0.0
 30
0.0
  9
$EXTMAX
 10
594.0
 20
841.0
 30
0.0
  9
$LIMMIN
 10
0.0
 20
0.0
  9
$LIMMAX
 10
594.0
 20
841.0
  9
$ORTHOMODE
 70
     0
  9
$REGENMODE
 70
     1
  9
$FILLMODE
 70
     1
  9
$QTEXTMODE
 70
     0
  9
$MIRRTEXT
 70
     1
  9
$LTSCALE
 40
1.0
  9
$ATTMODE
 70
     1
  9
$TEXTSIZE
 40
10.0
  9
$TRACEWID
 40
1.0
  9
$TEXTSTYLE
  7
Standard
  9
$CLAYER
  8
0
  9
$CELTYPE
  6
ByLayer
  9
$CECOLOR
 62
   256
  9
$CELTSCALE
 40
1.0
  9
$DISPSILH
 70
     0
  9
$DIMSCALE
 40
1.0
  9
$DIMASZ
 40
2.5
  9
$DIMEXO
 40
0.0
  9
$DIMDLI
 40
3.75
  9
$DIMRND
 40
0.0
  9
$DIMDLE
 40
0.0
  9
$DIMEXE
 40
1.0
  9
$DIMTP
 40
0.0
  9
$DIMTM
 40
0.0
  9
$DIMTXT
 40
3.5
  9
$DIMCEN
 40
2.5
  9
$DIMTSZ
 40
0.0
  9
$DIMTOL
 70
     0
  9
$DIMLIM
 70
     0
  9
$DIMTIH
 70
     1
  9
$DIMTOH
 70
     1
  9
$DIMSE1
 70
     0
  9
$DIMSE2
 70
     0
  9
$DIMTAD
 70
     1
  9
$DIMZIN
 70
     0
  9
$DIMBLK
  1

  9
$DIMASO
 70
     1
  9
$DIMSHO
 70
     1
  9
$DIMPOST
  1

  9
$DIMAPOST
  1

  9
$DIMALT
 70
     0
  9
$DIMALTD
 70
     3
  9
$DIMALTF
 40
0.0393700787
  9
$DIMLFAC
 40
1.0
  9
$DIMTOFL
 70
     1
  9
$DIMTVP
 40
0.0
  9
$DIMTIX
 70
     0
  9
$DIMSOXD
 70
     0
  9
$DIMSAH
 70
     0
  9
$DIMBLK1
  1

  9
$DIMBLK2
  1

  9
$DIMSTYLE
  2
ISO-25
  9
$DIMCLRD
 70
     0
  9
$DIMCLRE
 70
     0
  9
$DIMCLRT
 70
     0
  9
$DIMTFAC
 40
1.0
  9
$DIMGAP
 40
1.5
  9
$DIMJUST
 70
     0
  9
$DIMSD1
 70
     0
  9
$DIMSD2
 70
     0
  9
$DIMTOLJ
 70
     0
  9
$DIMTZIN
 70
     0
  9
$DIMALTZ
 70
     0
  9
$DIMALTTZ
 70
     0
  9
$DIMUPT
 70
     0
  9
$DIMDEC
 70
     2
  9
$DIMTDEC
 70
     2
  9
$DIMALTU
 70
     2
  9
$DIMALTTD
 70
     3
  9
$DIMTXSTY
  7
Standard
  9
$DIMAUNIT
 70
     0
  9
$DIMADEC
 70
     2
  9
$DIMALTRND
 40
0.0
  9
$DIMAZIN
 70
     0
  9
$DIMDSEP
 70
    44
  9
$DIMATFIT
 70
     3
  9
$DIMFRAC
 70
     0
  9
$DIMLDRBLK
  1

  9
$DIMLUNIT
 70
     2
  9
$DIMLWD
 70
    -2
  9
$DIMLWE
 70
    -2
  9
$DIMTMOVE
 70
     0
  9
$LUNITS
 70
     2
  9
$LUPREC
 70
     2
  9
$SKETCHINC
 40
1.0
  9
$FILLETRAD
 40
10.0
  9
$AUNITS
 70
     0
  9
$AUPREC
 70
     2
  9
$MENU
  1
.
  9
$ELEVATION
 40
0.0
  9
$PELEVATION
 40
0.0
  9
$THICKNESS
 40
0.0
  9
$LIMCHECK
 70
     0
  9
$CHAMFERA
 40
0.0
  9
$CHAMFERB
 40
0.0
  9
$CHAMFERC
 40
0.0
  9
$CHAMFERD
 40
0.0
  9
$SKPOLY
 70
     0
  9
$TDCREATE
 40
2460006.364517141
  9
$TDUCREATE
 40
2460006.322850475
  9
$TDUPDATE
 40
2460006.364518264
  9
$TDUUPDATE
 40
2460006.322851597
  9
$TDINDWG
 40
0.0000000116
  9
$TDUSRTIMER
 40
0.0000000116
  9
$USRTIMER
 70
     1
  9
$ANGBASE
 50
0.0
  9
$ANGDIR
 70
     0
  9
$PDMODE
 70
     0
  9
$PDSIZE
 40
-1.0
  9
$PLINEWID
 40
0.0
  9
$SPLFRAME
 70
     0
  9
$SPLINETYPE
 70
     6
  9
$SPLINESEGS
 70
     8
  9
$HANDSEED
  5
14F
  9
$SURFTAB1
 70
     6
  9
$SURFTAB2
 70
     6
  9
$SURFTYPE
 70
     6
  9
$SURFU
 70
     6
  9
$SURFV
 70
     6
  9
$UCSBASE
  2

  9
$UCSNAME
  2

  9
$UCSORG
 10
0.0
 20
0.0
 30
0.0
  9
$UCSXDIR
 10
1.0
 20
0.0
 30
0.0
  9
$UCSYDIR
 10
0.0
 20
1.0
 30
0.0
  9
$UCSORTHOREF
  2

  9
$UCSORTHOVIEW
 70
     0
  9
$UCSORGTOP
 10
0.0
 20
0.0
 30
0.0
  9
$UCSORGBOTTOM
 10
0.0
 20
0.0
 30
0.0
  9
$UCSORGLEFT
 10
0.0
 20
0.0
 30
0.0
  9
$UCSORGRIGHT
 10
0.0
 20
0.0
 30
0.0
  9
$UCSORGFRONT
 10
0.0
 20
0.0
 30
0.0
  9
$UCSORGBACK
 10
0.0
 20
0.0
 30
0.0
  9
$PUCSBASE
  2

  9
$PUCSNAME
  2

  9
$PUCSORG
 10
0.0
 20
0.0
 30
0.0
  9
$PUCSXDIR
 10
1.0
 20
0.0
 30
0.0
  9
$PUCSYDIR
 10
0.0
 20
1.0
 30
0.0
  9
$PUCSORTHOREF
  2

  9
$PUCSORTHOVIEW
 70
     0
  9
$PUCSORGTOP
 10
0.0
 20
0.0
 30
0.0
  9
$PUCSORGBOTTOM
 10
0.0
 20
0.0
 30
0.0
  9
$PUCSORGLEFT
 10
0.0
 20
0.0
 30
0.0
  9
$PUCSORGRIGHT
 10
0.0
 20
0.0
 30
0.0
  9
$PUCSORGFRONT
 10
0.0
 20
0.0
 30
0.0
  9
$PUCSORGBACK
 10
0.0
 20
0.0
 30
0.0
  9
$USERI1
 70
     0
  9
$USERI2
 70
     0
  9
$USERI3
 70
     0
  9
$USERI4
 70
     0
  9
$USERI5
 70
     0
  9
$USERR1
 40
0.0
  9
$USERR2
 40
0.0
  9
$USERR3
 40
0.0
  9
$USERR4
 40
0.0
  9
$USERR5
 40
0.0
  9
$WORLDVIEW
 70
     1
  9
$SHADEDGE
 70
     3
  9
$SHADEDIF
 70
    70
  9
$TILEMODE
 70
     1
  9
$MAXACTVP
 70
    64
  9
$PINSBASE
 10
0.0
 20
0.0
 30
0.0
  9
$PLIMCHECK
 70
     0
  9
$PEXTMIN
 10
1.0000000000E+20
 20
1.0000000000E+20
 30
1.0000000000E+20
  9
$PEXTMAX
 10
-1.0000000000E+20
 20
-1.0000000000E+20
 30
-1.0000000000E+20
  9
$PLIMMIN
 10
0.0
 20
0.0
  9
$PLIMMAX
 10
420.0
 20
297.0
  9
$UNITMODE
 70
     0
  9
$VISRETAIN
 70
     1
  9
$PLINEGEN
 70
     0
  9
$PSLTSCALE
 70
     1
  9
$TREEDEPTH
 70
  3020
  9
$CMLSTYLE
  2
Standard
  9
$CMLJUST
 70
     0
  9
$CMLSCALE
 40
20.0
  9
$PROXYGRAPHICS
 70
     1
  9
$MEASUREMENT
 70
     1
  9
$CELWEIGHT
370
    -1
  9
$ENDCAPS
280
     0
  9
$JOINSTYLE
280
     0
  9
$LWDISPLAY
290
     1
  9
$INSUNITS
 70
     4
  9
$HYPERLINKBASE
  1

  9
$STYLESHEET
  1

  9
$XEDIT
290
     1
  9
$CEPSNTYPE
380
     0
  9
$PSTYLEMODE
290
     1
  9
$FINGERPRINTGUID
  2
{513dce9d-9ce8-40aa-aec3-f3a3e75e93c0}
  9
$VERSIONGUID
  2
{FAEB1C32-E019-11D5-929B-00C0DF256EC4}
  9
$EXTNAMES
290
     1
  9
$PSVPSCALE
 40
0.0
  9
$OLESTARTUP
290
     0
  0
ENDSEC
  0
SECTION
  2
CLASSES
  0
CLASS
  1
ACDBDICTIONARYWDFLT
  2
AcDbDictionaryWithDefault
  3
ObjectDBX Classes
 90
        0
280
     0
281
     0
  0
CLASS
  1
VISUALSTYLE
  2
AcDbVisualStyle
  3
ObjectDBX Classes
 90
     4095
280
     0
281
     0
  0
CLASS
  1
MATERIAL
  2
AcDbMaterial
  3
ObjectDBX Classes
 90
     1153
280
     0
281
     0
  0
CLASS
  1
SCALE
  2
AcDbScale
  3
ObjectDBX Classes
 90
     1153
280
     0
281
     0
  0
CLASS
  1
TABLESTYLE
  2
AcDbTableStyle
  3
ObjectDBX Classes
 90
     4095
280
     0
281
     0
  0
CLASS
  1
MLEADERSTYLE
  2
AcDbMLeaderStyle
  3
ACDB_MLEADERSTYLE_CLASS
 90
     4095
280
     0
281
     0
  0
CLASS
  1
SUN
  2
AcDbSun
  3
SCENEOE
 90
     1153
280
     0
281
     0
  0
CLASS
  1
ACDBPLACEHOLDER
  2
AcDbPlaceHolder
  3
ObjectDBX Classes
 90
        0
280
     0
281
     0
  0
CLASS
  1
LAYOUT
  2
AcDbLayout
  3
ObjectDBX Classes
 90
        0
280
     0
281
     0
  0
ENDSEC
  0
SECTION
  2
TABLES
  0
TABLE
  2
VPORT
  5
8
330
0
100
AcDbSymbolTable
 70
     1
  0
VPORT
  5
29
330
8
100
AcDbSymbolTableRecord
100
AcDbViewportTableRecord
  2
*Active
 70
     0
 10
0.0
 20
0.0
 11
1.0
 21
1.0
 12
297.0
 22
420.5
 13
0.0
 23
0.0
 14
10.0
 24
10.0
 15
10.0
 25
10.0
 16
0.0
 26
0.0
 36
1.0
 17
0.0
 27
0.0
 37
0.0
 40
841.0
 41
0.7063020214
 42
50.0
 43
0.0
 44
0.0
 50
0.0
 51
0.0
 71
     0
 72
  2000
 73
     1
 74
     3
 75
     0
 76
     0
 77
     0
 78
     0
281
     0
 65
     1
110
0.0
120
0.0
130
0.0
111
1.0
121
0.0
131
0.0
112
0.0
122
1.0
132
0.0
 79
     0
146
0.0
  0
ENDTAB
  0
TABLE
  2
LTYPE
  5
5
330
0
100
AcDbSymbolTable
 70
     6
  0
LTYPE
  5
14
330
5
100
AcDbSymbolTableRecord
100
AcDbLinetypeTableRecord
  2
ByBlock
 70
     0
  3

 72
    65
 73
     0
 40
0.0
  0
LTYPE
  5
15
330
5
100
AcDbSymbolTableRecord
100
AcDbLinetypeTableRecord
  2
ByLayer
 70
     0
  3

 72
    65
 73
     0
 40
0.0
  0
LTYPE
  5
16
330
5
100
AcDbSymbolTableRecord
100
AcDbLinetypeTableRecord
  2
Continuous
 70
     0
  3
Solid line
 72
    65
 73
     0
 40
0.0
  0
LTYPE
  5
6E
330
5
100
AcDbSymbolTableRecord
100
AcDbLinetypeTableRecord
  2
HIDDEN
 70
     0
  3
Hidden __ __ __ __ __ __ __ __ __ __ __ __ __ __
 72
    65
 73
     2
 40
1.905
 49
1.27
 74
     0
 49
-0.635
 74
     0
  0
LTYPE
  5
6F
330
5
100
AcDbSymbolTableRecord
100
AcDbLinetypeTableRecord
  2
PHANTOM
 70
     0
  3
Phantom ______  __  __  ______  __  __  ______
 72
    65
 73
     6
 40
12.7
 49
6.35
 74
     0
 49
-1.27
 74
     0
 49
1.27
 74
     0
 49
-1.27
 74
     0
 49
1.27
 74
     0
 49
-1.27
 74
     0
  0
LTYPE
  5
70
330
5
100
AcDbSymbolTableRecord
100
AcDbLinetypeTableRecord
  2
CENTER
 70
     0
  3
Center ____ _ ____ _ ____ _ ____ _ ____ _ ____
 72
    65
 73
     4
 40
10.16
 49
6.35
 74
     0
 49
-1.27
 74
     0
 49
1.27
 74
     0
 49
-1.27
 74
     0
  0
LTYPE
  5
71
330
5
100
AcDbSymbolTableRecord
100
AcDbLinetypeTableRecord
  2
CENTERX2
 70
     0
  3
Center (2x) ________  __  ________  __  _____
 72
    65
 73
     4
 40
20.32
 49
12.7
 74
     0
 49
-2.54
 74
     0
 49
2.54
 74
     0
 49
-2.54
 74
     0
  0
LTYPE
  5
72
330
5
100
AcDbSymbolTableRecord
100
AcDbLinetypeTableRecord
  2
DOT2
 70
     0
  3
Dot (.5x) ........................................
 72
    65
 73
     2
 40
0.635
 49
0.0
 74
     0
 49
-0.635
 74
     0
  0
ENDTAB
  0
TABLE
  2
LAYER
  5
2
330
0
100
AcDbSymbolTable
 70
     1
  0
LAYER
  5
10
330
2
100
AcDbSymbolTableRecord
100
AcDbLayerTableRecord
  2
0
 70
     0
 62
     7
  6
Continuous
370
    -3
390
F
  0
ENDTAB
  0
TABLE
  2
STYLE
  5
3
330
0
100
AcDbSymbolTable
 70
     3
  0
STYLE
  5
11
330
3
100
AcDbSymbolTableRecord
100
AcDbTextStyleTableRecord
  2
Standard
 70
     0
 40
0.0
 41
1.0
 50
0.0
 71
     0
 42
10.0
  3
txt
  4

  0
STYLE
  5
76
330
3
100
AcDbSymbolTableRecord
100
AcDbTextStyleTableRecord
  2
SLDTEXTSTYLE0
 70
     0
 40
0.0
 41
0.96
 50
0.0
 71
     0
 42
10.0
  3
ISOCP3
  4

  0
STYLE
  5
8D
330
3
100
AcDbSymbolTableRecord
100
AcDbTextStyleTableRecord
  2
SLDTEXTSTYLE1
 70
     0
 40
0.0
 41
0.605
 50
0.0
 71
     0
 42
10.0
  3
TXT
  4

  0
ENDTAB
  0
TABLE
  2
VIEW
  5
6
330
0
100
AcDbSymbolTable
 70
     0
  0
ENDTAB
  0
TABLE
  2
UCS
  5
7
330
0
100
AcDbSymbolTable
 70
     0
  0
ENDTAB
  0
TABLE
  2
APPID
  5
9
330
0
100
AcDbSymbolTable
 70
     1
  0
APPID
  5
12
330
9
100
AcDbSymbolTableRecord
100
AcDbRegAppTableRecord
  2
ACAD
 70
     0
  0
ENDTAB
  0
TABLE
  2
DIMSTYLE
  5
A
330
0
100
AcDbSymbolTable
 70
     2
100
AcDbDimStyleTable
  0
DIMSTYLE
105
27
330
A
100
AcDbSymbolTableRecord
100
AcDbDimStyleTableRecord
  2
ISO-25
 70
     0
 41
2.5
 42
0.625
 43
3.75
 44
1.25
 73
     0
 74
     0
 77
     1
 78
     8
140
2.5
141
2.5
143
0.0393700787
147
0.625
171
     3
172
     1
178
     0
271
     2
272
     2
274
     3
278
    44
283
     0
284
     8
340
11
  0
DIMSTYLE
105
77
102
{ACAD_REACTORS
330
75
330
82
102
}
330
A
100
AcDbSymbolTableRecord
100
AcDbDimStyleTableRecord
  2
SLDDIMSTYLE0
 70
     0
 41
2.5
 44
0.0
 45
0.000000001
 73
     0
 74
     0
 77
     1
 78
    12
 79
     3
140
6.0
147
1.5
173
     1
178
     0
271
     2
272
     2
276
     2
284
    12
340
76
  0
ENDTAB
  0
TABLE
  2
BLOCK_RECORD
  5
1
330
0
100
AcDbSymbolTable
 70
     3
  0
BLOCK_RECORD
  5
1F
330
1
100
AcDbSymbolTableRecord
100
AcDbBlockTableRecord
  2
*Model_Space
340
22
  0
BLOCK_RECORD
  5
1B
330
1
100
AcDbSymbolTableRecord
100
AcDbBlockTableRecord
  2
*Paper_Space
340
1E
  0
BLOCK_RECORD
  5
23
330
1
100
AcDbSymbolTableRecord
100
AcDbBlockTableRecord
  2
*Paper_Space0
340
26
  0
BLOCK_RECORD
  5
78
330
1
100
AcDbSymbolTableRecord
100
AcDbBlockTableRecord
  2
_D
340
0
  0
BLOCK_RECORD
  5
83
330
1
100
AcDbSymbolTableRecord
100
AcDbBlockTableRecord
  2
_D_1
340
0
  0
ENDTAB
  0
ENDSEC
  0
SECTION
  2
BLOCKS
  0
BLOCK
  5
20
330
1F
100
AcDbEntity
  8
0
100
AcDbBlockBegin
  2
*Model_Space
 70
     0
 10
0.0
 20
0.0
 30
0.0
  3
*Model_Space
  1

  0
ENDBLK
  5
21
330
1F
100
AcDbEntity
  8
0
100
AcDbBlockEnd
  0
BLOCK
  5
1C
330
1B
100
AcDbEntity
 67
     1
  8
0
100
AcDbBlockBegin
  2
*Paper_Space
 70
     0
 10
0.0
 20
0.0
 30
0.0
  3
*Paper_Space
  1

  0
ENDBLK
  5
1D
330
1B
100
AcDbEntity
 67
     1
  8
0
100
AcDbBlockEnd
  0
BLOCK
  5
24
330
23
100
AcDbEntity
  8
0
100
AcDbBlockBegin
  2
*Paper_Space0
 70
     0
 10
0.0
 20
0.0
 30
0.0
  3
*Paper_Space0
  1

  0
ENDBLK
  5
25
330
23
100
AcDbEntity
  8
0
100
AcDbBlockEnd
  0
BLOCK
  5
79
330
78
100
AcDbEntity
  8
0
100
AcDbBlockBegin
  2
_D
 70
     0
 10
0.0
 20
0.0
 30
0.0
  3
_D
  1

  0
SOLID
  5
7B
330
78
100
AcDbEntity
  8
0
  6
Continuous
 62
     7
370
    18
100
AcDbTrace
 10
42.7614395004
 20
152.0299240879
 30
0.0
 11
42.4614395004
 21
149.5299240879
 31
0.0
 12
43.0614395004
 22
149.5299240879
 32
0.0
 13
43.0614395004
 23
149.5299240879
 33
0.0
  0
SOLID
  5
7C
330
78
100
AcDbEntity
  8
0
  6
Continuous
 62
     7
370
    18
100
AcDbTrace
 10
42.7614395004
 20
52.0299240879
 30
0.0
 11
43.0614395004
 21
54.5299240879
 31
0.0
 12
42.4614395004
 22
54.5299240879
 32
0.0
 13
42.4614395004
 23
54.5299240879
 33
0.0
  0
LINE
  5
7D
330
78
100
AcDbEntity
  8
0
  6
Continuous
 62
     7
370
     0
100
AcDbLine
 10
56.6850079902
 20
152.0299240879
 30
0.0
 11
41.7614395004
 21
152.0299240879
 31
0.0
  0
LINE
  5
7E
330
78
100
AcDbEntity
  8
0
  6
Continuous
 62
     7
370
     0
100
AcDbLine
 10
56.6850079902
 20
52.0299240879
 30
0.0
 11
41.7614395004
 21
52.0299240879
 31
0.0
  0
LINE
  5
7F
330
78
100
AcDbEntity
  8
0
  6
Continuous
 62
     7
370
     0
100
AcDbLine
 10
42.7614395004
 20
152.0299240879
 30
0.0
 11
42.7614395004
 21
52.0299240879
 31
0.0
  0
MTEXT
  5
80
330
78
100
AcDbEntity
  8
0
  6
Continuous
 62
     7
370
    18
100
AcDbMText
 10
35.0270332946
 20
94.3680541463
 30
0.0
 40
6.0
 41
0.0
 71
     1
 72
     1
  1
100
  7
SLDTEXTSTYLE0
 11
-7.044195017643634E-15
 21
1.0
 31
0.0
 73
     1
 44
1.0
  0
MTEXT
  5
81
330
78
100
AcDbEntity
  8
0
  6
Continuous
 62
     7
370
    18
100
AcDbMText
 10
35.0270332946
 20
105.7430548466
 30
0.0
 40
6.0
 41
0.0
 71
     1
 72
     1
  1
mm
  7
SLDTEXTSTYLE0
 11
-7.044195017643634E-15
 21
1.0
 31
0.0
 73
     1
 44
1.0
  0
ENDBLK
  5
7A
330
78
100
AcDbEntity
  8
0
100
AcDbBlockEnd
  0
BLOCK
  5
84
330
83
100
AcDbEntity
  8
0
100
AcDbBlockBegin
  2
_D_1
 70
     0
 10
0.0
 20
0.0
 30
0.0
  3
_D_1
  1

  0
SOLID
  5
86
330
83
100
AcDbEntity
  8
0
  6
Continuous
 62
     7
370
    18
100
AcDbTrace
 10
56.6850079902
 20
38.4602342313
 30
0.0
 11
59.1850079902
 21
38.1602342313
 31
0.0
 12
59.1850079902
 22
38.7602342313
 32
0.0
 13
59.1850079902
 23
38.7602342313
 33
0.0
  0
SOLID
  5
87
330
83
100
AcDbEntity
  8
0
  6
Continuous
 62
     7
370
    18
100
AcDbTrace
 10
156.6850079902
 20
38.4602342313
 30
0.0
 11
154.1850079902
 21
38.7602342313
 31
0.0
 12
154.1850079902
 22
38.1602342313
 32
0.0
 13
154.1850079902
 23
38.1602342313
 33
0.0
  0
LINE
  5
88
330
83
100
AcDbEntity
  8
0
  6
Continuous
 62
     7
370
     0
100
AcDbLine
 10
56.6850079902
 20
52.0299240879
 30
0.0
 11
56.6850079902
 21
37.4602342313
 31
0.0
  0
LINE
  5
89
330
83
100
AcDbEntity
  8
0
  6
Continuous
 62
     7
370
     0
100
AcDbLine
 10
156.6850079902
 20
52.0299240879
 30
0.0
 11
156.6850079902
 21
37.4602342313
 31
0.0
  0
LINE
  5
8A
330
83
100
AcDbEntity
  8
0
  6
Continuous
 62
     7
370
     0
100
AcDbLine
 10
56.6850079902
 20
38.4602342313
 30
0.0
 11
156.6850079902
 21
38.4602342313
 31
0.0
  0
MTEXT
  5
8B
330
83
100
AcDbEntity
  8
0
  6
Continuous
 62
     7
370
    18
100
AcDbMText
 10
93.9626484861
 20
46.1946404371
 30
0.0
 40
6.0
 41
0.0
 71
     1
 72
     1
  1
100
  7
SLDTEXTSTYLE0
 73
     1
 44
1.0
  0
MTEXT
  5
8C
330
83
100
AcDbEntity
  8
0
  6
Continuous
 62
     7
370
    18
100
AcDbMText
 10
105.3376491864
 20
46.1946404371
 30
0.0
 40
6.0
 41
0.0
 71
     1
 72
     1
  1
mm
  7
SLDTEXTSTYLE0
 73
     1
 44
1.0
  0
ENDBLK
  5
85
330
83
100
AcDbEntity
  8
0
100
AcDbBlockEnd
  0
ENDSEC
  0
SECTION
  2
ENTITIES
  0
LINE
  5
73
330
1F
100
AcDbEntity
  8
0
  6
Continuous
 62
     7
370
    18
100
AcDbLine
 10
56.6850079902
 20
152.0299240879
 30
0.0
 11
56.6850079902
 21
52.0299240879
 31
0.0
  0
LINE
  5
74
330
1F
100
AcDbEntity
  8
0
  6
Continuous
 62
     7
370
    18
100
AcDbLine
 10
56.6850079902
 20
52.0299240879
 30
0.0
 11
156.6850079902
 21
52.0299240879
 31
0.0
  0
DIMENSION
  5
75
330
1F
100
AcDbEntity
  8
0
  6
Continuous
 62
     7
370
    18
100
AcDbDimension
  2
_D
 10
42.7614395004
 20
52.0299240879
 30
0.0
 11
42.7614395004
 21
105.4472211621
 31
0.0
 70
   160
  1
<>mm
 71
     2
 42
-1.0
  3
SLDDIMSTYLE0
100
AcDbAlignedDimension
 13
56.6850079902
 23
152.0299240879
 33
0.0
 14
56.6850079902
 24
52.0299240879
 34
0.0
 50
90.0
100
AcDbRotatedDimension
  0
DIMENSION
  5
82
330
1F
100
AcDbEntity
  8
0
  6
Continuous
 62
     7
370
    18
100
AcDbDimension
  2
_D_1
 10
156.6850079902
 20
38.4602342313
 30
0.0
 11
105.0418155019
 21
38.4602342313
 31
0.0
 70
   160
  1
<>mm
 71
     2
 42
-1.0
  3
SLDDIMSTYLE0
100
AcDbAlignedDimension
 13
56.6850079902
 23
52.0299240879
 33
0.0
 14
156.6850079902
 24
52.0299240879
 34
0.0
100
AcDbRotatedDimension
  0
MTEXT
  5
8E
330
1F
100
AcDbEntity
  8
0
  6
Continuous
 62
     7
370
     0
100
AcDbMText
 10
412.8252631579
 20
48.4342449499
 30
0.0
 40
10.0
 41
0.0
 71
     1
 72
     1
  1
KLUDI GmbH & Co KG
  7
SLDTEXTSTYLE1
 73
     1
 44
1.0
  0
MTEXT
  5
8F
330
1F
100
AcDbEntity
  8
0
  6
Continuous
 62
     7
370
     0
100
AcDbMText
 10
210.0873490389
 20
48.4342449499
 30
0.0
 40
10.0
 41
0.0
 71
     1
 72
     1
  1
48 755 .. 65
  7
SLDTEXTSTYLE1
 73
     1
 44
1.0
  0
LINE
  5
90
330
1F
100
AcDbEntity
  8
0
  6
Continuous
 62
     7
370
    25
100
AcDbLine
 10
152.6371656282
 20
356.4156480634
 30
0.0
 11
152.6371656282
 21
356.3220848711
 31
0.0
  0
LINE
  5
91
330
1F
100
AcDbEntity
  8
0
  6
Continuous
 62
     7
370
    25
100
AcDbLine
 10
202.6371656282
 20
356.3221009819
 30
0.0
 11
202.6371656282
 21
356.4156480634
 31
0.0
  0
SPLINE
  5
92
330
1F
100
AcDbEntity
  8
0
  6
Continuous
 62
     7
370
    25
100
AcDbSpline
210
0.0
220
0.0
230
1.0
 70
     8
 71
     3
 72
    10
 73
     6
 74
     0
 42
0.00000001
 43
0.00000001
 40
0.0
 40
0.0
 40
0.0
 40
0.0
 40
0.2238610307417115
 40
0.6357447913154184
 40
1.0
 40
1.0
 40
1.0
 40
1.0
 10
159.7248274119626
 20
329.160079592407
 30
0.0
 10
159.8779054091356
 20
328.4109477762059
 30
0.0
 10
160.3126328784289
 20
326.2834821401344
 30
0.0
 10
160.7640328781314
 20
322.8945631022787
 30
0.0
 10
160.9896590565051
 20
320.2536738531633
 30
0.0
 10
161.0955492565124
 20
319.0142596468793
 30
0.0
  0
SPLINE
  5
93
330
1F
100
AcDbEntity
  8
0
  6
Continuous
 62
     7
370
    25
100
AcDbSpline
210
0.0
220
0.0
230
1.0
 70
     8
 71
     3
 72
    10
 73
     6
 74
     0
 42
0.00000001
 43
0.00000001
 40
0.0
 40
0.0
 40
0.0
 40
0.0
 40
0.2273296649033935
 40
0.6373726802766189
 40
1.0
 40
1.0
 40
1.0
 40
1.0
 10
195.5583456230781
 20
329.2052144664529
 30
0.0
 10
195.402121703399
 20
328.4410740251388
 30
0.0
 10
194.9641108593173
 20
326.2986249022094
 30
0.0
 10
194.5101954144914
 20
322.8945819330344
 30
0.0
 10
194.2846393120799
 20
320.2536798679267
 30
0.0
 10
194.1787819999126
 20
319.0142596468797
 30
0.0
  0
ARC
  5
94
330
1F
100
AcDbEntity
  8
0
  6
Continuous
 62
     7
370
    25
100
AcDbCircle
 10
177.6372596994
 20
356.4156327975
 30
0.0
 40
24.9998918961272
100
AcDbArc
 50
339.9506290936
 51
90.0002155963
  0
ARC
  5
95
330
1F
100
AcDbEntity
  8
0
  6
Continuous
 62
     7
370
    25
100
AcDbCircle
 10
177.6370803528
 20
356.4156266443
 30
0.0
 40
24.99989804938298
100
AcDbArc
 50
89.9998045624
 51
200.0493507477
  0
SPLINE
  5
96
330
1F
100
AcDbEntity
  8
0
  6
Continuous
 62
     7
370
    25
100
AcDbSpline
210
0.0
220
0.0
230
1.0
 70
     8
 71
     3
 72
    20
 73
    16
 74
     0
 42
0.00000001
 43
0.00000001
 40
0.0
 40
0.0
 40
0.0
 40
0.0
 40
0.2499999999999938
 40
0.2499999999999938
 40
0.3749999999999948
 40
0.3749999999999948
 40
0.4999999999999959
 40
0.4999999999999959
 40
0.6249999999999969
 40
0.6249999999999969
 40
0.7499999999999979
 40
0.7499999999999979
 40
0.874999999999999
 40
0.874999999999999
 40
1.0
 40
1.0
 40
1.0
 40
1.0
 10
193.6517497639684
 20
269.1963300638446
 30
0.0
 10
193.6497268871562
 20
268.8100029616791
 30
0.0
 10
193.640701388468
 20
268.4241714082658
 30
0.0
 10
193.5121947844061
 20
267.8575985833408
 30
0.0
 10
193.451532196148
 20
267.6729062830371
 30
0.0
 10
193.2812106082884
 20
267.3258293069021
 30
0.0
 10
193.170488578885
 20
267.1642091396739
 30
0.0
 10
192.8994752790752
 20
266.8918631670631
 30
0.0
 10
192.7368833124308
 20
266.7793548871445
 30
0.0
 10
192.3877850741383
 20
266.6074790082582
 30
0.0
 10
192.2010987562019
 20
266.5464003926865
 30
0.0
 10
191.8221050513554
 20
266.4612599144043
 30
0.0
 10
191.6285054480028
 20
266.4369929148133
 30
0.0
 10
191.2406156611149
 20
266.4116860427894
 30
0.0
 10
191.0462143263533
 20
266.4110328709756
 30
0.0
 10
190.8517881456757
 20
266.4110328709756
 30
0.0
  0
LINE
  5
97
330
1F
100
AcDbEntity
  8
0
  6
Continuous
 62
     7
370
    25
100
AcDbLine
 10
161.0955504232
 20
319.0142434896
 30
0.0
 11
161.3383989488
 21
313.630568232
 31
0.0
  0
LINE
  5
98
330
1F
100
AcDbEntity
  8
0
  6
Continuous
 62
     7
370
    25
100
AcDbLine
 10
161.3736120769
 20
311.8269228561
 30
0.0
 11
161.4229181246
 21
307.3278513963
 31
0.0
  0
SPLINE
  5
99
330
1F
100
AcDbEntity
  8
0
  6
Continuous
 62
     7
370
    25
100
AcDbSpline
210
0.0
220
0.0
230
1.0
 70
     8
 71
     3
 72
    20
 73
    16
 74
     0
 42
0.00000001
 43
0.00000001
 40
0.0
 40
0.0
 40
0.0
 40
0.0
 40
0.2499999999999935
 40
0.2499999999999935
 40
0.3749999999999946
 40
0.3749999999999946
 40
0.4999999999999957
 40
0.4999999999999957
 40
0.6249999999999968
 40
0.6249999999999968
 40
0.7499999999999978
 40
0.7499999999999978
 40
0.8749999999999989
 40
0.8749999999999989
 40
1.0
 40
1.0
 40
1.0
 40
1.0
 10
161.6225814924576
 20
269.1963300638443
 30
0.0
 10
161.6246043692698
 20
268.8100029616787
 30
0.0
 10
161.6336298679581
 20
268.4241714082654
 30
0.0
 10
161.76213647202
 20
267.8575985833404
 30
0.0
 10
161.8227990602781
 20
267.6729062830367
 30
0.0
 10
161.9931206481377
 20
267.3258293069018
 30
0.0
 10
162.1038426775411
 20
267.1642091396736
 30
0.0
 10
162.3748559773509
 20
266.8918631670627
 30
0.0
 10
162.5374479439953
 20
266.7793548871441
 30
0.0
 10
162.8865461822878
 20
266.6074790082578
 30
0.0
 10
163.0732325002243
 20
266.5464003926862
 30
0.0
 10
163.4522262050707
 20
266.4612599144041
 30
0.0
 10
163.6458258084233
 20
266.4369929148131
 30
0.0
 10
164.0337155953112
 20
266.4116860427891
 30
0.0
 10
164.2281169300728
 20
266.4110328709754
 30
0.0
 10
164.4225431107504
 20
266.4110328709754
 30
0.0
  0
LINE
  5
9A
330
1F
100
AcDbEntity
  8
0
  6
Continuous
 62
     7
370
    25
100
AcDbLine
 10
164.4225431108
 20
266.411032871
 30
0.0
 11
177.6371656282
 21
266.411032871
 31
0.0
  0
LINE
  5
9B
330
1F
100
AcDbEntity
  8
0
  6
Continuous
 62
     7
370
    25
100
AcDbLine
 10
190.8517881457
 20
266.411032871
 30
0.0
 11
177.6371656282
 21
266.411032871
 31
0.0
  0
LINE
  5
9C
330
1F
100
AcDbEntity
  8
0
  6
Continuous
 62
     7
370
    25
100
AcDbLine
 10
193.8514131318
 20
307.3278513963
 30
0.0
 11
193.651749764
 21
269.1963300638
 31
0.0
  0
LINE
  5
9D
330
1F
100
AcDbEntity
  8
0
  6
Continuous
 62
     7
370
    25
100
AcDbLine
 10
161.4229181246
 20
307.3278513963
 30
0.0
 11
161.6225814925
 21
269.1963300638
 31
0.0
  0
ARC
  5
9E
330
1F
100
AcDbEntity
  8
0
  6
Continuous
 62
     7
370
    25
100
AcDbCircle
 10
177.6369566771
 20
356.3209805157
 30
0.0
 40
24.99979171668667
100
AcDbArc
 50
188.1751681223
 51
207.1284643821
  0
SPLINE
  5
9F
330
1F
100
AcDbEntity
  8
0
  6
Continuous
 62
     7
370
    25
100
AcDbSpline
210
0.0
220
0.0
230
1.0
 70
     8
 71
     3
 72
     9
 73
     5
 74
     0
 42
0.00000001
 43
0.00000001
 40
0.0
 40
0.0
 40
0.0
 40
0.0
 40
0.5522642716727593
 40
1.0
 40
1.0
 40
1.0
 40
1.0
 10
152.6659456047352
 20
356.3227913202495
 30
0.0
 10
152.6662971982834
 20
355.669885965345
 30
0.0
 10
152.6669338383239
 20
354.4876524072571
 30
0.0
 10
152.8218517387037
 20
353.2984567056439
 30
0.0
 10
152.8912140176612
 20
352.7660113020585
 30
0.0
  0
ARC
  5
A0
330
1F
100
AcDbEntity
  8
0
  6
Continuous
 62
     7
370
    25
100
AcDbCircle
 10
177.6373763053
 20
356.320979963
 30
0.0
 40
24.99978992968322
100
AcDbArc
 50
332.8395449799
 51
351.8248325691
  0
SPLINE
  5
A1
330
1F
100
AcDbEntity
  8
0
  6
Continuous
 62
     7
370
    25
100
AcDbSpline
210
0.0
220
0.0
230
1.0
 70
     8
 71
     3
 72
     9
 73
     5
 74
     0
 42
0.00000001
 43
0.00000001
 40
0.0
 40
0.0
 40
0.0
 40
0.0
 40
0.7375830095611171
 40
1.0
 40
1.0
 40
1.0
 40
1.0
 10
202.3831172387631
 20
352.766011302059
 30
0.0
 10
202.4965066931385
 20
353.6475882125109
 30
0.0
 10
202.6502378025939
 20
354.8428122063178
 30
0.0
 10
202.6142871297114
 20
356.0141806101669
 30
0.0
 10
202.6048530623293
 20
356.3215675814002
 30
0.0
  0
ARC
  5
A2
330
1F
100
AcDbEntity
  8
0
  6
Continuous
 62
     7
370
    25
100
AcDbCircle
 10
177.6371656288
 20
341.458158851
 30
0.0
 40
74.5
100
AcDbArc
 50
282.3876128203
 51
257.5957357135
  0
SPLINE
  5
A3
330
1F
100
AcDbEntity
  8
0
  6
Continuous
 62
     8
370
    18
100
AcDbSpline
210
0.0
220
0.0
230
1.0
 70
     8
 71
     3
 72
    12
 73
     8
 74
     0
 42
0.00000001
 43
0.00000001
 40
0.0
 40
0.0
 40
0.0
 40
0.0
 40
0.2381904313087357
 40
0.4840481359723398
 40
0.7227659364206386
 40
0.9703518114660985
 40
1.0
 40
1.0
 40
1.0
 40
1.0
 10
154.1522341500548
 20
347.8381028053302
 30
0.0
 10
154.1658882288568
 20
347.7980879918574
 30
0.0
 10
154.1936359068647
 20
347.7167703009395
 30
0.0
 10
154.4107337126429
 20
347.1292672301072
 30
0.0
 10
154.7842037062819
 20
346.2456384145003
 30
0.0
 10
155.1162577154917
 20
345.4854737787404
 30
0.0
 10
155.3845651987919
 20
344.9914819355837
 30
0.0
 10
155.4132587537875
 20
344.9386530619921
 30
0.0
  0
SPLINE
  5
A4
330
1F
100
AcDbEntity
  8
0
  6
Continuous
 62
     8
370
    18
100
AcDbSpline
210
0.0
220
0.0
230
1.0
 70
     8
 71
     3
 72
    16
 73
    12
 74
     0
 42
0.00000001
 43
0.00000001
 40
0.0
 40
0.0
 40
0.0
 40
0.0
 40
0.0750284449366425
 40
0.1741262932413772
 40
0.299527340991138
 40
0.4123140806034691
 40
0.4994209143505808
 40
0.609535503463132
 40
0.7420747935719707
 40
0.8713448252541945
 40
1.0
 40
1.0
 40
1.0
 40
1.0
 10
154.1522341560424
 20
347.8381027901719
 30
0.0
 10
154.3261848549107
 20
347.3819084659403
 30
0.0
 10
154.7298902819158
 20
346.3231709865312
 30
0.0
 10
155.4311551957457
 20
344.5044965011352
 30
0.0
 10
156.1663360059967
 20
342.4361339481935
 30
0.0
 10
156.8323591108337
 20
340.4267023144111
 30
0.0
 10
157.4314685844886
 20
338.5003288116621
 30
0.0
 10
158.0336337480992
 20
336.4404633381345
 30
0.0
 10
158.6555215989143
 20
334.1015075771238
 30
0.0
 10
159.265143419327
 20
331.6338548493579
 30
0.0
 10
159.5718431238805
 20
329.9833598297498
 30
0.0
 10
159.7248274119626
 20
329.160079592407
 30
0.0
  0
SPLINE
  5
A5
330
1F
100
AcDbEntity
  8
0
  6
Continuous
 62
     8
370
    18
100
AcDbSpline
210
0.0
220
0.0
230
1.0
 70
     8
 71
     3
 72
    22
 73
    18
 74
     0
 42
0.00000001
 43
0.00000001
 40
0.0
 40
0.0
 40
0.0
 40
0.0
 40
0.125
 40
0.125
 40
0.2500000000000001
 40
0.2500000000000001
 40
0.3750000000000001
 40
0.3750000000000001
 40
0.5000000000000001
 40
0.5000000000000001
 40
0.6250000000000001
 40
0.6250000000000001
 40
0.7500000000000002
 40
0.7500000000000002
 40
0.8750000000000002
 40
0.8750000000000002
 40
1.0
 40
1.0
 40
1.0
 40
1.0
 10
177.6371656282118
 20
379.9702416114571
 30
0.0
 10
179.5218767743826
 20
379.9702416114571
 30
0.0
 10
181.4064838322797
 20
379.7429114566809
 30
0.0
 10
185.0677856626032
 20
378.8465826130491
 30
0.0
 10
186.8442782297273
 20
378.1776334263797
 30
0.0
 10
190.1874212341768
 20
376.4363955489319
 30
0.0
 10
191.7538870373822
 20
375.3642030227275
 30
0.0
 10
194.5870847095914
 20
372.8779459243803
 30
0.0
 10
195.8536601075863
 20
371.4640186625143
 30
0.0
 10
198.0143800393767
 20
368.3753717677901
 30
0.0
 10
198.9084052415664
 20
366.7008227138156
 30
0.0
 10
200.2726931401056
 20
363.1869728186576
 30
0.0
 10
200.7428804899637
 20
361.3478660393444
 30
0.0
 10
201.2324710793151
 20
357.6103926138475
 30
0.0
 10
201.2518472798431
 20
355.7122323797487
 30
0.0
 10
200.8386541549213
 20
351.9655435332756
 30
0.0
 10
200.4061076491799
 20
350.1172218419327
 30
0.0
 10
199.7599710806366
 20
348.3467380939981
 30
0.0
  0
SPLINE
  5
A6
330
1F
100
AcDbEntity
  8
0
  6
Continuous
 62
     8
370
    18
100
AcDbSpline
210
0.0
220
0.0
230
1.0
 70
     8
 71
     3
 72
    18
 73
    14
 74
     0
 42
0.00000001
 43
0.00000001
 40
0.0
 40
0.0
 40
0.0
 40
0.0
 40
0.0625000000000001
 40
0.0625000000000001
 40
0.1250000000000002
 40
0.1250000000000002
 40
0.2500000000000002
 40
0.2500000000000002
 40
0.5000000000000001
 40
0.5000000000000001
 40
0.7500000000000001
 40
0.7500000000000001
 40
1.0
 40
1.0
 40
1.0
 40
1.0
 10
199.7599764116783
 20
348.3467361478635
 30
0.0
 10
199.5436763046168
 20
347.7540511141556
 30
0.0
 10
199.3100165553581
 20
347.1689876477816
 30
0.0
 10
198.8572898663401
 20
345.993720093014
 30
0.0
 10
198.6349206862157
 20
345.4048691622468
 30
0.0
 10
197.98556357279
 20
343.6322030732562
 30
0.0
 10
197.5752400463957
 20
342.4427087705295
 30
0.0
 10
196.4067637793446
 20
338.8527741773107
 30
0.0
 10
195.7069528262728
 20
336.4278623976904
 30
0.0
 10
194.4936441470919
 20
331.5500996700159
 30
0.0
 10
193.9845876900328
 20
329.0940533106586
 30
0.0
 10
193.1960771851302
 20
324.1409092698007
 30
0.0
 10
192.9141267221103
 20
321.6442928766443
 30
0.0
 10
192.7325429654309
 20
319.1295644375087
 30
0.0
  0
SPLINE
  5
A7
330
1F
100
AcDbEntity
  8
0
  6
Continuous
 62
     8
370
    18
100
AcDbSpline
210
0.0
220
0.0
230
1.0
 70
     8
 71
     3
 72
    10
 73
     6
 74
     0
 42
0.00000001
 43
0.00000001
 40
0.0
 40
0.0
 40
0.0
 40
0.0
 40
0.5
 40
0.5
 40
1.0
 40
1.0
 40
1.0
 40
1.0
 10
192.7325429654309
 20
319.1295644375087
 30
0.0
 10
192.5909429061109
 20
317.1685372257781
 30
0.0
 10
192.510834854462
 20
315.2056396500399
 30
0.0
 10
192.4218538904488
 20
311.2772598093527
 30
0.0
 10
192.4117294617348
 20
309.3118105067564
 30
0.0
 10
192.4014381619218
 20
307.3460772815397
 30
0.0
  0
LINE
  5
A8
330
1F
100
AcDbEntity
  8
0
  6
Continuous
 62
     8
370
    18
100
AcDbLine
 10
192.4014330081
 20
307.3460773091
 30
0.0
 11
192.2017696402
 21
269.2137196241
 31
0.0
  0
SPLINE
  5
A9
330
1F
100
AcDbEntity
  8
0
  6
Continuous
 62
     8
370
    18
100
AcDbSpline
210
0.0
220
0.0
230
1.0
 70
     8
 71
     3
 72
    28
 73
    24
 74
     0
 42
0.00000001
 43
0.00000001
 40
0.0
 40
0.0
 40
0.0
 40
0.0
 40
0.250000000000096
 40
0.250000000000096
 40
0.3750000000001439
 40
0.3750000000001439
 40
0.4375000000001596
 40
0.4375000000001596
 40
0.4687500000001602
 40
0.4687500000001602
 40
0.484375000000161
 40
0.484375000000161
 40
0.5000000000001619
 40
0.5000000000001619
 40
0.5312500000001535
 40
0.5312500000001535
 40
0.5625000000001452
 40
0.5625000000001452
 40
0.6250000000001227
 40
0.6250000000001227
 40
0.7500000000000818
 40
0.7500000000000818
 40
1.0
 40
1.0
 40
1.0
 40
1.0
 10
192.2017601368704
 20
269.2137196748161
 30
0.0
 10
192.2007480986266
 20
269.020399226474
 30
0.0
 10
192.200698491302
 20
268.825751236635
 30
0.0
 10
192.1708436084881
 20
268.5316211419021
 30
0.0
 10
192.1560643136604
 20
268.4337238035759
 30
0.0
 10
192.1187707999209
 20
268.2880004288533
 30
0.0
 10
192.1038652737188
 20
268.2395878132441
 30
0.0
 10
192.0745380195123
 20
268.1679899406488
 30
0.0
 10
192.0636120739521
 20
268.1442203661267
 30
0.0
 10
192.0436972676576
 20
268.1088750017238
 30
0.0
 10
192.0365297035786
 20
268.0971615184435
 30
0.0
 10
192.0190694652254
 20
268.0731271242329
 30
0.0
 10
192.0072728180527
 20
268.0597598188806
 30
0.0
 10
191.9708538898518
 20
268.0292245823881
 30
0.0
 10
191.9477785986042
 20
268.0169816494622
 30
0.0
 10
191.9009964732706
 20
267.9936686287812
 30
0.0
 10
191.8776063601068
 20
267.9838677970293
 30
0.0
 10
191.8069642276354
 20
267.9573988495776
 30
0.0
 10
191.7591507343903
 20
267.9437171296386
 30
0.0
 10
191.6150426232377
 20
267.9095875665212
 30
0.0
 10
191.5192900503062
 20
267.8963347446469
 30
0.0
 10
191.232210383758
 20
267.8699758651424
 30
0.0
 10
191.0412974887371
 20
267.8708021120354
 30
0.0
 10
190.8517881456756
 20
267.8708019125162
 30
0.0
  0
LINE
  5
AA
330
1F
100
AcDbEntity
  8
0
  6
Continuous
 62
     8
370
    18
100
AcDbLine
 10
190.8517881457
 20
267.8707948023
 30
0.0
 11
177.6371656282
 21
267.8707948023
 31
0.0
  0
LINE
  5
AB
330
1F
100
AcDbEntity
  8
0
  6
Continuous
 62
     8
370
    18
100
AcDbLine
 10
177.6371656282
 20
267.8707948023
 30
0.0
 11
164.4225431108
 21
267.8707948023
 31
0.0
  0
SPLINE
  5
AC
330
1F
100
AcDbEntity
  8
0
  6
Continuous
 62
     8
370
    18
100
AcDbSpline
210
0.0
220
0.0
230
1.0
 70
     8
 71
     3
 72
    28
 73
    24
 74
     0
 42
0.00000001
 43
0.00000001
 40
0.0
 40
0.0
 40
0.0
 40
0.0
 40
0.2500000000000361
 40
0.2500000000000361
 40
0.3750000000000533
 40
0.3750000000000533
 40
0.4375000000000619
 40
0.4375000000000619
 40
0.4687500000000663
 40
0.4687500000000663
 40
0.5000000000000706
 40
0.5000000000000706
 40
0.515625000000072
 40
0.515625000000072
 40
0.5312500000000736
 40
0.5312500000000736
 40
0.5625000000000626
 40
0.5625000000000626
 40
0.6250000000000562
 40
0.6250000000000562
 40
0.7500000000000434
 40
0.7500000000000434
 40
1.0
 40
1.0
 40
1.0
 40
1.0
 10
164.4225431107504
 20
267.8708020639203
 30
0.0
 10
164.2330337676889
 20
267.8708022527416
 30
0.0
 10
164.0421208766383
 20
267.8699759953328
 30
0.0
 10
163.7550412204963
 20
267.8963348577675
 30
0.0
 10
163.6592886516202
 20
267.9095876737724
 30
0.0
 10
163.5151805485134
 20
267.9437172267389
 30
0.0
 10
163.4673670582224
 20
267.9573989431111
 30
0.0
 10
163.3967249317237
 20
267.9838678840409
 30
0.0
 10
163.3733348207814
 20
267.9936687134522
 30
0.0
 10
163.3265527015671
 20
268.0169817280956
 30
0.0
 10
163.3034774129622
 20
268.0292246590531
 30
0.0
 10
163.2670584992252
 20
268.0597598808009
 30
0.0
 10
163.255261857969
 20
268.0731271784352
 30
0.0
 10
163.2378016239444
 20
268.0971615644124
 30
0.0
 10
163.2306340606686
 20
268.1088750449686
 30
0.0
 10
163.2107192561237
 20
268.14422040218
 30
0.0
 10
163.1997933104853
 20
268.1679899734784
 30
0.0
 10
163.1704660553933
 20
268.2395878376526
 30
0.0
 10
163.1555605274182
 20
268.2880004495838
 30
0.0
 10
163.1182670077621
 20
268.4337238150658
 30
0.0
 10
163.1034877078992
 20
268.5316211499395
 30
0.0
 10
163.0736328097084
 20
268.8257512372741
 30
0.0
 10
163.0735831915227
 20
269.0203992266539
 30
0.0
 10
163.0725711425821
 20
269.2137196749388
 30
0.0
  0
LINE
  5
AD
330
1F
100
AcDbEntity
  8
0
  6
Continuous
 62
     8
370
    18
100
AcDbLine
 10
163.0725616162
 20
269.2137196241
 30
0.0
 11
162.8728982483
 21
307.3460773091
 31
0.0
  0
SPLINE
  5
AE
330
1F
100
AcDbEntity
  8
0
  6
Continuous
 62
     8
370
    18
100
AcDbSpline
210
0.0
220
0.0
230
1.0
 70
     8
 71
     3
 72
    10
 73
     6
 74
     0
 42
0.00000001
 43
0.00000001
 40
0.0
 40
0.0
 40
0.0
 40
0.0
 40
0.5
 40
0.5
 40
1.0
 40
1.0
 40
1.0
 40
1.0
 10
162.8728931156418
 20
307.3460772816523
 30
0.0
 10
162.8626018236556
 20
309.3118105069108
 30
0.0
 10
162.8524774027712
 20
311.2772598096702
 30
0.0
 10
162.7634964543843
 20
315.2056396517521
 30
0.0
 10
162.6833884105308
 20
317.1685372287439
 30
0.0
 10
162.5417883589175
 20
319.1295644424201
 30
0.0
  0
SPLINE
  5
AF
330
1F
100
AcDbEntity
  8
0
  6
Continuous
 62
     8
370
    18
100
AcDbSpline
210
0.0
220
0.0
230
1.0
 70
     8
 71
     3
 72
    18
 73
    14
 74
     0
 42
0.00000001
 43
0.00000001
 40
0.0
 40
0.0
 40
0.0
 40
0.0
 40
0.2500000000000001
 40
0.2500000000000001
 40
0.5000000000000001
 40
0.5000000000000001
 40
0.75
 40
0.75
 40
0.875
 40
0.875
 40
0.9375
 40
0.9375
 40
1.0
 40
1.0
 40
1.0
 40
1.0
 10
162.5417883589175
 20
319.12956444242
 30
0.0
 10
162.3602045578477
 20
321.6442928801259
 30
0.0
 10
162.0782540505913
 20
324.1409092684671
 30
0.0
 10
161.2897434586467
 20
329.0940532915299
 30
0.0
 10
160.7806869588686
 20
331.550099637795
 30
0.0
 10
159.5673781960032
 20
336.4278623342005
 30
0.0
 10
158.8675672018552
 20
338.8527740958237
 30
0.0
 10
157.6990908750926
 20
342.4427086574136
 30
0.0
 10
157.2887673291751
 20
343.6322029486511
 30
0.0
 10
156.6394101870537
 20
345.4048690192101
 30
0.0
 10
156.4170409975206
 20
345.993719943495
 30
0.0
 10
155.9643142889668
 20
347.1689874872471
 30
0.0
 10
155.7306545302082
 20
347.7540509470016
 30
0.0
 10
155.514354408459
 20
348.3467359885933
 30
0.0
  0
SPLINE
  5
B0
330
1F
100
AcDbEntity
  8
0
  6
Continuous
 62
     8
370
    18
100
AcDbSpline
210
0.0
220
0.0
230
1.0
 70
     8
 71
     3
 72
    22
 73
    18
 74
     0
 42
0.00000001
 43
0.00000001
 40
0.0
 40
0.0
 40
0.0
 40
0.0
 40
0.1250000000000001
 40
0.1250000000000001
 40
0.2500000000000001
 40
0.2500000000000001
 40
0.3750000000000001
 40
0.3750000000000001
 40
0.5000000000000001
 40
0.5000000000000001
 40
0.6250000000000001
 40
0.6250000000000001
 40
0.7500000000000001
 40
0.7500000000000001
 40
0.8750000000000001
 40
0.8750000000000001
 40
1.0
 40
1.0
 40
1.0
 40
1.0
 10
155.5143601757879
 20
348.3467380939977
 30
0.0
 10
154.8682236072445
 20
350.1172218419323
 30
0.0
 10
154.4356771015031
 20
351.9655435332752
 30
0.0
 10
154.0224839765812
 20
355.7122323797482
 30
0.0
 10
154.0418601771092
 20
357.610392613847
 30
0.0
 10
154.5314507664605
 20
361.3478660393439
 30
0.0
 10
155.0016381163185
 20
363.1869728186571
 30
0.0
 10
156.3659260148576
 20
366.7008227138151
 30
0.0
 10
157.2599512170474
 20
368.3753717677897
 30
0.0
 10
159.4206711488377
 20
371.4640186625139
 30
0.0
 10
160.6872465468325
 20
372.8779459243798
 30
0.0
 10
163.5204442190417
 20
375.3642030227271
 30
0.0
 10
165.0869100222471
 20
376.4363955489315
 30
0.0
 10
168.4300530266965
 20
378.1776334263794
 30
0.0
 10
170.2065455938206
 20
378.8465826130488
 30
0.0
 10
173.867847424144
 20
379.7429114566807
 30
0.0
 10
175.7524544820411
 20
379.970241611457
 30
0.0
 10
177.6371656282118
 20
379.970241611457
 30
0.0
  0
LINE
  5
B1
330
1F
100
AcDbEntity
  8
0
  6
Continuous
 62
     8
370
    18
100
AcDbLine
 10
154.1522341501
 20
347.8381028053
 30
0.0
 11
154.1522341501
 21
347.8449264796
 31
0.0
  0
SPLINE
  5
B2
330
1F
100
AcDbEntity
  8
0
  6
Continuous
 62
     8
370
    25
100
AcDbSpline
210
0.0
220
0.0
230
1.0
 70
     8
 71
     3
 72
    26
 73
    22
 74
     0
 42
0.00000001
 43
0.00000001
 40
0.0
 40
0.0
 40
0.0
 40
0.0
 40
0.125
 40
0.125
 40
0.25
 40
0.25
 40
0.375
 40
0.375
 40
0.5
 40
0.5
 40
0.625
 40
0.625
 40
0.75
 40
0.75
 40
0.8125
 40
0.8125
 40
0.875
 40
0.875
 40
0.9375
 40
0.9375
 40
1.0
 40
1.0
 40
1.0
 40
1.0
 10
161.0955504232185
 20
319.0204260488575
 30
0.0
 10
161.0085037999862
 20
320.2259276949406
 30
0.0
 10
160.8964156923544
 20
321.4594586713474
 30
0.0
 10
160.6053084500878
 20
324.005449261493
 30
0.0
 10
160.4262836930256
 20
325.3181714981346
 30
0.0
 10
159.98385388202
 20
328.0347090473871
 30
0.0
 10
159.7190498551266
 20
329.4412214816084
 30
0.0
 10
159.0957691621816
 20
332.3232844139852
 30
0.0
 10
158.737754482983
 20
333.7972486263148
 30
0.0
 10
157.9643015725948
 20
336.6986270241615
 30
0.0
 10
157.5495690356791
 20
338.1239912418096
 30
0.0
 10
156.7216789471814
 20
340.7851188914689
 30
0.0
 10
156.3092270898733
 20
342.018832355611
 30
0.0
 10
155.7367978512349
 20
343.6461366925378
 30
0.0
 10
155.5536385624601
 20
344.1518258336102
 30
0.0
 10
155.2083709445652
 20
345.0848930078923
 30
0.0
 10
155.0462846683913
 20
345.512206979606
 30
0.0
 10
154.7470406616683
 20
346.2915266280087
 30
0.0
 10
154.6099049840654
 20
346.6434682432019
 30
0.0
 10
154.361861607373
 20
347.2849186041655
 30
0.0
 10
154.2509759612294
 20
347.57436328844
 30
0.0
 10
154.1522341500548
 20
347.8449264796247
 30
0.0
  0
LINE
  5
B3
330
1F
100
AcDbEntity
  8
0
  6
Continuous
 62
     8
370
    18
100
AcDbLine
 10
161.0955504232
 20
319.0204260489
 30
0.0
 11
161.0955504232
 21
319.0142434896
 31
0.0
  0
ARC
  5
B4
330
1F
100
AcDbEntity
  8
0
  6
Continuous
 62
     8
370
    18
100
AcDbCircle
 10
196.9702981138
 20
233.7184337104
 30
0.0
 40
121.8943926249861
100
AcDbArc
 50
109.8827960604
 51
110.5651244561
  0
ARC
  5
B5
330
1F
100
AcDbEntity
  8
0
  6
Continuous
 62
     8
370
    18
100
AcDbCircle
 10
170.4297807416
 20
204.9655905522
 30
0.0
 40
114.4361540589602
100
AcDbArc
 50
93.9524879091
 51
94.6786509416
  0
SPLINE
  5
B6
330
1F
100
AcDbEntity
  8
0
  6
Continuous
 62
     8
370
    18
100
AcDbSpline
210
0.0
220
0.0
230
1.0
 70
     8
 71
     3
 72
    22
 73
    18
 74
     0
 42
0.00000001
 43
0.00000001
 40
0.0
 40
0.0
 40
0.0
 40
0.0
 40
0.125
 40
0.125
 40
0.25
 40
0.25
 40
0.375
 40
0.375
 40
0.5
 40
0.5
 40
0.625
 40
0.625
 40
0.75
 40
0.75
 40
0.875
 40
0.875
 40
1.0
 40
1.0
 40
1.0
 40
1.0
 10
193.6517497639684
 20
269.2014177514594
 30
0.0
 10
193.6507268045086
 20
269.0060496354399
 30
0.0
 10
193.6491393225319
 20
268.8096138266928
 30
0.0
 10
193.620606859993
 20
268.4132804677179
 30
0.0
 10
193.593781731823
 20
268.2138395574546
 30
0.0
 10
193.5021764254788
 20
267.8284880254598
 30
0.0
 10
193.4375160996969
 20
267.6430340436926
 30
0.0
 10
193.2654384722962
 20
267.3063543058784
 30
0.0
 10
193.1581410230695
 20
267.1555851897956
 30
0.0
 10
192.9001872767693
 20
266.8989798287828
 30
0.0
 10
192.7488576778203
 20
266.7924738014858
 30
0.0
 10
192.4112799014633
 20
266.6221622249693
 30
0.0
 10
192.2254889875564
 20
266.5584741349573
 30
0.0
 10
191.8396611941789
 20
266.4688882230475
 30
0.0
 10
191.6400815782094
 20
266.443107860357
 30
0.0
 10
191.2436023013243
 20
266.4166511168669
 30
0.0
 10
191.0471599039098
 20
266.4160921952746
 30
0.0
 10
190.8517881456757
 20
266.4160921952746
 30
0.0
  0
LINE
  5
B7
330
1F
100
AcDbEntity
  8
0
  6
Continuous
 62
     8
370
    18
100
AcDbLine
 10
190.8517881457
 20
266.4160921953
 30
0.0
 11
190.8517881457
 21
267.8707948023
 31
0.0
  0
ARC
  5
B8
330
1F
100
AcDbEntity
  8
0
  6
Continuous
 62
     8
370
    18
100
AcDbCircle
 10
191.9591982992
 20
155.1643780202
 30
0.0
 40
114.0495995658387
100
AcDbArc
 50
89.1496715821
 51
89.8781378926
  0
SPLINE
  5
B9
330
1F
100
AcDbEntity
  8
0
  6
Continuous
 62
     8
370
    18
100
AcDbSpline
210
0.0
220
0.0
230
1.0
 70
     8
 71
     3
 72
    22
 73
    18
 74
     0
 42
0.00000001
 43
0.00000001
 40
0.0
 40
0.0
 40
0.0
 40
0.0
 40
0.125
 40
0.125
 40
0.25
 40
0.25
 40
0.375
 40
0.375
 40
0.5
 40
0.5
 40
0.625
 40
0.625
 40
0.75
 40
0.75
 40
0.875
 40
0.875
 40
1.0
 40
1.0
 40
1.0
 40
1.0
 10
164.4225431107504
 20
266.4160921952743
 30
0.0
 10
164.2271713525163
 20
266.4160921952743
 30
0.0
 10
164.0307289551018
 20
266.4166511168666
 30
0.0
 10
163.6342496782167
 20
266.4431078603567
 30
0.0
 10
163.4346700622472
 20
266.4688882230471
 30
0.0
 10
163.0488422688697
 20
266.558474134957
 30
0.0
 10
162.8630513549628
 20
266.622162224969
 30
0.0
 10
162.5254735786058
 20
266.7924738014855
 30
0.0
 10
162.3741439796568
 20
266.8989798287826
 30
0.0
 10
162.1161902333565
 20
267.1555851897953
 30
0.0
 10
162.0088927841299
 20
267.306354305878
 30
0.0
 10
161.8368151567292
 20
267.6430340436924
 30
0.0
 10
161.7721548309472
 20
267.8284880254594
 30
0.0
 10
161.6805495246031
 20
268.2138395574543
 30
0.0
 10
161.6537243964331
 20
268.4132804677176
 30
0.0
 10
161.6251919338942
 20
268.8096138266924
 30
0.0
 10
161.6236044519174
 20
269.0060496354396
 30
0.0
 10
161.6225814924576
 20
269.2014177514591
 30
0.0
  0
ARC
  5
BA
330
1F
100
AcDbEntity
  8
0
  6
Continuous
 62
     8
370
    18
100
AcDbCircle
 10
163.3151329572
 20
155.1643780184
 30
0.0
 40
114.049599567663
100
AcDbArc
 50
90.1218621074
 51
90.8503284179
  0
LINE
  5
BB
330
1F
100
AcDbEntity
  8
0
  6
Continuous
 62
     8
370
    18
100
AcDbLine
 10
164.4225431108
 20
266.4160921953
 30
0.0
 11
164.4225431108
 21
267.8707948023
 31
0.0
  0
LINE
  5
BC
330
1F
100
AcDbEntity
  8
0
  6
Continuous
 62
     8
370
    18
100
AcDbLine
 10
177.6371656282
 20
266.4160921953
 30
0.0
 11
164.4225431108
 21
266.4160921953
 31
0.0
  0
LINE
  5
BD
330
1F
100
AcDbEntity
  8
0
  6
Continuous
 62
     8
370
    18
100
AcDbLine
 10
177.6371656282
 20
266.4160921953
 30
0.0
 11
177.6371656282
 21
267.8707948023
 31
0.0
  0
LINE
  5
BE
330
1F
100
AcDbEntity
  8
0
  6
Continuous
 62
     8
370
    18
100
AcDbLine
 10
190.8517881457
 20
266.4160921953
 30
0.0
 11
177.6371656282
 21
266.4160921953
 31
0.0
  0
LINE
  5
BF
330
1F
100
AcDbEntity
  8
0
  6
Continuous
 62
     8
370
    18
100
AcDbLine
 10
161.6225814925
 20
269.2014177515
 30
0.0
 11
161.4229181246
 21
307.3337754365
 31
0.0
  0
ARC
  5
C0
330
1F
100
AcDbEntity
  8
0
  6
Continuous
 62
     8
370
    18
100
AcDbCircle
 10
163.1154695894
 20
193.296735696
 30
0.0
 40
114.0495995750642
100
AcDbArc
 50
90.1218621074
 51
90.8503284179
  0
LINE
  5
C1
330
1F
100
AcDbEntity
  8
0
  6
Continuous
 62
     8
370
    18
100
AcDbLine
 10
193.8514131318
 20
307.3337754365
 30
0.0
 11
193.651749764
 21
269.2014177515
 31
0.0
  0
ARC
  5
C2
330
1F
100
AcDbEntity
  8
0
  6
Continuous
 62
     8
370
    18
100
AcDbCircle
 10
192.158861667
 20
193.2967356943
 30
0.0
 40
114.0495995767092
100
AcDbArc
 50
89.1496715821
 51
89.8781378926
  0
SPLINE
  5
C3
330
1F
100
AcDbEntity
  8
0
  6
Continuous
 62
     8
370
    25
100
AcDbSpline
210
0.0
220
0.0
230
1.0
 70
     8
 71
     3
 72
    26
 73
    22
 74
     0
 42
0.00000001
 43
0.00000001
 40
0.0
 40
0.0
 40
0.0
 40
0.0
 40
0.0625
 40
0.0625
 40
0.125
 40
0.125
 40
0.1874999999999999
 40
0.1874999999999999
 40
0.2499999999999999
 40
0.2499999999999999
 40
0.3750000000000001
 40
0.3750000000000001
 40
0.5000000000000001
 40
0.5000000000000001
 40
0.6250000000000002
 40
0.6250000000000002
 40
0.7500000000000001
 40
0.7500000000000001
 40
0.875
 40
0.875
 40
1.0
 40
1.0
 40
1.0
 40
1.0
 10
201.1220971063696
 20
347.8449264796251
 30
0.0
 10
201.023355295195
 20
347.5743632884405
 30
0.0
 10
200.9124696490515
 20
347.2849186041659
 30
0.0
 10
200.664426272359
 20
346.6434682432023
 30
0.0
 10
200.5272905947561
 20
346.2915266280092
 30
0.0
 10
200.2280465880332
 20
345.5122069796065
 30
0.0
 10
200.0659603118592
 20
345.0848930078927
 30
0.0
 10
199.7206926939644
 20
344.1518258336107
 30
0.0
 10
199.5375334051896
 20
343.6461366925382
 30
0.0
 10
198.9651041665512
 20
342.0188323556114
 30
0.0
 10
198.5526523092431
 20
340.7851188914692
 30
0.0
 10
197.7247622207455
 20
338.12399124181
 30
0.0
 10
197.3100296838298
 20
336.698627024162
 30
0.0
 10
196.5365767734417
 20
333.7972486263152
 30
0.0
 10
196.1785620942431
 20
332.3232844139856
 30
0.0
 10
195.5552814012981
 20
329.4412214816087
 30
0.0
 10
195.2904773744048
 20
328.0347090473875
 30
0.0
 10
194.8480475633993
 20
325.318171498135
 30
0.0
 10
194.6690228063371
 20
324.0054492614933
 30
0.0
 10
194.3779155640705
 20
321.4594586713476
 30
0.0
 10
194.2658274564388
 20
320.2259276949409
 30
0.0
 10
194.1787808332065
 20
319.0204260488578
 30
0.0
  0
ARC
  5
C4
330
1F
100
AcDbEntity
  8
0
  6
Continuous
 62
     8
370
    18
100
AcDbCircle
 10
184.8445505148
 20
204.9655905522
 30
0.0
 40
114.4361540590133
100
AcDbArc
 50
85.3213490584
 51
86.0475120909
  0
ARC
  5
C5
330
1F
100
AcDbEntity
  8
0
  6
Continuous
 62
     8
370
    18
100
AcDbCircle
 10
158.3040217023
 20
233.7184028683
 30
0.0
 40
121.8944255203074
100
AcDbArc
 50
69.4348756016
 51
70.1172039496
  0
SPLINE
  5
C6
330
1F
100
AcDbEntity
  8
0
  6
Continuous
 62
     8
370
    25
100
AcDbSpline
210
0.0
220
0.0
230
1.0
 70
     8
 71
     3
 72
    12
 73
     8
 74
     0
 42
0.00000001
 43
0.00000001
 40
0.0
 40
0.0
 40
0.0
 40
0.0
 40
0.2499999999999998
 40
0.2499999999999998
 40
0.4999999999999996
 40
0.4999999999999996
 40
1.0
 40
1.0
 40
1.0
 40
1.0
 10
161.422918124591
 20
307.3337754364636
 30
0.0
 10
161.417880485205
 20
308.2958801480314
 30
0.0
 10
161.4128693492543
 20
309.2575566576639
 30
0.0
 10
161.3948450031279
 20
311.1808279635207
 30
0.0
 10
161.3818294228471
 20
312.1425334670702
 30
0.0
 10
161.3177997078809
 20
315.0414477371741
 30
0.0
 10
161.2420210958777
 20
316.9919655476118
 30
0.0
 10
161.0955504232185
 20
319.0204260488575
 30
0.0
  0
SPLINE
  5
C7
330
1F
100
AcDbEntity
  8
0
  6
Continuous
 62
     8
370
    25
100
AcDbSpline
210
0.0
220
0.0
230
1.0
 70
     8
 71
     3
 72
    12
 73
     8
 74
     0
 42
0.00000001
 43
0.00000001
 40
0.0
 40
0.0
 40
0.0
 40
0.0
 40
0.5
 40
0.5
 40
0.75
 40
0.75
 40
1.0
 40
1.0
 40
1.0
 40
1.0
 10
194.1787808332065
 20
319.0204260488578
 30
0.0
 10
194.0323101605473
 20
316.9919655476121
 30
0.0
 10
193.9565315485442
 20
315.0414477371745
 30
0.0
 10
193.892501833578
 20
312.1425334670706
 30
0.0
 10
193.8794862532972
 20
311.180827963521
 30
0.0
 10
193.8614619071709
 20
309.2575566576642
 30
0.0
 10
193.8564507712202
 20
308.2958801480318
 30
0.0
 10
193.8514131318343
 20
307.3337754364639
 30
0.0
  0
LINE
  5
C8
330
1F
100
AcDbEntity
  8
0
  6
Continuous
 62
     8
370
    18
100
AcDbLine
 10
177.6371656282
 20
379.9702414647
 30
0.0
 11
177.6371656282
 21
381.4155246935
 31
0.0
  0
LINE
  5
C9
330
1F
100
AcDbEntity
  8
0
  6
Continuous
 62
     8
370
    18
100
AcDbLine
 10
194.1787808332
 20
319.0204260489
 30
0.0
 11
194.1787808332
 21
319.0142434896
 31
0.0
  0
LINE
  5
CA
330
1F
100
AcDbEntity
  8
0
  6
Continuous
 62
     8
370
    18
100
AcDbLine
 10
201.1220971064
 20
347.8381028053
 30
0.0
 11
201.1220971064
 21
347.8449264796
 31
0.0
  0
LINE
  5
CB
330
1F
100
AcDbEntity
  8
0
  6
Continuous
 62
     8
370
    18
100
AcDbLine
 10
190.8517881457
 20
266.4160921953
 30
0.0
 11
190.8517881457
 21
266.411032871
 31
0.0
  0
LINE
  5
CC
330
1F
100
AcDbEntity
  8
0
  6
Continuous
 62
     8
370
    18
100
AcDbLine
 10
193.651749764
 20
269.1963300638
 30
0.0
 11
193.651749764
 21
269.2014177515
 31
0.0
  0
LINE
  5
CD
330
1F
100
AcDbEntity
  8
0
  6
Continuous
 62
     8
370
    18
100
AcDbLine
 10
161.4229181246
 20
307.3337754365
 30
0.0
 11
161.4229181246
 21
307.3278513963
 31
0.0
  0
LINE
  5
CE
330
1F
100
AcDbEntity
  8
0
  6
Continuous
 62
     8
370
    18
100
AcDbLine
 10
161.6225814925
 20
269.1963300638
 30
0.0
 11
161.6225814925
 21
269.2014177515
 31
0.0
  0
LINE
  5
CF
330
1F
100
AcDbEntity
  8
0
  6
Continuous
 62
     8
370
    18
100
AcDbLine
 10
164.4225431108
 20
266.4160921953
 30
0.0
 11
164.4225431108
 21
266.411032871
 31
0.0
  0
LINE
  5
D0
330
1F
100
AcDbEntity
  8
0
  6
Continuous
 62
     8
370
    18
100
AcDbLine
 10
193.8514131318
 20
307.3337754365
 30
0.0
 11
193.8514131318
 21
307.3278513963
 31
0.0
  0
LINE
  5
D1
330
1F
100
AcDbEntity
  8
0
  6
Continuous
 62
     8
370
    18
100
AcDbLine
 10
177.6371656282
 20
266.4160921953
 30
0.0
 11
177.6371656282
 21
266.411032871
 31
0.0
  0
ARC
  5
D2
330
1F
100
AcDbEntity
  8
0
  6
Continuous
 62
     8
370
    18
100
AcDbCircle
 10
177.6371656288
 20
341.458158851
 30
0.0
 40
73.35275294427503
100
AcDbArc
 50
282.6133940228
 51
257.3866059763
  0
ARC
  5
D3
330
1F
100
AcDbEntity
  8
0
  6
Continuous
 62
     8
370
    18
100
AcDbCircle
 10
177.6371656288
 20
341.458158851
 30
0.0
 40
74.34193130454273
100
AcDbArc
 50
282.4276628137
 51
257.5590247593
  0
LINE
  5
D4
330
1F
100
AcDbEntity
  8
0
  6
Continuous
 62
     7
370
    25
100
AcDbLine
 10
339.1735367974
 20
266.958158851
 30
0.0
 11
345.20993674
 21
267.1162275465
 31
0.0
  0
LINE
  5
D5
330
1F
100
AcDbEntity
  8
0
  6
Continuous
 62
     7
370
    25
100
AcDbLine
 10
345.20993674
 20
415.8000901555
 30
0.0
 11
339.1735367974
 21
415.958158851
 31
0.0
  0
ARC
  5
D6
330
1F
100
AcDbEntity
  8
0
  6
Continuous
 62
     7
370
    25
100
AcDbCircle
 10
345.1837597917
 20
414.8004328306
 30
0.0
 40
0.9999999999996357
100
AcDbArc
 50
0.6004114401
 51
88.5
  0
ARC
  5
D7
330
1F
100
AcDbEntity
  8
0
  6
Continuous
 62
     7
370
    25
100
AcDbCircle
 10
345.1837597917
 20
268.1158848714
 30
0.0
 40
0.9999999999996458
100
AcDbArc
 50
271.5
 51
359.3995885599
  0
ARC
  5
D8
330
1F
100
AcDbEntity
  8
0
  6
Continuous
 62
     7
370
    25
100
AcDbCircle
 10
-6653.4319541083
 20
341.458158851
 30
0.0
 40
7000.000000000001
100
AcDbArc
 50
0.3226489236
 51
0.6004114401
  0
ARC
  5
D9
330
1F
100
AcDbEntity
  8
0
  6
Continuous
 62
     7
370
    25
100
AcDbCircle
 10
-6653.4319541083
 20
341.458158851
 30
0.0
 40
7000.0
100
AcDbArc
 50
359.3995885599
 51
359.9223308243
  0
LINE
  5
DA
330
1F
100
AcDbEntity
  8
0
  6
Continuous
 62
     7
370
    25
100
AcDbLine
 10
376.1735367974
 20
380.958158851
 30
0.0
 11
346.4567725035
 21
380.958158851
 31
0.0
  0
LINE
  5
DB
330
1F
100
AcDbEntity
  8
0
  6
Continuous
 62
     7
370
    25
100
AcDbLine
 10
346.5615761335
 20
331.958158851
 30
0.0
 11
376.1735367974
 21
331.958158851
 31
0.0
  0
ARC
  5
DC
330
1F
100
AcDbEntity
  8
0
  6
Continuous
 62
     7
370
    25
100
AcDbCircle
 10
376.1735367974
 20
356.458158851
 30
0.0
 40
24.50000000000008
100
AcDbArc
 50
45.0440010432
 51
90.0
  0
ARC
  5
DD
330
1F
100
AcDbEntity
  8
0
  6
Continuous
 62
     7
370
    25
100
AcDbCircle
 10
376.1735367974
 20
356.458158851
 30
0.0
 40
24.50000000000004
100
AcDbArc
 50
270.0
 51
296.8895362254
  0
SPLINE
  5
DE
330
1F
100
AcDbEntity
  8
0
  6
Continuous
 62
     7
370
    25
100
AcDbSpline
210
0.0
220
0.0
230
1.0
 70
     8
 71
     3
 72
    16
 73
    12
 74
     0
 42
0.00000001
 43
0.00000001
 40
0.0
 40
0.0
 40
0.0
 40
0.0
 40
0.0785689134478964
 40
0.1630578323120113
 40
0.2472760978043227
 40
0.331322382193753
 40
0.4155027483184872
 40
0.4999245779160542
 40
0.6688330108391745
 40
0.8374530314793128
 40
1.0
 40
1.0
 40
1.0
 40
1.0
 10
419.2858366353674
 20
267.8709643361206
 30
0.0
 10
419.3318299502343
 20
270.758347217305
 30
0.0
 10
419.427282081286
 20
276.7506713185279
 30
0.0
 10
419.3905967401665
 20
285.8745362121797
 30
0.0
 10
419.4237169938664
 20
295.2613329850528
 30
0.0
 10
419.4224355666786
 20
304.7069125130388
 30
0.0
 10
419.4064137262008
 20
314.1916340329212
 30
0.0
 10
419.3873576870976
 20
326.8536978842867
 30
0.0
 10
419.4795959247357
 20
342.6830432664096
 30
0.0
 10
419.424989833586
 20
361.4511056140031
 30
0.0
 10
419.0981221802147
 20
373.8732205512721
 30
0.0
 10
418.9376854582526
 20
379.9703775498763
 30
0.0
  0
LINE
  5
DF
330
1F
100
AcDbEntity
  8
0
  6
Continuous
 62
     7
370
    25
100
AcDbLine
 10
393.7850121625
 20
331.3346230933
 30
0.0
 11
393.9847998416
 21
330.7910306192
 31
0.0
  0
ARC
  5
E0
330
1F
100
AcDbEntity
  8
0
  6
Continuous
 62
     7
370
    25
100
AcDbCircle
 10
394.1725225411
 20
330.8600247357
 30
0.0
 40
0.2000000000000113
100
AcDbArc
 50
200.18
 51
270.18
  0
LINE
  5
E1
330
1F
100
AcDbEntity
  8
0
  6
Continuous
 62
     7
370
    25
100
AcDbLine
 10
394.1731508586
 20
330.6600257226
 30
0.0
 11
400.5094246422
 21
330.6799317793
 31
0.0
  0
SPLINE
  5
E2
330
1F
100
AcDbEntity
  8
0
  6
Continuous
 62
     7
370
    25
100
AcDbSpline
210
0.0
220
0.0
230
1.0
 70
     8
 71
     3
 72
    15
 73
    11
 74
     0
 42
0.00000001
 43
0.00000001
 40
0.0
 40
0.0
 40
0.0
 40
0.0
 40
0.095913772194798
 40
0.220253613394222
 40
0.3403398005573107
 40
0.4593416212884381
 40
0.5805694096922202
 40
0.7076791245812658
 40
0.8453911769810205
 40
1.0
 40
1.0
 40
1.0
 40
1.0
 10
400.0155011483914
 20
330.6314018734336
 30
0.0
 10
400.7569925057852
 20
330.4465016306066
 30
0.0
 10
402.459731820791
 20
330.0219020588434
 30
0.0
 10
404.9241565679407
 20
328.8573956750988
 30
0.0
 10
407.3475007813386
 20
327.2654805128569
 30
0.0
 10
409.4560633884568
 20
325.3027450073949
 30
0.0
 10
411.2391496121896
 20
322.9702851842976
 30
0.0
 10
412.6747982138342
 20
320.2423251361152
 30
0.0
 10
413.7429595145558
 20
317.0579644204759
 30
0.0
 10
414.0181005727213
 20
314.7437352102057
 30
0.0
 10
414.1636229720581
 20
313.5197369107908
 30
0.0
  0
SPLINE
  5
E3
330
1F
100
AcDbEntity
  8
0
  6
Continuous
 62
     7
370
    25
100
AcDbSpline
210
0.0
220
0.0
230
1.0
 70
     8
 71
     3
 72
     9
 73
     5
 74
     0
 42
0.00000001
 43
0.00000001
 40
0.0
 40
0.0
 40
0.0
 40
0.0
 40
0.7871383744374701
 40
1.0
 40
1.0
 40
1.0
 40
1.0
 10
390.7286365126706
 20
331.3312358504449
 30
0.0
 10
391.5360792635305
 20
331.3421096883511
 30
0.0
 10
392.5618744439994
 20
331.3559240801522
 30
0.0
 10
393.5873874061161
 20
331.3332371271833
 30
0.0
 10
393.8056797622676
 20
331.3284079454953
 30
0.0
  0
LINE
  5
E4
330
1F
100
AcDbEntity
  8
0
  6
Continuous
 62
     7
370
    25
100
AcDbLine
 10
339.1735367974
 20
415.958158851
 30
0.0
 11
339.1735367974
 21
266.958158851
 31
0.0
  0
SPLINE
  5
E5
330
1F
100
AcDbEntity
  8
0
  6
Continuous
 62
     7
370
    25
100
AcDbSpline
210
0.0
220
0.0
230
1.0
 70
     8
 71
     3
 72
    21
 73
    17
 74
     0
 42
0.00000001
 43
0.00000001
 40
0.0
 40
0.0
 40
0.0
 40
0.0
 40
0.0705693446446142
 40
0.1431852079926932
 40
0.2137545516266348
 40
0.2863704059646282
 40
0.3569398379557022
 40
0.4295557859332738
 40
0.5001252535793727
 40
0.5727412441573079
 40
0.6433106435119922
 40
0.7159265681562814
 40
0.7864958252033865
 40
0.8591116042770214
 40
0.9296807073682744
 40
0.9999999999999999
 40
0.9999999999999999
 40
0.9999999999999999
 40
0.9999999999999999
 10
346.4719754775049
 20
373.7823778268061
 30
0.0
 10
346.4741320516018
 20
372.7759901480551
 30
0.0
 10
346.4785077406802
 20
370.7340294379347
 30
0.0
 10
346.4861848100007
 20
367.1514409668317
 30
0.0
 10
346.4945092869542
 20
363.2667282944563
 30
0.0
 10
346.5031908432863
 20
359.2153754424222
 30
0.0
 10
346.5121144691139
 20
355.0510526590609
 30
0.0
 10
346.5208737882712
 20
350.9634004487619
 30
0.0
 10
346.5293767396783
 20
346.9953807031411
 30
0.0
 10
346.5372298950865
 20
343.3305929125596
 30
0.0
 10
346.5443529442563
 20
340.0065161014343
 30
0.0
 10
346.5504132660848
 20
337.1783741138207
 30
0.0
 10
346.5553589956284
 20
334.870371854174
 30
0.0
 10
346.5589216461162
 20
333.2078041114729
 30
0.0
 10
346.5611878053309
 20
332.1502642737037
 30
0.0
 10
346.5614467407846
 20
332.0294278332944
 30
0.0
 10
346.5615759789511
 20
331.96911674117
 30
0.0
  0
SPLINE
  5
E6
330
1F
100
AcDbEntity
  8
0
  6
Continuous
 62
     7
370
    25
100
AcDbSpline
210
0.0
220
0.0
230
1.0
 70
     8
 71
     3
 72
    13
 73
     9
 74
     0
 42
0.00000001
 43
0.00000001
 40
0.0
 40
0.0
 40
0.0
 40
0.0
 40
0.0845511821494814
 40
0.3023462404708359
 40
0.5140031285114693
 40
0.7317980693506184
 40
0.8651546316642483
 40
1.0
 40
1.0
 40
1.0
 40
1.0
 10
346.4567725523692
 20
380.8769711495036
 30
0.0
 10
346.4567292405401
 20
380.8971830149783
 30
0.0
 10
346.4565743619405
 20
380.969458545418
 30
0.0
 10
346.4578673611638
 20
380.3660685068238
 30
0.0
 10
346.4606048524674
 20
379.0885925121659
 30
0.0
 10
346.4642858214928
 20
377.3708329022788
 30
0.0
 10
346.4681795980653
 20
375.5537636235756
 30
0.0
 10
346.4707055105246
 20
374.3750208511647
 30
0.0
 10
346.4719754775049
 20
373.7823778268061
 30
0.0
  0
LINE
  5
E7
330
1F
100
AcDbEntity
  8
0
  6
Continuous
 62
     7
370
    25
100
AcDbLine
 10
396.3466944327
 20
381.3492475822
 30
0.0
 11
390.0726069871
 21
363.799909468
 31
0.0
  0
LINE
  5
E8
330
1F
100
AcDbEntity
  8
0
  6
Continuous
 62
     7
370
    25
100
AcDbLine
 10
396.3466944327
 20
381.3492475822
 30
0.0
 11
417.443284763
 21
381.4155246935
 31
0.0
  0
SPLINE
  5
E9
330
1F
100
AcDbEntity
  8
0
  6
Continuous
 62
     7
370
    25
100
AcDbSpline
210
0.0
220
0.0
230
1.0
 70
     8
 71
     3
 72
    12
 73
     8
 74
     0
 42
0.00000001
 43
0.00000001
 40
0.0
 40
0.0
 40
0.0
 40
0.0
 40
0.2499999999999989
 40
0.2499999999999989
 40
0.4999999999999986
 40
0.4999999999999986
 40
1.0
 40
1.0
 40
1.0
 40
1.0
 10
387.1970612823563
 20
352.7938226798146
 30
0.0
 10
387.1952324486741
 20
353.3759566059121
 30
0.0
 10
387.2188642982983
 20
353.9604985209326
 30
0.0
 10
387.3176672814515
 20
355.1274474993267
 30
0.0
 10
387.3923198338647
 20
355.7049612175433
 30
0.0
 10
387.6900075630055
 20
357.4201629669635
 30
0.0
 10
387.9862124808072
 20
358.5406375311384
 30
0.0
 10
388.3817131904995
 20
359.6379810084775
 30
0.0
  0
SPLINE
  5
EA
330
1F
100
AcDbEntity
  8
0
  6
Continuous
 62
     7
370
    18
100
AcDbSpline
210
0.0
220
0.0
230
1.0
 70
     8
 71
     3
 72
    18
 73
    14
 74
     0
 42
0.00000001
 43
0.00000001
 40
0.0
 40
0.0
 40
0.0
 40
0.0
 40
0.2500000000000001
 40
0.2500000000000001
 40
0.5000000000000001
 40
0.5000000000000001
 40
0.75
 40
0.75
 40
0.875
 40
0.875
 40
0.9375
 40
0.9375
 40
1.0
 40
1.0
 40
1.0
 40
1.0
 10
419.1381364656613
 20
319.12956444242
 30
0.0
 10
419.1302361610098
 20
321.6442928801259
 30
0.0
 10
419.1223927572262
 20
324.1409092684671
 30
0.0
 10
419.1068318926058
 20
329.0940532915299
 30
0.0
 10
419.0991159437863
 20
331.550099637795
 30
0.0
 10
419.0837918973646
 20
336.4278623342005
 30
0.0
 10
419.0761737610482
 20
338.8527740958237
 30
0.0
 10
419.0648955724812
 20
342.4427086574136
 30
0.0
 10
419.0611586405207
 20
343.6322029486511
 30
0.0
 10
419.0555896077855
 20
345.4048690192101
 30
0.0
 10
419.0537396653918
 20
345.993719943495
 30
0.0
 10
419.0500474282235
 20
347.1689874872471
 30
0.0
 10
419.0482093845397
 20
347.7540509470016
 30
0.0
 10
419.0463473968715
 20
348.3467359885933
 30
0.0
  0
ARC
  5
EB
330
1F
100
AcDbEntity
  8
0
  6
Continuous
 62
     7
370
    25
100
AcDbCircle
 10
417.4479971443
 20
379.9155320957
 30
0.0
 40
1.500000000000092
100
AcDbArc
 50
2.0902075604
 51
90.18
  0
SPLINE
  5
EC
330
1F
100
AcDbEntity
  8
0
  6
Continuous
 62
     7
370
    18
100
AcDbSpline
210
0.0
220
0.0
230
1.0
 70
    24
 71
     3
 72
    22
 73
    18
 74
     0
 42
0.00000001
 43
0.00000001
 40
0.0
 40
0.0
 40
0.0
 40
0.0
 40
0.1250000000000001
 40
0.1250000000000001
 40
0.2500000000000001
 40
0.2500000000000001
 40
0.3750000000000001
 40
0.3750000000000001
 40
0.5000000000000001
 40
0.5000000000000001
 40
0.6250000000000001
 40
0.6250000000000001
 40
0.7500000000000001
 40
0.7500000000000001
 40
0.8750000000000001
 40
0.8750000000000001
 40
1.0
 40
1.0
 40
1.0
 40
1.0
 10
419.046347595031
 20
348.3467380939977
 30
0.0
 10
419.0407854379964
 20
350.1172218419323
 30
0.0
 10
419.0349787450461
 20
351.9655435332752
 30
0.0
 10
419.0232081361671
 20
355.7122323797482
 30
0.0
 10
419.0172448703018
 20
357.610392613847
 30
0.0
 10
419.0055032126167
 20
361.3478660393439
 30
0.0
 10
418.9997254692616
 20
363.1869728186571
 30
0.0
 10
418.988686347928
 20
366.7008227138151
 30
0.0
 10
418.9834255796147
 20
368.3753717677897
 30
0.0
 10
418.973722277298
 20
371.4640186625139
 30
0.0
 10
418.9692802791859
 20
372.8779459243798
 30
0.0
 10
418.9614694464541
 20
375.3642030227271
 30
0.0
 10
418.958101043209
 20
376.4363955489315
 30
0.0
 10
418.9526307650886
 20
378.1776334263794
 30
0.0
 10
418.9505291923242
 20
378.8465826130488
 30
0.0
 10
418.9477132829499
 20
379.7429114566807
 30
0.0
 10
418.9469991018561
 20
379.970241611457
 30
0.0
 10
418.9469991018561
 20
379.970241611457
 30
0.0
  0
LINE
  5
ED
330
1F
100
AcDbEntity
  8
0
  6
Continuous
 62
     7
370
    25
100
AcDbLine
 10
388.3817131905
 20
359.6379810085
 30
0.0
 11
396.1591702563
 21
381.217061835
 31
0.0
  0
ARC
  5
EE
330
1F
100
AcDbEntity
  8
0
  6
Continuous
 62
     7
370
    25
100
AcDbCircle
 10
396.3473227502
 20
381.1492485692
 30
0.0
 40
0.2000000000000113
100
AcDbArc
 50
90.18
 51
160.18
  0
LINE
  5
EF
330
1F
100
AcDbEntity
  8
0
  6
Continuous
 62
     7
370
    25
100
AcDbLine
 10
387.238962081
 20
339.4564281117
 30
0.0
 11
387.1970612824
 21
352.7938226798
 31
0.0
  0
LINE
  5
F0
330
1F
100
AcDbEntity
  8
0
  6
Continuous
 62
     7
370
    25
100
AcDbLine
 10
390.7574154666
 20
331.3314415456
 30
0.0
 11
387.4645210498
 21
331.3210965787
 31
0.0
  0
SPLINE
  5
F1
330
1F
100
AcDbEntity
  8
0
  6
Continuous
 62
     7
370
    25
100
AcDbSpline
210
0.0
220
0.0
230
1.0
 70
     8
 71
     3
 72
    10
 73
     6
 74
     0
 42
0.00000001
 43
0.00000001
 40
0.0
 40
0.0
 40
0.0
 40
0.0
 40
0.5
 40
0.5
 40
1.0
 40
1.0
 40
1.0
 40
1.0
 10
398.054728690918
 20
331.4043670533949
 30
0.0
 10
398.3238044258977
 20
331.3596193813669
 30
0.0
 10
398.5818770789737
 20
331.306769839359
 30
0.0
 10
399.0782808188821
 20
331.1879195548134
 30
0.0
 10
399.3183377345925
 20
331.1212495093441
 30
0.0
 10
399.5405074192211
 20
331.0522381588187
 30
0.0
  0
SPLINE
  5
F2
330
1F
100
AcDbEntity
  8
0
  6
Continuous
 62
     7
370
    25
100
AcDbSpline
210
0.0
220
0.0
230
1.0
 70
     8
 71
     3
 72
    12
 73
     8
 74
     0
 42
0.00000001
 43
0.00000001
 40
0.0
 40
0.0
 40
0.0
 40
0.0
 40
0.2499999999999917
 40
0.2499999999999917
 40
0.4999999999999835
 40
0.4999999999999835
 40
1.0
 40
1.0
 40
1.0
 40
1.0
 10
395.7155090610261
 20
331.5440421478874
 30
0.0
 10
395.8911817548567
 20
331.5497856560323
 30
0.0
 10
396.0734023842566
 20
331.5522168810001
 30
0.0
 10
396.4507550645577
 20
331.5486378802165
 30
0.0
 10
396.6476235965912
 20
331.5425242926004
 30
0.0
 10
397.2454808038043
 20
331.5092038878623
 30
0.0
 10
397.6481995634181
 20
331.4676936053639
 30
0.0
 10
398.0547286909183
 20
331.4043670533949
 30
0.0
  0
ARC
  5
F3
330
1F
100
AcDbEntity
  8
0
  6
Continuous
 62
     7
370
    25
100
AcDbCircle
 10
387.4638927323
 20
331.5210955917
 30
0.0
 40
0.200000000000068
100
AcDbArc
 50
180.18
 51
270.18
  0
LINE
  5
F4
330
1F
100
AcDbEntity
  8
0
  6
Continuous
 62
     7
370
    25
100
AcDbLine
 10
387.2638937193
 20
331.5204672742
 30
0.0
 11
387.238962081
 21
339.4564281117
 31
0.0
  0
SPLINE
  5
F5
330
1F
100
AcDbEntity
  8
0
  6
Continuous
 62
     7
370
    25
100
AcDbSpline
210
0.0
220
0.0
230
1.0
 70
    24
 71
     3
 72
    10
 73
     6
 74
     0
 42
0.00000001
 43
0.00000001
 40
0.0
 40
0.0
 40
0.0
 40
0.0
 40
0.5
 40
0.5
 40
1.0
 40
1.0
 40
1.0
 40
1.0
 10
414.2903980482893
 20
307.3205211981481
 30
0.0
 10
414.2723669184921
 20
309.1016804194257
 30
0.0
 10
414.254335703488
 20
310.8828480576327
 30
0.0
 10
414.2183055935254
 20
314.4419906807194
 30
0.0
 10
414.2003072079657
 20
316.2199153459185
 30
0.0
 10
414.1823386310232
 20
317.9948954428119
 30
0.0
  0
LINE
  5
F6
330
1F
100
AcDbEntity
  8
0
  6
Continuous
 62
     7
370
    25
100
AcDbLine
 10
414.6764131795
 20
269.1889998657
 30
0.0
 11
414.2903980483
 21
307.3205211981
 31
0.0
  0
ARC
  5
F7
330
1F
100
AcDbEntity
  8
0
  6
Continuous
 62
     7
370
    25
100
AcDbCircle
 10
416.189427299
 20
267.9110254688
 30
0.0
 40
1.500000000000029
100
AcDbArc
 50
180.58
 51
270.18
  0
SPLINE
  5
F8
330
1F
100
AcDbEntity
  8
0
  6
Continuous
 62
     7
370
    25
100
AcDbSpline
210
0.0
220
0.0
230
1.0
 70
    24
 71
     3
 72
    24
 73
    20
 74
     0
 42
0.00000001
 43
0.00000001
 40
0.0
 40
0.0
 40
0.0
 40
0.0
 40
0.2499999999999641
 40
0.2499999999999641
 40
0.3749999999999471
 40
0.3749999999999471
 40
0.4374999999999407
 40
0.4374999999999407
 40
0.4687499999999386
 40
0.4687499999999386
 40
0.4999999999999365
 40
0.4999999999999365
 40
0.5624999999999444
 40
0.5624999999999444
 40
0.6249999999999523
 40
0.6249999999999523
 40
0.7499999999999684
 40
0.7499999999999684
 40
1.0
 40
1.0
 40
1.0
 40
1.0
 10
414.6895041533565
 20
267.8958413636165
 30
0.0
 10
414.6895041533566
 20
267.8958413636165
 30
0.0
 10
414.6895128892526
 20
267.8949784103919
 30
0.0
 10
414.689231354635
 20
267.9227890903485
 30
0.0
 10
414.6890894334982
 20
267.9368084082946
 30
0.0
 10
414.6887325505938
 20
267.9720621768275
 30
0.0
 10
414.6885896423949
 20
267.9861789991771
 30
0.0
 10
414.6883143808845
 20
268.0133700062399
 30
0.0
 10
414.6882121477784
 20
268.0234688431802
 30
0.0
 10
414.6879739369638
 20
268.0469998916388
 30
0.0
 10
414.6878370278473
 20
268.0605241099168
 30
0.0
 10
414.6872849203121
 20
268.1150626462271
 30
0.0
 10
414.6868256874994
 20
268.1604267897143
 30
0.0
 10
414.6859262836898
 20
268.2492721037447
 30
0.0
 10
414.6854616022088
 20
268.2951744800172
 30
0.0
 10
414.6840530764231
 20
268.4343121114193
 30
0.0
 10
414.6831057251909
 20
268.5278937894544
 30
0.0
 10
414.6802514336102
 20
268.8098477117132
 30
0.0
 10
414.6783315300003
 20
268.9995004987111
 30
0.0
 10
414.6764131795006
 20
269.1889998656721
 30
0.0
  0
LINE
  5
F9
330
1F
100
AcDbEntity
  8
0
  6
Continuous
 62
     7
370
    25
100
AcDbLine
 10
417.8045673239
 20
266.4160921953
 30
0.0
 11
416.1941396803
 21
266.411032871
 31
0.0
  0
ARC
  5
FA
330
1F
100
AcDbEntity
  8
0
  6
Continuous
 62
     7
370
    25
100
AcDbCircle
 10
417.7998549427
 20
267.9160847931
 30
0.0
 40
1.500000000000029
100
AcDbArc
 50
270.18
 51
358.2697868283
  0
LINE
  5
FB
330
1F
100
AcDbEntity
  8
0
  6
Continuous
 62
     7
370
    25
100
AcDbLine
 10
394.1117961451
 20
331.3919799247
 30
0.0
 11
398.0547286909
 21
331.4043670534
 31
0.0
  0
SPLINE
  5
FC
330
1F
100
AcDbEntity
  8
0
  6
Continuous
 62
     7
370
    25
100
AcDbSpline
210
0.0
220
0.0
230
1.0
 70
     8
 71
     3
 72
    10
 73
     6
 74
     0
 42
0.00000001
 43
0.00000001
 40
0.0
 40
0.0
 40
0.0
 40
0.0
 40
0.5
 40
0.5
 40
1.0
 40
1.0
 40
1.0
 40
1.0
 10
395.7155494879713
 20
331.5446091586289
 30
0.0
 10
395.3623049581471
 20
331.5318337088776
 30
0.0
 10
395.0486854275596
 20
331.5052367180365
 30
0.0
 10
394.5009195819461
 20
331.4466099187514
 30
0.0
 10
394.2799611202598
 20
331.4162945286524
 30
0.0
 10
394.1117961450823
 20
331.3919799247233
 30
0.0
  0
SPLINE
  5
FD
330
1F
100
AcDbEntity
  8
0
  6
Continuous
 62
     7
370
    25
100
AcDbSpline
210
0.0
220
0.0
230
1.0
 70
     8
 71
     3
 72
     8
 73
     4
 74
     0
 42
0.00000001
 43
0.00000001
 40
0.0
 40
0.0
 40
0.0
 40
0.0
 40
1.0
 40
1.0
 40
1.0
 40
1.0
 10
400.2380180134435
 20
330.8106757481407
 30
0.0
 10
400.0282045449314
 20
330.891309563517
 30
0.0
 10
399.7965371394343
 20
330.9731391211881
 30
0.0
 10
399.5413520263673
 20
331.0521814951452
 30
0.0
  0
SPLINE
  5
FE
330
1F
100
AcDbEntity
  8
0
  6
Continuous
 62
     7
370
    25
100
AcDbSpline
210
0.0
220
0.0
230
1.0
 70
     8
 71
     3
 72
     9
 73
     5
 74
     0
 42
0.00000001
 43
0.00000001
 40
0.0
 40
0.0
 40
0.0
 40
0.0
 40
0.9101150303439741
 40
1.0
 40
1.0
 40
1.0
 40
1.0
 10
394.1117961450701
 20
331.3919799247224
 30
0.0
 10
393.9240334731435
 20
331.3612994783943
 30
0.0
 10
393.7177269452141
 20
331.3275889634538
 30
0.0
 10
393.7984808529972
 20
331.3410326395785
 30
0.0
 10
393.8057394155479
 20
331.342241023999
 30
0.0
  0
SPLINE
  5
FF
330
1F
100
AcDbEntity
  8
0
  6
Continuous
 62
     7
370
    25
100
AcDbSpline
210
0.0
220
0.0
230
1.0
 70
     8
 71
     3
 72
    14
 73
    10
 74
     0
 42
0.00000001
 43
0.00000001
 40
0.0
 40
0.0
 40
0.0
 40
0.0
 40
0.1249999999999997
 40
0.1249999999999997
 40
0.2499999999999993
 40
0.2499999999999993
 40
0.5000000000000002
 40
0.5000000000000002
 40
1.0
 40
1.0
 40
1.0
 40
1.0
 10
400.489816595267
 20
330.6812910808623
 30
0.0
 10
400.509905017344
 20
330.6780214933399
 30
0.0
 10
400.5116261779827
 20
330.6808566593359
 30
0.0
 10
400.5076357846512
 20
330.6878132310052
 30
0.0
 10
400.501143306094
 20
330.6924657068039
 30
0.0
 10
400.4769930248571
 20
330.707407201476
 30
0.0
 10
400.4536855622325
 20
330.7191439493897
 30
0.0
 10
400.375236513515
 20
330.7558819730271
 30
0.0
 10
400.3108251684671
 20
330.7826950911414
 30
0.0
 10
400.2380180134435
 20
330.8106757481407
 30
0.0
  0
LINE
  5
100
330
1F
100
AcDbEntity
  8
0
  6
Continuous
 62
     8
370
    18
100
AcDbLine
 10
346.1837048858
 20
414.8109117953
 30
0.0
 11
346.1837048858
 21
268.1054059067
 31
0.0
  0
LINE
  5
101
330
1F
100
AcDbEntity
  8
0
  6
Continuous
 62
     8
370
    18
100
AcDbLine
 10
390.0726069871
 20
363.799909468
 30
0.0
 11
388.5697834595
 21
359.5963406718
 31
0.0
  0
LINE
  5
102
330
1F
100
AcDbEntity
  8
0
  6
Continuous
 62
     8
370
    18
100
AcDbLine
 10
387.3971496416
 20
352.7660113021
 30
0.0
 11
387.4393883499
 21
339.3210571003
 31
0.0
  0
SPLINE
  5
103
330
1F
100
AcDbEntity
  8
0
  6
Continuous
 62
     8
370
    18
100
AcDbSpline
210
0.0
220
0.0
230
1.0
 70
     8
 71
     3
 72
    12
 73
     8
 74
     0
 42
0.00000001
 43
0.00000001
 40
0.0
 40
0.0
 40
0.0
 40
0.0
 40
0.4999999999999993
 40
0.4999999999999993
 40
0.7499999999999997
 40
0.7499999999999997
 40
1.0
 40
1.0
 40
1.0
 40
1.0
 10
388.5697834595061
 20
359.5963406717848
 30
0.0
 10
388.1780667666391
 20
358.5006644084766
 30
0.0
 10
387.884853554486
 20
357.3821624448898
 30
0.0
 10
387.5902600765497
 20
355.670416177845
 30
0.0
 10
387.5164058635134
 20
355.0941374544822
 30
0.0
 10
387.4186824853183
 20
353.929837505334
 30
0.0
 10
387.395325358986
 20
353.3466965919338
 30
0.0
 10
387.3971496416283
 20
352.7660113020585
 30
0.0
  0
ARC
  5
104
330
1F
100
AcDbEntity
  8
0
  6
Continuous
 62
     8
370
    18
100
AcDbCircle
 10
388.3911013875
 20
359.2348495146
 30
0.0
 40
0.4032407960067973
100
AcDbArc
 50
63.6971958206
 51
91.3340730273
  0
ARC
  5
105
330
1F
100
AcDbEntity
  8
0
  6
Continuous
 62
     8
370
    18
100
AcDbCircle
 10
387.3469892607
 20
353.138804908
 30
0.0
 40
0.3761530758284152
100
AcDbArc
 50
246.5104155662
 51
277.6632757976
  0
LINE
  5
106
330
1F
100
AcDbEntity
  8
0
  6
Continuous
 62
     8
370
    18
100
AcDbLine
 10
417.6393053914
 20
319.0204260489
 30
0.0
 11
415.6713421451
 21
319.0142434896
 31
0.0
  0
ARC
  5
107
330
1F
100
AcDbEntity
  8
0
  6
Continuous
 62
     8
370
    18
100
AcDbCircle
 10
417.977805142
 20
324.7182390067
 30
0.0
 40
5.707859019206493
100
AcDbArc
 50
266.600127394
 51
281.7292161953
  0
ARC
  5
108
330
1F
100
AcDbEntity
  8
0
  6
Continuous
 62
     8
370
    18
100
AcDbCircle
 10
387.4119570416
 20
339.4965012
 30
0.0
 40
0.1775756424582112
100
AcDbArc
 50
193.0421449211
 51
278.886450814
  0
LINE
  5
109
330
1F
100
AcDbEntity
  8
0
  6
Continuous
 62
     8
370
    18
100
AcDbLine
 10
376.1735367974
 20
380.958158851
 30
0.0
 11
376.1735367974
 21
331.958158851
 31
0.0
  0
SPLINE
  5
10A
330
1F
100
AcDbEntity
  8
0
  6
Continuous
 62
     8
370
    18
100
AcDbSpline
210
0.0
220
0.0
230
1.0
 70
     8
 71
     3
 72
    28
 73
    24
 74
     0
 42
0.00000001
 43
0.00000001
 40
0.0
 40
0.0
 40
0.0
 40
0.0
 40
0.2500000000000361
 40
0.2500000000000361
 40
0.3750000000000533
 40
0.3750000000000533
 40
0.4375000000000619
 40
0.4375000000000619
 40
0.4687500000000663
 40
0.4687500000000663
 40
0.5000000000000706
 40
0.5000000000000706
 40
0.515625000000072
 40
0.515625000000072
 40
0.5312500000000736
 40
0.5312500000000736
 40
0.5625000000000626
 40
0.5625000000000626
 40
0.6250000000000562
 40
0.6250000000000562
 40
0.7500000000000434
 40
0.7500000000000434
 40
1.0
 40
1.0
 40
1.0
 40
1.0
 10
419.2991712783573
 20
267.8708020639203
 30
0.0
 10
419.2991712840602
 20
267.8708022527416
 30
0.0
 10
419.2991738861288
 20
267.8699759953328
 30
0.0
 10
419.2990910864916
 20
267.8963348577675
 30
0.0
 10
419.2990494545534
 20
267.9095876737724
 30
0.0
 10
419.2989422377696
 20
267.9437172267389
 30
0.0
 10
419.2988992568226
 20
267.9573989431111
 30
0.0
 10
419.2988161042796
 20
267.9838678840409
 30
0.0
 10
419.2987853147517
 20
267.9936687134522
 30
0.0
 10
419.298712076089
 20
268.0169817280956
 30
0.0
 10
419.2986736144477
 20
268.0292246590531
 30
0.0
 10
419.2985776860841
 20
268.0597598808009
 30
0.0
 10
419.2985356917355
 20
268.0731271784352
 30
0.0
 10
419.2984601860236
 20
268.0971615644124
 30
0.0
 10
419.2984233873115
 20
268.1088750449686
 30
0.0
 10
419.2983123474122
 20
268.14422040218
 30
0.0
 10
419.298237673643
 20
268.1679899734784
 30
0.0
 10
419.2980127439397
 20
268.2395878376526
 30
0.0
 10
419.2978606523075
 20
268.2880004495838
 30
0.0
 10
419.2974028520687
 20
268.4337238150658
 30
0.0
 10
419.2970953006568
 20
268.5316211499395
 30
0.0
 10
419.2961712701389
 20
268.8257512372741
 30
0.0
 10
419.2955597697294
 20
269.0203992266539
 30
0.0
 10
419.294952439927
 20
269.2137196749388
 30
0.0
  0
LINE
  5
10B
330
1F
100
AcDbEntity
  8
0
  6
Continuous
 62
     8
370
    18
100
AcDbLine
 10
419.2949521224
 20
269.2137196241
 30
0.0
 11
419.1751553935
 21
307.3460773091
 31
0.0
  0
SPLINE
  5
10C
330
1F
100
AcDbEntity
  8
0
  6
Continuous
 62
     8
370
    18
100
AcDbSpline
210
0.0
220
0.0
230
1.0
 70
    24
 71
     3
 72
    10
 73
     6
 74
     0
 42
0.00000001
 43
0.00000001
 40
0.0
 40
0.0
 40
0.0
 40
0.0
 40
0.5
 40
0.5
 40
1.0
 40
1.0
 40
1.0
 40
1.0
 10
419.1751552223949
 20
307.3460772816523
 30
0.0
 10
419.1689797159815
 20
309.3118105069108
 30
0.0
 10
419.1628051015377
 20
311.2772598096702
 30
0.0
 10
419.150463785601
 20
315.2056396517521
 30
0.0
 10
419.1442971876627
 20
317.1685372287439
 30
0.0
 10
419.1381364656613
 20
319.1295644424201
 30
0.0
  0
SPLINE
  5
10D
330
1F
100
AcDbEntity
  8
0
  6
Continuous
 62
     8
370
    18
100
AcDbSpline
210
0.0
220
0.0
230
1.0
 70
     8
 71
     3
 72
    36
 73
    32
 74
     0
 42
0.00000001
 43
0.00000001
 40
0.0
 40
0.0
 40
0.0
 40
0.0
 40
0.0423234961534901
 40
0.0834443287306692
 40
0.1228604652317175
 40
0.2005414244082208
 40
0.2265590609642452
 40
0.2522901220160457
 40
0.3025607383107503
 40
0.3524321447795082
 40
0.3894051009781044
 40
0.4515779291607691
 40
0.4765864466009656
 40
0.5139366295951102
 40
0.5510324758338611
 40
0.6008740257325318
 40
0.6267134165505236
 40
0.6522262056514098
 40
0.7039409534006666
 40
0.7429001608487507
 40
0.7684923379785332
 40
0.7813397728043422
 40
0.8324171688219706
 40
0.8707232247774346
 40
0.8770374129249092
 40
0.9084700121332557
 40
0.9313433499752003
 40
0.9430621035956934
 40
0.9783118965102359
 40
0.9950192458598274
 40
1.0
 40
1.0
 40
1.0
 40
1.0
 10
415.6714311821844
 20
319.0142838965831
 30
0.0
 10
415.6340655484524
 20
319.0135778284463
 30
0.0
 10
415.5603960620504
 20
319.0121857557901
 30
0.0
 10
415.4528643872889
 20
319.0031576265673
 30
0.0
 10
415.316736585963
 20
318.98539426999
 30
0.0
 10
415.1977337483452
 20
318.9607619644931
 30
0.0
 10
415.0954353581841
 20
318.9326334421214
 30
0.0
 10
415.0169077390137
 20
318.9082315895443
 30
0.0
 10
414.9240891487044
 20
318.8742667096378
 30
0.0
 10
414.8293847846385
 20
318.8324515358189
 30
0.0
 10
414.7329291510292
 20
318.7830375139216
 30
0.0
 10
414.6588608890163
 20
318.7384507586543
 30
0.0
 10
414.5904144686499
 20
318.6913512145688
 30
0.0
 10
414.5390076313224
 20
318.6524141690583
 30
0.0
 10
414.4795980312986
 20
318.6019955319597
 30
0.0
 10
414.4307817716609
 20
318.5546155281951
 30
0.0
 10
414.3910123668056
 20
318.5110615026757
 30
0.0
 10
414.3532932602867
 20
318.4660294470953
 30
0.0
 10
414.3154674641468
 20
318.4142722463375
 30
0.0
 10
414.2830776454813
 20
318.3615622758732
 30
0.0
 10
414.2640724840352
 20
318.3260778892515
 30
0.0
 10
414.2438462751551
 20
318.2847994060446
 30
0.0
 10
414.2240563610235
 20
318.2372528774897
 30
0.0
 10
414.2099235949883
 20
318.1924266876746
 30
0.0
 10
414.2004632234147
 20
318.1567203737379
 30
0.0
 10
414.1941174552285
 20
318.1282038456647
 30
0.0
 10
414.1890849438487
 20
318.0971435089818
 30
0.0
 10
414.1850160103329
 20
318.0642835922294
 30
0.0
 10
414.1828630699608
 20
318.034328803662
 30
0.0
 10
414.1823639397016
 20
318.0075290726787
 30
0.0
 10
414.1824235418902
 20
317.9972904405079
 30
0.0
 10
414.1824372297559
 20
317.9949391003088
 30
0.0
  0
LINE
  5
10E
330
1F
100
AcDbEntity
  8
0
  6
Continuous
 62
     8
370
    18
100
AcDbLine
 10
394.1850858923
 20
331.5784051985
 30
0.0
 11
394.2168607516
 21
331.5785050225
 31
0.0
  0
SPLINE
  5
10F
330
1F
100
AcDbEntity
  8
0
  6
Continuous
 62
     8
370
    18
100
AcDbSpline
210
0.0
220
0.0
230
1.0
 70
     8
 71
     3
 72
    23
 73
    19
 74
     0
 42
0.00000001
 43
0.00000001
 40
0.0
 40
0.0
 40
0.0
 40
0.0
 40
0.0361811974784507
 40
0.0720312010610142
 40
0.1076649013561216
 40
0.1431992870629506
 40
0.1787523272274254
 40
0.2144418058297159
 40
0.2503841654355343
 40
0.2866934156262489
 40
0.4173046539638189
 40
0.5482259130012646
 40
0.6649330549857143
 40
0.7815757540459063
 40
0.8363700958229373
 40
0.8907681661960223
 40
0.9451761470575907
 40
0.9999999999999999
 40
0.9999999999999999
 40
0.9999999999999999
 40
0.9999999999999999
 10
394.1849553370472
 20
331.5784105264441
 30
0.0
 10
394.1199725441394
 20
331.578067429445
 30
0.0
 10
393.9906017950304
 20
331.5773843760734
 30
0.0
 10
393.7978319840631
 20
331.5744928614049
 30
0.0
 10
393.6074485633701
 20
331.5702560108368
 30
0.0
 10
393.419457541142
 20
331.5645773404737
 30
0.0
 10
393.2338641996792
 20
331.5575400575062
 30
0.0
 10
393.0506777083591
 20
331.5491988384326
 30
0.0
 10
392.8698897872476
 20
331.5396283886541
 30
0.0
 10
392.5381012082086
 20
331.5197363137173
 30
0.0
 10
392.079301099298
 20
331.484724241383
 30
0.0
 10
391.5857977475741
 20
331.4352902475747
 30
0.0
 10
391.2042869780535
 20
331.3909917595346
 30
0.0
 10
390.9863942918827
 20
331.3626562314726
 30
0.0
 10
390.8658678059347
 20
331.3465058518082
 30
0.0
 10
390.8034903326409
 20
331.3379492050162
 30
0.0
 10
390.7645353161395
 20
331.3324713835591
 30
0.0
 10
390.7597869369343
 20
331.331785670529
 30
0.0
 10
390.7574037082163
 20
331.331441508676
 30
0.0
  0
LINE
  5
110
330
1F
100
AcDbEntity
  8
0
  6
Continuous
 62
     8
370
    18
100
AcDbLine
 10
387.4393883499
 20
339.3210571003
 30
0.0
 11
387.4645210498
 21
331.3210965787
 31
0.0
  0
SPLINE
  5
111
330
1F
100
AcDbEntity
  8
0
  6
Continuous
 62
     8
370
    18
100
AcDbSpline
210
0.0
220
0.0
230
1.0
 70
     8
 71
     3
 72
    28
 73
    24
 74
     0
 42
0.00000001
 43
0.00000001
 40
0.0
 40
0.0
 40
0.0
 40
0.0
 40
0.0191424607217821
 40
0.0380532105553013
 40
0.0567375018307632
 40
0.0751996813718756
 40
0.0934433177612638
 40
0.1362858337015026
 40
0.179471195184977
 40
0.2567390999335265
 40
0.3385165638046516
 40
0.4058085720548817
 40
0.4807412149683749
 40
0.5413251532958124
 40
0.6176530775488023
 40
0.6844405162799813
 40
0.7519290448841468
 40
0.824758790830689
 40
0.8912609795144715
 40
0.9312696856604998
 40
0.9709682474971304
 40
0.9854252642916953
 40
1.0
 40
1.0
 40
1.0
 40
1.0
 10
414.2409309890372
 20
312.2069984936088
 30
0.0
 10
414.2384141108607
 20
312.3731954752557
 30
0.0
 10
414.2334108201875
 20
312.7035776987422
 30
0.0
 10
414.2148999111146
 20
313.1959144999454
 30
0.0
 10
414.1884201788227
 20
313.6819525622026
 30
0.0
 10
414.1532696750804
 20
314.1616444110575
 30
0.0
 10
414.089973557906
 20
314.8494730686144
 30
0.0
 10
413.9781149721001
 20
315.7482890749247
 30
0.0
 10
413.7355875894463
 20
317.14575298456
 30
0.0
 10
413.3114165210998
 20
318.8526186195487
 30
0.0
 10
412.6387752151603
 20
320.7038570770478
 30
0.0
 10
411.780590930047
 20
322.4526410835687
 30
0.0
 10
410.8372500219481
 20
323.944597225073
 30
0.0
 10
409.6938104330438
 20
325.3886167985042
 30
0.0
 10
408.4509881916633
 20
326.6533252732713
 30
0.0
 10
407.0305270254898
 20
327.8098020339055
 30
0.0
 10
405.5262383657345
 20
328.8005570154803
 30
0.0
 10
403.9314487241126
 20
329.6330702740267
 30
0.0
 10
402.486530710402
 20
330.2192268857316
 30
0.0
 10
401.279871655981
 20
330.6153099268289
 30
0.0
 10
400.490613225694
 20
330.8301747495615
 30
0.0
 10
399.9107090805288
 20
330.9709191222724
 30
0.0
 10
399.6645156412217
 20
331.0249997717861
 30
0.0
 10
399.5409197849031
 20
331.0521497405494
 30
0.0
  0
SPLINE
  5
112
330
1F
100
AcDbEntity
  8
0
  6
Continuous
 62
     8
370
    18
100
AcDbSpline
210
0.0
220
0.0
230
1.0
 70
     8
 71
     3
 72
    13
 73
     9
 74
     0
 42
0.00000001
 43
0.00000001
 40
0.0
 40
0.0
 40
0.0
 40
0.0
 40
0.1543345261200086
 40
0.3094569041864111
 40
0.482937542617538
 40
0.6558649422040301
 40
0.8282242184621312
 40
1.0
 40
1.0
 40
1.0
 40
1.0
 10
395.7155154545493
 20
331.5440418353549
 30
0.0
 10
395.6384511220414
 20
331.5476112950769
 30
0.0
 10
395.4839290564956
 20
331.5547684360159
 30
0.0
 10
395.2426702774317
 20
331.5631738997711
 30
0.0
 10
394.9920355323483
 20
331.5707507958558
 30
0.0
 10
394.7327303944631
 20
331.5757791606137
 30
0.0
 10
394.4742398765981
 20
331.5786473499091
 30
0.0
 10
394.3021916275198
 20
331.5785560946215
 30
0.0
 10
394.2163133603159
 20
331.5785105443411
 30
0.0
  0
LINE
  5
113
330
1F
100
AcDbEntity
  8
0
  6
Continuous
 62
     8
370
    18
100
AcDbLine
 10
393.9847998416
 20
330.7910306192
 30
0.0
 11
400.2380180134
 21
330.8106757481
 31
0.0
  0
LINE
  5
114
330
1F
100
AcDbEntity
  8
0
  6
Continuous
 62
     7
370
    25
100
AcDbLine
 10
103.1371656288
 20
197.3726321001
 30
0.0
 11
103.2952343242
 21
191.3362321575
 31
0.0
  0
LINE
  5
115
330
1F
100
AcDbEntity
  8
0
  6
Continuous
 62
     7
370
    25
100
AcDbLine
 10
251.9790969333
 20
191.3362321575
 30
0.0
 11
252.1371656288
 21
197.3726321001
 31
0.0
  0
ARC
  5
116
330
1F
100
AcDbEntity
  8
0
  6
Continuous
 62
     7
370
    25
100
AcDbCircle
 10
250.9794396083
 20
191.3624091058
 30
0.0
 40
0.9999999999996073
100
AcDbArc
 50
270.6004114401
 51
358.5
  0
ARC
  5
117
330
1F
100
AcDbEntity
  8
0
  6
Continuous
 62
     7
370
    25
100
AcDbCircle
 10
104.2948916492
 20
191.3624091058
 30
0.0
 40
0.9999999999996076
100
AcDbArc
 50
181.5
 51
269.3995885599
  0
ARC
  5
118
330
1F
100
AcDbEntity
  8
0
  6
Continuous
 62
     7
370
    25
100
AcDbCircle
 10
177.6371656288
 20
7189.9781230058
 30
0.0
 40
7000.000000000001
100
AcDbArc
 50
269.3995885599
 51
269.8422957289
  0
ARC
  5
119
330
1F
100
AcDbEntity
  8
0
  6
Continuous
 62
     7
370
    25
100
AcDbCircle
 10
177.6371656288
 20
7189.9781230058
 30
0.0
 40
7000.000000000001
100
AcDbArc
 50
270.1576918356
 51
270.6004114401
  0
SPLINE
  5
11A
330
1F
100
AcDbEntity
  8
0
  6
Continuous
 62
     7
370
    25
100
AcDbSpline
210
0.0
220
0.0
230
1.0
 70
     8
 71
     3
 72
    18
 73
    14
 74
     0
 42
0.00000001
 43
0.00000001
 40
0.0
 40
0.0
 40
0.0
 40
0.0
 40
0.1224212165371484
 40
0.2284846029382966
 40
0.3174107744229536
 40
0.3926386171613678
 40
0.4534932183781352
 40
0.4964884133842754
 40
0.531276974285428
 40
0.5754914194832578
 40
0.6563383564052016
 40
0.8131162544992083
 40
1.0
 40
1.0
 40
1.0
 40
1.0
 10
152.6468586246878
 20
119.0129472958937
 30
0.0
 10
152.6612683307826
 20
118.8405653343077
 30
0.0
 10
152.6881623289689
 20
118.5188349581457
 30
0.0
 10
152.9150759377472
 20
118.125157483853
 30
0.0
 10
153.1786626635212
 20
117.8530985350541
 30
0.0
 10
153.4429398459814
 20
117.6844637285096
 30
0.0
 10
153.6683688443014
 20
117.5945816887381
 30
0.0
 10
153.8230531259164
 20
117.5557005456875
 30
0.0
 10
153.9174330247703
 20
117.5391587144949
 30
0.0
 10
153.9937776810841
 20
117.5295265505049
 30
0.0
 10
154.0652479934856
 20
117.5237478264025
 30
0.0
 10
154.1272306654135
 20
117.520334786219
 30
0.0
 10
154.1874429893547
 20
117.5186627472464
 30
0.0
 10
154.220186546377
 20
117.5177534898077
 30
0.0
  0
SPLINE
  5
11B
330
1F
100
AcDbEntity
  8
0
  6
Continuous
 62
     7
370
    25
100
AcDbSpline
210
0.0
220
0.0
230
1.0
 70
     8
 71
     3
 72
    17
 73
    13
 74
     0
 42
0.00000001
 43
0.00000001
 40
0.0
 40
0.0
 40
0.0
 40
0.0
 40
0.2474493375785608
 40
0.4153889932657975
 40
0.4715837790118916
 40
0.5150641408402626
 40
0.5623652917778327
 40
0.6479059533357326
 40
0.7536441699845959
 40
0.8631000673312664
 40
0.9860719343099665
 40
1.0
 40
1.0
 40
1.0
 40
1.0
 10
201.050593164817
 20
117.5173222995302
 30
0.0
 10
201.0920513754195
 20
117.5188237287089
 30
0.0
 10
201.1616465682508
 20
117.5213441523282
 30
0.0
 10
201.2323778639592
 20
117.524507118013
 30
0.0
 10
201.3438037598642
 20
117.5369662045166
 30
0.0
 10
201.461304668869
 20
117.5570644479101
 30
0.0
 10
201.6726877382971
 20
117.614234869308
 30
0.0
 10
201.9795204764728
 20
117.7604622906076
 30
0.0
 10
202.3084354311093
 20
118.0466280386346
 30
0.0
 10
202.5480937035003
 20
118.4644501267926
 30
0.0
 10
202.6643092081163
 20
118.8194628934821
 30
0.0
 10
202.6304043276346
 20
119.01217401828
 30
0.0
 10
202.6269548781472
 20
119.0317802602485
 30
0.0
  0
LINE
  5
11C
330
1F
100
AcDbEntity
  8
0
  6
Continuous
 62
     7
370
    25
100
AcDbLine
 10
152.6371656282
 20
148.8063355749
 30
0.0
 11
152.6371656282
 21
119.0243444473
 31
0.0
  0
LINE
  5
11D
330
1F
100
AcDbEntity
  8
0
  6
Continuous
 62
     7
370
    25
100
AcDbLine
 10
202.6371656282
 20
119.0243444473
 30
0.0
 11
202.6371656282
 21
148.8012073716
 31
0.0
  0
LINE
  5
11E
330
1F
100
AcDbEntity
  8
0
  6
Continuous
 62
     7
370
    25
100
AcDbLine
 10
202.1371656282
 20
160.3726321001
 30
0.0
 11
202.1371656282
 21
190.037064008
 31
0.0
  0
LINE
  5
11F
330
1F
100
AcDbEntity
  8
0
  6
Continuous
 62
     7
370
    25
100
AcDbLine
 10
153.1371656282
 20
190.0370652401
 30
0.0
 11
153.1371656282
 21
160.3726321001
 31
0.0
  0
ARC
  5
120
330
1F
100
AcDbEntity
  8
0
  6
Continuous
 62
     7
370
    25
100
AcDbCircle
 10
177.6371656282
 20
160.3726321001
 30
0.0
 40
24.50000000000003
100
AcDbArc
 50
180.0
 51
207.6760933182
  0
ARC
  5
121
330
1F
100
AcDbEntity
  8
0
  6
Continuous
 62
     7
370
    25
100
AcDbCircle
 10
177.6371656282
 20
160.3726321001
 30
0.0
 40
24.5
100
AcDbArc
 50
332.3637336768
 51
0.0
  0
SPLINE
  5
122
330
1F
100
AcDbEntity
  8
0
  6
Continuous
 62
     7
370
    25
100
AcDbSpline
210
0.0
220
0.0
230
1.0
 70
     8
 71
     3
 72
    18
 73
    14
 74
     0
 42
0.00000001
 43
0.00000001
 40
0.0
 40
0.0
 40
0.0
 40
0.0
 40
0.0478949187486967
 40
0.2358610607545188
 40
0.4008279705156824
 40
0.5100489411456911
 40
0.6074719065656107
 40
0.6939361353401616
 40
0.770641491726032
 40
0.8393017704457659
 40
0.9022914389847424
 40
0.9626583732729914
 40
1.0
 40
1.0
 40
1.0
 40
1.0
 10
194.0803326291768
 20
117.4177281274869
 30
0.0
 10
194.0790248005845
 20
117.4161018610831
 30
0.0
 10
194.0725843295047
 20
117.4080932261574
 30
0.0
 10
194.193564221161
 20
117.3937989225259
 30
0.0
 10
194.5303784688209
 20
117.3830876248493
 30
0.0
 10
195.0108716638796
 20
117.3805063755621
 30
0.0
 10
195.5581704227056
 20
117.3836811033446
 30
0.0
 10
196.2301956321381
 20
117.3919314473598
 30
0.0
 10
197.029950646851
 20
117.4057788106099
 30
0.0
 10
197.9612283343718
 20
117.4260181438115
 30
0.0
 10
199.0336894325527
 20
117.4540200389422
 30
0.0
 10
200.0787980055298
 20
117.4847958610319
 30
0.0
 10
200.7784358073101
 20
117.5084179845717
 30
0.0
 10
201.045818863275
 20
117.5174457351654
 30
0.0
  0
SPLINE
  5
123
330
1F
100
AcDbEntity
  8
0
  6
Continuous
 62
     7
370
    25
100
AcDbSpline
210
0.0
220
0.0
230
1.0
 70
     8
 71
     3
 72
    50
 73
    46
 74
     0
 42
0.00000001
 43
0.00000001
 40
0.0
 40
0.0
 40
0.0
 40
0.0
 40
0.0091275805805357
 40
0.0199320073609512
 40
0.0314435578344301
 40
0.0444682580651541
 40
0.0595787989093751
 40
0.0771449687937141
 40
0.1085799779573136
 40
0.146538121737285
 40
0.1912882663177508
 40
0.2429934482506739
 40
0.2860250076687951
 40
0.3271201592196
 40
0.3635426476311188
 40
0.3953287365271961
 40
0.4360437393311025
 40
0.465863772564615
 40
0.4783475319858531
 40
0.4881208617272774
 40
0.4962123024445906
 40
0.5059991372893013
 40
0.5187164699262723
 40
0.533798773205768
 40
0.5408405134456891
 40
0.5476050652837186
 40
0.554460754895821
 40
0.5617621153698014
 40
0.5787651919136674
 40
0.6078297524451567
 40
0.6461027866574637
 40
0.6881375886979463
 40
0.7355432036206914
 40
0.7807820362368715
 40
0.8365760265502745
 40
0.8894432821161544
 40
0.9149459775838551
 40
0.938497590069438
 40
0.9578752275242991
 40
0.9732887165237598
 40
0.9852296846066514
 40
0.9902175737737552
 40
0.9948060581760035
 40
0.9992683543833203
 40
1.0
 40
1.0
 40
1.0
 40
1.0
 10
162.9440619777964
 20
117.3285764191788
 30
0.0
 10
163.1798791855574
 20
117.3207445884175
 30
0.0
 10
163.6948360549554
 20
117.3036421255023
 30
0.0
 10
164.4980885767551
 20
117.2803155613111
 30
0.0
 10
165.2922365653605
 20
117.2607367384682
 30
0.0
 10
166.0296242429139
 20
117.2455916016812
 30
0.0
 10
166.7174880405811
 20
117.2333727729337
 30
0.0
 10
167.4968189077055
 20
117.2208630998388
 30
0.0
 10
168.3006142360716
 20
117.2090402589325
 30
0.0
 10
169.087960247252
 20
117.1987661683115
 30
0.0
 10
169.7836413582038
 20
117.192221869825
 30
0.0
 10
170.3363767852481
 20
117.1902503023423
 30
0.0
 10
170.7313094632881
 20
117.1915750371334
 30
0.0
 10
171.1201328967122
 20
117.1918234620851
 30
0.0
 10
171.5547478757535
 20
117.189737064541
 30
0.0
 10
172.083407086587
 20
117.1848326101321
 30
0.0
 10
172.7262831184632
 20
117.1765997977774
 30
0.0
 10
173.4816710616283
 20
117.1661095401558
 30
0.0
 10
174.2011241289715
 20
117.1576960602782
 30
0.0
 10
174.7625721146061
 20
117.1521472730271
 30
0.0
 10
175.456540517656
 20
117.1471963686056
 30
0.0
 10
176.2290934435192
 20
117.1432476195528
 30
0.0
 10
177.1743034419938
 20
117.1403858595222
 30
0.0
 10
178.0477280667622
 20
117.139953837563
 30
0.0
 10
178.8000878672462
 20
117.1417105569139
 30
0.0
 10
179.3203213224939
 20
117.1439079485903
 30
0.0
 10
179.7987131111045
 20
117.1467927316731
 30
0.0
 10
180.4076963635746
 20
117.1515197131414
 30
0.0
 10
181.1542400427151
 20
117.1593693547808
 30
0.0
 10
181.8063419752269
 20
117.1680414229099
 30
0.0
 10
182.1678689958672
 20
117.172372858259
 30
0.0
 10
182.5375311100956
 20
117.1738767786129
 30
0.0
 10
183.1498367143515
 20
117.1758218468166
 30
0.0
 10
184.0279749638981
 20
117.1800334634109
 30
0.0
 10
185.224663678304
 20
117.1902501540508
 30
0.0
 10
186.5717473135311
 20
117.208582424036
 30
0.0
 10
187.7809249097189
 20
117.2293364658731
 30
0.0
 10
188.674650563518
 20
117.2462232209089
 30
0.0
 10
189.5479630076338
 20
117.2642297785395
 30
0.0
 10
190.3688917860148
 20
117.2829227443376
 30
0.0
 10
191.0615155914692
 20
117.3007235326926
 30
0.0
 10
191.5921566463208
 20
117.3159931643445
 30
0.0
 10
191.9539865135123
 20
117.327200074101
 30
0.0
 10
192.2120648638199
 20
117.3355905433723
 30
0.0
 10
192.3335619029725
 20
117.339862640168
 30
0.0
 10
192.3506766068232
 20
117.3404644299069
 30
0.0
  0
SPLINE
  5
124
330
1F
100
AcDbEntity
  8
0
  6
Continuous
 62
     7
370
    25
100
AcDbSpline
210
0.0
220
0.0
230
1.0
 70
     8
 71
     3
 72
    19
 73
    15
 74
     0
 42
0.00000001
 43
0.00000001
 40
0.0
 40
0.0
 40
0.0
 40
0.0
 40
0.0758443140673633
 40
0.1451636909669664
 40
0.1882994268094824
 40
0.2213564395825272
 40
0.2607594449051996
 40
0.3368094574978204
 40
0.4367804424192549
 40
0.540102184532817
 40
0.6619680299855359
 40
0.8027068963354094
 40
0.962530181571574
 40
1.0
 40
1.0
 40
1.0
 40
1.0
 10
154.2225750808358
 20
117.5183551762598
 30
0.0
 10
154.9158422173966
 20
117.4953310944877
 30
0.0
 10
156.2427342541535
 20
117.4512637081285
 30
0.0
 10
157.9495632880512
 20
117.4052392887959
 30
0.0
 10
159.2856128455618
 20
117.3718409327775
 30
0.0
 10
160.1702725256997
 20
117.3512745782522
 30
0.0
 10
160.9910516026849
 20
117.3333637180604
 30
0.0
 10
161.7579453025836
 20
117.3188189775901
 30
0.0
 10
162.3669804431136
 20
117.3114362872321
 30
0.0
 10
162.8198307973099
 20
117.3127087193207
 30
0.0
 10
163.1359442532371
 20
117.3224618239162
 30
0.0
 10
163.3295148329691
 20
117.3389838298546
 30
0.0
 10
163.3997087402986
 20
117.3540451557167
 30
0.0
 10
163.3896081271477
 20
117.3603863574789
 30
0.0
 10
163.3876898231941
 20
117.361590675695
 30
0.0
  0
SPLINE
  5
125
330
1F
100
AcDbEntity
  8
0
  6
Continuous
 62
     7
370
    25
100
AcDbSpline
210
0.0
220
0.0
230
1.0
 70
     8
 71
     3
 72
    10
 73
     6
 74
     0
 42
0.00000001
 43
0.00000001
 40
0.0
 40
0.0
 40
0.0
 40
0.0
 40
0.455655910563173
 40
0.9633053513600851
 40
0.9999999999999999
 40
0.9999999999999999
 40
0.9999999999999999
 40
0.9999999999999999
 10
202.6143265278421
 20
149.0131919213289
 30
0.0
 10
202.5816243159647
 20
149.0949473761768
 30
0.0
 10
202.5124883408295
 20
149.2677871557827
 30
0.0
 10
202.307827587514
 20
149.3607891910636
 30
0.0
 10
202.2051199377725
 20
149.3407709081356
 30
0.0
 10
202.1981963370703
 20
149.3394214604744
 30
0.0
  0
SPLINE
  5
126
330
1F
100
AcDbEntity
  8
0
  6
Continuous
 62
     7
370
    25
100
AcDbSpline
210
0.0
220
0.0
230
1.0
 70
     8
 71
     3
 72
    11
 73
     7
 74
     0
 42
0.00000001
 43
0.00000001
 40
0.0
 40
0.0
 40
0.0
 40
0.0
 40
0.0443490483604265
 40
0.3796889962012299
 40
0.7277075551770347
 40
0.9999999999999999
 40
0.9999999999999999
 40
0.9999999999999999
 40
0.9999999999999999
 10
153.0626940678164
 20
149.3343771256775
 30
0.0
 10
153.050797200016
 20
149.3364026273684
 30
0.0
 10
152.9489436099153
 20
149.3537437143184
 30
0.0
 10
152.7485635483559
 20
149.2437324424164
 30
0.0
 10
152.629228883593
 20
149.0032840080485
 30
0.0
 10
152.643365547076
 20
148.8236860222187
 30
0.0
 10
152.6495709934374
 20
148.7448494799886
 30
0.0
  0
LINE
  5
127
330
1F
100
AcDbEntity
  8
0
  6
Continuous
 62
     7
370
    25
100
AcDbLine
 10
192.7011938815
 20
117.4057538793
 30
0.0
 11
192.7165424442
 21
117.4064604089
 31
0.0
  0
SPLINE
  5
128
330
1F
100
AcDbEntity
  8
0
  6
Continuous
 62
     7
370
    25
100
AcDbSpline
210
0.0
220
0.0
230
1.0
 70
     8
 71
     3
 72
    11
 73
     7
 74
     0
 42
0.00000001
 43
0.00000001
 40
0.0
 40
0.0
 40
0.0
 40
0.0
 40
0.27613930023195
 40
0.4414312669132354
 40
0.6922854410856307
 40
0.9999999999999999
 40
0.9999999999999999
 40
0.9999999999999999
 40
0.9999999999999999
 10
192.1777996788737
 20
117.249692207125
 30
0.0
 10
192.1947832918182
 20
117.2498457951789
 30
0.0
 10
192.2219329868183
 20
117.2500913182508
 30
0.0
 10
192.3450982436288
 20
117.2609605310156
 30
0.0
 10
192.5300863575913
 20
117.2888243747983
 30
0.0
 10
192.6675779079699
 20
117.3500281096463
 30
0.0
 10
192.743321767719
 20
117.3837451424071
 30
0.0
  0
LINE
  5
129
330
1F
100
AcDbEntity
  8
0
  6
Continuous
 62
     7
370
    25
100
AcDbLine
 10
252.1371656288
 20
197.3726321001
 30
0.0
 11
103.1371656288
 21
197.3726321001
 31
0.0
  0
SPLINE
  5
12A
330
1F
100
AcDbEntity
  8
0
  6
Continuous
 62
     7
370
    25
100
AcDbSpline
210
0.0
220
0.0
230
1.0
 70
     8
 71
     3
 72
    12
 73
     8
 74
     0
 42
0.00000001
 43
0.00000001
 40
0.0
 40
0.0
 40
0.0
 40
0.0
 40
0.2116959991175817
 40
0.4295312053345718
 40
0.6412272014203082
 40
0.8590623806085779
 40
1.0
 40
1.0
 40
1.0
 40
1.0
 10
160.3131523264955
 20
190.0741934199786
 30
0.0
 10
159.3996576466973
 20
190.0720368378101
 30
0.0
 10
157.5461768415996
 20
190.0676611323547
 30
0.0
 10
155.4686658005606
 20
190.0599841874038
 30
0.0
 10
153.9955444603884
 20
190.0516592435072
 30
0.0
 10
153.2102271917278
 20
190.043937257068
 30
0.0
 10
153.2118351386018
 20
190.0390034140768
 30
0.0
 10
153.21246679241
 20
190.0370652401451
 30
0.0
  0
SPLINE
  5
12B
330
1F
100
AcDbEntity
  8
0
  6
Continuous
 62
     7
370
    25
100
AcDbSpline
210
0.0
220
0.0
230
1.0
 70
     8
 71
     3
 72
    22
 73
    18
 74
     0
 42
0.00000001
 43
0.00000001
 40
0.0
 40
0.0
 40
0.0
 40
0.0
 40
0.0515473978973737
 40
0.1221109850162718
 40
0.1947209227371664
 40
0.2652844728486821
 40
0.3378943775754803
 40
0.4084578028626711
 40
0.4810675812157507
 40
0.5516308485672085
 40
0.6242404625514489
 40
0.6948036080736394
 40
0.76741309173122
 40
0.8379762049241969
 40
0.9105856494150382
 40
0.9550446523261856
 40
1.0
 40
1.0
 40
1.0
 40
1.0
 10
202.0633813888653
 20
190.0370640079694
 30
0.0
 10
202.0580186786091
 20
190.0391913256655
 30
0.0
 10
202.0453149174408
 20
190.0442307431708
 30
0.0
 10
201.2148256851509
 20
190.0521176172663
 30
0.0
 10
199.7294080121831
 20
190.060356063527
 30
0.0
 10
197.5750684653991
 20
190.0680047992738
 30
0.0
 10
194.8834175800819
 20
190.074710528636
 30
0.0
 10
191.6736449741462
 20
190.080403904304
 30
0.0
 10
188.0966663037084
 20
190.0848213536068
 30
0.0
 10
184.1887230673089
 20
190.0879173639302
 30
0.0
 10
180.1309719351175
 20
190.0895484683161
 30
0.0
 10
175.9650420698673
 20
190.089698291331
 30
0.0
 10
171.8843871417563
 20
190.0883582841218
 30
0.0
 10
167.9290201212906
 20
190.0855483000351
 30
0.0
 10
164.7341662337053
 20
190.0818855342518
 30
0.0
 10
162.1963524852268
 20
190.0779888066909
 30
0.0
 10
160.9432044809039
 20
190.0754632221098
 30
0.0
 10
160.3131523264955
 20
190.0741934199786
 30
0.0
  0
SPLINE
  5
12C
330
1F
100
AcDbEntity
  8
0
  6
Continuous
 62
     7
370
    25
100
AcDbSpline
210
0.0
220
0.0
230
1.0
 70
     8
 71
     3
 72
    20
 73
    16
 74
     0
 42
0.00000001
 43
0.00000001
 40
0.0
 40
0.0
 40
0.0
 40
0.0
 40
0.068493556857389
 40
0.1461190937859396
 40
0.2237446307144908
 40
0.3013701676430421
 40
0.3789957045715928
 40
0.4566212415001433
 40
0.5342467784286947
 40
0.6118723153572458
 40
0.6894978522857963
 40
0.767123389214347
 40
0.8447489261428982
 40
0.9223744630714488
 40
1.0
 40
1.0
 40
1.0
 40
1.0
 10
154.1117164293842
 20
117.5269822197911
 30
0.0
 10
154.1502739903139
 20
117.5295929670601
 30
0.0
 10
154.2325298421072
 20
117.5351625423973
 30
0.0
 10
154.7715014384758
 20
117.5435543178037
 30
0.0
 10
155.6295568522513
 20
117.5520275294544
 30
0.0
 10
156.8129635460475
 20
117.5601134977099
 30
0.0
 10
158.2938051237872
 20
117.5676969571687
 30
0.0
 10
160.0536830564591
 20
117.5746684877771
 30
0.0
 10
162.0664850484204
 20
117.58092769153
 30
0.0
 10
164.3034490474819
 20
117.586384954083
 30
0.0
 10
166.7323210448153
 20
117.590959866768
 30
0.0
 10
169.3181559200876
 20
117.5945935388529
 30
0.0
 10
172.0237302370181
 20
117.5972076934815
 30
0.0
 10
174.8101021857336
 20
117.5988616462992
 30
0.0
 10
176.6948111473858
 20
117.5990670791846
 30
0.0
 10
177.6371656282118
 20
117.5991697956273
 30
0.0
  0
SPLINE
  5
12D
330
1F
100
AcDbEntity
  8
0
  6
Continuous
 62
     7
370
    25
100
AcDbSpline
210
0.0
220
0.0
230
1.0
 70
     8
 71
     3
 72
    20
 73
    16
 74
     0
 42
0.00000001
 43
0.00000001
 40
0.0
 40
0.0
 40
0.0
 40
0.0
 40
0.0776316072585376
 40
0.1552632145170758
 40
0.232894821775614
 40
0.3105264290341517
 40
0.3881580362926893
 40
0.4657896435512275
 40
0.5434212508097653
 40
0.6210528580683032
 40
0.6986844653268409
 40
0.776316072585379
 40
0.8539476798439166
 40
0.9315792871024545
 40
1.0
 40
1.0
 40
1.0
 40
1.0
 10
177.6371656282118
 20
117.5991697956273
 30
0.0
 10
178.579520109031
 20
117.5990670791846
 30
0.0
 10
180.4642290706693
 20
117.5988616462992
 30
0.0
 10
183.2506010194889
 20
117.5972076934815
 30
0.0
 10
185.9561753360238
 20
117.594593538853
 30
0.0
 10
188.5420102127746
 20
117.5909598667683
 30
0.0
 10
190.9708822045902
 20
117.5863849540816
 30
0.0
 10
193.2078462242445
 20
117.5809276915354
 30
0.0
 10
195.2206481393523
 20
117.5746684877571
 30
0.0
 10
196.9805263588461
 20
117.5676969572435
 30
0.0
 10
198.4613668661521
 20
117.5601134974307
 30
0.0
 10
199.6447775548618
 20
117.5520275304966
 30
0.0
 10
200.5028180594171
 20
117.543554313914
 30
0.0
 10
201.041654737875
 20
117.5351654889355
 30
0.0
 10
201.1238904044032
 20
117.5295989019803
 30
0.0
 10
201.1624151120111
 20
117.5269911389029
 30
0.0
  0
LINE
  5
12E
330
1F
100
AcDbEntity
  8
0
  6
Continuous
 62
     7
370
    25
100
AcDbLine
 10
152.6558680318
 20
148.7467824393
 30
0.0
 11
152.6659456047
 21
148.8063377943
 31
0.0
  0
LINE
  5
12F
330
1F
100
AcDbEntity
  8
0
  6
Continuous
 62
     7
370
    25
100
AcDbLine
 10
202.6179936939
 20
148.9592369522
 30
0.0
 11
202.6048530623
 21
148.8012056958
 31
0.0
  0
LWPOLYLINE
  5
130
330
1F
100
AcDbEntity
  8
0
  6
Continuous
 62
     7
370
    25
100
AcDbPolyline
 90
       25
 70
   128
 43
0.0
 10
198.6395264527
 20
148.164455707
 10
197.7892657623
 20
147.4408214824
 10
196.7228084177
 20
146.7508896253
 10
195.451595634
 20
146.1020618934
 10
193.9892652925
 20
145.5012990689
 10
192.3515056304
 20
144.9550462823
 10
190.5558869335
 20
144.469163867
 10
188.6216730379
 20
144.0488644882
 10
186.5696146629
 20
143.6986572203
 10
184.4217267922
 20
143.4222991725
 10
182.2010524916
 20
143.2227551815
 10
179.9314156975
 20
143.1021660039
 10
177.6371656282
 20
143.0618253499
 10
175.3429155589
 20
143.1021660039
 10
173.0732787649
 20
143.2227551815
 10
170.8526044642
 20
143.4222991725
 10
168.7047165935
 20
143.6986572203
 10
166.6526582185
 20
144.0488644882
 10
164.7184443229
 20
144.469163867
 10
162.922825626
 20
144.9550462823
 10
161.2850659639
 20
145.5012990689
 10
159.8227356224
 20
146.1020618934
 10
158.5515228387
 20
146.7508896253
 10
157.4850654942
 20
147.4408214824
 10
156.6348048037
 20
148.164455707
  0
SPLINE
  5
131
330
1F
100
AcDbEntity
  8
0
  6
Continuous
 62
     7
370
    25
100
AcDbSpline
210
0.0
220
0.0
230
1.0
 70
     8
 71
     3
 72
     9
 73
     5
 74
     0
 42
0.00000001
 43
0.00000001
 40
0.0
 40
0.0
 40
0.0
 40
0.0
 40
0.5776068694618237
 40
1.0
 40
1.0
 40
1.0
 40
1.0
 10
156.6348048037403
 20
148.1644557069839
 30
0.0
 10
156.4418157546063
 20
148.3647954050073
 30
0.0
 10
156.1076974133308
 20
148.7116397876061
 30
0.0
 10
156.0002366655275
 20
148.9152965141077
 30
0.0
 10
155.9548459838529
 20
149.0013197163698
 30
0.0
  0
SPLINE
  5
132
330
1F
100
AcDbEntity
  8
0
  6
Continuous
 62
     7
370
    25
100
AcDbSpline
210
0.0
220
0.0
230
1.0
 70
     8
 71
     3
 72
     9
 73
     5
 74
     0
 42
0.00000001
 43
0.00000001
 40
0.0
 40
0.0
 40
0.0
 40
0.0
 40
0.073789378844833
 40
1.0
 40
1.0
 40
1.0
 40
1.0
 10
199.3338679701585
 20
149.0118454967711
 30
0.0
 10
199.3310967573701
 20
149.0003570484969
 30
0.0
 10
199.2935410436384
 20
148.8446646107236
 30
0.0
 10
198.9540067353057
 20
148.4915314194364
 30
0.0
 10
198.6395264526815
 20
148.1644557069839
 30
0.0
  0
SPLINE
  5
133
330
1F
100
AcDbEntity
  8
0
  6
Continuous
 62
     7
370
    25
100
AcDbSpline
210
0.0
220
0.0
230
1.0
 70
     8
 71
     3
 72
    10
 73
     6
 74
     0
 42
0.00000001
 43
0.00000001
 40
0.0
 40
0.0
 40
0.0
 40
0.0
 40
0.0395819730070182
 40
0.5203569569594428
 40
0.9999999999999999
 40
0.9999999999999999
 40
0.9999999999999999
 40
0.9999999999999999
 10
194.1023226896166
 20
117.4404629193277
 30
0.0
 10
194.0725834575226
 20
117.4400463615534
 30
0.0
 10
193.6816222411123
 20
117.4345701631899
 30
0.0
 10
193.185342826146
 20
117.4239488909296
 30
0.0
 10
192.8833597304062
 20
117.4132702284797
 30
0.0
 10
192.7325461399523
 20
117.4079371901473
 30
0.0
  0
LINE
  5
134
330
1F
100
AcDbEntity
  8
0
  6
Continuous
 62
     7
370
    25
100
AcDbLine
 10
192.350673451
 20
117.3405580981
 30
0.0
 11
192.2017696402
 21
117.2512167751
 31
0.0
  0
SPLINE
  5
135
330
1F
100
AcDbEntity
  8
0
  6
Continuous
 62
     7
370
    25
100
AcDbSpline
210
0.0
220
0.0
230
1.0
 70
     8
 71
     3
 72
     9
 73
     5
 74
     0
 42
0.00000001
 43
0.00000001
 40
0.0
 40
0.0
 40
0.0
 40
0.0
 40
0.9790037885908558
 40
1.0
 40
1.0
 40
1.0
 40
1.0
 10
192.2017695714115
 20
117.2509335649125
 30
0.0
 10
192.2075296676461
 20
117.2500151364902
 30
0.0
 10
192.2134132978237
 20
117.2490770109866
 30
0.0
 10
192.1786101226862
 20
117.2486995773078
 30
0.0
 10
192.1778793878633
 20
117.2486916526305
 30
0.0
  0
LINE
  5
136
330
1F
100
AcDbEntity
  8
0
  6
Continuous
 62
     7
370
    25
100
AcDbLine
 10
163.0938896257
 20
117.2487885286
 30
0.0
 11
163.0725616704
 21
117.2509324359
 31
0.0
  0
LINE
  5
137
330
1F
100
AcDbEntity
  8
0
  6
Continuous
 62
     7
370
    25
100
AcDbLine
 10
199.5171086795
 20
149.3491076151
 30
0.0
 11
202.1851496259
 21
149.3491076151
 31
0.0
  0
LINE
  5
138
330
1F
100
AcDbEntity
  8
0
  6
Continuous
 62
     7
370
    25
100
AcDbLine
 10
153.0891816305
 20
149.3491076151
 30
0.0
 11
155.7572225769
 21
149.3491076151
 31
0.0
  0
ARC
  5
139
330
1F
100
AcDbEntity
  8
0
  6
Continuous
 62
     7
370
    25
100
AcDbCircle
 10
192.1517964538
 20
118.7503349733
 30
0.0
 40
1.499950896408847
100
AcDbArc
 50
271.9092509212
 51
295.2976346037
  0
LWPOLYLINE
  5
13A
330
1F
100
AcDbEntity
  8
0
  6
Continuous
 62
     7
370
    25
100
AcDbPolyline
 90
        3
 70
   128
 43
0.0
 10
162.6882649933
 20
117.3146252506
 10
162.7871433354
 20
117.2883619324
 10
163.0725616162
 20
117.2512167751
  0
LINE
  5
13B
330
1F
100
AcDbEntity
  8
0
  6
Continuous
 62
     8
370
    18
100
AcDbLine
 10
250.9899185731
 20
190.3624640117
 30
0.0
 11
104.2844126845
 21
190.3624640117
 31
0.0
  0
SPLINE
  5
13C
330
1F
100
AcDbEntity
  8
0
  6
Continuous
 62
     8
370
    18
100
AcDbSpline
210
0.0
220
0.0
230
1.0
 70
     8
 71
     3
 72
     9
 73
     5
 74
     0
 42
0.00000001
 43
0.00000001
 40
0.0
 40
0.0
 40
0.0
 40
0.0
 40
0.8883978803094617
 40
1.0
 40
1.0
 40
1.0
 40
1.0
 10
154.2201430938966
 20
117.5176386294497
 30
0.0
 10
154.1292272220257
 20
117.5204074572775
 30
0.0
 10
154.0268903368463
 20
117.5235241101749
 30
0.0
 10
154.1032000982576
 20
117.5266350340882
 30
0.0
 10
154.1117164293842
 20
117.5269822197911
 30
0.0
  0
SPLINE
  5
13D
330
1F
100
AcDbEntity
  8
0
  6
Continuous
 62
     8
370
    18
100
AcDbSpline
210
0.0
220
0.0
230
1.0
 70
     8
 71
     3
 72
     9
 73
     5
 74
     0
 42
0.00000001
 43
0.00000001
 40
0.0
 40
0.0
 40
0.0
 40
0.0
 40
0.1097901370694253
 40
1.0
 40
1.0
 40
1.0
 40
1.0
 10
201.1624151120111
 20
117.5269911389029
 30
0.0
 10
201.1709922204445
 20
117.5266409799769
 30
0.0
 10
201.2491149795769
 20
117.5234516322328
 30
0.0
 10
201.1440877609407
 20
117.520256411088
 30
0.0
 10
201.0505914950347
 20
117.5174119937107
 30
0.0
  0
ELLIPSE
  5
13E
330
1F
100
AcDbEntity
  8
0
  6
Continuous
 62
     8
370
    25
100
AcDbEllipse
 10
177.6371656282
 20
149.1473520437
 30
0.0
 11
25.0
 21
8.526512829121202E-14
 31
0.0
210
0.0
220
0.0
230
1.0
 40
0.3579151032
 41
3.272834380326568
 42
4.712388980384683
  0
SPLINE
  5
13F
330
1F
100
AcDbEntity
  8
0
  6
Continuous
 62
     8
370
    25
100
AcDbSpline
210
0.0
220
0.0
230
1.0
 70
     8
 71
     3
 72
     9
 73
     5
 74
     0
 42
0.00000001
 43
0.00000001
 40
0.0
 40
0.0
 40
0.0
 40
0.0
 40
0.8902884877814283
 40
0.9999999999999999
 40
0.9999999999999999
 40
0.9999999999999999
 40
0.9999999999999999
 10
152.8521616497616
 20
147.9763854379773
 30
0.0
 10
152.7442466060492
 20
148.2685582433467
 30
0.0
 10
152.6230330385444
 20
148.5967359176392
 30
0.0
 10
152.6526218036674
 20
148.7319481056591
 30
0.0
 10
152.6558680318337
 20
148.7467824392771
 30
0.0
  0
ELLIPSE
  5
140
330
1F
100
AcDbEntity
  8
0
  6
Continuous
 62
     8
370
    25
100
AcDbEllipse
 10
177.6371656282
 20
149.1473520437
 30
0.0
 11
25.0
 21
8.526512829121202E-14
 31
0.0
210
0.0
220
0.0
230
1.0
 40
0.3579151032
 41
4.712388980384683
 42
6.151943580442869
  0
SPLINE
  5
141
330
1F
100
AcDbEntity
  8
0
  6
Continuous
 62
     8
370
    25
100
AcDbSpline
210
0.0
220
0.0
230
1.0
 70
     8
 71
     3
 72
     9
 73
     5
 74
     0
 42
0.00000001
 43
0.00000001
 40
0.0
 40
0.0
 40
0.0
 40
0.0
 40
0.5262671259326905
 40
1.0
 40
1.0
 40
1.0
 40
1.0
 10
202.6048530623293
 20
148.8012056958192
 30
0.0
 10
202.6076891423333
 20
148.7016125944401
 30
0.0
 10
202.6130781926163
 20
148.5123682041456
 30
0.0
 10
202.4835373583762
 20
148.1486776224942
 30
0.0
 10
202.4221696066625
 20
147.9763854379773
 30
0.0
  0
ELLIPSE
  5
142
330
1F
100
AcDbEntity
  8
0
  6
Continuous
 62
     8
370
    18
100
AcDbEllipse
 10
177.6371656282
 20
149.3355045376
 30
0.0
 11
24.80000000000001
 21
1.136868377216160E-13
 31
0.0
210
0.0
220
0.0
230
1.0
 40
0.3608268507
 41
4.712388980384683
 42
6.151943580442867
  0
ARC
  5
143
330
1F
100
AcDbEntity
  8
0
  6
Continuous
 62
     8
370
    18
100
AcDbCircle
 10
202.2186966385
 20
147.9604237016
 30
0.0
 40
0.2040980788914587
100
AcDbArc
 50
4.4854658182
 51
88.5420467985
  0
LINE
  5
144
330
1F
100
AcDbEntity
  8
0
  6
Continuous
 62
     8
370
    18
100
AcDbLine
 10
177.6371656282
 20
140.3869986412
 30
0.0
 11
177.6371656282
 21
140.1994744648
 31
0.0
  0
ELLIPSE
  5
145
330
1F
100
AcDbEntity
  8
0
  6
Continuous
 62
     8
370
    18
100
AcDbEllipse
 10
177.6371656282
 20
149.3355045376
 30
0.0
 11
24.80000000000001
 21
1.136868377216160E-13
 31
0.0
210
0.0
220
0.0
230
1.0
 40
0.3608268507
 41
3.272834380326563
 42
4.712388980384683
  0
ARC
  5
146
330
1F
100
AcDbEntity
  8
0
  6
Continuous
 62
     8
370
    18
100
AcDbCircle
 10
153.0556346179
 20
147.9604237016
 30
0.0
 40
0.2040980788915024
100
AcDbArc
 50
91.4579532015
 51
175.5145341818
  0
LINE
  5
147
330
1F
100
AcDbEntity
  8
0
  6
Continuous
 62
     8
370
    18
100
AcDbLine
 10
194.5557185756
 20
160.3726321001
 30
0.0
 11
153.1371656282
 21
160.3726321001
 31
0.0
  0
LINE
  5
148
330
1F
100
AcDbEntity
  8
0
  6
Continuous
 62
     8
370
    18
100
AcDbLine
 10
202.1371656282
 20
160.3726321001
 30
0.0
 11
194.5557185756
 21
160.3726321001
 31
0.0
  0
SPLINE
  5
149
330
1F
100
AcDbEntity
  8
0
  6
Continuous
 62
     8
370
    18
100
AcDbSpline
210
0.0
220
0.0
230
1.0
 70
     8
 71
     3
 72
    10
 73
     6
 74
     0
 42
0.00000001
 43
0.00000001
 40
0.0
 40
0.0
 40
0.0
 40
0.0
 40
0.5
 40
0.5
 40
1.0
 40
1.0
 40
1.0
 40
1.0
 10
192.7325429654309
 20
117.4080324340779
 30
0.0
 10
192.5909429061109
 20
117.4018717118216
 30
0.0
 10
192.510834854462
 20
117.3957051136262
 30
0.0
 10
192.4218538904488
 20
117.3833637971719
 30
0.0
 10
192.4117294617348
 20
117.3771891824676
 30
0.0
 10
192.4014381619218
 20
117.3710136757932
 30
0.0
  0
LINE
  5
14A
330
1F
100
AcDbEntity
  8
0
  6
Continuous
 62
     8
370
    18
100
AcDbLine
 10
192.4014330081
 20
117.371013504
 30
0.0
 11
192.350673451
 21
117.3405580981
 31
0.0
  0
SPLINE
  5
14B
330
1F
100
AcDbEntity
  8
0
  6
Continuous
 62
     8
370
    18
100
AcDbSpline
210
0.0
220
0.0
230
1.0
 70
     8
 71
     3
 72
    12
 73
     8
 74
     0
 42
0.00000001
 43
0.00000001
 40
0.0
 40
0.0
 40
0.0
 40
0.0
 40
0.25
 40
0.25
 40
0.5
 40
0.5
 40
1.0
 40
1.0
 40
1.0
 40
1.0
 10
202.2238895748349
 20
148.1644557069839
 30
0.0
 10
202.2955432169934
 20
148.3623013232123
 30
0.0
 10
202.3502073966975
 20
148.5366410226437
 30
0.0
 10
202.4221721812177
 20
148.8358413449999
 30
0.0
 10
202.4392450351932
 20
148.959588625451
 30
0.0
 10
202.4324022521402
 20
149.2554612987466
 30
0.0
 10
202.3507521464207
 20
149.3527656510931
 30
0.0
 10
202.1851496258787
 20
149.3491076151271
 30
0.0
  0
SPLINE
  5
14C
330
1F
100
AcDbEntity
  8
0
  6
Continuous
 62
     8
370
    18
100
AcDbSpline
210
0.0
220
0.0
230
1.0
 70
     8
 71
     3
 72
    12
 73
     8
 74
     0
 42
0.00000001
 43
0.00000001
 40
0.0
 40
0.0
 40
0.0
 40
0.0
 40
0.2499999999999989
 40
0.2499999999999989
 40
0.4999999999999986
 40
0.4999999999999986
 40
1.0
 40
1.0
 40
1.0
 40
1.0
 10
153.0891816305455
 20
149.3491076151271
 30
0.0
 10
153.0063887137302
 20
149.3509364488093
 30
0.0
 10
152.9440342819458
 20
149.3273045991851
 30
0.0
 10
152.8602603635944
 20
149.2285016160319
 30
0.0
 10
152.8391046601821
 20
149.1538490636187
 30
0.0
 10
152.8336691540889
 20
148.8561613344779
 30
0.0
 10
152.9072033988011
 20
148.5599564166762
 30
0.0
 10
153.0504416815892
 20
148.1644557069839
 30
0.0
  0
LINE
  5
14D
330
1F
100
AcDbEntity
  8
0
  6
Continuous
 62
     8
370
    18
100
AcDbLine
 10
192.401433008
 20
117.371013504
 30
0.0
 11
192.6271479776
 21
117.3957339895
 31
0.0
  0
ENDSEC
  0
SECTION
  2
OBJECTS
  0
DICTIONARY
  5
C
330
0
100
AcDbDictionary
281
     1
  3
ACAD_GROUP
350
D
  3
ACAD_LAYOUT
350
1A
  3
ACAD_MLINESTYLE
350
17
  3
ACAD_PLOTSETTINGS
350
19
  3
ACAD_PLOTSTYLENAME
350
E
  3
ACAD_SCALELIST
350
47
  3
DWGPROPS
350
14E
  0
DICTIONARY
  5
D
102
{ACAD_REACTORS
330
C
102
}
330
C
100
AcDbDictionary
281
     1
  0
DICTIONARY
  5
1A
102
{ACAD_REACTORS
330
C
102
}
330
C
100
AcDbDictionary
281
     1
  3
Layout1
350
1E
  3
Layout2
350
26
  3
Model
350
22
  0
DICTIONARY
  5
17
102
{ACAD_REACTORS
330
C
102
}
330
C
100
AcDbDictionary
281
     1
  3
Standard
350
18
  0
DICTIONARY
  5
19
102
{ACAD_REACTORS
330
C
102
}
330
C
100
AcDbDictionary
281
     1
  0
ACDBDICTIONARYWDFLT
  5
E
102
{ACAD_REACTORS
330
C
102
}
330
C
100
AcDbDictionary
281
     1
  3
Normal
350
F
100
AcDbDictionaryWithDefault
340
F
  0
DICTIONARY
  5
47
102
{ACAD_REACTORS
330
C
102
}
330
C
100
AcDbDictionary
281
     1
  3
A0
350
48
  3
A1
350
49
  3
A2
350
4A
  3
A3
350
4B
  3
A4
350
4C
  3
A5
350
4D
  3
A6
350
4E
  3
A7
350
4F
  3
A8
350
50
  3
A9
350
51
  3
B0
350
52
  3
B1
350
53
  3
B2
350
54
  3
B3
350
55
  3
B4
350
56
  3
B5
350
57
  3
B6
350
58
  3
B7
350
59
  3
B8
350
5A
  3
B9
350
5B
  3
C0
350
5C
  3
C1
350
5D
  3
C2
350
5E
  3
C3
350
5F
  3
C4
350
60
  3
C5
350
61
  3
C6
350
62
  3
C7
350
63
  3
C8
350
64
  3
C9
350
65
  3
D0
350
66
  3
D1
350
67
  3
D2
350
68
  0
XRECORD
  5
14E
102
{ACAD_REACTORS
330
C
102
}
330
C
100
AcDbXrecord
280
     1
  1
DWGPROPS COOKIE
  2

  3

  4

  6

  7

  8
estudent
  9

300
=
301
=
302
=
303
=
304
=
305
=
306
=
307
=
308
=
309
=
 40
0.0
 41
2460006.322850475
 42
2460006.322851597
  1

 90
        0
  0
LAYOUT
  5
1E
102
{ACAD_REACTORS
330
1A
102
}
330
1A
100
AcDbPlotSettings
  1

  2
none_device
  4

  6

 40
0.0
 41
0.0
 42
0.0
 43
0.0
 44
0.0
 45
0.0
 46
0.0
 47
0.0
 48
0.0
 49
0.0
140
0.0
141
0.0
142
1.0
143
1.0
 70
   688
 72
     1
 73
     0
 74
     5
  7

 75
    16
147
1.0
148
0.0
149
0.0
100
AcDbLayout
  1
Layout1
 70
     1
 71
     1
 10
0.0
 20
0.0
 11
420.0
 21
297.0
 12
0.0
 22
0.0
 32
0.0
 14
1.0000000000E+20
 24
1.0000000000E+20
 34
1.0000000000E+20
 15
-1.0000000000E+20
 25
-1.0000000000E+20
 35
-1.0000000000E+20
146
0.0
 13
0.0
 23
0.0
 33
0.0
 16
1.0
 26
0.0
 36
0.0
 17
0.0
 27
1.0
 37
0.0
 76
     0
330
1B
  0
LAYOUT
  5
26
102
{ACAD_REACTORS
330
1A
102
}
330
1A
100
AcDbPlotSettings
  1

  2
none_device
  4

  6

 40
0.0
 41
0.0
 42
0.0
 43
0.0
 44
0.0
 45
0.0
 46
0.0
 47
0.0
 48
0.0
 49
0.0
140
0.0
141
0.0
142
1.0
143
1.0
 70
   688
 72
     1
 73
     0
 74
     5
  7

 75
    16
147
1.0
148
0.0
149
0.0
100
AcDbLayout
  1
Layout2
 70
     1
 71
     2
 10
0.0
 20
0.0
 11
0.0
 21
0.0
 12
0.0
 22
0.0
 32
0.0
 14
0.0
 24
0.0
 34
0.0
 15
0.0
 25
0.0
 35
0.0
146
0.0
 13
0.0
 23
0.0
 33
0.0
 16
1.0
 26
0.0
 36
0.0
 17
0.0
 27
1.0
 37
0.0
 76
     0
330
23
  0
LAYOUT
  5
22
102
{ACAD_REACTORS
330
1A
102
}
330
1A
100
AcDbPlotSettings
  1

  2
none_device
  4
Letter_(8.50_x_11.00_Inches)
  6

 40
6.35
 41
6.35
 42
6.35000508
 43
6.35000508
 44
215.9
 45
279.4
 46
0.0
 47
0.0
 48
0.0
 49
0.0
140
0.0
141
0.0
142
1.0
143
1.0
 70
  1712
 72
     1
 73
     0
 74
     0
  7

 75
     0
147
1.0
148
0.0
149
0.0
100
AcDbLayout
  1
Model
 70
     1
 71
     0
 10
0.0
 20
0.0
 11
594.0
 21
841.0
 12
0.0
 22
0.0
 32
0.0
 14
0.0
 24
0.0
 34
0.0
 15
594.0
 25
841.0
 35
0.0
146
0.0
 13
0.0
 23
0.0
 33
0.0
 16
1.0
 26
0.0
 36
0.0
 17
0.0
 27
1.0
 37
0.0
 76
     0
330
1F
331
29
  0
MLINESTYLE
  5
18
102
{ACAD_REACTORS
330
17
102
}
330
17
100
AcDbMlineStyle
  2
Standard
 70
     0
  3

 62
   256
 51
90.0
 52
90.0
 71
     2
 49
0.5
 62
   256
  6
BYLAYER
 49
-0.5
 62
   256
  6
BYLAYER
  0
ACDBPLACEHOLDER
  5
F
102
{ACAD_REACTORS
330
E
102
}
330
E
  0
SCALE
  5
48
102
{ACAD_REACTORS
330
47
102
}
330
47
100
AcDbScale
 70
     0
300
1:1
140
1.0
141
1.0
290
     1
  0
SCALE
  5
49
102
{ACAD_REACTORS
330
47
102
}
330
47
100
AcDbScale
 70
     0
300
1:2
140
1.0
141
2.0
290
     0
  0
SCALE
  5
4A
102
{ACAD_REACTORS
330
47
102
}
330
47
100
AcDbScale
 70
     0
300
1:4
140
1.0
141
4.0
290
     0
  0
SCALE
  5
4B
102
{ACAD_REACTORS
330
47
102
}
330
47
100
AcDbScale
 70
     0
300
1:5
140
1.0
141
5.0
290
     0
  0
SCALE
  5
4C
102
{ACAD_REACTORS
330
47
102
}
330
47
100
AcDbScale
 70
     0
300
1:8
140
1.0
141
8.0
290
     0
  0
SCALE
  5
4D
102
{ACAD_REACTORS
330
47
102
}
330
47
100
AcDbScale
 70
     0
300
1:10
140
1.0
141
10.0
290
     0
  0
SCALE
  5
4E
102
{ACAD_REACTORS
330
47
102
}
330
47
100
AcDbScale
 70
     0
300
1:16
140
1.0
141
16.0
290
     0
  0
SCALE
  5
4F
102
{ACAD_REACTORS
330
47
102
}
330
47
100
AcDbScale
 70
     0
300
1:20
140
1.0
141
20.0
290
     0
  0
SCALE
  5
50
102
{ACAD_REACTORS
330
47
102
}
330
47
100
AcDbScale
 70
     0
300
1:30
140
1.0
141
30.0
290
     0
  0
SCALE
  5
51
102
{ACAD_REACTORS
330
47
102
}
330
47
100
AcDbScale
 70
     0
300
1:40
140
1.0
141
40.0
290
     0
  0
SCALE
  5
52
102
{ACAD_REACTORS
330
47
102
}
330
47
100
AcDbScale
 70
     0
300
1:50
140
1.0
141
50.0
290
     0
  0
SCALE
  5
53
102
{ACAD_REACTORS
330
47
102
}
330
47
100
AcDbScale
 70
     0
300
1:100
140
1.0
141
100.0
290
     0
  0
SCALE
  5
54
102
{ACAD_REACTORS
330
47
102
}
330
47
100
AcDbScale
 70
     0
300
2:1
140
2.0
141
1.0
290
     0
  0
SCALE
  5
55
102
{ACAD_REACTORS
330
47
102
}
330
47
100
AcDbScale
 70
     0
300
4:1
140
4.0
141
1.0
290
     0
  0
SCALE
  5
56
102
{ACAD_REACTORS
330
47
102
}
330
47
100
AcDbScale
 70
     0
300
8:1
140
8.0
141
1.0
290
     0
  0
SCALE
  5
57
102
{ACAD_REACTORS
330
47
102
}
330
47
100
AcDbScale
 70
     0
300
10:1
140
10.0
141
1.0
290
     0
  0
SCALE
  5
58
102
{ACAD_REACTORS
330
47
102
}
330
47
100
AcDbScale
 70
     0
300
100:1
140
100.0
141
1.0
290
     0
  0
SCALE
  5
59
102
{ACAD_REACTORS
330
47
102
}
330
47
100
AcDbScale
 70
     0
300
1/128" = 1'-0"
140
0.0078125
141
12.0
290
     0
  0
SCALE
  5
5A
102
{ACAD_REACTORS
330
47
102
}
330
47
100
AcDbScale
 70
     0
300
1/64" = 1'-0"
140
0.015625
141
12.0
290
     0
  0
SCALE
  5
5B
102
{ACAD_REACTORS
330
47
102
}
330
47
100
AcDbScale
 70
     0
300
1/32" = 1'-0"
140
0.03125
141
12.0
290
     0
  0
SCALE
  5
5C
102
{ACAD_REACTORS
330
47
102
}
330
47
100
AcDbScale
 70
     0
300
1/16" = 1'-0"
140
0.0625
141
12.0
290
     0
  0
SCALE
  5
5D
102
{ACAD_REACTORS
330
47
102
}
330
47
100
AcDbScale
 70
     0
300
3/32" = 1'-0"
140
0.09375
141
12.0
290
     0
  0
SCALE
  5
5E
102
{ACAD_REACTORS
330
47
102
}
330
47
100
AcDbScale
 70
     0
300
1/8" = 1'-0"
140
0.125
141
12.0
290
     0
  0
SCALE
  5
5F
102
{ACAD_REACTORS
330
47
102
}
330
47
100
AcDbScale
 70
     0
300
3/16" = 1'-0"
140
0.1875
141
12.0
290
     0
  0
SCALE
  5
60
102
{ACAD_REACTORS
330
47
102
}
330
47
100
AcDbScale
 70
     0
300
1/4" = 1'-0"
140
0.25
141
12.0
290
     0
  0
SCALE
  5
61
102
{ACAD_REACTORS
330
47
102
}
330
47
100
AcDbScale
 70
     0
300
3/8" = 1'-0"
140
0.375
141
12.0
290
     0
  0
SCALE
  5
62
102
{ACAD_REACTORS
330
47
102
}
330
47
100
AcDbScale
 70
     0
300
1/2" = 1'-0"
140
0.5
141
12.0
290
     0
  0
SCALE
  5
63
102
{ACAD_REACTORS
330
47
102
}
330
47
100
AcDbScale
 70
     0
300
3/4" = 1'-0"
140
0.75
141
12.0
290
     0
  0
SCALE
  5
64
102
{ACAD_REACTORS
330
47
102
}
330
47
100
AcDbScale
 70
     0
300
1" = 1'-0"
140
1.0
141
12.0
290
     0
  0
SCALE
  5
65
102
{ACAD_REACTORS
330
47
102
}
330
47
100
AcDbScale
 70
     0
300
1-1/2" = 1'-0"
140
1.5
141
12.0
290
     0
  0
SCALE
  5
66
102
{ACAD_REACTORS
330
47
102
}
330
47
100
AcDbScale
 70
     0
300
3" = 1'-0"
140
3.0
141
12.0
290
     0
  0
SCALE
  5
67
102
{ACAD_REACTORS
330
47
102
}
330
47
100
AcDbScale
 70
     0
300
6" = 1'-0"
140
6.0
141
12.0
290
     0
  0
SCALE
  5
68
102
{ACAD_REACTORS
330
47
102
}
330
47
100
AcDbScale
 70
     0
300
1'-0" = 1'-0"
140
12.0
141
12.0
290
     0
  0
ENDSEC
  0
EOF
