  0
SECTION
  2
HEADER
  9
$ACADVER
  1
AC1015
  9
$ACADMAINTVER
 70
     6
  9
$DWGCODEPAGE
  3
ANSI_1252
  9
$INSBASE
 10
0.0
 20
0.0
 30
0.0
  9
$EXTMIN
 10
0.0
 20
0.0
 30
0.0
  9
$EXTMAX
 10
594.0
 20
841.0
 30
0.0
  9
$LIMMIN
 10
0.0
 20
0.0
  9
$LIMMAX
 10
594.0
 20
841.0
  9
$ORTHOMODE
 70
     0
  9
$REGENMODE
 70
     1
  9
$FILLMODE
 70
     1
  9
$QTEXTMODE
 70
     0
  9
$MIRRTEXT
 70
     1
  9
$LTSCALE
 40
1.0
  9
$ATTMODE
 70
     1
  9
$TEXTSIZE
 40
10.0
  9
$TRACEWID
 40
1.0
  9
$TEXTSTYLE
  7
Standard
  9
$CLAYER
  8
0
  9
$CELTYPE
  6
ByLayer
  9
$CECOLOR
 62
   256
  9
$CELTSCALE
 40
1.0
  9
$DISPSILH
 70
     0
  9
$DIMSCALE
 40
1.0
  9
$DIMASZ
 40
2.5
  9
$DIMEXO
 40
0.0
  9
$DIMDLI
 40
3.75
  9
$DIMRND
 40
0.0
  9
$DIMDLE
 40
0.0
  9
$DIMEXE
 40
1.0
  9
$DIMTP
 40
0.0
  9
$DIMTM
 40
0.0
  9
$DIMTXT
 40
3.5
  9
$DIMCEN
 40
2.5
  9
$DIMTSZ
 40
0.0
  9
$DIMTOL
 70
     0
  9
$DIMLIM
 70
     0
  9
$DIMTIH
 70
     1
  9
$DIMTOH
 70
     1
  9
$DIMSE1
 70
     0
  9
$DIMSE2
 70
     0
  9
$DIMTAD
 70
     1
  9
$DIMZIN
 70
     0
  9
$DIMBLK
  1

  9
$DIMASO
 70
     1
  9
$DIMSHO
 70
     1
  9
$DIMPOST
  1

  9
$DIMAPOST
  1

  9
$DIMALT
 70
     0
  9
$DIMALTD
 70
     3
  9
$DIMALTF
 40
0.0393700787
  9
$DIMLFAC
 40
1.0
  9
$DIMTOFL
 70
     1
  9
$DIMTVP
 40
0.0
  9
$DIMTIX
 70
     0
  9
$DIMSOXD
 70
     0
  9
$DIMSAH
 70
     0
  9
$DIMBLK1
  1

  9
$DIMBLK2
  1

  9
$DIMSTYLE
  2
ISO-25
  9
$DIMCLRD
 70
     0
  9
$DIMCLRE
 70
     0
  9
$DIMCLRT
 70
     0
  9
$DIMTFAC
 40
1.0
  9
$DIMGAP
 40
1.5
  9
$DIMJUST
 70
     0
  9
$DIMSD1
 70
     0
  9
$DIMSD2
 70
     0
  9
$DIMTOLJ
 70
     0
  9
$DIMTZIN
 70
     0
  9
$DIMALTZ
 70
     0
  9
$DIMALTTZ
 70
     0
  9
$DIMUPT
 70
     0
  9
$DIMDEC
 70
     2
  9
$DIMTDEC
 70
     2
  9
$DIMALTU
 70
     2
  9
$DIMALTTD
 70
     3
  9
$DIMTXSTY
  7
Standard
  9
$DIMAUNIT
 70
     0
  9
$DIMADEC
 70
     2
  9
$DIMALTRND
 40
0.0
  9
$DIMAZIN
 70
     0
  9
$DIMDSEP
 70
    44
  9
$DIMATFIT
 70
     3
  9
$DIMFRAC
 70
     0
  9
$DIMLDRBLK
  1

  9
$DIMLUNIT
 70
     2
  9
$DIMLWD
 70
    -2
  9
$DIMLWE
 70
    -2
  9
$DIMTMOVE
 70
     0
  9
$LUNITS
 70
     2
  9
$LUPREC
 70
     2
  9
$SKETCHINC
 40
1.0
  9
$FILLETRAD
 40
10.0
  9
$AUNITS
 70
     0
  9
$AUPREC
 70
     2
  9
$MENU
  1
.
  9
$ELEVATION
 40
0.0
  9
$PELEVATION
 40
0.0
  9
$THICKNESS
 40
0.0
  9
$LIMCHECK
 70
     0
  9
$CHAMFERA
 40
0.0
  9
$CHAMFERB
 40
0.0
  9
$CHAMFERC
 40
0.0
  9
$CHAMFERD
 40
0.0
  9
$SKPOLY
 70
     0
  9
$TDCREATE
 40
2460006.30936103
  9
$TDUCREATE
 40
2460006.267694363
  9
$TDUPDATE
 40
2460006.309362882
  9
$TDUUPDATE
 40
2460006.267696215
  9
$TDINDWG
 40
0.0000000116
  9
$TDUSRTIMER
 40
0.0000000116
  9
$USRTIMER
 70
     1
  9
$ANGBASE
 50
0.0
  9
$ANGDIR
 70
     0
  9
$PDMODE
 70
     0
  9
$PDSIZE
 40
-1.0
  9
$PLINEWID
 40
0.0
  9
$SPLFRAME
 70
     0
  9
$SPLINETYPE
 70
     6
  9
$SPLINESEGS
 70
     8
  9
$HANDSEED
  5
1A5
  9
$SURFTAB1
 70
     6
  9
$SURFTAB2
 70
     6
  9
$SURFTYPE
 70
     6
  9
$SURFU
 70
     6
  9
$SURFV
 70
     6
  9
$UCSBASE
  2

  9
$UCSNAME
  2

  9
$UCSORG
 10
0.0
 20
0.0
 30
0.0
  9
$UCSXDIR
 10
1.0
 20
0.0
 30
0.0
  9
$UCSYDIR
 10
0.0
 20
1.0
 30
0.0
  9
$UCSORTHOREF
  2

  9
$UCSORTHOVIEW
 70
     0
  9
$UCSORGTOP
 10
0.0
 20
0.0
 30
0.0
  9
$UCSORGBOTTOM
 10
0.0
 20
0.0
 30
0.0
  9
$UCSORGLEFT
 10
0.0
 20
0.0
 30
0.0
  9
$UCSORGRIGHT
 10
0.0
 20
0.0
 30
0.0
  9
$UCSORGFRONT
 10
0.0
 20
0.0
 30
0.0
  9
$UCSORGBACK
 10
0.0
 20
0.0
 30
0.0
  9
$PUCSBASE
  2

  9
$PUCSNAME
  2

  9
$PUCSORG
 10
0.0
 20
0.0
 30
0.0
  9
$PUCSXDIR
 10
1.0
 20
0.0
 30
0.0
  9
$PUCSYDIR
 10
0.0
 20
1.0
 30
0.0
  9
$PUCSORTHOREF
  2

  9
$PUCSORTHOVIEW
 70
     0
  9
$PUCSORGTOP
 10
0.0
 20
0.0
 30
0.0
  9
$PUCSORGBOTTOM
 10
0.0
 20
0.0
 30
0.0
  9
$PUCSORGLEFT
 10
0.0
 20
0.0
 30
0.0
  9
$PUCSORGRIGHT
 10
0.0
 20
0.0
 30
0.0
  9
$PUCSORGFRONT
 10
0.0
 20
0.0
 30
0.0
  9
$PUCSORGBACK
 10
0.0
 20
0.0
 30
0.0
  9
$USERI1
 70
     0
  9
$USERI2
 70
     0
  9
$USERI3
 70
     0
  9
$USERI4
 70
     0
  9
$USERI5
 70
     0
  9
$USERR1
 40
0.0
  9
$USERR2
 40
0.0
  9
$USERR3
 40
0.0
  9
$USERR4
 40
0.0
  9
$USERR5
 40
0.0
  9
$WORLDVIEW
 70
     1
  9
$SHADEDGE
 70
     3
  9
$SHADEDIF
 70
    70
  9
$TILEMODE
 70
     1
  9
$MAXACTVP
 70
    64
  9
$PINSBASE
 10
0.0
 20
0.0
 30
0.0
  9
$PLIMCHECK
 70
     0
  9
$PEXTMIN
 10
1.0000000000E+20
 20
1.0000000000E+20
 30
1.0000000000E+20
  9
$PEXTMAX
 10
-1.0000000000E+20
 20
-1.0000000000E+20
 30
-1.0000000000E+20
  9
$PLIMMIN
 10
0.0
 20
0.0
  9
$PLIMMAX
 10
420.0
 20
297.0
  9
$UNITMODE
 70
     0
  9
$VISRETAIN
 70
     1
  9
$PLINEGEN
 70
     0
  9
$PSLTSCALE
 70
     1
  9
$TREEDEPTH
 70
  3020
  9
$CMLSTYLE
  2
Standard
  9
$CMLJUST
 70
     0
  9
$CMLSCALE
 40
20.0
  9
$PROXYGRAPHICS
 70
     1
  9
$MEASUREMENT
 70
     1
  9
$CELWEIGHT
370
    -1
  9
$ENDCAPS
280
     0
  9
$JOINSTYLE
280
     0
  9
$LWDISPLAY
290
     1
  9
$INSUNITS
 70
     4
  9
$HYPERLINKBASE
  1

  9
$STYLESHEET
  1

  9
$XEDIT
290
     1
  9
$CEPSNTYPE
380
     0
  9
$PSTYLEMODE
290
     1
  9
$FINGERPRINTGUID
  2
{66ea318c-a477-433c-99d2-1ca179f87d2d}
  9
$VERSIONGUID
  2
{FAEB1C32-E019-11D5-929B-00C0DF256EC4}
  9
$EXTNAMES
290
     1
  9
$PSVPSCALE
 40
0.0
  9
$OLESTARTUP
290
     0
  0
ENDSEC
  0
SECTION
  2
CLASSES
  0
CLASS
  1
ACDBDICTIONARYWDFLT
  2
AcDbDictionaryWithDefault
  3
ObjectDBX Classes
 90
        0
280
     0
281
     0
  0
CLASS
  1
VISUALSTYLE
  2
AcDbVisualStyle
  3
ObjectDBX Classes
 90
     4095
280
     0
281
     0
  0
CLASS
  1
MATERIAL
  2
AcDbMaterial
  3
ObjectDBX Classes
 90
     1153
280
     0
281
     0
  0
CLASS
  1
SCALE
  2
AcDbScale
  3
ObjectDBX Classes
 90
     1153
280
     0
281
     0
  0
CLASS
  1
TABLESTYLE
  2
AcDbTableStyle
  3
ObjectDBX Classes
 90
     4095
280
     0
281
     0
  0
CLASS
  1
MLEADERSTYLE
  2
AcDbMLeaderStyle
  3
ACDB_MLEADERSTYLE_CLASS
 90
     4095
280
     0
281
     0
  0
CLASS
  1
SUN
  2
AcDbSun
  3
SCENEOE
 90
     1153
280
     0
281
     0
  0
CLASS
  1
ACDBPLACEHOLDER
  2
AcDbPlaceHolder
  3
ObjectDBX Classes
 90
        0
280
     0
281
     0
  0
CLASS
  1
LAYOUT
  2
AcDbLayout
  3
ObjectDBX Classes
 90
        0
280
     0
281
     0
  0
ENDSEC
  0
SECTION
  2
TABLES
  0
TABLE
  2
VPORT
  5
8
330
0
100
AcDbSymbolTable
 70
     1
  0
VPORT
  5
29
330
8
100
AcDbSymbolTableRecord
100
AcDbViewportTableRecord
  2
*Active
 70
     0
 10
0.0
 20
0.0
 11
1.0
 21
1.0
 12
297.0
 22
420.5
 13
0.0
 23
0.0
 14
10.0
 24
10.0
 15
10.0
 25
10.0
 16
0.0
 26
0.0
 36
1.0
 17
0.0
 27
0.0
 37
0.0
 40
841.0
 41
0.7063020214
 42
50.0
 43
0.0
 44
0.0
 50
0.0
 51
0.0
 71
     0
 72
  2000
 73
     1
 74
     3
 75
     0
 76
     0
 77
     0
 78
     0
281
     0
 65
     1
110
0.0
120
0.0
130
0.0
111
1.0
121
0.0
131
0.0
112
0.0
122
1.0
132
0.0
 79
     0
146
0.0
  0
ENDTAB
  0
TABLE
  2
LTYPE
  5
5
330
0
100
AcDbSymbolTable
 70
     6
  0
LTYPE
  5
14
330
5
100
AcDbSymbolTableRecord
100
AcDbLinetypeTableRecord
  2
ByBlock
 70
     0
  3

 72
    65
 73
     0
 40
0.0
  0
LTYPE
  5
15
330
5
100
AcDbSymbolTableRecord
100
AcDbLinetypeTableRecord
  2
ByLayer
 70
     0
  3

 72
    65
 73
     0
 40
0.0
  0
LTYPE
  5
16
330
5
100
AcDbSymbolTableRecord
100
AcDbLinetypeTableRecord
  2
Continuous
 70
     0
  3
Solid line
 72
    65
 73
     0
 40
0.0
  0
LTYPE
  5
6E
330
5
100
AcDbSymbolTableRecord
100
AcDbLinetypeTableRecord
  2
HIDDEN
 70
     0
  3
Hidden __ __ __ __ __ __ __ __ __ __ __ __ __ __
 72
    65
 73
     2
 40
1.905
 49
1.27
 74
     0
 49
-0.635
 74
     0
  0
LTYPE
  5
6F
330
5
100
AcDbSymbolTableRecord
100
AcDbLinetypeTableRecord
  2
PHANTOM
 70
     0
  3
Phantom ______  __  __  ______  __  __  ______
 72
    65
 73
     6
 40
12.7
 49
6.35
 74
     0
 49
-1.27
 74
     0
 49
1.27
 74
     0
 49
-1.27
 74
     0
 49
1.27
 74
     0
 49
-1.27
 74
     0
  0
LTYPE
  5
70
330
5
100
AcDbSymbolTableRecord
100
AcDbLinetypeTableRecord
  2
CENTER
 70
     0
  3
Center ____ _ ____ _ ____ _ ____ _ ____ _ ____
 72
    65
 73
     4
 40
10.16
 49
6.35
 74
     0
 49
-1.27
 74
     0
 49
1.27
 74
     0
 49
-1.27
 74
     0
  0
LTYPE
  5
71
330
5
100
AcDbSymbolTableRecord
100
AcDbLinetypeTableRecord
  2
CENTERX2
 70
     0
  3
Center (2x) ________  __  ________  __  _____
 72
    65
 73
     4
 40
20.32
 49
12.7
 74
     0
 49
-2.54
 74
     0
 49
2.54
 74
     0
 49
-2.54
 74
     0
  0
LTYPE
  5
72
330
5
100
AcDbSymbolTableRecord
100
AcDbLinetypeTableRecord
  2
DOT2
 70
     0
  3
Dot (.5x) ........................................
 72
    65
 73
     2
 40
0.635
 49
0.0
 74
     0
 49
-0.635
 74
     0
  0
ENDTAB
  0
TABLE
  2
LAYER
  5
2
330
0
100
AcDbSymbolTable
 70
     1
  0
LAYER
  5
10
330
2
100
AcDbSymbolTableRecord
100
AcDbLayerTableRecord
  2
0
 70
     0
 62
     7
  6
Continuous
370
    -3
390
F
  0
ENDTAB
  0
TABLE
  2
STYLE
  5
3
330
0
100
AcDbSymbolTable
 70
     3
  0
STYLE
  5
11
330
3
100
AcDbSymbolTableRecord
100
AcDbTextStyleTableRecord
  2
Standard
 70
     0
 40
0.0
 41
1.0
 50
0.0
 71
     0
 42
10.0
  3
txt
  4

  0
STYLE
  5
76
330
3
100
AcDbSymbolTableRecord
100
AcDbTextStyleTableRecord
  2
SLDTEXTSTYLE0
 70
     0
 40
0.0
 41
0.96
 50
0.0
 71
     0
 42
10.0
  3
ISOCP3
  4

  0
STYLE
  5
8D
330
3
100
AcDbSymbolTableRecord
100
AcDbTextStyleTableRecord
  2
SLDTEXTSTYLE1
 70
     0
 40
0.0
 41
0.605
 50
0.0
 71
     0
 42
10.0
  3
TXT
  4

  0
ENDTAB
  0
TABLE
  2
VIEW
  5
6
330
0
100
AcDbSymbolTable
 70
     0
  0
ENDTAB
  0
TABLE
  2
UCS
  5
7
330
0
100
AcDbSymbolTable
 70
     0
  0
ENDTAB
  0
TABLE
  2
APPID
  5
9
330
0
100
AcDbSymbolTable
 70
     1
  0
APPID
  5
12
330
9
100
AcDbSymbolTableRecord
100
AcDbRegAppTableRecord
  2
ACAD
 70
     0
  0
ENDTAB
  0
TABLE
  2
DIMSTYLE
  5
A
330
0
100
AcDbSymbolTable
 70
     2
100
AcDbDimStyleTable
  0
DIMSTYLE
105
27
330
A
100
AcDbSymbolTableRecord
100
AcDbDimStyleTableRecord
  2
ISO-25
 70
     0
 41
2.5
 42
0.625
 43
3.75
 44
1.25
 73
     0
 74
     0
 77
     1
 78
     8
140
2.5
141
2.5
143
0.0393700787
147
0.625
171
     3
172
     1
178
     0
271
     2
272
     2
274
     3
278
    44
283
     0
284
     8
340
11
  0
DIMSTYLE
105
77
102
{ACAD_REACTORS
330
75
330
82
102
}
330
A
100
AcDbSymbolTableRecord
100
AcDbDimStyleTableRecord
  2
SLDDIMSTYLE0
 70
     0
 41
2.5
 44
0.0
 45
0.000000001
 73
     0
 74
     0
 77
     1
 78
    12
 79
     3
140
6.0
147
1.5
173
     1
178
     0
271
     2
272
     2
276
     2
284
    12
340
76
  0
ENDTAB
  0
TABLE
  2
BLOCK_RECORD
  5
1
330
0
100
AcDbSymbolTable
 70
     3
  0
BLOCK_RECORD
  5
1F
330
1
100
AcDbSymbolTableRecord
100
AcDbBlockTableRecord
  2
*Model_Space
340
22
  0
BLOCK_RECORD
  5
1B
330
1
100
AcDbSymbolTableRecord
100
AcDbBlockTableRecord
  2
*Paper_Space
340
1E
  0
BLOCK_RECORD
  5
23
330
1
100
AcDbSymbolTableRecord
100
AcDbBlockTableRecord
  2
*Paper_Space0
340
26
  0
BLOCK_RECORD
  5
78
330
1
100
AcDbSymbolTableRecord
100
AcDbBlockTableRecord
  2
_D
340
0
  0
BLOCK_RECORD
  5
83
330
1
100
AcDbSymbolTableRecord
100
AcDbBlockTableRecord
  2
_D_1
340
0
  0
ENDTAB
  0
ENDSEC
  0
SECTION
  2
BLOCKS
  0
BLOCK
  5
20
330
1F
100
AcDbEntity
  8
0
100
AcDbBlockBegin
  2
*Model_Space
 70
     0
 10
0.0
 20
0.0
 30
0.0
  3
*Model_Space
  1

  0
ENDBLK
  5
21
330
1F
100
AcDbEntity
  8
0
100
AcDbBlockEnd
  0
BLOCK
  5
1C
330
1B
100
AcDbEntity
 67
     1
  8
0
100
AcDbBlockBegin
  2
*Paper_Space
 70
     0
 10
0.0
 20
0.0
 30
0.0
  3
*Paper_Space
  1

  0
ENDBLK
  5
1D
330
1B
100
AcDbEntity
 67
     1
  8
0
100
AcDbBlockEnd
  0
BLOCK
  5
24
330
23
100
AcDbEntity
  8
0
100
AcDbBlockBegin
  2
*Paper_Space0
 70
     0
 10
0.0
 20
0.0
 30
0.0
  3
*Paper_Space0
  1

  0
ENDBLK
  5
25
330
23
100
AcDbEntity
  8
0
100
AcDbBlockEnd
  0
BLOCK
  5
79
330
78
100
AcDbEntity
  8
0
100
AcDbBlockBegin
  2
_D
 70
     0
 10
0.0
 20
0.0
 30
0.0
  3
_D
  1

  0
SOLID
  5
7B
330
78
100
AcDbEntity
  8
0
  6
Continuous
 62
     7
370
    18
100
AcDbTrace
 10
42.7614395004
 20
152.0299240879
 30
0.0
 11
42.4614395004
 21
149.5299240879
 31
0.0
 12
43.0614395004
 22
149.5299240879
 32
0.0
 13
43.0614395004
 23
149.5299240879
 33
0.0
  0
SOLID
  5
7C
330
78
100
AcDbEntity
  8
0
  6
Continuous
 62
     7
370
    18
100
AcDbTrace
 10
42.7614395004
 20
52.0299240879
 30
0.0
 11
43.0614395004
 21
54.5299240879
 31
0.0
 12
42.4614395004
 22
54.5299240879
 32
0.0
 13
42.4614395004
 23
54.5299240879
 33
0.0
  0
LINE
  5
7D
330
78
100
AcDbEntity
  8
0
  6
Continuous
 62
     7
370
     0
100
AcDbLine
 10
56.6850079902
 20
152.0299240879
 30
0.0
 11
41.7614395004
 21
152.0299240879
 31
0.0
  0
LINE
  5
7E
330
78
100
AcDbEntity
  8
0
  6
Continuous
 62
     7
370
     0
100
AcDbLine
 10
56.6850079902
 20
52.0299240879
 30
0.0
 11
41.7614395004
 21
52.0299240879
 31
0.0
  0
LINE
  5
7F
330
78
100
AcDbEntity
  8
0
  6
Continuous
 62
     7
370
     0
100
AcDbLine
 10
42.7614395004
 20
152.0299240879
 30
0.0
 11
42.7614395004
 21
52.0299240879
 31
0.0
  0
MTEXT
  5
80
330
78
100
AcDbEntity
  8
0
  6
Continuous
 62
     7
370
    18
100
AcDbMText
 10
35.0270332946
 20
94.3680541463
 30
0.0
 40
6.0
 41
0.0
 71
     1
 72
     1
  1
100
  7
SLDTEXTSTYLE0
 11
-7.044195017643634E-15
 21
1.0
 31
0.0
 73
     1
 44
1.0
  0
MTEXT
  5
81
330
78
100
AcDbEntity
  8
0
  6
Continuous
 62
     7
370
    18
100
AcDbMText
 10
35.0270332946
 20
105.7430548466
 30
0.0
 40
6.0
 41
0.0
 71
     1
 72
     1
  1
mm
  7
SLDTEXTSTYLE0
 11
-7.044195017643634E-15
 21
1.0
 31
0.0
 73
     1
 44
1.0
  0
ENDBLK
  5
7A
330
78
100
AcDbEntity
  8
0
100
AcDbBlockEnd
  0
BLOCK
  5
84
330
83
100
AcDbEntity
  8
0
100
AcDbBlockBegin
  2
_D_1
 70
     0
 10
0.0
 20
0.0
 30
0.0
  3
_D_1
  1

  0
SOLID
  5
86
330
83
100
AcDbEntity
  8
0
  6
Continuous
 62
     7
370
    18
100
AcDbTrace
 10
56.6850079902
 20
38.4602342313
 30
0.0
 11
59.1850079902
 21
38.1602342313
 31
0.0
 12
59.1850079902
 22
38.7602342313
 32
0.0
 13
59.1850079902
 23
38.7602342313
 33
0.0
  0
SOLID
  5
87
330
83
100
AcDbEntity
  8
0
  6
Continuous
 62
     7
370
    18
100
AcDbTrace
 10
156.6850079902
 20
38.4602342313
 30
0.0
 11
154.1850079902
 21
38.7602342313
 31
0.0
 12
154.1850079902
 22
38.1602342313
 32
0.0
 13
154.1850079902
 23
38.1602342313
 33
0.0
  0
LINE
  5
88
330
83
100
AcDbEntity
  8
0
  6
Continuous
 62
     7
370
     0
100
AcDbLine
 10
56.6850079902
 20
52.0299240879
 30
0.0
 11
56.6850079902
 21
37.4602342313
 31
0.0
  0
LINE
  5
89
330
83
100
AcDbEntity
  8
0
  6
Continuous
 62
     7
370
     0
100
AcDbLine
 10
156.6850079902
 20
52.0299240879
 30
0.0
 11
156.6850079902
 21
37.4602342313
 31
0.0
  0
LINE
  5
8A
330
83
100
AcDbEntity
  8
0
  6
Continuous
 62
     7
370
     0
100
AcDbLine
 10
56.6850079902
 20
38.4602342313
 30
0.0
 11
156.6850079902
 21
38.4602342313
 31
0.0
  0
MTEXT
  5
8B
330
83
100
AcDbEntity
  8
0
  6
Continuous
 62
     7
370
    18
100
AcDbMText
 10
93.9626484861
 20
46.1946404371
 30
0.0
 40
6.0
 41
0.0
 71
     1
 72
     1
  1
100
  7
SLDTEXTSTYLE0
 73
     1
 44
1.0
  0
MTEXT
  5
8C
330
83
100
AcDbEntity
  8
0
  6
Continuous
 62
     7
370
    18
100
AcDbMText
 10
105.3376491864
 20
46.1946404371
 30
0.0
 40
6.0
 41
0.0
 71
     1
 72
     1
  1
mm
  7
SLDTEXTSTYLE0
 73
     1
 44
1.0
  0
ENDBLK
  5
85
330
83
100
AcDbEntity
  8
0
100
AcDbBlockEnd
  0
ENDSEC
  0
SECTION
  2
ENTITIES
  0
LINE
  5
73
330
1F
100
AcDbEntity
  8
0
  6
Continuous
 62
     7
370
    18
100
AcDbLine
 10
56.6850079902
 20
152.0299240879
 30
0.0
 11
56.6850079902
 21
52.0299240879
 31
0.0
  0
LINE
  5
74
330
1F
100
AcDbEntity
  8
0
  6
Continuous
 62
     7
370
    18
100
AcDbLine
 10
56.6850079902
 20
52.0299240879
 30
0.0
 11
156.6850079902
 21
52.0299240879
 31
0.0
  0
DIMENSION
  5
75
330
1F
100
AcDbEntity
  8
0
  6
Continuous
 62
     7
370
    18
100
AcDbDimension
  2
_D
 10
42.7614395004
 20
52.0299240879
 30
0.0
 11
42.7614395004
 21
105.4472211621
 31
0.0
 70
   160
  1
<>mm
 71
     2
 42
-1.0
  3
SLDDIMSTYLE0
100
AcDbAlignedDimension
 13
56.6850079902
 23
152.0299240879
 33
0.0
 14
56.6850079902
 24
52.0299240879
 34
0.0
 50
90.0
100
AcDbRotatedDimension
  0
DIMENSION
  5
82
330
1F
100
AcDbEntity
  8
0
  6
Continuous
 62
     7
370
    18
100
AcDbDimension
  2
_D_1
 10
156.6850079902
 20
38.4602342313
 30
0.0
 11
105.0418155019
 21
38.4602342313
 31
0.0
 70
   160
  1
<>mm
 71
     2
 42
-1.0
  3
SLDDIMSTYLE0
100
AcDbAlignedDimension
 13
56.6850079902
 23
52.0299240879
 33
0.0
 14
156.6850079902
 24
52.0299240879
 34
0.0
100
AcDbRotatedDimension
  0
MTEXT
  5
8E
330
1F
100
AcDbEntity
  8
0
  6
Continuous
 62
     7
370
     0
100
AcDbMText
 10
412.8252631579
 20
48.4342449499
 30
0.0
 40
10.0
 41
0.0
 71
     1
 72
     1
  1
KLUDI GmbH & Co KG
  7
SLDTEXTSTYLE1
 73
     1
 44
1.0
  0
MTEXT
  5
8F
330
1F
100
AcDbEntity
  8
0
  6
Continuous
 62
     7
370
     0
100
AcDbMText
 10
210.0873490389
 20
48.4342449499
 30
0.0
 40
10.0
 41
0.0
 71
     1
 72
     1
  1
41 755 .. 75
  7
SLDTEXTSTYLE1
 73
     1
 44
1.0
  0
SPLINE
  5
90
330
1F
100
AcDbEntity
  8
0
  6
Continuous
 62
     7
370
    25
100
AcDbSpline
210
0.0
220
0.0
230
1.0
 70
     8
 71
     3
 72
     9
 73
     5
 74
     0
 42
0.00000001
 43
0.00000001
 40
0.0
 40
0.0
 40
0.0
 40
0.0
 40
0.5012883202072489
 40
1.0
 40
1.0
 40
1.0
 40
1.0
 10
189.0661264822117
 20
380.8726194640939
 30
0.0
 10
188.5161361096131
 20
380.8672394451831
 30
0.0
 10
187.4189823351722
 20
380.8565070608565
 30
0.0
 10
186.3112140485476
 20
380.7784109485808
 30
0.0
 10
185.7587570655039
 20
380.7394635052426
 30
0.0
  0
SPLINE
  5
91
330
1F
100
AcDbEntity
  8
0
  6
Continuous
 62
     7
370
    25
100
AcDbSpline
210
0.0
220
0.0
230
1.0
 70
     8
 71
     3
 72
     9
 73
     5
 74
     0
 42
0.00000001
 43
0.00000001
 40
0.0
 40
0.0
 40
0.0
 40
0.0
 40
0.4569359205532924
 40
1.0
 40
1.0
 40
1.0
 40
1.0
 10
169.216456380255
 20
375.6692022283404
 30
0.0
 10
168.4264710554565
 20
375.2180780468134
 30
0.0
 10
166.6975955408287
 20
374.2307969834629
 30
0.0
 10
165.0988280735887
 20
373.0415389764095
 30
0.0
 10
164.2305948907427
 20
372.3956956715843
 30
0.0
  0
LINE
  5
92
330
1F
100
AcDbEntity
  8
0
  6
Continuous
 62
     7
370
    25
100
AcDbLine
 10
169.6711290275
 20
375.9400396628
 30
0.0
 11
169.2164563803
 21
375.6692022283
 31
0.0
  0
SPLINE
  5
93
330
1F
100
AcDbEntity
  8
0
  6
Continuous
 62
     7
370
    25
100
AcDbSpline
210
0.0
220
0.0
230
1.0
 70
     8
 71
     3
 72
     9
 73
     5
 74
     0
 42
0.00000001
 43
0.00000001
 40
0.0
 40
0.0
 40
0.0
 40
0.0
 40
0.4987116938900594
 40
1.0
 40
1.0
 40
1.0
 40
1.0
 10
192.3734959049856
 20
380.739463504752
 30
0.0
 10
191.8210389779388
 20
380.7784109473853
 30
0.0
 10
190.7132708349112
 20
380.85650705604
 30
0.0
 10
189.6161169131788
 20
380.8672394436755
 30
0.0
 10
189.0661264822117
 20
380.8726194640939
 30
0.0
  0
LINE
  5
94
330
1F
100
AcDbEntity
  8
0
  6
Continuous
 62
     7
370
    25
100
AcDbLine
 10
208.998948201
 20
375.6196227056
 30
0.0
 11
208.4611240544
 21
375.940039599
 31
0.0
  0
SPLINE
  5
95
330
1F
100
AcDbEntity
  8
0
  6
Continuous
 62
     7
370
    25
100
AcDbSpline
210
0.0
220
0.0
230
1.0
 70
     8
 71
     3
 72
     9
 73
     5
 74
     0
 42
0.00000001
 43
0.00000001
 40
0.0
 40
0.0
 40
0.0
 40
0.0
 40
0.5518600144581104
 40
1.0
 40
1.0
 40
1.0
 40
1.0
 10
213.9019214940673
 20
372.3954918462231
 30
0.0
 10
213.0346176989145
 20
373.0411170159717
 30
0.0
 10
211.4630166181504
 20
374.2110245157615
 30
0.0
 10
209.7614764067572
 20
375.1837192855202
 30
0.0
 10
208.9989482010244
 20
375.6196227055766
 30
0.0
  0
SPLINE
  5
96
330
1F
100
AcDbEntity
  8
0
  6
Continuous
 62
     7
370
    25
100
AcDbSpline
210
0.0
220
0.0
230
1.0
 70
     8
 71
     3
 72
    19
 73
    15
 74
     0
 42
0.00000001
 43
0.00000001
 40
0.0
 40
0.0
 40
0.0
 40
0.0
 40
0.1420004253686611
 40
0.2626410772109041
 40
0.362006717643896
 40
0.4409318766465377
 40
0.5103486227115088
 40
0.5910299420235448
 40
0.6284149952111981
 40
0.6741954770591639
 40
0.735816692568842
 40
0.8119953688501725
 40
0.9009323343398231
 40
1.0
 40
1.0
 40
1.0
 40
1.0
 10
189.0660484246682
 20
255.214980348542
 30
0.0
 10
190.5697621077482
 20
255.2207027581786
 30
0.0
 10
193.3510001252794
 20
255.2312868097918
 30
0.0
 10
197.1839296780486
 20
255.3143026325025
 30
0.0
 10
200.3464028359197
 20
255.4425115315182
 30
0.0
 10
202.9668470291994
 20
255.5697448196011
 30
0.0
 10
205.3745661601288
 20
255.8827589189782
 30
0.0
 10
207.2856500042789
 20
256.5194712989831
 30
0.0
 10
208.7559886526623
 20
257.4543628365795
 30
0.0
 10
209.8904271856408
 20
258.4990721104731
 30
0.0
 10
211.0257871921119
 20
260.0992591120512
 30
0.0
 10
211.9076780893352
 20
262.3576471443128
 30
0.0
 10
212.3443222316538
 20
265.137916593366
 30
0.0
 10
212.3606647594397
 20
267.1300084818798
 30
0.0
 10
212.3692763349569
 20
268.1797267359923
 30
0.0
  0
SPLINE
  5
97
330
1F
100
AcDbEntity
  8
0
  6
Continuous
 62
     7
370
    25
100
AcDbSpline
210
0.0
220
0.0
230
1.0
 70
     8
 71
     3
 72
    19
 73
    15
 74
     0
 42
0.00000001
 43
0.00000001
 40
0.0
 40
0.0
 40
0.0
 40
0.0
 40
0.0992584229626032
 40
0.1883797982794636
 40
0.2646304553066427
 40
0.3262258079126433
 40
0.3718911886863389
 40
0.408830461174927
 40
0.4892981234673833
 40
0.558742572427531
 40
0.6378640997484123
 40
0.7372962603977092
 40
0.8579903828958543
 40
1.0
 40
1.0
 40
1.0
 40
1.0
 10
165.7629770441094
 20
268.1797277974673
 30
0.0
 10
165.7718165130893
 20
267.1280388701365
 30
0.0
 10
165.7885926952372
 20
265.1320677266299
 30
0.0
 10
166.2249134766545
 20
262.3464412893238
 30
0.0
 10
167.1132603737053
 20
260.0880826789
 30
0.0
 10
168.2479642834823
 20
258.4882631794522
 30
0.0
 10
169.381099994912
 20
257.4511030381093
 30
0.0
 10
170.8453404151143
 20
256.5225379493613
 30
0.0
 10
172.7490809511593
 20
255.8860779974172
 30
0.0
 10
175.1566208605257
 20
255.5697719434224
 30
0.0
 10
177.780215130084
 20
255.4429420507119
 30
0.0
 10
180.9460222331644
 20
255.3142926516019
 30
0.0
 10
184.7803460762709
 20
255.2313105272024
 30
0.0
 10
187.5622592185384
 20
255.2207100735805
 30
0.0
 10
189.066076487179
 20
255.214979792153
 30
0.0
  0
SPLINE
  5
98
330
1F
100
AcDbEntity
  8
0
  6
Continuous
 62
     7
370
    25
100
AcDbSpline
210
0.0
220
0.0
230
1.0
 70
     8
 71
     3
 72
     9
 73
     5
 74
     0
 42
0.00000001
 43
0.00000001
 40
0.0
 40
0.0
 40
0.0
 40
0.0
 40
0.4525040552665986
 40
0.9999999999999999
 40
0.9999999999999999
 40
0.9999999999999999
 40
0.9999999999999999
 10
212.3693934143179
 20
268.1797178612088
 30
0.0
 10
212.5151407658529
 20
274.5500618723386
 30
0.0
 10
212.8372314738557
 20
288.6280440185466
 30
0.0
 10
213.1169406591198
 20
302.7069237426408
 30
0.0
 10
213.2700803037565
 20
310.4150532979716
 30
0.0
  0
SPLINE
  5
99
330
1F
100
AcDbEntity
  8
0
  6
Continuous
 62
     7
370
    25
100
AcDbSpline
210
0.0
220
0.0
230
1.0
 70
     8
 71
     3
 72
     9
 73
     5
 74
     0
 42
0.00000001
 43
0.00000001
 40
0.0
 40
0.0
 40
0.0
 40
0.0
 40
0.4524477758129177
 40
1.0
 40
1.0
 40
1.0
 40
1.0
 10
164.8621461487249
 20
310.4163853867774
 30
0.0
 10
164.988306805799
 20
304.0462194224992
 30
0.0
 10
165.2671470694017
 20
289.9668796515543
 30
0.0
 10
165.5874663761255
 20
275.8884148217851
 30
0.0
 10
165.7628579249722
 20
268.1797200911055
 30
0.0
  0
SPLINE
  5
9A
330
1F
100
AcDbEntity
  8
0
  6
Continuous
 62
     7
370
    25
100
AcDbSpline
210
0.0
220
0.0
230
1.0
 70
     8
 71
     3
 72
    19
 73
    15
 74
     0
 42
0.00000001
 43
0.00000001
 40
0.0
 40
0.0
 40
0.0
 40
0.0
 40
0.090532269941976
 40
0.1924512235660794
 40
0.2772194783497998
 40
0.3561331870198816
 40
0.4350291883544302
 40
0.5233903334286554
 40
0.6117996356211145
 40
0.7088936720040907
 40
0.7735313663499335
 40
0.8437486328425481
 40
0.9204205650254298
 40
1.0
 40
1.0
 40
1.0
 40
1.0
 10
163.9031716229516
 20
349.2776359954069
 30
0.0
 10
163.9244158174309
 20
348.1047815582507
 30
0.0
 10
163.9695761920005
 20
345.6115570799486
 30
0.0
 10
164.0404204606294
 20
342.0198411254088
 30
0.0
 10
164.105914362041
 20
338.5783739490909
 30
0.0
 10
164.1665311944013
 20
335.4352225194316
 30
0.0
 10
164.2295898595161
 20
332.2455503640796
 30
0.0
 10
164.2958148926949
 20
328.9328617026115
 30
0.0
 10
164.3671781532262
 20
325.3843760437084
 30
0.0
 10
164.4335734921225
 20
322.1433680570327
 30
0.0
 10
164.4952645007351
 20
319.1380829229539
 30
0.0
 10
164.561098173001
 20
316.3978491042497
 30
0.0
 10
164.6276340647991
 20
313.4627785120396
 30
0.0
 10
164.7836971825541
 20
311.4434901669106
 30
0.0
 10
164.8631807413687
 20
310.4150586819293
 30
0.0
  0
SPLINE
  5
9B
330
1F
100
AcDbEntity
  8
0
  6
Continuous
 62
     7
370
    25
100
AcDbSpline
210
0.0
220
0.0
230
1.0
 70
     8
 71
     3
 72
    18
 73
    14
 74
     0
 42
0.00000001
 43
0.00000001
 40
0.0
 40
0.0
 40
0.0
 40
0.0
 40
0.1095510247708455
 40
0.217747727108128
 40
0.321748824024901
 40
0.4216873224706669
 40
0.5175790237655019
 40
0.5835956435508795
 40
0.6544181258823527
 40
0.7416149142712978
 40
0.8453624455321705
 40
0.9656513268383229
 40
1.0
 40
1.0
 40
1.0
 40
1.0
 10
213.2690301240192
 20
310.4128207850642
 30
0.0
 10
213.3625563931904
 20
311.7273166261577
 30
0.0
 10
213.5484527148317
 20
314.340057878829
 30
0.0
 10
213.6118354367285
 20
318.2103636270054
 30
0.0
 10
213.696377399882
 20
321.9632612451559
 30
0.0
 10
213.7676680144787
 20
325.5687576011248
 30
0.0
 10
213.8318656642855
 20
328.7173877843366
 30
0.0
 10
213.88771650159
 20
331.5159585489158
 30
0.0
 10
213.9415675982502
 20
334.2099604257137
 30
0.0
 10
214.0056378794214
 20
337.3575651161308
 30
0.0
 10
214.08014278205
 20
341.0999191508715
 30
0.0
 10
214.1413761793389
 20
344.2067865736333
 30
0.0
 10
214.1743037018082
 20
346.0661682017346
 30
0.0
 10
214.1816176865075
 20
346.4791810177111
 30
0.0
  0
SPLINE
  5
9C
330
1F
100
AcDbEntity
  8
0
  6
Continuous
 62
     7
370
    25
100
AcDbSpline
210
0.0
220
0.0
230
1.0
 70
     8
 71
     3
 72
     9
 73
     5
 74
     0
 42
0.00000001
 43
0.00000001
 40
0.0
 40
0.0
 40
0.0
 40
0.0
 40
0.5117440214246335
 40
1.0
 40
1.0
 40
1.0
 40
1.0
 10
164.3600236126229
 20
372.4081008062299
 30
0.0
 10
164.2023847445962
 20
372.2972905219627
 30
0.0
 10
163.8943423221603
 20
372.080755927267
 30
0.0
 10
163.7282967674604
 20
371.6582169235215
 30
0.0
 10
163.6472240326623
 20
371.4519097287614
 30
0.0
  0
SPLINE
  5
9D
330
1F
100
AcDbEntity
  8
0
  6
Continuous
 62
     7
370
    25
100
AcDbSpline
210
0.0
220
0.0
230
1.0
 70
     8
 71
     3
 72
     9
 73
     5
 74
     0
 42
0.00000001
 43
0.00000001
 40
0.0
 40
0.0
 40
0.0
 40
0.0
 40
0.4882529546953773
 40
1.0
 40
1.0
 40
1.0
 40
1.0
 10
214.4850320632256
 20
371.451898343297
 30
0.0
 10
214.4039609598436
 20
371.6581379084911
 30
0.0
 10
214.2379177181132
 20
372.0805410157549
 30
0.0
 10
213.9298592551474
 20
372.2966272384074
 30
0.0
 10
213.7722112469436
 20
372.4072087243809
 30
0.0
  0
SPLINE
  5
9E
330
1F
100
AcDbEntity
  8
0
  6
Continuous
 62
     7
370
    25
100
AcDbSpline
210
0.0
220
0.0
230
1.0
 70
     8
 71
     3
 72
    19
 73
    15
 74
     0
 42
0.00000001
 43
0.00000001
 40
0.0
 40
0.0
 40
0.0
 40
0.0
 40
0.0131213917306753
 40
0.0425323917639293
 40
0.099831508473496
 40
0.1626334529737114
 40
0.2230462847686816
 40
0.3021519217241406
 40
0.377123716559626
 40
0.455090040721513
 40
0.5546239106631715
 40
0.6781911051183087
 40
0.8265634685181092
 40
1.0
 40
1.0
 40
1.0
 40
1.0
 10
163.5750986492911
 20
370.064203999024
 30
0.0
 10
163.5748578297177
 20
370.068674143248
 30
0.0
 10
163.5740772240741
 20
370.0831639115042
 30
0.0
 10
163.5738235906035
 20
369.8413462067788
 30
0.0
 10
163.5747464848481
 20
369.1873526231281
 30
0.0
 10
163.5776081177901
 20
368.2602072077281
 30
0.0
 10
163.5834802138125
 20
367.212029520175
 30
0.0
 10
163.5941012732103
 20
366.0434422860478
 30
0.0
 10
163.611443701611
 20
364.6924584199099
 30
0.0
 10
163.6353904570764
 20
363.2144358029557
 30
0.0
 10
163.6648869132077
 20
361.8333157833856
 30
0.0
 10
163.7033491818688
 20
360.3300171885904
 30
0.0
 10
163.7466596432623
 20
358.7338721424116
 30
0.0
 10
163.764929453913
 20
357.6988472956185
 30
0.0
 10
163.7747758336759
 20
357.1410282847694
 30
0.0
  0
SPLINE
  5
9F
330
1F
100
AcDbEntity
  8
0
  6
Continuous
 62
     7
370
    25
100
AcDbSpline
210
0.0
220
0.0
230
1.0
 70
     8
 71
     3
 72
    18
 73
    14
 74
     0
 42
0.00000001
 43
0.00000001
 40
0.0
 40
0.0
 40
0.0
 40
0.0
 40
0.1999043944470606
 40
0.3657243577067277
 40
0.4980446694000243
 40
0.5986070471107209
 40
0.6849847014670734
 40
0.7768532997194437
 40
0.8496270430468207
 40
0.9245741547362083
 40
0.9574795072951833
 40
0.9868890270703401
 40
1.0
 40
1.0
 40
1.0
 40
1.0
 10
214.3573942898686
 20
357.135427493062
 30
0.0
 10
214.3691283526387
 20
357.7799584834085
 30
0.0
 10
214.3905957775131
 20
358.9591255703481
 30
0.0
 10
214.4417610004112
 20
360.7991497077032
 30
0.0
 10
214.4823915282722
 20
362.4724437900293
 30
0.0
 10
214.5132282671087
 20
364.1586360909249
 30
0.0
 10
214.53623526833
 20
365.8492466291546
 30
0.0
 10
214.5490358045521
 20
367.2142841225402
 30
0.0
 10
214.555508059892
 20
368.4419433068907
 30
0.0
 10
214.5579363645229
 20
369.3912550628603
 30
0.0
 10
214.5583539303608
 20
369.8979995915033
 30
0.0
 10
214.5581756683707
 20
370.0833591250721
 30
0.0
 10
214.5573940752792
 20
370.0686720730311
 30
0.0
 10
214.5571530751118
 20
370.0641433968686
 30
0.0
  0
SPLINE
  5
A0
330
1F
100
AcDbEntity
  8
0
  6
Continuous
 62
     7
370
    25
100
AcDbSpline
210
0.0
220
0.0
230
1.0
 70
     8
 71
     3
 72
    13
 73
     9
 74
     0
 42
0.00000001
 43
0.00000001
 40
0.0
 40
0.0
 40
0.0
 40
0.0
 40
0.0450959813369957
 40
0.1808732840090138
 40
0.3448859950494705
 40
0.5386136642653465
 40
0.8447735045285321
 40
1.0
 40
1.0
 40
1.0
 40
1.0
 10
175.396347470244
 20
378.5003022868639
 30
0.0
 10
175.3057851596962
 20
378.4682039460333
 30
0.0
 10
174.9425531813562
 20
378.3394622678363
 30
0.0
 10
174.1373025321801
 20
378.0315828683742
 30
0.0
 10
172.9834386857125
 20
377.55894038245
 30
0.0
 10
171.4033798328793
 20
376.8403642364182
 30
0.0
 10
169.8471384207429
 20
376.069181307819
 30
0.0
 10
168.7918976722784
 20
375.4241425683501
 30
0.0
 10
168.4368777885578
 20
375.2071289829528
 30
0.0
  0
LINE
  5
A1
330
1F
100
AcDbEntity
  8
0
  6
Continuous
 62
     7
370
    25
100
AcDbLine
 10
164.3696070908
 20
372.4840359876
 30
0.0
 11
164.2344975416
 21
372.3883348297
 31
0.0
  0
LINE
  5
A2
330
1F
100
AcDbEntity
  8
0
  6
Continuous
 62
     7
370
    25
100
AcDbLine
 10
213.8977554236
 20
372.3883348291
 30
0.0
 11
213.762638457
 21
372.4840412409
 31
0.0
  0
SPLINE
  5
A3
330
1F
100
AcDbEntity
  8
0
  6
Continuous
 62
     7
370
    25
100
AcDbSpline
210
0.0
220
0.0
230
1.0
 70
     8
 71
     3
 72
    13
 73
     9
 74
     0
 42
0.00000001
 43
0.00000001
 40
0.0
 40
0.0
 40
0.0
 40
0.0
 40
0.155745655474865
 40
0.4617173435897272
 40
0.6553259564451096
 40
0.8192378726119138
 40
0.9549317326316389
 40
1.0
 40
1.0
 40
1.0
 40
1.0
 10
209.6996127262704
 20
375.2045955652207
 30
0.0
 10
209.3431902313903
 20
375.4224783670004
 30
0.0
 10
208.2865543526563
 20
376.0684050103142
 30
0.0
 10
206.7288774818938
 20
376.840375102225
 30
0.0
 10
205.1488134969624
 20
377.5589384285631
 30
0.0
 10
203.9949505952516
 20
378.0315832748302
 30
0.0
 10
203.1896997729559
 20
378.3394622421076
 30
0.0
 10
202.826467802774
 20
378.4682039408751
 30
0.0
 10
202.735905494256
 20
378.5003022868358
 30
0.0
  0
SPLINE
  5
A4
330
1F
100
AcDbEntity
  8
0
  6
Continuous
 62
     7
370
    25
100
AcDbSpline
210
0.0
220
0.0
230
1.0
 70
     8
 71
     3
 72
     9
 73
     5
 74
     0
 42
0.00000001
 43
0.00000001
 40
0.0
 40
0.0
 40
0.0
 40
0.0
 40
0.6507188017341018
 40
1.0
 40
1.0
 40
1.0
 40
1.0
 10
214.5656187245739
 20
370.873446523927
 30
0.0
 10
214.5596888909051
 20
371.0278450130645
 30
0.0
 10
214.5505761471931
 20
371.2651187613041
 30
0.0
 10
214.4625927037573
 20
371.4845504827491
 30
0.0
 10
214.4318617412064
 20
371.561193857353
 30
0.0
  0
SPLINE
  5
A5
330
1F
100
AcDbEntity
  8
0
  6
Continuous
 62
     7
370
    25
100
AcDbSpline
210
0.0
220
0.0
230
1.0
 70
     8
 71
     3
 72
     9
 73
     5
 74
     0
 42
0.00000001
 43
0.00000001
 40
0.0
 40
0.0
 40
0.0
 40
0.0
 40
0.2388399629842292
 40
1.0
 40
1.0
 40
1.0
 40
1.0
 10
214.1788566778908
 20
372.0472016084128
 30
0.0
 10
214.1537692765189
 20
372.0883381647094
 30
0.0
 10
214.0487307349845
 20
372.2605729774374
 30
0.0
 10
213.8904964457168
 20
372.3886671509359
 30
0.0
 10
213.7700548282406
 20
372.4861673167775
 30
0.0
  0
SPLINE
  5
A6
330
1F
100
AcDbEntity
  8
0
  6
Continuous
 62
     7
370
    25
100
AcDbSpline
210
0.0
220
0.0
230
1.0
 70
     8
 71
     3
 72
     9
 73
     5
 74
     0
 42
0.00000001
 43
0.00000001
 40
0.0
 40
0.0
 40
0.0
 40
0.0
 40
0.7624474468586878
 40
1.0
 40
1.0
 40
1.0
 40
1.0
 10
164.3621988559374
 20
372.4861308284936
 30
0.0
 10
164.2417401850603
 20
372.3886453774484
 30
0.0
 10
164.0837507113288
 20
372.260786793297
 30
0.0
 10
163.9788659792171
 20
372.0888606173582
 30
0.0
 10
163.9539503433185
 20
372.0480191153121
 30
0.0
  0
SPLINE
  5
A7
330
1F
100
AcDbEntity
  8
0
  6
Continuous
 62
     7
370
    25
100
AcDbSpline
210
0.0
220
0.0
230
1.0
 70
     8
 71
     3
 72
     9
 73
     5
 74
     0
 42
0.00000001
 43
0.00000001
 40
0.0
 40
0.0
 40
0.0
 40
0.0
 40
0.3496292924885203
 40
1.0
 40
1.0
 40
1.0
 40
1.0
 10
163.7005196544243
 20
371.56151567306
 30
0.0
 10
163.6697382104349
 20
371.4847551204016
 30
0.0
 10
163.5816979785357
 20
371.265206717829
 30
0.0
 10
163.5725713395906
 20
371.0278093428923
 30
0.0
 10
163.5666356409627
 20
370.8734130441933
 30
0.0
  0
SPLINE
  5
A8
330
1F
100
AcDbEntity
  8
0
  6
Continuous
 62
     7
370
    25
100
AcDbSpline
210
0.0
220
0.0
230
1.0
 70
     8
 71
     3
 72
     8
 73
     4
 74
     0
 42
0.00000001
 43
0.00000001
 40
0.0
 40
0.0
 40
0.0
 40
0.0
 40
0.0156494897640154
 40
0.0156494897640154
 40
0.0156494897640154
 40
0.0156494897640154
 10
189.0661264822117
 20
380.8720397391062
 30
0.0
 10
188.9214520196766
 20
380.8720860763295
 30
0.0
 10
188.7768742806625
 20
380.8713717969355
 30
0.0
 10
188.6323962530749
 20
380.8698976536951
 30
0.0
  0
SPLINE
  5
A9
330
1F
100
AcDbEntity
  8
0
  6
Continuous
 62
     7
370
    25
100
AcDbSpline
210
0.0
220
0.0
230
1.0
 70
     8
 71
     3
 72
     9
 73
     5
 74
     0
 42
0.00000001
 43
0.00000001
 40
0.0
 40
0.0
 40
0.0
 40
0.0
 40
0.9905056043714261
 40
1.0
 40
1.0
 40
1.0
 40
1.0
 10
164.3618304368152
 20
372.4823393977419
 30
0.0
 10
164.3587927754445
 20
372.5084056125767
 30
0.0
 10
164.3557259968647
 20
372.5347216825916
 30
0.0
 10
164.3600650813397
 20
372.4077151436284
 30
0.0
 10
164.3601062783244
 20
372.4065092933001
 30
0.0
  0
LINE
  5
AA
330
1F
100
AcDbEntity
  8
0
  6
Continuous
 62
     7
370
    25
100
AcDbLine
 10
188.6323962531
 20
380.8698976537
 30
0.0
 11
188.501947867
 21
380.8613307309
 31
0.0
  0
SPLINE
  5
AB
330
1F
100
AcDbEntity
  8
0
  6
Continuous
 62
     7
370
    25
100
AcDbSpline
210
0.0
220
0.0
230
1.0
 70
     8
 71
     3
 72
    10
 73
     6
 74
     0
 42
0.00000001
 43
0.00000001
 40
0.0
 40
0.0
 40
0.0
 40
0.0
 40
0.2156419108255253
 40
0.6077154854226171
 40
0.9999999999999999
 40
0.9999999999999999
 40
0.9999999999999999
 40
0.9999999999999999
 10
186.5902729412805
 20
380.735785508976
 30
0.0
 10
185.7673299019661
 20
380.6951011036313
 30
0.0
 10
183.4481368160881
 20
380.5804455478141
 30
0.0
 10
179.6769328151354
 20
379.8709165666785
 30
0.0
 10
176.823256450876
 20
378.9579607086799
 30
0.0
 10
175.3960345444983
 20
378.5013600175817
 30
0.0
  0
LINE
  5
AC
330
1F
100
AcDbEntity
  8
0
  6
Continuous
 62
     7
370
    25
100
AcDbLine
 10
164.6786163231
 20
372.7140252957
 30
0.0
 11
164.3679623104
 21
372.5007917903
 31
0.0
  0
SPLINE
  5
AD
330
1F
100
AcDbEntity
  8
0
  6
Continuous
 62
     7
370
    25
100
AcDbSpline
210
0.0
220
0.0
230
1.0
 70
     8
 71
     3
 72
    10
 73
     6
 74
     0
 42
0.00000001
 43
0.00000001
 40
0.0
 40
0.0
 40
0.0
 40
0.0
 40
0.2156419076337753
 40
0.6077154838227603
 40
0.9999999999999999
 40
0.9999999999999999
 40
0.9999999999999999
 40
0.9999999999999999
 10
191.5419800696434
 20
380.7357855059222
 30
0.0
 10
192.3649230934226
 20
380.695101101191
 30
0.0
 10
194.6841161637414
 20
380.5804455457076
 30
0.0
 10
198.4553201492938
 20
379.8709165664326
 30
0.0
 10
201.3089965135927
 20
378.9579607085852
 30
0.0
 10
202.7362184200032
 20
378.5013600175585
 30
0.0
  0
LINE
  5
AE
330
1F
100
AcDbEntity
  8
0
  6
Continuous
 62
     7
370
    25
100
AcDbLine
 10
213.4699924968
 20
372.7023839224
 30
0.0
 11
213.7704391564
 21
372.4960867273
 31
0.0
  0
SPLINE
  5
AF
330
1F
100
AcDbEntity
  8
0
  6
Continuous
 62
     7
370
    25
100
AcDbSpline
210
0.0
220
0.0
230
1.0
 70
     8
 71
     3
 72
     9
 73
     5
 74
     0
 42
0.00000001
 43
0.00000001
 40
0.0
 40
0.0
 40
0.0
 40
0.0
 40
0.0135983709369286
 40
1.0
 40
1.0
 40
1.0
 40
1.0
 10
213.7720926928625
 20
372.4049263515772
 30
0.0
 10
213.7721521232995
 20
372.4066647152287
 30
0.0
 10
213.7765225318787
 20
372.5345008846919
 30
0.0
 10
213.773450991911
 20
372.5082673691785
 30
0.0
 10
213.7704212198832
 20
372.4823905867402
 30
0.0
  0
LINE
  5
B0
330
1F
100
AcDbEntity
  8
0
  6
Continuous
 62
     7
370
    25
100
AcDbLine
 10
163.9203231199
 20
349.2777271289
 30
0.0
 11
163.7823422128
 21
357.2376906766
 31
0.0
  0
LINE
  5
B1
330
1F
100
AcDbEntity
  8
0
  6
Continuous
 62
     7
370
    25
100
AcDbLine
 10
214.3498175788
 20
357.2323325972
 30
0.0
 11
214.1634194558
 21
346.4792885446
 31
0.0
  0
SPLINE
  5
B2
330
1F
100
AcDbEntity
  8
0
  6
Continuous
 62
     7
370
    25
100
AcDbSpline
210
0.0
220
0.0
230
1.0
 70
     8
 71
     3
 72
     9
 73
     5
 74
     0
 42
0.00000001
 43
0.00000001
 40
0.0
 40
0.0
 40
0.0
 40
0.0
 40
0.7299389657703979
 40
1.0
 40
1.0
 40
1.0
 40
1.0
 10
164.361491472509
 20
372.4958136973002
 30
0.0
 10
164.2414128800992
 20
372.3977475633646
 30
0.0
 10
164.0769079036002
 20
372.263399160917
 30
0.0
 10
163.9681095466857
 20
372.0831882205566
 30
0.0
 10
163.9387273498949
 20
372.0345202676234
 30
0.0
  0
SPLINE
  5
B3
330
1F
100
AcDbEntity
  8
0
  6
Continuous
 62
     7
370
    25
100
AcDbSpline
210
0.0
220
0.0
230
1.0
 70
     8
 71
     3
 72
     9
 73
     5
 74
     0
 42
0.00000001
 43
0.00000001
 40
0.0
 40
0.0
 40
0.0
 40
0.0
 40
0.20563285863732
 40
1.0
 40
1.0
 40
1.0
 40
1.0
 10
163.6571136458842
 20
371.4488244747032
 30
0.0
 10
163.6429637227814
 20
371.4117020262288
 30
0.0
 10
163.5741521369455
 20
371.2311742218675
 30
0.0
 10
163.569942247469
 20
371.0358033096824
 30
0.0
 10
163.5665980496002
 20
370.8806070766645
 30
0.0
  0
SPLINE
  5
B4
330
1F
100
AcDbEntity
  8
0
  6
Continuous
 62
     7
370
    25
100
AcDbSpline
210
0.0
220
0.0
230
1.0
 70
     8
 71
     3
 72
     9
 73
     5
 74
     0
 42
0.00000001
 43
0.00000001
 40
0.0
 40
0.0
 40
0.0
 40
0.0
 40
0.7298623476162016
 40
1.0
 40
1.0
 40
1.0
 40
1.0
 10
213.7697575333732
 20
372.4959249090093
 30
0.0
 10
213.8898108472972
 20
372.3979585757772
 30
0.0
 10
214.0542984583052
 20
372.2637328090255
 30
0.0
 10
214.1631842778728
 20
372.0836760157006
 30
0.0
 10
214.1925984375486
 20
372.0350358962561
 30
0.0
  0
SPLINE
  5
B5
330
1F
100
AcDbEntity
  8
0
  6
Continuous
 62
     7
370
    25
100
AcDbSpline
210
0.0
220
0.0
230
1.0
 70
     8
 71
     3
 72
     9
 73
     5
 74
     0
 42
0.00000001
 43
0.00000001
 40
0.0
 40
0.0
 40
0.0
 40
0.0
 40
0.2901741913731956
 40
0.9999999999999999
 40
0.9999999999999999
 40
0.9999999999999999
 40
0.9999999999999999
 10
214.4514925213235
 20
371.5146827981055
 30
0.0
 10
214.4744781334012
 20
371.456224675386
 30
0.0
 10
214.5536912845399
 20
371.2547659500501
 30
0.0
 10
214.5606893761908
 20
371.0366388494133
 30
0.0
 10
214.5656568022557
 20
370.8818066038204
 30
0.0
  0
SPLINE
  5
B6
330
1F
100
AcDbEntity
  8
0
  6
Continuous
 62
     7
370
    25
100
AcDbSpline
210
0.0
220
0.0
230
1.0
 70
     8
 71
     3
 72
     9
 73
     5
 74
     0
 42
0.00000001
 43
0.00000001
 40
0.0
 40
0.0
 40
0.0
 40
0.0
 40
0.3943897320575798
 40
0.9999999999999999
 40
0.9999999999999999
 40
0.9999999999999999
 40
0.9999999999999999
 10
163.5676503532959
 20
370.8712398832304
 30
0.0
 10
163.5680202263085
 20
370.8655405522288
 30
0.0
 10
163.5689580626224
 20
370.8510895395924
 30
0.0
 10
163.5749350980248
 20
370.8383851312089
 30
0.0
 10
163.5785548520365
 20
370.8306912110437
 30
0.0
  0
SPLINE
  5
B7
330
1F
100
AcDbEntity
  8
0
  6
Continuous
 62
     7
370
    25
100
AcDbSpline
210
0.0
220
0.0
230
1.0
 70
     8
 71
     3
 72
     9
 73
     5
 74
     0
 42
0.00000001
 43
0.00000001
 40
0.0
 40
0.0
 40
0.0
 40
0.0
 40
0.1666645252120361
 40
1.0
 40
1.0
 40
1.0
 40
1.0
 10
170.3113631715372
 20
376.2312242240135
 30
0.0
 10
170.2626423416778
 20
376.2085315084861
 30
0.0
 10
169.9703136064692
 20
376.072373465864
 30
0.0
 10
169.6980533993087
 20
375.9009601365425
 30
0.0
 10
169.4711693103088
 20
375.7581153283674
 30
0.0
  0
LWPOLYLINE
  5
B8
330
1F
100
AcDbEntity
  8
0
  6
Continuous
 62
     7
370
    25
100
AcDbPolyline
 90
        5
 70
   128
 43
0.0
 10
214.1237991052
 20
372.0959446077
 10
214.1192951793
 20
372.1042277673
 10
213.766801746
 20
372.4511331652
 10
213.7667548215
 20
372.4511691349
 10
213.7667548215
 20
372.4511691349
  0
SPLINE
  5
B9
330
1F
100
AcDbEntity
  8
0
  6
Continuous
 62
     7
370
    25
100
AcDbSpline
210
0.0
220
0.0
230
1.0
 70
     8
 71
     3
 72
     9
 73
     5
 74
     0
 42
0.00000001
 43
0.00000001
 40
0.0
 40
0.0
 40
0.0
 40
0.0
 40
0.0002004983235266
 40
1.0
 40
1.0
 40
1.0
 40
1.0
 10
164.3654981429393
 20
372.4511691349048
 30
0.0
 10
164.3654825011965
 20
372.4511571452338
 30
0.0
 10
164.2874681690667
 20
372.3913577872776
 30
0.0
 10
164.2268560779846
 20
372.3138107713561
 30
0.0
 10
164.1662561395252
 20
372.2362793034814
 30
0.0
  0
ARC
  5
BA
330
1F
100
AcDbEntity
  8
0
  6
Continuous
 62
     7
370
    25
100
AcDbCircle
 10
-9736.4338735178
 20
340.8958944564
 30
0.0
 40
10000.0
100
AcDbArc
 50
359.5831904602
 51
0.4168095398
  0
ARC
  5
BB
330
1F
100
AcDbEntity
  8
0
  6
Continuous
 62
     7
370
    25
100
AcDbCircle
 10
10114.5661264822
 20
340.8958944563
 30
0.0
 40
10000.0
100
AcDbArc
 50
179.5831904602
 51
180.4168095398
  0
ARC
  5
BC
330
1F
100
AcDbEntity
  8
0
  6
Continuous
 62
     7
370
    25
100
AcDbCircle
 10
189.0661264821
 20
-9584.6041055436
 30
0.0
 40
10000.0
100
AcDbArc
 50
89.5831904602
 51
90.4168095398
  0
ARC
  5
BD
330
1F
100
AcDbEntity
  8
0
  6
Continuous
 62
     7
370
    25
100
AcDbCircle
 10
189.0661264823
 20
10266.3958944564
 30
0.0
 40
10000.0
100
AcDbArc
 50
270.1331981985
 51
270.4168095398
  0
ARC
  5
BE
330
1F
100
AcDbEntity
  8
0
  6
Continuous
 62
     7
370
    25
100
AcDbCircle
 10
189.0661264823
 20
10266.3958944564
 30
0.0
 40
10000.0
100
AcDbArc
 50
269.5831904602
 51
269.8668260893
  0
ARC
  5
BF
330
1F
100
AcDbEntity
  8
0
  6
Continuous
 62
     7
370
    25
100
AcDbCircle
 10
116.3306918394
 20
268.1604598135
 30
0.0
 40
1.500000000000095
100
AcDbArc
 50
180.4168095398
 51
269.5831904602
  0
ARC
  5
C0
330
1F
100
AcDbEntity
  8
0
  6
Continuous
 62
     7
370
    25
100
AcDbCircle
 10
116.3306918394
 20
413.6313290992
 30
0.0
 40
1.500000000000095
100
AcDbArc
 50
90.4168095398
 51
179.5831904602
  0
ARC
  5
C1
330
1F
100
AcDbEntity
  8
0
  6
Continuous
 62
     7
370
    25
100
AcDbCircle
 10
261.801561125
 20
413.6313290992
 30
0.0
 40
1.50000000000021
100
AcDbArc
 50
0.4168095398
 51
89.5831904602
  0
ARC
  5
C2
330
1F
100
AcDbEntity
  8
0
  6
Continuous
 62
     7
370
    25
100
AcDbCircle
 10
261.801561125
 20
268.1604598135
 30
0.0
 40
1.500000000000095
100
AcDbArc
 50
270.4168095398
 51
359.5831904602
  0
SPLINE
  5
C3
330
1F
100
AcDbEntity
  8
0
  6
Continuous
 62
     8
370
    18
100
AcDbSpline
210
0.0
220
0.0
230
1.0
 70
     8
 71
     3
 72
    30
 73
    26
 74
     0
 42
0.00000001
 43
0.00000001
 40
0.0
 40
0.0
 40
0.0
 40
0.0
 40
0.0313109823712302
 40
0.0620496668015783
 40
0.0726767192119586
 40
0.0866136027670688
 40
0.1038675513182857
 40
0.1244546759528475
 40
0.1716984787393389
 40
0.2136039795852421
 40
0.2503219221306907
 40
0.298495802937976
 40
0.3410136766690195
 40
0.377681052191425
 40
0.4182498330948263
 40
0.460530392752091
 40
0.504087169067057
 40
0.5435191090468233
 40
0.5983723229033797
 40
0.6681425018240303
 40
0.7524045551416323
 40
0.8134572279217979
 40
0.8748439574646069
 40
0.936902982926762
 40
1.0
 40
1.0
 40
1.0
 40
1.0
 10
166.6844531982085
 20
268.2028111882486
 30
0.0
 10
166.6916687040051
 20
267.8857402858789
 30
0.0
 10
166.7059678315499
 20
267.2573938606135
 30
0.0
 10
166.7080035284809
 20
266.5212509406215
 30
0.0
 10
166.7218061892841
 20
265.9612376957855
 30
0.0
 10
166.7460322379435
 20
265.5383003726529
 30
0.0
 10
166.7881728600015
 20
265.0154923646352
 30
0.0
 10
166.8822388383011
 20
264.1587603077891
 30
0.0
 10
167.0701013964657
 20
263.0612682986989
 30
0.0
 10
167.4220694143708
 20
261.8328783439287
 30
0.0
 10
167.9209210307946
 20
260.6463891097618
 30
0.0
 10
168.6000263144958
 20
259.5395190310161
 30
0.0
 10
169.4709984598915
 20
258.5791606405261
 30
0.0
 10
170.4279093241223
 20
257.8241117388715
 30
0.0
 10
171.5108899467987
 20
257.2674199343971
 30
0.0
 10
172.7299184144483
 20
256.8650084445497
 30
0.0
 10
173.9753238487862
 20
256.6101233805759
 30
0.0
 10
175.3635030460605
 20
256.4581058141667
 30
0.0
 10
177.0199958556221
 20
256.332428952916
 30
0.0
 10
179.1323567462161
 20
256.2172281446249
 30
0.0
 10
181.3089553883993
 20
256.1288139116068
 30
0.0
 10
183.401559524083
 20
256.0645254865007
 30
0.0
 10
185.2698985496395
 20
256.0255476680799
 30
0.0
 10
187.1592354441232
 20
256.0015243635025
 30
0.0
 10
188.4269306449341
 20
255.998865970961
 30
0.0
 10
189.066035110918
 20
255.9975257508951
 30
0.0
  0
SPLINE
  5
C4
330
1F
100
AcDbEntity
  8
0
  6
Continuous
 62
     8
370
    18
100
AcDbSpline
210
0.0
220
0.0
230
1.0
 70
     8
 71
     3
 72
    15
 73
    11
 74
     0
 42
0.00000001
 43
0.00000001
 40
0.0
 40
0.0
 40
0.0
 40
0.0
 40
0.154302245670386
 40
0.3002553997914293
 40
0.4378590254948138
 40
0.5671130847783832
 40
0.6880326011345456
 40
0.8006732305392653
 40
0.904679070322982
 40
1.0
 40
1.0
 40
1.0
 40
1.0
 10
165.7973521183897
 20
310.4370343809304
 30
0.0
 10
165.8389271418581
 20
308.2646734156264
 30
0.0
 10
165.9198276189616
 20
304.037495079402
 30
0.0
 10
166.0424040782667
 20
297.8731391255256
 30
0.0
 10
166.1609843104508
 20
292.0614836724642
 30
0.0
 10
166.2753782605201
 20
286.602321145203
 30
0.0
 10
166.3850191039526
 20
281.4946476252211
 30
0.0
 10
166.4899224828157
 20
276.7424776713265
 30
0.0
 10
166.5913879687166
 20
272.3507878330543
 30
0.0
 10
166.6541652959703
 20
269.5447165627298
 30
0.0
 10
166.6841863172944
 20
268.2028128989572
 30
0.0
  0
SPLINE
  5
C5
330
1F
100
AcDbEntity
  8
0
  6
Continuous
 62
     8
370
    18
100
AcDbSpline
210
0.0
220
0.0
230
1.0
 70
     8
 71
     3
 72
    32
 73
    28
 74
     0
 42
0.00000001
 43
0.00000001
 40
0.0
 40
0.0
 40
0.0
 40
0.0
 40
0.0498523964761496
 40
0.0979546309430492
 40
0.1441687371123057
 40
0.1884414663644095
 40
0.2307798481706023
 40
0.2711854212270399
 40
0.3096602419397986
 40
0.3462071781803174
 40
0.3808268579762586
 40
0.4135187934904009
 40
0.4442825427704659
 40
0.473117785576861
 40
0.5000243224992711
 40
0.6250263773527521
 40
0.7500292631305913
 40
0.8125512954294198
 40
0.8750731673841625
 40
0.9157171967605886
 40
0.9378792209998054
 40
0.9562508699347995
 40
0.9695300257164305
 40
0.9773100910971437
 40
0.9849080694171204
 40
0.992454338608181
 40
1.0
 40
1.0
 40
1.0
 40
1.0
 10
164.8895174694196
 20
360.6158172403221
 30
0.0
 10
164.901417778565
 20
359.7819088043794
 30
0.0
 10
164.9248006141524
 20
358.1433678543543
 30
0.0
 10
164.9593808347489
 20
355.7318564758048
 30
0.0
 10
164.9933851460088
 20
353.4136791017175
 30
0.0
 10
165.0262055373512
 20
351.191882586455
 30
0.0
 10
165.0577222391103
 20
349.0672442774618
 30
0.0
 10
165.0880312445488
 20
347.0395874142338
 30
0.0
 10
165.1171325750334
 20
345.1088080326702
 30
0.0
 10
165.1449612639642
 20
343.2748145290558
 30
0.0
 10
165.1714714276686
 20
341.5375562084367
 30
0.0
 10
165.1966334247788
 20
339.8970371192858
 30
0.0
 10
165.2204119511034
 20
338.3532772420848
 30
0.0
 10
165.2427865672351
 20
336.9062919919826
 30
0.0
 10
165.2895819342441
 20
333.8829756435259
 30
0.0
 10
165.3625881107893
 20
329.2510753079375
 30
0.0
 10
165.4475895971414
 20
324.023474354077
 30
0.0
 10
165.5177137172171
 20
319.841007162387
 30
0.0
 10
165.5649650257831
 20
317.0696007725275
 30
0.0
 10
165.6024603099667
 20
314.9733153309348
 30
0.0
 10
165.6281531523879
 20
313.6155277686133
 30
0.0
 10
165.6537924492199
 20
312.7156299496665
 30
0.0
 10
165.6864131311174
 20
312.0567281410168
 30
0.0
 10
165.7230341947522
 20
311.5787207259579
 30
0.0
 10
165.7573551936706
 20
311.1968261950839
 30
0.0
 10
165.787971828662
 20
310.8184078848041
 30
0.0
 10
165.7954466079179
 20
310.5660039912062
 30
0.0
 10
165.7991838470295
 20
310.4398071269543
 30
0.0
  0
SPLINE
  5
C6
330
1F
100
AcDbEntity
  8
0
  6
Continuous
 62
     8
370
    18
100
AcDbSpline
210
0.0
220
0.0
230
1.0
 70
     8
 71
     3
 72
    33
 73
    29
 74
     0
 42
0.00000001
 43
0.00000001
 40
0.0
 40
0.0
 40
0.0
 40
0.0
 40
0.0043697203285185
 40
0.0093990804892978
 40
0.0150899954929095
 40
0.0227841746923436
 40
0.0304638356354932
 40
0.0378104133850169
 40
0.0483573891277821
 40
0.0621074927730443
 40
0.0856424316323793
 40
0.1249090691707355
 40
0.1580574630300627
 40
0.2499541731918112
 40
0.3749598070109101
 40
0.4999641735140086
 40
0.5240392243461011
 40
0.5513164197345191
 40
0.5817955459600854
 40
0.6154762330949655
 40
0.6523579070666272
 40
0.6924398601830215
 40
0.735722952443161
 40
0.7822111983381397
 40
0.8319072679584709
 40
0.8848173005972898
 40
0.9409146764423897
 40
0.9999999999999999
 40
0.9999999999999999
 40
0.9999999999999999
 40
0.9999999999999999
 10
212.33306911739
 20
310.4398071267591
 30
0.0
 10
212.3352249739668
 20
310.5128793548924
 30
0.0
 10
212.3398621287423
 20
310.670054574843
 30
0.0
 10
212.3546272028715
 20
310.9220862050697
 30
0.0
 10
212.3776713295696
 20
311.2292569083137
 30
0.0
 10
212.4058766717742
 20
311.5804888433532
 30
0.0
 10
212.438700043313
 20
311.9591362202243
 30
0.0
 10
212.4646804706585
 20
312.3861929211868
 30
0.0
 10
212.4839737805138
 20
312.9152316939664
 30
0.0
 10
212.5062360745956
 20
313.7151031588902
 30
0.0
 10
212.5307474403095
 20
314.9955217276942
 30
0.0
 10
212.5588607115256
 20
316.6004255994575
 30
0.0
 10
212.6058451325394
 20
319.3488125555661
 30
0.0
 10
212.6766933839536
 20
323.5313328463875
 30
0.0
 10
212.7703896408936
 20
329.2503546489053
 30
0.0
 10
212.8421398054965
 20
333.8349862668964
 30
0.0
 10
212.8874242190272
 20
336.7849235802416
 30
0.0
 10
212.9085337797068
 20
338.1537248750921
 30
0.0
 10
212.9320758867105
 20
339.6832015595143
 30
0.0
 10
212.9580193955973
 20
341.3733351482211
 30
0.0
 10
212.9862979494485
 20
343.2240995563911
 30
0.0
 10
213.0168553572655
 20
345.2354893866407
 30
0.0
 10
213.0496102345078
 20
347.4075752729505
 30
0.0
 10
213.0844516253457
 20
349.7404813586258
 30
0.0
 10
213.1214037465854
 20
352.2344170931559
 30
0.0
 10
213.1605778241468
 20
354.8890733842106
 30
0.0
 10
213.2012051931717
 20
357.7007351057065
 30
0.0
 10
213.2286547049603
 20
359.6274627700739
 30
0.0
 10
213.2427354939498
 20
360.6158171674519
 30
0.0
  0
SPLINE
  5
C7
330
1F
100
AcDbEntity
  8
0
  6
Continuous
 62
     8
370
    18
100
AcDbSpline
210
0.0
220
0.0
230
1.0
 70
     8
 71
     3
 72
    31
 73
    27
 74
     0
 42
0.00000001
 43
0.00000001
 40
0.0
 40
0.0
 40
0.0
 40
0.0
 40
0.0308171162239629
 40
0.0625847024433211
 40
0.0953210063608995
 40
0.1290246131081423
 40
0.1636851545147568
 40
0.1993268400566991
 40
0.235938939565416
 40
0.2734940301820762
 40
0.3119674621555061
 40
0.3513532052889576
 40
0.3916575217473374
 40
0.4328869686496951
 40
0.4750439600757913
 40
0.5181286127718672
 40
0.5621410164831245
 40
0.607081160076992
 40
0.6529490291821077
 40
0.6997446294404491
 40
0.7474679616946729
 40
0.796119014393176
 40
0.8456977695550828
 40
0.8962042057616353
 40
0.9476382944053302
 40
1.0
 40
1.0
 40
1.0
 40
1.0
 10
211.448066647129
 20
268.2028128989573
 30
0.0
 10
211.4586317550646
 20
268.6366284510138
 30
0.0
 10
211.4800878229079
 20
269.5176394139939
 30
0.0
 10
211.5077234592031
 20
270.8595959485299
 30
0.0
 10
211.5388479219049
 20
272.2421275603559
 30
0.0
 10
211.5712511131326
 20
273.6653732787328
 30
0.0
 10
211.6049839982523
 20
275.1295086716452
 30
0.0
 10
211.6391849479666
 20
276.6345992955646
 30
0.0
 10
211.67384073361
 20
278.1804489253204
 30
0.0
 10
211.7089531116264
 20
279.766172593865
 30
0.0
 10
211.7445355868377
 20
281.3909515705571
 30
0.0
 10
211.7806007487422
 20
283.0544416128997
 30
0.0
 10
211.8171658323823
 20
284.7567379488571
 30
0.0
 10
211.85426298991
 20
286.4980544280866
 30
0.0
 10
211.8918878385762
 20
288.2785190967971
 30
0.0
 10
211.9300214579386
 20
290.0981692070469
 30
0.0
 10
211.9686469070037
 20
291.9570078075976
 30
0.0
 10
212.0077456938698
 20
293.8550361211211
 30
0.0
 10
212.0472991160295
 20
295.792254183819
 30
0.0
 10
212.0872878949314
 20
297.768662205337
 30
0.0
 10
212.1276925051722
 20
299.7842604321345
 30
0.0
 10
212.1684920255965
 20
301.8390487963453
 30
0.0
 10
212.209668398388
 20
303.9330268537884
 30
0.0
 10
212.2511901502235
 20
306.0661941660668
 30
0.0
 10
212.2930748058801
 20
308.238549108107
 30
0.0
 10
212.3208760133933
 20
309.6998527615213
 30
0.0
 10
212.3349008460338
 20
310.4370343809305
 30
0.0
  0
SPLINE
  5
C8
330
1F
100
AcDbEntity
  8
0
  6
Continuous
 62
     8
370
    18
100
AcDbSpline
210
0.0
220
0.0
230
1.0
 70
     8
 71
     3
 72
    29
 73
    25
 74
     0
 42
0.00000001
 43
0.00000001
 40
0.0
 40
0.0
 40
0.0
 40
0.0
 40
0.0505235595428708
 40
0.1003383347248636
 40
0.1496344180937436
 40
0.1985925194174818
 40
0.2473804052974959
 40
0.3314646689965217
 40
0.4011165657756497
 40
0.455914271525388
 40
0.495357569074066
 40
0.5391041514140326
 40
0.5815631641080576
 40
0.6222952184717605
 40
0.6493087293869001
 40
0.6796864538013714
 40
0.7132678632480451
 40
0.7500877474479921
 40
0.8070499433906533
 40
0.8758538305037331
 40
0.9064080023153019
 40
0.9380010519904584
 40
0.9689922349506558
 40
1.0
 40
1.0
 40
1.0
 40
1.0
 10
189.0661264822117
 20
255.9975257711021
 30
0.0
 10
189.5778657900661
 20
255.9983656417991
 30
0.0
 10
190.5941653229563
 20
256.0000336008241
 30
0.0
 10
192.1097019766857
 20
256.0152632073955
 30
0.0
 10
193.6092330216713
 20
256.0400583682224
 30
0.0
 10
195.0981326453672
 20
256.0754333320508
 30
0.0
 10
196.9388434520713
 20
256.1335957432897
 30
0.0
 10
198.9883039090271
 20
256.2166650537773
 30
0.0
 10
201.0970860273876
 20
256.3313768261537
 30
0.0
 10
202.7519487158093
 20
256.4564892147313
 30
0.0
 10
204.141636811828
 20
256.6077964533998
 30
0.0
 10
205.3911327484419
 20
256.8619135282582
 30
0.0
 10
206.6155230902758
 20
257.2649866195092
 30
0.0
 10
207.6148912999364
 20
257.7773051987118
 30
0.0
 10
208.411151005299
 20
258.3764737004537
 30
0.0
 10
209.0760350864646
 20
259.0179423699407
 30
0.0
 10
209.7111883835065
 20
259.8212712033967
 30
0.0
 10
210.3639449545593
 20
260.9387772641256
 30
0.0
 10
210.9486966105256
 20
262.4884661797056
 30
0.0
 10
211.2476709529251
 20
264.0501766537287
 30
0.0
 10
211.3772534218598
 20
265.3704188041027
 30
0.0
 10
211.423135958678
 20
266.312996111214
 30
0.0
 10
211.4413292145297
 20
267.2607993566526
 30
0.0
 10
211.4456425311104
 20
267.8887512608649
 30
0.0
 10
211.4477997662154
 20
268.2028111882222
 30
0.0
  0
SPLINE
  5
C9
330
1F
100
AcDbEntity
  8
0
  6
Continuous
 62
     8
370
    18
100
AcDbSpline
210
0.0
220
0.0
230
1.0
 70
     8
 71
     3
 72
    15
 73
    11
 74
     0
 42
0.00000001
 43
0.00000001
 40
0.0
 40
0.0
 40
0.0
 40
0.0
 40
0.1438605928678746
 40
0.2906192552981598
 40
0.4356896058574749
 40
0.5090999475737086
 40
0.5811751416145692
 40
0.7246682796278121
 40
0.8671079331323253
 40
1.0
 40
1.0
 40
1.0
 40
1.0
 10
164.3601062783244
 20
372.4065092933001
 30
0.0
 10
164.3636249776263
 20
372.2870903309152
 30
0.0
 10
164.3707332603767
 20
372.0458467128757
 30
0.0
 10
164.4173211887091
 20
370.9292568784214
 30
0.0
 10
164.4869427738215
 20
369.6052787060796
 30
0.0
 10
164.5622560028299
 20
368.3701025418588
 30
0.0
 10
164.6423559239448
 20
367.019194952974
 30
0.0
 10
164.7498431426846
 20
365.1779266127048
 30
0.0
 10
164.8394238079915
 20
362.8763319270182
 30
0.0
 10
164.8723591889869
 20
361.3458430211701
 30
0.0
 10
164.8882558348497
 20
360.6071346960223
 30
0.0
  0
SPLINE
  5
CA
330
1F
100
AcDbEntity
  8
0
  6
Continuous
 62
     8
370
    18
100
AcDbSpline
210
0.0
220
0.0
230
1.0
 70
     8
 71
     3
 72
    10
 73
     6
 74
     0
 42
0.00000001
 43
0.00000001
 40
0.0
 40
0.0
 40
0.0
 40
0.0
 40
0.0009644313169783
 40
0.6172356420311553
 40
1.0
 40
1.0
 40
1.0
 40
1.0
 10
175.3960345444983
 20
378.5013600175817
 30
0.0
 10
175.3939381381794
 20
378.5007369382519
 30
0.0
 10
174.0522389653994
 20
378.1019664261535
 30
0.0
 10
171.966868674112
 20
377.1667498703804
 30
0.0
 10
169.9898392843518
 20
376.0626825232218
 30
0.0
 10
169.2323723744852
 20
375.639676934095
 30
0.0
  0
SPLINE
  5
CB
330
1F
100
AcDbEntity
  8
0
  6
Continuous
 62
     8
370
    18
100
AcDbSpline
210
0.0
220
0.0
230
1.0
 70
     8
 71
     3
 72
    10
 73
     6
 74
     0
 42
0.00000001
 43
0.00000001
 40
0.0
 40
0.0
 40
0.0
 40
0.0
 40
0.0009509120027914
 40
0.6089565561255428
 40
1.0
 40
1.0
 40
1.0
 40
1.0
 10
202.7362184200032
 20
378.5013600175585
 30
0.0
 10
202.7383148265335
 20
378.5007369385888
 30
0.0
 10
204.0808370548902
 20
378.1017220744201
 30
0.0
 10
206.1953209620894
 20
377.1523181457469
 30
0.0
 10
208.2001028661462
 20
376.0319050894365
 30
0.0
 10
208.9848058696304
 20
375.5933578895388
 30
0.0
  0
SPLINE
  5
CC
330
1F
100
AcDbEntity
  8
0
  6
Continuous
 62
     8
370
    18
100
AcDbSpline
210
0.0
220
0.0
230
1.0
 70
     8
 71
     3
 72
    15
 73
    11
 74
     0
 42
0.00000001
 43
0.00000001
 40
0.0
 40
0.0
 40
0.0
 40
0.0
 40
0.1329549246439852
 40
0.2754619518885852
 40
0.4190229624289358
 40
0.4911322474280373
 40
0.5645773138124354
 40
0.7097162814062253
 40
0.8565443604809221
 40
1.0
 40
1.0
 40
1.0
 40
1.0
 10
213.2439971295738
 20
360.6071346960224
 30
0.0
 10
213.2598937756433
 20
361.3458430069228
 30
0.0
 10
213.2928291570632
 20
362.8763318830727
 30
0.0
 10
213.3824097994499
 20
365.1779261448513
 30
0.0
 10
213.4898970617702
 20
367.0191954704823
 30
0.0
 10
213.569996878003
 20
368.3701008631938
 30
0.0
 10
213.6453105337625
 20
369.6052859882017
 30
0.0
 10
213.7149288679871
 20
370.9291957800568
 30
0.0
 10
213.7614797417393
 20
372.044857558181
 30
0.0
 10
213.7685825486663
 20
372.2858366308466
 30
0.0
 10
213.7720926928625
 20
372.4049263515771
 30
0.0
  0
SPLINE
  5
CD
330
1F
100
AcDbEntity
  8
0
  6
Continuous
 62
     8
370
    18
100
AcDbSpline
210
0.0
220
0.0
230
1.0
 70
     8
 71
     3
 72
    13
 73
     9
 74
     0
 42
0.00000001
 43
0.00000001
 40
0.0
 40
0.0
 40
0.0
 40
0.0
 40
0.1624847194104024
 40
0.3383652095458502
 40
0.5244654235033966
 40
0.7161307221108022
 40
0.9077960207183668
 40
1.0
 40
1.0
 40
1.0
 40
1.0
 10
189.0660896969418
 20
255.9975257792452
 30
0.0
 10
189.066091047953
 20
255.9243046349021
 30
0.0
 10
189.0660938613572
 20
255.7718257560343
 30
0.0
 10
189.066092467347
 20
255.5675032652185
 30
0.0
 10
189.066086229495
 20
255.3919263639424
 30
0.0
 10
189.0660744113426
 20
255.2709658016538
 30
0.0
 10
189.0660612656908
 20
255.2124018185967
 30
0.0
 10
189.0660513044868
 20
255.2204040841468
 30
0.0
 10
189.0660480689741
 20
255.2230033112716
 30
0.0
  0
SPLINE
  5
CE
330
1F
100
AcDbEntity
  8
0
  6
Continuous
 62
     8
370
    18
100
AcDbSpline
210
0.0
220
0.0
230
1.0
 70
     8
 71
     3
 72
    13
 73
     9
 74
     0
 42
0.00000001
 43
0.00000001
 40
0.0
 40
0.0
 40
0.0
 40
0.0
 40
0.1510001938182177
 40
0.3154493386271934
 40
0.4902705740940469
 40
0.6707836233868846
 40
0.8513033337750128
 40
1.0
 40
1.0
 40
1.0
 40
1.0
 10
211.4477999316945
 20
268.2028174392868
 30
0.0
 10
211.5246777719696
 20
268.2008274459474
 30
0.0
 10
211.6852806378114
 20
268.1966702189471
 30
0.0
 10
211.9110905477608
 20
268.1908874728943
 30
0.0
 10
212.1140210509127
 20
268.1857498738528
 30
0.0
 10
212.2674020258663
 20
268.1819498186958
 30
0.0
 10
212.3586109110325
 20
268.1797868643721
 30
0.0
 10
212.3630738279775
 20
268.1798168717951
 30
0.0
 10
212.3650895869691
 20
268.1798304252028
 30
0.0
  0
SPLINE
  5
CF
330
1F
100
AcDbEntity
  8
0
  6
Continuous
 62
     8
370
    18
100
AcDbSpline
210
0.0
220
0.0
230
1.0
 70
     8
 71
     3
 72
    13
 73
     9
 74
     0
 42
0.00000001
 43
0.00000001
 40
0.0
 40
0.0
 40
0.0
 40
0.0
 40
0.1510624327868086
 40
0.3155640164966944
 40
0.4904242584954019
 40
0.6709614538333255
 40
0.8514919910234396
 40
1.0
 40
1.0
 40
1.0
 40
1.0
 10
166.6841865042155
 20
268.2028053336271
 30
0.0
 10
166.6073041311732
 20
268.2008160700665
 30
0.0
 10
166.4466996050351
 20
268.196660569672
 30
0.0
 10
166.2209341872385
 20
268.1908816586114
 30
0.0
 10
166.0180894002515
 20
268.1857488587252
 30
0.0
 10
165.8648207911995
 20
268.1819538928488
 30
0.0
 10
165.7737320888695
 20
268.1797955295002
 30
0.0
 10
165.7693026253427
 20
268.1798267741753
 30
0.0
 10
165.7673034346191
 20
268.1798408761234
 30
0.0
  0
SPLINE
  5
D0
330
1F
100
AcDbEntity
  8
0
  6
Continuous
 62
     8
370
    18
100
AcDbSpline
210
0.0
220
0.0
230
1.0
 70
     8
 71
     3
 72
    13
 73
     9
 74
     0
 42
0.00000001
 43
0.00000001
 40
0.0
 40
0.0
 40
0.0
 40
0.0
 40
0.1493865067026378
 40
0.3113371503397719
 40
0.4828865925876678
 40
0.6596526094816367
 40
0.8363804308482877
 40
1.0
 40
1.0
 40
1.0
 40
1.0
 10
212.3349042200695
 20
310.4372146744943
 30
0.0
 10
212.4115889002338
 20
310.4354791800405
 30
0.0
 10
212.5714078177789
 20
310.4318622275487
 30
0.0
 10
212.7961350863059
 20
310.426516213879
 30
0.0
 10
212.9986506902428
 20
310.4214541043234
 30
0.0
 10
213.1543836998601
 20
310.4172234405209
 30
0.0
 10
213.2527130296544
 20
310.4141433989352
 30
0.0
 10
213.2627775807137
 20
310.4132706097539
 30
0.0
 10
213.2676160415156
 20
310.4128510226092
 30
0.0
  0
SPLINE
  5
D1
330
1F
100
AcDbEntity
  8
0
  6
Continuous
 62
     8
370
    18
100
AcDbSpline
210
0.0
220
0.0
230
1.0
 70
     8
 71
     3
 72
    13
 73
     9
 74
     0
 42
0.00000001
 43
0.00000001
 40
0.0
 40
0.0
 40
0.0
 40
0.0
 40
0.1490235526362062
 40
0.31067914090696
 40
0.4820204021744606
 40
0.658668824213044
 40
0.8353555325823536
 40
0.9999999999999999
 40
0.9999999999999999
 40
0.9999999999999999
 40
0.9999999999999999
 10
165.799210459231
 20
310.4384039001199
 30
0.0
 10
165.7225136591478
 20
310.4368415739687
 30
0.0
 10
165.5626188268302
 20
310.433584490522
 30
0.0
 10
165.337483578631
 20
310.4287649637984
 30
0.0
 10
165.1343168006629
 20
310.4241961452696
 30
0.0
 10
164.9778067528333
 20
310.420373076316
 30
0.0
 10
164.8786647137771
 20
310.4175830978388
 30
0.0
 10
164.8683601204101
 20
310.4167912753737
 30
0.0
 10
164.863389597917
 20
310.4164093319788
 30
0.0
  0
LINE
  5
D2
330
1F
100
AcDbEntity
  8
0
  6
Continuous
 62
     8
370
    18
100
AcDbLine
 10
163.7823422128
 20
357.2376906766
 30
0.0
 11
163.7241803254
 21
360.5929846284
 31
0.0
  0
SPLINE
  5
D3
330
1F
100
AcDbEntity
  8
0
  6
Continuous
 62
     8
370
    18
100
AcDbSpline
210
0.0
220
0.0
230
1.0
 70
     8
 71
     3
 72
    14
 73
    10
 74
     0
 42
0.00000001
 43
0.00000001
 40
0.0
 40
0.0
 40
0.0
 40
0.0
 40
0.25
 40
0.25
 40
0.5
 40
0.5
 40
0.75
 40
0.75
 40
1.0
 40
1.0
 40
1.0
 40
1.0
 10
164.8877397036064
 20
360.6071403722161
 30
0.0
 10
164.7394662342163
 20
360.6063266474599
 30
0.0
 10
164.5859313487205
 20
360.6053253267199
 30
0.0
 10
164.2972533739142
 20
360.6033309511118
 30
0.0
 10
164.1627619513244
 20
360.6023465461344
 30
0.0
 10
163.9426898443864
 20
360.6008862498206
 30
0.0
 10
163.8575764432551
 20
360.6004193727824
 30
0.0
 10
163.7481957176315
 20
360.6003038808484
 30
0.0
 10
163.7241658017539
 20
360.6006622147642
 30
0.0
 10
163.7240559524068
 20
360.6013979123776
 30
0.0
  0
LINE
  5
D4
330
1F
100
AcDbEntity
  8
0
  6
Continuous
 62
     8
370
    18
100
AcDbLine
 10
214.408072638
 20
360.5929845576
 30
0.0
 11
214.3498175788
 21
357.2323325972
 31
0.0
  0
SPLINE
  5
D5
330
1F
100
AcDbEntity
  8
0
  6
Continuous
 62
     8
370
    18
100
AcDbSpline
210
0.0
220
0.0
230
1.0
 70
     8
 71
     3
 72
    14
 73
    10
 74
     0
 42
0.00000001
 43
0.00000001
 40
0.0
 40
0.0
 40
0.0
 40
0.0
 40
0.25
 40
0.25
 40
0.5
 40
0.5
 40
0.75
 40
0.75
 40
1.0
 40
1.0
 40
1.0
 40
1.0
 10
213.2419177792399
 20
360.5988087321575
 30
0.0
 10
213.3896564506473
 20
360.5968754251574
 30
0.0
 10
213.5425771376737
 20
360.595072115453
 30
0.0
 10
213.8305243513939
 20
360.5921899322381
 30
0.0
 10
213.9648738764475
 20
360.5911201488966
 30
0.0
 10
214.1853505769541
 20
360.5900140140442
 30
0.0
 10
214.2710118777819
 20
360.5899800450569
 30
0.0
 10
214.3819510963961
 20
360.5908630119604
 30
0.0
 10
214.4074540067424
 20
360.5917718038517
 30
0.0
 10
214.4080647697679
 20
360.5929651191226
 30
0.0
  0
SPLINE
  5
D6
330
1F
100
AcDbEntity
  8
0
  6
Continuous
 62
     8
370
    18
100
AcDbSpline
210
0.0
220
0.0
230
1.0
 70
     8
 71
     3
 72
    26
 73
    22
 74
     0
 42
0.00000001
 43
0.00000001
 40
0.0
 40
0.0
 40
0.0
 40
0.0
 40
0.03914419197429
 40
0.0732308129565434
 40
0.102273328539785
 40
0.1262943028075479
 40
0.1695046640848687
 40
0.2115003967988082
 40
0.2525253847940804
 40
0.3167201024980931
 40
0.3795005359922218
 40
0.4416524690316921
 40
0.5039841765578746
 40
0.5886244310776734
 40
0.6702625335768088
 40
0.7509854445003352
 40
0.7892628442480634
 40
0.8303746429577263
 40
0.874547560997141
 40
0.9308374889163527
 40
1.0
 40
1.0
 40
1.0
 40
1.0
 10
163.7240559555074
 20
360.6013979124223
 30
0.0
 10
163.7209520419018
 20
360.81679159719
 30
0.0
 10
163.7151452515397
 20
361.2197493246506
 30
0.0
 10
163.7070039861665
 20
361.7823975366656
 30
0.0
 10
163.7000174925858
 20
362.2615370899632
 30
0.0
 10
163.692255579704
 20
362.7898101095976
 30
0.0
 10
163.6834020496359
 20
363.3856659072533
 30
0.0
 10
163.6731645176494
 20
364.0657322466127
 30
0.0
 10
163.6613189338033
 20
364.8424439724103
 30
0.0
 10
163.6480348066022
 20
365.70156943795
 30
0.0
 10
163.6336886974823
 20
366.6209943351841
 30
0.0
 10
163.6203932009321
 20
367.4701623303574
 30
0.0
 10
163.6068597905478
 20
368.3354414426515
 30
0.0
 10
163.5940055528029
 20
369.1721166486151
 30
0.0
 10
163.5829392535946
 20
369.9066394306481
 30
0.0
 10
163.5763492929956
 20
370.345158757019
 30
0.0
 10
163.5725142824389
 20
370.5865485223355
 30
0.0
 10
163.5702456219153
 20
370.7179990629531
 30
0.0
 10
163.5684057247928
 20
370.8162535771476
 30
0.0
 10
163.5670817828155
 20
370.8725125549879
 30
0.0
 10
163.5667685712654
 20
370.8784533983056
 30
0.0
 10
163.5665958962862
 20
370.8817286127619
 30
0.0
  0
SPLINE
  5
D7
330
1F
100
AcDbEntity
  8
0
  6
Continuous
 62
     8
370
    18
100
AcDbSpline
210
0.0
220
0.0
230
1.0
 70
     8
 71
     3
 72
    26
 73
    22
 74
     0
 42
0.00000001
 43
0.00000001
 40
0.0
 40
0.0
 40
0.0
 40
0.0
 40
0.03618405569323
 40
0.0691447567772441
 40
0.098896503899612
 40
0.1254582205147869
 40
0.190511442725438
 40
0.2489811498089056
 40
0.2974403567799792
 40
0.3459272912302686
 40
0.3949088096940782
 40
0.4448374779688418
 40
0.4961401610658799
 40
0.5791109776518293
 40
0.6622633674488665
 40
0.7474908306706561
 40
0.7884938780371687
 40
0.8304885588207085
 40
0.8737186896672361
 40
0.9267541424379729
 40
1.0
 40
1.0
 40
1.0
 40
1.0
 10
214.5656570679072
 20
370.8817286122523
 30
0.0
 10
214.565579421184
 20
370.8807296963175
 30
0.0
 10
214.5654310446772
 20
370.8788208500584
 30
0.0
 10
214.5649895798045
 20
370.8636119318582
 30
0.0
 10
214.5643935542336
 20
370.8392876337542
 30
0.0
 10
214.5632702961985
 20
370.7866698980039
 30
0.0
 10
214.5611486294631
 20
370.6718819171758
 30
0.0
 10
214.5572910595549
 20
370.4348404322237
 30
0.0
 10
214.5525621544525
 20
370.1222451814858
 30
0.0
 10
214.5470805320591
 20
369.7586982079839
 30
0.0
 10
214.5404937682164
 20
369.3220233337018
 30
0.0
 10
214.5327421699195
 20
368.8129330116848
 30
0.0
 10
214.5220398253196
 20
368.1203363888307
 30
0.0
 10
214.5076916388378
 20
367.2040718219416
 30
0.0
 10
214.4891390554054
 20
366.0184322943801
 30
0.0
 10
214.4726267451447
 20
364.953419059588
 30
0.0
 10
214.4590921114856
 20
364.0659778869903
 30
0.0
 10
214.4488543165562
 20
363.3858891122206
 30
0.0
 10
214.4376466454011
 20
362.6316089674062
 30
0.0
 10
214.4240148509581
 20
361.6993080382049
 30
0.0
 10
214.4140036938771
 20
361.0044376064022
 30
0.0
 10
214.408197008916
 20
360.6013979124223
 30
0.0
  0
LINE
  5
D8
330
1F
100
AcDbEntity
  8
0
  6
Continuous
 62
     8
370
    18
100
AcDbLine
 10
163.566595686
 20
370.8806123691
 30
0.0
 11
163.5676503533
 21
370.8712398832
 31
0.0
  0
SPLINE
  5
D9
330
1F
100
AcDbEntity
  8
0
  6
Continuous
 62
     8
370
    18
100
AcDbSpline
210
0.0
220
0.0
230
1.0
 70
     8
 71
     3
 72
     8
 73
     4
 74
     0
 42
0.00000001
 43
0.00000001
 40
0.0
 40
0.0
 40
0.0
 40
0.0
 40
1.0
 40
1.0
 40
1.0
 40
1.0
 10
116.4520483428085
 20
413.5099725957671
 30
0.0
 10
116.1135961852659
 20
365.100587169494
 30
0.0
 10
116.1135961852644
 20
316.6912017432208
 30
0.0
 10
116.4520483428063
 20
268.2818163169476
 30
0.0
  0
SPLINE
  5
DA
330
1F
100
AcDbEntity
  8
0
  6
Continuous
 62
     8
370
    18
100
AcDbSpline
210
0.0
220
0.0
230
1.0
 70
     8
 71
     3
 72
     8
 73
     4
 74
     0
 42
0.00000001
 43
0.00000001
 40
0.0
 40
0.0
 40
0.0
 40
0.0
 40
1.0
 40
1.0
 40
1.0
 40
1.0
 10
261.6802046216219
 20
413.5099725957649
 30
0.0
 10
213.27081919535
 20
413.8484247533074
 30
0.0
 10
164.8614337690781
 20
413.848424753309
 30
0.0
 10
116.4520483428063
 20
413.5099725957671
 30
0.0
  0
SPLINE
  5
DB
330
1F
100
AcDbEntity
  8
0
  6
Continuous
 62
     8
370
    18
100
AcDbSpline
210
0.0
220
0.0
230
1.0
 70
     8
 71
     3
 72
     8
 73
     4
 74
     0
 42
0.00000001
 43
0.00000001
 40
0.0
 40
0.0
 40
0.0
 40
0.0
 40
1.0
 40
1.0
 40
1.0
 40
1.0
 10
261.6802046216193
 20
268.2818163169476
 30
0.0
 10
262.0186567791619
 20
316.6912017432201
 30
0.0
 10
262.0186567791624
 20
365.1005871694927
 30
0.0
 10
261.6802046216205
 20
413.5099725957652
 30
0.0
  0
LINE
  5
DC
330
1F
100
AcDbEntity
  8
0
  6
Continuous
 62
     8
370
    18
100
AcDbLine
 10
116.4520483428
 20
268.2818163169
 30
0.0
 11
165.7292224967
 21
268.1095452577
 31
0.0
  0
LINE
  5
DD
330
1F
100
AcDbEntity
  8
0
  6
Continuous
 62
     8
370
    18
100
AcDbLine
 10
212.4030010702
 20
268.1095718562
 30
0.0
 11
261.6802046216
 21
268.2818163169
 31
0.0
  0
SPLINE
  5
DE
330
1F
100
AcDbEntity
  8
0
  6
Continuous
 62
     8
370
    18
100
AcDbSpline
210
0.0
220
0.0
230
1.0
 70
     8
 71
     3
 72
     8
 73
     4
 74
     0
 42
0.00000001
 43
0.00000001
 40
0.0
 40
0.0
 40
0.0
 40
0.0
 40
1.0
 40
1.0
 40
1.0
 40
1.0
 10
263.1631396479672
 20
413.6412343475877
 30
0.0
 10
263.5028403778138
 20
365.1443410867668
 30
0.0
 10
263.5028403778124
 20
316.6474478259457
 30
0.0
 10
263.1631396479654
 20
268.1505545651248
 30
0.0
  0
SPLINE
  5
DF
330
1F
100
AcDbEntity
  8
0
  6
Continuous
 62
     8
370
    18
100
AcDbSpline
210
0.0
220
0.0
230
1.0
 70
     8
 71
     3
 72
    21
 73
    17
 74
     0
 42
0.00000001
 43
0.00000001
 40
0.0
 40
0.0
 40
0.0
 40
0.0
 40
0.0527050579358702
 40
0.1061279058764967
 40
0.160271478903135
 40
0.215138595822328
 40
0.2707319647143041
 40
0.3270541881747456
 40
0.3841077682621218
 40
0.4418951111701442
 40
0.5004185316411334
 40
0.6190410088374684
 40
0.750027157930895
 40
0.8150588915855537
 40
0.8983884735131965
 40
0.9999999999999999
 40
0.9999999999999999
 40
0.9999999999999999
 40
0.9999999999999999
 10
263.163139647967
 20
268.1505545651248
 30
0.0
 10
263.1611302581069
 20
268.1503777355708
 30
0.0
 10
263.1570841125132
 20
268.1500216682218
 30
0.0
 10
263.1383217644965
 20
268.1507685466772
 30
0.0
 10
263.1099127724672
 20
268.1524555850655
 30
0.0
 10
263.0707349327317
 20
268.1551891043181
 30
0.0
 10
263.020922438755
 20
268.1589540770759
 30
0.0
 10
262.9603808972013
 20
268.163768328864
 30
0.0
 10
262.889206840258
 20
268.1696404930354
 30
0.0
 10
262.8075681400936
 20
268.1765802540775
 30
0.0
 10
262.6847717369466
 20
268.1873106535128
 30
0.0
 10
262.5010478365198
 20
268.2039290473867
 30
0.0
 10
262.2874526855355
 20
268.2236356359182
 30
0.0
 10
262.0860118065768
 20
268.2427570454115
 30
0.0
 10
261.8993977386937
 20
268.260568240097
 30
0.0
 10
261.7579304719829
 20
268.274281751703
 30
0.0
 10
261.6802046216209
 20
268.2818163169476
 30
0.0
  0
SPLINE
  5
E0
330
1F
100
AcDbEntity
  8
0
  6
Continuous
 62
     8
370
    18
100
AcDbSpline
210
0.0
220
0.0
230
1.0
 70
     8
 71
     3
 72
    21
 73
    17
 74
     0
 42
0.00000001
 43
0.00000001
 40
0.0
 40
0.0
 40
0.0
 40
0.0
 40
0.0527015852613931
 40
0.1061218296408278
 40
0.1602636681736912
 40
0.2151299194778285
 40
0.2707232913175274
 40
0.3270463858580737
 40
0.3841017046257159
 40
0.4418916531889429
 40
0.5004185455848602
 40
0.6190205634994476
 40
0.750027166911155
 40
0.8150462982098899
 40
0.898375884557805
 40
1.0
 40
1.0
 40
1.0
 40
1.0
 10
263.1631396479668
 20
413.6412343475877
 30
0.0
 10
263.1611304521023
 20
413.6414111582458
 30
0.0
 10
263.1570846622047
 20
413.6417671906203
 30
0.0
 10
263.1383241615274
 20
413.6410202752793
 30
0.0
 10
263.1099173755724
 20
413.6393332223973
 30
0.0
 10
263.0707416874935
 20
413.636599702992
 30
0.0
 10
263.0209307710365
 20
413.6328347426054
 30
0.0
 10
262.9603897506362
 20
413.6280205051608
 30
0.0
 10
262.8892146966276
 20
413.6221483681816
 30
0.0
 10
262.807573078615
 20
413.6152085762945
 30
0.0
 10
262.6847844610921
 20
413.6044796675737
 30
0.0
 10
262.5010613667509
 20
413.5878610995313
 30
0.0
 10
262.2874759502136
 20
413.5681553856529
 30
0.0
 10
262.0860302472159
 20
413.5490337767137
 30
0.0
 10
261.8994170426594
 20
413.5312225341352
 30
0.0
 10
261.7579401162848
 20
413.5175080924446
 30
0.0
 10
261.6802046216225
 20
413.5099725957658
 30
0.0
  0
SPLINE
  5
E1
330
1F
100
AcDbEntity
  8
0
  6
Continuous
 62
     8
370
    18
100
AcDbSpline
210
0.0
220
0.0
230
1.0
 70
     8
 71
     3
 72
    26
 73
    22
 74
     0
 42
0.00000001
 43
0.00000001
 40
0.0
 40
0.0
 40
0.0
 40
0.0
 40
0.03125
 40
0.03125
 40
0.0625
 40
0.0625
 40
0.125
 40
0.125
 40
0.25
 40
0.25
 40
0.375
 40
0.375
 40
0.5
 40
0.5
 40
0.625
 40
0.625
 40
0.75
 40
0.75
 40
0.875
 40
0.875
 40
1.0
 40
1.0
 40
1.0
 40
1.0
 10
114.9691133164595
 20
268.1505545651254
 30
0.0
 10
114.9697495244006
 20
268.1503897633781
 30
0.0
 10
114.9709788106009
 20
268.1502833437188
 30
0.0
 10
114.9746053420162
 20
268.1501859696212
 30
0.0
 10
114.9770025872312
 20
268.1501950151829
 30
0.0
 10
114.9859189651429
 20
268.1503934012659
 30
0.0
 10
114.994162740106
 20
268.1507539911852
 30
0.0
 10
115.0255742640168
 20
268.1525051710693
 30
0.0
 10
115.055422211986
 20
268.15456517116
 30
0.0
 10
115.1317673317448
 20
268.1603871318588
 30
0.0
 10
115.1789918274919
 20
268.1642061386116
 30
0.0
 10
115.2879001456366
 20
268.1733704680903
 30
0.0
 10
115.3492732378602
 20
268.1786854521536
 30
0.0
 10
115.4857079238237
 20
268.1907652389454
 30
0.0
 10
115.5614343046194
 20
268.1975927732278
 30
0.0
 10
115.7206370290342
 20
268.2121666278029
 30
0.0
 10
115.8046935339015
 20
268.2199627491084
 30
0.0
 10
115.9818515198321
 20
268.2365887740521
 30
0.0
 10
116.0743487046873
 20
268.2453640832707
 30
0.0
 10
116.2607775533466
 20
268.2632277297658
 30
0.0
 10
116.3555888038167
 20
268.2723983495752
 30
0.0
 10
116.4520483428052
 20
268.2818163169484
 30
0.0
  0
SPLINE
  5
E2
330
1F
100
AcDbEntity
  8
0
  6
Continuous
 62
     8
370
    18
100
AcDbSpline
210
0.0
220
0.0
230
1.0
 70
     8
 71
     3
 72
     8
 73
     4
 74
     0
 42
0.00000001
 43
0.00000001
 40
0.0
 40
0.0
 40
0.0
 40
0.0
 40
1.0
 40
1.0
 40
1.0
 40
1.0
 10
114.9691133164597
 20
268.1505545651256
 30
0.0
 10
114.6294125866133
 20
316.6474478259466
 30
0.0
 10
114.6294125866146
 20
365.1443410867678
 30
0.0
 10
114.9691133164617
 20
413.6412343475889
 30
0.0
  0
SPLINE
  5
E3
330
1F
100
AcDbEntity
  8
0
  6
Continuous
 62
     8
370
    18
100
AcDbSpline
210
0.0
220
0.0
230
1.0
 70
     8
 71
     3
 72
    26
 73
    22
 74
     0
 42
0.00000001
 43
0.00000001
 40
0.0
 40
0.0
 40
0.0
 40
0.0
 40
0.03125
 40
0.03125
 40
0.0625
 40
0.0625
 40
0.125
 40
0.125
 40
0.25
 40
0.25
 40
0.375
 40
0.375
 40
0.5
 40
0.5
 40
0.625
 40
0.625
 40
0.75
 40
0.75
 40
0.875
 40
0.875
 40
1.0
 40
1.0
 40
1.0
 40
1.0
 10
114.9691133164602
 20
413.641234347589
 30
0.0
 10
114.9697495244014
 20
413.6413991493364
 30
0.0
 10
114.9709788106017
 20
413.6415055689956
 30
0.0
 10
114.974605342017
 20
413.6416029430932
 30
0.0
 10
114.9770025872321
 20
413.6415938975315
 30
0.0
 10
114.9859189651437
 20
413.6413955114486
 30
0.0
 10
114.9941627401067
 20
413.6410349215292
 30
0.0
 10
115.0255742640174
 20
413.6392837416452
 30
0.0
 10
115.0554222119867
 20
413.6372237415545
 30
0.0
 10
115.1317673317453
 20
413.6314017808556
 30
0.0
 10
115.1789918274925
 20
413.627582774103
 30
0.0
 10
115.2879001456372
 20
413.6184184446243
 30
0.0
 10
115.3492732378611
 20
413.6131034605611
 30
0.0
 10
115.4857079238244
 20
413.6010236737694
 30
0.0
 10
115.5614343046206
 20
413.594196139487
 30
0.0
 10
115.7206370290353
 20
413.579622284912
 30
0.0
 10
115.8046935339028
 20
413.5718261636064
 30
0.0
 10
115.9818515198331
 20
413.5552001386629
 30
0.0
 10
116.0743487046885
 20
413.5464248294444
 30
0.0
 10
116.2607775533478
 20
413.5285611829492
 30
0.0
 10
116.3555888038178
 20
413.51939056314
 30
0.0
 10
116.4520483428062
 20
413.5099725957668
 30
0.0
  0
SPLINE
  5
E4
330
1F
100
AcDbEntity
  8
0
  6
Continuous
 62
     8
370
    18
100
AcDbSpline
210
0.0
220
0.0
230
1.0
 70
     8
 71
     3
 72
     8
 73
     4
 74
     0
 42
0.00000001
 43
0.00000001
 40
0.0
 40
0.0
 40
0.0
 40
0.0
 40
1.0
 40
1.0
 40
1.0
 40
1.0
 10
116.3207865909852
 20
414.9929076221124
 30
0.0
 10
164.8176798518047
 20
415.3326083519589
 30
0.0
 10
213.3145731126243
 20
415.3326083519592
 30
0.0
 10
261.8114663734438
 20
414.9929076221121
 30
0.0
  0
SPLINE
  5
E5
330
1F
100
AcDbEntity
  8
0
  6
Continuous
 62
     8
370
    18
100
AcDbSpline
210
0.0
220
0.0
230
1.0
 70
     8
 71
     3
 72
    26
 73
    22
 74
     0
 42
0.00000001
 43
0.00000001
 40
0.0
 40
0.0
 40
0.0
 40
0.0
 40
0.03125
 40
0.03125
 40
0.0625
 40
0.0625
 40
0.125
 40
0.125
 40
0.25
 40
0.25
 40
0.375
 40
0.375
 40
0.5
 40
0.5
 40
0.625
 40
0.625
 40
0.75
 40
0.75
 40
0.875
 40
0.875
 40
1.0
 40
1.0
 40
1.0
 40
1.0
 10
261.811466373444
 20
414.9929076221125
 30
0.0
 10
261.8116311751913
 20
414.9922714141713
 30
0.0
 10
261.8117375948506
 20
414.991042127971
 30
0.0
 10
261.8118349689481
 20
414.9874155965557
 30
0.0
 10
261.8118259233865
 20
414.9850183513407
 30
0.0
 10
261.8116275373035
 20
414.9761019734291
 30
0.0
 10
261.8112669473842
 20
414.9678581984661
 30
0.0
 10
261.8095157675002
 20
414.9364466745554
 30
0.0
 10
261.8074557674094
 20
414.9065987265863
 30
0.0
 10
261.8016338067106
 20
414.8302536068275
 30
0.0
 10
261.7978147999579
 20
414.7830291110799
 30
0.0
 10
261.7886504704792
 20
414.6741207929351
 30
0.0
 10
261.783335486416
 20
414.6127477007115
 30
0.0
 10
261.7712556996242
 20
414.476313014748
 30
0.0
 10
261.7644281653417
 20
414.4005866339507
 30
0.0
 10
261.7498543107666
 20
414.2413839095358
 30
0.0
 10
261.7420581894613
 20
414.1573274046699
 30
0.0
 10
261.7254321645177
 20
413.9801694187393
 30
0.0
 10
261.7166568552991
 20
413.8876722338834
 30
0.0
 10
261.6987932088039
 20
413.7012433852241
 30
0.0
 10
261.6896225889947
 20
413.6064321347541
 30
0.0
 10
261.6802046216216
 20
413.5099725957657
 30
0.0
  0
SPLINE
  5
E6
330
1F
100
AcDbEntity
  8
0
  6
Continuous
 62
     8
370
    18
100
AcDbSpline
210
0.0
220
0.0
230
1.0
 70
     8
 71
     3
 72
    21
 73
    17
 74
     0
 42
0.00000001
 43
0.00000001
 40
0.0
 40
0.0
 40
0.0
 40
0.0
 40
0.0527015849058577
 40
0.1061218290190437
 40
0.160263667375135
 40
0.215129918591527
 40
0.2707232904329221
 40
0.3270463850642198
 40
0.3841017040111215
 40
0.4418916528425099
 40
0.5004185455969264
 40
0.6190205570886503
 40
0.7500271669235656
 40
0.8150462880624898
 40
0.8983758744116961
 40
1.0
 40
1.0
 40
1.0
 40
1.0
 10
116.3207865909852
 20
414.9929076221127
 30
0.0
 10
116.3206097803291
 20
414.9908984262683
 30
0.0
 10
116.3202537479583
 20
414.9868526364073
 30
0.0
 10
116.3210006633031
 20
414.9680921359188
 30
0.0
 10
116.3226877161866
 20
414.9396853501937
 30
0.0
 10
116.3254212355919
 20
414.9005096623302
 30
0.0
 10
116.329186195977
 20
414.8506987460369
 30
0.0
 10
116.3340004334205
 20
414.7901577256902
 30
0.0
 10
116.3398725703956
 20
414.7189826715783
 30
0.0
 10
116.3468123622905
 20
414.6373410532692
 30
0.0
 10
116.3575412706362
 20
414.5145524387974
 30
0.0
 10
116.3741598388288
 20
414.3308293451589
 30
0.0
 10
116.393865551862
 20
414.1172439358632
 30
0.0
 10
116.4129871603695
 20
413.9157982362269
 30
0.0
 10
116.4307984029687
 20
413.7291850323698
 30
0.0
 10
116.444512845388
 20
413.5877080982066
 30
0.0
 10
116.4520483428062
 20
413.5099725957684
 30
0.0
  0
SPLINE
  5
E7
330
1F
100
AcDbEntity
  8
0
  6
Continuous
 62
     8
370
    18
100
AcDbSpline
210
0.0
220
0.0
230
1.0
 70
     8
 71
     3
 72
    26
 73
    22
 74
     0
 42
0.00000001
 43
0.00000001
 40
0.0
 40
0.0
 40
0.0
 40
0.0
 40
0.03125
 40
0.03125
 40
0.0625
 40
0.0625
 40
0.125
 40
0.125
 40
0.25
 40
0.25
 40
0.375
 40
0.375
 40
0.5
 40
0.5
 40
0.625
 40
0.625
 40
0.75
 40
0.75
 40
0.875
 40
0.875
 40
1.0
 40
1.0
 40
1.0
 40
1.0
 10
261.8114663734476
 20
266.7988812906003
 30
0.0
 10
261.8116311751949
 20
266.7995174985414
 30
0.0
 10
261.8117375948542
 20
266.8007467847418
 30
0.0
 10
261.8118349689517
 20
266.8043733161571
 30
0.0
 10
261.81182592339
 20
266.806770561372
 30
0.0
 10
261.8116275373071
 20
266.8156869392837
 30
0.0
 10
261.8112669473877
 20
266.8239307142468
 30
0.0
 10
261.8095157675036
 20
266.8553422381576
 30
0.0
 10
261.8074557674127
 20
266.8851901861268
 30
0.0
 10
261.8016338067136
 20
266.9615353058856
 30
0.0
 10
261.7978147999608
 20
267.0087598016332
 30
0.0
 10
261.7886504704817
 20
267.1176681197779
 30
0.0
 10
261.7833354864183
 20
267.1790412120018
 30
0.0
 10
261.7712556996261
 20
267.3154758979653
 30
0.0
 10
261.7644281653435
 20
267.3912022787625
 30
0.0
 10
261.7498543107679
 20
267.5504050031774
 30
0.0
 10
261.7420581894623
 20
267.6344615080433
 30
0.0
 10
261.7254321645181
 20
267.8116194939739
 30
0.0
 10
261.7166568552992
 20
267.9041166788296
 30
0.0
 10
261.6987932088035
 20
268.090545527489
 30
0.0
 10
261.6896225889939
 20
268.1853567779593
 30
0.0
 10
261.6802046216205
 20
268.2818163169476
 30
0.0
  0
LINE
  5
E8
330
1F
100
AcDbEntity
  8
0
  6
Continuous
 62
     8
370
    18
100
AcDbLine
 10
261.8114663734
 20
266.7988812906
 30
0.0
 11
212.3161196986
 21
266.6255225096
 31
0.0
  0
LINE
  5
E9
330
1F
100
AcDbEntity
  8
0
  6
Continuous
 62
     8
370
    18
100
AcDbLine
 10
165.816284101
 20
266.6255489464
 30
0.0
 11
116.320786591
 21
266.7988812906
 31
0.0
  0
SPLINE
  5
EA
330
1F
100
AcDbEntity
  8
0
  6
Continuous
 62
     8
370
    18
100
AcDbSpline
210
0.0
220
0.0
230
1.0
 70
     8
 71
     3
 72
    21
 73
    17
 74
     0
 42
0.00000001
 43
0.00000001
 40
0.0
 40
0.0
 40
0.0
 40
0.0
 40
0.0527050586770535
 40
0.1061279071733342
 40
0.1602714805704418
 40
0.2151385976736468
 40
0.270731966564568
 40
0.3270541898384542
 40
0.3841077695545082
 40
0.4418951119048735
 40
0.5004185316342006
 40
0.6190410166256148
 40
0.7500271579262154
 40
0.8150588969032787
 40
0.8983884788291863
 40
1.0
 40
1.0
 40
1.0
 40
1.0
 10
116.3207865909832
 20
266.7988812906039
 30
0.0
 10
116.3206097614252
 20
266.8008906805041
 30
0.0
 10
116.3202536940689
 20
266.8049368261712
 30
0.0
 10
116.3210005725166
 20
266.823699174585
 30
0.0
 10
116.3226876109019
 20
266.8521081670863
 30
0.0
 10
116.3254211301546
 20
266.8912860072801
 30
0.0
 10
116.3291861029149
 20
266.9410985015941
 30
0.0
 10
116.3340003547058
 20
267.001640043259
 30
0.0
 10
116.3398725188836
 20
267.0728140999884
 30
0.0
 10
116.3468122799155
 20
267.1544527995321
 30
0.0
 10
116.3575426798432
 20
267.2772492061251
 30
0.0
 10
116.374161073582
 20
267.4609731072145
 30
0.0
 10
116.3938676625974
 20
267.6745682622509
 30
0.0
 10
116.4129890721278
 20
267.876009139775
 30
0.0
 10
116.4308002667858
 20
268.0626232080233
 30
0.0
 10
116.4445137779699
 20
268.2040904706575
 30
0.0
 10
116.4520483428053
 20
268.2818163169482
 30
0.0
  0
LINE
  5
EB
330
1F
100
AcDbEntity
  8
0
  6
Continuous
 62
     8
370
    18
100
AcDbLine
 10
263.3015214343
 20
268.1495478615
 30
0.0
 11
263.163139648
 21
268.1505545651
 31
0.0
  0
LINE
  5
EC
330
1F
100
AcDbEntity
  8
0
  6
Continuous
 62
     8
370
    18
100
AcDbLine
 10
263.3015214343
 20
413.6422410512
 30
0.0
 11
263.163139648
 21
413.6412343476
 31
0.0
  0
LINE
  5
ED
330
1F
100
AcDbEntity
  8
0
  6
Continuous
 62
     8
370
    18
100
AcDbLine
 10
114.8307315302
 20
413.6422410512
 30
0.0
 11
114.9691133165
 21
413.6412343476
 31
0.0
  0
LINE
  5
EE
330
1F
100
AcDbEntity
  8
0
  6
Continuous
 62
     8
370
    18
100
AcDbLine
 10
114.8307315302
 20
268.1495478615
 30
0.0
 11
114.9691133165
 21
268.1505545651
 31
0.0
  0
LINE
  5
EF
330
1F
100
AcDbEntity
  8
0
  6
Continuous
 62
     8
370
    18
100
AcDbLine
 10
261.812473077
 20
415.1312894084
 30
0.0
 11
261.8114663734
 21
414.9929076221
 31
0.0
  0
LINE
  5
F0
330
1F
100
AcDbEntity
  8
0
  6
Continuous
 62
     8
370
    18
100
AcDbLine
 10
116.3197798874
 20
415.1312894084
 30
0.0
 11
116.320786591
 21
414.9929076221
 31
0.0
  0
LINE
  5
F1
330
1F
100
AcDbEntity
  8
0
  6
Continuous
 62
     8
370
    18
100
AcDbLine
 10
116.3197798874
 20
266.6604995043
 30
0.0
 11
116.320786591
 21
266.7988812906
 31
0.0
  0
LINE
  5
F2
330
1F
100
AcDbEntity
  8
0
  6
Continuous
 62
     8
370
    18
100
AcDbLine
 10
261.812473077
 20
266.6604995043
 30
0.0
 11
261.8114663734
 21
266.7988812906
 31
0.0
  0
SPLINE
  5
F3
330
1F
100
AcDbEntity
  8
0
  6
Continuous
 62
     8
370
    18
100
AcDbSpline
210
0.0
220
0.0
230
1.0
 70
     8
 71
     3
 72
    25
 73
    21
 74
     0
 42
0.00000001
 43
0.00000001
 40
0.0
 40
0.0
 40
0.0
 40
0.0
 40
0.0555740769933499
 40
0.1111416178191765
 40
0.1667034389905848
 40
0.2222603572237525
 40
0.2778131894090183
 40
0.3333627525819132
 40
0.388909863894136
 40
0.4444553405845481
 40
0.4999999999501481
 40
0.5555446593169803
 40
0.6110901360110854
 40
0.6666372473294613
 40
0.7221868105109713
 40
0.7777396427073172
 40
0.8332965609540267
 40
0.8888583821414286
 40
0.9444259229857194
 40
1.0
 40
1.0
 40
1.0
 40
1.0
 10
261.811466373444
 20
414.9929076221112
 30
0.0
 10
261.8506965857537
 20
414.9916166880514
 30
0.0
 10
261.9291523964369
 20
414.9890349717606
 30
0.0
 10
262.0458597992492
 20
414.9723067275613
 30
0.0
 10
262.1607384174362
 20
414.9463007947212
 30
0.0
 10
262.2729259201873
 20
414.9102869482468
 30
0.0
 10
262.3815883750246
 20
414.8647819922637
 30
0.0
 10
262.4859158943318
 20
414.81005915177
 30
0.0
 10
262.5851314744712
 20
414.7465443625778
 30
0.0
 10
262.678495996077
 20
414.674706387689
 30
0.0
 10
262.765313952914
 20
414.5950819272066
 30
0.0
 10
262.8449384134114
 20
414.5082639703799
 30
0.0
 10
262.916776388319
 20
414.4148994487787
 30
0.0
 10
262.9802911775323
 20
414.3156838686372
 30
0.0
 10
263.035014018048
 20
414.211356349321
 30
0.0
 10
263.0805189740528
 20
414.1026938944671
 30
0.0
 10
263.1165328205466
 20
413.990506391692
 30
0.0
 10
263.1425387534025
 20
413.8756277734738
 30
0.0
 10
263.159266997613
 20
413.7589203706233
 30
0.0
 10
263.1618487139053
 20
413.6804645599122
 30
0.0
 10
263.1631396479659
 20
413.6412343475877
 30
0.0
  0
SPLINE
  5
F4
330
1F
100
AcDbEntity
  8
0
  6
Continuous
 62
     8
370
    18
100
AcDbSpline
210
0.0
220
0.0
230
1.0
 70
     8
 71
     3
 72
    25
 73
    21
 74
     0
 42
0.00000001
 43
0.00000001
 40
0.0
 40
0.0
 40
0.0
 40
0.0
 40
0.055574077011119
 40
0.1111416178526282
 40
0.1667034390376181
 40
0.2222603572822855
 40
0.2778131894769629
 40
0.3333627526571729
 40
0.3889098639746259
 40
0.4444553406681764
 40
0.5000000000348235
 40
0.5555446594006062
 40
0.6110901360915834
 40
0.6666372474047313
 40
0.7221868105789218
 40
0.7777396427658632
 40
0.833296561001072
 40
0.8888583821748853
 40
0.9444259230034925
 40
1.0
 40
1.0
 40
1.0
 40
1.0
 10
263.1631396479649
 20
268.1505545651247
 30
0.0
 10
263.1618487139044
 20
268.1113243528025
 30
0.0
 10
263.1592669976124
 20
268.0328685420958
 30
0.0
 10
263.1425387534035
 20
267.9161611392513
 30
0.0
 10
263.1165328205502
 20
267.8012825210381
 30
0.0
 10
263.0805189740595
 20
267.6890950182669
 30
0.0
 10
263.0350140180582
 20
267.5804325634156
 30
0.0
 10
262.980291177546
 20
267.476105044101
 30
0.0
 10
262.9167763883361
 20
267.37688946396
 30
0.0
 10
262.8449384134317
 20
267.2835249423581
 30
0.0
 10
262.7653139529369
 20
267.1967069855299
 30
0.0
 10
262.6784959961018
 20
267.1170825250454
 30
0.0
 10
262.585131474497
 20
267.0452445501536
 30
0.0
 10
262.4859158943577
 20
266.9817297609581
 30
0.0
 10
262.3815883750496
 20
266.9270069204611
 30
0.0
 10
262.27292592021
 20
266.8815019644745
 30
0.0
 10
262.1607384174556
 20
266.845488117997
 30
0.0
 10
262.0458597992643
 20
266.8194821851542
 30
0.0
 10
261.9291523964466
 20
266.8027539409528
 30
0.0
 10
261.8506965857594
 20
266.8001722246617
 30
0.0
 10
261.8114663734476
 20
266.7988812906015
 30
0.0
  0
SPLINE
  5
F5
330
1F
100
AcDbEntity
  8
0
  6
Continuous
 62
     8
370
    18
100
AcDbSpline
210
0.0
220
0.0
230
1.0
 70
     8
 71
     3
 72
    25
 73
    21
 74
     0
 42
0.00000001
 43
0.00000001
 40
0.0
 40
0.0
 40
0.0
 40
0.0
 40
0.0555740770039925
 40
0.1111416178392036
 40
0.1667034390187356
 40
0.2222603572587865
 40
0.2778131894496876
 40
0.3333627526269545
 40
0.3889098639422961
 40
0.4444553406345854
 40
0.5000000000008064
 40
0.555544659367005
 40
0.6110901360592365
 40
0.6666372473744857
 40
0.7221868105516125
 40
0.7777396427423322
 40
0.8332965609821581
 40
0.888858382161434
 40
0.9444259229963424
 40
1.0
 40
1.0
 40
1.0
 40
1.0
 10
114.9691133164621
 20
413.641234347589
 30
0.0
 10
114.9704042505224
 20
413.6804645599063
 30
0.0
 10
114.9729859668138
 20
413.7589203706037
 30
0.0
 10
114.9897142110189
 20
413.8756277734354
 30
0.0
 10
115.015720143867
 20
413.9905063916382
 30
0.0
 10
115.0517339903512
 20
414.1026938944016
 30
0.0
 10
115.0972389463454
 20
414.2113563492475
 30
0.0
 10
115.1519617868502
 20
414.3156838685593
 30
0.0
 10
115.2154765760532
 20
414.4148994486998
 30
0.0
 10
115.2873145509515
 20
414.5082639703033
 30
0.0
 10
115.3669390114415
 20
414.5950819271351
 30
0.0
 10
115.4537569682734
 20
414.674706387625
 30
0.0
 10
115.5471214898771
 20
414.746544362523
 30
0.0
 10
115.6463370700175
 20
414.8100591517256
 30
0.0
 10
115.7506645893292
 20
414.8647819922301
 30
0.0
 10
115.8593270441748
 20
414.9102869482239
 30
0.0
 10
115.9715145469377
 20
414.9463007947078
 30
0.0
 10
116.08639316514
 20
414.9723067275557
 30
0.0
 10
116.2031005679712
 20
414.9890349717605
 30
0.0
 10
116.2815563786682
 20
414.991616688052
 30
0.0
 10
116.3207865909852
 20
414.9929076221123
 30
0.0
  0
SPLINE
  5
F6
330
1F
100
AcDbEntity
  8
0
  6
Continuous
 62
     8
370
    18
100
AcDbSpline
210
0.0
220
0.0
230
1.0
 70
     8
 71
     3
 72
    25
 73
    21
 74
     0
 42
0.00000001
 43
0.00000001
 40
0.0
 40
0.0
 40
0.0
 40
0.0
 40
0.0555740769952329
 40
0.1111416178227194
 40
0.1667034389955599
 40
0.2222603572299394
 40
0.2778131894162001
 40
0.3333627525898624
 40
0.3889098639026262
 40
0.4444553405933689
 40
0.4999999999590732
 40
0.5555446593257829
 40
0.6110901360195619
 40
0.6666372473373796
 40
0.722186810518111
 40
0.7777396427134696
 40
0.8332965609589634
 40
0.8888583821449408
 40
0.9444259229875818
 40
1.0
 40
1.0
 40
1.0
 40
1.0
 10
116.320786590983
 20
266.7988812906025
 30
0.0
 10
116.281556378672
 20
266.8001722246624
 30
0.0
 10
116.2031005679863
 20
266.8027539409533
 30
0.0
 10
116.0863931651706
 20
266.8194821851537
 30
0.0
 10
115.9715145469809
 20
266.8454881179952
 30
0.0
 10
115.8593270442277
 20
266.8815019644713
 30
0.0
 10
115.7506645893888
 20
266.9270069204564
 30
0.0
 10
115.6463370700809
 20
266.981729760952
 30
0.0
 10
115.5471214899413
 20
267.045244550146
 30
0.0
 10
115.453756968336
 20
267.1170825250366
 30
0.0
 10
115.3669390114999
 20
267.1967069855202
 30
0.0
 10
115.2873145510039
 20
267.2835249423478
 30
0.0
 10
115.215476576098
 20
267.3768894639495
 30
0.0
 10
115.1519617868866
 20
267.4761050440907
 30
0.0
 10
115.0972389463728
 20
267.580432563406
 30
0.0
 10
115.05173399037
 20
267.6890950182585
 30
0.0
 10
115.0157201438779
 20
267.8012825210313
 30
0.0
 10
114.9897142110234
 20
267.9161611392467
 30
0.0
 10
114.9729859668139
 20
268.0328685420938
 30
0.0
 10
114.9704042505217
 20
268.1113243528023
 30
0.0
 10
114.9691133164611
 20
268.1505545651255
 30
0.0
  0
ARC
  5
F7
330
1F
100
AcDbEntity
  8
0
  6
Continuous
 62
     7
370
    25
100
AcDbCircle
 10
-6631.0157531988
 20
340.8958944564
 30
0.0
 40
7000.000000000001
100
AcDbArc
 50
0.3226970935
 51
0.5964418978
  0
ARC
  5
F8
330
1F
100
AcDbEntity
  8
0
  6
Continuous
 62
     7
370
    25
100
AcDbCircle
 10
-6631.0157531988
 20
340.8958944564
 30
0.0
 40
7000.000000000001
100
AcDbArc
 50
359.403556984
 51
359.9228448791
  0
ARC
  5
F9
330
1F
100
AcDbEntity
  8
0
  6
Continuous
 62
     7
370
    25
100
AcDbCircle
 10
367.1050511603
 20
413.7481943255
 30
0.0
 40
1.499999999999955
100
AcDbArc
 50
0.6099342096
 51
88.489888219
  0
ARC
  5
FA
330
1F
100
AcDbEntity
  8
0
  6
Continuous
 62
     7
370
    25
100
AcDbCircle
 10
367.1050511603
 20
268.0435945872
 30
0.0
 40
1.499999999999963
100
AcDbArc
 50
271.5235157125
 51
359.4065979698
  0
LINE
  5
FB
330
1F
100
AcDbEntity
  8
0
  6
Continuous
 62
     7
370
    25
100
AcDbLine
 10
361.4842468012
 20
266.3958944564
 30
0.0
 11
367.1442879281
 21
266.5441078494
 31
0.0
  0
LINE
  5
FC
330
1F
100
AcDbEntity
  8
0
  6
Continuous
 62
     7
370
    25
100
AcDbLine
 10
367.1442879281
 20
415.2476810633
 30
0.0
 11
361.4842468012
 21
415.3958944564
 31
0.0
  0
LINE
  5
FD
330
1F
100
AcDbEntity
  8
0
  6
Continuous
 62
     7
370
    25
100
AcDbLine
 10
398.4842468012
 20
380.3958944564
 30
0.0
 11
368.8729609587
 21
380.3958944564
 31
0.0
  0
LINE
  5
FE
330
1F
100
AcDbEntity
  8
0
  6
Continuous
 62
     7
370
    25
100
AcDbLine
 10
368.9776424077
 20
331.3958944564
 30
0.0
 11
398.4842468012
 21
331.3958944564
 31
0.0
  0
ARC
  5
FF
330
1F
100
AcDbEntity
  8
0
  6
Continuous
 62
     7
370
    25
100
AcDbCircle
 10
398.4842468012
 20
355.8958944564
 30
0.0
 40
24.49999999999998
100
AcDbArc
 50
57.7122431511
 51
90.0
  0
ARC
  5
100
330
1F
100
AcDbEntity
  8
0
  6
Continuous
 62
     7
370
    25
100
AcDbCircle
 10
398.4842468012
 20
355.8958944564
 30
0.0
 40
24.50000000000008
100
AcDbArc
 50
270.0
 51
286.7215968956
  0
SPLINE
  5
101
330
1F
100
AcDbEntity
  8
0
  6
Continuous
 62
     7
370
    25
100
AcDbSpline
210
0.0
220
0.0
230
1.0
 70
     8
 71
     3
 72
    13
 73
     9
 74
     0
 42
0.00000001
 43
0.00000001
 40
0.0
 40
0.0
 40
0.0
 40
0.0
 40
0.1926394824041268
 40
0.374640028370271
 40
0.5461420466580276
 40
0.707361740079735
 40
0.858548491044032
 40
1.0
 40
1.0
 40
1.0
 40
1.0
 10
439.2970567063388
 20
280.101292855399
 30
0.0
 10
439.2848135358929
 20
283.8231753305012
 30
0.0
 10
439.2610033508467
 20
291.0613911866775
 30
0.0
 10
439.223198373431
 20
301.634699787443
 30
0.0
 10
439.1903302835748
 20
311.6090524146275
 30
0.0
 10
439.1627145664671
 20
320.9863653506834
 30
0.0
 10
439.1400287123798
 20
329.7742039631088
 30
0.0
 10
439.1236746889883
 20
335.4109005604487
 30
0.0
 10
439.1157697031985
 20
338.1354904327297
 30
0.0
  0
SPLINE
  5
102
330
1F
100
AcDbEntity
  8
0
  6
Continuous
 62
     7
370
    25
100
AcDbSpline
210
0.0
220
0.0
230
1.0
 70
     8
 71
     3
 72
    11
 73
     7
 74
     0
 42
0.00000001
 43
0.00000001
 40
0.0
 40
0.0
 40
0.0
 40
0.0
 40
0.2503545111248934
 40
0.4994784154067211
 40
0.7491969740607365
 40
1.0
 40
1.0
 40
1.0
 40
1.0
 10
429.6018363806521
 20
310.2162526171336
 30
0.0
 10
429.7153988635445
 20
306.7577069401353
 30
0.0
 10
429.9419656178236
 20
299.857615918819
 30
0.0
 10
430.2969596482627
 20
289.3625249779149
 30
0.0
 10
430.61849320192
 20
278.7831992705758
 30
0.0
 10
430.8974796857393
 20
271.7121429239152
 30
0.0
 10
431.0372751640801
 20
268.1689544123336
 30
0.0
  0
SPLINE
  5
103
330
1F
100
AcDbEntity
  8
0
  6
Continuous
 62
     7
370
    25
100
AcDbSpline
210
0.0
220
0.0
230
1.0
 70
     8
 71
     3
 72
    21
 73
    17
 74
     0
 42
0.00000001
 43
0.00000001
 40
0.0
 40
0.0
 40
0.0
 40
0.0
 40
0.1736745624268352
 40
0.3279899328385147
 40
0.4444854866733
 40
0.4844687698018824
 40
0.4998673604566813
 40
0.5128054003489522
 40
0.518741766106818
 40
0.5246027516117336
 40
0.537086862394131
 40
0.5521128698792925
 40
0.5704908509411437
 40
0.6779451784145439
 40
0.828385416940124
 40
1.0
 40
1.0
 40
1.0
 40
1.0
 10
431.0454680902367
 20
268.1689800152278
 30
0.0
 10
431.0633702349343
 20
267.9001962641136
 30
0.0
 10
431.0971790043648
 20
267.3925896045995
 30
0.0
 10
431.1551235497046
 20
266.6534069992556
 30
0.0
 10
431.210771483742
 20
266.0654169491889
 30
0.0
 10
431.2608412331008
 20
265.6164372515664
 30
0.0
 10
431.2878415024268
 20
265.3887089185832
 30
0.0
 10
431.3042540489683
 20
265.2544032198577
 30
0.0
 10
431.3170462119525
 20
265.1518067344495
 30
0.0
 10
431.3297040702142
 20
265.0514509311306
 30
0.0
 10
431.3459692063462
 20
264.9246976521537
 30
0.0
 10
431.3635806271113
 20
264.7901888375637
 30
0.0
 10
431.4067859439089
 20
264.4669799650027
 30
0.0
 10
431.4559101909672
 20
264.130383319947
 30
0.0
 10
431.5178368874252
 20
263.744543773397
 30
0.0
 10
431.5564579935038
 20
263.5223159271066
 30
0.0
 10
431.5770381698365
 20
263.4038965257213
 30
0.0
  0
LINE
  5
104
330
1F
100
AcDbEntity
  8
0
  6
Continuous
 62
     7
370
    25
100
AcDbLine
 10
410.5385027414
 20
330.8146691118
 30
0.0
 11
410.5395668298
 21
330.4741608219
 31
0.0
  0
LINE
  5
105
330
1F
100
AcDbEntity
  8
0
  6
Continuous
 62
     7
370
    25
100
AcDbLine
 10
410.5395668298
 20
330.4741608219
 30
0.0
 11
410.7600238308
 21
329.8742994478
 31
0.0
  0
ARC
  5
106
330
1F
100
AcDbEntity
  8
0
  6
Continuous
 62
     7
370
    25
100
AcDbCircle
 10
418.1346728013
 20
329.9657495885
 30
0.0
 40
0.2000000000000245
100
AcDbArc
 50
263.3452667081
 51
270.1790487282
  0
ARC
  5
107
330
1F
100
AcDbEntity
  8
0
  6
Continuous
 62
     7
370
    25
100
AcDbCircle
 10
410.9477476757
 20
329.9432904474
 30
0.0
 40
0.2000000000000087
100
AcDbArc
 50
200.1790487281
 51
270.1790487281
  0
LINE
  5
108
330
1F
100
AcDbEntity
  8
0
  6
Continuous
 62
     7
370
    25
100
AcDbLine
 10
410.9483726727
 20
329.743291424
 30
0.0
 11
418.1352977982
 21
329.765750565
 31
0.0
  0
SPLINE
  5
109
330
1F
100
AcDbEntity
  8
0
  6
Continuous
 62
     7
370
    25
100
AcDbSpline
210
0.0
220
0.0
230
1.0
 70
     8
 71
     3
 72
    17
 73
    13
 74
     0
 42
0.00000001
 43
0.00000001
 40
0.0
 40
0.0
 40
0.0
 40
0.0
 40
0.1306090358858642
 40
0.2795021543405287
 40
0.3368417349076572
 40
0.3850169423688479
 40
0.4071208774568834
 40
0.4289443945913552
 40
0.475431538123861
 40
0.531387490936878
 40
0.5998282247739666
 40
1.0
 40
1.0
 40
1.0
 40
1.0
 10
431.2131761992393
 20
266.072557340713
 30
0.0
 10
431.2194757725218
 20
266.0055495122628
 30
0.0
 10
431.2329568023137
 20
265.8621533660278
 30
0.0
 10
431.2610007628388
 20
265.6154510296298
 30
0.0
 10
431.2878278033684
 20
265.3887947305561
 30
0.0
 10
431.3042638218695
 20
265.2543471967355
 30
0.0
 10
431.3170538278706
 20
265.151765450268
 30
0.0
 10
431.3297125662143
 20
265.0514054017887
 30
0.0
 10
431.3459783832739
 20
264.9246452853785
 30
0.0
 10
431.3635842140123
 20
264.7901877183517
 30
0.0
 10
431.4068517808386
 20
264.4663784167263
 30
0.0
 10
431.4283804306641
 20
264.3211110018005
 30
0.0
 10
431.4467648268387
 20
264.1970598546608
 30
0.0
  0
LINE
  5
10A
330
1F
100
AcDbEntity
  8
0
  6
Continuous
 62
     7
370
    25
100
AcDbLine
 10
439.297056699
 20
280.1012952557
 30
0.0
 11
439.2854978127
 21
283.5634765808
 31
0.0
  0
LINE
  5
10B
330
1F
100
AcDbEntity
  8
0
  6
Continuous
 62
     7
370
    25
100
AcDbLine
 10
409.9882159375
 20
330.8205937027
 30
0.0
 11
410.5380069635
 21
330.8008689655
 31
0.0
  0
LINE
  5
10C
330
1F
100
AcDbEntity
  8
0
  6
Continuous
 62
     7
370
    25
100
AcDbLine
 10
361.4842468012
 20
413.6422410512
 30
0.0
 11
361.4842468012
 21
268.1495478615
 31
0.0
  0
SPLINE
  5
10D
330
1F
100
AcDbEntity
  8
0
  6
Continuous
 62
     7
370
    25
100
AcDbSpline
210
0.0
220
0.0
230
1.0
 70
     8
 71
     3
 72
    12
 73
     8
 74
     0
 42
0.00000001
 43
0.00000001
 40
0.0
 40
0.0
 40
0.0
 40
0.0
 40
0.2117398065332027
 40
0.4296200730152457
 40
0.6413598825807318
 40
0.8592401760947516
 40
1.0
 40
1.0
 40
1.0
 40
1.0
 10
368.8881738881644
 20
373.2212795278495
 30
0.0
 10
368.8862165499103
 20
374.1346912657123
 30
0.0
 10
368.8822451105415
 20
375.9880037058182
 30
0.0
 10
368.8777938240356
 20
378.0652394997273
 30
0.0
 10
368.8746378230964
 20
379.5380171684799
 30
0.0
 10
368.8729559153462
 20
380.3228949893236
 30
0.0
 10
368.8729596247127
 20
380.3211639781919
 30
0.0
 10
368.8729610805726
 20
380.32048458732
 30
0.0
  0
SPLINE
  5
10E
330
1F
100
AcDbEntity
  8
0
  6
Continuous
 62
     7
370
    25
100
AcDbSpline
210
0.0
220
0.0
230
1.0
 70
     8
 71
     3
 72
    22
 73
    18
 74
     0
 42
0.00000001
 43
0.00000001
 40
0.0
 40
0.0
 40
0.0
 40
0.0
 40
0.0515346803979794
 40
0.1220986314663394
 40
0.1947089400993466
 40
0.2652729282002904
 40
0.337883269853992
 40
0.4084473827928644
 40
0.4810578508352067
 40
0.5516221217075451
 40
0.6242327541171022
 40
0.6947971468038237
 40
0.7674079095250398
 40
0.8379723345202953
 40
0.9105831363869062
 40
0.9550433815952281
 40
1.0
 40
1.0
 40
1.0
 40
1.0
 10
368.9776422033179
 20
331.4697053352735
 30
0.0
 10
368.9776305410192
 20
331.4751477378902
 30
0.0
 10
368.9776029100976
 20
331.4880421597874
 30
0.0
 10
368.9758227607307
 20
332.3187777028136
 30
0.0
 10
368.9726391216394
 20
333.8044739150945
 30
0.0
 10
368.9680221148153
 20
335.9590729502775
 30
0.0
 10
368.9622538029651
 20
338.650944611911
 30
0.0
 10
368.9553753012952
 20
341.8609005393599
 30
0.0
 10
368.9477100033249
 20
345.4380230109378
 30
0.0
 10
368.9393355740872
 20
349.3460673464971
 30
0.0
 10
368.9306402024482
 20
353.4038789451854
 30
0.0
 10
368.9217131048965
 20
357.5698232473247
 30
0.0
 10
368.9129688257365
 20
361.6504478063097
 30
0.0
 10
368.9044931180583
 20
365.6057353043773
 30
0.0
 10
368.8976471438368
 20
368.8004849631085
 30
0.0
 10
368.8922091384071
 20
371.3381882965256
 30
0.0
 10
368.8895239402922
 20
372.5912637491653
 30
0.0
 10
368.8881738881644
 20
373.2212795278495
 30
0.0
  0
LINE
  5
10F
330
1F
100
AcDbEntity
  8
0
  6
Continuous
 62
     7
370
    18
100
AcDbLine
 10
361.4842468012
 20
266.6604995043
 30
0.0
 11
366.7689738516
 21
266.7988812906
 31
0.0
  0
LINE
  5
110
330
1F
100
AcDbEntity
  8
0
  6
Continuous
 62
     7
370
    25
100
AcDbLine
 10
361.4842468012
 20
266.6604995043
 30
0.0
 11
361.4842468012
 21
268.1495478615
 31
0.0
  0
LINE
  5
111
330
1F
100
AcDbEntity
  8
0
  6
Continuous
 62
     7
370
    18
100
AcDbLine
 10
361.4842468012
 20
415.1312894084
 30
0.0
 11
366.7689738516
 21
414.9929076221
 31
0.0
  0
LINE
  5
112
330
1F
100
AcDbEntity
  8
0
  6
Continuous
 62
     7
370
    25
100
AcDbLine
 10
361.4842468012
 20
415.1312894084
 30
0.0
 11
361.4842468012
 21
413.6422410512
 31
0.0
  0
LINE
  5
113
330
1F
100
AcDbEntity
  8
0
  6
Continuous
 62
     7
370
    25
100
AcDbLine
 10
361.4842468012
 20
266.3958944564
 30
0.0
 11
361.4842468012
 21
266.6604995043
 31
0.0
  0
LINE
  5
114
330
1F
100
AcDbEntity
  8
0
  6
Continuous
 62
     7
370
    25
100
AcDbLine
 10
361.4842468012
 20
415.3958944564
 30
0.0
 11
361.4842468012
 21
415.1312894084
 31
0.0
  0
SPLINE
  5
115
330
1F
100
AcDbEntity
  8
0
  6
Continuous
 62
     7
370
    25
100
AcDbSpline
210
0.0
220
0.0
230
1.0
 70
     8
 71
     3
 72
    14
 73
    10
 74
     0
 42
0.00000001
 43
0.00000001
 40
0.0
 40
0.0
 40
0.0
 40
0.0
 40
0.25
 40
0.25
 40
0.5
 40
0.5
 40
0.75
 40
0.75
 40
1.0
 40
1.0
 40
1.0
 40
1.0
 10
437.578906912346
 20
255.9975257792452
 30
0.0
 10
437.5323703817976
 20
255.8549272114977
 30
0.0
 10
437.4514809246084
 20
255.7065136529621
 30
0.0
 10
437.2124000767842
 20
255.4488391821479
 30
0.0
 10
437.0538608221005
 20
255.3416333287094
 30
0.0
 10
436.7023224423333
 20
255.2174081665556
 30
0.0
 10
436.5116259091348
 20
255.2012025381288
 30
0.0
 10
436.1637314396881
 20
255.2514541266493
 30
0.0
 10
436.0075540541774
 20
255.3160939959645
 30
0.0
 10
435.8817559496052
 20
255.3977936712304
 30
0.0
  0
SPLINE
  5
116
330
1F
100
AcDbEntity
  8
0
  6
Continuous
 62
     7
370
    25
100
AcDbSpline
210
0.0
220
0.0
230
1.0
 70
     8
 71
     3
 72
    10
 73
     6
 74
     0
 42
0.00000001
 43
0.00000001
 40
0.0
 40
0.0
 40
0.0
 40
0.0
 40
0.5
 40
0.5
 40
1.0
 40
1.0
 40
1.0
 40
1.0
 10
406.3580536633981
 20
355.6583072456588
 30
0.0
 10
406.0905729362552
 20
354.1515441642528
 30
0.0
 10
405.8936450281647
 20
352.6324945796413
 30
0.0
 10
405.6411225638068
 20
349.6478736521129
 30
0.0
 10
405.5841419656582
 20
348.1807984159578
 30
0.0
 10
405.588642432642
 20
346.7424143018142
 30
0.0
  0
SPLINE
  5
117
330
1F
100
AcDbEntity
  8
0
  6
Continuous
 62
     7
370
    25
100
AcDbSpline
210
0.0
220
0.0
230
1.0
 70
     8
 71
     3
 72
    10
 73
     6
 74
     0
 42
0.00000001
 43
0.00000001
 40
0.0
 40
0.0
 40
0.0
 40
0.0
 40
0.5
 40
0.5
 40
1.0
 40
1.0
 40
1.0
 40
1.0
 10
405.488593954785
 20
346.7776683445201
 30
0.0
 10
405.4841037685775
 20
348.214527930932
 30
0.0
 10
405.5414082539372
 20
349.6799237703847
 30
0.0
 10
405.7948901169777
 20
352.6608351237434
 30
0.0
 10
405.9922715855076
 20
354.1778060454436
 30
0.0
 10
406.2596802758497
 20
355.6825229168257
 30
0.0
  0
SPLINE
  5
118
330
1F
100
AcDbEntity
  8
0
  6
Continuous
 62
     7
370
    25
100
AcDbSpline
210
0.0
220
0.0
230
1.0
 70
     8
 71
     3
 72
    10
 73
     6
 74
     0
 42
0.00000001
 43
0.00000001
 40
0.0
 40
0.0
 40
0.0
 40
0.0
 40
0.5
 40
0.5
 40
1.0
 40
1.0
 40
1.0
 40
1.0
 10
409.5227482399152
 20
369.5856720532485
 30
0.0
 10
408.884423547238
 20
367.2897041550481
 30
0.0
 10
408.3013471826039
 20
364.9801066883596
 30
0.0
 10
407.2458616571938
 20
360.3345160721942
 30
0.0
 10
406.7737473310987
 20
357.9999782825064
 30
0.0
 10
406.3580536633981
 20
355.6583072456588
 30
0.0
  0
SPLINE
  5
119
330
1F
100
AcDbEntity
  8
0
  6
Continuous
 62
     7
370
    25
100
AcDbSpline
210
0.0
220
0.0
230
1.0
 70
     8
 71
     3
 72
    10
 73
     6
 74
     0
 42
0.00000001
 43
0.00000001
 40
0.0
 40
0.0
 40
0.0
 40
0.0
 40
0.5
 40
0.5
 40
1.0
 40
1.0
 40
1.0
 40
1.0
 10
406.2596802758497
 20
355.6825229168257
 30
0.0
 10
406.675928225216
 20
358.0247628466075
 30
0.0
 10
407.1484347628745
 20
360.35988901106
 30
0.0
 10
408.2046330940366
 20
365.0066614506006
 30
0.0
 10
408.7879315572145
 20
367.3168801634159
 30
0.0
 10
409.4263950478209
 20
369.6134875882809
 30
0.0
  0
SPLINE
  5
11A
330
1F
100
AcDbEntity
  8
0
  6
Continuous
 62
     7
370
    25
100
AcDbSpline
210
0.0
220
0.0
230
1.0
 70
     8
 71
     3
 72
    12
 73
     8
 74
     0
 42
0.00000001
 43
0.00000001
 40
0.0
 40
0.0
 40
0.0
 40
0.0
 40
0.4999999999999953
 40
0.4999999999999953
 40
0.7499999999999977
 40
0.7499999999999977
 40
1.0
 40
1.0
 40
1.0
 40
1.0
 10
409.7786096144583
 20
370.8595659552125
 30
0.0
 10
409.8636541166386
 20
371.1555527067607
 30
0.0
 10
409.9490897650586
 20
371.4492708985537
 30
0.0
 10
410.0657121967031
 20
371.8462733849291
 30
0.0
 10
410.103348453938
 20
371.9736969657692
 30
0.0
 10
410.1716553638545
 20
372.2040040978362
 30
0.0
 10
410.2026772583283
 20
372.3080945938497
 30
0.0
 10
410.2302641909045
 20
372.4003741404339
 30
0.0
  0
SPLINE
  5
11B
330
1F
100
AcDbEntity
  8
0
  6
Continuous
 62
     7
370
    25
100
AcDbSpline
210
0.0
220
0.0
230
1.0
 70
     8
 71
     3
 72
     8
 73
     4
 74
     0
 42
0.00000001
 43
0.00000001
 40
0.0
 40
0.0
 40
0.0
 40
0.0
 40
0.0012950023396037
 40
0.0012950023396037
 40
0.0012950023396037
 40
0.0012950023396037
 10
409.4263949798472
 20
369.613487343774
 30
0.0
 10
409.5420051284814
 20
370.0293468743344
 30
0.0
 10
409.6594122880717
 20
370.4447145712091
 30
0.0
 10
409.7786096141463
 20
370.8595659541267
 30
0.0
  0
SPLINE
  5
11C
330
1F
100
AcDbEntity
  8
0
  6
Continuous
 62
     7
370
    25
100
AcDbSpline
210
0.0
220
0.0
230
1.0
 70
     8
 71
     3
 72
     9
 73
     5
 74
     0
 42
0.00000001
 43
0.00000001
 40
0.0243599003348268
 40
0.0243599003348268
 40
0.0243599003348268
 40
0.0243599003348268
 40
0.5
 40
1.0
 40
1.0
 40
1.0
 40
1.0
 10
405.6385033576844
 20
330.8088499278263
 30
0.0
 10
406.2893918242201
 20
330.8109253319116
 30
0.0
 10
407.6244710041829
 20
330.8159784324749
 30
0.0
 10
408.9596045955298
 20
330.8200609283402
 30
0.0
 10
409.6438872792851
 20
330.8211794549629
 30
0.0
  0
SPLINE
  5
11D
330
1F
100
AcDbEntity
  8
0
  6
Continuous
 62
     7
370
    25
100
AcDbSpline
210
0.0
220
0.0
230
1.0
 70
     8
 71
     3
 72
    31
 73
    27
 74
     0
 42
0.00000001
 43
0.00000001
 40
0.0
 40
0.0
 40
0.0
 40
0.0
 40
0.1249999999999998
 40
0.1249999999999998
 40
0.1874999999999998
 40
0.1874999999999998
 40
0.2499999999999998
 40
0.2499999999999998
 40
0.3749999999999997
 40
0.3749999999999997
 40
0.4374999999999997
 40
0.4374999999999997
 40
0.4999999999999998
 40
0.4999999999999998
 40
0.6249999999999998
 40
0.6249999999999998
 40
0.6874999999999999
 40
0.6874999999999999
 40
0.7499999999999999
 40
0.7499999999999999
 40
0.8124999999999999
 40
0.8124999999999999
 40
0.8749999999999999
 40
0.9375
 40
0.9375
 40
1.0
 40
1.0
 40
1.0
 40
1.0
 10
405.588642432642
 20
346.7424143018142
 30
0.0
 10
405.5923239355367
 20
345.5657774552341
 30
0.0
 10
405.5958653727202
 20
344.4341731338557
 30
0.0
 10
405.6009715154907
 20
342.8027923678127
 30
0.0
 10
405.6026444264384
 20
342.268342632717
 30
0.0
 10
405.6058804896079
 20
341.2345460040486
 30
0.0
 10
405.6074468279952
 20
340.7341809280899
 30
0.0
 10
405.6119962049255
 20
339.2809038897917
 30
0.0
 10
405.6148304635388
 20
338.3755333853041
 30
0.0
 10
405.6187894104101
 20
337.1108059672708
 30
0.0
 10
405.6200601047618
 20
336.704854051066
 30
0.0
 10
405.6225018052629
 20
335.9247536204986
 30
0.0
 10
405.6236674621251
 20
335.5523139309389
 30
0.0
 10
405.626961501716
 20
334.4997530206851
 30
0.0
 10
405.6289055013636
 20
333.8784617128392
 30
0.0
 10
405.6314492259374
 20
333.0653273132409
 30
0.0
 10
405.6322347885766
 20
332.8141793101137
 30
0.0
 10
405.6336785166599
 20
332.352552878147
 30
0.0
 10
405.6343379776216
 20
332.1416599831396
 30
0.0
 10
405.6355154012549
 20
331.7650700886524
 30
0.0
 10
405.6360343388597
 20
331.5990613847748
 30
0.0
 10
405.6369248530663
 20
331.3141408618751
 30
0.0
 10
405.6376698808336
 20
331.0757177802487
 30
0.0
 10
405.6381228032255
 20
330.9307134203775
 30
0.0
 10
405.6384264845826
 20
330.8334750173479
 30
0.0
 10
405.6385033576845
 20
330.8088499278263
 30
0.0
 10
405.6385033576845
 20
330.8088499278263
 30
0.0
  0
SPLINE
  5
11E
330
1F
100
AcDbEntity
  8
0
  6
Continuous
 62
     7
370
    25
100
AcDbSpline
210
0.0
220
0.0
230
1.0
 70
     8
 71
     3
 72
    27
 73
    23
 74
     0
 42
0.00000001
 43
0.00000001
 40
0.1999999999999999
 40
0.1999999999999999
 40
0.1999999999999999
 40
0.1999999999999999
 40
0.2309251705363866
 40
0.2639144806130132
 40
0.2639144806130132
 40
0.2925689821971661
 40
0.3212234837813192
 40
0.349877985365472
 40
0.378532486949625
 40
0.4358414901179309
 40
0.4931504932862368
 40
0.4931504932862368
 40
0.524828587455847
 40
0.5565066816254572
 40
0.5881847757950674
 40
0.6198628699646777
 40
0.6832190583038982
 40
0.7465752466431184
 40
0.8099314349823385
 40
0.873287623321559
 40
0.9366438116607796
 40
1.0
 40
1.0
 40
1.0
 40
1.0
 10
439.0287125873221
 20
365.9922058044687
 30
0.0
 10
439.0278454961872
 20
366.2696749676514
 30
0.0
 10
439.0260530871164
 20
366.8432458703035
 30
0.0
 10
439.0242598372945
 20
367.4170858133243
 30
0.0
 10
439.0225298163244
 20
367.9706925237333
 30
0.0
 10
439.0205195476458
 20
368.4815800446802
 30
0.0
 10
439.0027610384329
 20
369.2405300567955
 30
0.0
 10
438.9567220253645
 20
369.9960861677924
 30
0.0
 10
438.8461822135901
 20
371.0010926584828
 30
0.0
 10
438.5943794796987
 20
372.2568293097468
 30
0.0
 10
438.2392013200475
 20
373.2617873236497
 30
0.0
 10
437.8914075721697
 20
374.0433580047969
 30
0.0
 10
437.6192629200008
 20
374.5904126177189
 30
0.0
 10
437.142087412078
 20
375.3783396043597
 30
0.0
 10
436.600569232358
 20
376.1291652169204
 30
0.0
 10
435.7989092408312
 20
377.074868946444
 30
0.0
 10
434.65905686129
 20
378.1420129664588
 30
0.0
 10
433.1089982224079
 20
379.2181048635903
 30
0.0
 10
431.4056879262471
 20
380.0547873757154
 30
0.0
 10
429.5839597239068
 20
380.61568196565
 30
0.0
 10
427.6902854800023
 20
380.8725574957054
 30
0.0
 10
426.4177429894576
 20
380.8740259714067
 30
0.0
 10
425.7821486533088
 20
380.8720397391062
 30
0.0
  0
SPLINE
  5
11F
330
1F
100
AcDbEntity
  8
0
  6
Continuous
 62
     7
370
    25
100
AcDbSpline
210
0.0
220
0.0
230
1.0
 70
     8
 71
     3
 72
    17
 73
    13
 74
     0
 42
0.00000001
 43
0.00000001
 40
0.0485795298932049
 40
0.0485795298932049
 40
0.0485795298932049
 40
0.0485795298932049
 40
0.0625
 40
0.0706381005237446
 40
0.09375
 40
0.1019804533022912
 40
0.109375
 40
0.1115339358586515
 40
0.1163184025023086
 40
0.125
 40
0.1285162576861448
 40
0.1285945955875893
 40
0.1285945955875893
 40
0.1285945955875893
 40
0.1285945955875893
 10
413.0950379153324
 20
380.831795312622
 30
0.0
 10
413.8319974128535
 20
380.8339410335828
 30
0.0
 10
414.9999612080392
 20
380.8372765709042
 30
0.0
 10
417.3923433042345
 20
380.8438430229086
 30
0.0
 10
419.4818493475913
 20
380.8501631672636
 30
0.0
 10
421.5239221794183
 20
380.8594724143871
 30
0.0
 10
422.4638869436743
 20
380.8627760764011
 30
0.0
 10
423.2248347414409
 20
380.86421662312
 30
0.0
 10
424.0548421649842
 20
380.8653297644021
 30
0.0
 10
424.9505129430599
 20
380.8679682095159
 30
0.0
 10
425.5842250529949
 20
380.8736522063713
 30
0.0
 10
425.778308839939
 20
380.8744222639745
 30
0.0
 10
425.782542707744
 20
380.8744386083856
 30
0.0
  0
ARC
  5
120
330
1F
100
AcDbEntity
  8
0
  6
Continuous
 62
     7
370
    25
100
AcDbCircle
 10
413.0953290727
 20
380.7317957364
 30
0.0
 40
0.1000000000885693
100
AcDbArc
 50
90.1668210998
 51
159.9893143954
  0
SPLINE
  5
121
330
1F
100
AcDbEntity
  8
0
  6
Continuous
 62
     7
370
    25
100
AcDbSpline
210
0.0
220
0.0
230
1.0
 70
     8
 71
     3
 72
    18
 73
    14
 74
     0
 42
0.00000001
 43
0.00000001
 40
0.0
 40
0.0
 40
0.0
 40
0.0
 40
0.2499999999999989
 40
0.2499999999999989
 40
0.4999999999999979
 40
0.4999999999999979
 40
0.5624999999999981
 40
0.5624999999999981
 40
0.6249999999999982
 40
0.6249999999999982
 40
0.7499999999999987
 40
0.7499999999999987
 40
1.0
 40
1.0
 40
1.0
 40
1.0
 10
410.2302641104106
 20
372.4003738711784
 30
0.0
 10
410.6318078067609
 20
373.743555842695
 30
0.0
 10
411.0063921542035
 20
374.928876624072
 30
0.0
 10
411.6802618372032
 20
376.9943384964888
 30
0.0
 10
411.9796545698375
 20
377.8745556332063
 30
0.0
 10
412.291655585419
 20
378.774026482618
 30
0.0
 10
412.3508269611421
 20
378.943504595354
 30
0.0
 10
412.4615210045014
 20
379.258972810509
 30
0.0
 10
412.5131897567554
 20
379.4053847583635
 30
0.0
 10
412.656940313288
 20
379.81102416063
 30
0.0
 10
412.7377690268003
 20
380.0367114844437
 30
0.0
 10
412.9333833300244
 20
380.5804070658962
 30
0.0
 10
413.0013488869873
 20
380.7659677608938
 30
0.0
 10
413.0013661908632
 20
380.7660152753288
 30
0.0
  0
SPLINE
  5
122
330
1F
100
AcDbEntity
  8
0
  6
Continuous
 62
     7
370
    25
100
AcDbSpline
210
0.0
220
0.0
230
1.0
 70
     8
 71
     3
 72
    61
 73
    57
 74
     0
 42
0.00000001
 43
0.00000001
 40
0.275027579184864
 40
0.275027579184864
 40
0.275027579184864
 40
0.275027579184864
 40
0.28125
 40
0.2930829559674603
 40
0.3125
 40
0.3290892194152498
 40
0.3558682567495673
 40
0.375
 40
0.3826473668595717
 40
0.4133342957014712
 40
0.4375
 40
0.4440213226567316
 40
0.4689297291023624
 40
0.5004418697443043
 40
0.5263197685033671
 40
0.5521977562137884
 40
0.5779844803731745
 40
0.5908718173944933
 40
0.6125347310312995
 40
0.6342354259164485
 40
0.6451054523461941
 40
0.6724229513329414
 40
0.6997405506217163
 40
0.7218316691780623
 40
0.7439228527131785
 40
0.75
 40
0.7719488611996049
 40
0.78125
 40
0.799974971211038
 40
0.8113173375596878
 40
0.8125
 40
0.8245989478388221
 40
0.8342240371282942
 40
0.84375
 40
0.8458177416667432
 40
0.8574793312960135
 40
0.859375
 40
0.8661248601026992
 40
0.8719202416061993
 40
0.8805716613641802
 40
0.8862561743317047
 40
0.890625
 40
0.8918313509769202
 40
0.8972620124777152
 40
0.9042187370588538
 40
0.90625
 40
0.9123591663956496
 40
0.9211801540867569
 40
0.9211954758052551
 40
0.9212045010322074
 40
0.921875
 40
0.9288917713771999
 40
0.9334122481519792
 40
0.9375
 40
0.9396052961693423
 40
0.9405050214322939
 40
0.9405050214322939
 40
0.9405050214322939
 40
0.9405050214322939
 10
439.0459599056171
 20
360.6133900284166
 30
0.0
 10
439.0468651447032
 20
360.2833161410591
 30
0.0
 10
439.049570444276
 20
359.3231566875178
 30
0.0
 10
439.055537103384
 20
357.3340660699445
 30
0.0
 10
439.0636106265615
 20
354.8001910657712
 30
0.0
 10
439.0740981091465
 20
351.4766840158915
 30
0.0
 10
439.0844453191189
 20
348.1699578660198
 30
0.0
 10
439.093282832843
 20
345.3367770262849
 30
0.0
 10
439.1027712816987
 20
342.2966773884454
 30
0.0
 10
439.1130990553689
 20
338.9900433394422
 30
0.0
 10
439.1232445722881
 20
335.7431072492743
 30
0.0
 10
439.1324337494704
 20
332.8021167920313
 30
0.0
 10
439.1428360042804
 20
329.4727576829433
 30
0.0
 10
439.1564353804289
 20
325.1199491193416
 30
0.0
 10
439.1701941934002
 20
320.7160804767334
 30
0.0
 10
439.1830071154843
 20
316.6150494408352
 30
0.0
 10
439.1936743078954
 20
313.2009555082157
 30
0.0
 10
439.203645984011
 20
310.0096333038528
 30
0.0
 10
439.212943422626
 20
307.0342581659827
 30
0.0
 10
439.2219090910061
 20
304.1653072367883
 30
0.0
 10
439.231811256915
 20
300.9969341463896
 30
0.0
 10
439.2426445439269
 20
297.5309808467111
 30
0.0
 10
439.2553384922354
 20
293.4704346555909
 30
0.0
 10
439.2671726596775
 20
289.6856010327184
 30
0.0
 10
439.2754947064477
 20
287.0245026825245
 30
0.0
 10
439.2837956342684
 20
284.3704936460893
 30
0.0
 10
439.2899799972519
 20
282.3934574436414
 30
0.0
 10
439.2981543120264
 20
279.7495463662665
 30
0.0
 10
439.3044867520327
 20
277.6699558013998
 30
0.0
 10
439.3100499525247
 20
276.0170671991053
 30
0.0
 10
439.3147345233379
 20
274.7129741808908
 30
0.0
 10
439.3194021035703
 20
273.4980809670098
 30
0.0
 10
439.3164496815498
 20
271.8366569711855
 30
0.0
 10
439.3040989534086
 20
270.7060728383138
 30
0.0
 10
439.2805680226852
 20
269.4652965163493
 30
0.0
 10
439.2567412305918
 20
268.6305139473597
 30
0.0
 10
439.2150220561499
 20
267.5457548905907
 30
0.0
 10
439.1804441029461
 20
266.7745507716233
 30
0.0
 10
439.1174539427507
 20
265.6440651447123
 30
0.0
 10
439.0425783138198
 20
264.5730624894543
 30
0.0
 10
438.9568339911353
 20
263.5818149036762
 30
0.0
 10
438.8977534211112
 20
262.9871337864736
 30
0.0
 10
438.8356928712344
 20
262.4071167853016
 30
0.0
 10
438.7527188695659
 20
261.693248624674
 30
0.0
 10
438.6523717802064
 20
260.9471815898361
 30
0.0
 10
438.5380993112705
 20
260.180397601465
 30
0.0
 10
438.4002773859932
 20
259.3345733595017
 30
0.0
 10
438.2622204576774
 20
258.6244651510827
 30
0.0
 10
438.1738214816161
 20
258.2203040143091
 30
0.0
 10
438.1670298915156
 20
258.1892564506545
 30
0.0
 10
438.089660512018
 20
257.8386897257897
 30
0.0
 10
437.958826875293
 20
257.3023406107824
 30
0.0
 10
437.791560077051
 20
256.6908032996115
 30
0.0
 10
437.6821667278986
 20
256.322057418005
 30
0.0
 10
437.6145052794568
 20
256.1072800460989
 30
0.0
 10
437.5870218022367
 20
256.0223916653505
 30
0.0
 10
437.5789069090826
 20
255.9975257788326
 30
0.0
  0
SPLINE
  5
123
330
1F
100
AcDbEntity
  8
0
  6
Continuous
 62
     7
370
    25
100
AcDbSpline
210
0.0
220
0.0
230
1.0
 70
     8
 71
     3
 72
    13
 73
     9
 74
     0
 42
0.00000001
 43
0.00000001
 40
0.0
 40
0.0
 40
0.0
 40
0.0
 40
0.0806315776100255
 40
0.2541393711047252
 40
0.4162628859931201
 40
0.6057583059453094
 40
0.7861057491906429
 40
1.0
 40
1.0
 40
1.0
 40
1.0
 10
431.5896466336817
 20
263.4060541089204
 30
0.0
 10
431.629843235043
 20
263.1579575113307
 30
0.0
 10
431.7565372585671
 20
262.3759919941778
 30
0.0
 10
432.0707535950817
 20
261.1152651074519
 30
0.0
 10
432.5849405185125
 20
259.5588017860841
 30
0.0
 10
433.3106751179879
 20
258.0633569247715
 30
0.0
 10
434.3723408837432
 20
256.5616604344385
 30
0.0
 10
435.3508627968106
 20
255.8071501882543
 30
0.0
 10
435.8817559383845
 20
255.3977936786073
 30
0.0
  0
ARC
  5
124
330
1F
100
AcDbEntity
  8
0
  6
Continuous
 62
     7
370
    25
100
AcDbCircle
 10
405.6381845022
 20
330.9088494195
 30
0.0
 40
0.1000000000000043
100
AcDbArc
 50
180.1790487281
 51
270.1826910416
  0
SPLINE
  5
125
330
1F
100
AcDbEntity
  8
0
  6
Continuous
 62
     7
370
    25
100
AcDbSpline
210
0.0
220
0.0
230
1.0
 70
    24
 71
     3
 72
    28
 73
    24
 74
     0
 42
0.00000001
 43
0.00000001
 40
0.0
 40
0.0
 40
0.0
 40
0.0
 40
0.1249999999999999
 40
0.1249999999999999
 40
0.2499999999999998
 40
0.2499999999999998
 40
0.3124999999999997
 40
0.3124999999999997
 40
0.3749999999999997
 40
0.3749999999999997
 40
0.4999999999999996
 40
0.4999999999999996
 40
0.5624999999999996
 40
0.5624999999999996
 40
0.6249999999999997
 40
0.6249999999999997
 40
0.7499999999999997
 40
0.7499999999999997
 40
0.8124999999999997
 40
0.8124999999999997
 40
0.8749999999999999
 40
0.8749999999999999
 40
1.0
 40
1.0
 40
1.0
 40
1.0
 10
405.5381849904836
 20
330.9085369210068
 30
0.0
 10
405.5381849904836
 20
330.9085369210068
 30
0.0
 10
405.5378799252894
 20
331.0061577831524
 30
0.0
 10
405.5366986014278
 20
331.3841814188218
 30
0.0
 10
405.5358222814958
 20
331.6646037970547
 30
0.0
 10
405.5340771325634
 20
332.2230514554541
 30
0.0
 10
405.5334215271924
 20
332.4328451741854
 30
0.0
 10
405.5319872016665
 20
332.8918293424695
 30
0.0
 10
405.5312064873092
 20
333.1416579367798
 30
0.0
 10
405.5286778761534
 20
333.9508135066479
 30
0.0
 10
405.5267447190222
 20
334.5694237886262
 30
0.0
 10
405.5234683999124
 20
335.6178459037507
 30
0.0
 10
405.5223090847338
 20
335.9888267609525
 30
0.0
 10
405.5198793092385
 20
336.7663549194419
 30
0.0
 10
405.5186147368657
 20
337.1710180787127
 30
0.0
 10
405.5146746032626
 20
338.4318608317088
 30
0.0
 10
405.5118534929828
 20
339.3346161212445
 30
0.0
 10
405.507324444614
 20
340.7839115992669
 30
0.0
 10
405.5057649810193
 20
341.2829399495787
 30
0.0
 10
405.5025427828336
 20
342.3140433689662
 30
0.0
 10
405.5008767345065
 20
342.8471788336465
 30
0.0
 10
405.4957908519573
 20
344.4746612494184
 30
0.0
 10
405.492262749289
 20
345.6036541032765
 30
0.0
 10
405.488593954785
 20
346.7776683445201
 30
0.0
  0
SPLINE
  5
126
330
1F
100
AcDbEntity
  8
0
  6
Continuous
 62
     7
370
    25
100
AcDbSpline
210
0.0
220
0.0
230
1.0
 70
     8
 71
     3
 72
    33
 73
    29
 74
     0
 42
0.00000001
 43
0.00000001
 40
0.0
 40
0.0
 40
0.0
 40
0.0
 40
0.03125
 40
0.0625
 40
0.09375
 40
0.125
 40
0.15625
 40
0.1875
 40
0.1945013883333333
 40
0.21875
 40
0.25
 40
0.28125
 40
0.3125
 40
0.34375
 40
0.375
 40
0.40625
 40
0.4375
 40
0.4630009255555555
 40
0.46875
 40
0.5
 40
0.5369990744444445
 40
0.5625
 40
0.59375
 40
0.625
 40
0.65625
 40
0.6875
 40
0.71875
 40
0.7385134455338379
 40
0.7385134455338379
 40
0.7385134455338379
 40
0.7385134455338379
 10
429.6018363806521
 20
310.2162526171336
 30
0.0
 10
429.5866651562345
 20
310.5612857596009
 30
0.0
 10
429.5528530366567
 20
311.2512922027974
 30
0.0
 10
429.4878826274948
 20
312.2854961712406
 30
0.0
 10
429.4048167709701
 20
313.3182682721957
 30
0.0
 10
429.2998122495146
 20
314.3489823345263
 30
0.0
 10
429.1690258455608
 20
315.3770121870959
 30
0.0
 10
429.0501496485941
 20
316.1359231514249
 30
0.0
 10
428.9296422237498
 20
316.8159374697591
 30
0.0
 10
428.7977362493981
 20
317.4938299284036
 30
0.0
 10
428.5841444126592
 20
318.4284438973419
 30
0.0
 10
428.3123995526617
 20
319.429184321971
 30
0.0
 10
427.9955450961269
 20
320.4163359834417
 30
0.0
 10
427.6293856994358
 20
321.3856153639155
 30
0.0
 10
427.2097260189695
 20
322.3327389455534
 30
0.0
 10
426.7323707111092
 20
323.2534232105169
 30
0.0
 10
426.2271245893521
 20
324.0853754630108
 30
0.0
 10
425.8294855867441
 20
324.6506248995198
 30
0.0
 10
425.41073538425
 20
325.1999087998587
 30
0.0
 10
424.8854350218189
 20
325.8272771983864
 30
0.0
 10
424.1519763365578
 20
326.5609709945941
 30
0.0
 10
423.3620644055703
 20
327.2324795925279
 30
0.0
 10
422.5758633650484
 20
327.8061637676226
 30
0.0
 10
421.6935006776395
 20
328.3509521962893
 30
0.0
 10
420.7740179090943
 20
328.8294509511756
 30
0.0
 10
419.8239410868177
 20
329.2444921184465
 30
0.0
 10
418.9691516287364
 20
329.5554836258763
 30
0.0
 10
418.4308536968911
 20
329.7237602675891
 30
0.0
 10
418.221308071602
 20
329.785487751276
 30
0.0
  0
SPLINE
  5
127
330
1F
100
AcDbEntity
  8
0
  6
Continuous
 62
     7
370
    25
100
AcDbSpline
210
0.0
220
0.0
230
1.0
 70
     8
 71
     3
 72
    10
 73
     6
 74
     0
 42
0.00000001
 43
0.00000001
 40
0.0
 40
0.0
 40
0.0
 40
0.0
 40
0.5
 40
0.5
 40
1.0
 40
1.0
 40
1.0
 40
1.0
 10
418.0051506956557
 20
329.8969404692052
 30
0.0
 10
418.0941510645584
 20
329.8562983405828
 30
0.0
 10
418.1487548296905
 20
329.8277466219607
 30
0.0
 10
418.2116750159797
 20
329.7926460132256
 30
0.0
 10
418.2213040866425
 20
329.7854858360931
 30
0.0
 10
418.2213080715757
 20
329.7854877512837
 30
0.0
  0
SPLINE
  5
128
330
1F
100
AcDbEntity
  8
0
  6
Continuous
 62
     7
370
    25
100
AcDbSpline
210
0.0
220
0.0
230
1.0
 70
     8
 71
     3
 72
    12
 73
     8
 74
     0
 42
0.00000001
 43
0.00000001
 40
0.0
 40
0.0
 40
0.0
 40
0.0
 40
0.4999999999999999
 40
0.4999999999999999
 40
0.7499999999999998
 40
0.7499999999999998
 40
1.0
 40
1.0
 40
1.0
 40
1.0
 10
416.426699473754
 20
330.4925581114109
 30
0.0
 10
416.7897421268586
 20
330.3832940932454
 30
0.0
 10
417.1021918618937
 20
330.271184956705
 30
0.0
 10
417.5029819280821
 20
330.1141445401678
 30
0.0
 10
417.6244421591985
 20
330.063866941383
 30
0.0
 10
417.8364715835586
 20
329.9730636431191
 30
0.0
 10
417.9281662731594
 20
329.9320955010278
 30
0.0
 10
418.0051506956558
 20
329.8969404692052
 30
0.0
  0
SPLINE
  5
129
330
1F
100
AcDbEntity
  8
0
  6
Continuous
 62
     7
370
    25
100
AcDbSpline
210
0.0
220
0.0
230
1.0
 70
     8
 71
     3
 72
    28
 73
    24
 74
     0
 42
0.00000001
 43
0.00000001
 40
0.0
 40
0.0
 40
0.0
 40
0.0
 40
0.1249999999999963
 40
0.1249999999999963
 40
0.1874999999999944
 40
0.1874999999999944
 40
0.2499999999999926
 40
0.2499999999999926
 40
0.3749999999999888
 40
0.3749999999999888
 40
0.4374999999999871
 40
0.4374999999999871
 40
0.4999999999999853
 40
0.4999999999999853
 40
0.6249999999999818
 40
0.6249999999999818
 40
0.6874999999999849
 40
0.6874999999999849
 40
0.7499999999999879
 40
0.7499999999999879
 40
0.8749999999999939
 40
0.8749999999999939
 40
1.0
 40
1.0
 40
1.0
 40
1.0
 10
410.5385027413901
 20
330.8146691118343
 30
0.0
 10
410.5385027369842
 20
330.8146705217744
 30
0.0
 10
410.5833579008444
 20
330.8215352155692
 30
0.0
 10
410.7157829383409
 20
330.8401079539026
 30
0.0
 10
410.7714624230223
 20
330.8477354257267
 30
0.0
 10
410.9025224748079
 20
330.8647333971443
 30
0.0
 10
410.9778766179729
 20
330.8741046208077
 30
0.0
 10
411.2328465658298
 20
330.9034946193736
 30
0.0
 10
411.4448142515983
 20
330.9251401392297
 30
0.0
 10
411.8066371172783
 20
330.9522278029685
 30
0.0
 10
411.9346686864821
 20
330.9603859356096
 30
0.0
 10
412.2056571564569
 20
330.9737657590467
 30
0.0
 10
412.3496140365438
 20
330.9790078394055
 30
0.0
 10
412.7978008448031
 20
330.9881235956963
 30
0.0
 10
413.113736635161
 20
330.9854400993065
 30
0.0
 10
413.6129607850296
 20
330.9624044236353
 30
0.0
 10
413.7840909287164
 20
330.951452838877
 30
0.0
 10
414.1245129141091
 20
330.923138201466
 30
0.0
 10
414.2950731566859
 20
330.905738120673
 30
0.0
 10
414.8077119077383
 20
330.8433714997842
 30
0.0
 10
415.1536374188356
 20
330.787304842307
 30
0.0
 10
415.8104170944476
 20
330.6545518268045
 30
0.0
 10
416.1282687408102
 20
330.5767979997264
 30
0.0
 10
416.4266994737539
 20
330.4925581114109
 30
0.0
  0
SPLINE
  5
12A
330
1F
100
AcDbEntity
  8
0
  6
Continuous
 62
     7
370
    25
100
AcDbSpline
210
0.0
220
0.0
230
1.0
 70
     8
 71
     3
 72
     9
 73
     5
 74
     0
 42
0.00000001
 43
0.00000001
 40
0.973016929759813
 40
0.973016929759813
 40
0.973016929759813
 40
0.973016929759813
 40
0.984375
 40
1.0
 40
1.0
 40
1.0
 40
1.0
 10
410.5385027413843
 20
330.8146691118344
 30
0.0
 10
410.4129914122332
 20
330.8167511757053
 30
0.0
 10
410.1147928802558
 20
330.8204789569103
 30
0.0
 10
409.816570310264
 20
330.8214617221779
 30
0.0
 10
409.6438872792851
 20
330.8211794549629
 30
0.0
  0
LINE
  5
12B
330
1F
100
AcDbEntity
  8
0
  6
Continuous
 62
     7
370
    25
100
AcDbLine
 10
410.5395668298
 20
330.4741608219
 30
0.0
 11
416.4266994738
 21
330.4925581114
 31
0.0
  0
SPLINE
  5
12C
330
1F
100
AcDbEntity
  8
0
  6
Continuous
 62
     8
370
    18
100
AcDbSpline
210
0.0
220
0.0
230
1.0
 70
     8
 71
     3
 72
     8
 73
     4
 74
     0
 42
0.00000001
 43
0.00000001
 40
0.0
 40
0.0
 40
0.0
 40
0.0
 40
1.0
 40
1.0
 40
1.0
 40
1.0
 10
368.2309485050051
 20
413.5099725957671
 30
0.0
 10
368.7296631029288
 20
365.100587169494
 30
0.0
 10
368.7296631029293
 20
316.6912017432208
 30
0.0
 10
368.2309485050052
 20
268.2818163169476
 30
0.0
  0
LINE
  5
12D
330
1F
100
AcDbEntity
  8
0
  6
Continuous
 62
     8
370
    18
100
AcDbLine
 10
368.6049391671
 20
413.7637880302
 30
0.0
 11
368.230948505
 21
413.5099725958
 31
0.0
  0
SPLINE
  5
12E
330
1F
100
AcDbEntity
  8
0
  6
Continuous
 62
     8
370
    18
100
AcDbSpline
210
0.0
220
0.0
230
1.0
 70
    24
 71
     3
 72
     9
 73
     5
 74
     0
 42
0.00000001
 43
0.00000001
 40
0.0
 40
0.0
 40
0.0
 40
0.0
 40
0.9999144080927587
 40
1.0
 40
1.0
 40
1.0
 40
1.0
 10
368.2309485050044
 20
268.2818163169484
 30
0.0
 10
368.4802757595324
 20
268.1126059279027
 30
0.0
 10
368.7296243562824
 20
267.9433810545773
 30
0.0
 10
368.604948544672
 20
268.0279945182261
 30
0.0
 10
368.6049378734315
 20
268.0280017604538
 30
0.0
  0
SPLINE
  5
12F
330
1F
100
AcDbEntity
  8
0
  6
Continuous
 62
     8
370
    18
100
AcDbSpline
210
0.0
220
0.0
230
1.0
 70
     8
 71
     3
 72
    21
 73
    17
 74
     0
 42
0.00000001
 43
0.00000001
 40
0.0
 40
0.0
 40
0.0
 40
0.0
 40
0.0527050586770535
 40
0.1061279071733342
 40
0.1602714805704418
 40
0.2151385976736468
 40
0.270731966564568
 40
0.3270541898384542
 40
0.3841077695545082
 40
0.4418951119048735
 40
0.5004185316342006
 40
0.6190410166256148
 40
0.7500271579262154
 40
0.8150588969032787
 40
0.8983884788291863
 40
1.0
 40
1.0
 40
1.0
 40
1.0
 10
366.7689738516224
 20
266.7988812906039
 30
0.0
 10
366.8094308170664
 20
266.8008906805041
 30
0.0
 10
366.890895731079
 20
266.8049368261712
 30
0.0
 10
367.012779525295
 20
266.823699174585
 30
0.0
 10
367.1343787934665
 20
266.8521081670863
 30
0.0
 10
367.2547353948323
 20
266.8912860072801
 30
0.0
 10
367.3728726716739
 20
266.9410985015941
 30
0.0
 10
367.4877649967888
 20
267.001640043259
 30
0.0
 10
367.5983540936584
 20
267.0728140999884
 30
0.0
 10
367.703563824623
 20
267.1544527995321
 30
0.0
 10
367.835655534871
 20
267.2772492061251
 30
0.0
 10
367.9860697519237
 20
267.4609731072145
 30
0.0
 10
368.1013892769452
 20
267.6745682622509
 30
0.0
 10
368.1732834469573
 20
267.876009139775
 30
0.0
 10
368.2187226347185
 20
268.0626232080233
 30
0.0
 10
368.2266132130818
 20
268.2040904706575
 30
0.0
 10
368.2309485050044
 20
268.2818163169482
 30
0.0
  0
SPLINE
  5
130
330
1F
100
AcDbEntity
  8
0
  6
Continuous
 62
     8
370
    18
100
AcDbSpline
210
0.0
220
0.0
230
1.0
 70
     8
 71
     3
 72
    21
 73
    17
 74
     0
 42
0.00000001
 43
0.00000001
 40
0.0
 40
0.0
 40
0.0
 40
0.0
 40
0.0527015849058577
 40
0.1061218290190437
 40
0.160263667375135
 40
0.215129918591527
 40
0.2707232904329221
 40
0.3270463850642198
 40
0.3841017040111215
 40
0.4418916528425099
 40
0.5004185455969264
 40
0.6190205570886503
 40
0.7500271669235656
 40
0.8150462880624898
 40
0.8983758744116961
 40
1.0
 40
1.0
 40
1.0
 40
1.0
 10
366.7689738516231
 20
414.9929076221127
 30
0.0
 10
366.8094281485508
 20
414.9908984262683
 30
0.0
 10
366.8908883928548
 20
414.9868526364073
 30
0.0
 10
367.0127663598725
 20
414.9680921359188
 30
0.0
 10
367.1343620201416
 20
414.9396853501937
 30
0.0
 10
367.2547172069719
 20
414.9005096623302
 30
0.0
 10
367.372855149468
 20
414.8506987460369
 30
0.0
 10
367.4877500206174
 20
414.7901577256902
 30
0.0
 10
367.5983432590075
 20
414.7189826715783
 30
0.0
 10
367.7035583486696
 20
414.6373410532692
 30
0.0
 10
367.8356423511153
 20
414.5145524387974
 30
0.0
 10
367.9860607720825
 20
414.3308293451589
 30
0.0
 10
368.1013794104361
 20
414.1172439358632
 30
0.0
 10
368.1732775151603
 20
413.9157982362269
 30
0.0
 10
368.2187204347297
 20
413.7291850323698
 30
0.0
 10
368.2266122766348
 20
413.5877080982066
 30
0.0
 10
368.230948505005
 20
413.5099725957684
 30
0.0
  0
SPLINE
  5
131
330
1F
100
AcDbEntity
  8
0
  6
Continuous
 62
     8
370
    18
100
AcDbSpline
210
0.0
220
0.0
230
1.0
 70
    24
 71
     3
 72
     9
 73
     5
 74
     0
 42
0.00000001
 43
0.00000001
 40
0.0
 40
0.0
 40
0.0
 40
0.0
 40
0.9999208183677037
 40
1.0
 40
1.0
 40
1.0
 40
1.0
 10
366.7689738516231
 20
414.9929076221124
 30
0.0
 10
367.0191827014394
 20
415.1627427532443
 30
0.0
 10
367.2694113647697
 20
415.332591333264
 30
0.0
 10
367.1442967692736
 20
415.2476668641226
 30
0.0
 10
367.1442868624958
 20
415.2476601396644
 30
0.0
  0
LINE
  5
132
330
1F
100
AcDbEntity
  8
0
  6
Continuous
 62
     8
370
    18
100
AcDbLine
 10
367.1442869561
 20
266.5441287095
 30
0.0
 11
366.7689738516
 21
266.7988812906
 31
0.0
  0
SPLINE
  5
133
330
1F
100
AcDbEntity
  8
0
  6
Continuous
 62
     8
370
    18
100
AcDbSpline
210
0.0
220
0.0
230
1.0
 70
     8
 71
     3
 72
    26
 73
    22
 74
     0
 42
0.00000001
 43
0.00000001
 40
0.0
 40
0.0
 40
0.0
 40
0.0
 40
0.0665449018087113
 40
0.1301397258004537
 40
0.1909677550985578
 40
0.255538148331457
 40
0.3167502693789595
 40
0.3746548278016578
 40
0.4292349768923568
 40
0.4804533852234664
 40
0.5524832015995891
 40
0.6124342910951617
 40
0.6614567037837658
 40
0.7070050526915187
 40
0.7479584224035573
 40
0.8181063668312735
 40
0.8776354031048581
 40
0.9129084789697941
 40
0.9450780863863817
 40
0.974124755864231
 40
1.0
 40
1.0
 40
1.0
 40
1.0
 10
435.881755910417
 20
255.3977936967708
 30
0.0
 10
435.8813925817374
 20
255.3988295390176
 30
0.0
 10
435.8806820315156
 20
255.4008553024091
 30
0.0
 10
435.8755894147285
 20
255.4182186811614
 30
0.0
 10
435.8666746894922
 20
255.4480967502165
 30
0.0
 10
435.8514323912785
 20
255.4950197966558
 30
0.0
 10
435.8273158766441
 20
255.5611458904913
 30
0.0
 10
435.7968584470002
 20
255.6461837397181
 30
0.0
 10
435.7618968241584
 20
255.74303285886
 30
0.0
 10
435.7213201821091
 20
255.9286467636348
 30
0.0
 10
435.6864279065767
 20
256.3471269389545
 30
0.0
 10
435.6749826129555
 20
257.1558523315069
 30
0.0
 10
435.6753427736454
 20
258.1743617267307
 30
0.0
 10
435.6781233304834
 20
259.2656152269506
 30
0.0
 10
435.6877454291464
 20
260.6782817240684
 30
0.0
 10
435.6896040103071
 20
262.3764840432053
 30
0.0
 10
435.7029715485001
 20
264.0826068418336
 30
0.0
 10
435.7112570983108
 20
265.4099328217609
 30
0.0
 10
435.7245488434739
 20
266.4215494831692
 30
0.0
 10
435.7359813966095
 20
267.335580250002
 30
0.0
 10
435.7369353876442
 20
267.9120508769237
 30
0.0
 10
435.7373848394075
 20
268.1836422550689
 30
0.0
  0
SPLINE
  5
134
330
1F
100
AcDbEntity
  8
0
  6
Continuous
 62
     8
370
    18
100
AcDbSpline
210
0.0
220
0.0
230
1.0
 70
     8
 71
     3
 72
    30
 73
    26
 74
     0
 42
0.00000001
 43
0.00000001
 40
0.0
 40
0.0
 40
0.0
 40
0.0
 40
0.0313109823712302
 40
0.0620496668015783
 40
0.0726767192119586
 40
0.0866136027670688
 40
0.1038675513182857
 40
0.1244546759528475
 40
0.1716984787393389
 40
0.2136039795852421
 40
0.2503219221306907
 40
0.298495802937976
 40
0.3410136766690195
 40
0.377681052191425
 40
0.4182498330948263
 40
0.460530392752091
 40
0.504087169067057
 40
0.5435191090468233
 40
0.5983723229033797
 40
0.6681425018240303
 40
0.7524045551416323
 40
0.8134572279217979
 40
0.8748439574646069
 40
0.936902982926762
 40
1.0
 40
1.0
 40
1.0
 40
1.0
 10
437.3555830512238
 20
268.2028111882486
 30
0.0
 10
437.354984691385
 20
267.8857402858789
 30
0.0
 10
437.3537989084482
 20
267.2573938606135
 30
0.0
 10
437.3474253490081
 20
266.5212509406215
 30
0.0
 10
437.3429036101282
 20
265.9612376957855
 30
0.0
 10
437.3408067896623
 20
265.5383003726529
 30
0.0
 10
437.3385111602128
 20
265.0154923646352
 30
0.0
 10
437.3348871815123
 20
264.1587603077891
 30
0.0
 10
437.3304804644648
 20
263.0612682986989
 30
0.0
 10
437.3267813013636
 20
261.8328783439287
 30
0.0
 10
437.3243663808579
 20
260.6463891097618
 30
0.0
 10
437.3243448799534
 20
259.5395190310161
 30
0.0
 10
437.3263223341987
 20
258.5791606405261
 30
0.0
 10
437.3301932126905
 20
257.8241117388715
 30
0.0
 10
437.3426165235466
 20
257.2674199343971
 30
0.0
 10
437.3616713430143
 20
256.8650084445497
 30
0.0
 10
437.3857983823522
 20
256.6101233805759
 30
0.0
 10
437.421879455556
 20
256.4581058141667
 30
0.0
 10
437.4623899625168
 20
256.332428952916
 30
0.0
 10
437.5052365715355
 20
256.2172281446249
 30
0.0
 10
437.5367765024243
 20
256.1288139116068
 30
0.0
 10
437.5569897176113
 20
256.0645254865007
 30
0.0
 10
437.5694222513368
 20
256.0255476680799
 30
0.0
 10
437.5771951021367
 20
256.0015243635025
 30
0.0
 10
437.5783331493389
 20
255.998865970961
 30
0.0
 10
437.5789068921826
 20
255.9975257508951
 30
0.0
  0
LWPOLYLINE
  5
135
330
1F
100
AcDbEntity
  8
0
  6
Continuous
 62
     8
370
    18
100
AcDbPolyline
 90
        9
 70
   128
 43
0.0
 10
405.5886424326
 20
346.7424143018
 10
405.5691401689
 20
346.7430405348
 10
405.5503848947
 20
346.7450084449
 10
405.5330967959
 20
346.748242466
 10
405.5179397204
 20
346.7526184146
 10
405.5054956865
 20
346.7579682581
 10
405.4962425341
 20
346.7640865672
 10
405.4905355762
 20
346.7707384042
 10
405.4885939548
 20
346.7776683445
  0
ARC
  5
136
330
1F
100
AcDbEntity
  8
0
  6
Continuous
 62
     8
370
    18
100
AcDbCircle
 10
406.4009093349
 20
356.0443266368
 30
0.0
 40
0.3883910128848467
100
AcDbArc
 50
248.676952965
 51
263.6649944345
  0
SPLINE
  5
137
330
1F
100
AcDbEntity
  8
0
  6
Continuous
 62
     8
370
    18
100
AcDbSpline
210
0.0
220
0.0
230
1.0
 70
     8
 71
     3
 72
    10
 73
     6
 74
     0
 42
0.00000001
 43
0.00000001
 40
0.0
 40
0.0
 40
0.0
 40
0.0
 40
0.5
 40
0.5
 40
1.0
 40
1.0
 40
1.0
 40
1.0
 10
409.5227482399152
 20
369.5856720532485
 30
0.0
 10
409.4974655122192
 20
369.5926463709848
 30
0.0
 10
409.4723476749732
 20
369.5997208104134
 30
0.0
 10
409.4366631030023
 20
369.6100342345897
 30
0.0
 10
409.4263175009196
 20
369.6132086454881
 30
0.0
 10
409.426395047821
 20
369.613487588281
 30
0.0
  0
SPLINE
  5
138
330
1F
100
AcDbEntity
  8
0
  6
Continuous
 62
     8
370
    18
100
AcDbSpline
210
0.0
220
0.0
230
1.0
 70
     8
 71
     3
 72
    12
 73
     8
 74
     0
 42
0.00000001
 43
0.00000001
 40
0.0
 40
0.0
 40
0.0
 40
0.0
 40
0.5
 40
0.5
 40
0.75
 40
0.75
 40
1.0
 40
1.0
 40
1.0
 40
1.0
 10
410.3258527746268
 20
372.4511691349048
 30
0.0
 10
410.2716353944871
 20
372.2601868686679
 30
0.0
 10
410.2005004999421
 20
372.0081981556155
 30
0.0
 10
410.0840020570184
 20
371.5906466684794
 30
0.0
 10
410.0434252971876
 20
371.4445039467267
 30
0.0
 10
409.9594824433866
 20
371.1404080341227
 30
0.0
 10
409.9166469257941
 20
370.9843552084571
 30
0.0
 10
409.8747110170744
 20
370.8306977710847
 30
0.0
  0
ARC
  5
139
330
1F
100
AcDbEntity
  8
0
  6
Continuous
 62
     8
370
    18
100
AcDbCircle
 10
410.4253473538
 20
372.8381411732
 30
0.0
 40
2.081593043544098
100
AcDbArc
 50
251.8989620057
 51
254.6611826611
  0
ARC
  5
13A
330
1F
100
AcDbEntity
  8
0
  6
Continuous
 62
     8
370
    18
100
AcDbCircle
 10
410.3088361055
 20
372.3677711147
 30
0.0
 40
0.0850676236367996
100
AcDbArc
 50
78.4699307271
 51
157.4643307582
  0
SPLINE
  5
13B
330
1F
100
AcDbEntity
  8
0
  6
Continuous
 62
     8
370
    18
100
AcDbSpline
210
0.0
220
0.0
230
1.0
 70
     8
 71
     3
 72
     8
 73
     4
 74
     0
 42
0.00000001
 43
0.00000001
 40
0.0
 40
0.0
 40
0.0
 40
0.0
 40
0.0012942325988752
 40
0.0012942325988752
 40
0.0012942325988752
 40
0.0012942325988752
 10
409.8747090193059
 20
370.8306912110448
 30
0.0
 10
409.7555599727621
 20
370.4160929413919
 30
0.0
 10
409.638197415508
 20
370.000979251783
 30
0.0
 10
409.5226439222389
 20
369.5853703097106
 30
0.0
  0
SPLINE
  5
13C
330
1F
100
AcDbEntity
  8
0
  6
Continuous
 62
     8
370
    18
100
AcDbSpline
210
0.0
220
0.0
230
1.0
 70
     8
 71
     3
 72
    26
 73
    22
 74
     0
 42
0.00000001
 43
0.00000001
 40
0.0
 40
0.0
 40
0.0
 40
0.0
 40
0.03914419197429
 40
0.0732308129565434
 40
0.102273328539785
 40
0.1262943028075479
 40
0.1695046640848687
 40
0.2115003967988082
 40
0.2525253847940804
 40
0.3167201024980931
 40
0.3795005359922218
 40
0.4416524690316921
 40
0.5039841765578746
 40
0.5886244310776734
 40
0.6702625335768088
 40
0.7509854445003352
 40
0.7892628442480634
 40
0.8303746429577263
 40
0.874547560997141
 40
0.9308374889163527
 40
1.0
 40
1.0
 40
1.0
 40
1.0
 10
435.6714592915816
 20
360.6013979124223
 30
0.0
 10
435.6709070615564
 20
360.81679159719
 30
0.0
 10
435.66987395162
 20
361.2197493246506
 30
0.0
 10
435.6570519572172
 20
361.7823975366656
 30
0.0
 10
435.6360847036058
 20
362.2615370899632
 30
0.0
 10
435.5950450724862
 20
362.7898101095976
 30
0.0
 10
435.5120469495911
 20
363.3856659072533
 30
0.0
 10
435.3674950851126
 20
364.0657322466127
 30
0.0
 10
435.1348253280573
 20
364.8424439724103
 30
0.0
 10
434.7883347529294
 20
365.70156943795
 30
0.0
 10
434.2964728899159
 20
366.6209943351841
 30
0.0
 10
433.7084784204415
 20
367.4701623303574
 30
0.0
 10
432.9466439620207
 20
368.3354414426515
 30
0.0
 10
432.0005877789118
 20
369.1721166486151
 30
0.0
 10
430.8504730623217
 20
369.9066394306481
 30
0.0
 10
429.8309151615033
 20
370.345158757019
 30
0.0
 10
428.9826267010771
 20
370.5865485223355
 30
0.0
 10
428.3147775893958
 20
370.7179990629531
 30
0.0
 10
427.5414043094451
 20
370.8162535771476
 30
0.0
 10
426.608992872416
 20
370.8725125549879
 30
0.0
 10
425.9185877297718
 20
370.8784533983056
 30
0.0
 10
425.5379641746629
 20
370.8817286127619
 30
0.0
  0
SPLINE
  5
13D
330
1F
100
AcDbEntity
  8
0
  6
Continuous
 62
     8
370
    18
100
AcDbSpline
210
0.0
220
0.0
230
1.0
 70
     8
 71
     3
 72
    29
 73
    25
 74
     0
 42
0.00000001
 43
0.00000001
 40
0.0
 40
0.0
 40
0.0
 40
0.0
 40
0.005962070429139
 40
0.0118102353772892
 40
0.0175600692626479
 40
0.0232234217182616
 40
0.0288096616575176
 40
0.0450301782291691
 40
0.0559346821325066
 40
0.0614533437992563
 40
0.0721457404524013
 40
0.0838345110900141
 40
0.0965214632099504
 40
0.1102052133404337
 40
0.1248819809221028
 40
0.153049938925993
 40
0.1947668561293643
 40
0.2500329260765891
 40
0.3749979578860995
 40
0.4999775972229069
 40
0.6170347113343481
 40
0.7393882123413161
 40
0.8670502679630717
 40
1.0
 40
1.0
 40
1.0
 40
1.0
 10
435.6256651551216
 20
310.4157425138543
 30
0.0
 10
435.6251915269343
 20
310.5154630798858
 30
0.0
 10
435.6242533192361
 20
310.7129990484368
 30
0.0
 10
435.6205488768745
 20
311.0061808461227
 30
0.0
 10
435.6171482850665
 20
311.2939328486336
 30
0.0
 10
435.6149263544397
 20
311.5769758418627
 30
0.0
 10
435.6164816952909
 20
312.0339383198886
 30
0.0
 10
435.6237004192994
 20
312.5783766351795
 30
0.0
 10
435.6377333593019
 20
313.1228005625452
 30
0.0
 10
435.6505334084393
 20
313.5753024873666
 30
0.0
 10
435.6565797582945
 20
314.0413964179207
 30
0.0
 10
435.6650734978832
 20
314.6274356942852
 30
0.0
 10
435.6721616897791
 20
315.2637385677398
 30
0.0
 10
435.678517482962
 20
315.9501608286976
 30
0.0
 10
435.6847722392731
 20
316.8956217025573
 30
0.0
 10
435.6882823675038
 20
318.3101442110142
 30
0.0
 10
435.6921726037918
 20
320.4037834192523
 30
0.0
 10
435.6956600848916
 20
324.1168564117191
 30
0.0
 10
435.7001551318215
 20
329.2229311520168
 30
0.0
 10
435.7100524055371
 20
335.3627121349478
 30
0.0
 10
435.7173129181417
 20
341.4590270247666
 30
0.0
 10
435.7119997403246
 20
347.60045687804
 30
0.0
 10
435.7008003685177
 20
354.0080186502574
 30
0.0
 10
435.6843741882213
 20
358.3685053070544
 30
0.0
 10
435.675994458784
 20
360.5929846285002
 30
0.0
  0
SPLINE
  5
13E
330
1F
100
AcDbEntity
  8
0
  6
Continuous
 62
     8
370
    18
100
AcDbSpline
210
0.0
220
0.0
230
1.0
 70
     8
 71
     3
 72
    10
 73
     6
 74
     0
 42
0.00000001
 43
0.00000001
 40
0.0
 40
0.0
 40
0.0
 40
0.0
 40
0.5
 40
0.5
 40
1.0
 40
1.0
 40
1.0
 40
1.0
 10
425.5302604521614
 20
370.8806123691437
 30
0.0
 10
422.919123913689
 20
370.8713185736968
 30
0.0
 10
420.3092390242618
 20
370.8626736949933
 30
0.0
 10
415.0915785455243
 20
370.8464774285443
 30
0.0
 10
412.4850566475719
 20
370.8395760132739
 30
0.0
 10
409.8747090189632
 20
370.8306912110437
 30
0.0
  0
SPLINE
  5
13F
330
1F
100
AcDbEntity
  8
0
  6
Continuous
 62
     8
370
    18
100
AcDbSpline
210
0.0
220
0.0
230
1.0
 70
     8
 71
     3
 72
    20
 73
    16
 74
     0
 42
0.00000001
 43
0.00000001
 40
0.0
 40
0.0
 40
0.0
 40
0.0
 40
0.2500000000000013
 40
0.2500000000000013
 40
0.5000000000000027
 40
0.5000000000000027
 40
0.6250000000000033
 40
0.6250000000000033
 40
0.750000000000004
 40
0.750000000000004
 40
0.8125000000000043
 40
0.8125000000000043
 40
0.8750000000000047
 40
0.8750000000000047
 40
1.0
 40
1.0
 40
1.0
 40
1.0
 10
410.3258462320638
 20
372.4511220866975
 30
0.0
 10
411.5892429796496
 20
372.4545859538169
 30
0.0
 10
412.853904436266
 20
372.4581620248982
 30
0.0
 10
415.3931120785105
 20
372.4662054614933
 30
0.0
 10
416.6715842279405
 20
372.4710306621792
 30
0.0
 10
418.5777195037285
 20
372.4772104422195
 30
0.0
 10
419.210716065959
 20
372.4790524802243
 30
0.0
 10
420.4662259626127
 20
372.481778658005
 30
0.0
 10
421.0853914848252
 20
372.4823454099935
 30
0.0
 10
422.0278661251338
 20
372.4845385428343
 30
0.0
 10
422.3445810973773
 20
372.4855191514837
 30
0.0
 10
422.9885001783208
 20
372.4884952447631
 30
0.0
 10
423.3164931119449
 20
372.490577054697
 30
0.0
 10
424.2977626603417
 20
372.4962613965827
 30
0.0
 10
424.9471924783119
 20
372.4990754561385
 30
0.0
 10
425.5393689675984
 20
372.4954212258348
 30
0.0
  0
SPLINE
  5
140
330
1F
100
AcDbEntity
  8
0
  6
Continuous
 62
     8
370
    18
100
AcDbSpline
210
0.0
220
0.0
230
1.0
 70
     8
 71
     3
 72
    30
 73
    26
 74
     0
 42
0.00000001
 43
0.00000001
 40
0.0
 40
0.0
 40
0.0
 40
0.0
 40
0.0275919290117157
 40
0.0567410204379699
 40
0.1176473710991001
 40
0.1639021923118848
 40
0.2454238878778169
 40
0.2920976431417693
 40
0.3411059356193396
 40
0.3925036785832575
 40
0.4463543630583054
 40
0.5028310409935105
 40
0.5467899835261891
 40
0.587998700307204
 40
0.6259015420200966
 40
0.6601157559136207
 40
0.6904062957287954
 40
0.7166784119151604
 40
0.7389689466227434
 40
0.7574389479853331
 40
0.7945151741636238
 40
0.8373289821725846
 40
0.8858738073382311
 40
0.9401219360275757
 40
1.0
 40
1.0
 40
1.0
 40
1.0
 10
425.5396914194103
 20
372.4962901346441
 30
0.0
 10
425.7137561884692
 20
372.4963248651336
 30
0.0
 10
426.0717091469052
 20
372.4963962861428
 30
0.0
 10
426.8137945747766
 20
372.4850800247387
 30
0.0
 10
427.673114128242
 20
372.4352943823683
 30
0.0
 10
428.8542066070307
 20
372.2831322131733
 30
0.0
 10
429.9285581851526
 20
372.0200599694733
 30
0.0
 10
430.9688675892767
 20
371.6070560892252
 30
0.0
 10
431.7970861554427
 20
371.1859809280199
 30
0.0
 10
432.6189364404697
 20
370.6630676091051
 30
0.0
 10
433.4261577611213
 20
370.0363126626407
 30
0.0
 10
434.1169636111042
 20
369.3494258452362
 30
0.0
 10
434.7097642775522
 20
368.6809366619329
 30
0.0
 10
435.1656112867852
 20
368.052188836363
 30
0.0
 10
435.5449584859988
 20
367.4468095552292
 30
0.0
 10
435.8538113874022
 20
366.8798709156567
 30
0.0
 10
436.0959954176475
 20
366.3613971190778
 30
0.0
 10
436.2799934877953
 20
365.8997806237809
 30
0.0
 10
436.4226353861906
 20
365.5022398504359
 30
0.0
 10
436.5761854112544
 20
365.0363963098281
 30
0.0
 10
436.7401394828443
 20
364.4379352895749
 30
0.0
 10
436.8955707991075
 20
363.6425478800906
 30
0.0
 10
437.0052423079768
 20
362.7301549683808
 30
0.0
 10
437.0518375508246
 20
361.7046135115891
 30
0.0
 10
437.0468732946842
 20
360.9847973348452
 30
0.0
 10
437.0442687212744
 20
360.6071346960223
 30
0.0
  0
SPLINE
  5
141
330
1F
100
AcDbEntity
  8
0
  6
Continuous
 62
     8
370
    18
100
AcDbSpline
210
0.0
220
0.0
230
1.0
 70
     8
 71
     3
 72
    32
 73
    28
 74
     0
 42
0.00000001
 43
0.00000001
 40
0.0
 40
0.0
 40
0.0
 40
0.0
 40
0.0498523964761496
 40
0.0979546309430492
 40
0.1441687371123057
 40
0.1884414663644095
 40
0.2307798481706023
 40
0.2711854212270399
 40
0.3096602419397986
 40
0.3462071781803174
 40
0.3808268579762586
 40
0.4135187934904009
 40
0.4442825427704659
 40
0.473117785576861
 40
0.5000243224992711
 40
0.6250263773527521
 40
0.7500292631305913
 40
0.8125512954294198
 40
0.8750731673841625
 40
0.9157171967605886
 40
0.9378792209998054
 40
0.9562508699347995
 40
0.9695300257164305
 40
0.9773100910971437
 40
0.9849080694171204
 40
0.992454338608181
 40
1.0
 40
1.0
 40
1.0
 40
1.0
 10
437.0476599926462
 20
360.6158172403221
 30
0.0
 10
437.0463554758059
 20
359.7819088043794
 30
0.0
 10
437.0437922396391
 20
358.1433678543543
 30
0.0
 10
437.0638122429583
 20
355.7318564758048
 30
0.0
 10
437.0790029373877
 20
353.4136791017175
 30
0.0
 10
437.0880412401947
 20
351.191882586455
 30
0.0
 10
437.0947418369269
 20
349.0672442774618
 30
0.0
 10
437.0995068190404
 20
347.0395874142338
 30
0.0
 10
437.1034181839488
 20
345.1088080326702
 30
0.0
 10
437.1076803007381
 20
343.2748145290558
 30
0.0
 10
437.1122979129927
 20
341.5375562084367
 30
0.0
 10
437.1170142348271
 20
339.8970371192858
 30
0.0
 10
437.1216724652231
 20
338.3532772420848
 30
0.0
 10
437.1261455548894
 20
336.9062919919826
 30
0.0
 10
437.1355698596967
 20
333.8829756435259
 30
0.0
 10
437.1498110758702
 20
329.2510753079375
 30
0.0
 10
437.1654270903969
 20
324.023474354077
 30
0.0
 10
437.1778499555985
 20
319.841007162387
 30
0.0
 10
437.1860343724594
 20
317.0696007725275
 30
0.0
 10
437.1924236051288
 20
314.9733153309348
 30
0.0
 10
437.1967656181772
 20
313.6155277686133
 30
0.0
 10
437.2011073108329
 20
312.7156299496665
 30
0.0
 10
437.206657625406
 20
312.0567281410168
 30
0.0
 10
437.2129033754393
 20
311.5787207259579
 30
0.0
 10
437.2187571180628
 20
311.1968261950839
 30
0.0
 10
437.2239712869444
 20
310.8184078848041
 30
0.0
 10
437.2252298249852
 20
310.5660039912062
 30
0.0
 10
437.2258590686629
 20
310.4398071269543
 30
0.0
  0
SPLINE
  5
142
330
1F
100
AcDbEntity
  8
0
  6
Continuous
 62
     8
370
    18
100
AcDbSpline
210
0.0
220
0.0
230
1.0
 70
     8
 71
     3
 72
     8
 73
     4
 74
     0
 42
0.00000001
 43
0.00000001
 40
0.0
 40
0.0
 40
0.0
 40
0.0
 40
0.0156494897640154
 40
0.0156494897640154
 40
0.0156494897640154
 40
0.0156494897640154
 10
425.7821486533088
 20
380.8720397391062
 30
0.0
 10
425.7821562649348
 20
380.8720860763295
 30
0.0
 10
425.7820087257597
 20
380.8713717969355
 30
0.0
 10
425.7817138398867
 20
380.8698976536951
 30
0.0
  0
LINE
  5
143
330
1F
100
AcDbEntity
  8
0
  6
Continuous
 62
     8
370
    25
100
AcDbLine
 10
439.0455213909
 20
360.6133886581
 30
0.0
 11
439.0287125873
 21
365.9922058045
 31
0.0
  0
SPLINE
  5
144
330
1F
100
AcDbEntity
  8
0
  6
Continuous
 62
     8
370
    18
100
AcDbSpline
210
0.0
220
0.0
230
1.0
 70
     8
 71
     3
 72
    25
 73
    21
 74
     0
 42
0.00000001
 43
0.00000001
 40
0.0
 40
0.0
 40
0.0
 40
0.0
 40
0.015625
 40
0.015625
 40
0.03125
 40
0.0625000000000001
 40
0.0625000000000001
 40
0.1250000000000002
 40
0.1250000000000002
 40
0.2500000000000006
 40
0.2500000000000006
 40
0.3750000000000009
 40
0.3750000000000009
 40
0.4375000000000011
 40
0.4375000000000011
 40
0.5000000000000012
 40
0.5000000000000012
 40
0.7500000000000007
 40
0.7500000000000007
 40
1.0
 40
1.0
 40
1.0
 40
1.0
 10
413.0950379153324
 20
380.831795312622
 30
0.0
 10
413.0950366919575
 20
380.831792394291
 30
0.0
 10
413.0947700735319
 20
380.8310587486818
 30
0.0
 10
413.0937087956982
 20
380.8281379437946
 30
0.0
 10
413.0913248748338
 20
380.8215762289051
 30
0.0
 10
413.0865778095283
 20
380.8085062812027
 30
0.0
 10
413.073966509832
 20
380.7737666570378
 30
0.0
 10
413.0614029551312
 20
380.7391442584424
 30
0.0
 10
413.0115060791112
 20
380.6013769758743
 30
0.0
 10
412.961969425849
 20
380.4643877859299
 30
0.0
 10
412.8316742778887
 20
380.101348190449
 30
0.0
 10
412.7509154047642
 20
379.8752986477991
 30
0.0
 10
412.6072859739647
 20
379.4689988009556
 30
0.0
 10
412.5556603267848
 20
379.3223471645563
 30
0.0
 10
412.4450575458353
 20
379.0063592573897
 30
0.0
 10
412.3859348302294
 20
378.8366015593259
 30
0.0
 10
412.0741803235458
 20
377.9356173701255
 30
0.0
 10
411.7750032804479
 20
377.0538593102519
 30
0.0
 10
411.1015604300394
 20
374.9845863841232
 30
0.0
 10
410.7271876947851
 20
373.7969967901535
 30
0.0
 10
410.3258396074339
 20
372.4511220685347
 30
0.0
  0
SPLINE
  5
145
330
1F
100
AcDbEntity
  8
0
  6
Continuous
 62
     8
370
    18
100
AcDbSpline
210
0.0
220
0.0
230
1.0
 70
     8
 71
     3
 72
    15
 73
    11
 74
     0
 42
0.00000001
 43
0.00000001
 40
0.0
 40
0.0
 40
0.0
 40
0.0
 40
0.0619871899620005
 40
0.1372724095793194
 40
0.225551644960454
 40
0.3265386537088988
 40
0.449249687311636
 40
0.571432854263923
 40
0.7864888531423774
 40
1.0
 40
1.0
 40
1.0
 40
1.0
 10
435.7371633038679
 20
268.1836415627704
 30
0.0
 10
435.7370311916068
 20
269.056187454711
 30
0.0
 10
435.7367386252164
 20
270.9884653516224
 30
0.0
 10
435.7306486103527
 20
274.1635000183651
 30
0.0
 10
435.721796449795
 20
277.8875840275823
 30
0.0
 10
435.7069353082858
 20
282.2793558615558
 30
0.0
 10
435.689496799244
 20
287.1484432072103
 30
0.0
 10
435.670221861447
 20
293.6233510230122
 30
0.0
 10
435.6489700131238
 20
301.3765753308827
 30
0.0
 10
435.6325139279858
 20
307.4098946528032
 30
0.0
 10
435.6243155449657
 20
310.4156801886241
 30
0.0
  0
SPLINE
  5
146
330
1F
100
AcDbEntity
  8
0
  6
Continuous
 62
     8
370
    18
100
AcDbSpline
210
0.0
220
0.0
230
1.0
 70
     8
 71
     3
 72
    15
 73
    11
 74
     0
 42
0.00000001
 43
0.00000001
 40
0.0
 40
0.0
 40
0.0
 40
0.0
 40
0.154302245670386
 40
0.3002553997914293
 40
0.4378590254948138
 40
0.5671130847783832
 40
0.6880326011345456
 40
0.8006732305392653
 40
0.904679070322982
 40
1.0
 40
1.0
 40
1.0
 40
1.0
 10
437.2255450714452
 20
310.4370343809304
 30
0.0
 10
437.2324154519192
 20
308.2646734156264
 30
0.0
 10
437.2457844656169
 20
304.037495079402
 30
0.0
 10
437.2654628610206
 20
297.8731391255256
 30
0.0
 10
437.2843380885738
 20
292.0614836724642
 30
0.0
 10
437.3023351955346
 20
286.602321145203
 30
0.0
 10
437.3199587027812
 20
281.4946476252211
 30
0.0
 10
437.3354298205121
 20
276.7424776713265
 30
0.0
 10
437.3534330485088
 20
272.3507878330543
 30
0.0
 10
437.3548569406078
 20
269.5447165627298
 30
0.0
 10
437.3555378663009
 20
268.2028128989572
 30
0.0
  0
LINE
  5
147
330
1F
100
AcDbEntity
  8
0
  6
Continuous
 62
     8
370
    18
100
AcDbLine
 10
398.4842468012
 20
380.3958944564
 30
0.0
 11
398.4842468012
 21
331.3958944564
 31
0.0
  0
SPLINE
  5
148
330
1F
100
AcDbEntity
  8
0
  6
Continuous
 62
     8
370
    18
100
AcDbSpline
210
0.0
220
0.0
230
1.0
 70
    24
 71
     3
 72
    11
 73
     7
 74
     0
 42
0.00000001
 43
0.00000001
 40
0.0
 40
0.0
 40
0.0
 40
0.0
 40
0.0199491404554058
 40
0.3981530875352949
 40
0.7242414804286693
 40
1.0
 40
1.0
 40
1.0
 40
1.0
 10
431.0377819332649
 20
268.1689559959873
 30
0.0
 10
431.0376387057153
 20
268.1689555484012
 30
0.0
 10
431.0347801118207
 20
268.1689466152952
 30
0.0
 10
431.0700861887892
 20
268.1690569467858
 30
0.0
 10
431.2253128219737
 20
268.1695420300145
 30
0.0
 10
431.6855958128652
 20
268.170980414361
 30
0.0
 10
431.8964915631356
 20
268.1716394635806
 30
0.0
  0
LINE
  5
149
330
1F
100
AcDbEntity
  8
0
  6
Continuous
 62
     8
370
    18
100
AcDbLine
 10
410.7600238308
 20
329.8742994478
 30
0.0
 11
418.0051506957
 21
329.8969404692
 31
0.0
  0
SPLINE
  5
14A
330
1F
100
AcDbEntity
  8
0
  6
Continuous
 62
     8
370
    18
100
AcDbSpline
210
0.0
220
0.0
230
1.0
 70
     8
 71
     3
 72
     8
 73
     4
 74
     0
 42
0.00000001
 43
0.00000001
 40
0.0
 40
0.0
 40
0.0
 40
0.0
 40
1.0
 40
1.0
 40
1.0
 40
1.0
 10
425.7821393824292
 20
380.8744370499306
 30
0.0
 10
425.7819923163501
 20
380.8744089124548
 30
0.0
 10
425.78184770748
 20
380.8736085669861
 30
0.0
 10
425.7817055568682
 20
380.8720380204467
 30
0.0
  0
ARC
  5
14B
330
1F
100
AcDbEntity
  8
0
  6
Continuous
 62
     7
370
    25
100
AcDbCircle
 10
189.0661264823
 20
7174.4653184162
 30
0.0
 40
7000.0
100
AcDbArc
 50
269.4035579427
 51
269.8422045339
  0
ARC
  5
14C
330
1F
100
AcDbEntity
  8
0
  6
Continuous
 62
     7
370
    25
100
AcDbCircle
 10
189.0661264823
 20
7174.4653184162
 30
0.0
 40
7000.000000000001
100
AcDbArc
 50
270.1581695419
 51
270.5964431886
  0
ARC
  5
14D
330
1F
100
AcDbEntity
  8
0
  6
Continuous
 62
     7
370
    25
100
AcDbCircle
 10
261.9184263514
 20
176.3445140571
 30
0.0
 40
1.5
100
AcDbArc
 50
270.6099342097
 51
358.4898882191
  0
ARC
  5
14E
330
1F
100
AcDbEntity
  8
0
  6
Continuous
 62
     7
370
    25
100
AcDbCircle
 10
116.2138266131
 20
176.3445140571
 30
0.0
 40
1.500000000000015
100
AcDbArc
 50
181.5235157126
 51
269.4065979697
  0
LINE
  5
14F
330
1F
100
AcDbEntity
  8
0
  6
Continuous
 62
     7
370
    25
100
AcDbLine
 10
114.5661264822
 20
181.9653184162
 30
0.0
 11
114.7143398752
 21
176.3052772893
 31
0.0
  0
LINE
  5
150
330
1F
100
AcDbEntity
  8
0
  6
Continuous
 62
     7
370
    25
100
AcDbLine
 10
263.4179130892
 20
176.3052772893
 30
0.0
 11
263.5661264822
 21
181.9653184162
 31
0.0
  0
SPLINE
  5
151
330
1F
100
AcDbEntity
  8
0
  6
Continuous
 62
     7
370
    25
100
AcDbSpline
210
0.0
220
0.0
230
1.0
 70
     8
 71
     3
 72
    22
 73
    18
 74
     0
 42
0.00000001
 43
0.00000001
 40
0.0
 40
0.0
 40
0.0
 40
0.0
 40
0.125177259809535
 40
0.2647054999846558
 40
0.4012565779253356
 40
0.5415635536770793
 40
0.6188967430600079
 40
0.7038297276340186
 40
0.7897408250369159
 40
0.8277797814581132
 40
0.860373474096543
 40
0.8875605006423914
 40
0.9001064901275826
 40
0.9128784114372288
 40
0.9413141304314068
 40
0.9753626322575731
 40
1.0
 40
1.0
 40
1.0
 40
1.0
 10
164.8672299996291
 20
106.4079521518019
 30
0.0
 10
165.9035808784013
 20
106.2310856045198
 30
0.0
 10
168.0950953590853
 20
105.8570755974297
 30
0.0
 10
171.3994367159658
 20
105.4088066741595
 30
0.0
 10
174.806947337422
 20
105.0476462925839
 30
0.0
 10
177.6753762558585
 20
104.8274224060855
 30
0.0
 10
180.1202193659521
 20
104.6829444465323
 30
0.0
 10
182.1203956558456
 20
104.5878914946271
 30
0.0
 10
183.821869790112
 20
104.5235470058948
 30
0.0
 10
185.1426684460388
 20
104.4829021000838
 30
0.0
 10
185.9851002539619
 20
104.4608762101731
 30
0.0
 10
186.6079865409003
 20
104.4472977691517
 30
0.0
 10
186.9789047028266
 20
104.4398616921339
 30
0.0
 10
187.2754548902656
 20
104.4339786217127
 30
0.0
 10
187.506062084841
 20
104.4289145847002
 30
0.0
 10
187.6262202842271
 20
104.4250613443701
 30
0.0
 10
187.5934420701952
 20
104.4237187917106
 30
0.0
 10
187.5796811952354
 20
104.423155164319
 30
0.0
  0
SPLINE
  5
152
330
1F
100
AcDbEntity
  8
0
  6
Continuous
 62
     7
370
    25
100
AcDbSpline
210
0.0
220
0.0
230
1.0
 70
     8
 71
     3
 72
    21
 73
    17
 74
     0
 42
0.00000001
 43
0.00000001
 40
0.0
 40
0.0
 40
0.0
 40
0.0
 40
0.0246423535318773
 40
0.0586928051582087
 40
0.0871301278680825
 40
0.0999028290267304
 40
0.112449679797156
 40
0.1396388186263045
 40
0.1722350804883568
 40
0.2102769132201303
 40
0.296194005641812
 40
0.3811323618121933
 40
0.458470378254518
 40
0.6439293587565388
 40
0.8281297000675233
 40
0.9999999999999999
 40
0.9999999999999999
 40
0.9999999999999999
 40
0.9999999999999999
 10
190.5525964866119
 20
104.4231552059091
 30
0.0
 10
190.5388344820272
 20
104.4237189237912
 30
0.0
 10
190.5060563363591
 20
104.4250615789795
 30
0.0
 10
190.6262266481542
 20
104.4289150929122
 30
0.0
 10
190.8568485418624
 20
104.4339794030275
 30
0.0
 10
191.1534123381411
 20
104.439862814092
 30
0.0
 10
191.524347254454
 20
104.4472993563728
 30
0.0
 10
192.1472506558808
 20
104.4608785829857
 30
0.0
 10
192.9897005220146
 20
104.4829052169229
 30
0.0
 10
194.310523238275
 20
104.5235536348581
 30
0.0
 10
196.0120012306386
 20
104.5878833479278
 30
0.0
 10
198.0122659361054
 20
104.6830062685609
 30
0.0
 10
200.8215443205027
 20
104.8487136589449
 30
0.0
 10
204.4460835332228
 20
105.1430187861716
 30
0.0
 10
208.895688104189
 20
105.673156409235
 30
0.0
 10
211.8423979379647
 20
106.1699075538618
 30
0.0
 10
213.2647334081859
 20
106.4096823578744
 30
0.0
  0
LINE
  5
153
330
1F
100
AcDbEntity
  8
0
  6
Continuous
 62
     7
370
    25
100
AcDbLine
 10
213.5661264822
 20
144.9653184162
 30
0.0
 11
213.5661264822
 21
174.5242631962
 31
0.0
  0
LINE
  5
154
330
1F
100
AcDbEntity
  8
0
  6
Continuous
 62
     7
370
    25
100
AcDbLine
 10
164.5661264822
 20
174.5242679964
 30
0.0
 11
164.5661264822
 21
144.9653184162
 31
0.0
  0
ARC
  5
155
330
1F
100
AcDbEntity
  8
0
  6
Continuous
 62
     7
370
    25
100
AcDbCircle
 10
189.0661264822
 20
144.9653184162
 30
0.0
 40
24.50000000000004
100
AcDbArc
 50
180.0
 51
198.6207747378
  0
ARC
  5
156
330
1F
100
AcDbEntity
  8
0
  6
Continuous
 62
     7
370
    25
100
AcDbCircle
 10
189.0661264822
 20
144.9653184162
 30
0.0
 40
24.49999999999998
100
AcDbArc
 50
341.3784823512
 51
0.0
  0
SPLINE
  5
157
330
1F
100
AcDbEntity
  8
0
  6
Continuous
 62
     7
370
    25
100
AcDbSpline
210
0.0
220
0.0
230
1.0
 70
     8
 71
     3
 72
    18
 73
    14
 74
     0
 42
0.00000001
 43
0.00000001
 40
0.0
 40
0.0
 40
0.0
 40
0.0
 40
0.0375572207649879
 40
0.0742399190969502
 40
0.1108266285997876
 40
0.150434973094762
 40
0.2486907129128408
 40
0.3693837257186769
 40
0.4948404793616903
 40
0.6146986163706581
 40
0.7311854372284557
 40
0.8849038194805692
 40
1.0
 40
1.0
 40
1.0
 40
1.0
 10
163.6662589717536
 20
124.6582907314185
 30
0.0
 10
163.6710652680296
 20
124.5785934137893
 30
0.0
 10
163.6805659456468
 20
124.4210545359776
 30
0.0
 10
163.6925967773312
 20
124.0072073475544
 30
0.0
 10
163.7002586393967
 20
123.4477751204692
 30
0.0
 10
163.7034776036538
 20
122.427900139213
 30
0.0
 10
163.6940639518616
 20
120.8011672154534
 30
0.0
 10
163.6832230477455
 20
118.7410740556639
 30
0.0
 10
163.6765214972904
 20
116.639910691876
 30
0.0
 10
163.6700015177352
 20
114.7125138243721
 30
0.0
 10
163.65906102458
 20
112.8248947666099
 30
0.0
 10
163.6406005470163
 20
111.1551384443701
 30
0.0
 10
163.6288558649806
 20
110.1364762060059
 30
0.0
 10
163.6238272384442
 20
109.7003237458629
 30
0.0
  0
SPLINE
  5
158
330
1F
100
AcDbEntity
  8
0
  6
Continuous
 62
     7
370
    25
100
AcDbSpline
210
0.0
220
0.0
230
1.0
 70
     8
 71
     3
 72
     9
 73
     5
 74
     0
 42
0.00000001
 43
0.00000001
 40
0.0
 40
0.0
 40
0.0
 40
0.0
 40
0.9945921426546215
 40
1.0
 40
1.0
 40
1.0
 40
1.0
 10
214.5073033174956
 20
109.6566565616537
 30
0.0
 10
214.5039208524976
 20
109.9432459246031
 30
0.0
 10
214.5005199961537
 20
110.2313935487986
 30
0.0
 10
214.4969833918857
 20
110.5857223107807
 30
0.0
 10
214.4969642664344
 20
110.5876384701789
 30
0.0
  0
SPLINE
  5
159
330
1F
100
AcDbEntity
  8
0
  6
Continuous
 62
     7
370
    25
100
AcDbSpline
210
0.0
220
0.0
230
1.0
 70
     8
 71
     3
 72
    15
 73
    11
 74
     0
 42
0.00000001
 43
0.00000001
 40
0.0
 40
0.0
 40
0.0
 40
0.0
 40
0.1629608995505968
 40
0.3135112690158058
 40
0.4540608787706282
 40
0.5839119890044315
 40
0.7048520848564456
 40
0.8151387305536497
 40
0.914171230024929
 40
1.0
 40
1.0
 40
1.0
 40
1.0
 10
163.5790965281067
 20
117.912588912722
 30
0.0
 10
163.5801092341707
 20
117.0706614472254
 30
0.0
 10
163.5820575221596
 20
115.4509247566757
 30
0.0
 10
163.601645449352
 20
113.1363498161979
 30
0.0
 10
163.6420675501288
 20
111.1911691001564
 30
0.0
 10
163.7188670615744
 20
109.5946809174407
 30
0.0
 10
163.8517691259178
 20
108.3327827916001
 30
0.0
 10
164.0779854505193
 20
107.4061969554464
 30
0.0
 10
164.3902076164774
 20
106.7574821432482
 30
0.0
 10
164.6922083147242
 20
106.5609761605813
 30
0.0
 10
164.8324234530263
 20
106.4697408962365
 30
0.0
  0
SPLINE
  5
15A
330
1F
100
AcDbEntity
  8
0
  6
Continuous
 62
     7
370
    25
100
AcDbSpline
210
0.0
220
0.0
230
1.0
 70
     8
 71
     3
 72
    19
 73
    15
 74
     0
 42
0.00000001
 43
0.00000001
 40
0.0
 40
0.0
 40
0.0
 40
0.0
 40
0.0133246182815714
 40
0.0269707379913604
 40
0.041317587002508
 40
0.0567361429361568
 40
0.0919950769801172
 40
0.1684049697318521
 40
0.2677583063774836
 40
0.3763663403166366
 40
0.5164002872527036
 40
0.6666315671811734
 40
0.8270455251677808
 40
0.9999999999999999
 40
0.9999999999999999
 40
0.9999999999999999
 40
0.9999999999999999
 10
213.2995574618034
 20
106.4688976254137
 30
0.0
 10
213.3662955835108
 20
106.4861890898301
 30
0.0
 10
213.5013821095613
 20
106.5211892336545
 30
0.0
 10
213.6829205173476
 20
106.6113269331019
 30
0.0
 10
213.8422302541393
 20
106.7214279284522
 30
0.0
 10
214.0292523531583
 20
106.8986633825903
 30
0.0
 10
214.2510826102385
 20
107.2392878403151
 30
0.0
 10
214.3642821030706
 20
107.7110623631226
 30
0.0
 10
214.4129331227308
 20
108.3153158893542
 30
0.0
 10
214.4680243461686
 20
109.3411081249854
 30
0.0
 10
214.5071718376887
 20
110.81944814321
 30
0.0
 10
214.5357266789602
 20
112.8166888683313
 30
0.0
 10
214.5508518189426
 20
115.2721457642132
 30
0.0
 10
214.5523679850794
 20
117.0054555345727
 30
0.0
 10
214.5531545854054
 20
117.904711887429
 30
0.0
  0
SPLINE
  5
15B
330
1F
100
AcDbEntity
  8
0
  6
Continuous
 62
     7
370
    25
100
AcDbSpline
210
0.0
220
0.0
230
1.0
 70
     8
 71
     3
 72
    21
 73
    17
 74
     0
 42
0.00000001
 43
0.00000001
 40
0.0
 40
0.0
 40
0.0
 40
0.0
 40
0.1181398792477716
 40
0.2483687684890977
 40
0.3598615016832389
 40
0.4312450404524619
 40
0.4922110167442431
 40
0.5428660290425812
 40
0.5837712122716804
 40
0.6219174007471896
 40
0.6613604651593703
 40
0.7038374853143752
 40
0.7507492215327048
 40
0.8219443815254388
 40
0.9046327230833562
 40
1.0
 40
1.0
 40
1.0
 40
1.0
 10
165.5911313420553
 20
106.2593453384943
 30
0.0
 10
165.8054057165423
 20
106.2227049745526
 30
0.0
 10
166.2558807199785
 20
106.1456749138554
 30
0.0
 10
167.0383019777746
 20
106.0155577795758
 30
0.0
 10
167.8317286671057
 20
105.8865839914269
 30
0.0
 10
168.5716320434896
 20
105.7695049286139
 30
0.0
 10
169.2216663596285
 20
105.6690317549527
 30
0.0
 10
169.8922348138792
 20
105.5684385191126
 30
0.0
 10
170.5656887251594
 20
105.4700668039236
 30
0.0
 10
171.5866471185504
 20
105.3274401540769
 30
0.0
 10
172.9820061347156
 20
105.1455071183884
 30
0.0
 10
174.7517425403762
 20
104.9364135233558
 30
0.0
 10
177.1756968486513
 20
104.6861804200894
 30
0.0
 10
180.3974707685555
 20
104.4241235570943
 30
0.0
 10
184.5089690218884
 20
104.1995669540858
 30
0.0
 10
187.4766337776977
 20
104.1683013689008
 30
0.0
 10
189.0661264822117
 20
104.1515554007262
 30
0.0
  0
SPLINE
  5
15C
330
1F
100
AcDbEntity
  8
0
  6
Continuous
 62
     7
370
    25
100
AcDbSpline
210
0.0
220
0.0
230
1.0
 70
     8
 71
     3
 72
    24
 73
    20
 74
     0
 42
0.00000001
 43
0.00000001
 40
0.0
 40
0.0
 40
0.0
 40
0.0
 40
0.0790140865916812
 40
0.1456993902360009
 40
0.2000792115869293
 40
0.2421643365386657
 40
0.2747083033245651
 40
0.2897256809002991
 40
0.2974980342434828
 40
0.3073158828507883
 40
0.3350830781029717
 40
0.3750997569074513
 40
0.4279478839547416
 40
0.4938698143420559
 40
0.5729896850194826
 40
0.6653790620251588
 40
0.7710840841268052
 40
0.8901366140639532
 40
1.0
 40
1.0
 40
1.0
 40
1.0
 10
189.0661264822117
 20
104.1515554023812
 30
0.0
 10
190.4488612093334
 20
104.1640619467513
 30
0.0
 10
192.9985788013479
 20
104.1871236053402
 30
0.0
 10
196.4977132218476
 20
104.3508895847317
 30
0.0
 10
199.3433494804536
 20
104.5472379167728
 30
0.0
 10
201.5989246632421
 20
104.7481287189541
 30
0.0
 10
203.1427627107282
 20
104.9085160826743
 30
0.0
 10
204.1294606819211
 20
105.020594490005
 30
0.0
 10
204.6482612942705
 20
105.0823436299234
 30
0.0
 10
205.1987338530122
 20
105.1498833046031
 30
0.0
 10
205.8551779298952
 20
105.2342724389831
 30
0.0
 10
206.6074125823392
 20
105.3353532786804
 30
0.0
 10
207.3933585874959
 20
105.4455494551827
 30
0.0
 10
208.2113538866622
 20
105.5646835654113
 30
0.0
 10
209.0600334420937
 20
105.6926849545932
 30
0.0
 10
209.9393376289308
 20
105.8296224845263
 30
0.0
 10
210.8475451271548
 20
105.9754524537432
 30
0.0
 10
211.7319264968246
 20
106.1212398282189
 30
0.0
 10
212.2838886729011
 20
106.2154857648334
 30
0.0
 10
212.5487913265286
 20
106.260717122678
 30
0.0
  0
SPLINE
  5
15D
330
1F
100
AcDbEntity
  8
0
  6
Continuous
 62
     7
370
    25
100
AcDbSpline
210
0.0
220
0.0
230
1.0
 70
     8
 71
     3
 72
     9
 73
     5
 74
     0
 42
0.00000001
 43
0.00000001
 40
0.0
 40
0.0
 40
0.0
 40
0.0
 40
0.9536706755297518
 40
0.9999999999999999
 40
0.9999999999999999
 40
0.9999999999999999
 40
0.9999999999999999
 10
164.5957249134269
 20
106.4840594292458
 30
0.0
 10
164.6734444514038
 20
106.4569658082848
 30
0.0
 10
164.7549396047843
 20
106.4285559791308
 30
0.0
 10
164.83829292474
 20
106.408641260178
 30
0.0
 10
164.8421546277459
 20
106.407718624702
 30
0.0
  0
SPLINE
  5
15E
330
1F
100
AcDbEntity
  8
0
  6
Continuous
 62
     7
370
    25
100
AcDbSpline
210
0.0
220
0.0
230
1.0
 70
     8
 71
     3
 72
     9
 73
     5
 74
     0
 42
0.00000001
 43
0.00000001
 40
0.0
 40
0.0
 40
0.0
 40
0.0
 40
0.0415912545199887
 40
1.0
 40
1.0
 40
1.0
 40
1.0
 10
213.2909131997375
 20
106.4078735425129
 30
0.0
 10
213.2943574029706
 20
106.4086962938969
 30
0.0
 10
213.377168159049
 20
106.4284781300896
 30
0.0
 10
213.4581393717216
 20
106.4567114333038
 30
0.0
 10
213.5357428900792
 20
106.4837704780181
 30
0.0
  0
LINE
  5
15F
330
1F
100
AcDbEntity
  8
0
  6
Continuous
 62
     7
370
    25
100
AcDbLine
 10
261.812473077
 20
181.9653184162
 30
0.0
 11
116.3197798874
 21
181.9653184162
 31
0.0
  0
SPLINE
  5
160
330
1F
100
AcDbEntity
  8
0
  6
Continuous
 62
     7
370
    25
100
AcDbSpline
210
0.0
220
0.0
230
1.0
 70
     8
 71
     3
 72
    21
 73
    17
 74
     0
 42
0.00000001
 43
0.00000001
 40
0.0
 40
0.0
 40
0.0
 40
0.0
 40
0.0705704150357916
 40
0.1431873739604969
 40
0.2137577900069133
 40
0.2863747579410621
 40
0.3569450856391134
 40
0.4295619599419991
 40
0.5001322520055483
 40
0.5727490837290646
 40
0.6433194441063212
 40
0.7159363417868683
 40
0.7865068444863255
 40
0.8591238877533853
 40
0.9296945444089217
 40
1.0
 40
1.0
 40
1.0
 40
1.0
 10
171.7432793685198
 20
174.5613913292272
 30
0.0
 10
172.7497362116878
 20
174.5633494507852
 30
0.0
 10
174.7918371729009
 20
174.5673224794778
 30
0.0
 10
178.3745804949675
 20
174.5717616964267
 30
0.0
 10
182.259404251936
 20
174.5749630122456
 30
0.0
 10
186.3108122796723
 20
174.5766828454688
 30
0.0
 10
190.4751335906144
 20
174.5769290668719
 30
0.0
 10
194.5627254485566
 20
174.5756834334141
 30
0.0
 10
198.5306301549111
 20
174.5729606234411
 30
0.0
 10
202.1952566323625
 20
174.5688862216362
 30
0.0
 10
205.5191294040797
 20
174.563502357889
 30
0.0
 10
208.3470380890093
 20
174.5570582738179
 30
0.0
 10
210.654779965956
 20
174.54962043832
 30
0.0
 10
212.3170646973456
 20
174.5415330915252
 30
0.0
 10
213.374258829034
 20
174.5329728342025
 30
0.0
 10
213.49489369811
 20
174.5271627630556
 30
0.0
 10
213.555097584314
 20
174.5242631962485
 30
0.0
  0
SPLINE
  5
161
330
1F
100
AcDbEntity
  8
0
  6
Continuous
 62
     7
370
    25
100
AcDbSpline
210
0.0
220
0.0
230
1.0
 70
     8
 71
     3
 72
    13
 73
     9
 74
     0
 42
0.00000001
 43
0.00000001
 40
0.0
 40
0.0
 40
0.0
 40
0.0
 40
0.084571538721852
 40
0.3023609797248512
 40
0.5140126150811661
 40
0.73180217349725
 40
0.8651566734073216
 40
1.0
 40
1.0
 40
1.0
 40
1.0
 10
164.6473220415901
 20
174.524267996448
 30
0.0
 10
164.6271423284226
 20
174.5254299100202
 30
0.0
 10
164.5549956235606
 20
174.5295839946138
 30
0.0
 10
165.1586379863956
 20
174.5365968979525
 30
0.0
 10
166.4364203226067
 20
174.5450719588583
 30
0.0
 10
168.1544324327772
 20
174.5519180954874
 30
0.0
 10
169.9717168149216
 20
174.5573560745884
 30
0.0
 10
171.1505771440458
 20
174.5600412756286
 30
0.0
 10
171.7432793685198
 20
174.5613913292272
 30
0.0
  0
LINE
  5
162
330
1F
100
AcDbEntity
  8
0
  6
Continuous
 62
     7
370
    18
100
AcDbLine
 10
114.8307315302
 20
181.9653184162
 30
0.0
 11
114.9691133165
 21
176.6805913658
 31
0.0
  0
LINE
  5
163
330
1F
100
AcDbEntity
  8
0
  6
Continuous
 62
     7
370
    25
100
AcDbLine
 10
116.3197798874
 20
181.9653184162
 30
0.0
 11
114.8307315302
 21
181.9653184162
 31
0.0
  0
LINE
  5
164
330
1F
100
AcDbEntity
  8
0
  6
Continuous
 62
     7
370
    18
100
AcDbLine
 10
263.3015214343
 20
181.9653184162
 30
0.0
 11
263.163139648
 21
176.6805913658
 31
0.0
  0
LINE
  5
165
330
1F
100
AcDbEntity
  8
0
  6
Continuous
 62
     7
370
    25
100
AcDbLine
 10
261.812473077
 20
181.9653184162
 30
0.0
 11
263.3015214343
 21
181.9653184162
 31
0.0
  0
LINE
  5
166
330
1F
100
AcDbEntity
  8
0
  6
Continuous
 62
     7
370
    25
100
AcDbLine
 10
114.8307315302
 20
181.9653184162
 30
0.0
 11
114.5661264822
 21
181.9653184162
 31
0.0
  0
LINE
  5
167
330
1F
100
AcDbEntity
  8
0
  6
Continuous
 62
     7
370
    25
100
AcDbLine
 10
263.3015214343
 20
181.9653184162
 30
0.0
 11
263.5661264822
 21
181.9653184162
 31
0.0
  0
SPLINE
  5
168
330
1F
100
AcDbEntity
  8
0
  6
Continuous
 62
     7
370
    18
100
AcDbSpline
210
0.0
220
0.0
230
1.0
 70
     8
 71
     3
 72
    10
 73
     6
 74
     0
 42
0.00000001
 43
0.00000001
 40
0.0
 40
0.0
 40
0.0
 40
0.0
 40
0.5
 40
0.5
 40
1.0
 40
1.0
 40
1.0
 40
1.0
 10
214.4374422113931
 20
134.0230874253216
 30
0.0
 10
214.4064660680226
 20
134.6615856093335
 30
0.0
 10
214.3704362875485
 20
135.2452031914596
 30
0.0
 10
214.2436194975542
 20
136.3013650148065
 30
0.0
 10
214.1533777436237
 20
136.7735955835019
 30
0.0
 10
213.9953982945261
 20
137.1898849415419
 30
0.0
  0
SPLINE
  5
169
330
1F
100
AcDbEntity
  8
0
  6
Continuous
 62
     7
370
    18
100
AcDbSpline
210
0.0
220
0.0
230
1.0
 70
     8
 71
     3
 72
    10
 73
     6
 74
     0
 42
0.00000001
 43
0.00000001
 40
0.0
 40
0.0
 40
0.0
 40
0.0
 40
0.5
 40
0.5
 40
1.0
 40
1.0
 40
1.0
 40
1.0
 10
164.1368546698973
 20
137.1898849415419
 30
0.0
 10
163.9788909351564
 20
136.7736369921756
 30
0.0
 10
163.88859397249
 20
136.3011304545171
 30
0.0
 10
163.7617954642316
 20
135.2449321233549
 30
0.0
 10
163.725790011994
 20
134.6616336601771
 30
0.0
 10
163.6948147673412
 20
134.0231701695707
 30
0.0
  0
SPLINE
  5
16A
330
1F
100
AcDbEntity
  8
0
  6
Continuous
 62
     7
370
    25
100
AcDbSpline
210
0.0
220
0.0
230
1.0
 70
     8
 71
     3
 72
    62
 73
    58
 74
     0
 42
0.00000001
 43
0.00000001
 40
0.0
 40
0.0
 40
0.0
 40
0.0
 40
0.0624999999999987
 40
0.0624999999999987
 40
0.0937499999999981
 40
0.0937499999999981
 40
0.1249999999999974
 40
0.1249999999999974
 40
0.1874999999999959
 40
0.1874999999999959
 40
0.2031249999999956
 40
0.2031249999999956
 40
0.2187499999999954
 40
0.2187499999999954
 40
0.2499999999999952
 40
0.2499999999999952
 40
0.3124999999999944
 40
0.3124999999999944
 40
0.3281249999999944
 40
0.3281249999999944
 40
0.3437499999999943
 40
0.3437499999999943
 40
0.3749999999999943
 40
0.3749999999999943
 40
0.4062499999999943
 40
0.4062499999999943
 40
0.4374999999999944
 40
0.4374999999999944
 40
0.4999999999999946
 40
0.4999999999999946
 40
0.5312499999999946
 40
0.5312499999999946
 40
0.5624999999999947
 40
0.5624999999999947
 40
0.6249999999999948
 40
0.6249999999999948
 40
0.6562499999999949
 40
0.6562499999999949
 40
0.6718749999999949
 40
0.6718749999999949
 40
0.6874999999999949
 40
0.6874999999999949
 40
0.7499999999999954
 40
0.7499999999999954
 40
0.7656249999999957
 40
0.7656249999999957
 40
0.7812499999999958
 40
0.7812499999999958
 40
0.8124999999999963
 40
0.8124999999999963
 40
0.8749999999999978
 40
0.8749999999999978
 40
0.9062499999999983
 40
0.9062499999999983
 40
0.9374999999999989
 40
0.9374999999999989
 40
1.0
 40
1.0
 40
1.0
 40
1.0
 10
212.2985845283854
 20
137.1898849415419
 30
0.0
 10
212.2257205113762
 20
136.9324149040463
 30
0.0
 10
212.0085901711252
 20
136.6593432233679
 30
0.0
 10
211.4763576606326
 20
136.2299147085923
 30
0.0
 10
211.2642681352261
 20
136.083473126719
 30
0.0
 10
210.7693741095223
 20
135.7846871319454
 30
0.0
 10
210.4853953310232
 20
135.6319398491243
 30
0.0
 10
209.5455018013355
 20
135.1763318673852
 30
0.0
 10
208.7979623827562
 20
134.8728892882253
 30
0.0
 10
207.715206484746
 20
134.5002217374404
 30
0.0
 10
207.4911740230477
 20
134.4260261256223
 30
0.0
 10
207.0279573143499
 20
134.2784960052163
 30
0.0
 10
206.788100106271
 20
134.2049678159394
 30
0.0
 10
206.051346165537
 20
133.9877149342547
 30
0.0
 10
205.5375302986089
 20
133.8473041152223
 30
0.0
 10
203.9304967475384
 20
133.4409957438789
 30
0.0
 10
202.7722633915469
 20
133.1898923687495
 30
0.0
 10
201.2146245369103
 20
132.9078520020435
 30
0.0
 10
200.8967454627987
 20
132.8529191289587
 30
0.0
 10
200.2554052275411
 20
132.7473966787432
 30
0.0
 10
199.9316566038741
 20
132.6967404477548
 30
0.0
 10
198.9513557560175
 20
132.551180552989
 30
0.0
 10
198.2857683925686
 20
132.4626775445163
 30
0.0
 10
196.930941901922
 20
132.3034406438715
 30
0.0
 10
196.241702146084
 20
132.23270571533
 30
0.0
 10
194.8393931572106
 20
132.1099726455524
 30
0.0
 10
194.1238086301927
 20
132.0578330393656
 30
0.0
 10
191.9572015340964
 20
131.9324063635846
 30
0.0
 10
190.5088000728041
 20
131.890948411029
 30
0.0
 10
188.3304176173445
 20
131.8912244680652
 30
0.0
 10
187.603320258998
 20
131.9017643112794
 30
0.0
 10
186.1471438665039
 20
131.9440614865012
 30
0.0
 10
185.415294799085
 20
131.9760651880095
 30
0.0
 10
183.2595670748268
 20
132.1018579008969
 30
0.0
 10
181.863240797879
 20
132.2253075024962
 30
0.0
 10
179.8293229806144
 20
132.4648649469867
 30
0.0
 10
179.1615106278862
 20
132.5538177662502
 30
0.0
 10
178.1755683127913
 20
132.700583925379
 30
0.0
 10
177.8496410447374
 20
132.7517362599674
 30
0.0
 10
177.2100511160268
 20
132.8572561781855
 30
0.0
 10
176.8954923953629
 20
132.9117528574897
 30
0.0
 10
175.3485234931256
 20
133.1924156289563
 30
0.0
 10
174.1928985078075
 20
133.4429700989771
 30
0.0
 10
172.8520857904666
 20
133.7823025268551
 30
0.0
 10
172.5891526196367
 20
133.8514848077643
 30
0.0
 10
172.0739585243556
 20
133.9923540627677
 30
0.0
 10
171.8210350629054
 20
134.0642434485408
 30
0.0
 10
171.0853955716523
 20
134.2814828455087
 30
0.0
 10
170.6248276235815
 20
134.4285808369531
 30
0.0
 10
169.3305493694596
 20
134.8744318819222
 30
0.0
 10
168.5834488110511
 20
135.177679282513
 30
0.0
 10
167.6425064681889
 20
135.6341769575729
 30
0.0
 10
167.3589789286854
 20
135.7868962545394
 30
0.0
 10
166.8659858636359
 20
136.0848271346874
 30
0.0
 10
166.6545375423945
 20
136.2309249236853
 30
0.0
 10
166.1236163380521
 20
136.6595519451573
 30
0.0
 10
165.9065377851226
 20
136.9323960628151
 30
0.0
 10
165.8336684360452
 20
137.1898849415419
 30
0.0
  0
LINE
  5
16B
330
1F
100
AcDbEntity
  8
0
  6
Continuous
 62
     7
370
    25
100
AcDbLine
 10
187.2185582676
 20
104.4467244231
 30
0.0
 11
189.0661264822
 21
104.4040438265
 31
0.0
  0
SPLINE
  5
16C
330
1F
100
AcDbEntity
  8
0
  6
Continuous
 62
     7
370
    25
100
AcDbSpline
210
0.0
220
0.0
230
1.0
 70
     8
 71
     3
 72
     9
 73
     5
 74
     0
 42
0.00000001
 43
0.00000001
 40
0.0
 40
0.0
 40
0.0
 40
0.0
 40
0.0502390193818915
 40
1.0
 40
1.0
 40
1.0
 40
1.0
 10
164.8315585739987
 20
106.4780308446031
 30
0.0
 10
164.8325545967857
 20
106.4730369190011
 30
0.0
 10
164.8523802780824
 20
106.3736335933881
 30
0.0
 10
164.8614757063967
 20
106.3999278820055
 30
0.0
 10
164.8701141893116
 20
106.4249011713475
 30
0.0
  0
SPLINE
  5
16D
330
1F
100
AcDbEntity
  8
0
  6
Continuous
 62
     7
370
    25
100
AcDbSpline
210
0.0
220
0.0
230
1.0
 70
     8
 71
     3
 72
     9
 73
     5
 74
     0
 42
0.00000001
 43
0.00000001
 40
0.0
 40
0.0
 40
0.0
 40
0.0
 40
0.9597163141700369
 40
1.0
 40
1.0
 40
1.0
 40
1.0
 10
213.2621988353433
 20
106.4249660732006
 30
0.0
 10
213.2707889798602
 20
106.3996394290228
 30
0.0
 10
213.2797396920551
 20
106.373249709682
 30
0.0
 10
213.2992914309063
 20
106.4710438053187
 30
0.0
 10
213.3000790470116
 20
106.4749833119434
 30
0.0
  0
LINE
  5
16E
330
1F
100
AcDbEntity
  8
0
  6
Continuous
 62
     7
370
    25
100
AcDbLine
 10
190.9136953536
 20
104.4467244382
 30
0.0
 11
189.0661264822
 21
104.4040438265
 31
0.0
  0
SPLINE
  5
16F
330
1F
100
AcDbEntity
  8
0
  6
Continuous
 62
     7
370
    25
100
AcDbSpline
210
0.0
220
0.0
230
1.0
 70
     8
 71
     3
 72
    12
 73
     8
 74
     0
 42
0.00000001
 43
0.00000001
 40
0.0
 40
0.0
 40
0.0
 40
0.0
 40
0.1271361898756131
 40
0.3447729086811289
 40
0.5617185204433774
 40
0.7790224553366052
 40
1.0
 40
1.0
 40
1.0
 40
1.0
 10
163.6231948476505
 20
109.7003212226452
 30
0.0
 10
163.61814923906
 20
109.9347989734214
 30
0.0
 10
163.6044663596886
 20
110.5706649391642
 30
0.0
 10
163.5878027927174
 20
111.977964376681
 30
0.0
 10
163.5742395148771
 20
113.8159343583817
 30
0.0
 10
163.5678320193422
 20
115.8523773990617
 30
0.0
 10
163.5670102257234
 20
117.221368269305
 30
0.0
 10
163.5665958848384
 20
117.9116010427251
 30
0.0
  0
SPLINE
  5
170
330
1F
100
AcDbEntity
  8
0
  6
Continuous
 62
     7
370
    25
100
AcDbSpline
210
0.0
220
0.0
230
1.0
 70
     8
 71
     3
 72
     8
 73
     4
 74
     0
 42
0.00000001
 43
0.00000001
 40
0.0
 40
0.0
 40
0.0
 40
0.0
 40
0.0012942325988752
 40
0.0012942325988752
 40
0.0012942325988752
 40
0.0012942325988752
 10
163.5785548520364
 20
133.5748561980857
 30
0.0
 10
163.5837620646416
 20
133.6940052446294
 30
0.0
 10
163.5891532326975
 20
133.8113678018835
 30
0.0
 10
163.5948041633605
 20
133.9269212951527
 30
0.0
  0
SPLINE
  5
171
330
1F
100
AcDbEntity
  8
0
  6
Continuous
 62
     7
370
    25
100
AcDbSpline
210
0.0
220
0.0
230
1.0
 70
     8
 71
     3
 72
    10
 73
     6
 74
     0
 42
0.00000001
 43
0.00000001
 40
0.0
 40
0.0
 40
0.0
 40
0.0
 40
0.5
 40
0.5
 40
1.0
 40
1.0
 40
1.0
 40
1.0
 10
163.5665956860317
 20
117.9193047652302
 30
0.0
 10
163.5657985977796
 20
120.5304413037026
 30
0.0
 10
163.5668612916044
 20
123.1403261931298
 30
0.0
 10
163.5721204954402
 20
128.3579866718674
 30
0.0
 10
163.5781798013389
 20
130.9645085698197
 30
0.0
 10
163.5785548520365
 20
133.5748561984284
 30
0.0
  0
SPLINE
  5
172
330
1F
100
AcDbEntity
  8
0
  6
Continuous
 62
     7
370
    25
100
AcDbSpline
210
0.0
220
0.0
230
1.0
 70
     8
 71
     3
 72
    12
 73
     8
 74
     0
 42
0.00000001
 43
0.00000001
 40
0.0
 40
0.0
 40
0.0
 40
0.0
 40
0.2193196135658006
 40
0.4349931777322679
 40
0.650311109728466
 40
0.8663149627844353
 40
1.0
 40
1.0
 40
1.0
 40
1.0
 10
214.5656570793528
 20
117.9116003155704
 30
0.0
 10
214.5652429341715
 20
117.221354643131
 30
0.0
 10
214.5644215287096
 20
115.8523381945396
 30
0.0
 10
214.5580111547916
 20
113.8160850286511
 30
0.0
 10
214.5444587634477
 20
111.9773970052318
 30
0.0
 10
214.5275353294341
 20
110.5535078962747
 30
0.0
 10
214.513537392912
 20
109.9046927924238
 30
0.0
 10
214.5081860228315
 20
109.6566526810065
 30
0.0
  0
SPLINE
  5
173
330
1F
100
AcDbEntity
  8
0
  6
Continuous
 62
     7
370
    25
100
AcDbSpline
210
0.0
220
0.0
230
1.0
 70
     8
 71
     3
 72
    10
 73
     6
 74
     0
 42
0.00000001
 43
0.00000001
 40
0.0
 40
0.0
 40
0.0
 40
0.0
 40
0.5
 40
0.5
 40
1.0
 40
1.0
 40
1.0
 40
1.0
 10
214.553698112676
 20
133.5748541780223
 30
0.0
 10
214.5540731623499
 20
130.9645066431056
 30
0.0
 10
214.5601324716528
 20
128.3579848418254
 30
0.0
 10
214.5653916735915
 20
123.1403245505737
 30
0.0
 10
214.5664543676009
 20
120.5304397556517
 30
0.0
 10
214.565657277918
 20
117.9193033105976
 30
0.0
  0
SPLINE
  5
174
330
1F
100
AcDbEntity
  8
0
  6
Continuous
 62
     7
370
    25
100
AcDbSpline
210
0.0
220
0.0
230
1.0
 70
     8
 71
     3
 72
     8
 73
     4
 74
     0
 42
0.00000001
 43
0.00000001
 40
0.0
 40
0.0
 40
0.0
 40
0.0
 40
0.0012942325987722
 40
0.0012942325987722
 40
0.0012942325987722
 40
0.0012942325987722
 10
214.5374488010629
 20
133.9269212951527
 30
0.0
 10
214.5430997317255
 20
133.8113678018927
 30
0.0
 10
214.548490899781
 20
133.6940052446482
 30
0.0
 10
214.5536981123858
 20
133.5748561981142
 30
0.0
  0
ARC
  5
175
330
1F
100
AcDbEntity
  8
0
  6
Continuous
 62
     7
370
    25
100
AcDbCircle
 10
163.6762547824
 20
133.5732696288
 30
0.0
 40
0.0977128634768564
100
AcDbArc
 50
88.6558114603
 51
179.0707464883
  0
ARC
  5
176
330
1F
100
AcDbEntity
  8
0
  6
Continuous
 62
     7
370
    25
100
AcDbCircle
 10
214.4559980993
 20
133.5732715085
 30
0.0
 40
0.0977128640181865
100
AcDbArc
 50
0.9292533682
 51
91.3441882094
  0
LINE
  5
177
330
1F
100
AcDbEntity
  8
0
  6
Continuous
 62
     7
370
    25
100
AcDbLine
 10
164.8877397036
 20
106.4021819049
 30
0.0
 11
164.6023901056
 21
106.5014638927
 31
0.0
  0
LINE
  5
178
330
1F
100
AcDbEntity
  8
0
  6
Continuous
 62
     7
370
    25
100
AcDbLine
 10
213.2419177792
 20
106.4050380631
 30
0.0
 11
213.5283876718
 21
106.5041579303
 31
0.0
  0
SPLINE
  5
179
330
1F
100
AcDbEntity
  8
0
  6
Continuous
 62
     7
370
    25
100
AcDbSpline
210
0.0
220
0.0
230
1.0
 70
     8
 71
     3
 72
    10
 73
     6
 74
     0
 42
0.00000001
 43
0.00000001
 40
0.0
 40
0.0
 40
0.0
 40
0.0
 40
0.5
 40
0.5
 40
1.0
 40
1.0
 40
1.0
 40
1.0
 10
214.437442211393
 20
134.0230874253216
 30
0.0
 10
214.4636670825031
 20
134.0231787619241
 30
0.0
 10
214.4897293160425
 20
134.0128469549121
 30
0.0
 10
214.5267643878012
 20
133.9771899687656
 30
0.0
 10
214.5375075473283
 20
133.9520859219134
 30
0.0
 10
214.5374333584164
 20
133.9268169774764
 30
0.0
  0
ARC
  5
17A
330
1F
100
AcDbEntity
  8
0
  6
Continuous
 62
     7
370
    25
100
AcDbCircle
 10
213.997398122
 20
137.0921292505
 30
0.0
 40
0.0977761445145461
100
AcDbArc
 50
359.638034002
 51
91.1719593469
  0
SPLINE
  5
17B
330
1F
100
AcDbEntity
  8
0
  6
Continuous
 62
     7
370
    25
100
AcDbSpline
210
0.0
220
0.0
230
1.0
 70
     8
 71
     3
 72
    10
 73
     6
 74
     0
 42
0.00000001
 43
0.00000001
 40
0.0
 40
0.0
 40
0.0
 40
0.0
 40
0.5
 40
0.5
 40
1.0
 40
1.0
 40
1.0
 40
1.0
 10
214.0951723153968
 20
137.0915115539935
 30
0.0
 10
214.2532149577245
 20
136.6757855263531
 30
0.0
 10
214.3435137565918
 20
136.2039593120475
 30
0.0
 10
214.470400136241
 20
135.1485385166215
 30
0.0
 10
214.5064458022282
 20
134.5651579574088
 30
0.0
 10
214.5374333584164
 20
133.9268169774764
 30
0.0
  0
ARC
  5
17C
330
1F
100
AcDbEntity
  8
0
  6
Continuous
 62
     7
370
    25
100
AcDbCircle
 10
164.1348548424
 20
137.0921292505
 30
0.0
 40
0.0977761445145733
100
AcDbArc
 50
88.8280406531
 51
180.361965998
  0
SPLINE
  5
17D
330
1F
100
AcDbEntity
  8
0
  6
Continuous
 62
     7
370
    25
100
AcDbSpline
210
0.0
220
0.0
230
1.0
 70
     8
 71
     3
 72
    10
 73
     6
 74
     0
 42
0.00000001
 43
0.00000001
 40
0.0
 40
0.0
 40
0.0
 40
0.0
 40
0.5
 40
0.5
 40
1.0
 40
1.0
 40
1.0
 40
1.0
 10
163.594819606007
 20
133.9268169774764
 30
0.0
 10
163.6258063715485
 20
134.5651416701536
 30
0.0
 10
163.6618272417126
 20
135.1482180347876
 30
0.0
 10
163.7886955245371
 20
136.2037035601978
 30
0.0
 10
163.879050308672
 20
136.6758178862929
 30
0.0
 10
164.0370806490267
 20
137.0915115539935
 30
0.0
  0
LINE
  5
17E
330
1F
100
AcDbEntity
  8
0
  6
Continuous
 62
     7
370
    25
100
AcDbLine
 10
164.8895173489
 20
106.401904491
 30
0.0
 11
165.0693600717
 21
106.3534438824
 31
0.0
  0
SPLINE
  5
17F
330
1F
100
AcDbEntity
  8
0
  6
Continuous
 62
     7
370
    25
100
AcDbSpline
210
0.0
220
0.0
230
1.0
 70
     8
 71
     3
 72
    10
 73
     6
 74
     0
 42
0.00000001
 43
0.00000001
 40
0.0
 40
0.0
 40
0.0
 40
0.0
 40
0.7421972707551607
 40
0.9366358619311679
 40
1.0
 40
1.0
 40
1.0
 40
1.0
 10
165.2642071669058
 20
106.3191136294048
 30
0.0
 10
165.33846475753
 20
106.3047733240406
 30
0.0
 10
165.4321761266495
 20
106.2866761889468
 30
0.0
 10
165.5383766344875
 20
106.2680972615084
 30
0.0
 10
165.567374773996
 20
106.2631575599287
 30
0.0
 10
165.5745020923177
 20
106.2619434535698
 30
0.0
  0
SPLINE
  5
180
330
1F
100
AcDbEntity
  8
0
  6
Continuous
 62
     7
370
    25
100
AcDbSpline
210
0.0
220
0.0
230
1.0
 70
     8
 71
     3
 72
    10
 73
     6
 74
     0
 42
0.00000001
 43
0.00000001
 40
0.0
 40
0.0
 40
0.0
 40
0.0
 40
0.169440077988967
 40
0.4168456731844934
 40
1.0
 40
1.0
 40
1.0
 40
1.0
 10
212.5585896666842
 20
106.2621053457912
 30
0.0
 10
212.5768336554687
 20
106.2652340996478
 30
0.0
 10
212.6217163530968
 20
106.2729312603377
 30
0.0
 10
212.7283175368221
 20
106.2918921456174
 30
0.0
 10
212.8104028415029
 20
106.3078837533036
 30
0.0
 10
212.8680367331993
 20
106.3191118115902
 30
0.0
  0
SPLINE
  5
181
330
1F
100
AcDbEntity
  8
0
  6
Continuous
 62
     7
370
    25
100
AcDbSpline
210
0.0
220
0.0
230
1.0
 70
     8
 71
     3
 72
     9
 73
     5
 74
     0
 42
0.00000001
 43
0.00000001
 40
0.0
 40
0.0
 40
0.0
 40
0.0
 40
0.320480516763907
 40
1.0
 40
1.0
 40
1.0
 40
1.0
 10
213.0627039891193
 20
106.3547161683986
 30
0.0
 10
213.0825658381241
 20
106.3581232342237
 30
0.0
 10
213.1445410533583
 20
106.3687543510842
 30
0.0
 10
213.2030069194089
 20
106.3884922225148
 30
0.0
 10
213.2427356144945
 20
106.4019044907096
 30
0.0
  0
SPLINE
  5
182
330
1F
100
AcDbEntity
  8
0
  6
Continuous
 62
     7
370
    25
100
AcDbSpline
210
0.0
220
0.0
230
1.0
 70
     8
 71
     3
 72
    10
 73
     6
 74
     0
 42
0.00000001
 43
0.00000001
 40
0.0
 40
0.0
 40
0.0
 40
0.0
 40
0.5494659706740466
 40
0.8321154715856312
 40
1.0
 40
1.0
 40
1.0
 40
1.0
 10
213.9953982945261
 20
137.1898849415419
 30
0.0
 10
213.8753820128732
 20
137.4134382019096
 30
0.0
 10
213.6936284373368
 20
137.7519889704808
 30
0.0
 10
213.1344439635786
 20
137.9240545840087
 30
0.0
 10
212.7364767363823
 20
137.9385315204704
 30
0.0
 10
212.5881804126569
 20
137.9439261266323
 30
0.0
  0
SPLINE
  5
183
330
1F
100
AcDbEntity
  8
0
  6
Continuous
 62
     7
370
    25
100
AcDbSpline
210
0.0
220
0.0
230
1.0
 70
     8
 71
     3
 72
     9
 73
     5
 74
     0
 42
0.00000001
 43
0.00000001
 40
0.0
 40
0.0
 40
0.0
 40
0.0
 40
0.5781446343393031
 40
1.0
 40
1.0
 40
1.0
 40
1.0
 10
213.68843855808
 20
137.5614409628838
 30
0.0
 10
213.7881553263309
 20
137.5093785866752
 30
0.0
 10
213.960632527239
 20
137.4193278050602
 30
0.0
 10
214.0285536443624
 20
137.2420888850752
 30
0.0
 10
214.0572065320626
 20
137.1673196956757
 30
0.0
  0
SPLINE
  5
184
330
1F
100
AcDbEntity
  8
0
  6
Continuous
 62
     7
370
    25
100
AcDbSpline
210
0.0
220
0.0
230
1.0
 70
     8
 71
     3
 72
    10
 73
     6
 74
     0
 42
0.00000001
 43
0.00000001
 40
0.0
 40
0.0
 40
0.0
 40
0.0
 40
0.319877684850093
 40
0.7751381363030315
 40
1.0
 40
1.0
 40
1.0
 40
1.0
 10
165.5496152258086
 20
137.9305741747984
 30
0.0
 10
165.2811860972389
 20
137.9148799036631
 30
0.0
 10
164.6307197962012
 20
137.8768490291928
 30
0.0
 10
164.3173679775853
 20
137.5892208329773
 30
0.0
 10
164.1817069001767
 20
137.2891081267513
 30
0.0
 10
164.1368546698973
 20
137.1898849415419
 30
0.0
  0
SPLINE
  5
185
330
1F
100
AcDbEntity
  8
0
  6
Continuous
 62
     7
370
    25
100
AcDbSpline
210
0.0
220
0.0
230
1.0
 70
     8
 71
     3
 72
     9
 73
     5
 74
     0
 42
0.00000001
 43
0.00000001
 40
0.0
 40
0.0
 40
0.0
 40
0.0
 40
0.7110822316699801
 40
1.0
 40
1.0
 40
1.0
 40
1.0
 10
164.0752803640225
 20
137.1676887610739
 30
0.0
 10
164.100030699084
 20
137.2461316642057
 30
0.0
 10
164.1348372713188
 20
137.3564464768086
 30
0.0
 10
164.2305408687535
 20
137.4156296788668
 30
0.0
 10
164.2581913385455
 20
137.4327287575281
 30
0.0
  0
SPLINE
  5
186
330
1F
100
AcDbEntity
  8
0
  6
Continuous
 62
     8
370
    18
100
AcDbSpline
210
0.0
220
0.0
230
1.0
 70
     8
 71
     3
 72
     8
 73
     4
 74
     0
 42
0.00000001
 43
0.00000001
 40
0.0
 40
0.0
 40
0.0
 40
0.0
 40
1.0
 40
1.0
 40
1.0
 40
1.0
 10
261.6802046216219
 20
175.2186167123855
 30
0.0
 10
213.27081919535
 20
174.719902114462
 30
0.0
 10
164.8614337690781
 20
174.7199021144627
 30
0.0
 10
116.4520483428063
 20
175.2186167123868
 30
0.0
  0
SPLINE
  5
187
330
1F
100
AcDbEntity
  8
0
  6
Continuous
 62
     8
370
    18
100
AcDbSpline
210
0.0
220
0.0
230
1.0
 70
    24
 71
     3
 72
     9
 73
     5
 74
     0
 42
0.00000001
 43
0.00000001
 40
0.0
 40
0.0
 40
0.0
 40
0.0
 40
0.9999147349728644
 40
1.0
 40
1.0
 40
1.0
 40
1.0
 10
116.4520483428063
 20
175.2186167123865
 30
0.0
 10
116.2828379261134
 20
174.9692894171499
 30
0.0
 10
116.1136130804595
 20
174.7199408612019
 30
0.0
 10
116.1982264887717
 20
174.8446165912186
 30
0.0
 10
116.1982337033362
 20
174.8446272216981
 30
0.0
  0
LINE
  5
188
330
1F
100
AcDbEntity
  8
0
  6
Continuous
 62
     8
370
    18
100
AcDbLine
 10
261.9340203753
 20
174.84462558
 30
0.0
 11
261.6802046216
 21
175.2186167124
 31
0.0
  0
SPLINE
  5
189
330
1F
100
AcDbEntity
  8
0
  6
Continuous
 62
     8
370
    18
100
AcDbSpline
210
0.0
220
0.0
230
1.0
 70
     8
 71
     3
 72
    26
 73
    22
 74
     0
 42
0.00000001
 43
0.00000001
 40
0.0
 40
0.0
 40
0.0
 40
0.0
 40
0.03125
 40
0.03125
 40
0.0625
 40
0.0625
 40
0.125
 40
0.125
 40
0.25
 40
0.25
 40
0.375
 40
0.375
 40
0.5
 40
0.5
 40
0.625
 40
0.625
 40
0.75
 40
0.75
 40
0.875
 40
0.875
 40
1.0
 40
1.0
 40
1.0
 40
1.0
 10
114.9691133164602
 20
176.6805913657685
 30
0.0
 10
114.9697495244014
 20
176.656341990678
 30
0.0
 10
114.9709788106017
 20
176.632136716999
 30
0.0
 10
114.974605342017
 20
176.5838656222014
 30
0.0
 10
114.9770025872321
 20
176.5597998010828
 30
0.0
 10
114.9859189651437
 20
176.4878883911738
 30
0.0
 10
114.9941627401067
 20
176.4403288558304
 30
0.0
 10
115.0255742640174
 20
176.2994094604369
 30
0.0
 10
115.0554222119867
 20
176.207808811024
 30
0.0
 10
115.1317673317453
 20
176.032578723762
 30
0.0
 10
115.1789918274925
 20
175.9474488647741
 30
0.0
 10
115.2879001456372
 20
175.7892629826787
 30
0.0
 10
115.3492732378611
 20
175.7162104904942
 30
0.0
 10
115.4857079238244
 20
175.5820560036379
 30
0.0
 10
115.5614343046206
 20
175.5207139838643
 30
0.0
 10
115.7206370290353
 20
175.4152598746437
 30
0.0
 10
115.8046935339028
 20
175.3704100357089
 30
0.0
 10
115.9818515198331
 20
175.2967029384832
 30
0.0
 10
116.0743487046885
 20
175.2683233604207
 30
0.0
 10
116.2607775533478
 20
175.2300266186248
 30
0.0
 10
116.3555888038178
 20
175.2197151445246
 30
0.0
 10
116.4520483428062
 20
175.2186167123866
 30
0.0
  0
SPLINE
  5
18A
330
1F
100
AcDbEntity
  8
0
  6
Continuous
 62
     8
370
    18
100
AcDbSpline
210
0.0
220
0.0
230
1.0
 70
     8
 71
     3
 72
    21
 73
    17
 74
     0
 42
0.00000001
 43
0.00000001
 40
0.0
 40
0.0
 40
0.0
 40
0.0
 40
0.0527015852613931
 40
0.1061218296408278
 40
0.1602636681736912
 40
0.2151299194778285
 40
0.2707232913175274
 40
0.3270463858580737
 40
0.3841017046257159
 40
0.4418916531889429
 40
0.5004185455848602
 40
0.6190205634994476
 40
0.750027166911155
 40
0.8150462982098899
 40
0.898375884557805
 40
1.0
 40
1.0
 40
1.0
 40
1.0
 10
263.1631396479668
 20
176.6805913657673
 30
0.0
 10
263.1611304521023
 20
176.6401370685657
 30
0.0
 10
263.1570846622047
 20
176.5586768237823
 30
0.0
 10
263.1383241615274
 20
176.4367988561665
 30
0.0
 10
263.1099173755724
 20
176.3152031955281
 30
0.0
 10
263.0707416874935
 20
176.1948480085513
 30
0.0
 10
263.0209307710365
 20
176.0767100661245
 30
0.0
 10
262.9603897506362
 20
175.9618151952365
 30
0.0
 10
262.8892146966276
 20
175.8512219572706
 30
0.0
 10
262.807573078615
 20
175.746006868159
 30
0.0
 10
262.6847844610921
 20
175.6139228624946
 30
0.0
 10
262.5010613667509
 20
175.4635044424837
 30
0.0
 10
262.2874759502136
 20
175.3481858015933
 30
0.0
 10
262.0860302472159
 20
175.2762876974549
 30
0.0
 10
261.8994170426594
 20
175.2308447808891
 30
0.0
 10
261.7579401162848
 20
175.222952940002
 30
0.0
 10
261.6802046216225
 20
175.2186167123862
 30
0.0
  0
SPLINE
  5
18B
330
1F
100
AcDbEntity
  8
0
  6
Continuous
 62
     8
370
    18
100
AcDbSpline
210
0.0
220
0.0
230
1.0
 70
     8
 71
     3
 72
     9
 73
     5
 74
     0
 42
0.00000001
 43
0.00000001
 40
0.0
 40
0.0
 40
0.0
 40
0.0
 40
0.9999208183640071
 40
1.0
 40
1.0
 40
1.0
 40
1.0
 10
263.1631396479672
 20
176.6805913657675
 30
0.0
 10
263.3329747792033
 20
176.4303825158835
 30
0.0
 10
263.5028233593278
 20
176.1801538524846
 30
0.0
 10
263.417898889975
 20
176.3052684481186
 30
0.0
 10
263.4178921655167
 20
176.3052783548969
 30
0.0
  0
LINE
  5
18C
330
1F
100
AcDbEntity
  8
0
  6
Continuous
 62
     8
370
    18
100
AcDbLine
 10
114.7143607354
 20
176.3052782613
 30
0.0
 11
114.9691133165
 21
176.6805913658
 31
0.0
  0
SPLINE
  5
18D
330
1F
100
AcDbEntity
  8
0
  6
Continuous
 62
     8
370
    18
100
AcDbSpline
210
0.0
220
0.0
230
1.0
 70
     8
 71
     3
 72
    18
 73
    14
 74
     0
 42
0.00000001
 43
0.00000001
 40
0.0
 40
0.0
 40
0.0
 40
0.0
 40
0.2499999999999988
 40
0.2499999999999988
 40
0.3749999999999982
 40
0.3749999999999982
 40
0.437499999999998
 40
0.437499999999998
 40
0.4999999999999979
 40
0.4999999999999979
 40
0.749999999999999
 40
0.749999999999999
 40
1.0
 40
1.0
 40
1.0
 40
1.0
 10
189.0661243798948
 20
130.4481990264961
 30
0.0
 10
191.3112347347754
 20
130.4482162454161
 30
0.0
 10
193.522681527148
 20
130.5161816356757
 30
0.0
 10
196.7918949026503
 20
130.7118084678636
 30
0.0
 10
197.873602288512
 20
130.7926434548909
 30
0.0
 10
199.4841017289675
 20
130.9364079765557
 30
0.0
 10
200.0189223049916
 20
130.9880821420585
 30
0.0
 10
201.0845069802135
 20
131.0987887553682
 30
0.0
 10
201.6164961031629
 20
131.1579702122171
 30
0.0
 10
204.2499248660874
 20
131.4699538502938
 30
0.0
 10
206.2632355243687
 20
131.7693288807528
 30
0.0
 10
210.1157478523706
 20
132.4431708262664
 30
0.0
 10
211.9548912801394
 20
132.8177450222362
 30
0.0
 10
213.7059512041081
 20
133.219287141945
 30
0.0
  0
ARC
  5
18E
330
1F
100
AcDbEntity
  8
0
  6
Continuous
 62
     8
370
    18
100
AcDbCircle
 10
213.6488087176
 20
133.1158050572
 30
0.0
 40
0.1182108716048073
100
AcDbArc
 50
3.8355048717
 51
61.0925988246
  0
SPLINE
  5
18F
330
1F
100
AcDbEntity
  8
0
  6
Continuous
 62
     8
370
    25
100
AcDbSpline
210
0.0
220
0.0
230
1.0
 70
     8
 71
     3
 72
    18
 73
    14
 74
     0
 42
0.00000001
 43
0.00000001
 40
0.0
 40
0.0
 40
0.0
 40
0.0
 40
0.2500000000000004
 40
0.2500000000000004
 40
0.5000000000000008
 40
0.5000000000000008
 40
0.5625000000000009
 40
0.5625000000000009
 40
0.625000000000001
 40
0.625000000000001
 40
0.7500000000000007
 40
0.7500000000000007
 40
1.0
 40
1.0
 40
1.0
 40
1.0
 10
213.7668156462582
 20
133.1237256099581
 30
0.0
 10
212.0110684966633
 20
132.7223774472105
 30
0.0
 10
210.1670808442093
 20
132.3480131893162
 30
0.0
 10
206.3046428993468
 20
131.6745948668787
 30
0.0
 10
204.28624998837
 20
131.3754339885448
 30
0.0
 10
201.6463579946575
 20
131.0636951628518
 30
0.0
 10
201.1130779619104
 20
131.0045620209056
 30
0.0
 10
200.0449093386586
 20
130.893946064176
 30
0.0
 10
199.5087955623185
 20
130.8423147188194
 30
0.0
 10
197.8944131750442
 20
130.6986705233911
 30
0.0
 10
196.8101127033337
 20
130.6179049174285
 30
0.0
 10
193.5331090780772
 20
130.4224485216319
 30
0.0
 10
191.3164541745051
 20
130.3545465509554
 30
0.0
 10
189.0661264822117
 20
130.3545273020591
 30
0.0
  0
LWPOLYLINE
  5
190
330
1F
100
AcDbEntity
  8
0
  6
Continuous
 62
     8
370
    18
100
AcDbPolyline
 90
        9
 70
   128
 43
0.0
 10
189.0661243799
 20
130.4481990265
 10
189.0661247198
 20
130.4419184749
 10
189.0661250518
 20
130.4336072614
 10
189.0661253682
 20
130.4234578681
 10
189.0661256617
 20
130.4117053478
 10
189.0661259256
 20
130.3986218806
 10
189.0661261537
 20
130.3845104707
 10
189.0661263406
 20
130.3696979285
 10
189.0661264822
 20
130.3545273021
  0
SPLINE
  5
191
330
1F
100
AcDbEntity
  8
0
  6
Continuous
 62
     8
370
    18
100
AcDbSpline
210
0.0
220
0.0
230
1.0
 70
     8
 71
     3
 72
    18
 73
    14
 74
     0
 42
0.00000001
 43
0.00000001
 40
0.0
 40
0.0
 40
0.0
 40
0.0
 40
0.2499999999999989
 40
0.2499999999999989
 40
0.4999999999999979
 40
0.4999999999999979
 40
0.5624999999999981
 40
0.5624999999999981
 40
0.6249999999999982
 40
0.6249999999999982
 40
0.7499999999999987
 40
0.7499999999999987
 40
1.0
 40
1.0
 40
1.0
 40
1.0
 10
164.4262408611467
 20
133.2193011069809
 30
0.0
 10
166.1773028724315
 20
132.8177574106307
 30
0.0
 10
168.0164853394081
 20
132.443173063188
 30
0.0
 10
171.8691702166382
 20
131.7693033801884
 30
0.0
 10
173.8826140321122
 20
131.4699106475541
 30
0.0
 10
176.5162879097518
 20
131.1579096319726
 30
0.0
 10
177.0482121234895
 20
131.0987382562494
 30
0.0
 10
178.113715685119
 20
130.9880442128901
 30
0.0
 10
178.6484984207588
 20
130.9363754606362
 30
0.0
 10
180.2588926414223
 20
130.7926249041036
 30
0.0
 10
181.3405409370777
 20
130.7117961905913
 30
0.0
 10
184.6096118273988
 20
130.5161818873672
 30
0.0
 10
186.8210097291928
 20
130.4482163304044
 30
0.0
 10
189.0661243798948
 20
130.4481990265284
 30
0.0
  0
SPLINE
  5
192
330
1F
100
AcDbEntity
  8
0
  6
Continuous
 62
     8
370
    25
100
AcDbSpline
210
0.0
220
0.0
230
1.0
 70
     8
 71
     3
 72
    25
 73
    21
 74
     0
 42
0.00000001
 43
0.00000001
 40
0.0
 40
0.0
 40
0.0
 40
0.0
 40
0.015625
 40
0.015625
 40
0.03125
 40
0.0625000000000001
 40
0.0625000000000001
 40
0.1250000000000002
 40
0.1250000000000002
 40
0.2500000000000006
 40
0.2500000000000006
 40
0.3750000000000009
 40
0.3750000000000009
 40
0.4375000000000011
 40
0.4375000000000011
 40
0.5000000000000012
 40
0.5000000000000012
 40
0.7500000000000007
 40
0.7500000000000007
 40
1.0
 40
1.0
 40
1.0
 40
1.0
 10
189.0661264822117
 20
130.3545273020592
 30
0.0
 10
188.9274815123376
 20
130.3545285254341
 30
0.0
 10
188.7849691231215
 20
130.3547951438597
 30
0.0
 10
188.5042071280661
 20
130.3558564216934
 30
0.0
 10
188.0834596836388
 20
130.3582403425577
 30
0.0
 10
187.6638928005333
 20
130.3629874078633
 30
0.0
 10
186.8263186745889
 20
130.3755987075596
 30
0.0
 10
186.2700148452753
 20
130.3881622622604
 30
0.0
 10
184.6072467918229
 20
130.4380591382804
 30
0.0
 10
183.5069168752511
 20
130.4875957915427
 30
0.0
 10
181.3223486029796
 20
130.6178909395029
 30
0.0
 10
180.2381101302302
 20
130.6986498126275
 30
0.0
 10
178.6238373216646
 20
130.8422792434269
 30
0.0
 10
178.0877628379624
 20
130.8939048906068
 30
0.0
 10
177.0196782309064
 20
131.0045076715563
 30
0.0
 10
176.4864648388513
 20
131.0636303871622
 30
0.0
 10
173.8463334550855
 20
131.3753848938458
 30
0.0
 10
171.8278113866306
 20
131.6745619369437
 30
0.0
 10
167.965207861423
 20
132.3480047873522
 30
0.0
 10
166.1211841379313
 20
132.7223775226065
 30
0.0
 10
164.3654373181672
 20
133.1237256099577
 30
0.0
  0
ARC
  5
193
330
1F
100
AcDbEntity
  8
0
  6
Continuous
 62
     8
370
    18
100
AcDbCircle
 10
164.4833840442
 20
133.1158187368
 30
0.0
 40
0.1182114581083229
100
AcDbArc
 50
118.9076295947
 51
176.1647631043
  0
SPLINE
  5
194
330
1F
100
AcDbEntity
  8
0
  6
Continuous
 62
     8
370
    18
100
AcDbSpline
210
0.0
220
0.0
230
1.0
 70
     8
 71
     3
 72
     8
 73
     4
 74
     0
 42
0.00000001
 43
0.00000001
 40
0.0000000000000227
 40
0.0000000000000227
 40
0.0000000000000227
 40
0.0000000000000227
 40
0.0012946865845493
 40
0.0012946865845493
 40
0.0012946865845493
 40
0.0012946865845493
 10
214.453705962799
 20
133.6709574835343
 30
0.0
 10
214.4485003167568
 20
133.7901257273843
 30
0.0
 10
214.4431108312386
 20
133.9075046773577
 30
0.0
 10
214.4374617708342
 20
134.0230874939041
 30
0.0
  0
SPLINE
  5
195
330
1F
100
AcDbEntity
  8
0
  6
Continuous
 62
     8
370
    18
100
AcDbSpline
210
0.0
220
0.0
230
1.0
 70
     8
 71
     3
 72
    12
 73
     8
 74
     0
 42
0.00000001
 43
0.00000001
 40
0.0
 40
0.0
 40
0.0
 40
0.0
 40
0.4999999999999929
 40
0.4999999999999929
 40
0.7499999999999964
 40
0.7499999999999964
 40
1.0
 40
1.0
 40
1.0
 40
1.0
 10
213.7059514301317
 20
133.2192870610829
 30
0.0
 10
213.9464891848377
 20
133.2744458567229
 30
0.0
 10
214.1372215892337
 20
133.3452254418163
 30
0.0
 10
214.3284146798126
 20
133.4619267408211
 30
0.0
 10
214.3772953121789
 20
133.5033015259043
 30
0.0
 10
214.4404391960141
 20
133.5864041012949
 30
0.0
 10
214.4555631375227
 20
133.628438882076
 30
0.0
 10
214.4537058691491
 20
133.6709574832223
 30
0.0
  0
SPLINE
  5
196
330
1F
100
AcDbEntity
  8
0
  6
Continuous
 62
     8
370
    18
100
AcDbSpline
210
0.0
220
0.0
230
1.0
 70
     8
 71
     3
 72
    12
 73
     8
 74
     0
 42
0.00000001
 43
0.00000001
 40
0.0
 40
0.0
 40
0.0
 40
0.0
 40
0.4999999999999953
 40
0.4999999999999953
 40
0.7499999999999977
 40
0.7499999999999977
 40
1.0
 40
1.0
 40
1.0
 40
1.0
 10
163.6785470131408
 20
133.6709556029333
 30
0.0
 10
163.6748321585585
 20
133.585911100753
 30
0.0
 10
163.7404944295566
 20
133.500475452333
 30
0.0
 10
163.9318424387372
 20
133.3838530206885
 30
0.0
 10
164.0125158172198
 20
133.3462167634536
 30
0.0
 10
164.1995072281381
 20
133.2779098535372
 30
0.0
 10
164.3059487735942
 20
133.2468879590633
 30
0.0
 10
164.4262406361327
 20
133.2193010264871
 30
0.0
  0
SPLINE
  5
197
330
1F
100
AcDbEntity
  8
0
  6
Continuous
 62
     8
370
    18
100
AcDbSpline
210
0.0
220
0.0
230
1.0
 70
     8
 71
     3
 72
     8
 73
     4
 74
     0
 42
0.00000001
 43
0.00000001
 40
0.0
 40
0.0
 40
0.0
 40
0.0
 40
0.0012950023396037
 40
0.0012950023396037
 40
0.0012950023396037
 40
0.0012950023396037
 10
163.6947952377061
 20
134.0231702375443
 30
0.0
 10
163.6891446820647
 20
133.9075600889103
 30
0.0
 10
163.6837538333736
 20
133.7901529293199
 30
0.0
 10
163.6785469194875
 20
133.6709556032453
 30
0.0
  0
SPLINE
  5
198
330
1F
100
AcDbEntity
  8
0
  6
Continuous
 62
     8
370
    18
100
AcDbSpline
210
0.0
220
0.0
230
1.0
 70
     8
 71
     3
 72
    15
 73
    11
 74
     0
 42
0.00000001
 43
0.00000001
 40
0.0
 40
0.0
 40
0.0
 40
0.0
 40
0.1343956602551609
 40
0.2796811298095909
 40
0.4267926729690754
 40
0.572211844717156
 40
0.645798701362639
 40
0.7180471999744812
 40
0.8618853667740233
 40
1.0
 40
1.0
 40
1.0
 40
1.0
 10
164.3621886905021
 20
117.9175682847527
 30
0.0
 10
164.3604190300102
 20
117.1727649782683
 30
0.0
 10
164.3567363170058
 20
115.6228084555056
 30
0.0
 10
164.3716272688512
 20
113.2769143890629
 30
0.0
 10
164.4170558471271
 20
111.0788446483054
 30
0.0
 10
164.4869491925551
 20
109.5264346778527
 30
0.0
 10
164.5622984201549
 20
108.4844627150589
 30
0.0
 10
164.6421019405242
 20
107.6194942005195
 30
0.0
 10
164.7504787800034
 20
106.8184064559042
 30
0.0
 10
164.8049002207838
 20
106.5899434781298
 30
0.0
 10
164.8315585739987
 20
106.4780308446031
 30
0.0
  0
SPLINE
  5
199
330
1F
100
AcDbEntity
  8
0
  6
Continuous
 62
     8
370
    18
100
AcDbSpline
210
0.0
220
0.0
230
1.0
 70
     8
 71
     3
 72
    20
 73
    16
 74
     0
 42
0.00000001
 43
0.00000001
 40
0.0
 40
0.0
 40
0.0
 40
0.0
 40
0.2500000000000013
 40
0.2500000000000013
 40
0.5000000000000027
 40
0.5000000000000027
 40
0.6250000000000033
 40
0.6250000000000033
 40
0.750000000000004
 40
0.750000000000004
 40
0.8125000000000043
 40
0.8125000000000043
 40
0.8750000000000047
 40
0.8750000000000047
 40
1.0
 40
1.0
 40
1.0
 40
1.0
 10
164.3654373163019
 20
133.1237189853277
 30
0.0
 10
164.3650815890646
 20
131.860322237742
 30
0.0
 10
164.3647246973653
 20
130.5956607811256
 30
0.0
 10
164.3640794648137
 20
128.0564531388811
 30
0.0
 10
164.3638026096597
 20
126.7779809894512
 30
0.0
 10
164.3634108515704
 20
124.8718457136631
 30
0.0
 10
164.3632832894009
 20
124.2388491514325
 30
0.0
 10
164.3630244717226
 20
122.9833392547789
 30
0.0
 10
164.3628974859323
 20
122.3641737325664
 30
0.0
 10
164.3626645091034
 20
121.4216990922579
 30
0.0
 10
164.3625790197381
 20
121.1049841200143
 30
0.0
 10
164.362376908196
 20
120.4610650390708
 30
0.0
 10
164.3622532682977
 20
120.1330721054467
 30
0.0
 10
164.3619322235714
 20
119.1518025570499
 30
0.0
 10
164.3618694373285
 20
118.5023727390796
 30
0.0
 10
164.3617745283676
 20
117.9101962497932
 30
0.0
  0
SPLINE
  5
19A
330
1F
100
AcDbEntity
  8
0
  6
Continuous
 62
     8
370
    18
100
AcDbSpline
210
0.0
220
0.0
230
1.0
 70
     8
 71
     3
 72
    15
 73
    11
 74
     0
 42
0.00000001
 43
0.00000001
 40
0.0
 40
0.0
 40
0.0
 40
0.0
 40
0.1389498373704084
 40
0.2826486177986944
 40
0.3548271032588127
 40
0.428342652001388
 40
0.5736209037867923
 40
0.7205898880273398
 40
0.865734570381256
 40
1.0
 40
1.0
 40
1.0
 40
1.0
 10
213.3000790470116
 20
106.4749833119434
 30
0.0
 10
213.3269163205888
 20
106.5875752507247
 30
0.0
 10
213.381508095762
 20
106.8166072271133
 30
0.0
 10
213.4901471323323
 20
107.6194442701076
 30
0.0
 10
213.5699552586347
 20
108.4844719089861
 30
0.0
 10
213.6453033334346
 20
109.5264289675302
 30
0.0
 10
213.7151972472938
 20
111.0788460594144
 30
0.0
 10
213.76062564905
 20
113.2769132902071
 30
0.0
 10
213.7755166553262
 20
115.6228078661664
 30
0.0
 10
213.7718339385008
 20
117.1727642887286
 30
0.0
 10
213.770064276146
 20
117.9175675583613
 30
0.0
  0
SPLINE
  5
19B
330
1F
100
AcDbEntity
  8
0
  6
Continuous
 62
     8
370
    18
100
AcDbSpline
210
0.0
220
0.0
230
1.0
 70
     8
 71
     3
 72
    20
 73
    16
 74
     0
 42
0.00000001
 43
0.00000001
 40
0.0
 40
0.0
 40
0.0
 40
0.0
 40
0.125000000000006
 40
0.125000000000006
 40
0.1875000000000064
 40
0.1875000000000064
 40
0.2500000000000067
 40
0.2500000000000067
 40
0.3750000000000074
 40
0.3750000000000074
 40
0.5000000000000081
 40
0.5000000000000081
 40
0.750000000000004
 40
0.750000000000004
 40
1.0
 40
1.0
 40
1.0
 40
1.0
 10
213.7704784366564
 20
117.9101947678334
 30
0.0
 10
213.7703835275481
 20
118.5023712240824
 30
0.0
 10
213.7703207415535
 20
119.1518010623138
 30
0.0
 10
213.7699996969548
 20
120.1330707040864
 30
0.0
 10
213.769876056994
 20
120.4610636819786
 30
0.0
 10
213.7696739453313
 20
121.1049828585032
 30
0.0
 10
213.7695884559195
 20
121.4216978737999
 30
0.0
 10
213.7693554789849
 20
122.364172631579
 30
0.0
 10
213.7692284931613
 20
122.9833382129136
 30
0.0
 10
213.7689696754221
 20
124.2388482295523
 30
0.0
 10
213.768842113225
 20
124.8718448543595
 30
0.0
 10
213.7684503550573
 20
126.7779803229463
 30
0.0
 10
213.7681734998595
 20
128.0564526083053
 30
0.0
 10
213.7675282671945
 20
130.5956605173859
 30
0.0
 10
213.7671713754279
 20
131.8603221060032
 30
0.0
 10
213.7668156481234
 20
133.123718985328
 30
0.0
  0
LINE
  5
19C
330
1F
100
AcDbEntity
  8
0
  6
Continuous
 62
     8
370
    18
100
AcDbLine
 10
207.6888637251
 20
144.9653184162
 30
0.0
 11
164.5661264822
 21
144.9653184162
 31
0.0
  0
LINE
  5
19D
330
1F
100
AcDbEntity
  8
0
  6
Continuous
 62
     8
370
    18
100
AcDbLine
 10
213.5661264822
 20
144.9653184162
 30
0.0
 11
207.6888637251
 21
144.9653184162
 31
0.0
  0
SPLINE
  5
19E
330
1F
100
AcDbEntity
  8
0
  6
Continuous
 62
     8
370
    25
100
AcDbSpline
210
0.0
220
0.0
230
1.0
 70
     8
 71
     3
 72
    12
 73
     8
 74
     0
 42
0.00000001
 43
0.00000001
 40
0.0
 40
0.0
 40
0.0
 40
0.0
 40
0.5
 40
0.5
 40
0.75
 40
0.75
 40
1.0
 40
1.0
 40
1.0
 40
1.0
 10
164.3654981429393
 20
133.1237124427649
 30
0.0
 10
164.1163434584424
 20
133.1779298229046
 30
0.0
 10
163.9126727700844
 20
133.2490647174495
 30
0.0
 10
163.7111057753378
 20
133.3655631603731
 30
0.0
 10
163.660193754458
 20
133.406139920204
 30
0.0
 10
163.5925415079662
 20
133.490082774005
 30
0.0
 10
163.5766252823059
 20
133.5329182915975
 30
0.0
 10
163.5785548633003
 20
133.5748542003172
 30
0.0
  0
SPLINE
  5
19F
330
1F
100
AcDbEntity
  8
0
  6
Continuous
 62
     8
370
    25
100
AcDbSpline
210
0.0
220
0.0
230
1.0
 70
     8
 71
     3
 72
    14
 73
    10
 74
     0
 42
0.00000001
 43
0.00000001
 40
0.0
 40
0.0
 40
0.0
 40
0.0
 40
0.25
 40
0.25
 40
0.5
 40
0.5
 40
0.75
 40
0.75
 40
1.0
 40
1.0
 40
1.0
 40
1.0
 10
214.5536981011232
 20
133.5748542003171
 30
0.0
 10
214.555628214154
 20
133.532906728751
 30
0.0
 10
214.5397051936318
 20
133.4903173323356
 30
0.0
 10
214.4731448953382
 20
133.4072485960074
 30
0.0
 10
214.4216209592588
 20
133.3658969605322
 30
0.0
 10
214.2873654808685
 20
133.2881826625835
 30
0.0
 10
214.2042465604092
 20
133.2512438654504
 30
0.0
 10
214.0057081847568
 20
133.1822903130399
 30
0.0
 10
213.891366512984
 20
133.1508286074891
 30
0.0
 10
213.7667548214838
 20
133.1237124427651
 30
0.0
  0
SPLINE
  5
1A0
330
1F
100
AcDbEntity
  8
0
  6
Continuous
 62
     8
370
    18
100
AcDbSpline
210
0.0
220
0.0
230
1.0
 70
     8
 71
     3
 72
    10
 73
     6
 74
     0
 42
0.00000001
 43
0.00000001
 40
0.0
 40
0.0
 40
0.0
 40
0.0
 40
0.5
 40
0.5
 40
1.0
 40
1.0
 40
1.0
 40
1.0
 10
213.7697575333732
 20
117.902164890887
 30
0.0
 10
214.0078658752042
 20
117.903164646395
 30
0.0
 10
214.2165077424025
 20
117.9045604969102
 30
0.0
 10
214.4963331265411
 20
117.9078214340226
 30
0.0
 10
214.5660654410585
 20
117.9096682320073
 30
0.0
 10
214.5656568022557
 20
117.9114405819527
 30
0.0
  0
SPLINE
  5
1A1
330
1F
100
AcDbEntity
  8
0
  6
Continuous
 62
     8
370
    18
100
AcDbSpline
210
0.0
220
0.0
230
1.0
 70
     8
 71
     3
 72
    10
 73
     6
 74
     0
 42
0.00000001
 43
0.00000001
 40
0.0
 40
0.0
 40
0.0
 40
0.0
 40
0.5
 40
0.5
 40
1.0
 40
1.0
 40
1.0
 40
1.0
 10
164.361491472509
 20
117.9177830669927
 30
0.0
 10
164.1232673250337
 20
117.9170584366866
 30
0.0
 10
163.9147178551995
 20
117.9161072499199
 30
0.0
 10
163.6352513452084
 20
117.9139901162973
 30
0.0
 10
163.5660049225496
 20
117.912835788552
 30
0.0
 10
163.5665980496002
 20
117.9117616483641
 30
0.0
  0
SPLINE
  5
1A2
330
1F
100
AcDbEntity
  8
0
  6
Continuous
 62
     8
370
    18
100
AcDbSpline
210
0.0
220
0.0
230
1.0
 70
     8
 71
     3
 72
    10
 73
     6
 74
     0
 42
0.00000001
 43
0.00000001
 40
0.0
 40
0.0
 40
0.0
 40
0.0
 40
0.5
 40
0.5
 40
1.0
 40
1.0
 40
1.0
 40
1.0
 10
163.594819606007
 20
133.9268169774764
 30
0.0
 10
163.5947460861882
 20
133.9520997051724
 30
0.0
 10
163.6054899157152
 20
133.9772175424184
 30
0.0
 10
163.6425263262344
 20
134.0129021143894
 30
0.0
 10
163.6685892284042
 20
134.023247716472
 30
0.0
 10
163.6948147673412
 20
134.0231701695706
 30
0.0
  0
SPLINE
  5
1A3
330
1F
100
AcDbEntity
  8
0
  6
Continuous
 62
     8
370
    18
100
AcDbSpline
210
0.0
220
0.0
230
1.0
 70
    24
 71
     3
 72
    10
 73
     6
 74
     0
 42
0.00000001
 43
0.00000001
 40
0.0
 40
0.0
 40
0.0
 40
0.0
 40
0.0670593863038771
 40
0.5580268996030723
 40
0.9999999999999999
 40
0.9999999999999999
 40
0.9999999999999999
 40
0.9999999999999999
 10
189.0661264822117
 20
104.154150584546
 30
0.0
 10
189.0661264822117
 20
104.1588384623267
 30
0.0
 10
189.0661264822117
 20
104.1978480931604
 30
0.0
 10
189.0661264822117
 20
104.2906040008031
 30
0.0
 10
189.0661264822117
 20
104.3672804578968
 30
0.0
 10
189.0661264822117
 20
104.4036053117745
 30
0.0
  0
ENDSEC
  0
SECTION
  2
OBJECTS
  0
DICTIONARY
  5
C
330
0
100
AcDbDictionary
281
     1
  3
ACAD_GROUP
350
D
  3
ACAD_LAYOUT
350
1A
  3
ACAD_MLINESTYLE
350
17
  3
ACAD_PLOTSETTINGS
350
19
  3
ACAD_PLOTSTYLENAME
350
E
  3
ACAD_SCALELIST
350
47
  3
DWGPROPS
350
1A4
  0
DICTIONARY
  5
D
102
{ACAD_REACTORS
330
C
102
}
330
C
100
AcDbDictionary
281
     1
  0
DICTIONARY
  5
1A
102
{ACAD_REACTORS
330
C
102
}
330
C
100
AcDbDictionary
281
     1
  3
Layout1
350
1E
  3
Layout2
350
26
  3
Model
350
22
  0
DICTIONARY
  5
17
102
{ACAD_REACTORS
330
C
102
}
330
C
100
AcDbDictionary
281
     1
  3
Standard
350
18
  0
DICTIONARY
  5
19
102
{ACAD_REACTORS
330
C
102
}
330
C
100
AcDbDictionary
281
     1
  0
ACDBDICTIONARYWDFLT
  5
E
102
{ACAD_REACTORS
330
C
102
}
330
C
100
AcDbDictionary
281
     1
  3
Normal
350
F
100
AcDbDictionaryWithDefault
340
F
  0
DICTIONARY
  5
47
102
{ACAD_REACTORS
330
C
102
}
330
C
100
AcDbDictionary
281
     1
  3
A0
350
48
  3
A1
350
49
  3
A2
350
4A
  3
A3
350
4B
  3
A4
350
4C
  3
A5
350
4D
  3
A6
350
4E
  3
A7
350
4F
  3
A8
350
50
  3
A9
350
51
  3
B0
350
52
  3
B1
350
53
  3
B2
350
54
  3
B3
350
55
  3
B4
350
56
  3
B5
350
57
  3
B6
350
58
  3
B7
350
59
  3
B8
350
5A
  3
B9
350
5B
  3
C0
350
5C
  3
C1
350
5D
  3
C2
350
5E
  3
C3
350
5F
  3
C4
350
60
  3
C5
350
61
  3
C6
350
62
  3
C7
350
63
  3
C8
350
64
  3
C9
350
65
  3
D0
350
66
  3
D1
350
67
  3
D2
350
68
  0
XRECORD
  5
1A4
102
{ACAD_REACTORS
330
C
102
}
330
C
100
AcDbXrecord
280
     1
  1
DWGPROPS COOKIE
  2

  3

  4

  6

  7

  8
estudent
  9

300
=
301
=
302
=
303
=
304
=
305
=
306
=
307
=
308
=
309
=
 40
0.0
 41
2460006.267694363
 42
2460006.267696215
  1

 90
        0
  0
LAYOUT
  5
1E
102
{ACAD_REACTORS
330
1A
102
}
330
1A
100
AcDbPlotSettings
  1

  2
none_device
  4

  6

 40
0.0
 41
0.0
 42
0.0
 43
0.0
 44
0.0
 45
0.0
 46
0.0
 47
0.0
 48
0.0
 49
0.0
140
0.0
141
0.0
142
1.0
143
1.0
 70
   688
 72
     1
 73
     0
 74
     5
  7

 75
    16
147
1.0
148
0.0
149
0.0
100
AcDbLayout
  1
Layout1
 70
     1
 71
     1
 10
0.0
 20
0.0
 11
420.0
 21
297.0
 12
0.0
 22
0.0
 32
0.0
 14
1.0000000000E+20
 24
1.0000000000E+20
 34
1.0000000000E+20
 15
-1.0000000000E+20
 25
-1.0000000000E+20
 35
-1.0000000000E+20
146
0.0
 13
0.0
 23
0.0
 33
0.0
 16
1.0
 26
0.0
 36
0.0
 17
0.0
 27
1.0
 37
0.0
 76
     0
330
1B
  0
LAYOUT
  5
26
102
{ACAD_REACTORS
330
1A
102
}
330
1A
100
AcDbPlotSettings
  1

  2
none_device
  4

  6

 40
0.0
 41
0.0
 42
0.0
 43
0.0
 44
0.0
 45
0.0
 46
0.0
 47
0.0
 48
0.0
 49
0.0
140
0.0
141
0.0
142
1.0
143
1.0
 70
   688
 72
     1
 73
     0
 74
     5
  7

 75
    16
147
1.0
148
0.0
149
0.0
100
AcDbLayout
  1
Layout2
 70
     1
 71
     2
 10
0.0
 20
0.0
 11
0.0
 21
0.0
 12
0.0
 22
0.0
 32
0.0
 14
0.0
 24
0.0
 34
0.0
 15
0.0
 25
0.0
 35
0.0
146
0.0
 13
0.0
 23
0.0
 33
0.0
 16
1.0
 26
0.0
 36
0.0
 17
0.0
 27
1.0
 37
0.0
 76
     0
330
23
  0
LAYOUT
  5
22
102
{ACAD_REACTORS
330
1A
102
}
330
1A
100
AcDbPlotSettings
  1

  2
none_device
  4
Letter_(8.50_x_11.00_Inches)
  6

 40
6.35
 41
6.35
 42
6.35000508
 43
6.35000508
 44
215.9
 45
279.4
 46
0.0
 47
0.0
 48
0.0
 49
0.0
140
0.0
141
0.0
142
1.0
143
1.0
 70
  1712
 72
     1
 73
     0
 74
     0
  7

 75
     0
147
1.0
148
0.0
149
0.0
100
AcDbLayout
  1
Model
 70
     1
 71
     0
 10
0.0
 20
0.0
 11
594.0
 21
841.0
 12
0.0
 22
0.0
 32
0.0
 14
0.0
 24
0.0
 34
0.0
 15
594.0
 25
841.0
 35
0.0
146
0.0
 13
0.0
 23
0.0
 33
0.0
 16
1.0
 26
0.0
 36
0.0
 17
0.0
 27
1.0
 37
0.0
 76
     0
330
1F
331
29
  0
MLINESTYLE
  5
18
102
{ACAD_REACTORS
330
17
102
}
330
17
100
AcDbMlineStyle
  2
Standard
 70
     0
  3

 62
   256
 51
90.0
 52
90.0
 71
     2
 49
0.5
 62
   256
  6
BYLAYER
 49
-0.5
 62
   256
  6
BYLAYER
  0
ACDBPLACEHOLDER
  5
F
102
{ACAD_REACTORS
330
E
102
}
330
E
  0
SCALE
  5
48
102
{ACAD_REACTORS
330
47
102
}
330
47
100
AcDbScale
 70
     0
300
1:1
140
1.0
141
1.0
290
     1
  0
SCALE
  5
49
102
{ACAD_REACTORS
330
47
102
}
330
47
100
AcDbScale
 70
     0
300
1:2
140
1.0
141
2.0
290
     0
  0
SCALE
  5
4A
102
{ACAD_REACTORS
330
47
102
}
330
47
100
AcDbScale
 70
     0
300
1:4
140
1.0
141
4.0
290
     0
  0
SCALE
  5
4B
102
{ACAD_REACTORS
330
47
102
}
330
47
100
AcDbScale
 70
     0
300
1:5
140
1.0
141
5.0
290
     0
  0
SCALE
  5
4C
102
{ACAD_REACTORS
330
47
102
}
330
47
100
AcDbScale
 70
     0
300
1:8
140
1.0
141
8.0
290
     0
  0
SCALE
  5
4D
102
{ACAD_REACTORS
330
47
102
}
330
47
100
AcDbScale
 70
     0
300
1:10
140
1.0
141
10.0
290
     0
  0
SCALE
  5
4E
102
{ACAD_REACTORS
330
47
102
}
330
47
100
AcDbScale
 70
     0
300
1:16
140
1.0
141
16.0
290
     0
  0
SCALE
  5
4F
102
{ACAD_REACTORS
330
47
102
}
330
47
100
AcDbScale
 70
     0
300
1:20
140
1.0
141
20.0
290
     0
  0
SCALE
  5
50
102
{ACAD_REACTORS
330
47
102
}
330
47
100
AcDbScale
 70
     0
300
1:30
140
1.0
141
30.0
290
     0
  0
SCALE
  5
51
102
{ACAD_REACTORS
330
47
102
}
330
47
100
AcDbScale
 70
     0
300
1:40
140
1.0
141
40.0
290
     0
  0
SCALE
  5
52
102
{ACAD_REACTORS
330
47
102
}
330
47
100
AcDbScale
 70
     0
300
1:50
140
1.0
141
50.0
290
     0
  0
SCALE
  5
53
102
{ACAD_REACTORS
330
47
102
}
330
47
100
AcDbScale
 70
     0
300
1:100
140
1.0
141
100.0
290
     0
  0
SCALE
  5
54
102
{ACAD_REACTORS
330
47
102
}
330
47
100
AcDbScale
 70
     0
300
2:1
140
2.0
141
1.0
290
     0
  0
SCALE
  5
55
102
{ACAD_REACTORS
330
47
102
}
330
47
100
AcDbScale
 70
     0
300
4:1
140
4.0
141
1.0
290
     0
  0
SCALE
  5
56
102
{ACAD_REACTORS
330
47
102
}
330
47
100
AcDbScale
 70
     0
300
8:1
140
8.0
141
1.0
290
     0
  0
SCALE
  5
57
102
{ACAD_REACTORS
330
47
102
}
330
47
100
AcDbScale
 70
     0
300
10:1
140
10.0
141
1.0
290
     0
  0
SCALE
  5
58
102
{ACAD_REACTORS
330
47
102
}
330
47
100
AcDbScale
 70
     0
300
100:1
140
100.0
141
1.0
290
     0
  0
SCALE
  5
59
102
{ACAD_REACTORS
330
47
102
}
330
47
100
AcDbScale
 70
     0
300
1/128" = 1'-0"
140
0.0078125
141
12.0
290
     0
  0
SCALE
  5
5A
102
{ACAD_REACTORS
330
47
102
}
330
47
100
AcDbScale
 70
     0
300
1/64" = 1'-0"
140
0.015625
141
12.0
290
     0
  0
SCALE
  5
5B
102
{ACAD_REACTORS
330
47
102
}
330
47
100
AcDbScale
 70
     0
300
1/32" = 1'-0"
140
0.03125
141
12.0
290
     0
  0
SCALE
  5
5C
102
{ACAD_REACTORS
330
47
102
}
330
47
100
AcDbScale
 70
     0
300
1/16" = 1'-0"
140
0.0625
141
12.0
290
     0
  0
SCALE
  5
5D
102
{ACAD_REACTORS
330
47
102
}
330
47
100
AcDbScale
 70
     0
300
3/32" = 1'-0"
140
0.09375
141
12.0
290
     0
  0
SCALE
  5
5E
102
{ACAD_REACTORS
330
47
102
}
330
47
100
AcDbScale
 70
     0
300
1/8" = 1'-0"
140
0.125
141
12.0
290
     0
  0
SCALE
  5
5F
102
{ACAD_REACTORS
330
47
102
}
330
47
100
AcDbScale
 70
     0
300
3/16" = 1'-0"
140
0.1875
141
12.0
290
     0
  0
SCALE
  5
60
102
{ACAD_REACTORS
330
47
102
}
330
47
100
AcDbScale
 70
     0
300
1/4" = 1'-0"
140
0.25
141
12.0
290
     0
  0
SCALE
  5
61
102
{ACAD_REACTORS
330
47
102
}
330
47
100
AcDbScale
 70
     0
300
3/8" = 1'-0"
140
0.375
141
12.0
290
     0
  0
SCALE
  5
62
102
{ACAD_REACTORS
330
47
102
}
330
47
100
AcDbScale
 70
     0
300
1/2" = 1'-0"
140
0.5
141
12.0
290
     0
  0
SCALE
  5
63
102
{ACAD_REACTORS
330
47
102
}
330
47
100
AcDbScale
 70
     0
300
3/4" = 1'-0"
140
0.75
141
12.0
290
     0
  0
SCALE
  5
64
102
{ACAD_REACTORS
330
47
102
}
330
47
100
AcDbScale
 70
     0
300
1" = 1'-0"
140
1.0
141
12.0
290
     0
  0
SCALE
  5
65
102
{ACAD_REACTORS
330
47
102
}
330
47
100
AcDbScale
 70
     0
300
1-1/2" = 1'-0"
140
1.5
141
12.0
290
     0
  0
SCALE
  5
66
102
{ACAD_REACTORS
330
47
102
}
330
47
100
AcDbScale
 70
     0
300
3" = 1'-0"
140
3.0
141
12.0
290
     0
  0
SCALE
  5
67
102
{ACAD_REACTORS
330
47
102
}
330
47
100
AcDbScale
 70
     0
300
6" = 1'-0"
140
6.0
141
12.0
290
     0
  0
SCALE
  5
68
102
{ACAD_REACTORS
330
47
102
}
330
47
100
AcDbScale
 70
     0
300
1'-0" = 1'-0"
140
12.0
141
12.0
290
     0
  0
ENDSEC
  0
EOF
