  0
SECTION
  2
HEADER
  9
$ACADVER
  1
AC1015
  9
$ACADMAINTVER
 70
     6
  9
$DWGCODEPAGE
  3
ANSI_1252
  9
$INSBASE
 10
0.0
 20
0.0
 30
0.0
  9
$EXTMIN
 10
0.0
 20
0.0
 30
0.0
  9
$EXTMAX
 10
594.0
 20
841.0
 30
0.0
  9
$LIMMIN
 10
0.0
 20
0.0
  9
$LIMMAX
 10
594.0
 20
841.0
  9
$ORTHOMODE
 70
     0
  9
$REGENMODE
 70
     1
  9
$FILLMODE
 70
     1
  9
$QTEXTMODE
 70
     0
  9
$MIRRTEXT
 70
     1
  9
$LTSCALE
 40
1.0
  9
$ATTMODE
 70
     1
  9
$TEXTSIZE
 40
10.0
  9
$TRACEWID
 40
1.0
  9
$TEXTSTYLE
  7
Standard
  9
$CLAYER
  8
0
  9
$CELTYPE
  6
ByLayer
  9
$CECOLOR
 62
   256
  9
$CELTSCALE
 40
1.0
  9
$DISPSILH
 70
     0
  9
$DIMSCALE
 40
1.0
  9
$DIMASZ
 40
2.5
  9
$DIMEXO
 40
0.0
  9
$DIMDLI
 40
3.75
  9
$DIMRND
 40
0.0
  9
$DIMDLE
 40
0.0
  9
$DIMEXE
 40
1.0
  9
$DIMTP
 40
0.0
  9
$DIMTM
 40
0.0
  9
$DIMTXT
 40
3.5
  9
$DIMCEN
 40
2.5
  9
$DIMTSZ
 40
0.0
  9
$DIMTOL
 70
     0
  9
$DIMLIM
 70
     0
  9
$DIMTIH
 70
     1
  9
$DIMTOH
 70
     1
  9
$DIMSE1
 70
     0
  9
$DIMSE2
 70
     0
  9
$DIMTAD
 70
     1
  9
$DIMZIN
 70
     0
  9
$DIMBLK
  1

  9
$DIMASO
 70
     1
  9
$DIMSHO
 70
     1
  9
$DIMPOST
  1

  9
$DIMAPOST
  1

  9
$DIMALT
 70
     0
  9
$DIMALTD
 70
     3
  9
$DIMALTF
 40
0.0393700787
  9
$DIMLFAC
 40
1.0
  9
$DIMTOFL
 70
     1
  9
$DIMTVP
 40
0.0
  9
$DIMTIX
 70
     0
  9
$DIMSOXD
 70
     0
  9
$DIMSAH
 70
     0
  9
$DIMBLK1
  1

  9
$DIMBLK2
  1

  9
$DIMSTYLE
  2
ISO-25
  9
$DIMCLRD
 70
     0
  9
$DIMCLRE
 70
     0
  9
$DIMCLRT
 70
     0
  9
$DIMTFAC
 40
1.0
  9
$DIMGAP
 40
1.5
  9
$DIMJUST
 70
     0
  9
$DIMSD1
 70
     0
  9
$DIMSD2
 70
     0
  9
$DIMTOLJ
 70
     0
  9
$DIMTZIN
 70
     0
  9
$DIMALTZ
 70
     0
  9
$DIMALTTZ
 70
     0
  9
$DIMUPT
 70
     0
  9
$DIMDEC
 70
     2
  9
$DIMTDEC
 70
     2
  9
$DIMALTU
 70
     2
  9
$DIMALTTD
 70
     3
  9
$DIMTXSTY
  7
Standard
  9
$DIMAUNIT
 70
     0
  9
$DIMADEC
 70
     2
  9
$DIMALTRND
 40
0.0
  9
$DIMAZIN
 70
     0
  9
$DIMDSEP
 70
    44
  9
$DIMATFIT
 70
     3
  9
$DIMFRAC
 70
     0
  9
$DIMLDRBLK
  1

  9
$DIMLUNIT
 70
     2
  9
$DIMLWD
 70
    -2
  9
$DIMLWE
 70
    -2
  9
$DIMTMOVE
 70
     0
  9
$LUNITS
 70
     2
  9
$LUPREC
 70
     2
  9
$SKETCHINC
 40
1.0
  9
$FILLETRAD
 40
10.0
  9
$AUNITS
 70
     0
  9
$AUPREC
 70
     2
  9
$MENU
  1
.
  9
$ELEVATION
 40
0.0
  9
$PELEVATION
 40
0.0
  9
$THICKNESS
 40
0.0
  9
$LIMCHECK
 70
     0
  9
$CHAMFERA
 40
0.0
  9
$CHAMFERB
 40
0.0
  9
$CHAMFERC
 40
0.0
  9
$CHAMFERD
 40
0.0
  9
$SKPOLY
 70
     0
  9
$TDCREATE
 40
2457660.655372766
  9
$TDUCREATE
 40
2457660.572039433
  9
$TDUPDATE
 40
2457660.655378009
  9
$TDUUPDATE
 40
2457660.572044676
  9
$TDINDWG
 40
0.0000000116
  9
$TDUSRTIMER
 40
0.0000000116
  9
$USRTIMER
 70
     1
  9
$ANGBASE
 50
0.0
  9
$ANGDIR
 70
     0
  9
$PDMODE
 70
     0
  9
$PDSIZE
 40
-1.0
  9
$PLINEWID
 40
0.0
  9
$SPLFRAME
 70
     0
  9
$SPLINETYPE
 70
     6
  9
$SPLINESEGS
 70
     8
  9
$HANDSEED
  5
1D0
  9
$SURFTAB1
 70
     6
  9
$SURFTAB2
 70
     6
  9
$SURFTYPE
 70
     6
  9
$SURFU
 70
     6
  9
$SURFV
 70
     6
  9
$UCSBASE
  2

  9
$UCSNAME
  2

  9
$UCSORG
 10
0.0
 20
0.0
 30
0.0
  9
$UCSXDIR
 10
1.0
 20
0.0
 30
0.0
  9
$UCSYDIR
 10
0.0
 20
1.0
 30
0.0
  9
$UCSORTHOREF
  2

  9
$UCSORTHOVIEW
 70
     0
  9
$UCSORGTOP
 10
0.0
 20
0.0
 30
0.0
  9
$UCSORGBOTTOM
 10
0.0
 20
0.0
 30
0.0
  9
$UCSORGLEFT
 10
0.0
 20
0.0
 30
0.0
  9
$UCSORGRIGHT
 10
0.0
 20
0.0
 30
0.0
  9
$UCSORGFRONT
 10
0.0
 20
0.0
 30
0.0
  9
$UCSORGBACK
 10
0.0
 20
0.0
 30
0.0
  9
$PUCSBASE
  2

  9
$PUCSNAME
  2

  9
$PUCSORG
 10
0.0
 20
0.0
 30
0.0
  9
$PUCSXDIR
 10
1.0
 20
0.0
 30
0.0
  9
$PUCSYDIR
 10
0.0
 20
1.0
 30
0.0
  9
$PUCSORTHOREF
  2

  9
$PUCSORTHOVIEW
 70
     0
  9
$PUCSORGTOP
 10
0.0
 20
0.0
 30
0.0
  9
$PUCSORGBOTTOM
 10
0.0
 20
0.0
 30
0.0
  9
$PUCSORGLEFT
 10
0.0
 20
0.0
 30
0.0
  9
$PUCSORGRIGHT
 10
0.0
 20
0.0
 30
0.0
  9
$PUCSORGFRONT
 10
0.0
 20
0.0
 30
0.0
  9
$PUCSORGBACK
 10
0.0
 20
0.0
 30
0.0
  9
$USERI1
 70
     0
  9
$USERI2
 70
     0
  9
$USERI3
 70
     0
  9
$USERI4
 70
     0
  9
$USERI5
 70
     0
  9
$USERR1
 40
0.0
  9
$USERR2
 40
0.0
  9
$USERR3
 40
0.0
  9
$USERR4
 40
0.0
  9
$USERR5
 40
0.0
  9
$WORLDVIEW
 70
     1
  9
$SHADEDGE
 70
     3
  9
$SHADEDIF
 70
    70
  9
$TILEMODE
 70
     1
  9
$MAXACTVP
 70
    64
  9
$PINSBASE
 10
0.0
 20
0.0
 30
0.0
  9
$PLIMCHECK
 70
     0
  9
$PEXTMIN
 10
1.0000000000E+20
 20
1.0000000000E+20
 30
1.0000000000E+20
  9
$PEXTMAX
 10
-1.0000000000E+20
 20
-1.0000000000E+20
 30
-1.0000000000E+20
  9
$PLIMMIN
 10
0.0
 20
0.0
  9
$PLIMMAX
 10
420.0
 20
297.0
  9
$UNITMODE
 70
     0
  9
$VISRETAIN
 70
     1
  9
$PLINEGEN
 70
     0
  9
$PSLTSCALE
 70
     1
  9
$TREEDEPTH
 70
  3020
  9
$CMLSTYLE
  2
Standard
  9
$CMLJUST
 70
     0
  9
$CMLSCALE
 40
20.0
  9
$PROXYGRAPHICS
 70
     1
  9
$MEASUREMENT
 70
     1
  9
$CELWEIGHT
370
    -1
  9
$ENDCAPS
280
     0
  9
$JOINSTYLE
280
     0
  9
$LWDISPLAY
290
     1
  9
$INSUNITS
 70
     4
  9
$HYPERLINKBASE
  1

  9
$STYLESHEET
  1

  9
$XEDIT
290
     1
  9
$CEPSNTYPE
380
     0
  9
$PSTYLEMODE
290
     1
  9
$FINGERPRINTGUID
  2
{B56EA074-F2F5-449D-A482-B121041D5857}
  9
$VERSIONGUID
  2
{FAEB1C32-E019-11D5-929B-00C0DF256EC4}
  9
$EXTNAMES
290
     1
  9
$PSVPSCALE
 40
0.0
  9
$OLESTARTUP
290
     0
  0
ENDSEC
  0
SECTION
  2
CLASSES
  0
CLASS
  1
ACDBDICTIONARYWDFLT
  2
AcDbDictionaryWithDefault
  3
ObjectDBX Classes
 90
        0
280
     0
281
     0
  0
CLASS
  1
VISUALSTYLE
  2
AcDbVisualStyle
  3
ObjectDBX Classes
 90
     4095
280
     0
281
     0
  0
CLASS
  1
MATERIAL
  2
AcDbMaterial
  3
ObjectDBX Classes
 90
     1153
280
     0
281
     0
  0
CLASS
  1
SCALE
  2
AcDbScale
  3
ObjectDBX Classes
 90
     1153
280
     0
281
     0
  0
CLASS
  1
SUN
  2
AcDbSun
  3
SCENEOE
 90
     1153
280
     0
281
     0
  0
CLASS
  1
ACDBPLACEHOLDER
  2
AcDbPlaceHolder
  3
ObjectDBX Classes
 90
        0
280
     0
281
     0
  0
CLASS
  1
LAYOUT
  2
AcDbLayout
  3
ObjectDBX Classes
 90
        0
280
     0
281
     0
  0
ENDSEC
  0
SECTION
  2
TABLES
  0
TABLE
  2
VPORT
  5
8
330
0
100
AcDbSymbolTable
 70
     1
  0
VPORT
  5
29
330
8
100
AcDbSymbolTableRecord
100
AcDbViewportTableRecord
  2
*Active
 70
     0
 10
0.0
 20
0.0
 11
1.0
 21
1.0
 12
297.0
 22
420.5
 13
0.0
 23
0.0
 14
10.0
 24
10.0
 15
10.0
 25
10.0
 16
0.0
 26
0.0
 36
1.0
 17
0.0
 27
0.0
 37
0.0
 40
841.0
 41
0.7063020214
 42
50.0
 43
0.0
 44
0.0
 50
0.0
 51
0.0
 71
     0
 72
  2000
 73
     1
 74
     3
 75
     0
 76
     0
 77
     0
 78
     0
281
     0
 65
     1
110
0.0
120
0.0
130
0.0
111
1.0
121
0.0
131
0.0
112
0.0
122
1.0
132
0.0
 79
     0
146
0.0
  0
ENDTAB
  0
TABLE
  2
LTYPE
  5
5
330
0
100
AcDbSymbolTable
 70
     6
  0
LTYPE
  5
14
330
5
100
AcDbSymbolTableRecord
100
AcDbLinetypeTableRecord
  2
ByBlock
 70
     0
  3

 72
    65
 73
     0
 40
0.0
  0
LTYPE
  5
15
330
5
100
AcDbSymbolTableRecord
100
AcDbLinetypeTableRecord
  2
ByLayer
 70
     0
  3

 72
    65
 73
     0
 40
0.0
  0
LTYPE
  5
16
330
5
100
AcDbSymbolTableRecord
100
AcDbLinetypeTableRecord
  2
Continuous
 70
     0
  3
Solid line
 72
    65
 73
     0
 40
0.0
  0
LTYPE
  5
6A
330
5
100
AcDbSymbolTableRecord
100
AcDbLinetypeTableRecord
  2
HIDDEN
 70
     0
  3
Hidden __ __ __ __ __ __ __ __ __ __ __ __ __ __
 72
    65
 73
     2
 40
1.905
 49
1.27
 74
     0
 49
-0.635
 74
     0
  0
LTYPE
  5
6B
330
5
100
AcDbSymbolTableRecord
100
AcDbLinetypeTableRecord
  2
PHANTOM
 70
     0
  3
Phantom ______  __  __  ______  __  __  ______
 72
    65
 73
     6
 40
12.7
 49
6.35
 74
     0
 49
-1.27
 74
     0
 49
1.27
 74
     0
 49
-1.27
 74
     0
 49
1.27
 74
     0
 49
-1.27
 74
     0
  0
LTYPE
  5
6C
330
5
100
AcDbSymbolTableRecord
100
AcDbLinetypeTableRecord
  2
CENTER
 70
     0
  3
Center ____ _ ____ _ ____ _ ____ _ ____ _ ____
 72
    65
 73
     4
 40
10.16
 49
6.35
 74
     0
 49
-1.27
 74
     0
 49
1.27
 74
     0
 49
-1.27
 74
     0
  0
LTYPE
  5
6D
330
5
100
AcDbSymbolTableRecord
100
AcDbLinetypeTableRecord
  2
CENTERX2
 70
     0
  3
Center (2x) ________  __  ________  __  _____
 72
    65
 73
     4
 40
20.32
 49
12.7
 74
     0
 49
-2.54
 74
     0
 49
2.54
 74
     0
 49
-2.54
 74
     0
  0
LTYPE
  5
6E
330
5
100
AcDbSymbolTableRecord
100
AcDbLinetypeTableRecord
  2
DOT2
 70
     0
  3
Dot (.5x) ........................................
 72
    65
 73
     2
 40
0.635
 49
0.0
 74
     0
 49
-0.635
 74
     0
  0
ENDTAB
  0
TABLE
  2
LAYER
  5
2
330
0
100
AcDbSymbolTable
 70
     1
  0
LAYER
  5
10
330
2
100
AcDbSymbolTableRecord
100
AcDbLayerTableRecord
  2
0
 70
     0
 62
     7
  6
Continuous
370
    -3
390
F
  0
ENDTAB
  0
TABLE
  2
STYLE
  5
3
330
0
100
AcDbSymbolTable
 70
     3
  0
STYLE
  5
11
330
3
100
AcDbSymbolTableRecord
100
AcDbTextStyleTableRecord
  2
Standard
 70
     0
 40
0.0
 41
1.0
 50
0.0
 71
     0
 42
10.0
  3
txt
  4

  0
STYLE
  5
72
330
3
100
AcDbSymbolTableRecord
100
AcDbTextStyleTableRecord
  2
SLDTEXTSTYLE0
 70
     0
 40
0.0
 41
0.96
 50
0.0
 71
     0
 42
10.0
  3
ISOCP3
  4

  0
STYLE
  5
89
330
3
100
AcDbSymbolTableRecord
100
AcDbTextStyleTableRecord
  2
SLDTEXTSTYLE1
 70
     0
 40
0.0
 41
0.605
 50
0.0
 71
     0
 42
10.0
  3
TXT
  4

  0
ENDTAB
  0
TABLE
  2
VIEW
  5
6
330
0
100
AcDbSymbolTable
 70
     0
  0
ENDTAB
  0
TABLE
  2
UCS
  5
7
330
0
100
AcDbSymbolTable
 70
     0
  0
ENDTAB
  0
TABLE
  2
APPID
  5
9
330
0
100
AcDbSymbolTable
 70
     1
  0
APPID
  5
12
330
9
100
AcDbSymbolTableRecord
100
AcDbRegAppTableRecord
  2
ACAD
 70
     0
  0
ENDTAB
  0
TABLE
  2
DIMSTYLE
  5
A
330
0
100
AcDbSymbolTable
 70
     2
100
AcDbDimStyleTable
  0
DIMSTYLE
105
27
330
A
100
AcDbSymbolTableRecord
100
AcDbDimStyleTableRecord
  2
ISO-25
 70
     0
 41
2.5
 42
0.625
 43
3.75
 44
1.25
 73
     0
 74
     0
 77
     1
 78
     8
140
2.5
141
2.5
143
0.0393700787
147
0.625
171
     3
172
     1
178
     0
271
     2
272
     2
274
     3
278
    44
283
     0
284
     8
340
11
  0
DIMSTYLE
105
73
102
{ACAD_REACTORS
330
71
330
7E
102
}
330
A
100
AcDbSymbolTableRecord
100
AcDbDimStyleTableRecord
  2
SLDDIMSTYLE0
 70
     0
 41
2.5
 44
0.0
 45
0.000000001
 73
     0
 74
     0
 77
     1
 78
    12
 79
     3
140
6.0
147
1.5
173
     1
178
     0
271
     2
272
     2
276
     2
284
    12
340
72
  0
ENDTAB
  0
TABLE
  2
BLOCK_RECORD
  5
1
330
0
100
AcDbSymbolTable
 70
     3
  0
BLOCK_RECORD
  5
1F
330
1
100
AcDbSymbolTableRecord
100
AcDbBlockTableRecord
  2
*Model_Space
340
22
  0
BLOCK_RECORD
  5
1B
330
1
100
AcDbSymbolTableRecord
100
AcDbBlockTableRecord
  2
*Paper_Space
340
1E
  0
BLOCK_RECORD
  5
23
330
1
100
AcDbSymbolTableRecord
100
AcDbBlockTableRecord
  2
*Paper_Space0
340
26
  0
BLOCK_RECORD
  5
74
330
1
100
AcDbSymbolTableRecord
100
AcDbBlockTableRecord
  2
_D
340
0
  0
BLOCK_RECORD
  5
7F
330
1
100
AcDbSymbolTableRecord
100
AcDbBlockTableRecord
  2
_D_1
340
0
  0
ENDTAB
  0
ENDSEC
  0
SECTION
  2
BLOCKS
  0
BLOCK
  5
20
330
1F
100
AcDbEntity
  8
0
100
AcDbBlockBegin
  2
*Model_Space
 70
     0
 10
0.0
 20
0.0
 30
0.0
  3
*Model_Space
  1
*Model_Space
  0
ENDBLK
  5
21
330
1F
100
AcDbEntity
  8
0
100
AcDbBlockEnd
  0
BLOCK
  5
1C
330
1B
100
AcDbEntity
 67
     1
  8
0
100
AcDbBlockBegin
  2
*Paper_Space
 70
     0
 10
0.0
 20
0.0
 30
0.0
  3
*Paper_Space
  1
*Paper_Space
  0
ENDBLK
  5
1D
330
1B
100
AcDbEntity
 67
     1
  8
0
100
AcDbBlockEnd
  0
BLOCK
  5
24
330
23
100
AcDbEntity
  8
0
100
AcDbBlockBegin
  2
*Paper_Space0
 70
     0
 10
0.0
 20
0.0
 30
0.0
  3
*Paper_Space0
  1
*Paper_Space0
  0
ENDBLK
  5
25
330
23
100
AcDbEntity
  8
0
100
AcDbBlockEnd
  0
BLOCK
  5
75
330
74
100
AcDbEntity
  8
0
100
AcDbBlockBegin
  2
_D
 70
     0
 10
0.0
 20
0.0
 30
0.0
  3
_D
  1
_D
  0
SOLID
  5
77
330
74
100
AcDbEntity
  8
0
  6
Continuous
 62
     7
370
     0
100
AcDbTrace
 10
42.7614395004
 20
152.0299240879
 30
0.0
 11
42.4614395004
 21
149.5299240879
 31
0.0
 12
43.0614395004
 22
149.5299240879
 32
0.0
 13
43.0614395004
 23
149.5299240879
 33
0.0
  0
SOLID
  5
78
330
74
100
AcDbEntity
  8
0
  6
Continuous
 62
     7
370
     0
100
AcDbTrace
 10
42.7614395004
 20
52.0299240879
 30
0.0
 11
43.0614395004
 21
54.5299240879
 31
0.0
 12
42.4614395004
 22
54.5299240879
 32
0.0
 13
42.4614395004
 23
54.5299240879
 33
0.0
  0
LINE
  5
79
330
74
100
AcDbEntity
  8
0
  6
Continuous
 62
     7
370
     0
100
AcDbLine
 10
56.6850079902
 20
152.0299240879
 30
0.0
 11
41.7614395004
 21
152.0299240879
 31
0.0
  0
LINE
  5
7A
330
74
100
AcDbEntity
  8
0
  6
Continuous
 62
     7
370
     0
100
AcDbLine
 10
56.6850079902
 20
52.0299240879
 30
0.0
 11
41.7614395004
 21
52.0299240879
 31
0.0
  0
LINE
  5
7B
330
74
100
AcDbEntity
  8
0
  6
Continuous
 62
     7
370
     0
100
AcDbLine
 10
42.7614395004
 20
152.0299240879
 30
0.0
 11
42.7614395004
 21
52.0299240879
 31
0.0
  0
MTEXT
  5
7C
330
74
100
AcDbEntity
  8
0
  6
Continuous
 62
     7
370
     0
100
AcDbMText
 10
35.0270332946
 20
94.3680541463
 30
0.0
 40
6.0
 41
0.0
 71
     1
 72
     1
  1
100
  7
SLDTEXTSTYLE0
 11
-7.044195017643634E-15
 21
1.0
 31
0.0
 73
     1
 44
1.0
  0
MTEXT
  5
7D
330
74
100
AcDbEntity
  8
0
  6
Continuous
 62
     7
370
     0
100
AcDbMText
 10
35.0270332946
 20
105.7430548466
 30
0.0
 40
6.0
 41
0.0
 71
     1
 72
     1
  1
mm
  7
SLDTEXTSTYLE0
 11
-7.044195017643634E-15
 21
1.0
 31
0.0
 73
     1
 44
1.0
  0
ENDBLK
  5
76
330
74
100
AcDbEntity
  8
0
100
AcDbBlockEnd
  0
BLOCK
  5
80
330
7F
100
AcDbEntity
  8
0
100
AcDbBlockBegin
  2
_D_1
 70
     0
 10
0.0
 20
0.0
 30
0.0
  3
_D_1
  1
_D_1
  0
SOLID
  5
82
330
7F
100
AcDbEntity
  8
0
  6
Continuous
 62
     7
370
     0
100
AcDbTrace
 10
56.6850079902
 20
38.4602342313
 30
0.0
 11
59.1850079902
 21
38.1602342313
 31
0.0
 12
59.1850079902
 22
38.7602342313
 32
0.0
 13
59.1850079902
 23
38.7602342313
 33
0.0
  0
SOLID
  5
83
330
7F
100
AcDbEntity
  8
0
  6
Continuous
 62
     7
370
     0
100
AcDbTrace
 10
156.6850079902
 20
38.4602342313
 30
0.0
 11
154.1850079902
 21
38.7602342313
 31
0.0
 12
154.1850079902
 22
38.1602342313
 32
0.0
 13
154.1850079902
 23
38.1602342313
 33
0.0
  0
LINE
  5
84
330
7F
100
AcDbEntity
  8
0
  6
Continuous
 62
     7
370
     0
100
AcDbLine
 10
56.6850079902
 20
52.0299240879
 30
0.0
 11
56.6850079902
 21
37.4602342313
 31
0.0
  0
LINE
  5
85
330
7F
100
AcDbEntity
  8
0
  6
Continuous
 62
     7
370
     0
100
AcDbLine
 10
156.6850079902
 20
52.0299240879
 30
0.0
 11
156.6850079902
 21
37.4602342313
 31
0.0
  0
LINE
  5
86
330
7F
100
AcDbEntity
  8
0
  6
Continuous
 62
     7
370
     0
100
AcDbLine
 10
56.6850079902
 20
38.4602342313
 30
0.0
 11
156.6850079902
 21
38.4602342313
 31
0.0
  0
MTEXT
  5
87
330
7F
100
AcDbEntity
  8
0
  6
Continuous
 62
     7
370
     0
100
AcDbMText
 10
93.9626484861
 20
46.1946404371
 30
0.0
 40
6.0
 41
0.0
 71
     1
 72
     1
  1
100
  7
SLDTEXTSTYLE0
 73
     1
 44
1.0
  0
MTEXT
  5
88
330
7F
100
AcDbEntity
  8
0
  6
Continuous
 62
     7
370
     0
100
AcDbMText
 10
105.3376491864
 20
46.1946404371
 30
0.0
 40
6.0
 41
0.0
 71
     1
 72
     1
  1
mm
  7
SLDTEXTSTYLE0
 73
     1
 44
1.0
  0
ENDBLK
  5
81
330
7F
100
AcDbEntity
  8
0
100
AcDbBlockEnd
  0
ENDSEC
  0
SECTION
  2
ENTITIES
  0
LINE
  5
6F
330
1F
100
AcDbEntity
  8
0
  6
Continuous
 62
     7
370
     0
100
AcDbLine
 10
56.6850079902
 20
152.0299240879
 30
0.0
 11
56.6850079902
 21
52.0299240879
 31
0.0
  0
LINE
  5
70
330
1F
100
AcDbEntity
  8
0
  6
Continuous
 62
     7
370
     0
100
AcDbLine
 10
56.6850079902
 20
52.0299240879
 30
0.0
 11
156.6850079902
 21
52.0299240879
 31
0.0
  0
DIMENSION
  5
71
330
1F
100
AcDbEntity
  8
0
  6
Continuous
 62
     7
370
     0
100
AcDbDimension
  2
_D
 10
42.7614395004
 20
52.0299240879
 30
0.0
 11
42.7614395004
 21
105.4472211621
 31
0.0
 70
   160
  1
<>mm
 71
     2
 42
-1.0
  3
SLDDIMSTYLE0
100
AcDbAlignedDimension
 13
56.6850079902
 23
152.0299240879
 33
0.0
 14
56.6850079902
 24
52.0299240879
 34
0.0
 50
90.0
100
AcDbRotatedDimension
  0
DIMENSION
  5
7E
330
1F
100
AcDbEntity
  8
0
  6
Continuous
 62
     7
370
     0
100
AcDbDimension
  2
_D_1
 10
156.6850079902
 20
38.4602342313
 30
0.0
 11
105.0418155019
 21
38.4602342313
 31
0.0
 70
   160
  1
<>mm
 71
     2
 42
-1.0
  3
SLDDIMSTYLE0
100
AcDbAlignedDimension
 13
56.6850079902
 23
52.0299240879
 33
0.0
 14
156.6850079902
 24
52.0299240879
 34
0.0
100
AcDbRotatedDimension
  0
MTEXT
  5
8A
330
1F
100
AcDbEntity
  8
0
  6
Continuous
 62
     7
370
     0
100
AcDbMText
 10
412.8252631579
 20
48.4342449499
 30
0.0
 40
10.0
 41
0.0
 71
     1
 72
     1
  1
KLUDI GmbH & Co KG
  7
SLDTEXTSTYLE1
 73
     1
 44
1.0
  0
MTEXT
  5
8B
330
1F
100
AcDbEntity
  8
0
  6
Continuous
 62
     7
370
     0
100
AcDbMText
 10
228.4298315182
 20
48.4342449499
 30
0.0
 40
10.0
 41
0.0
 71
     1
 72
     1
  1
52 247 05 75
  7
SLDTEXTSTYLE1
 73
     1
 44
1.0
  0
SPLINE
  5
8C
330
1F
100
AcDbEntity
  8
0
  6
Continuous
 62
     7
370
    15
100
AcDbSpline
210
0.0
220
0.0
230
1.0
 70
     8
 71
     3
 72
    14
 73
    10
 74
     0
 42
0.000000001
 43
0.00000001
 40
0.0
 40
0.0
 40
0.0
 40
0.0
 40
0.1747561217337311
 40
0.4226629216770203
 40
0.5783899692258581
 40
0.7277726992264644
 40
0.8638514382539596
 40
0.9870290064009547
 40
1.0
 40
1.0
 40
1.0
 40
1.0
 10
119.124022460764
 20
474.8682376675158
 30
0.0
 10
119.2236507198275
 20
474.9937133686049
 30
0.0
 10
119.4646103533993
 20
475.2971872949867
 30
0.0
 10
120.2718522055246
 20
476.4476790782133
 30
0.0
 10
121.3079679451551
 20
478.1084592957342
 30
0.0
 10
122.1224656863492
 20
479.6975884288748
 30
0.0
 10
122.7050460883154
 20
481.2011523938795
 30
0.0
 10
123.0425612518743
 20
482.2396439365471
 30
0.0
 10
123.1605208694586
 20
482.7610128944182
 30
0.0
 10
123.1717589862996
 20
482.8106841750293
 30
0.0
  0
SPLINE
  5
8D
330
1F
100
AcDbEntity
  8
0
  6
Continuous
 62
     7
370
    15
100
AcDbSpline
210
0.0
220
0.0
230
1.0
 70
     8
 71
     3
 72
    13
 73
     9
 74
     0
 42
0.000000001
 43
0.00000001
 40
0.0
 40
0.0
 40
0.0
 40
0.0
 40
0.0078125169020911
 40
0.198136682890254
 40
0.4083048285011148
 40
0.6245338325482638
 40
0.8535860153201974
 40
1.0
 40
1.0
 40
1.0
 40
1.0
 10
84.95557043630417
 20
482.8340189277976
 30
0.0
 10
84.96177620813961
 20
482.8032289747341
 30
0.0
 10
85.11916352155741
 20
482.0223514108445
 30
0.0
 10
85.6728648360525
 20
480.469198943622
 30
0.0
 10
86.78181715778372
 20
478.1275978821274
 30
0.0
 10
87.96154204025599
 20
476.2859637607967
 30
0.0
 10
88.75508752192421
 20
475.1759828769949
 30
0.0
 10
89.01371967006955
 20
474.8609050866922
 30
0.0
 10
89.11457393247422
 20
474.7380397029071
 30
0.0
  0
SPLINE
  5
8E
330
1F
100
AcDbEntity
  8
0
  6
Continuous
 62
     7
370
    15
100
AcDbSpline
210
0.0
220
0.0
230
1.0
 70
     8
 71
     3
 72
    23
 73
    19
 74
     0
 42
0.000000001
 43
0.00000001
 40
0.0
 40
0.0
 40
0.0
 40
0.0
 40
0.1200956225254278
 40
0.217860018022831
 40
0.3023007491377566
 40
0.4024552069738928
 40
0.4431106391477793
 40
0.4798579697437522
 40
0.5156519591924267
 40
0.5540749309729665
 40
0.5986234908862118
 40
0.652223524473512
 40
0.7171648079126366
 40
0.7949843538656767
 40
0.8364394842549818
 40
0.8768288544495738
 40
0.9249347651848554
 40
1.0
 40
1.0
 40
1.0
 40
1.0
 10
81.65436718541913
 20
490.6570882748662
 30
0.0
 10
81.63263753903469
 20
490.3887749398945
 30
0.0
 10
81.59321877377585
 20
489.9020398969055
 30
0.0
 10
81.56300042392914
 20
489.0800584473095
 30
0.0
 10
81.55995282557978
 20
488.1346806437963
 30
0.0
 10
81.59850712172101
 20
487.1652341431784
 30
0.0
 10
81.69104474279906
 20
486.1695648145521
 30
0.0
 10
81.78226160441044
 20
485.4463228392626
 30
0.0
 10
81.90184424543223
 20
484.7021674446718
 30
0.0
 10
82.04831018846728
 20
483.9564024803506
 30
0.0
 10
82.22003978750244
 20
483.2177874154864
 30
0.0
 10
82.41780234491792
 20
482.4828248043801
 30
0.0
 10
82.64367214337825
 20
481.7457773670743
 30
0.0
 10
82.84246926047028
 20
481.1736813890064
 30
0.0
 10
83.01904859921538
 20
480.7054100366797
 30
0.0
 10
83.18413228286892
 20
480.287333191127
 30
0.0
 10
83.36415479502024
 20
479.8538847124274
 30
0.0
 10
83.44046513601958
 20
479.6803495941109
 30
0.0
 10
83.48697159368332
 20
479.5745906166582
 30
0.0
  0
SPLINE
  5
8F
330
1F
100
AcDbEntity
  8
0
  6
Continuous
 62
     7
370
    15
100
AcDbSpline
210
0.0
220
0.0
230
1.0
 70
     8
 71
     3
 72
    23
 73
    19
 74
     0
 42
0.000000001
 43
0.00000001
 40
0.0
 40
0.0
 40
0.0
 40
0.0
 40
0.0750652121915193
 40
0.1231711340873317
 40
0.1635605008482737
 40
0.20501557774518
 40
0.2828352030395961
 40
0.3477765015450437
 40
0.4013765475675066
 40
0.4459249970143987
 40
0.48434804526161
 40
0.5201420430144599
 40
0.5568893545440922
 40
0.5975447961500047
 40
0.6976992772218907
 40
0.7821400279269948
 40
0.8799044461056553
 40
0.9999999999999999
 40
0.9999999999999999
 40
0.9999999999999999
 40
0.9999999999999999
 10
124.6459159620457
 20
479.5745906166582
 30
0.0
 10
124.6924198354463
 20
479.6803496271098
 30
0.0
 10
124.7687259519412
 20
479.8538848357232
 30
0.0
 10
124.9487439679442
 20
480.2873331658332
 30
0.0
 10
125.1138441499744
 20
480.7054097087787
 30
0.0
 10
125.2904028453116
 20
481.1736822861762
 30
0.0
 10
125.4892201153601
 20
481.7457767040879
 30
0.0
 10
125.7150828533918
 20
482.4828252596288
 30
0.0
 10
125.9128520363341
 20
483.2177857419713
 30
0.0
 10
126.0845648811642
 20
483.9564047188991
 30
0.0
 10
126.2310461288885
 20
484.7021665034036
 30
0.0
 10
126.350625132984
 20
485.4463226198054
 30
0.0
 10
126.4418430816508
 20
486.1695651409985
 30
0.0
 10
126.534380251617
 20
487.165234014311
 30
0.0
 10
126.5729346853644
 20
488.1346806735891
 30
0.0
 10
126.5698874423376
 20
489.0800584636676
 30
0.0
 10
126.5396672131853
 20
489.9020395052442
 30
0.0
 10
126.5002542571172
 20
490.388774863078
 30
0.0
 10
126.4785278208905
 20
490.6570882748662
 30
0.0
  0
LINE
  5
90
330
1F
100
AcDbEntity
  8
0
  6
Continuous
 62
     7
370
    15
100
AcDbLine
 10
116.0664457448
 20
469.821918451
 30
0.0
 11
116.0664457448
 21
472.8827398948
 31
0.0
  0
LINE
  5
91
330
1F
100
AcDbEntity
  8
0
  6
Continuous
 62
     7
370
    15
100
AcDbLine
 10
92.0664418109
 20
472.8748907082
 30
0.0
 11
92.0664418109
 21
469.821918451
 31
0.0
  0
SPLINE
  5
92
330
1F
100
AcDbEntity
  8
0
  6
Continuous
 62
     7
370
    15
100
AcDbSpline
210
0.0
220
0.0
230
1.0
 70
     8
 71
     3
 72
    13
 73
     9
 74
     0
 42
0.000000001
 43
0.00000001
 40
0.0
 40
0.0
 40
0.0
 40
0.0
 40
0.096592389054398
 40
0.1999863193831628
 40
0.3110102402921933
 40
0.4318525374453007
 40
0.6987662465506176
 40
1.0
 40
1.0
 40
1.0
 40
1.0
 10
91.83023605424698
 20
473.512666926518
 30
0.0
 10
91.90137352493572
 20
473.5088623370724
 30
0.0
 10
92.04865760262074
 20
473.5009852584803
 30
0.0
 10
92.58342938274275
 20
473.4392496440547
 30
0.0
 10
93.45478889836151
 20
473.3495412000842
 30
0.0
 10
95.09159587257227
 20
473.2178521285611
 30
0.0
 10
97.75567930390855
 20
473.0194827387041
 30
0.0
 10
100.0679466600459
 20
472.9385971663804
 30
0.0
 10
101.293918824976
 20
472.8957113556414
 30
0.0
  0
LINE
  5
93
330
1F
100
AcDbEntity
  8
0
  6
Continuous
 62
     7
370
    15
100
AcDbLine
 10
93.0664438375
 20
465.5838661574
 30
0.0
 11
93.5920003422
 21
465.2993210338
 31
0.0
  0
LINE
  5
94
330
1F
100
AcDbEntity
  8
0
  6
Continuous
 62
     7
370
    15
100
AcDbLine
 10
114.540879763
 20
465.2993210338
 30
0.0
 11
115.0664437183
 21
465.5838661574
 31
0.0
  0
SPLINE
  5
95
330
1F
100
AcDbEntity
  8
0
  6
Continuous
 62
     7
370
    15
100
AcDbSpline
210
0.0
220
0.0
230
1.0
 70
     8
 71
     3
 72
    16
 73
    12
 74
     0
 42
0.000000001
 43
0.00000001
 40
0.0
 40
0.0
 40
0.0
 40
0.0
 40
0.0875638174201212
 40
0.1960872822449314
 40
0.3117030585650735
 40
0.425624924820423
 40
0.540617575690319
 40
0.6563063979696597
 40
0.7719391122071254
 40
0.8868841891055059
 40
0.9999999999999999
 40
0.9999999999999999
 40
0.9999999999999999
 40
0.9999999999999999
 10
214.0649452335851
 20
505.9261169962435
 30
0.0
 10
213.472631803776
 20
505.9021078808532
 30
0.0
 10
212.1462262848024
 20
505.8483427261958
 30
0.0
 10
210.0617196173342
 20
505.5030852178834
 30
0.0
 10
207.8722118606566
 20
504.8597977497519
 30
0.0
 10
205.7555424465689
 20
503.9234716331716
 30
0.0
 10
203.7897552723589
 20
502.7284710923424
 30
0.0
 10
202.0002590281825
 20
501.2864057106103
 30
0.0
 10
200.4411741467064
 20
499.6211271643239
 30
0.0
 10
199.1195173873565
 20
497.7909536002775
 30
0.0
 10
198.4742615646954
 20
496.4525460227339
 30
0.0
 10
198.1542214371615
 20
495.7887098871021
 30
0.0
  0
SPLINE
  5
96
330
1F
100
AcDbEntity
  8
0
  6
Continuous
 62
     7
370
    15
100
AcDbSpline
210
0.0
220
0.0
230
1.0
 70
     8
 71
     3
 72
    17
 73
    13
 74
     0
 42
0.000000001
 43
0.00000001
 40
0.0
 40
0.0
 40
0.0
 40
0.0
 40
0.0864618914943391
 40
0.188011127315332
 40
0.2912697852505737
 40
0.3952988249958514
 40
0.4984743645854314
 40
0.6020967231548896
 40
0.7064106872563631
 40
0.8108086985357977
 40
0.9137746897172436
 40
1.0
 40
1.0
 40
1.0
 40
1.0
 10
230.6820034601145
 20
493.7567023306935
 30
0.0
 10
230.501686503605
 20
494.3541671876492
 30
0.0
 10
230.1095878150209
 20
495.6533527519031
 30
0.0
 10
229.1429872668616
 20
497.5350323050419
 30
0.0
 10
227.8822323487506
 20
499.3921259796932
 30
0.0
 10
226.3549215980093
 20
501.0742263987032
 30
0.0
 10
224.6015768015662
 20
502.5432498736711
 30
0.0
 10
222.6547986158292
 20
503.776428031988
 30
0.0
 10
220.5420976014661
 20
504.7548386554494
 30
0.0
 10
218.3128331969462
 20
505.4494902067174
 30
0.0
 10
216.1366966062271
 20
505.8355850769716
 30
0.0
 10
214.7159586040566
 20
505.901635499378
 30
0.0
 10
214.0684469366619
 20
505.9317384593039
 30
0.0
  0
LINE
  5
97
330
1F
100
AcDbEntity
  8
0
  6
Continuous
 62
     7
370
    15
100
AcDbLine
 10
123.2151437171
 20
490.8476133577
 30
0.0
 11
123.2246432074
 21
490.8524394713
 31
0.0
  0
SPLINE
  5
98
330
1F
100
AcDbEntity
  8
0
  6
Continuous
 62
     7
370
     0
100
AcDbSpline
210
0.0
220
0.0
230
1.0
 70
     8
 71
     3
 72
    16
 73
    12
 74
     0
 42
0.000000001
 43
0.00000001
 40
0.0
 40
0.0
 40
0.0
 40
0.0
 40
0.02566658574272
 40
0.1609562704848505
 40
0.2845533092366812
 40
0.4089580374446978
 40
0.5431340676992152
 40
0.6702898642112667
 40
0.790556805593459
 40
0.9867584601326935
 40
1.0
 40
1.0
 40
1.0
 40
1.0
 10
89.10913500863843
 20
474.7330971740036
 30
0.0
 10
89.06378599516707
 20
474.7852513728291
 30
0.0
 10
88.77940036820101
 20
475.1123126117963
 30
0.0
 10
88.31285790002954
 20
475.7250696461821
 30
0.0
 10
87.70404142352697
 20
476.5906346933804
 30
0.0
 10
87.12686921745109
 20
477.5138995544797
 30
0.0
 10
86.5734494907221
 20
478.5180970411631
 30
0.0
 10
86.05839617827974
 20
479.588872118292
 30
0.0
 10
85.51825680884218
 20
480.9445283285875
 30
0.0
 10
85.12726361960021
 20
482.0037989016562
 30
0.0
 10
84.96824651299038
 20
482.78506266985
 30
0.0
 10
84.95819304067429
 20
482.8344561837463
 30
0.0
  0
SPLINE
  5
99
330
1F
100
AcDbEntity
  8
0
  6
Continuous
 62
     7
370
    15
100
AcDbSpline
210
0.0
220
0.0
230
1.0
 70
     8
 71
     3
 72
    11
 73
     7
 74
     0
 42
0.000000001
 43
0.00000001
 40
0.0
 40
0.0
 40
0.0
 40
0.0
 40
0.1980254739127508
 40
0.5483096591111364
 40
0.8985946469459907
 40
1.0
 40
1.0
 40
1.0
 40
1.0
 10
83.59488580304917
 20
479.62404012008
 30
0.0
 10
83.9347733669401
 20
478.8110237540701
 30
0.0
 10
84.87588276368011
 20
476.5598753654791
 30
0.0
 10
87.3950883282846
 20
473.425765863119
 30
0.0
 10
89.9611697373165
 20
470.8937056300229
 30
0.0
 10
91.72446191391634
 20
469.9358004425791
 30
0.0
 10
92.12032440978818
 20
469.7207488797455
 30
0.0
  0
LINE
  5
9A
330
1F
100
AcDbEntity
  8
0
  6
Continuous
 62
     7
370
    15
100
AcDbLine
 10
104.0664437779
 20
511.1699976705
 30
0.0
 11
103.2036814459
 21
511.0898648135
 31
0.0
  0
SPLINE
  5
9B
330
1F
100
AcDbEntity
  8
0
  6
Continuous
 62
     7
370
    15
100
AcDbSpline
210
0.0
220
0.0
230
1.0
 70
     8
 71
     3
 72
    12
 73
     8
 74
     0
 42
0.000000001
 43
0.00000001
 40
0.0
 40
0.0
 40
0.0
 40
0.0
 40
0.0931845863635433
 40
0.3198885845200876
 40
0.5465923813121311
 40
0.7732962825775597
 40
1.0
 40
1.0
 40
1.0
 40
1.0
 10
90.24364236671265
 20
506.3048374585657
 30
0.0
 10
89.78051363281081
 20
505.9707892113541
 30
0.0
 10
88.19066276884435
 20
504.8240521260484
 30
0.0
 10
85.99456716336492
 20
502.2456739314237
 30
0.0
 10
83.78863970788927
 20
498.7104079846819
 30
0.0
 10
82.24972264815445
 20
494.7995948650797
 30
0.0
 10
81.85358387906477
 20
492.0465291638729
 30
0.0
 10
81.65551457483109
 20
490.6699968714117
 30
0.0
  0
LWPOLYLINE
  5
9C
330
1F
100
AcDbEntity
  8
0
  6
Continuous
 62
     7
370
    15
100
AcDbPolyline
 90
       18
 70
   128
 43
0.0
 10
82.9232606657
 20
492.4437959425
 10
82.9120251902
 20
492.5321179189
 10
83.0540183552
 20
494.8262219995
 10
83.4382298954
 20
496.579743617
 10
84.1420266398
 20
498.5654034398
 10
85.321796275
 20
500.8530641652
 10
86.8672106035
 20
503.0439520933
 10
88.9268640049
 20
505.2367743783
 10
91.0639736422
 20
506.9702264599
 10
93.5212198265
 20
508.4910557352
 10
96.4053023227
 20
509.7744461827
 10
99.5456847914
 20
510.6574144892
 10
101.2204561003
 20
510.9336633913
 10
102.0647335418
 20
511.0241581432
 10
102.9123488434
 20
511.0825967721
 10
104.0175605186
 20
511.1101732336
 10
104.0176201232
 20
511.1101732336
 10
104.0176201232
 20
511.1101732336
  0
SPLINE
  5
9D
330
1F
100
AcDbEntity
  8
0
  6
Continuous
 62
     7
370
    15
100
AcDbSpline
210
0.0
220
0.0
230
1.0
 70
     8
 71
     3
 72
    24
 73
    20
 74
     0
 42
0.000000001
 43
0.00000001
 40
0.0
 40
0.0
 40
0.0
 40
0.0
 40
0.000001652718877
 40
0.0397616901841588
 40
0.0606326453290456
 40
0.1023874201060408
 40
0.1232486688595301
 40
0.2013991553970352
 40
0.2814604510811753
 40
0.3528514587009119
 40
0.4258926896381889
 40
0.5010440842110061
 40
0.5785966276088045
 40
0.6523829950825334
 40
0.7282232996122671
 40
0.7900033966609862
 40
0.8524818636836027
 40
0.9810717941902024
 40
1.0
 40
1.0
 40
1.0
 40
1.0
 10
104.1152599819356
 20
511.1101732335835
 30
0.0
 10
104.1152823336772
 20
511.1101732335948
 30
0.0
 10
104.6530283703591
 20
511.1101735058754
 30
0.0
 10
105.4734798459815
 20
511.0802027526115
 30
0.0
 10
106.8519525280109
 20
510.9537443179836
 30
0.0
 10
107.9689431294164
 20
510.7870913202843
 30
0.0
 10
109.8288716707491
 20
510.401416934156
 30
0.0
 10
112.1453930318985
 20
509.7009105788226
 30
0.0
 10
114.9311169002378
 20
508.3947402682358
 30
0.0
 10
117.417341530597
 20
506.791179485505
 30
0.0
 10
119.5742039277888
 20
504.9746008843068
 30
0.0
 10
121.4356133530476
 20
502.928511788148
 30
0.0
 10
122.8948973615813
 20
500.8147571998841
 30
0.0
 10
123.9488894976121
 20
498.7704867996986
 30
0.0
 10
124.5867923712006
 20
497.0391215932743
 30
0.0
 10
124.9556860826412
 20
495.601364748932
 30
0.0
 10
125.2123301497576
 20
494.0398706521485
 30
0.0
 10
125.2625651166399
 20
492.9502975159169
 30
0.0
 10
125.2110643093329
 20
492.4513183082133
 30
0.0
 10
125.2044561870747
 20
492.3872937660514
 30
0.0
  0
LINE
  5
9E
330
1F
100
AcDbEntity
  8
0
  6
Continuous
 62
     7
370
    15
100
AcDbLine
 10
104.0664437779
 20
511.1699976705
 30
0.0
 11
105.0935957201
 21
511.0745967112
 31
0.0
  0
SPLINE
  5
9F
330
1F
100
AcDbEntity
  8
0
  6
Continuous
 62
     7
370
    15
100
AcDbSpline
210
0.0
220
0.0
230
1.0
 70
     8
 71
     3
 72
     9
 73
     5
 74
     0
 42
0.000000001
 43
0.00000001
 40
0.0
 40
0.0
 40
0.0
 40
0.0
 40
0.7691579049607437
 40
1.0
 40
1.0
 40
1.0
 40
1.0
 10
109.8497930534535
 20
510.3175003759413
 30
0.0
 10
110.6583422290279
 20
510.1472022850151
 30
0.0
 10
111.7095557319505
 20
509.9257937942124
 30
0.0
 10
112.6538359702728
 20
509.4290527500258
 30
0.0
 10
112.8718155987912
 20
509.3143840066938
 30
0.0
  0
SPLINE
  5
A0
330
1F
100
AcDbEntity
  8
0
  6
Continuous
 62
     7
370
    15
100
AcDbSpline
210
0.0
220
0.0
230
1.0
 70
     8
 71
     3
 72
    12
 73
     8
 74
     0
 42
0.000000001
 43
0.00000001
 40
0.0
 40
0.0
 40
0.0
 40
0.0
 40
0.0463116294634089
 40
0.2847338740524765
 40
0.5231559068685862
 40
0.7615778964592047
 40
1.0
 40
1.0
 40
1.0
 40
1.0
 10
118.6084273822957
 20
505.7600547306089
 30
0.0
 10
118.8255302195255
 20
505.6001105179508
 30
0.0
 10
120.1603252295147
 20
504.6167390445196
 30
0.0
 10
122.1299404419733
 20
502.2357092621971
 30
0.0
 10
124.3464852131929
 20
498.7130670179367
 30
0.0
 10
125.8825932469903
 20
494.7989272931541
 30
0.0
 10
126.2791180050636
 20
492.0463072312546
 30
0.0
 10
126.4773804314786
 20
490.6699968714117
 30
0.0
  0
SPLINE
  5
A1
330
1F
100
AcDbEntity
  8
0
  6
Continuous
 62
     7
370
    15
100
AcDbSpline
210
0.0
220
0.0
230
1.0
 70
     8
 71
     3
 72
    11
 73
     7
 74
     0
 42
0.000000001
 43
0.00000001
 40
0.0
 40
0.0
 40
0.0
 40
0.0
 40
0.2010174780722377
 40
0.5565945111845056
 40
0.9121715957280206
 40
0.9999999999999999
 40
0.9999999999999999
 40
0.9999999999999999
 40
0.9999999999999999
 10
124.5380017526799
 20
479.62404012008
 30
0.0
 10
124.1981820891889
 20
478.8109239493763
 30
0.0
 10
123.2572601290415
 20
476.5594978449934
 30
0.0
 10
120.7358029082077
 20
473.428698098366
 30
0.0
 10
118.22432248211
 20
470.9333643766495
 30
0.0
 10
116.5217607678192
 20
470.0031619360447
 30
0.0
 10
116.1845225461179
 20
469.81891027911
 30
0.0
  0
LWPOLYLINE
  5
A2
330
1F
100
AcDbEntity
  8
0
  6
Continuous
 62
     7
370
    15
100
AcDbPolyline
 90
        3
 70
   128
 43
0.0
 10
123.2151437171
 20
490.8476133577
 10
123.4208542474
 20
490.7905260779
 10
123.4785887964
 20
490.7676802695
  0
LWPOLYLINE
  5
A3
330
1F
100
AcDbEntity
  8
0
  6
Continuous
 62
     7
370
    15
100
AcDbPolyline
 90
       14
 70
   128
 43
0.0
 10
115.0664437183
 20
467.284055122
 10
114.0407520898
 20
467.6098149948
 10
112.6984256871
 20
467.8987969391
 10
111.0820743807
 20
468.1418274276
 10
109.2430103191
 20
468.3311895214
 10
107.2396088012
 20
468.4608724646
 10
105.1354754337
 20
468.5267598115
 10
102.9974046715
 20
468.5267598115
 10
100.8932787545
 20
468.4608724646
 10
98.8898772367
 20
468.3311895214
 10
97.050813175
 20
468.1418274276
 10
95.434454418
 20
467.8987969391
 10
94.0921280153
 20
467.6098149948
 10
93.0664438375
 20
467.284055122
  0
SPLINE
  5
A4
330
1F
100
AcDbEntity
  8
0
  6
Continuous
 62
     7
370
    15
100
AcDbSpline
210
0.0
220
0.0
230
1.0
 70
    24
 71
     3
 72
    10
 73
     6
 74
     0
 42
0.000000001
 43
0.00000001
 40
0.0
 40
0.0
 40
0.0
 40
0.0
 40
0.5
 40
0.5
 40
1.0
 40
1.0
 40
1.0
 40
1.0
 10
115.066443181818
 20
465.8826882342457
 30
0.0
 10
115.0664431818181
 20
466.0228874058639
 30
0.0
 10
115.066443181818
 20
466.2168885084623
 30
0.0
 10
115.0664431818181
 20
466.6910070911186
 30
0.0
 10
115.066443181818
 20
466.9710696004108
 30
0.0
 10
115.066443181818
 20
467.2840546599681
 30
0.0
  0
LWPOLYLINE
  5
A5
330
1F
100
AcDbEntity
  8
0
  6
Continuous
 62
     7
370
    15
100
AcDbPolyline
 90
       18
 70
   128
 43
0.0
 10
115.0664437183
 20
465.882688456
 10
114.8791435726
 20
466.2336741321
 10
114.3236357339
 20
466.5727072142
 10
113.4188297756
 20
466.8882411651
 10
112.1955412992
 20
467.1695341103
 10
110.6954265006
 20
467.407004603
 10
108.9695665606
 20
467.5925669007
 10
107.0767391093
 20
467.7199010484
 10
105.0813916691
 20
467.7846708082
 10
103.051488436
 20
467.7846708082
 10
101.0561484464
 20
467.7199010484
 10
99.1633209952
 20
467.5925669007
 10
97.4374610551
 20
467.407004603
 10
95.9373462566
 20
467.1695341103
 10
94.7140577801
 20
466.8882411651
 10
93.8092518218
 20
466.5727072142
 10
93.2537365325
 20
466.2336741321
 10
93.0664438375
 20
465.882688456
  0
SPLINE
  5
A6
330
1F
100
AcDbEntity
  8
0
  6
Continuous
 62
     7
370
    15
100
AcDbSpline
210
0.0
220
0.0
230
1.0
 70
    24
 71
     3
 72
    10
 73
     6
 74
     0
 42
0.000000001
 43
0.00000001
 40
0.0
 40
0.0
 40
0.0
 40
0.0
 40
0.5
 40
0.5
 40
1.0
 40
1.0
 40
1.0
 40
1.0
 10
93.06644318181806
 20
465.8826882342457
 30
0.0
 10
93.06644318181803
 20
466.0228874058639
 30
0.0
 10
93.06644318181803
 20
466.2168885084623
 30
0.0
 10
93.06644318181809
 20
466.6910070911186
 30
0.0
 10
93.06644318181806
 20
466.9710696004109
 30
0.0
 10
93.06644318181806
 20
467.2840546599681
 30
0.0
  0
SPLINE
  5
A7
330
1F
100
AcDbEntity
  8
0
  6
Continuous
 62
     7
370
    15
100
AcDbSpline
210
0.0
220
0.0
230
1.0
 70
     8
 71
     3
 72
    11
 73
     7
 74
     0
 42
0.000000001
 43
0.00000001
 40
0.0
 40
0.0
 40
0.0
 40
0.0
 40
0.2175555911352206
 40
0.4421211030857714
 40
0.8989053407082418
 40
1.0
 40
1.0
 40
1.0
 40
1.0
 10
116.0614389546567
 20
472.8827119551449
 30
0.0
 10
116.05710635747
 20
472.9423866572113
 30
0.0
 10
116.0483015612457
 20
473.0636588569569
 30
0.0
 10
115.8958642998814
 20
473.2558778668909
 30
0.0
 10
115.6666573131552
 20
473.3831303959084
 30
0.0
 10
115.3957389598609
 20
473.4291967782441
 30
0.0
 10
115.346645153349
 20
473.4375445850043
 30
0.0
  0
SPLINE
  5
A8
330
1F
100
AcDbEntity
  8
0
  6
Continuous
 62
     7
370
    15
100
AcDbSpline
210
0.0
220
0.0
230
1.0
 70
     8
 71
     3
 72
    12
 73
     8
 74
     0
 42
0.000000001
 43
0.00000001
 40
0.0
 40
0.0
 40
0.0
 40
0.0
 40
0.1398051694492835
 40
0.4009118183879794
 40
0.6642721548307535
 40
0.9017433138040799
 40
1.0
 40
1.0
 40
1.0
 40
1.0
 10
92.73133907396134
 20
473.425626450017
 30
0.0
 10
92.66960756080212
 20
473.4131504937413
 30
0.0
 10
92.49258339717503
 20
473.3773738601855
 30
0.0
 10
92.28834144903206
 20
473.2811669704484
 30
0.0
 10
92.13822992758305
 20
473.1359422832907
 30
0.0
 10
92.05453871536706
 20
473.0068149611018
 30
0.0
 10
92.0831072304051
 20
472.904919089189
 30
0.0
 10
92.09146831113632
 20
472.8750974617748
 30
0.0
  0
LINE
  5
A9
330
1F
100
AcDbEntity
  8
0
  6
Continuous
 62
     7
370
    15
100
AcDbLine
 10
115.0664437183
 20
467.284055122
 30
0.0
 11
115.0664437183
 21
470.6547070972
 31
0.0
  0
LINE
  5
AA
330
1F
100
AcDbEntity
  8
0
  6
Continuous
 62
     7
370
    15
100
AcDbLine
 10
93.0664438375
 20
467.284055122
 30
0.0
 11
93.0664438375
 21
470.6547070972
 31
0.0
  0
LWPOLYLINE
  5
AB
330
1F
100
AcDbEntity
  8
0
  6
Continuous
 62
     7
370
    15
100
AcDbPolyline
 90
        9
 70
   128
 43
0.0
 10
93.0664438375
 20
468.9891316674
 10
92.632425166
 20
469.18951317
 10
92.3191059001
 20
469.3965703927
 10
92.129771746
 20
469.6081165902
 10
92.0664418109
 20
469.821918451
 10
92.129771746
 20
470.0357221745
 10
92.3191059001
 20
470.247268372
 10
92.632425166
 20
470.4543255947
 10
93.0664438375
 20
470.6547070972
  0
LWPOLYLINE
  5
AC
330
1F
100
AcDbEntity
  8
0
  6
Continuous
 62
     7
370
    15
100
AcDbPolyline
 90
        9
 70
   128
 43
0.0
 10
115.0664437183
 20
470.6547070972
 10
115.5004549392
 20
470.4543255947
 10
115.8137816556
 20
470.247268372
 10
116.0031083592
 20
470.0357221745
 10
116.0664457448
 20
469.821918451
 10
116.0031083592
 20
469.6081165902
 10
115.8137816556
 20
469.3965703927
 10
115.5004549392
 20
469.18951317
 10
115.0664437183
 20
468.9891316674
  0
SPLINE
  5
AD
330
1F
100
AcDbEntity
  8
0
  6
Continuous
 62
     7
370
    15
100
AcDbSpline
210
0.0
220
0.0
230
1.0
 70
     8
 71
     3
 72
    16
 73
    12
 74
     0
 42
0.000000001
 43
0.00000001
 40
0.0
 40
0.0
 40
0.0
 40
0.0
 40
0.1112177628777034
 40
0.2223555143200812
 40
0.3334360862103223
 40
0.444482345706097
 40
0.5555171811675523
 40
0.6665634880198158
 40
0.7776441545937481
 40
0.888782047988571
 40
0.9999999999999999
 40
0.9999999999999999
 40
0.9999999999999999
 40
0.9999999999999999
 10
106.829109150362
 20
472.903294722907
 30
0.0
 10
106.6245004252121
 20
472.9008075322657
 30
0.0
 10
106.2154301729621
 20
472.8958349402986
 30
0.0
 10
105.6014097585691
 20
472.8905792455817
 30
0.0
 10
104.9874297354999
 20
472.8869725702302
 30
0.0
 10
104.3734383677966
 20
472.8851847329513
 30
0.0
 10
103.7594505272173
 20
472.8851847331382
 30
0.0
 10
103.1454588977681
 20
472.8869725708397
 30
0.0
 10
102.5314783511356
 20
472.8905792464827
 30
0.0
 10
101.9174571516173
 20
472.8958349418659
 30
0.0
 10
101.5083862876708
 20
472.9008075324639
 30
0.0
 10
101.3037772132723
 20
472.9032947229468
 30
0.0
  0
SPLINE
  5
AE
330
1F
100
AcDbEntity
  8
0
  6
Continuous
 62
     7
370
    15
100
AcDbSpline
210
0.0
220
0.0
230
1.0
 70
     8
 71
     3
 72
    10
 73
     6
 74
     0
 42
0.000000001
 43
0.00000001
 40
0.0
 40
0.0
 40
0.0
 40
0.0
 40
0.5
 40
0.5
 40
1.0
 40
1.0
 40
1.0
 40
1.0
 10
101.3037695737107
 20
472.9032710106552
 30
0.0
 10
101.2993774181779
 20
472.8899641694418
 30
0.0
 10
101.2947951139325
 20
472.8896321610153
 30
0.0
 10
101.2863911002922
 20
472.9183743522566
 30
0.0
 10
101.2825983333733
 20
472.9473495670567
 30
0.0
 10
101.2796037394289
 20
472.9859194998371
 30
0.0
  0
SPLINE
  5
AF
330
1F
100
AcDbEntity
  8
0
  6
Continuous
 62
     7
370
    15
100
AcDbSpline
210
0.0
220
0.0
230
1.0
 70
     8
 71
     3
 72
    15
 73
    11
 74
     0
 42
0.000000001
 43
0.00000001
 40
0.0
 40
0.0
 40
0.0
 40
0.0
 40
0.0864611424303895
 40
0.2319662482154015
 40
0.3033269999033796
 40
0.3753791884492716
 40
0.5219830144915951
 40
0.6772052961216424
 40
0.8379033022061536
 40
1.0
 40
1.0
 40
1.0
 40
1.0
 10
116.3256886966878
 20
473.5004991970806
 30
0.0
 10
116.235431571958
 20
473.5022545027071
 30
0.0
 10
115.9932810982335
 20
473.5069638050502
 30
0.0
 10
115.3159269236049
 20
473.4332804219698
 30
0.0
 10
114.4877472340424
 20
473.3609025182849
 30
0.0
 10
113.5288278946156
 20
473.2893356363493
 30
0.0
 10
112.2065916113129
 20
473.1987251023465
 30
0.0
 10
110.5303963819706
 20
473.080549886948
 30
0.0
 10
108.742742001183
 20
472.9572658063412
 30
0.0
 10
107.4688333538662
 20
472.9213217396882
 30
0.0
 10
106.8291190632039
 20
472.9032718323021
 30
0.0
  0
LWPOLYLINE
  5
B0
330
1F
100
AcDbEntity
  8
0
  6
Continuous
 62
     7
370
    15
100
AcDbPolyline
 90
       18
 70
   128
 43
0.0
 10
93.0664438375
 20
465.882688456
 10
93.2537365325
 20
465.53170278
 10
93.8092518218
 20
465.1926696978
 10
94.7140577801
 20
464.8771338843
 10
95.9373462566
 20
464.5958428018
 10
97.4374610551
 20
464.358372309
 10
99.1633209952
 20
464.1728100113
 10
101.0561484464
 20
464.0454758637
 10
103.051488436
 20
463.9807061039
 10
105.0813916691
 20
463.9807061039
 10
107.0767391093
 20
464.0454758637
 10
108.9695665606
 20
464.1728100113
 10
110.6954265006
 20
464.358372309
 10
112.1955412992
 20
464.5958428018
 10
113.4188297756
 20
464.8771338843
 10
114.3236357339
 20
465.1926696978
 10
114.8791435726
 20
465.53170278
 10
115.0664437183
 20
465.882688456
  0
LWPOLYLINE
  5
B1
330
1F
100
AcDbEntity
  8
0
  6
Continuous
 62
     7
370
    15
100
AcDbPolyline
 90
       19
 70
   128
 43
0.0
 10
113.1543788679
 20
465.5009821735
 10
113.2367822893
 20
465.5659381978
 10
113.4164455898
 20
465.882688456
 10
113.2367822893
 20
466.1994387142
 10
112.7047139772
 20
466.5040165864
 10
111.8406850465
 20
466.7847172104
 10
110.6778952845
 20
467.0307540081
 10
109.2610258229
 20
467.2326703302
 10
107.6445329555
 20
467.3827082597
 10
105.8905396231
 20
467.475101047
 10
104.0664437779
 20
467.5062984906
 10
102.2423479326
 20
467.475101047
 10
100.4883546003
 20
467.3827082597
 10
98.8718617328
 20
467.2326703302
 10
97.4549922712
 20
467.0307540081
 10
96.2922025092
 20
466.7847172104
 10
95.428166128
 20
466.5040165864
 10
94.8960978158
 20
466.1994387142
 10
94.7164419659
 20
465.8834092997
  0
LWPOLYLINE
  5
B2
330
1F
100
AcDbEntity
  8
0
  6
Continuous
 62
     7
370
    15
100
AcDbPolyline
 90
       33
 70
   128
 43
0.0
 10
94.9164453514
 20
465.68572677
 10
95.0922567018
 20
465.3757509522
 10
95.6129479774
 20
465.0776886128
 10
96.4584994682
 20
464.8029912941
 10
97.5964191921
 20
464.5622183315
 10
98.9829722412
 20
464.3646214835
 10
100.5648869641
 20
464.2177928917
 10
102.2813666232
 20
464.1273763709
 10
104.0664437779
 20
464.0968457542
 10
105.8515209325
 20
464.1273763709
 10
107.567993141
 20
464.2177928917
 10
109.1499078639
 20
464.3646214835
 10
110.5364683636
 20
464.5622183315
 10
111.6743880876
 20
464.8029912941
 10
112.5199395784
 20
465.0776886128
 10
113.040630854
 20
465.3757509522
 10
113.2164422043
 20
465.68572677
 10
113.040630854
 20
465.9957025878
 10
112.5199395784
 20
466.2937649272
 10
111.6743880876
 20
466.5684622459
 10
110.5364683636
 20
466.8092352085
 10
109.1499078639
 20
467.0068320565
 10
107.567993141
 20
467.1536606483
 10
105.8515209325
 20
467.2440771691
 10
104.0664437779
 20
467.2746077858
 10
102.2813666232
 20
467.2440771691
 10
100.5648869641
 20
467.1536606483
 10
98.9829722412
 20
467.0068320565
 10
97.5964191921
 20
466.8092352085
 10
96.4584994682
 20
466.5684622459
 10
95.6129479774
 20
466.2937649272
 10
95.0922567018
 20
465.9957025878
 10
94.9164453514
 20
465.68572677
  0
LWPOLYLINE
  5
B3
330
1F
100
AcDbEntity
  8
0
  6
Continuous
 62
     7
370
    15
100
AcDbPolyline
 90
       32
 70
   128
 43
0.0
 10
95.1670083769
 20
465.68572677
 10
95.3491750725
 20
465.9968071364
 10
95.8882320293
 20
466.2951525979
 10
96.7621106275
 20
466.5685479276
 10
97.9350257285
 20
466.8058004908
 10
99.3589583405
 20
466.9971965931
 10
100.9756225713
 20
467.134901949
 10
102.7188200124
 20
467.2132764689
 10
104.5171890028
 20
467.2291145407
 10
106.2971103557
 20
467.181766101
 10
107.9857024916
 20
467.0731683008
 10
109.5138389238
 20
466.9077691369
 10
110.8189645775
 20
466.6923393242
 10
111.8476364382
 20
466.4356984876
 10
112.5577438243
 20
466.1483538084
 10
112.9202220209
 20
465.8420697532
 10
112.9202220209
 20
465.5293837868
 10
112.5577438243
 20
465.2230997316
 10
111.8476364382
 20
464.9357550524
 10
110.8189645775
 20
464.6791142158
 10
109.5138389238
 20
464.4636844031
 10
107.9857024916
 20
464.2982852392
 10
106.2971103557
 20
464.189687439
 10
104.5171890028
 20
464.1423389993
 10
102.7188200124
 20
464.158177071
 10
100.9756225713
 20
464.236551591
 10
99.3589583405
 20
464.3742569469
 10
97.9350257285
 20
464.5656530492
 10
96.7621106275
 20
464.8029056124
 10
95.8882320293
 20
465.0763009421
 10
95.3491750725
 20
465.3746464036
 10
95.1670083769
 20
465.68572677
  0
SPLINE
  5
B4
330
1F
100
AcDbEntity
  8
0
  6
Continuous
 62
     7
370
    15
100
AcDbSpline
210
0.0
220
0.0
230
1.0
 70
     8
 71
     3
 72
    11
 73
     7
 74
     0
 42
0.000000001
 43
0.00000001
 40
0.0
 40
0.0
 40
0.0
 40
0.0
 40
0.0009596970758013
 40
0.2482245003294907
 40
0.4954987667972496
 40
1.0
 40
1.0
 40
1.0
 40
1.0
 10
231.3095621385031
 20
458.0112525008469
 30
0.0
 10
231.3095689886146
 20
458.0215710640105
 30
0.0
 10
231.311340761762
 20
460.6904550796028
 30
0.0
 10
231.3066996739932
 20
465.965957391655
 30
0.0
 10
231.2975487724174
 20
476.5883143682305
 30
0.0
 10
231.2789673780999
 20
484.4327291921824
 30
0.0
 10
231.2664977826529
 20
489.6969562841429
 30
0.0
  0
SPLINE
  5
B5
330
1F
100
AcDbEntity
  8
0
  6
Continuous
 62
     7
370
    15
100
AcDbSpline
210
0.0
220
0.0
230
1.0
 70
     8
 71
     3
 72
    10
 73
     6
 74
     0
 42
0.000000001
 43
0.00000001
 40
0.0
 40
0.0
 40
0.0
 40
0.0
 40
0.5000000000000001
 40
0.5000000000000001
 40
1.0
 40
1.0
 40
1.0
 40
1.0
 10
196.8233038306598
 20
458.0422076145024
 30
0.0
 10
196.8234508768634
 20
463.3913362661312
 30
0.0
 10
196.8272172373724
 20
468.7169994341005
 30
0.0
 10
196.841717851863
 20
479.2803306765969
 30
0.0
 10
196.8524515475514
 20
484.5123001109005
 30
0.0
 10
196.8663883129844
 20
489.6969562280742
 30
0.0
  0
SPLINE
  5
B6
330
1F
100
AcDbEntity
  8
0
  6
Continuous
 62
     7
370
    15
100
AcDbSpline
210
0.0
220
0.0
230
1.0
 70
     8
 71
     3
 72
    35
 73
    31
 74
     0
 42
0.000000001
 43
0.00000001
 40
0.3733333319878755
 40
0.3733333319878755
 40
0.3733333319878755
 40
0.3733333319878755
 40
0.3747975431955106
 40
0.375
 40
0.4057753405342413
 40
0.4326064606567435
 40
0.4536904553121331
 40
0.4769531651772052
 40
0.4952294512815819
 40
0.5
 40
0.5144770595495093
 40
0.5295967959261346
 40
0.5468823310713626
 40
0.5604601793980922
 40
0.6073137111541508
 40
0.625
 40
0.6440958461729963
 40
0.6576721120961124
 40
0.6683364856808596
 40
0.7208206190357934
 40
0.75
 40
0.762071786177911
 40
0.7962145524500887
 40
0.8231075610513068
 40
0.875
 40
0.8904516614060828
 40
0.9441411256803024
 40
0.9751799444697651
 40
0.9875312344303273
 40
1.0
 40
1.0
 40
1.0
 40
1.0
 10
231.3095756626699
 20
458.2230606843644
 30
0.0
 10
231.3095775383427
 20
458.1814300864939
 30
0.0
 10
231.3095794256212
 20
458.1340423437341
 30
0.0
 10
231.3096106721891
 20
457.2116138232751
 30
0.0
 10
231.3094845300554
 20
455.5673777656062
 30
0.0
 10
231.3088510724968
 20
453.328484330461
 30
0.0
 10
231.3079299108332
 20
451.3023851865436
 30
0.0
 10
231.3068353891115
 20
449.5186917276769
 30
0.0
 10
231.3058287673112
 20
448.1985497278427
 30
0.0
 10
231.3049242786115
 20
447.1282519165901
 30
0.0
 10
231.304027888485
 20
446.147505820129
 30
0.0
 10
231.302661927254
 20
444.8085011087703
 30
0.0
 10
231.301167844084
 20
443.4938956007469
 30
0.0
 10
231.2983931694137
 20
441.2698723433065
 30
0.0
 10
231.2951115135228
 20
439.0300388869442
 30
0.0
 10
231.2910283224512
 20
436.6265678619302
 30
0.0
 10
231.2883734306975
 20
435.177384872271
 30
0.0
 10
231.2859379687453
 20
433.9289007429349
 30
0.0
 10
231.281427586326
 20
431.7169778239412
 30
0.0
 10
231.275375816545
 20
429.0508556018011
 30
0.0
 10
231.2684075235701
 20
426.3419880550982
 30
0.0
 10
231.2624681578704
 20
424.1637405573317
 30
0.0
 10
231.2563502942773
 20
422.0528084045366
 30
0.0
 10
231.2461995004991
 20
418.7983112068604
 30
0.0
 10
231.2370012005519
 20
416.0923531353788
 30
0.0
 10
231.2244601745211
 20
412.6347005149502
 30
0.0
 10
231.2134800902695
 20
409.7964418527005
 30
0.0
 10
231.202232246793
 20
407.1100239656386
 30
0.0
 10
231.1956106942765
 20
405.5891726203135
 30
0.0
 10
231.1926309104524
 20
404.9205914864717
 30
0.0
 10
231.1911291107817
 20
404.5864516035569
 30
0.0
  0
SPLINE
  5
B7
330
1F
100
AcDbEntity
  8
0
  6
Continuous
 62
     7
370
    15
100
AcDbSpline
210
0.0
220
0.0
230
1.0
 70
     8
 71
     3
 72
    35
 73
    31
 74
     0
 42
0.000000001
 43
0.00000001
 40
0.3733333319878755
 40
0.3733333319878755
 40
0.3733333319878755
 40
0.3733333319878755
 40
0.3747975431955106
 40
0.375
 40
0.4057753405342413
 40
0.4326064606567435
 40
0.4536904553121331
 40
0.4769531651772052
 40
0.4952294512815819
 40
0.5
 40
0.5144770595495093
 40
0.5295967959261346
 40
0.5468823310713626
 40
0.5604601793980922
 40
0.6073137111541508
 40
0.625
 40
0.6440958461729963
 40
0.6576721120961124
 40
0.6683364856808596
 40
0.7208206190357934
 40
0.75
 40
0.762071786177911
 40
0.7962145524500887
 40
0.8231075610513068
 40
0.875
 40
0.8904516614060828
 40
0.9441411256803024
 40
0.9751799444697651
 40
0.9875312344303273
 40
1.0
 40
1.0
 40
1.0
 40
1.0
 10
196.8233107009663
 20
458.2230606843644
 30
0.0
 10
196.8233088252934
 20
458.1814300864939
 30
0.0
 10
196.8233069380149
 20
458.1340423437341
 30
0.0
 10
196.823275691447
 20
457.2116138232751
 30
0.0
 10
196.8234018335808
 20
455.5673777656062
 30
0.0
 10
196.8240352911394
 20
453.328484330461
 30
0.0
 10
196.8249564528029
 20
451.3023851865436
 30
0.0
 10
196.8260509745247
 20
449.5186917276769
 30
0.0
 10
196.8270575963249
 20
448.1985497278427
 30
0.0
 10
196.8279620850247
 20
447.1282519165901
 30
0.0
 10
196.8288584751512
 20
446.147505820129
 30
0.0
 10
196.8302244363822
 20
444.8085011087703
 30
0.0
 10
196.8317185195521
 20
443.4938956007469
 30
0.0
 10
196.8344931942225
 20
441.2698723433065
 30
0.0
 10
196.8377748501134
 20
439.0300388869442
 30
0.0
 10
196.841858041185
 20
436.6265678619302
 30
0.0
 10
196.8445129329386
 20
435.177384872271
 30
0.0
 10
196.8469483948909
 20
433.9289007429349
 30
0.0
 10
196.8514587773102
 20
431.7169778239412
 30
0.0
 10
196.8575105470912
 20
429.0508556018011
 30
0.0
 10
196.864478840066
 20
426.3419880550982
 30
0.0
 10
196.8704182057658
 20
424.1637405573317
 30
0.0
 10
196.8765360693589
 20
422.0528084045366
 30
0.0
 10
196.8866868631371
 20
418.7983112068604
 30
0.0
 10
196.8958851630843
 20
416.0923531353788
 30
0.0
 10
196.908426189115
 20
412.6347005149502
 30
0.0
 10
196.9194062733667
 20
409.7964418527005
 30
0.0
 10
196.9306541168431
 20
407.1100239656386
 30
0.0
 10
196.9372756693597
 20
405.5891726203135
 30
0.0
 10
196.9402554531837
 20
404.9205914864717
 30
0.0
 10
196.9417572528544
 20
404.5864516035569
 30
0.0
  0
SPLINE
  5
B8
330
1F
100
AcDbEntity
  8
0
  6
Continuous
 62
     7
370
    15
100
AcDbSpline
210
0.0
220
0.0
230
1.0
 70
     8
 71
     3
 72
    11
 73
     7
 74
     0
 42
0.000000001
 43
0.00000001
 40
0.0
 40
0.0
 40
0.0
 40
0.0
 40
0.5690114841821641
 40
0.5690114841821641
 40
0.784505742091082
 40
1.0
 40
1.0
 40
1.0
 40
1.0
 10
214.0664431818181
 20
398.0980803306696
 30
0.0
 10
217.9772283500176
 20
398.0980803306697
 30
0.0
 10
221.8808538184856
 20
398.2815554379932
 30
0.0
 10
227.2504913919511
 20
398.797599009872
 30
0.0
 10
230.0377058439358
 20
400.207847615352
 30
0.0
 10
231.1845027035034
 20
403.1064179020382
 30
0.0
 10
231.1911291107817
 20
404.5864516035567
 30
0.0
  0
SPLINE
  5
B9
330
1F
100
AcDbEntity
  8
0
  6
Continuous
 62
     7
370
    15
100
AcDbSpline
210
0.0
220
0.0
230
1.0
 70
     8
 71
     3
 72
    11
 73
     7
 74
     0
 42
0.000000001
 43
0.00000001
 40
0.0
 40
0.0
 40
0.0
 40
0.0
 40
0.5690114841821641
 40
0.5690114841821641
 40
0.784505742091082
 40
1.0
 40
1.0
 40
1.0
 40
1.0
 10
214.0664431818181
 20
398.0980803306696
 30
0.0
 10
210.1556580136185
 20
398.0980803306697
 30
0.0
 10
206.2520325451506
 20
398.2815554379932
 30
0.0
 10
200.8823949716851
 20
398.797599009872
 30
0.0
 10
198.0951805197003
 20
400.207847615352
 30
0.0
 10
196.9483836601327
 20
403.1064179020382
 30
0.0
 10
196.9417572528544
 20
404.5864516035567
 30
0.0
  0
SPLINE
  5
BA
330
1F
100
AcDbEntity
  8
0
  6
Continuous
 62
     7
370
    15
100
AcDbSpline
210
0.0
220
0.0
230
1.0
 70
     8
 71
     3
 72
     9
 73
     5
 74
     0
 42
0.000000001
 43
0.00000001
 40
0.0
 40
0.0
 40
0.0
 40
0.0
 40
0.7085132239602795
 40
1.0
 40
1.0
 40
1.0
 40
1.0
 10
196.866397894209
 20
489.7004951935111
 30
0.0
 10
196.9589540987816
 20
491.178953058586
 30
0.0
 10
197.0895885053708
 20
493.2656577453538
 30
0.0
 10
197.9574161738713
 20
495.1516414042173
 30
0.0
 10
198.2103764631205
 20
495.701380700603
 30
0.0
  0
LINE
  5
BB
330
1F
100
AcDbEntity
  8
0
  6
Continuous
 62
     7
370
    15
100
AcDbLine
 10
231.2664884694
 20
489.7004951935
 30
0.0
 11
230.6667428084
 21
493.7139737166
 31
0.0
  0
LWPOLYLINE
  5
BC
330
1F
100
AcDbEntity
  8
0
  6
Continuous
 62
     7
370
    15
100
AcDbPolyline
 90
       40
 70
   128
 43
0.0
 10
231.4304999628
 20
472.3208469085
 10
231.6720496483
 20
472.5910403512
 10
233.392200581
 20
474.8093017123
 10
234.8193946846
 20
477.216606655
 10
235.9319936104
 20
479.7764631666
 10
236.7131329693
 20
482.4500653639
 10
237.150971926
 20
485.1968851153
 10
237.2388720133
 20
487.9752833376
 10
236.9755033024
 20
490.7431420151
 10
236.3648555793
 20
493.4585035525
 10
235.4161861904
 20
496.0802054711
 10
234.1438784816
 20
498.5685056753
 10
232.567216418
 20
500.8856837384
 10
230.7100995995
 20
502.9966138981
 10
228.6006837704
 20
504.8692968421
 10
226.2709440284
 20
506.4753439955
 10
223.7561951943
 20
507.7904105864
 10
221.0945604921
 20
508.7945607237
 10
218.3263862126
 20
509.4725710086
 10
215.493635772
 20
509.8141652278
 10
212.6392505916
 20
509.8141652278
 10
209.806500151
 20
509.4725710086
 10
207.0383258716
 20
508.7945607237
 10
204.3766911693
 20
507.7904105864
 10
201.8619423353
 20
506.4753439955
 10
199.5322025933
 20
504.8692968421
 10
197.4227867641
 20
502.9966138981
 10
195.5656699457
 20
500.8856837384
 10
193.9890078821
 20
498.5685056753
 10
192.7167001732
 20
496.0802054711
 10
191.7680307843
 20
493.4585035525
 10
191.1573830612
 20
490.7431420151
 10
190.8940143504
 20
487.9752833376
 10
190.9819144376
 20
485.1968851153
 10
191.4197533943
 20
482.4500653639
 10
192.2008927532
 20
479.7764631666
 10
193.313491679
 20
477.216606655
 10
194.7406857826
 20
474.8093017123
 10
196.4608367153
 20
472.5910403512
 10
196.7771455266
 20
472.2389501266
  0
ARC
  5
BD
330
1F
100
AcDbEntity
  8
0
  6
Continuous
 62
     7
370
    15
100
AcDbCircle
 10
214.0664431818
 20
488.6699967764
 30
0.0
 40
22.55000000000002
100
AcDbArc
 50
15.2687013326
 51
164.7312986674
  0
SPLINE
  5
BE
330
1F
100
AcDbEntity
  8
0
  6
Continuous
 62
     7
370
    15
100
AcDbSpline
210
0.0
220
0.0
230
1.0
 70
     8
 71
     3
 72
    15
 73
    11
 74
     0
 42
0.000000001
 43
0.00000001
 40
0.0
 40
0.0
 40
0.0
 40
0.0
 40
0.0007801124387209
 40
0.1560029146278906
 40
0.3157232046302075
 40
0.470916279128095
 40
0.6306183436979995
 40
0.785810223442889
 40
0.9454940491037052
 40
0.9999999999999999
 40
0.9999999999999999
 40
0.9999999999999999
 40
0.9999999999999999
 10
81.06644187051587
 20
488.6699985744713
 30
0.0
 10
81.06644594803497
 20
488.6636024059771
 30
0.0
 10
81.06726134954579
 20
487.3845291877965
 30
0.0
 10
81.28488929259287
 20
484.7911867517881
 30
0.0
 10
82.25264307870545
 20
481.0405910300714
 30
0.0
 10
83.85174305931587
 20
477.4750224949075
 30
0.0
 10
86.0011274407172
 20
474.2482550953842
 30
0.0
 10
88.70372631609155
 20
471.4416470327462
 30
0.0
 10
91.08856938276146
 20
469.5259318567138
 30
0.0
 10
92.66522447708309
 20
468.7502581119238
 30
0.0
 10
93.06644383746918
 20
468.5528685085325
 30
0.0
  0
ARC
  5
BF
330
1F
100
AcDbEntity
  8
0
  6
Continuous
 62
     7
370
    15
100
AcDbCircle
 10
104.0471468137
 20
488.7123858626
 30
0.0
 40
22.98074403425118
100
AcDbArc
 50
298.6528369512
 51
180.1056803944
  0
SPLINE
  5
C0
330
1F
100
AcDbEntity
  8
0
  6
Continuous
 62
     7
370
    15
100
AcDbSpline
210
0.0
220
0.0
230
1.0
 70
     8
 71
     3
 72
    48
 73
    44
 74
     0
 42
0.000000001
 43
0.00000001
 40
0.0
 40
0.0
 40
0.0
 40
0.0
 40
0.2500000000000002
 40
0.2500000000000002
 40
0.3750000000000003
 40
0.3750000000000003
 40
0.5000000000000004
 40
0.5000000000000004
 40
0.5625000000000004
 40
0.5625000000000004
 40
0.5937500000000006
 40
0.5937500000000006
 40
0.6250000000000006
 40
0.6250000000000006
 40
0.6562500000000006
 40
0.6562500000000006
 40
0.6875000000000007
 40
0.6875000000000007
 40
0.7031250000000006
 40
0.7031250000000006
 40
0.7187500000000004
 40
0.7187500000000004
 40
0.7343750000000003
 40
0.7343750000000003
 40
0.7500000000000002
 40
0.7500000000000002
 40
0.7656250000000001
 40
0.7656250000000001
 40
0.78125
 40
0.78125
 40
0.8124999999999999
 40
0.8124999999999999
 40
0.828125
 40
0.828125
 40
0.84375
 40
0.84375
 40
0.8749999999999999
 40
0.8749999999999999
 40
0.9062499999999999
 40
0.9062499999999999
 40
0.9374999999999999
 40
0.9374999999999999
 40
1.0
 40
1.0
 40
1.0
 40
1.0
 10
159.0664431818181
 20
524.1699967764167
 30
0.0
 10
169.5463058132339
 20
524.1699967764168
 30
0.0
 10
180.0259834698964
 20
524.1379631214285
 30
0.0
 10
195.7451292072942
 20
524.025707117041
 30
0.0
 10
200.9847813872665
 20
523.9773668020061
 30
0.0
 10
211.4638931833656
 20
523.8473382491685
 30
0.0
 10
216.7032453646075
 20
523.7669164000818
 30
0.0
 10
224.5610479274439
 20
523.5955329370373
 30
0.0
 10
227.1801272127853
 20
523.5299685930795
 30
0.0
 10
231.1081864237869
 20
523.4065361459998
 30
0.0
 10
232.4175684140414
 20
523.3611533533763
 30
0.0
 10
235.035455706396
 20
523.2562403809495
 30
0.0
 10
236.3437457995604
 20
523.1972552881873
 30
0.0
 10
238.9573613515276
 20
523.0496701656593
 30
0.0
 10
240.2629071497675
 20
522.9632711960412
 30
0.0
 10
242.8633507975413
 20
522.6841065715074
 30
0.0
 10
244.1576066886979
 20
522.4849281335685
 30
0.0
 10
246.082441297606
 20
522.0208435168583
 30
0.0
 10
246.7197552710566
 20
521.8377925537103
 30
0.0
 10
247.9571276057293
 20
521.4041187763414
 30
0.0
 10
248.5601466586632
 20
521.1528055583557
 30
0.0
 10
249.7280617396467
 20
520.5662873522648
 30
0.0
 10
250.2929455386585
 20
520.2310554535034
 30
0.0
 10
251.3785149900993
 20
519.4633312532694
 30
0.0
 10
251.8862381321597
 20
519.0394906178833
 30
0.0
 10
252.8259853705156
 20
518.1253444351506
 30
0.0
 10
253.2598982585411
 20
517.6338112990528
 30
0.0
 10
254.0631167884341
 20
516.5888339221267
 30
0.0
 10
254.433326943991
 20
516.0330265351807
 30
0.0
 10
255.4346488217267
 20
514.3296111840211
 30
0.0
 10
255.9701786627874
 20
513.1337059583245
 30
0.0
 10
256.6470371586156
 20
511.2821024403298
 30
0.0
 10
256.8515640946864
 20
510.6534556092558
 30
0.0
 10
257.2229366789035
 20
509.3876686405221
 30
0.0
 10
257.3893551471031
 20
508.7524603650655
 30
0.0
 10
257.8425360502599
 20
506.8413002563557
 30
0.0
 10
258.0838327842576
 20
505.5598862806225
 30
0.0
 10
258.4838960633689
 20
502.9871433461889
 30
0.0
 10
258.6422725430531
 20
501.6957675259442
 30
0.0
 10
258.8985722110602
 20
499.1057531690812
 30
0.0
 10
258.996327175024
 20
497.8070944223834
 30
0.0
 10
259.2202236865381
 20
493.9027844280701
 30
0.0
 10
259.2781137135451
 20
491.286618593721
 30
0.0
 10
259.2781137135451
 20
488.6699967764167
 30
0.0
  0
SPLINE
  5
C1
330
1F
100
AcDbEntity
  8
0
  6
Continuous
 62
     7
370
    15
100
AcDbSpline
210
0.0
220
0.0
230
1.0
 70
     8
 71
     3
 72
    52
 73
    48
 74
     0
 42
0.000000001
 43
0.00000001
 40
0.0
 40
0.0
 40
0.0
 40
0.0
 40
0.062500000000003
 40
0.062500000000003
 40
0.0937500000000045
 40
0.0937500000000045
 40
0.125000000000006
 40
0.125000000000006
 40
0.1562500000000076
 40
0.1562500000000076
 40
0.1718750000000084
 40
0.1718750000000084
 40
0.1875000000000092
 40
0.1875000000000092
 40
0.2187500000000108
 40
0.2187500000000108
 40
0.2265625000000111
 40
0.2265625000000111
 40
0.2343750000000115
 40
0.2343750000000115
 40
0.2500000000000117
 40
0.2500000000000117
 40
0.265625000000012
 40
0.265625000000012
 40
0.2812500000000123
 40
0.2812500000000123
 40
0.2968750000000125
 40
0.2968750000000125
 40
0.3046875000000123
 40
0.3046875000000123
 40
0.3125000000000121
 40
0.3125000000000121
 40
0.3437500000000113
 40
0.3437500000000113
 40
0.3750000000000105
 40
0.3750000000000105
 40
0.4062500000000098
 40
0.4062500000000098
 40
0.437500000000009
 40
0.437500000000009
 40
0.5000000000000079
 40
0.5000000000000079
 40
0.625000000000006
 40
0.625000000000006
 40
0.750000000000004
 40
0.750000000000004
 40
1.0
 40
1.0
 40
1.0
 40
1.0
 10
58.85477265009112
 20
488.6699967764167
 30
0.0
 10
58.85477265009106
 20
491.3081108406838
 30
0.0
 10
58.91336674786626
 20
493.9425399614554
 30
0.0
 10
59.14186395178211
 20
497.8853410220113
 30
0.0
 10
59.24177035877545
 20
499.1981150072411
 30
0.0
 10
59.50470541507252
 20
501.8196932622333
 30
0.0
 10
59.66769212987463
 20
503.1295072298259
 30
0.0
 10
60.0808482120011
 20
505.7393612892482
 30
0.0
 10
60.32988535666301
 20
507.0342959018853
 30
0.0
 10
60.79546738382768
 20
508.9550401503984
 30
0.0
 10
60.96613990996183
 20
509.5916454856218
 30
0.0
 10
61.34575060988098
 20
510.8558506359672
 30
0.0
 10
61.55535597772108
 20
511.485204412352
 30
0.0
 10
62.25026331452357
 20
513.3396659881191
 30
0.0
 10
62.79957388234886
 20
514.532704583377
 30
0.0
 10
63.65189423158779
 20
515.9406810796087
 30
0.0
 10
63.83077942397266
 20
516.2180413861702
 30
0.0
 10
64.20747713700331
 20
516.763243423074
 30
0.0
 10
64.40572103608893
 20
517.0314899621951
 30
0.0
 10
65.02279286315554
 20
517.8087883493827
 30
0.0
 10
65.46639669096402
 20
518.2941075471767
 30
0.0
 10
66.42419062198209
 20
519.192720198048
 30
0.0
 10
66.93923090800244
 20
519.6064968333035
 30
0.0
 10
68.04093412869483
 20
520.3554437195313
 30
0.0
 10
68.61445446891886
 20
520.6819494587496
 30
0.0
 10
69.80064120721319
 20
521.2521267192321
 30
0.0
 10
70.41329426310017
 20
521.4958264729511
 30
0.0
 10
71.35631276038154
 20
521.8105090506073
 30
0.0
 10
71.67491501150886
 20
521.9069547912552
 30
0.0
 10
72.31184962971282
 20
522.0830758598645
 30
0.0
 10
72.6311452079016
 20
522.1630981473389
 30
0.0
 10
74.23105956638248
 20
522.5298591014871
 30
0.0
 10
75.52188241233823
 20
522.7175686002483
 30
0.0
 10
78.11498178762506
 20
522.9818310478641
 30
0.0
 10
79.41657838614447
 20
523.0649826393312
 30
0.0
 10
82.02213323054508
 20
523.2083663330308
 30
0.0
 10
83.32634227788779
 20
523.2661644387692
 30
0.0
 10
85.93606419944096
 20
523.3691071752413
 30
0.0
 10
87.24172286943057
 20
523.4137898138771
 30
0.0
 10
91.1583997017185
 20
523.5354460069657
 30
0.0
 10
93.76972996903282
 20
523.6002702887206
 30
0.0
 10
101.6040457756358
 20
523.769830015985
 30
0.0
 10
106.827356887005
 20
523.8496088480982
 30
0.0
 10
117.2743776098744
 20
523.9786196248673
 30
0.0
 10
122.498103161369
 20
524.0266296948487
 30
0.0
 10
138.1697040706067
 20
524.1381388057563
 30
0.0
 10
148.618103952594
 20
524.1699967764168
 30
0.0
 10
159.0664431818181
 20
524.1699967764167
 30
0.0
  0
SPLINE
  5
C2
330
1F
100
AcDbEntity
  8
0
  6
Continuous
 62
     7
370
    15
100
AcDbSpline
210
0.0
220
0.0
230
1.0
 70
     8
 71
     3
 72
    27
 73
    23
 74
     0
 42
0.000000001
 43
0.00000001
 40
0.0
 40
0.0
 40
0.0
 40
0.0
 40
0.072276962291113
 40
0.1446065632540151
 40
0.2171832385075919
 40
0.2899080121629298
 40
0.3598273019119799
 40
0.3949999568027258
 40
0.4302671350590338
 40
0.4863521653490897
 40
0.5148787390787779
 40
0.5436138912616899
 40
0.5848473241643215
 40
0.6272533242141101
 40
0.6679155161640951
 40
0.7095820548102383
 40
0.7446228261571785
 40
0.7798845174380489
 40
0.8513009543063688
 40
0.9236041240186473
 40
0.9959328896269204
 40
1.0
 40
1.0
 40
1.0
 40
1.0
 10
259.2781122394258
 20
488.6699967764169
 30
0.0
 10
259.269827683386
 20
487.3813815660898
 30
0.0
 10
259.2532525377377
 20
484.8032126583856
 30
0.0
 10
259.0983172219006
 20
480.9335087720445
 30
0.0
 10
258.8129971754552
 20
477.0630641938435
 30
0.0
 10
258.3522505051222
 20
473.2520891342543
 30
0.0
 10
257.777294630022
 20
470.1313265967224
 30
0.0
 10
257.16497278871
 20
467.7039516908529
 30
0.0
 10
256.4976247116918
 20
465.5484229023806
 30
0.0
 10
255.6942285979392
 20
463.561061675115
 30
0.0
 10
254.7365422061987
 20
461.7792554214078
 30
0.0
 10
253.7720518984741
 20
460.3090637074633
 30
0.0
 10
252.4682086239802
 20
458.7763520091384
 30
0.0
 10
250.7524304665959
 20
457.3541971866242
 30
0.0
 10
248.8079037128174
 20
456.2544162635122
 30
0.0
 10
246.8433938622893
 20
455.5142290235286
 30
0.0
 10
244.9074269880954
 20
455.018830724414
 30
0.0
 10
242.4185251187675
 20
454.5726829785838
 30
0.0
 10
239.2360029845426
 20
454.2907833386541
 30
0.0
 10
235.3897358916801
 20
454.0996174664642
 30
0.0
 10
232.7409949452806
 20
453.9788864089621
 30
0.0
 10
231.3793922012864
 20
453.9456458809109
 30
0.0
 10
231.3069041438752
 20
453.9438762448578
 30
0.0
  0
SPLINE
  5
C3
330
1F
100
AcDbEntity
  8
0
  6
Continuous
 62
     7
370
    15
100
AcDbSpline
210
0.0
220
0.0
230
1.0
 70
     8
 71
     3
 72
     9
 73
     5
 74
     0
 42
0.000000001
 43
0.00000001
 40
0.0
 40
0.0
 40
0.0
 40
0.0
 40
0.619326312629809
 40
1.0
 40
1.0
 40
1.0
 40
1.0
 10
196.8263547487908
 20
453.3465520225315
 30
0.0
 10
189.0312313965473
 20
453.2824959727877
 30
0.0
 10
176.4447754471083
 20
453.1790673787855
 30
0.0
 10
163.8579259067452
 20
453.1724968438776
 30
0.0
 10
159.0664434798413
 20
453.1699956141262
 30
0.0
  0
SPLINE
  5
C4
330
1F
100
AcDbEntity
  8
0
  6
Continuous
 62
     7
370
    15
100
AcDbSpline
210
0.0
220
0.0
230
1.0
 70
     8
 71
     3
 72
    48
 73
    44
 74
     0
 42
0.000000001
 43
0.00000001
 40
0.0
 40
0.0
 40
0.0
 40
0.0
 40
0.249999999999997
 40
0.249999999999997
 40
0.3749999999999953
 40
0.3749999999999953
 40
0.4999999999999937
 40
0.4999999999999937
 40
0.562499999999993
 40
0.562499999999993
 40
0.5937499999999929
 40
0.5937499999999929
 40
0.6249999999999927
 40
0.6249999999999927
 40
0.6562499999999926
 40
0.6562499999999926
 40
0.6874999999999925
 40
0.6874999999999925
 40
0.7031249999999927
 40
0.7031249999999927
 40
0.7187499999999929
 40
0.7187499999999929
 40
0.7343749999999932
 40
0.7343749999999932
 40
0.7499999999999934
 40
0.7499999999999934
 40
0.7656249999999937
 40
0.7656249999999937
 40
0.781249999999994
 40
0.781249999999994
 40
0.8124999999999948
 40
0.8124999999999948
 40
0.8281249999999953
 40
0.8281249999999953
 40
0.8437499999999958
 40
0.8437499999999958
 40
0.8749999999999966
 40
0.8749999999999966
 40
0.9062499999999974
 40
0.9062499999999974
 40
0.9374999999999983
 40
0.9374999999999983
 40
1.0
 40
1.0
 40
1.0
 40
1.0
 10
159.0664431818181
 20
453.1699967764168
 30
0.0
 10
148.5865805504023
 20
453.1699967764168
 30
0.0
 10
138.1069028937398
 20
453.2020304314051
 30
0.0
 10
122.387757156342
 20
453.3142864357926
 30
0.0
 10
117.1481049763698
 20
453.3626267508275
 30
0.0
 10
106.6689931802706
 20
453.4926553036651
 30
0.0
 10
101.4296409990287
 20
453.5730771527518
 30
0.0
 10
93.57183843619232
 20
453.7444606157962
 30
0.0
 10
90.95275915085085
 20
453.8100249597541
 30
0.0
 10
87.02469993984924
 20
453.9334574068338
 30
0.0
 10
85.71531794959463
 20
453.9788401994574
 30
0.0
 10
83.09743065724012
 20
454.083753171884
 30
0.0
 10
81.78914056407582
 20
454.1427382646463
 30
0.0
 10
79.17552501210851
 20
454.2903233871743
 30
0.0
 10
77.86997921386865
 20
454.3767223567924
 30
0.0
 10
75.26953556609477
 20
454.6558869813261
 30
0.0
 10
73.97527967493822
 20
454.855065419265
 30
0.0
 10
72.05044506603025
 20
455.3191500359752
 30
0.0
 10
71.41313109257958
 20
455.5022009991233
 30
0.0
 10
70.17575875790693
 20
455.9358747764921
 30
0.0
 10
69.57273970497299
 20
456.187187994478
 30
0.0
 10
68.40482462398938
 20
456.7737062005687
 30
0.0
 10
67.83994082497757
 20
457.1089380993303
 30
0.0
 10
66.75437137353687
 20
457.8766622995643
 30
0.0
 10
66.24664823147658
 20
458.3005029349503
 30
0.0
 10
65.30690099312059
 20
459.2146491176831
 30
0.0
 10
64.87298810509509
 20
459.7061822537808
 30
0.0
 10
64.0697695752021
 20
460.7511596307069
 30
0.0
 10
63.6995594196452
 20
461.3069670176529
 30
0.0
 10
62.69823754190953
 20
463.0103823688125
 30
0.0
 10
62.16270770084881
 20
464.206287594509
 30
0.0
 10
61.48584920502062
 20
466.0578911125037
 30
0.0
 10
61.28132226894981
 20
466.6865379435778
 30
0.0
 10
60.90994968473274
 20
467.9523249123116
 30
0.0
 10
60.74353121653306
 20
468.5875331877681
 30
0.0
 10
60.29035031337632
 20
470.4986932964778
 30
0.0
 10
60.04905357937862
 20
471.7801072722111
 30
0.0
 10
59.6489903002671
 20
474.3528502066447
 30
0.0
 10
59.4906138205831
 20
475.6442260268893
 30
0.0
 10
59.23431415257602
 20
478.2342403837524
 30
0.0
 10
59.13655918861222
 20
479.5328991304501
 30
0.0
 10
58.91266267709808
 20
483.4372091247635
 30
0.0
 10
58.85477265009109
 20
486.0533749591125
 30
0.0
 10
58.85477265009112
 20
488.6699967764169
 30
0.0
  0
SPLINE
  5
C5
330
1F
100
AcDbEntity
  8
0
  6
Continuous
 62
     8
370
     0
100
AcDbSpline
210
0.0
220
0.0
230
1.0
 70
     8
 71
     3
 72
    14
 73
    10
 74
     0
 42
0.000000001
 43
0.00000001
 40
0.0
 40
0.0
 40
0.0
 40
0.0
 40
0.125000000000001
 40
0.125000000000001
 40
0.2500000000000019
 40
0.2500000000000019
 40
0.5000000000000012
 40
0.5000000000000012
 40
1.0
 40
1.0
 40
1.0
 40
1.0
 10
104.0664431818181
 20
492.0733347437049
 30
0.0
 10
104.7284380077197
 20
492.0732249970625
 30
0.0
 10
105.3921044332423
 20
492.0683391446462
 30
0.0
 10
106.7152343591183
 20
492.0490835457372
 30
0.0
 10
107.3759569761482
 20
492.0347137767704
 30
0.0
 10
109.3555977045426
 20
491.9774553290995
 30
0.0
 10
110.6741294684112
 20
491.9202357858174
 30
0.0
 10
114.5857580151709
 20
491.6946662625605
 30
0.0
 10
117.1447511144584
 20
491.4724640097776
 30
0.0
 10
119.6538746536274
 20
491.1838251974143
 30
0.0
  0
SPLINE
  5
C6
330
1F
100
AcDbEntity
  8
0
  6
Continuous
 62
     8
370
     0
100
AcDbSpline
210
0.0
220
0.0
230
1.0
 70
     8
 71
     3
 72
    14
 73
    10
 74
     0
 42
0.000000001
 43
0.00000001
 40
0.0
 40
0.0
 40
0.0
 40
0.0
 40
0.25
 40
0.25
 40
0.5
 40
0.5
 40
0.75
 40
0.75
 40
1.0
 40
1.0
 40
1.0
 40
1.0
 10
119.6538740162179
 20
491.183825274629
 30
0.0
 10
119.7136969604675
 20
491.1765812573575
 30
0.0
 10
119.7683438188958
 20
491.1249213496853
 30
0.0
 10
119.856518803656
 20
490.9429478229658
 30
0.0
 10
119.8899869413834
 20
490.812758007035
 30
0.0
 10
119.9290905927411
 20
490.4996223542993
 30
0.0
 10
119.9346995027548
 20
490.3168895549096
 30
0.0
 10
119.9169264202648
 20
489.9350961479598
 30
0.0
 10
119.8935565194263
 20
489.7362952881475
 30
0.0
 10
119.8580054357107
 20
489.5491742109188
 30
0.0
  0
SPLINE
  5
C7
330
1F
100
AcDbEntity
  8
0
  6
Continuous
 62
     8
370
     0
100
AcDbSpline
210
0.0
220
0.0
230
1.0
 70
     8
 71
     3
 72
    11
 73
     7
 74
     0
 42
0.000000001
 43
0.00000001
 40
0.0
 40
0.0
 40
0.0
 40
0.0
 40
0.3116093641707883
 40
0.6267102516750912
 40
0.8129922458516271
 40
0.9999999999999999
 40
0.9999999999999999
 40
0.9999999999999999
 40
0.9999999999999999
 10
119.8585528500729
 20
489.5491382202915
 30
0.0
 10
118.2634485839816
 20
489.721562899563
 30
0.0
 10
115.0553672135442
 20
490.068344243663
 30
0.0
 10
110.7469914290865
 20
490.3275715767626
 30
0.0
 10
107.0715703718633
 20
490.4547324612382
 30
0.0
 10
105.0695941191199
 20
490.4676544300146
 30
0.0
 10
104.0666598447018
 20
490.4741279760225
 30
0.0
  0
LWPOLYLINE
  5
C8
330
1F
100
AcDbEntity
  8
0
  6
Continuous
 62
     8
370
     0
100
AcDbPolyline
 90
        9
 70
   128
 43
0.0
 10
104.0664437779
 20
492.0733346816
 10
104.0664363273
 20
492.03957191
 10
104.0664437779
 20
491.9420077212
 10
104.066458679
 20
491.7855578687
 10
104.0664884813
 20
491.5781055324
 10
104.0665257343
 20
491.330103644
 10
104.0665704377
 20
491.0540482242
 10
104.0666151412
 20
490.7638488084
 10
104.0666598447
 20
490.474127976
  0
SPLINE
  5
C9
330
1F
100
AcDbEntity
  8
0
  6
Continuous
 62
     8
370
     0
100
AcDbSpline
210
0.0
220
0.0
230
1.0
 70
     8
 71
     3
 72
    13
 73
     9
 74
     0
 42
0.000000001
 43
0.00000001
 40
0.0
 40
0.0
 40
0.0
 40
0.0
 40
0.1572849683101749
 40
0.31500584581638
 40
0.4706045902101247
 40
0.6266265536996434
 40
0.81294391665614
 40
1.0
 40
1.0
 40
1.0
 40
1.0
 10
104.0666598447018
 20
490.4741279760225
 30
0.0
 10
103.2230409174338
 20
490.4694917710454
 30
0.0
 10
101.5334650057248
 20
490.4602065120285
 30
0.0
 10
99.01636182571983
 20
490.3872908031931
 30
0.0
 10
96.519622479456
 20
490.2725230890776
 30
0.0
 10
93.8935858407951
 20
490.101628609098
 30
0.0
 10
91.13102402352793
 20
489.8701054926
 30
0.0
 10
89.22782460708856
 20
489.6562688797741
 30
0.0
 10
88.2743421562367
 20
489.5491390351987
 30
0.0
  0
SPLINE
  5
CA
330
1F
100
AcDbEntity
  8
0
  6
Continuous
 62
     8
370
     0
100
AcDbSpline
210
0.0
220
0.0
230
1.0
 70
     8
 71
     3
 72
    54
 73
    50
 74
     0
 42
0.000000001
 43
0.00000001
 40
0.0
 40
0.0
 40
0.0
 40
0.0
 40
0.0135461487693216
 40
0.0270461862392114
 40
0.0337879372834959
 40
0.0472502207740254
 40
0.0606862640900216
 40
0.0673866455889116
 40
0.0807529485424497
 40
0.1007047743163789
 40
0.1073289398601747
 40
0.1218520044221866
 40
0.1363127011646036
 40
0.1435196768087756
 40
0.1650473605003264
 40
0.1793230874380883
 40
0.1864392485405261
 40
0.2077042260650719
 40
0.22181563654426
 40
0.249899799159468
 40
0.277807317104563
 40
0.2917015219495439
 40
0.3055587880755399
 40
0.3402374031466576
 40
0.3543488560052848
 40
0.3613946089178425
 40
0.4175540558733359
 40
0.4455449590461236
 40
0.50119489226632
 40
0.5429893651054243
 40
0.5849379435255121
 40
0.6130358435985741
 40
0.641271246824561
 40
0.6882173094189801
 40
0.697526256029855
 40
0.7256093692014338
 40
0.7537360739874316
 40
0.7630288005452923
 40
0.7817185134370962
 40
0.819554439111668
 40
0.8281021973138603
 40
0.8539674834995242
 40
0.8890240995158549
 40
0.9042902555117235
 40
0.919701077858735
 40
0.9646593834903823
 40
0.9715508224526249
 40
0.9924253315046276
 40
1.0
 40
1.0
 40
1.0
 40
1.0
 10
119.8580686385074
 20
489.549375082031
 30
0.0
 10
119.8337719782845
 20
489.444505829486
 30
0.0
 10
119.7852613640453
 20
489.23512430095
 30
0.0
 10
119.7249781299191
 20
488.9747423484921
 30
0.0
 10
119.6657409212044
 20
488.7153015203727
 30
0.0
 10
119.6073574635318
 20
488.4567709667131
 30
0.0
 10
119.5494002231237
 20
488.1992389469797
 30
0.0
 10
119.4914667634183
 20
487.9430944019425
 30
0.0
 10
119.4217061527704
 20
487.6379970673471
 30
0.0
 10
119.3506978700194
 20
487.3350654983579
 30
0.0
 10
119.2760354846903
 20
487.0247584702943
 30
0.0
 10
119.2102137198549
 20
486.7568529051356
 30
0.0
 10
119.1415275512541
 20
486.485950802218
 30
0.0
 10
119.057609004924
 20
486.1639660979232
 30
0.0
 10
118.9713691854983
 20
485.8451756732458
 30
0.0
 10
118.8816455604317
 20
485.529484186814
 30
0.0
 10
118.7901975957922
 20
485.2172089464142
 30
0.0
 10
118.6960872640399
 20
484.908103938107
 30
0.0
 10
118.5497438811316
 20
484.4502950716846
 30
0.0
 10
118.3802849578407
 20
483.9496744418357
 30
0.0
 10
118.2005666460272
 20
483.4577385863893
 30
0.0
 10
118.0506647006136
 20
483.0704617412538
 30
0.0
 10
117.8773592032891
 20
482.639529689243
 30
0.0
 10
117.6941383433554
 20
482.2133001244092
 30
0.0
 10
117.5220996014849
 20
481.839416948808
 30
0.0
 10
117.27852809055
 20
481.3253823464026
 30
0.0
 10
116.9719818292581
 20
480.7320566624829
 30
0.0
 10
116.4597629819139
 20
479.8532471595853
 30
0.0
 10
115.9614000834359
 20
479.0929526157183
 30
0.0
 10
115.3571529514891
 20
478.2881677908736
 30
0.0
 10
114.8376416872681
 20
477.6712929894921
 30
0.0
 10
114.3555189105659
 20
477.1516663634987
 30
0.0
 10
113.8272026618809
 20
476.6252453312109
 30
0.0
 10
113.3710165265504
 20
476.2167156803284
 30
0.0
 10
112.8977967711189
 20
475.8268400808466
 30
0.0
 10
112.5208498570102
 20
475.5332235516141
 30
0.0
 10
112.129854746758
 20
475.2543368690638
 30
0.0
 10
111.7869180285162
 20
475.024173797328
 30
0.0
 10
111.3775333848712
 20
474.7619717952954
 30
0.0
 10
110.9585013889359
 20
474.5186657257678
 30
0.0
 10
110.4806705027138
 20
474.2640879348493
 30
0.0
 10
110.0122039841842
 20
474.0304067071461
 30
0.0
 10
109.4812041762393
 20
473.7966179873365
 30
0.0
 10
109.0113663394781
 20
473.6120242870106
 30
0.0
 10
108.46274167264
 20
473.4119279801678
 30
0.0
 10
107.9605742426364
 20
473.2560518414007
 30
0.0
 10
107.4065659278537
 20
473.1103158115189
 30
0.0
 10
107.1345155478375
 20
473.0450841617554
 30
0.0
 10
106.913064509641
 20
472.9984934649299
 30
0.0
 10
106.8541025871214
 20
472.9860885691176
 30
0.0
  0
SPLINE
  5
CB
330
1F
100
AcDbEntity
  8
0
  6
Continuous
 62
     8
370
     0
100
AcDbSpline
210
0.0
220
0.0
230
1.0
 70
     8
 71
     3
 72
    16
 73
    12
 74
     0
 42
0.000000001
 43
0.00000001
 40
0.0
 40
0.0
 40
0.0
 40
0.0
 40
0.1111336929077741
 40
0.2222505929923531
 40
0.3333554099056733
 40
0.444452928593107
 40
0.5555479792270996
 40
0.6666454070755243
 40
0.777750042348836
 40
0.8888666700683902
 40
1.0
 40
1.0
 40
1.0
 40
1.0
 10
101.2783967598984
 20
472.9862434678358
 30
0.0
 10
101.4847365884459
 20
472.983740544104
 30
0.0
 10
101.8973850666233
 20
472.9787350748438
 30
0.0
 10
102.5169443571697
 20
472.9735177582629
 30
0.0
 10
103.1367262244819
 20
472.969953664658
 30
0.0
 10
103.7566789717763
 20
472.9681957074458
 30
0.0
 10
104.3766806969313
 20
472.9681963972636
 30
0.0
 10
104.9966328365187
 20
472.9699557297532
 30
0.0
 10
105.6164134867292
 20
472.9735211844975
 30
0.0
 10
106.2359709610012
 20
472.9787398417544
 30
0.0
 10
106.6486179756687
 20
472.9837461797114
 30
0.0
 10
106.8549569883327
 20
472.9862495368045
 30
0.0
  0
SPLINE
  5
CC
330
1F
100
AcDbEntity
  8
0
  6
Continuous
 62
     8
370
     0
100
AcDbSpline
210
0.0
220
0.0
230
1.0
 70
     8
 71
     3
 72
    23
 73
    19
 74
     0
 42
0.000000001
 43
0.00000001
 40
0.0
 40
0.0
 40
0.0
 40
0.0
 40
0.0119965545309965
 40
0.0240905246797338
 40
0.0924755858437811
 40
0.1639056189972
 40
0.2326997127305907
 40
0.3037643932159318
 40
0.4430702280489226
 40
0.5820956566037743
 40
0.720582347451181
 40
0.8602842310188222
 40
0.8922012198817353
 40
0.9300647691617332
 40
0.9475457749057059
 40
0.9649997340311324
 40
0.9828013579923222
 40
1.0
 40
1.0
 40
1.0
 40
1.0
 10
101.2790029757403
 20
472.9861184454572
 30
0.0
 10
101.185746696875
 20
473.0059291274028
 30
0.0
 10
100.9984768702145
 20
473.0457113599682
 30
0.0
 10
100.2872451449071
 20
473.2159761506978
 30
0.0
 10
99.15213740747159
 20
473.5686264177572
 30
0.0
 10
97.69817858826693
 20
474.2103307174249
 30
0.0
 10
96.33565148957679
 20
474.9986705696435
 30
0.0
 10
94.68767539154186
 20
476.2066351702009
 30
0.0
 10
92.90035405259711
 20
477.9981574842317
 30
0.0
 10
91.20192061882481
 20
480.4981034885082
 30
0.0
 10
89.92331207006299
 20
483.2994567446248
 30
0.0
 10
89.2238537161135
 20
485.548089907931
 30
0.0
 10
88.83251059889241
 20
487.1184700010203
 30
0.0
 10
88.6782151834738
 20
487.7804980999916
 30
0.0
 10
88.55192761395334
 20
488.3369697699779
 30
0.0
 10
88.46100984261432
 20
488.7418662252369
 30
0.0
 10
88.36970526634197
 20
489.1459494124257
 30
0.0
 10
88.30594004643832
 20
489.4163071022389
 30
0.0
 10
88.27460670769626
 20
489.5491570961577
 30
0.0
  0
SPLINE
  5
CD
330
1F
100
AcDbEntity
  8
0
  6
Continuous
 62
     8
370
     0
100
AcDbSpline
210
0.0
220
0.0
230
1.0
 70
     8
 71
     3
 72
    14
 73
    10
 74
     0
 42
0.000000001
 43
0.00000001
 40
0.0
 40
0.0
 40
0.0
 40
0.0
 40
0.25
 40
0.25
 40
0.5
 40
0.5
 40
0.75
 40
0.75
 40
1.0
 40
1.0
 40
1.0
 40
1.0
 10
88.47901175432976
 20
491.1838252025129
 30
0.0
 10
89.73142536332693
 20
491.3278974930872
 30
0.0
 10
90.99855921414083
 20
491.4556527900347
 30
0.0
 10
93.56184596507508
 20
491.6768971677135
 30
0.0
 10
94.85952760144869
 20
491.7704356831931
 30
0.0
 10
97.46871609764563
 20
491.9207213861921
 30
0.0
 10
98.78354842427106
 20
491.9776850467685
 30
0.0
 10
101.420737273953
 20
492.0538646770894
 30
0.0
 10
102.7421680549274
 20
492.0731156485962
 30
0.0
 10
104.0664431818181
 20
492.0733347437049
 30
0.0
  0
SPLINE
  5
CE
330
1F
100
AcDbEntity
  8
0
  6
Continuous
 62
     8
370
     0
100
AcDbSpline
210
0.0
220
0.0
230
1.0
 70
     8
 71
     3
 72
    14
 73
    10
 74
     0
 42
0.000000001
 43
0.00000001
 40
0.0
 40
0.0
 40
0.0
 40
0.0
 40
0.25
 40
0.25
 40
0.5
 40
0.5
 40
0.75
 40
0.75
 40
1.0
 40
1.0
 40
1.0
 40
1.0
 10
88.27488111690121
 20
489.5491750122194
 30
0.0
 10
88.23933008944898
 20
489.7362960587758
 30
0.0
 10
88.21596023007322
 20
489.9350968524038
 30
0.0
 10
88.1981871897009
 20
490.3168900948356
 30
0.0
 10
88.20379610032467
 20
490.499622796355
 30
0.0
 10
88.24289971261342
 20
490.8127582651573
 30
0.0
 10
88.27636781072448
 20
490.9429479954384
 30
0.0
 10
88.36454268824286
 20
491.1249213972863
 30
0.0
 10
88.4191894791998
 20
491.1765812659889
 30
0.0
 10
88.47901235232517
 20
491.183825274953
 30
0.0
  0
SPLINE
  5
CF
330
1F
100
AcDbEntity
  8
0
  6
Continuous
 62
     8
370
     0
100
AcDbSpline
210
0.0
220
0.0
230
1.0
 70
     8
 71
     3
 72
    59
 73
    55
 74
     0
 42
0.000000001
 43
0.00000001
 40
0.0
 40
0.0
 40
0.0
 40
0.0
 40
0.1249999999999987
 40
0.1249999999999987
 40
0.2499999999999974
 40
0.2499999999999974
 40
0.3124999999999967
 40
0.3124999999999967
 40
0.3749999999999961
 40
0.3749999999999961
 40
0.4062499999999956
 40
0.4062499999999956
 40
0.4374999999999951
 40
0.4374999999999951
 40
0.4999999999999941
 40
0.4999999999999941
 40
0.5312499999999938
 40
0.5312499999999938
 40
0.5468749999999937
 40
0.5468749999999937
 40
0.5624999999999934
 40
0.5624999999999934
 40
0.6249999999999934
 40
0.6249999999999934
 40
0.6406249999999934
 40
0.6406249999999934
 40
0.6562499999999933
 40
0.6562499999999933
 40
0.6874999999999937
 40
0.6874999999999937
 40
0.718749999999994
 40
0.718749999999994
 40
0.7499999999999944
 40
0.7499999999999944
 40
0.8124999999999959
 40
0.8124999999999959
 40
0.8437499999999966
 40
0.8437499999999966
 40
0.8749999999999972
 40
0.8749999999999972
 40
0.9062499999999979
 40
0.9062499999999979
 40
0.9374999999999986
 40
0.9374999999999986
 40
0.9687499999999992
 40
0.9687499999999992
 40
0.9843749999999996
 40
0.9843749999999996
 40
0.9921874999999998
 40
0.9921874999999998
 40
0.9960937499999998
 40
0.9980468749999999
 40
0.9980468749999999
 40
1.0
 40
1.0
 40
1.0
 40
1.0
 10
123.2853898878749
 20
490.8833109031057
 30
0.0
 10
123.3339322120859
 20
490.9190814324489
 30
0.0
 10
123.4154437373416
 20
490.9856958988515
 30
0.0
 10
123.6252242303185
 20
491.2558709448417
 30
0.0
 10
123.7518446333732
 20
491.4584512976216
 30
0.0
 10
123.9372748165662
 20
491.9463682601839
 30
0.0
 10
123.9979028134215
 20
492.1407692180731
 30
0.0
 10
124.1061155115991
 20
492.609920949292
 30
0.0
 10
124.1540309644758
 20
492.8840124046757
 30
0.0
 10
124.2025780696319
 20
493.3758527708434
 30
0.0
 10
124.2147239515024
 20
493.5542106673167
 30
0.0
 10
124.2269692533386
 20
493.9394909960959
 30
0.0
 10
124.2271536367761
 20
494.1460537556529
 30
0.0
 10
124.2036059528863
 20
494.8113609376682
 30
0.0
 10
124.1567501579272
 20
495.3150929705066
 30
0.0
 10
124.0036148876565
 20
496.1780556120933
 30
0.0
 10
123.9385962712326
 20
496.4837021828768
 30
0.0
 10
123.8129791169744
 20
496.9724487562602
 30
0.0
 10
123.7664006001152
 20
497.14041977236
 30
0.0
 10
123.6622669920787
 20
497.4871507323634
 30
0.0
 10
123.6045074251088
 20
497.6663771505798
 30
0.0
 10
123.2884546143386
 20
498.5794928383747
 30
0.0
 10
122.9471523941938
 20
499.369979650079
 30
0.0
 10
122.3645430260477
 20
500.4191165301082
 30
0.0
 10
122.2403036743761
 20
500.6319401364607
 30
0.0
 10
121.9752477186801
 20
501.0629193210643
 30
0.0
 10
121.8344657436209
 20
501.2809084542943
 30
0.0
 10
121.3924588314188
 20
501.9319850271421
 30
0.0
 10
121.0695148284468
 20
502.3653106592637
 30
0.0
 10
120.3651844578581
 20
503.2246672166932
 30
0.0
 10
119.9842237653466
 20
503.6507152666508
 30
0.0
 10
119.1622193925178
 20
504.4884973149502
 30
0.0
 10
118.717977080283
 20
504.9026880460913
 30
0.0
 10
117.3210575809952
 20
506.0884745909515
 30
0.0
 10
116.3046972588059
 20
506.8094941526199
 30
0.0
 10
114.6587591042553
 20
507.7701597866476
 30
0.0
 10
114.0878384006376
 20
508.0704588071901
 30
0.0
 10
112.9276213510743
 20
508.6167255027033
 30
0.0
 10
112.3358238042284
 20
508.8643281337494
 30
0.0
 10
111.1291255065094
 20
509.3071616828896
 30
0.0
 10
110.5146064666355
 20
509.503210131926
 30
0.0
 10
109.2624556332142
 20
509.8413491532049
 30
0.0
 10
108.6229143034237
 20
509.9834381990387
 30
0.0
 10
107.3331055395883
 20
510.2080444591642
 30
0.0
 10
106.683095673182
 20
510.2910331743013
 30
0.0
 10
105.703658536538
 20
510.3758405629769
 30
0.0
 10
105.3765060794159
 20
510.3974345977996
 30
0.0
 10
104.8855311361877
 20
510.4204732815405
 30
0.0
 10
104.7218042664647
 20
510.4265989453041
 30
0.0
 10
104.4761155128987
 20
510.4335433540481
 30
0.0
 10
104.3532465088444
 20
510.436454305713
 30
0.0
 10
104.2303411367959
 20
510.4385353640687
 30
0.0
 10
104.1483961762626
 20
510.4397391473457
 30
0.0
 10
104.1062861525071
 20
510.4402262624354
 30
0.0
 10
104.0664431818181
 20
510.4407152770759
 30
0.0
  0
ARC
  5
D0
330
1F
100
AcDbEntity
  8
0
  6
Continuous
 62
     8
370
     0
100
AcDbCircle
 10
123.6346825807
 20
478.3428288945
 30
0.0
 40
12.51182030438305
100
AcDbArc
 50
91.9215679594
 51
94.7007035835
  0
SPLINE
  5
D1
330
1F
100
AcDbEntity
  8
0
  6
Continuous
 62
     8
370
     0
100
AcDbSpline
210
0.0
220
0.0
230
1.0
 70
     8
 71
     3
 72
    20
 73
    16
 74
     0
 42
0.000000001
 43
0.00000001
 40
0.0
 40
0.0
 40
0.0
 40
0.0
 40
0.1249999999999997
 40
0.1249999999999997
 40
0.2499999999999994
 40
0.2499999999999994
 40
0.3749999999999991
 40
0.3749999999999991
 40
0.4999999999999988
 40
0.4999999999999988
 40
0.6249999999999984
 40
0.6249999999999984
 40
0.7499999999999982
 40
0.7499999999999982
 40
1.0
 40
1.0
 40
1.0
 40
1.0
 10
119.6538740162179
 20
491.183825274629
 30
0.0
 10
119.8666837255027
 20
491.1593445632416
 30
0.0
 10
120.0717931512594
 20
491.1352613371364
 30
0.0
 10
120.4673245797079
 20
491.0879939797072
 30
0.0
 10
120.658902483863
 20
491.0646627119255
 30
0.0
 10
121.0173825475609
 20
491.020324464328
 30
0.0
 10
121.1852619930257
 20
490.9992056958411
 30
0.0
 10
121.4987096503019
 20
490.9592679774771
 30
0.0
 10
121.6453195127175
 20
490.9403113568084
 30
0.0
 10
121.9094020171952
 20
490.9058181423057
 30
0.0
 10
122.0264746347672
 20
490.8903393469665
 30
0.0
 10
122.2311299058638
 20
490.8631047152975
 30
0.0
 10
122.3190963970545
 20
490.8512964064425
 30
0.0
 10
122.5332462861503
 20
490.8224941284403
 30
0.0
 10
122.6076674661766
 20
490.8124353492515
 30
0.0
 10
122.6093262754972
 20
490.812564142037
 30
0.0
  0
SPLINE
  5
D2
330
1F
100
AcDbEntity
  8
0
  6
Continuous
 62
     8
370
     0
100
AcDbSpline
210
0.0
220
0.0
230
1.0
 70
    24
 71
     3
 72
    59
 73
    55
 74
     0
 42
0.000000001
 43
0.00000001
 40
0.0211718357315917
 40
0.0211718357315917
 40
0.0211718357315917
 40
0.0211718357315917
 40
0.0325117569320997
 40
0.0650235138641994
 40
0.0975352707962993
 40
0.1300470277283988
 40
0.1625587846604986
 40
0.1950705415925979
 40
0.2275822985246974
 40
0.2600940554567969
 40
0.3182552942913066
 40
0.3764165331258169
 40
0.4345777719603274
 40
0.4927390107948371
 40
0.4964960072525971
 40
0.5556037627812054
 40
0.59375
 40
0.6147115183098131
 40
0.6738192738384209
 40
0.6875
 40
0.71875
 40
0.732927029239819
 40
0.739110615987719
 40
0.7455652686116941
 40
0.7698549861216073
 40
0.78125
 40
0.7882540129930681
 40
0.8066005655570052
 40
0.8125
 40
0.824906259062254
 40
0.8431373757158781
 40
0.8583258578251207
 40
0.8703607307014285
 40
0.875
 40
0.880576881307436
 40
0.891700509484497
 40
0.9036560810873429
 40
0.90625
 40
0.9143365190905881
 40
0.921875
 40
0.9239107928049131
 40
0.9325733762884092
 40
0.9375
 40
0.940986468323359
 40
0.9491760924864694
 40
0.953125
 40
0.9569660500207184
 40
0.9643890289113916
 40
0.96875
 40
0.971409494454555
 40
0.9765625
 40
0.9779980784474579
 40
0.9842220456111281
 40
0.9876406418187065
 40
0.9876406418187065
 40
0.9876406418187065
 40
0.9876406418187065
 10
104.0664431818181
 20
492.0733347437049
 30
0.0
 10
104.0664431818181
 20
492.0765012102012
 30
0.0
 10
104.0664431818181
 20
492.0887437147895
 30
0.0
 10
104.0664431818181
 20
492.1100478042441
 30
0.0
 10
104.0664431818181
 20
492.1372316010771
 30
0.0
 10
104.0664431818181
 20
492.1643901429852
 30
0.0
 10
104.0664431818181
 20
492.1915250469326
 30
0.0
 10
104.0664431818181
 20
492.2186379298831
 30
0.0
 10
104.0664431818181
 20
492.2457304088009
 30
0.0
 10
104.0664431818181
 20
492.2799238447535
 30
0.0
 10
104.0664431818181
 20
492.3212004887575
 30
0.0
 10
104.0664431818181
 20
492.3695448886539
 30
0.0
 10
104.0664431818181
 20
492.4178528540201
 30
0.0
 10
104.0664431818181
 20
492.4510796315949
 30
0.0
 10
104.0664431818181
 20
492.4845617001778
 30
0.0
 10
104.0664431818181
 20
492.5125011613275
 30
0.0
 10
104.0664431818181
 20
492.5451948797651
 30
0.0
 10
104.0664431818181
 20
492.5778879637985
 30
0.0
 10
104.0664431818181
 20
492.6044266397942
 30
0.0
 10
104.0664431818181
 20
492.636236742673
 30
0.0
 10
104.0664431818181
 20
492.6552778047797
 30
0.0
 10
104.0664431818181
 20
492.6560094277285
 30
0.0
 10
104.0664431818181
 20
492.6596988816592
 30
0.0
 10
104.0664431818181
 20
492.6702224296816
 30
0.0
 10
104.0664431818181
 20
492.7049138689977
 30
0.0
 10
104.0664431818181
 20
492.8002420340771
 30
0.0
 10
104.0664431818181
 20
492.9159872008864
 30
0.0
 10
104.0664431818181
 20
493.0618617631853
 30
0.0
 10
104.0664431818181
 20
493.3095748766895
 30
0.0
 10
104.0664431818181
 20
493.6250407119618
 30
0.0
 10
104.0664431818181
 20
494.1798919540001
 30
0.0
 10
104.0664431818181
 20
494.9545304857076
 30
0.0
 10
104.0664431818181
 20
495.63310068227
 30
0.0
 10
104.0664431818181
 20
496.1899617914441
 30
0.0
 10
104.0664431818181
 20
496.769260281158
 30
0.0
 10
104.0664431818181
 20
497.6489795236537
 30
0.0
 10
104.0664431818181
 20
498.5693328774169
 30
0.0
 10
104.0664431818181
 20
499.4579754791804
 30
0.0
 10
104.0664431818181
 20
500.2192763105883
 30
0.0
 10
104.0664431818181
 20
501.0144796364636
 30
0.0
 10
104.0664431818181
 20
501.8670511519395
 30
0.0
 10
104.0664431818181
 20
502.6261272671422
 30
0.0
 10
104.0664431818181
 20
503.4866398140757
 30
0.0
 10
104.0664431818181
 20
504.338959234243
 30
0.0
 10
104.0664431818181
 20
505.1533941770147
 30
0.0
 10
104.0664431818181
 20
505.979113762001
 30
0.0
 10
104.0664431818181
 20
506.7548453947322
 30
0.0
 10
104.0664431818181
 20
507.5326101296827
 30
0.0
 10
104.0664431818181
 20
508.2265286008926
 30
0.0
 10
104.0664431818181
 20
508.7968491930389
 30
0.0
 10
104.0664431818181
 20
509.2072510189843
 30
0.0
 10
104.0664431818181
 20
509.7313626905757
 30
0.0
 10
104.0664431818181
 20
510.1204106307263
 30
0.0
 10
104.0664431818181
 20
510.3632784160254
 30
0.0
 10
104.0664431818181
 20
510.4407152770759
 30
0.0
  0
SPLINE
  5
D3
330
1F
100
AcDbEntity
  8
0
  6
Continuous
 62
     8
370
     0
100
AcDbSpline
210
0.0
220
0.0
230
1.0
 70
     8
 71
     3
 72
    17
 73
    13
 74
     0
 42
0.000000001
 43
0.00000001
 40
0.0
 40
0.0
 40
0.0
 40
0.0
 40
0.0184259258910454
 40
0.0368518573879793
 40
0.0552778194701785
 40
0.073703783810901
 40
0.1719489796024709
 40
0.2210715786020198
 40
0.2701942231835969
 40
0.3684394228027349
 40
0.6842197082366207
 40
1.0
 40
1.0
 40
1.0
 40
1.0
 10
84.91773638803299
 20
490.847612426415
 30
0.0
 10
84.92161225095616
 20
490.8500257668924
 30
0.0
 10
84.92936397798165
 20
490.8548524485814
 30
0.0
 10
84.94069525614294
 20
490.8580528760677
 30
0.0
 10
84.9516918790116
 20
490.8563647156414
 30
0.0
 10
84.9784111341097
 20
490.8502388990318
 30
0.0
 10
85.0117114394483
 20
490.8473716731566
 30
0.0
 10
85.0513254431317
 20
490.8449819941047
 30
0.0
 10
85.09093836113648
 20
490.8425040597735
 30
0.0
 10
85.18439692692797
 20
490.8366343964374
 30
0.0
 10
85.33192039463907
 20
490.8270532085
 30
0.0
 10
85.45967879613961
 20
490.8173938673957
 30
0.0
 10
85.52355799753006
 20
490.8125641967951
 30
0.0
  0
SPLINE
  5
D4
330
1F
100
AcDbEntity
  8
0
  6
Continuous
 62
     8
370
     0
100
AcDbSpline
210
0.0
220
0.0
230
1.0
 70
     8
 71
     3
 72
    56
 73
    52
 74
     0
 42
0.000000001
 43
0.00000001
 40
0.0
 40
0.0
 40
0.0
 40
0.0
 40
0.0312500000000011
 40
0.0312500000000011
 40
0.0625000000000022
 40
0.0625000000000022
 40
0.0937500000000033
 40
0.0937500000000033
 40
0.1250000000000044
 40
0.1250000000000044
 40
0.1406250000000049
 40
0.1406250000000049
 40
0.1562500000000054
 40
0.1562500000000054
 40
0.187500000000006
 40
0.187500000000006
 40
0.2187500000000065
 40
0.2187500000000065
 40
0.2343750000000068
 40
0.2343750000000068
 40
0.2500000000000067
 40
0.2500000000000067
 40
0.3125000000000064
 40
0.3125000000000064
 40
0.3281250000000062
 40
0.3281250000000062
 40
0.3437500000000061
 40
0.3437500000000061
 40
0.3750000000000058
 40
0.3750000000000058
 40
0.4062500000000055
 40
0.4062500000000055
 40
0.4375000000000052
 40
0.4375000000000052
 40
0.4687500000000049
 40
0.4687500000000049
 40
0.5000000000000046
 40
0.5000000000000046
 40
0.5625000000000041
 40
0.5625000000000041
 40
0.6250000000000034
 40
0.6250000000000034
 40
0.6875000000000029
 40
0.6875000000000029
 40
0.7500000000000023
 40
0.7500000000000023
 40
0.8750000000000011
 40
0.8750000000000011
 40
0.9375000000000006
 40
0.9375000000000006
 40
1.0
 40
1.0
 40
1.0
 40
1.0
 10
104.0664431818181
 20
510.4407152770759
 30
0.0
 10
103.3298142904521
 20
510.431674226514
 30
0.0
 10
102.5931907404635
 20
510.3963296822439
 30
0.0
 10
101.1272347925087
 20
510.2543254993238
 30
0.0
 10
100.3979552248425
 20
510.1493995017497
 30
0.0
 10
98.95618007886992
 20
509.8644900375593
 30
0.0
 10
98.2495461518518
 20
509.6862424997504
 30
0.0
 10
96.86354935105356
 20
509.2622683521136
 30
0.0
 10
96.18369414250652
 20
509.0176926472133
 30
0.0
 10
95.18489492220691
 20
508.6008470483505
 30
0.0
 10
94.8554218375083
 20
508.4536545572436
 30
0.0
 10
94.20351595761903
 20
508.1428585632655
 30
0.0
 10
93.88032577889422
 20
507.9788553663867
 30
0.0
 10
92.93167222974813
 20
507.4673334399877
 30
0.0
 10
92.32444973782664
 20
507.0994438554218
 30
0.0
 10
91.15993773498506
 20
506.3147085643782
 30
0.0
 10
90.60264310485024
 20
505.8978345162076
 30
0.0
 10
89.80598659842364
 20
505.2381781596285
 30
0.0
 10
89.546269083099
 20
505.0116592226821
 30
0.0
 10
89.04722776919292
 20
504.5534382114465
 30
0.0
 10
88.80729328349565
 20
504.3213809525167
 30
0.0
 10
87.65431558057307
 20
503.1491989561805
 30
0.0
 10
86.88013446385246
 20
502.1741814803617
 30
0.0
 10
86.08801288052733
 20
500.9535622583683
 30
0.0
 10
85.93946120434853
 20
500.7110370158103
 30
0.0
 10
85.66346064505412
 20
500.2349245813117
 30
0.0
 10
85.53549026201446
 20
500.0006002010024
 30
0.0
 10
85.1797569005448
 20
499.3101565375425
 30
0.0
 10
84.98023066649164
 20
498.8663687543105
 30
0.0
 10
84.6424583469204
 20
498.0150688612377
 30
0.0
 10
84.50409011392671
 20
497.607695800693
 30
0.0
 10
84.27772794239368
 20
496.8332939072366
 30
0.0
 10
84.19101197920118
 20
496.4712322702401
 30
0.0
 10
84.05625444347848
 20
495.7925590374344
 30
0.0
 10
84.00825981480573
 20
495.4752715189439
 30
0.0
 10
83.94149050524213
 20
494.888748157103
 30
0.0
 10
83.92247930274071
 20
494.6185472688971
 30
0.0
 10
83.8958842242008
 20
493.8691099332366
 30
0.0
 10
83.91821491627408
 20
493.4511365020313
 30
0.0
 10
83.9992625252067
 20
492.7427035856456
 30
0.0
 10
84.05792814132992
 20
492.4501626687044
 30
0.0
 10
84.18839538762626
 20
491.9593078786892
 30
0.0
 10
84.26016774367265
 20
491.7638770081089
 30
0.0
 10
84.40166749523664
 20
491.4465681962518
 30
0.0
 10
84.4716130773713
 20
491.3237237007932
 30
0.0
 10
84.6657977443733
 20
491.0328445611636
 30
0.0
 10
84.77106060066478
 20
490.9420035109803
 30
0.0
 10
84.86421811789283
 20
490.8701710006372
 30
0.0
 10
84.88389270779398
 20
490.8574944529009
 30
0.0
 10
84.90767187054898
 20
490.8449052990744
 30
0.0
 10
84.91222589475359
 20
490.8450732959522
 30
0.0
 10
84.91773766243193
 20
490.8476123983909
 30
0.0
  0
SPLINE
  5
D5
330
1F
100
AcDbEntity
  8
0
  6
Continuous
 62
     8
370
     0
100
AcDbSpline
210
0.0
220
0.0
230
1.0
 70
     8
 71
     3
 72
    18
 73
    14
 74
     0
 42
0.000000001
 43
0.00000001
 40
0.0
 40
0.0
 40
0.0
 40
0.0
 40
0.2500000000000189
 40
0.2500000000000189
 40
0.3750000000000137
 40
0.3750000000000137
 40
0.5000000000000084
 40
0.5000000000000084
 40
0.6250000000000032
 40
0.6250000000000032
 40
0.749999999999998
 40
0.749999999999998
 40
1.0
 40
1.0
 40
1.0
 40
1.0
 10
85.5235596489469
 20
490.8125641763909
 30
0.0
 10
85.52521879624442
 20
490.8124354299797
 30
0.0
 10
85.59960186841117
 20
490.8224888576391
 30
0.0
 10
85.8135132401259
 20
490.8512591896289
 30
0.0
 10
85.90165608930214
 20
490.8630917086505
 30
0.0
 10
86.10766031324071
 20
490.890505092852
 30
0.0
 10
86.2269330785929
 20
490.9062719751256
 30
0.0
 10
86.49127900554701
 20
490.9407927432784
 30
0.0
 10
86.63590049683242
 20
490.9594896924643
 30
0.0
 10
86.94950502882806
 20
490.9994432145331
 30
0.0
 10
87.11961599078182
 20
491.0208400365237
 30
0.0
 10
87.66090004071262
 20
491.0877670145331
 30
0.0
 10
88.05329452733679
 20
491.134852531733
 30
0.0
 10
88.4790123523252
 20
491.183825274953
 30
0.0
  0
SPLINE
  5
D6
330
1F
100
AcDbEntity
  8
0
  6
Continuous
 62
     8
370
     0
100
AcDbSpline
210
0.0
220
0.0
230
1.0
 70
     8
 71
     3
 72
    36
 73
    32
 74
     0
 42
0.000000001
 43
0.00000001
 40
0.0
 40
0.0
 40
0.0
 40
0.0
 40
0.0021476244475412
 40
0.0080043056703018
 40
0.0119056536016552
 40
0.0196937789466681
 40
0.0313646230566961
 40
0.0356304513864878
 40
0.0483945288913582
 40
0.0653294939286085
 40
0.0821564782321499
 40
0.1246494406868263
 40
0.1502053135262596
 40
0.2008436232110961
 40
0.2732287129515223
 40
0.399196585958787
 40
0.4491188037174436
 40
0.4990730383208305
 40
0.5490601592307496
 40
0.5741610565734152
 40
0.599349063121513
 40
0.6246089021130121
 40
0.6499940286713811
 40
0.7272189409810879
 40
0.7534101144806857
 40
0.7665187722711195
 40
0.8061739727753983
 40
0.8531191964491188
 40
0.9010263308048864
 40
0.9499649942892109
 40
1.0
 40
1.0
 40
1.0
 40
1.0
 10
123.7249060152204
 20
489.6401069136575
 30
0.0
 10
123.7248588789079
 20
489.6400551379556
 30
0.0
 10
123.724683199471
 20
489.6398621672787
 30
0.0
 10
123.7243136387623
 20
489.6395179307432
 30
0.0
 10
123.7235944373575
 20
489.6389411389803
 30
0.0
 10
123.7223311498088
 20
489.6380673609467
 30
0.0
 10
123.7204946153199
 20
489.637050237607
 30
0.0
 10
123.7176713281494
 20
489.6357470229218
 30
0.0
 10
123.7135494193416
 20
489.6341326010909
 30
0.0
 10
123.7059079888282
 20
489.6318880403665
 30
0.0
 10
123.6894719022284
 20
489.6283575493991
 30
0.0
 10
123.663286010759
 20
489.624938799556
 30
0.0
 10
123.6143889689148
 20
489.6207708931958
 30
0.0
 10
123.5367905890596
 20
489.6156356227183
 30
0.0
 10
123.3655622806582
 20
489.6054223892496
 30
0.0
 10
123.1261796877785
 20
489.5960609812289
 30
0.0
 10
122.8575386539148
 20
489.5884967429392
 30
0.0
 10
122.6607862281032
 20
489.5836386872003
 30
0.0
 10
122.481888725168
 20
489.579677529925
 30
0.0
 10
122.3299664204415
 20
489.5764437330481
 30
0.0
 10
122.2113049101359
 20
489.5740729667639
 30
0.0
 10
122.0880405412259
 20
489.571800545518
 30
0.0
 10
121.8732771671067
 20
489.5682655537254
 30
0.0
 10
121.6428563452031
 20
489.5656487762913
 30
0.0
 10
121.4241340708113
 20
489.5628073801977
 30
0.0
 10
121.2732924222634
 20
489.5608199187409
 30
0.0
 10
121.0783934584789
 20
489.5582302270759
 30
0.0
 10
120.8062052768903
 20
489.5549994459274
 30
0.0
 10
120.5050358166788
 20
489.5525917877776
 30
0.0
 10
120.1885611276442
 20
489.5516404925131
 30
0.0
 10
119.9692191909377
 20
489.5501365634296
 30
0.0
 10
119.8583333851979
 20
489.5493762692939
 30
0.0
  0
SPLINE
  5
D7
330
1F
100
AcDbEntity
  8
0
  6
Continuous
 62
     8
370
     0
100
AcDbSpline
210
0.0
220
0.0
230
1.0
 70
     8
 71
     3
 72
    11
 73
     7
 74
     0
 42
0.000000001
 43
0.00000001
 40
0.0
 40
0.0
 40
0.0
 40
0.0
 40
0.0254797629787744
 40
0.4030085777823338
 40
0.7760239955271377
 40
1.0
 40
1.0
 40
1.0
 40
1.0
 10
116.0664457448178
 20
471.8865209005623
 30
0.0
 10
116.1008736231789
 20
471.9108876717447
 30
0.0
 10
116.6454128445958
 20
472.2962922694064
 30
0.0
 10
117.4373609329339
 20
473.0470036377229
 30
0.0
 10
118.4131690538634
 20
473.9995247037569
 30
0.0
 10
118.9298601665792
 20
474.631439593843
 30
0.0
 10
119.1237095363789
 20
474.8685179956107
 30
0.0
  0
SPLINE
  5
D8
330
1F
100
AcDbEntity
  8
0
  6
Continuous
 62
     8
370
     0
100
AcDbSpline
210
0.0
220
0.0
230
1.0
 70
     8
 71
     3
 72
    11
 73
     7
 74
     0
 42
0.000000001
 43
0.00000001
 40
0.0
 40
0.0
 40
0.0
 40
0.0
 40
0.0127989702181863
 40
0.3275304940630076
 40
0.6506566961290334
 40
1.0
 40
1.0
 40
1.0
 40
1.0
 10
123.1726083524876
 20
482.8107167713194
 30
0.0
 10
123.180021574557
 20
482.8350287571707
 30
0.0
 10
123.3697287342429
 20
483.4571816805538
 30
0.0
 10
123.6113068309979
 20
484.8713599591939
 30
0.0
 10
123.8592990410242
 20
487.1116151644209
 30
0.0
 10
123.7709406701158
 20
488.7756591831064
 30
0.0
 10
123.7250391014271
 20
489.6401186569444
 30
0.0
  0
SPLINE
  5
D9
330
1F
100
AcDbEntity
  8
0
  6
Continuous
 62
     8
370
     0
100
AcDbSpline
210
0.0
220
0.0
230
1.0
 70
     8
 71
     3
 72
    17
 73
    13
 74
     0
 42
0.000000001
 43
0.00000001
 40
0.0
 40
0.0
 40
0.0
 40
0.0
 40
0.1560988260069938
 40
0.2370478690089741
 40
0.323077282920603
 40
0.4146041714916148
 40
0.5041344178314181
 40
0.5893299356543892
 40
0.6715166816551521
 40
0.832822359448621
 40
0.992755551524448
 40
1.0
 40
1.0
 40
1.0
 40
1.0
 10
106.8549427755528
 20
472.9859378866701
 30
0.0
 10
108.1681056884666
 20
473.0958848218547
 30
0.0
 10
110.1622428522777
 20
473.2628475553757
 30
0.0
 10
112.8683549746659
 20
473.6306703606441
 30
0.0
 10
114.8888211443137
 20
473.747841170486
 30
0.0
 10
116.5375376359169
 20
473.875896222853
 30
0.0
 10
117.6345749896306
 20
474.0584506706765
 30
0.0
 10
118.1145776744101
 20
474.093931238038
 30
0.0
 10
118.2093393184311
 20
473.9049284686812
 30
0.0
 10
117.5963578242082
 20
473.2441938590064
 30
0.0
 10
116.8376813282754
 20
472.4250527547204
 30
0.0
 10
116.0984782498637
 20
471.9178307646977
 30
0.0
 10
116.0664457448178
 20
471.8958508901148
 30
0.0
  0
SPLINE
  5
DA
330
1F
100
AcDbEntity
  8
0
  6
Continuous
 62
     8
370
     0
100
AcDbSpline
210
0.0
220
0.0
230
1.0
 70
     8
 71
     3
 72
    47
 73
    43
 74
     0
 42
0.000000001
 43
0.00000001
 40
0.0
 40
0.0
 40
0.0
 40
0.0
 40
0.0326707582518128
 40
0.0643760108618153
 40
0.0951829870917182
 40
0.1251481956660406
 40
0.1543193058665567
 40
0.1827365930596019
 40
0.2104340628163842
 40
0.2374403317566983
 40
0.263779323916832
 40
0.2893850079230862
 40
0.3141061900330845
 40
0.3379714949429964
 40
0.361009913359324
 40
0.3832456997745005
 40
0.4046990008114407
 40
0.4253863713809635
 40
0.4453212037601558
 40
0.4645164676021237
 40
0.4829784105851567
 40
0.5007111230428961
 40
0.6305847903042834
 40
0.7502711631662905
 40
0.8131999261418429
 40
0.8750249794835481
 40
0.9372836274206046
 40
0.968559723780167
 40
0.9842560792761008
 40
0.9921216601562446
 40
0.9960591644231422
 40
0.9980291412564761
 40
0.9990144416770151
 40
0.9995071706200003
 40
0.999753554866351
 40
0.9998767519447124
 40
0.9999383517240783
 40
0.9999691514918859
 40
0.9999761259955092
 40
0.9999845963268306
 40
0.999993003503521
 40
1.0
 40
1.0
 40
1.0
 40
1.0
 10
88.27434215161817
 20
489.5491584748095
 30
0.0
 10
88.20177917706725
 20
489.5495425019218
 30
0.0
 10
88.05879765206406
 20
489.5502992071493
 30
0.0
 10
87.85123770642284
 20
489.5515927405249
 30
0.0
 10
87.65266341804085
 20
489.5529638049471
 30
0.0
 10
87.46298254680198
 20
489.5544153861172
 30
0.0
 10
87.28182536537432
 20
489.5559367503758
 30
0.0
 10
87.10892409631835
 20
489.5575230730288
 30
0.0
 10
86.94400999319465
 20
489.5591692646027
 30
0.0
 10
86.78683537668125
 20
489.5608724261373
 30
0.0
 10
86.6373274052516
 20
489.5626235675922
 30
0.0
 10
86.49571465200582
 20
489.5644252602712
 30
0.0
 10
86.36215092980056
 20
489.5663073965051
 30
0.0
 10
86.23657309473946
 20
489.5682377369824
 30
0.0
 10
86.11859214592363
 20
489.5702035437059
 30
0.0
 10
86.00783576596262
 20
489.5721878911857
 30
0.0
 10
85.90395474490761
 20
489.5741772953776
 30
0.0
 10
85.80662059579424
 20
489.5761487106428
 30
0.0
 10
85.71551769583915
 20
489.5781111744541
 30
0.0
 10
85.63035440382008
 20
489.5799595440056
 30
0.0
 10
85.55084881167565
 20
489.5817439190782
 30
0.0
 10
85.31953723392418
 20
489.5871403942558
 30
0.0
 10
84.99359286554781
 20
489.5963046246422
 30
0.0
 10
84.71493933230693
 20
489.6080399951069
 30
0.0
 10
84.55899827341756
 20
489.6175023197896
 30
0.0
 10
84.47279336994212
 20
489.6249113790396
 30
0.0
 10
84.42909830456061
 20
489.6311315157976
 30
0.0
 10
84.41341119135213
 20
489.6355267330614
 30
0.0
 10
84.40934678337872
 20
489.6377369043634
 30
0.0
 10
84.40826936445536
 20
489.6388440234364
 30
0.0
 10
84.40797124781363
 20
489.6394008004988
 30
0.0
 10
84.40788226016299
 20
489.639676296361
 30
0.0
 10
84.40785328122135
 20
489.6398185617814
 30
0.0
 10
84.40784201775404
 20
489.6398834264508
 30
0.0
 10
84.407838120467
 20
489.6399247350523
 30
0.0
 10
84.40783529638054
 20
489.6399328670039
 30
0.0
 10
84.40783551331721
 20
489.6399546099471
 30
0.0
 10
84.40783358443227
 20
489.6399416319039
 30
0.0
 10
84.40783371852667
 20
489.6399471792465
 30
0.0
 10
84.40783414873734
 20
489.6399540883581
 30
0.0
 10
84.40783401112844
 20
489.6399546126161
 30
0.0
 10
84.4078339693291
 20
489.6399554778593
 30
0.0
 10
84.40783395034343
 20
489.6399558708611
 30
0.0
  0
SPLINE
  5
DB
330
1F
100
AcDbEntity
  8
0
  6
Continuous
 62
     8
370
     0
100
AcDbSpline
210
0.0
220
0.0
230
1.0
 70
     8
 71
     3
 72
    17
 73
    13
 74
     0
 42
0.000000001
 43
0.00000001
 40
0.0
 40
0.0
 40
0.0
 40
0.0
 40
0.0192430086475648
 40
0.1774102607427849
 40
0.3370956216768551
 40
0.4186898618919196
 40
0.5029989383979206
 40
0.5916322073612788
 40
0.6814682062782411
 40
0.7655893816249215
 40
0.8452425182094163
 40
0.9999999999999999
 40
0.9999999999999999
 40
0.9999999999999999
 40
0.9999999999999999
 10
92.06644181091126
 20
471.9072670422344
 30
0.0
 10
91.9816341862654
 20
471.966483188262
 30
0.0
 10
91.19975318849843
 20
472.5124244233015
 30
0.0
 10
90.42052103861029
 20
473.3511330153864
 30
0.0
 10
89.85368690987383
 20
473.9805195268244
 30
0.0
 10
89.97698284274655
 20
474.1472049553453
 30
0.0
 10
90.50320477234558
 20
474.0788145175813
 30
0.0
 10
91.63495630028228
 20
473.8811302966434
 30
0.0
 10
93.29704714241149
 20
473.7421845030416
 30
0.0
 10
95.31463107776867
 20
473.5776287339781
 30
0.0
 10
97.98604326049492
 20
473.2272666773509
 30
0.0
 10
99.96988042227773
 20
473.0818940292096
 30
0.0
 10
101.2796062596493
 20
472.9859192602186
 30
0.0
  0
SPLINE
  5
DC
330
1F
100
AcDbEntity
  8
0
  6
Continuous
 62
     8
370
     0
100
AcDbSpline
210
0.0
220
0.0
230
1.0
 70
     8
 71
     3
 72
    12
 73
     8
 74
     0
 42
0.000000001
 43
0.00000001
 40
0.0
 40
0.0
 40
0.0
 40
0.0
 40
0.1473638008006549
 40
0.3661765523143683
 40
0.5957037190531671
 40
0.8224423665685784
 40
1.0
 40
1.0
 40
1.0
 40
1.0
 10
92.06644181091126
 20
471.8861856244354
 30
0.0
 10
91.89238090631946
 20
472.0217812201992
 30
0.0
 10
91.4598661259606
 20
472.3587155792212
 30
0.0
 10
90.83940165013621
 20
472.9103089195091
 30
0.0
 10
90.18085136223681
 20
473.5444932476747
 30
0.0
 10
89.60339444315979
 20
474.1508566962992
 30
0.0
 10
89.25996244715203
 20
474.5554215775102
 30
0.0
 10
89.10913500863846
 20
474.7330971740036
 30
0.0
  0
SPLINE
  5
DD
330
1F
100
AcDbEntity
  8
0
  6
Continuous
 62
     8
370
     0
100
AcDbSpline
210
0.0
220
0.0
230
1.0
 70
     8
 71
     3
 72
    10
 73
     6
 74
     0
 42
0.000000001
 43
0.00000001
 40
0.0
 40
0.0
 40
0.0
 40
0.0
 40
0.311400157018797
 40
0.6572343625680713
 40
1.0
 40
1.0
 40
1.0
 40
1.0
 10
84.95819304067429
 20
482.8344561837463
 30
0.0
 10
84.81274028412761
 20
483.4697610261614
 30
0.0
 10
84.50575087651802
 20
484.8106215354768
 30
0.0
 10
84.27635219923557
 20
487.1034218479838
 30
0.0
 10
84.36413683171887
 20
488.7969600054178
 30
0.0
 10
84.40783355314072
 20
489.6399556754938
 30
0.0
  0
ARC
  5
DE
330
1F
100
AcDbEntity
  8
0
  6
Continuous
 62
     8
370
     0
100
AcDbCircle
 10
85.7027362769
 20
489.5249738414
 30
0.0
 40
1.299997607318196
100
AcDbArc
 50
97.9222797006
 51
174.9257083315
  0
ARC
  5
DF
330
1F
100
AcDbEntity
  8
0
  6
Continuous
 62
     8
370
     0
100
AcDbCircle
 10
122.4301471223
 20
489.5249698865
 30
0.0
 40
1.300002097403507
100
AcDbArc
 50
5.0744490901
 51
82.0775628777
  0
SPLINE
  5
E0
330
1F
100
AcDbEntity
  8
0
  6
Continuous
 62
     8
370
     0
100
AcDbSpline
210
0.0
220
0.0
230
1.0
 70
     8
 71
     3
 72
    19
 73
    15
 74
     0
 42
0.000000001
 43
0.00000001
 40
0.892820377882933
 40
0.892820377882933
 40
0.892820377882933
 40
0.892820377882933
 40
0.9130742385442762
 40
0.9265768123185049
 40
0.9333280992056192
 40
0.9400793860927336
 40
0.9468306729798479
 40
0.9468306729798479
 40
0.9543203506497129
 40
0.9618100283195777
 40
0.9692997059894427
 40
0.9842790613291726
 40
0.9992584166689025
 40
1.0
 40
1.0
 40
1.0
 40
1.0
 10
104.0664431818181
 20
511.1699967764168
 30
0.0
 10
104.0664431819819
 20
511.1699967782528
 30
0.0
 10
104.065448081647
 20
511.1687661216372
 30
0.0
 10
104.0623040698221
 20
511.1648778715626
 30
0.0
 10
104.0594388545023
 20
511.1613344136173
 30
0.0
 10
104.0569080265772
 20
511.1582044979502
 30
0.0
 10
104.0549679885258
 20
511.1558052216376
 30
0.0
 10
104.0527894814187
 20
511.1531110268019
 30
0.0
 10
104.0502909152475
 20
511.1500861025971
 30
0.0
 10
104.0459846358677
 20
511.1449801458191
 30
0.0
 10
104.0395821988916
 20
511.137420159439
 30
0.0
 10
104.0304974862171
 20
511.1265714376045
 30
0.0
 10
104.0222111466524
 20
511.1161735037277
 30
0.0
 10
104.017834883666
 20
511.110451437188
 30
0.0
 10
104.0176281621192
 20
511.1101806338028
 30
0.0
  0
SPLINE
  5
E1
330
1F
100
AcDbEntity
  8
0
  6
Continuous
 62
     8
370
     0
100
AcDbSpline
210
0.0
220
0.0
230
1.0
 70
     8
 71
     3
 72
    12
 73
     8
 74
     0
 42
0.000000001
 43
0.00000001
 40
0.0
 40
0.0
 40
0.0
 40
0.0
 40
0.1367966242271385
 40
0.4785697052603485
 40
0.6502220053217942
 40
0.822463552193391
 40
1.0
 40
1.0
 40
1.0
 40
1.0
 10
83.86428389627274
 20
489.6577715853079
 30
0.0
 10
83.86048436730809
 20
489.6568076290796
 30
0.0
 10
83.84719208420529
 20
489.6534353218267
 30
0.0
 10
83.67598727324726
 20
489.7549230680974
 30
0.0
 10
83.34565030799106
 20
490.3020510833825
 30
0.0
 10
83.06703842714595
 20
491.0059810677155
 30
0.0
 10
82.9716678227796
 20
491.959711827015
 30
0.0
 10
82.92326066572004
 20
492.4437959425001
 30
0.0
  0
ARC
  5
E2
330
1F
100
AcDbEntity
  8
0
  6
Continuous
 62
     8
370
     0
100
AcDbCircle
 10
83.9420828887
 20
483.730965043
 30
0.0
 40
5.927317139575363
100
AcDbArc
 50
85.4932249656
 51
90.7520572648
  0
SPLINE
  5
E3
330
1F
100
AcDbEntity
  8
0
  6
Continuous
 62
     8
370
     0
100
AcDbSpline
210
0.0
220
0.0
230
1.0
 70
     8
 71
     3
 72
    18
 73
    14
 74
     0
 42
0.000000001
 43
0.00000001
 40
0.0
 40
0.0
 40
0.0
 40
0.0
 40
0.0312499999999999
 40
0.0312499999999999
 40
0.0624999999999999
 40
0.0624999999999999
 40
0.1249999999999998
 40
0.1249999999999998
 40
0.2499999999999998
 40
0.2499999999999998
 40
0.4999999999999998
 40
0.4999999999999998
 40
1.0
 40
1.0
 40
1.0
 40
1.0
 10
124.2686065320082
 20
489.6577727071107
 30
0.0
 10
124.2627185989835
 20
489.661167917352
 30
0.0
 10
124.2566685404295
 20
489.6668681188791
 30
0.0
 10
124.2451481919916
 20
489.6696555765504
 30
0.0
 10
124.2395568775551
 20
489.6685598120422
 30
0.0
 10
124.2227998922971
 20
489.6650545730628
 30
0.0
 10
124.2115747191632
 20
489.6634913320842
 30
0.0
 10
124.1777725606119
 20
489.660513507613
 30
0.0
 10
124.1551067421528
 20
489.6602489566163
 30
0.0
 10
124.0871927806291
 20
489.657899566449
 30
0.0
 10
124.0418968136828
 20
489.6561689728991
 30
0.0
 10
123.9060215349579
 20
489.6503698108698
 30
0.0
 10
123.8154730598333
 20
489.6455323172534
 30
0.0
 10
123.7250527896295
 20
489.6399552412028
 30
0.0
  0
SPLINE
  5
E4
330
1F
100
AcDbEntity
  8
0
  6
Continuous
 62
     8
370
     0
100
AcDbSpline
210
0.0
220
0.0
230
1.0
 70
     8
 71
     3
 72
    13
 73
     9
 74
     0
 42
0.000000001
 43
0.00000001
 40
0.0
 40
0.0
 40
0.0
 40
0.0
 40
0.1006988419076176
 40
0.2262602394466868
 40
0.3533907156368669
 40
0.4808079392477078
 40
0.740171579777157
 40
1.0
 40
1.0
 40
1.0
 40
1.0
 10
125.2044561870747
 20
492.3872937660514
 30
0.0
 10
125.1825852931338
 20
492.0982054189977
 30
0.0
 10
125.1334435790263
 20
491.4486527788032
 30
0.0
 10
124.9672373138596
 20
490.7926687678498
 30
0.0
 10
124.7787478692899
 20
490.2917199525332
 30
0.0
 10
124.5308141842618
 20
489.865843277657
 30
0.0
 10
124.2989528169308
 20
489.6568523638154
 30
0.0
 10
124.2787260809257
 20
489.6574657712056
 30
0.0
 10
124.2686036594563
 20
489.6577727494611
 30
0.0
  0
ARC
  5
E5
330
1F
100
AcDbEntity
  8
0
  6
Continuous
 62
     8
370
     0
100
AcDbCircle
 10
122.9715436574
 20
489.5706595578
 30
0.0
 40
1.299982060326304
100
AcDbArc
 50
3.8423309364
 51
67.0430051371
  0
ARC
  5
E6
330
1F
100
AcDbEntity
  8
0
  6
Continuous
 62
     8
370
     0
100
AcDbCircle
 10
85.1613445017
 20
489.5706590629
 30
0.0
 40
1.29998261741456
100
AcDbArc
 50
100.8007027317
 51
176.1577002757
  0
SPLINE
  5
E7
330
1F
100
AcDbEntity
  8
0
  6
Continuous
 62
     8
370
     0
100
AcDbSpline
210
0.0
220
0.0
230
1.0
 70
     8
 71
     3
 72
    10
 73
     6
 74
     0
 42
0.000000001
 43
0.00000001
 40
0.0
 40
0.0
 40
0.0
 40
0.0
 40
0.5
 40
0.5
 40
1.0
 40
1.0
 40
1.0
 40
1.0
 10
106.8309373130161
 20
472.903318432639
 30
0.0
 10
106.8353038263352
 20
472.8899968547452
 30
0.0
 10
106.8398598385607
 20
472.8896797138491
 30
0.0
 10
106.8482138673857
 20
472.9185231026777
 30
0.0
 10
106.8519829792084
 20
472.9475838348394
 30
0.0
 10
106.8549569883327
 20
472.9862495368046
 30
0.0
  0
SPLINE
  5
E8
330
1F
100
AcDbEntity
  8
0
  6
Continuous
 62
     8
370
     0
100
AcDbSpline
210
0.0
220
0.0
230
1.0
 70
     8
 71
     3
 72
    12
 73
     8
 74
     0
 42
0.000000001
 43
0.00000001
 40
0.0
 40
0.0
 40
0.0
 40
0.0
 40
0.2298590265110378
 40
0.457741719555812
 40
0.6849991203100229
 40
0.9069199484398749
 40
1.0
 40
1.0
 40
1.0
 40
1.0
 10
116.0664457448178
 20
472.3244995556622
 30
0.0
 10
116.2519554223181
 20
472.5053628927199
 30
0.0
 10
116.6213797606272
 20
472.8655344994914
 30
0.0
 10
116.7924521275039
 20
473.1898016578375
 30
0.0
 10
116.8160452764259
 20
473.4151563215133
 30
0.0
 10
116.6943355302614
 20
473.5124401502924
 30
0.0
 10
116.4097741406496
 20
473.503222834613
 30
0.0
 10
116.3256886966877
 20
473.5004991970806
 30
0.0
  0
SPLINE
  5
E9
330
1F
100
AcDbEntity
  8
0
  6
Continuous
 62
     8
370
     0
100
AcDbSpline
210
0.0
220
0.0
230
1.0
 70
     8
 71
     3
 72
    11
 73
     7
 74
     0
 42
0.000000001
 43
0.00000001
 40
0.0
 40
0.0
 40
0.0
 40
0.0
 40
0.2629585438264795
 40
0.5332974902625136
 40
0.8048193673082551
 40
1.0
 40
1.0
 40
1.0
 40
1.0
 10
91.71652529317673
 20
473.5099623657613
 30
0.0
 10
91.59516755130382
 20
473.4874495135279
 30
0.0
 10
91.34904594512605
 20
473.4417919455325
 30
0.0
 10
91.41696473233584
 20
473.1785352413298
 30
0.0
 10
91.63053071922256
 20
472.8267995410296
 30
0.0
 10
91.93789736368316
 20
472.5039662363429
 30
0.0
 10
92.06644181091126
 20
472.3689534447937
 30
0.0
  0
SPLINE
  5
EA
330
1F
100
AcDbEntity
  8
0
  6
Continuous
 62
     8
370
     0
100
AcDbSpline
210
0.0
220
0.0
230
1.0
 70
     8
 71
     3
 72
    10
 73
     6
 74
     0
 42
0.000000001
 43
0.00000001
 40
0.0
 40
0.0
 40
0.0
 40
0.0
 40
0.5
 40
0.5
 40
1.0
 40
1.0
 40
1.0
 40
1.0
 10
104.1152354843238
 20
511.1101738054622
 30
0.0
 10
104.1071050877134
 20
511.1079850343738
 30
0.0
 10
104.0989140027927
 20
511.044112808219
 30
0.0
 10
104.0825871255382
 20
510.8102186707998
 30
0.0
 10
104.0744533633557
 20
510.640498943157
 30
0.0
 10
104.0664431818211
 20
510.4407152770759
 30
0.0
  0
SPLINE
  5
EB
330
1F
100
AcDbEntity
  8
0
  6
Continuous
 62
     8
370
     0
100
AcDbSpline
210
0.0
220
0.0
230
1.0
 70
     8
 71
     3
 72
    28
 73
    24
 74
     0
 42
0.000000001
 43
0.00000001
 40
0.0
 40
0.0
 40
0.0
 40
0.0
 40
0.0625000000000008
 40
0.0625000000000008
 40
0.1250000000000016
 40
0.1250000000000016
 40
0.1875000000000024
 40
0.1875000000000024
 40
0.218750000000002
 40
0.218750000000002
 40
0.2500000000000016
 40
0.2500000000000016
 40
0.312500000000002
 40
0.312500000000002
 40
0.3437500000000026
 40
0.3437500000000026
 40
0.3593750000000025
 40
0.3593750000000025
 40
0.3750000000000024
 40
0.3750000000000024
 40
0.500000000000002
 40
0.500000000000002
 40
1.0
 40
1.0
 40
1.0
 40
1.0
 10
198.281242836253
 20
404.6284670009064
 30
0.0
 10
198.2831953301756
 20
404.2389887418689
 30
0.0
 10
198.3353795770026
 20
403.8530788545676
 30
0.0
 10
198.5317078931961
 20
403.1014114027116
 30
0.0
 10
198.6745311774443
 20
402.7413193943643
 30
0.0
 10
199.041048335233
 20
402.0654330597415
 30
0.0
 10
199.2692723255833
 20
401.7446034633444
 30
0.0
 10
199.661179713679
 20
401.3223003274387
 30
0.0
 10
199.8004370005543
 20
401.1903050070995
 30
0.0
 10
200.0956167432711
 20
400.9432729135368
 30
0.0
 10
200.2526087280712
 20
400.827579141823
 30
0.0
 10
200.7409705554828
 20
400.511843062186
 30
0.0
 10
201.0865818156585
 20
400.3434370110332
 30
0.0
 10
201.6352953624655
 20
400.1544945687797
 30
0.0
 10
201.8238517954301
 20
400.1023709550914
 30
0.0
 10
202.1067207499358
 20
400.0432149743458
 30
0.0
 10
202.2013305212144
 20
400.0265510632347
 30
0.0
 10
202.3911952875293
 20
399.9993843866993
 30
0.0
 10
202.4865491036462
 20
399.9898272049416
 30
0.0
 10
203.3444412723524
 20
399.9009778885613
 30
0.0
 10
204.1078278139184
 20
399.8295075953487
 30
0.0
 10
207.9288777570162
 20
399.5103227803026
 30
0.0
 10
210.9975252589927
 20
399.3761670848639
 30
0.0
 10
214.0664431818181
 20
399.3761188230931
 30
0.0
  0
SPLINE
  5
EC
330
1F
100
AcDbEntity
  8
0
  6
Continuous
 62
     8
370
     0
100
AcDbSpline
210
0.0
220
0.0
230
1.0
 70
     8
 71
     3
 72
    34
 73
    30
 74
     0
 42
0.000000001
 43
0.00000001
 40
0.0
 40
0.0
 40
0.0
 40
0.0
 40
0.4999999999999981
 40
0.4999999999999981
 40
0.5624999999999978
 40
0.5624999999999978
 40
0.5937499999999974
 40
0.5937499999999974
 40
0.6249999999999971
 40
0.6249999999999971
 40
0.6874999999999968
 40
0.6874999999999968
 40
0.7499999999999964
 40
0.7499999999999964
 40
0.812499999999996
 40
0.812499999999996
 40
0.8437499999999967
 40
0.8437499999999967
 40
0.8749999999999973
 40
0.8749999999999973
 40
0.906249999999998
 40
0.906249999999998
 40
0.9374999999999987
 40
0.9374999999999987
 40
0.9687499999999993
 40
0.9687499999999993
 40
0.9843749999999997
 40
0.9843749999999997
 40
1.0
 40
1.0
 40
1.0
 40
1.0
 10
214.0664431818181
 20
398.0993564091968
 30
0.0
 10
210.6531737658912
 20
398.0993577716646
 30
0.0
 10
207.2393452647118
 20
398.2405313705237
 30
0.0
 10
203.4153354566814
 20
398.5607784886828
 30
0.0
 10
202.9906773684812
 20
398.5985943956612
 30
0.0
 10
202.3540393730756
 20
398.6586677363358
 30
0.0
 10
202.1418924053175
 20
398.6793968158814
 30
0.0
 10
201.7206917377759
 20
398.7514744768251
 30
0.0
 10
201.5110277144704
 20
398.799145046498
 30
0.0
 10
200.8870444806225
 20
398.9771214750762
 30
0.0
 10
200.490765564892
 20
399.1380239125759
 30
0.0
 10
199.7356889542642
 20
399.5401511539476
 30
0.0
 10
199.3740475974366
 20
399.7847122707905
 30
0.0
 10
198.721709713923
 20
400.3368234339401
 30
0.0
 10
198.4276321568498
 20
400.6458546498857
 30
0.0
 10
198.0367047611344
 20
401.1609654556934
 30
0.0
 10
197.9153987993094
 20
401.3405514864004
 30
0.0
 10
197.6949100598829
 20
401.7077277560301
 30
0.0
 10
197.5949470859745
 20
401.8963151774919
 30
0.0
 10
197.4151323214716
 20
402.2832681347818
 30
0.0
 10
197.3352805412934
 20
402.4816337112919
 30
0.0
 10
197.1961283553602
 20
402.8883566194127
 30
0.0
 10
197.1368073228701
 20
403.0972945036457
 30
0.0
 10
197.0415910794759
 20
403.5172966862837
 30
0.0
 10
197.0053164779314
 20
403.7292763576797
 30
0.0
 10
196.9682251474512
 20
404.0502711666118
 30
0.0
 10
196.9587543489674
 20
404.1577945981053
 30
0.0
 10
196.9457513902353
 20
404.3737992357778
 30
0.0
 10
196.9422348081384
 20
404.4834734123182
 30
0.0
 10
196.9417572528544
 20
404.5901004658255
 30
0.0
  0
SPLINE
  5
ED
330
1F
100
AcDbEntity
  8
0
  6
Continuous
 62
     8
370
     0
100
AcDbSpline
210
0.0
220
0.0
230
1.0
 70
     8
 71
     3
 72
    34
 73
    30
 74
     0
 42
0.000000001
 43
0.00000001
 40
0.0
 40
0.0
 40
0.0
 40
0.0
 40
0.5
 40
0.5
 40
0.5624999999999999
 40
0.5624999999999999
 40
0.5937499999999997
 40
0.5937499999999997
 40
0.6249999999999994
 40
0.6249999999999994
 40
0.6874999999999997
 40
0.6874999999999997
 40
0.7499999999999999
 40
0.7499999999999999
 40
0.8125000000000001
 40
0.8125000000000001
 40
0.8437500000000001
 40
0.8437500000000001
 40
0.8750000000000001
 40
0.8750000000000001
 40
0.9062500000000001
 40
0.9062500000000001
 40
0.9375000000000001
 40
0.9375000000000001
 40
0.9687500000000001
 40
0.9687500000000001
 40
0.9843750000000001
 40
0.9843750000000001
 40
1.0
 40
1.0
 40
1.0
 40
1.0
 10
214.0664431818181
 20
398.0993564091968
 30
0.0
 10
217.479712597745
 20
398.0993577716646
 30
0.0
 10
220.8935410989243
 20
398.2405313705237
 30
0.0
 10
224.7175509069548
 20
398.5607784886828
 30
0.0
 10
225.142208995155
 20
398.5985943956612
 30
0.0
 10
225.7788469905606
 20
398.6586677363359
 30
0.0
 10
225.9909939583187
 20
398.6793968158814
 30
0.0
 10
226.4121946258603
 20
398.7514744768251
 30
0.0
 10
226.6218586491657
 20
398.799145046498
 30
0.0
 10
227.2458418830136
 20
398.9771214750762
 30
0.0
 10
227.6421207987442
 20
399.1380239125759
 30
0.0
 10
228.397197409372
 20
399.5401511539476
 30
0.0
 10
228.7588387661996
 20
399.7847122707905
 30
0.0
 10
229.4111766497132
 20
400.3368234339401
 30
0.0
 10
229.7052542067863
 20
400.6458546498857
 30
0.0
 10
230.0961816025017
 20
401.1609654556934
 30
0.0
 10
230.2174875643267
 20
401.3405514864004
 30
0.0
 10
230.4379763037533
 20
401.70772775603
 30
0.0
 10
230.5379392776617
 20
401.8963151774919
 30
0.0
 10
230.7177540421646
 20
402.2832681347818
 30
0.0
 10
230.7976058223427
 20
402.4816337112919
 30
0.0
 10
230.9367580082759
 20
402.8883566194127
 30
0.0
 10
230.9960790407661
 20
403.0972945036456
 30
0.0
 10
231.0912952841603
 20
403.5172966862837
 30
0.0
 10
231.1275698857048
 20
403.7292763576797
 30
0.0
 10
231.1646612161849
 20
404.0502711666118
 30
0.0
 10
231.1741320146687
 20
404.1577945981052
 30
0.0
 10
231.1871349734009
 20
404.3737992357778
 30
0.0
 10
231.1906521061402
 20
404.4834734093488
 30
0.0
 10
231.1911291107817
 20
404.5901004658255
 30
0.0
  0
SPLINE
  5
EE
330
1F
100
AcDbEntity
  8
0
  6
Continuous
 62
     8
370
     0
100
AcDbSpline
210
0.0
220
0.0
230
1.0
 70
     8
 71
     3
 72
    28
 73
    24
 74
     0
 42
0.000000001
 43
0.00000001
 40
0.0
 40
0.0
 40
0.0
 40
0.0
 40
0.0624999999999991
 40
0.0624999999999991
 40
0.1249999999999981
 40
0.1249999999999981
 40
0.1874999999999972
 40
0.1874999999999972
 40
0.2187499999999968
 40
0.2187499999999968
 40
0.2499999999999964
 40
0.2499999999999964
 40
0.3124999999999958
 40
0.3124999999999958
 40
0.3437499999999958
 40
0.3437499999999958
 40
0.3593749999999958
 40
0.3593749999999958
 40
0.3749999999999958
 40
0.3749999999999958
 40
0.4999999999999967
 40
0.4999999999999967
 40
1.0
 40
1.0
 40
1.0
 40
1.0
 10
229.8516435273831
 20
404.6284670009064
 30
0.0
 10
229.8496910334605
 20
404.2389887418689
 30
0.0
 10
229.7975067866337
 20
403.8530788545675
 30
0.0
 10
229.60117847044
 20
403.1014114027116
 30
0.0
 10
229.4583551861919
 20
402.7413193943642
 30
0.0
 10
229.091838028403
 20
402.0654330597414
 30
0.0
 10
228.8636140380528
 20
401.7446034633443
 30
0.0
 10
228.4717066499571
 20
401.3223003274385
 30
0.0
 10
228.3324493630817
 20
401.1903050070994
 30
0.0
 10
228.0372696203649
 20
400.9432729135367
 30
0.0
 10
227.8802776355647
 20
400.827579141823
 30
0.0
 10
227.3919158081531
 20
400.511843062186
 30
0.0
 10
227.0463045479774
 20
400.343437011033
 30
0.0
 10
226.4975910011704
 20
400.1544945687795
 30
0.0
 10
226.3090345682057
 20
400.1023709550912
 30
0.0
 10
226.0261656137
 20
400.0432149743456
 30
0.0
 10
225.9315558424215
 20
400.0265510632346
 30
0.0
 10
225.7416910761065
 20
399.9993843866991
 30
0.0
 10
225.6463372599896
 20
399.9898272049416
 30
0.0
 10
224.7884450912834
 20
399.9009778885612
 30
0.0
 10
224.0250585497175
 20
399.8295075953485
 30
0.0
 10
220.2040086066197
 20
399.5103227803026
 30
0.0
 10
217.1353611046435
 20
399.3761670848639
 30
0.0
 10
214.0664431818181
 20
399.3761188230931
 30
0.0
  0
SPLINE
  5
EF
330
1F
100
AcDbEntity
  8
0
  6
Continuous
 62
     8
370
     0
100
AcDbSpline
210
0.0
220
0.0
230
1.0
 70
     8
 71
     3
 72
    14
 73
    10
 74
     0
 42
0.000000001
 43
0.00000001
 40
0.0
 40
0.0
 40
0.0
 40
0.0
 40
0.0046965947604375
 40
0.0234834332731079
 40
0.0986313358911951
 40
0.2489337373054992
 40
0.5496071133523673
 40
0.6999098191615557
 40
1.0
 40
1.0
 40
1.0
 40
1.0
 10
231.1911295719796
 20
404.5900978825836
 30
0.0
 10
231.1915067570859
 20
404.6742676889461
 30
0.0
 10
231.1933927195177
 20
405.0951249551454
 30
0.0
 10
231.20121621068
 20
406.8625537146099
 30
0.0
 10
231.2194882753141
 20
411.2383519998518
 30
0.0
 10
231.2540213964346
 20
420.6576274540548
 30
0.0
 10
231.2825335536874
 20
431.3969494728901
 30
0.0
 10
231.3050546442335
 20
444.7586504004883
 30
0.0
 10
231.3077597597033
 20
452.7120313282782
 30
0.0
 10
231.3095621385031
 20
458.0112525008469
 30
0.0
  0
SPLINE
  5
F0
330
1F
100
AcDbEntity
  8
0
  6
Continuous
 62
     8
370
     0
100
AcDbSpline
210
0.0
220
0.0
230
1.0
 70
     8
 71
     3
 72
    24
 73
    20
 74
     0
 42
0.000000001
 43
0.00000001
 40
0.0
 40
0.0
 40
0.0
 40
0.0
 40
0.1249999999999999
 40
0.1249999999999999
 40
0.2499999999999998
 40
0.2499999999999998
 40
0.3749999999999998
 40
0.3749999999999998
 40
0.4999999999999998
 40
0.4999999999999998
 40
0.7500000000000001
 40
0.7500000000000001
 40
0.8750000000000003
 40
0.8750000000000003
 40
0.9375000000000001
 40
0.9375000000000001
 40
0.96875
 40
0.96875
 40
1.0
 40
1.0
 40
1.0
 40
1.0
 10
229.926584826836
 20
490.120956321339
 30
0.0
 10
229.9357704606066
 20
486.6738072196114
 30
0.0
 10
229.9433623872552
 20
483.2058337512511
 30
0.0
 10
229.9557262207313
 20
476.2269503033361
 30
0.0
 10
229.9605709089925
 20
472.7146765282072
 30
0.0
 10
229.9676583520919
 20
465.6564289565343
 30
0.0
 10
229.9697215880499
 20
462.1107812718939
 30
0.0
 10
229.9694888156401
 20
454.9988756698878
 30
0.0
 10
229.9675921872454
 20
451.4332493831402
 30
0.0
 10
229.9580622837637
 20
440.7072578558797
 30
0.0
 10
229.9460106907648
 20
433.5163597225588
 30
0.0
 10
229.9179023220092
 20
422.7031876067318
 30
0.0
 10
229.90690729343
 20
419.0928315144591
 30
0.0
 10
229.8876321311436
 20
413.6719063214651
 30
0.0
 10
229.8805195632767
 20
411.8641466041649
 30
0.0
 10
229.8699460478466
 20
409.1513459062762
 30
0.0
 10
229.866499574606
 20
408.2469434280486
 30
0.0
 10
229.8597233888401
 20
406.4378865386045
 30
0.0
 10
229.8561932870404
 20
405.5332589546196
 30
0.0
 10
229.8516435272139
 20
404.6284670009074
 30
0.0
  0
SPLINE
  5
F1
330
1F
100
AcDbEntity
  8
0
  6
Continuous
 62
     8
370
     0
100
AcDbSpline
210
0.0
220
0.0
230
1.0
 70
     8
 71
     3
 72
    24
 73
    20
 74
     0
 42
0.000000001
 43
0.00000001
 40
0.0
 40
0.0
 40
0.0
 40
0.0
 40
0.1250000000000001
 40
0.1250000000000001
 40
0.2500000000000001
 40
0.2500000000000001
 40
0.3750000000000002
 40
0.3750000000000002
 40
0.5000000000000002
 40
0.5000000000000002
 40
0.7500000000000006
 40
0.7500000000000006
 40
0.8750000000000006
 40
0.8750000000000006
 40
0.9375000000000002
 40
0.9375000000000002
 40
0.9687500000000001
 40
0.9687500000000001
 40
1.0
 40
1.0
 40
1.0
 40
1.0
 10
198.2063015368002
 20
490.120956321339
 30
0.0
 10
198.1971159030296
 20
486.6738072196114
 30
0.0
 10
198.1895239763809
 20
483.2058337512511
 30
0.0
 10
198.1771601429049
 20
476.2269503033361
 30
0.0
 10
198.1723154546437
 20
472.7146765282072
 30
0.0
 10
198.1652280115442
 20
465.6564289565343
 30
0.0
 10
198.1631647755863
 20
462.1107812718939
 30
0.0
 10
198.1633975479961
 20
454.9988756698878
 30
0.0
 10
198.1652941763909
 20
451.4332493831402
 30
0.0
 10
198.1748240798721
 20
440.7072578558797
 30
0.0
 10
198.1868756728713
 20
433.5163597225588
 30
0.0
 10
198.214984041627
 20
422.7031876067318
 30
0.0
 10
198.2259790702061
 20
419.0928315144591
 30
0.0
 10
198.2452542324926
 20
413.6719063214651
 30
0.0
 10
198.2523668003595
 20
411.8641466041649
 30
0.0
 10
198.2629403157896
 20
409.1513459062762
 30
0.0
 10
198.2663867890301
 20
408.2469434280486
 30
0.0
 10
198.2731629747961
 20
406.4378865386044
 30
0.0
 10
198.2766930765958
 20
405.5332589546196
 30
0.0
 10
198.2812428364223
 20
404.6284670009074
 30
0.0
  0
SPLINE
  5
F2
330
1F
100
AcDbEntity
  8
0
  6
Continuous
 62
     8
370
     0
100
AcDbSpline
210
0.0
220
0.0
230
1.0
 70
     8
 71
     3
 72
    18
 73
    14
 74
     0
 42
0.000000001
 43
0.00000001
 40
0.0
 40
0.0
 40
0.0
 40
0.0
 40
0.0625
 40
0.0625
 40
0.1249999999999999
 40
0.1249999999999999
 40
0.2499999999999999
 40
0.2499999999999999
 40
0.4999999999999999
 40
0.4999999999999999
 40
0.7499999999999999
 40
0.7499999999999999
 40
1.0
 40
1.0
 40
1.0
 40
1.0
 10
196.9417572528544
 20
404.5901004667542
 30
0.0
 10
196.9367250622547
 20
405.7110910771816
 30
0.0
 10
196.9318629982373
 20
406.8318372695319
 30
0.0
 10
196.9225002663691
 20
409.0729946832563
 30
0.0
 10
196.9179921610013
 20
410.1934090274983
 30
0.0
 10
196.9049513213579
 20
413.5537128844645
 30
0.0
 10
196.8968882739433
 20
415.7927307580579
 30
0.0
 10
196.8744951784638
 20
422.5060622268787
 30
0.0
 10
196.8620657462358
 20
426.9734637234552
 30
0.0
 10
196.8424030778864
 20
435.8918956961016
 30
0.0
 10
196.8351129456499
 20
440.3427787669617
 30
0.0
 10
196.8255035285998
 20
449.2149142128099
 30
0.0
 10
196.8231827027678
 20
453.6359144811476
 30
0.0
 10
196.8233038306598
 20
458.0422076145024
 30
0.0
  0
LWPOLYLINE
  5
F3
330
1F
100
AcDbEntity
  8
0
  6
Continuous
 62
     8
370
     0
100
AcDbPolyline
 90
        3
 70
   128
 43
0.0
 10
198.2063103088
 20
490.1242513887
 10
198.2063103088
 20
490.1241942288
 10
198.2063009955
 20
490.1209563695
  0
LWPOLYLINE
  5
F4
330
1F
100
AcDbEntity
  8
0
  6
Continuous
 62
     8
370
     0
100
AcDbPolyline
 90
        3
 70
   128
 43
0.0
 10
229.9265760549
 20
490.1242513887
 10
229.9265760549
 20
490.1241942288
 10
229.9265853681
 20
490.1209563695
  0
LINE
  5
F5
330
1F
100
AcDbEntity
  8
0
  6
Continuous
 62
     8
370
     0
100
AcDbLine
 10
231.191129572
 20
404.5900978826
 30
0.0
 11
231.191129572
 21
404.5864545487
 31
0.0
  0
LINE
  5
F6
330
1F
100
AcDbEntity
  8
0
  6
Continuous
 62
     8
370
     0
100
AcDbLine
 10
196.9417567917
 20
404.5900978826
 30
0.0
 11
196.9417567917
 21
404.5864545487
 31
0.0
  0
LINE
  5
F7
330
1F
100
AcDbEntity
  8
0
  6
Continuous
 62
     8
370
     0
100
AcDbLine
 10
214.0664431818
 20
398.0993532322
 30
0.0
 11
214.0664431818
 21
398.0980791829
 31
0.0
  0
SPLINE
  5
F8
330
1F
100
AcDbEntity
  8
0
  6
Continuous
 62
     8
370
     0
100
AcDbSpline
210
0.0
220
0.0
230
1.0
 70
     8
 71
     3
 72
    38
 73
    34
 74
     0
 42
0.000000001
 43
0.00000001
 40
0.0
 40
0.0
 40
0.0
 40
0.0
 40
0.03125
 40
0.03125
 40
0.0625000000000001
 40
0.0625000000000001
 40
0.1250000000000001
 40
0.1250000000000001
 40
0.1875000000000001
 40
0.1875000000000001
 40
0.2500000000000001
 40
0.2500000000000001
 40
0.3125000000000002
 40
0.3125000000000002
 40
0.3750000000000002
 40
0.3750000000000002
 40
0.5000000000000001
 40
0.5000000000000001
 40
0.5625000000000002
 40
0.5625000000000002
 40
0.6250000000000002
 40
0.6250000000000002
 40
0.7500000000000002
 40
0.7500000000000002
 40
0.8125000000000002
 40
0.8125000000000002
 40
0.8750000000000001
 40
0.8750000000000001
 40
0.9375000000000001
 40
0.9375000000000001
 40
0.9687500000000001
 40
0.9687500000000001
 40
1.0
 40
1.0
 40
1.0
 40
1.0
 10
214.0664431818181
 20
505.0745489959787
 30
0.0
 10
213.8065597321087
 20
505.0745485252735
 30
0.0
 10
213.5441343939453
 20
505.0682573304292
 30
0.0
 10
213.0240822921883
 20
505.0433910534072
 30
0.0
 10
212.7648023396869
 20
505.024816151476
 30
0.0
 10
211.9891667230307
 20
504.9509309499018
 30
0.0
 10
211.4750083010207
 20
504.8775178632625
 30
0.0
 10
210.4525445816611
 20
504.6823847502482
 30
0.0
 10
209.9463427582853
 20
504.5608349314685
 30
0.0
 10
208.9578869183597
 20
504.2744800541155
 30
0.0
 10
208.4734980700136
 20
504.1092909462839
 30
0.0
 10
207.5242302138545
 20
503.7351955168996
 30
0.0
 10
207.0593440477252
 20
503.5263051615957
 30
0.0
 10
206.1489871127719
 20
503.0648454927952
 30
0.0
 10
205.701182328745
 20
502.810725969671
 30
0.0
 10
204.4075076754379
 20
501.9931474296076
 30
0.0
 10
203.6123217353437
 20
501.3777179160959
 30
0.0
 10
202.5193342998121
 20
500.3491633827728
 30
0.0
 10
202.1717889455484
 20
499.9885854737439
 30
0.0
 10
201.5106785037843
 20
499.2313806369552
 30
0.0
 10
201.1991646606589
 20
498.8366830752784
 30
0.0
 10
200.3356355633019
 20
497.6253765429994
 30
0.0
 10
199.847008731835
 20
496.7744128383698
 30
0.0
 10
199.2468165499949
 20
495.4309666212549
 30
0.0
 10
199.0691126035887
 20
494.9718714262438
 30
0.0
 10
198.7600879445403
 20
494.0302647478533
 30
0.0
 10
198.6295248379164
 20
493.5490023796655
 30
0.0
 10
198.4210099593384
 20
492.5837619649749
 30
0.0
 10
198.3421890680929
 20
492.0973020600022
 30
0.0
 10
198.2622125608427
 20
491.361813825296
 30
0.0
 10
198.241942150431
 20
491.1156827316034
 30
0.0
 10
198.2143478235088
 20
490.6214536501
 30
0.0
 10
198.2070195114478
 20
490.3717111500867
 30
0.0
 10
198.2063106050522
 20
490.1242513336758
 30
0.0
  0
SPLINE
  5
F9
330
1F
100
AcDbEntity
  8
0
  6
Continuous
 62
     8
370
     0
100
AcDbSpline
210
0.0
220
0.0
230
1.0
 70
     8
 71
     3
 72
    38
 73
    34
 74
     0
 42
0.000000001
 43
0.00000001
 40
0.0
 40
0.0
 40
0.0
 40
0.0
 40
0.0312499999999999
 40
0.0312499999999999
 40
0.0624999999999999
 40
0.0624999999999999
 40
0.1249999999999998
 40
0.1249999999999998
 40
0.1874999999999998
 40
0.1874999999999998
 40
0.2499999999999998
 40
0.2499999999999998
 40
0.3124999999999998
 40
0.3124999999999998
 40
0.3749999999999998
 40
0.3749999999999998
 40
0.4999999999999996
 40
0.4999999999999996
 40
0.5624999999999994
 40
0.5624999999999994
 40
0.6249999999999993
 40
0.6249999999999993
 40
0.7499999999999993
 40
0.7499999999999993
 40
0.8124999999999994
 40
0.8124999999999994
 40
0.8749999999999996
 40
0.8749999999999996
 40
0.9374999999999997
 40
0.9374999999999997
 40
0.9687499999999998
 40
0.9687499999999998
 40
1.0
 40
1.0
 40
1.0
 40
1.0
 10
214.0664431818181
 20
505.0745489959787
 30
0.0
 10
214.3263266315284
 20
505.0745489960389
 30
0.0
 10
214.5887519696909
 20
505.0682573304292
 30
0.0
 10
215.1088040714478
 20
505.0433910534072
 30
0.0
 10
215.3680840239493
 20
505.024816151476
 30
0.0
 10
216.1437196406054
 20
504.9509309499018
 30
0.0
 10
216.6578780626155
 20
504.8775178632625
 30
0.0
 10
217.6803417819751
 20
504.6823847502482
 30
0.0
 10
218.1865436053509
 20
504.5608349314685
 30
0.0
 10
219.1749994452764
 20
504.2744800541155
 30
0.0
 10
219.6593882936226
 20
504.1092909462839
 30
0.0
 10
220.6086561497816
 20
503.7351955168996
 30
0.0
 10
221.0735423159109
 20
503.5263051615957
 30
0.0
 10
221.9838992508643
 20
503.0648454927952
 30
0.0
 10
222.4317040348911
 20
502.810725969671
 30
0.0
 10
223.7253786881982
 20
501.9931474296076
 30
0.0
 10
224.5205646282924
 20
501.3777179160959
 30
0.0
 10
225.6135520638241
 20
500.3491633827728
 30
0.0
 10
225.9610974180877
 20
499.9885854737439
 30
0.0
 10
226.6222078598519
 20
499.2313806369552
 30
0.0
 10
226.9337217029773
 20
498.8366830752784
 30
0.0
 10
227.7972508003342
 20
497.6253765429994
 30
0.0
 10
228.2858776318011
 20
496.7744128383698
 30
0.0
 10
228.8860698136412
 20
495.4309666212549
 30
0.0
 10
229.0637737600474
 20
494.9718714262438
 30
0.0
 10
229.3727984190959
 20
494.0302647478532
 30
0.0
 10
229.5033615257197
 20
493.5490023796655
 30
0.0
 10
229.7118764042978
 20
492.5837619649749
 30
0.0
 10
229.7906972955433
 20
492.0973020600022
 30
0.0
 10
229.8706738027935
 20
491.3618138252959
 30
0.0
 10
229.8909442132051
 20
491.1156827316034
 30
0.0
 10
229.9185385401273
 20
490.6214536501
 30
0.0
 10
229.9258673525703
 20
490.3717111358547
 30
0.0
 10
229.926575758584
 20
490.1242513336758
 30
0.0
  0
SPLINE
  5
FA
330
1F
100
AcDbEntity
  8
0
  6
Continuous
 62
     8
370
     0
100
AcDbSpline
210
0.0
220
0.0
230
1.0
 70
     8
 71
     3
 72
    50
 73
    46
 74
     0
 42
0.000000001
 43
0.00000001
 40
0.0
 40
0.0
 40
0.0
 40
0.0
 40
0.2499999999999976
 40
0.2499999999999976
 40
0.3749999999999963
 40
0.3749999999999963
 40
0.4999999999999951
 40
0.4999999999999951
 40
0.5624999999999944
 40
0.5624999999999944
 40
0.6249999999999939
 40
0.6249999999999939
 40
0.6562499999999936
 40
0.6562499999999936
 40
0.6874999999999933
 40
0.6874999999999933
 40
0.7031249999999931
 40
0.7031249999999931
 40
0.7187499999999931
 40
0.7187499999999931
 40
0.734374999999993
 40
0.734374999999993
 40
0.7421874999999931
 40
0.7421874999999931
 40
0.7499999999999931
 40
0.7499999999999931
 40
0.7656249999999932
 40
0.7656249999999932
 40
0.7734374999999933
 40
0.7734374999999933
 40
0.7812499999999934
 40
0.7812499999999934
 40
0.8124999999999942
 40
0.8124999999999942
 40
0.8281249999999947
 40
0.8281249999999947
 40
0.8437499999999951
 40
0.8437499999999951
 40
0.874999999999996
 40
0.874999999999996
 40
0.906249999999997
 40
0.906249999999997
 40
0.937499999999998
 40
0.937499999999998
 40
1.0
 40
1.0
 40
1.0
 40
1.0
 10
159.0664431818181
 20
522.6200000984301
 30
0.0
 10
169.3106279531364
 20
522.6200008243744
 30
0.0
 10
179.554613498175
 20
522.5892782350057
 30
0.0
 10
194.9205200635915
 20
522.4824709019143
 30
0.0
 10
200.0424741611758
 20
522.4365336341948
 30
0.0
 10
210.2864516313177
 20
522.3138012110077
 30
0.0
 10
215.4083995560788
 20
522.2379877214656
 30
0.0
 10
223.0908518517605
 20
522.0794156821372
 30
0.0
 10
225.6516039523878
 20
522.0190461678098
 30
0.0
 10
230.7731290503418
 20
521.8706429212599
 30
0.0
 10
233.3346435958112
 20
521.7849561458343
 30
0.0
 10
237.1741280947047
 20
521.601276130238
 30
0.0
 10
238.4534741886816
 20
521.5324735374489
 30
0.0
 10
241.0116835034247
 20
521.335192513388
 30
0.0
 10
242.2914685461495
 20
521.2058731132823
 30
0.0
 10
244.2031290588268
 20
520.8695944595186
 30
0.0
 10
244.8384749882404
 20
520.7355513061211
 30
0.0
 10
246.1065582946492
 20
520.4033099032002
 30
0.0
 10
246.7298265803549
 20
520.2065959083446
 30
0.0
 10
247.9417870827935
 20
519.7315851169717
 30
0.0
 10
248.5310293758274
 20
519.4530032218356
 30
0.0
 10
249.3817079871418
 20
518.9579045580233
 30
0.0
 10
249.6597282820065
 20
518.780018033035
 30
0.0
 10
250.2033753416774
 20
518.3963728590013
 30
0.0
 10
250.4662118604502
 20
518.1924371768401
 30
0.0
 10
251.2196911180452
 20
517.5520668992854
 30
0.0
 10
251.6788877878359
 20
517.0844456705574
 30
0.0
 10
252.3100629115337
 20
516.3305183528133
 30
0.0
 10
252.5108900555173
 20
516.0704778225443
 30
0.0
 10
252.8948470219952
 20
515.534395171412
 30
0.0
 10
253.0779695633497
 20
515.2581823833596
 30
0.0
 10
253.9408181031627
 20
513.8620332866053
 30
0.0
 10
254.4792190804265
 20
512.681792359096
 30
0.0
 10
255.1548742944677
 20
510.8565713180043
 30
0.0
 10
255.3577268072529
 20
510.2371396169939
 30
0.0
 10
255.7249080770759
 20
508.9900197552138
 30
0.0
 10
255.8886728473407
 20
508.3646684639759
 30
0.0
 10
256.3335306541327
 20
506.4843327137506
 30
0.0
 10
256.5688640466554
 20
505.2251195359864
 30
0.0
 10
256.95841790528
 20
502.6988766667704
 30
0.0
 10
257.1121600150554
 20
501.4318084035976
 30
0.0
 10
257.3607642648669
 20
498.8918095593673
 30
0.0
 10
257.4554367264204
 20
497.618864157829
 30
0.0
 10
257.6721989439532
 20
493.7931601050352
 30
0.0
 10
257.7281255654032
 20
491.2314065536177
 30
0.0
 10
257.7281257468892
 20
488.6699967764167
 30
0.0
  0
SPLINE
  5
FB
330
1F
100
AcDbEntity
  8
0
  6
Continuous
 62
     8
370
     0
100
AcDbSpline
210
0.0
220
0.0
230
1.0
 70
     8
 71
     3
 72
    46
 73
    42
 74
     0
 42
0.000000001
 43
0.00000001
 40
0.0
 40
0.0
 40
0.0
 40
0.0
 40
0.0625000000000003
 40
0.0625000000000003
 40
0.0937500000000005
 40
0.0937500000000005
 40
0.1250000000000006
 40
0.1250000000000006
 40
0.1562500000000007
 40
0.1562500000000007
 40
0.1718750000000008
 40
0.1718750000000008
 40
0.1875000000000009
 40
0.1875000000000009
 40
0.2187500000000011
 40
0.2187500000000011
 40
0.2343750000000011
 40
0.2343750000000011
 40
0.2500000000000012
 40
0.2500000000000012
 40
0.2656250000000013
 40
0.2656250000000013
 40
0.2812500000000014
 40
0.2812500000000014
 40
0.2968750000000014
 40
0.2968750000000014
 40
0.3125000000000014
 40
0.3125000000000014
 40
0.3437500000000008
 40
0.3437500000000008
 40
0.3750000000000002
 40
0.3750000000000002
 40
0.4374999999999996
 40
0.4374999999999996
 40
0.4999999999999993
 40
0.4999999999999993
 40
0.6249999999999996
 40
0.6249999999999996
 40
0.7499999999999998
 40
0.7499999999999998
 40
1.0
 40
1.0
 40
1.0
 40
1.0
 10
60.40475831775152
 20
488.6699967764167
 30
0.0
 10
60.40475854715979
 20
491.2528838050038
 30
0.0
 10
60.46138605756962
 20
493.8329546124852
 30
0.0
 10
60.68267091052174
 20
497.6968141481184
 30
0.0
 10
60.77945532432766
 20
498.9837158557703
 30
0.0
 10
61.03457367467513
 20
501.5548698975735
 30
0.0
 10
61.19280229727705
 20
502.8398927267461
 30
0.0
 10
61.59535304566479
 20
505.4032758741744
 30
0.0
 10
61.83841661915868
 20
506.6761469374079
 30
0.0
 10
62.29587664489483
 20
508.5662911195697
 30
0.0
 10
62.46400032728702
 20
509.193115370828
 30
0.0
 10
62.83973222255695
 20
510.4387146935592
 30
0.0
 10
63.04801430780788
 20
511.0592502504326
 30
0.0
 10
63.74264971229124
 20
512.8869368687745
 30
0.0
 10
64.29591418436989
 20
514.0638895439173
 30
0.0
 10
65.35565349581748
 20
515.7231389153131
 30
0.0
 10
65.75104382652475
 20
516.260579305384
 30
0.0
 10
66.61423214784215
 20
517.25337155569
 30
0.0
 10
67.08414196579263
 20
517.7124472387783
 30
0.0
 10
68.10785354723453
 20
518.545772176189
 30
0.0
 10
68.66568255944749
 20
518.9208274898418
 30
0.0
 10
69.81818978217
 20
519.5606143102236
 30
0.0
 10
70.41695521585974
 20
519.8299373826009
 30
0.0
 10
71.64852695716584
 20
520.288269578611
 30
0.0
 10
72.2832180271877
 20
520.4775238435905
 30
0.0
 10
73.54762601597048
 20
520.7914548226669
 30
0.0
 10
74.1811662669774
 20
520.9186902372628
 30
0.0
 10
76.08759474299343
 20
521.235845871637
 30
0.0
 10
77.36317583209953
 20
521.3574281270071
 30
0.0
 10
79.91335057595606
 20
521.5461950649018
 30
0.0
 10
81.18871589220986
 20
521.6133721071819
 30
0.0
 10
85.01640813414332
 20
521.792886323847
 30
0.0
 10
87.5705616194364
 20
521.8774792141606
 30
0.0
 10
92.6774722481552
 20
522.0239451920055
 30
0.0
 10
95.23079644836443
 20
522.0836736120629
 30
0.0
 10
102.8907577601526
 20
522.240659832169
 30
0.0
 10
107.9973612669448
 20
522.315885558104
 30
0.0
 10
118.210759592684
 20
522.4376937323856
 30
0.0
 10
123.3175359586856
 20
522.483326385833
 30
0.0
 10
138.6381329417897
 20
522.5894438400367
 30
0.0
 10
148.8523079155477
 20
522.6200010147872
 30
0.0
 10
159.0664431818181
 20
522.6200000971533
 30
0.0
  0
SPLINE
  5
FC
330
1F
100
AcDbEntity
  8
0
  6
Continuous
 62
     8
370
     0
100
AcDbSpline
210
0.0
220
0.0
230
1.0
 70
     8
 71
     3
 72
    43
 73
    39
 74
     0
 42
0.000000001
 43
0.00000001
 40
0.0
 40
0.0
 40
0.0
 40
0.0
 40
0.0754124885299978
 40
0.1112563792015037
 40
0.148322349787695
 40
0.1865463631899861
 40
0.2250401187347471
 40
0.2627307658770049
 40
0.3003268479061476
 40
0.3378145704564594
 40
0.375307371281791
 40
0.4128006964569971
 40
0.4503533464173705
 40
0.4692172348379198
 40
0.4881732969355593
 40
0.5071894654995079
 40
0.525849223353447
 40
0.563206473283583
 40
0.5821592464304024
 40
0.600915354214881
 40
0.6103933767676648
 40
0.6198004856972202
 40
0.6385271118336308
 40
0.6480008799502439
 40
0.657478489471888
 40
0.6764324552056621
 40
0.713872477007794
 40
0.7327110162849371
 40
0.7517070724266313
 40
0.7706637562062052
 40
0.7896207756456058
 40
0.8085243956684869
 40
0.8276457608264041
 40
0.8656997544651202
 40
0.9036147704170535
 40
0.9416542259055146
 40
0.979304520445973
 40
1.0
 40
1.0
 40
1.0
 40
1.0
 10
257.7281120784932
 20
488.6699967764171
 30
0.0
 10
257.7204202673465
 20
487.3864112397028
 30
0.0
 10
257.7090725042059
 20
485.4927317975578
 30
0.0
 10
257.6267660366516
 20
482.9694666969168
 30
0.0
 10
257.5380736345854
 20
481.0799745308095
 30
0.0
 10
257.4130497194199
 20
479.1472787900988
 30
0.0
 10
257.2469977668088
 20
477.2069710275795
 30
0.0
 10
257.0362238073507
 20
475.2817086325584
 30
0.0
 10
256.774308779858
 20
473.3799485525606
 30
0.0
 10
256.4521283427782
 20
471.4907607380065
 30
0.0
 10
256.0559410802861
 20
469.6172847151145
 30
0.0
 10
255.5719590240786
 20
467.7631701606923
 30
0.0
 10
255.076866640843
 20
466.2420391847099
 30
0.0
 10
254.6131537206155
 20
465.0456119616149
 30
0.0
 10
254.2257905441921
 20
464.1588440785843
 30
0.0
 10
253.7964633758017
 20
463.2952860548703
 30
0.0
 10
253.1660775937017
 20
462.1842316177253
 30
0.0
 10
252.4361367900202
 20
461.1318994432729
 30
0.0
 10
251.5928185413518
 20
460.1705703723675
 30
0.0
 10
251.0144194248892
 20
459.6118382646513
 30
0.0
 10
250.5256750142489
 20
459.1973471603652
 30
0.0
 10
250.0196000511307
 20
458.805044239522
 30
0.0
 10
249.4886459634519
 20
458.4459332364293
 30
0.0
 10
248.9358922194629
 20
458.1205278378362
 30
0.0
 10
248.3666369347762
 20
457.8165565669701
 30
0.0
 10
247.34722923358
 20
457.3473932448193
 30
0.0
 10
246.1307710629986
 20
456.9358784956531
 30
0.0
 10
244.8891080595229
 20
456.6193843872895
 30
0.0
 10
243.9427650586003
 20
456.4210438302568
 30
0.0
 10
242.9878259476856
 20
456.257794388585
 30
0.0
 10
242.0296571743271
 20
456.1260753595011
 30
0.0
 10
241.0656280160798
 20
456.0192594401292
 30
0.0
 10
239.7758185850352
 20
455.9041492740411
 30
0.0
 10
238.1610341239379
 20
455.7933273801314
 30
0.0
 10
236.2232865585955
 20
455.6906531783972
 30
0.0
 10
234.2916489955786
 20
455.6042422900012
 30
0.0
 10
232.6524948427013
 20
455.5376218277952
 30
0.0
 10
231.6599369690596
 20
455.5062487935444
 30
0.0
 10
231.3078727193528
 20
455.49512065275
 30
0.0
  0
SPLINE
  5
FD
330
1F
100
AcDbEntity
  8
0
  6
Continuous
 62
     8
370
     0
100
AcDbSpline
210
0.0
220
0.0
230
1.0
 70
     8
 71
     3
 72
    11
 73
     7
 74
     0
 42
0.000000001
 43
0.00000001
 40
0.0
 40
0.0
 40
0.0
 40
0.0
 40
0.1844543032838724
 40
0.389169065626229
 40
0.5910450504545585
 40
1.0
 40
1.0
 40
1.0
 40
1.0
 10
196.8253973491841
 20
454.8786111853867
 30
0.0
 10
194.503852261978
 20
454.8588494973697
 30
0.0
 10
189.6057635955035
 20
454.817155497697
 30
0.0
 10
182.1667102093677
 20
454.7743140714582
 30
0.0
 10
171.9019560396817
 20
454.7304766353698
 30
0.0
 10
164.2137459421249
 20
454.7241988139194
 30
0.0
 10
159.0664434798413
 20
454.7199957750587
 30
0.0
  0
SPLINE
  5
FE
330
1F
100
AcDbEntity
  8
0
  6
Continuous
 62
     8
370
     0
100
AcDbSpline
210
0.0
220
0.0
230
1.0
 70
     8
 71
     3
 72
    50
 73
    46
 74
     0
 42
0.000000001
 43
0.00000001
 40
0.0
 40
0.0
 40
0.0
 40
0.0
 40
0.2500000000000059
 40
0.2500000000000059
 40
0.3750000000000089
 40
0.3750000000000089
 40
0.5000000000000119
 40
0.5000000000000119
 40
0.5625000000000132
 40
0.5625000000000132
 40
0.6250000000000149
 40
0.6250000000000149
 40
0.6562500000000157
 40
0.6562500000000157
 40
0.6875000000000165
 40
0.6875000000000165
 40
0.7031250000000165
 40
0.7031250000000165
 40
0.7187500000000167
 40
0.7187500000000167
 40
0.7343750000000168
 40
0.7343750000000168
 40
0.7421875000000165
 40
0.7421875000000165
 40
0.7500000000000162
 40
0.7500000000000162
 40
0.7656250000000158
 40
0.7656250000000158
 40
0.7734375000000155
 40
0.7734375000000155
 40
0.7812500000000152
 40
0.7812500000000152
 40
0.8125000000000131
 40
0.8125000000000131
 40
0.8281250000000119
 40
0.8281250000000119
 40
0.8437500000000108
 40
0.8437500000000108
 40
0.8750000000000085
 40
0.8750000000000085
 40
0.9062500000000064
 40
0.9062500000000064
 40
0.9375000000000043
 40
0.9375000000000043
 40
1.0
 40
1.0
 40
1.0
 40
1.0
 10
159.0664431818181
 20
454.7199931572992
 30
0.0
 10
148.8222584098677
 20
454.7199922644239
 30
0.0
 10
138.5782728632964
 20
454.7507146868617
 30
0.0
 10
123.212366292808
 20
454.8575217695862
 30
0.0
 10
118.0904121930676
 20
454.9034589538546
 30
0.0
 10
107.8464347165939
 20
455.026191210175
 30
0.0
 10
102.7244867878784
 20
455.1020046162919
 30
0.0
 10
95.0420344815146
 20
455.2605765306162
 30
0.0
 10
92.48128237657183
 20
455.3209460032944
 30
0.0
 10
87.35975726548723
 20
455.4693491667243
 30
0.0
 10
84.79824271262682
 20
455.5550359005639
 30
0.0
 10
80.95875818549575
 20
455.7387158548406
 30
0.0
 10
79.67941208032498
 20
455.8075184271416
 30
0.0
 10
77.12120270700099
 20
456.0047994138634
 30
0.0
 10
75.84141761024266
 20
456.1341187972042
 30
0.0
 10
73.92975697332932
 20
456.4703974410423
 30
0.0
 10
73.29441100003781
 20
456.6044405926917
 30
0.0
 10
72.02632757979156
 20
456.9366820038676
 30
0.0
 10
71.4030592266268
 20
457.1333960083454
 30
0.0
 10
70.19109856988881
 20
457.6084068377821
 30
0.0
 10
69.60185618983161
 20
457.8869887616489
 30
0.0
 10
68.75117744135356
 20
458.3820874871838
 30
0.0
 10
68.4731570997588
 20
458.5599740358002
 30
0.0
 10
67.92950994679722
 20
458.9436192628986
 30
0.0
 10
67.66667338194121
 20
459.1475549741914
 30
0.0
 10
66.91319399206411
 20
459.7879253436325
 30
0.0
 10
66.4539972418745
 20
460.2555466398628
 30
0.0
 10
65.82282201339096
 20
461.0094740583923
 30
0.0
 10
65.62199483700617
 20
461.2695146222044
 30
0.0
 10
65.23803781050941
 20
461.8055973392177
 30
0.0
 10
65.05491524154122
 20
462.0818101596126
 30
0.0
 10
64.19206657550811
 20
463.4779594109864
 30
0.0
 10
63.65366553189639
 20
464.6582004407105
 30
0.0
 10
62.97801023735719
 20
466.4834216091002
 30
0.0
 10
62.77515770119441
 20
467.1028533484926
 30
0.0
 10
62.40797638906398
 20
468.3499732800889
 30
0.0
 10
62.24421159990789
 20
468.9753246026556
 30
0.0
 10
61.79935374060125
 20
470.8556604389021
 30
0.0
 10
61.56402031846675
 20
472.1148736635601
 30
0.0
 10
61.17446640500771
 20
474.6411166145418
 30
0.0
 10
61.02072427014951
 20
475.9081849124814
 30
0.0
 10
60.772119972342
 20
478.4481838186676
 30
0.0
 10
60.67744748791862
 20
479.7211292473484
 30
0.0
 10
60.46068520350242
 20
483.5468333739881
 30
0.0
 10
60.40475853969326
 20
486.1085869647668
 30
0.0
 10
60.40475831647463
 20
488.6699967764169
 30
0.0
  0
SPLINE
  5
FF
330
1F
100
AcDbEntity
  8
0
  6
Continuous
 62
     7
370
    15
100
AcDbSpline
210
0.0
220
0.0
230
1.0
 70
     8
 71
     3
 72
     9
 73
     5
 74
     0
 42
0.000000001
 43
0.00000001
 40
0.0
 40
0.0
 40
0.0
 40
0.0
 40
0.58868862987192
 40
0.9999999999999999
 40
0.9999999999999999
 40
0.9999999999999999
 40
0.9999999999999999
 10
310.8743350415235
 20
454.7209159217625
 30
0.0
 10
311.1751329132059
 20
456.9528638752244
 30
0.0
 10
311.6860955111209
 20
460.7442534829148
 30
0.0
 10
312.0410281993537
 20
464.5532948677395
 30
0.0
 10
312.1870160496538
 20
466.1199968986063
 30
0.0
  0
SPLINE
  5
100
330
1F
100
AcDbEntity
  8
0
  6
Continuous
 62
     7
370
    15
100
AcDbSpline
210
0.0
220
0.0
230
1.0
 70
     8
 71
     3
 72
     9
 73
     5
 74
     0
 42
0.000000001
 43
0.00000001
 40
0.0
 40
0.0
 40
0.0
 40
0.0
 40
0.1539043462168822
 40
1.0
 40
1.0
 40
1.0
 40
1.0
 10
312.1724734476512
 20
511.2199966542273
 30
0.0
 10
312.1274493980035
 20
511.8069859013209
 30
0.0
 10
311.8349037308119
 20
515.6209733651086
 30
0.0
 10
311.3131939813173
 20
519.4118133810272
 30
0.0
 10
310.8717776297336
 20
522.619226642683
 30
0.0
  0
LINE
  5
101
330
1F
100
AcDbEntity
  8
0
  6
Continuous
 62
     7
370
    15
100
AcDbLine
 10
312.1261401496
 20
466.1699958823
 30
0.0
 11
325.8974925077
 21
466.1699958823
 31
0.0
  0
LINE
  5
102
330
1F
100
AcDbEntity
  8
0
  6
Continuous
 62
     7
370
    15
100
AcDbLine
 10
325.8974925077
 20
511.1699976705
 30
0.0
 11
312.1264372415
 21
511.1699976705
 31
0.0
  0
SPLINE
  5
103
330
1F
100
AcDbEntity
  8
0
  6
Continuous
 62
     7
370
    15
100
AcDbSpline
210
0.0
220
0.0
230
1.0
 70
     8
 71
     3
 72
    20
 73
    16
 74
     0
 42
0.000000001
 43
0.00000001
 40
0.0
 40
0.0
 40
0.0
 40
0.0
 40
0.107601697225854
 40
0.2230794976802906
 40
0.3461106068068104
 40
0.4769848280374508
 40
0.5448648662697427
 40
0.6137093128091635
 40
0.6844767114467388
 40
0.7566905395685362
 40
0.8294083114137769
 40
0.9001346019622888
 40
0.9637970362066176
 40
0.9905216086057017
 40
1.0
 40
1.0
 40
1.0
 40
1.0
 10
398.5012323057955
 20
492.6397336393445
 30
0.0
 10
396.1520991965907
 20
492.6456192754181
 30
0.0
 10
391.2818838793957
 20
492.6578213574734
 30
0.0
 10
383.7190229435144
 20
492.6549073511973
 30
0.0
 10
375.6472050363957
 20
492.8390726923648
 30
0.0
 10
368.62443626747
 20
493.3823380022803
 30
0.0
 10
362.8469904619703
 20
494.329549568435
 30
0.0
 10
358.4322140847655
 20
495.4008244844708
 30
0.0
 10
354.0532204328755
 20
496.9472982901919
 30
0.0
 10
349.8184010085232
 20
499.078115268632
 30
0.0
 10
345.9605498077632
 20
501.8429692368895
 30
0.0
 10
342.746802334417
 20
505.0927178080292
 30
0.0
 10
340.7190691177452
 20
507.8928089834869
 30
0.0
 10
339.6335639196038
 20
509.7262580313333
 30
0.0
 10
339.3445465303388
 20
510.2602771405233
 30
0.0
 10
339.268878141672
 20
510.4000900618582
 30
0.0
  0
SPLINE
  5
104
330
1F
100
AcDbEntity
  8
0
  6
Continuous
 62
     7
370
    15
100
AcDbSpline
210
0.0
220
0.0
230
1.0
 70
     8
 71
     3
 72
    11
 73
     7
 74
     0
 42
0.000000001
 43
0.00000001
 40
0.0
 40
0.0
 40
0.0
 40
0.0
 40
0.2589482563620344
 40
0.5146620939343591
 40
0.7625505368795715
 40
1.0
 40
1.0
 40
1.0
 40
1.0
 10
550.2734408176249
 20
472.8540458462982
 30
0.0
 10
551.7528226589869
 20
474.0240003540948
 30
0.0
 10
554.6931079766043
 20
476.3492959372736
 30
0.0
 10
558.0980091228118
 20
480.768289470974
 30
0.0
 10
560.6900910709571
 20
485.5236254515306
 30
0.0
 10
561.6377289882871
 20
488.9271817781751
 30
0.0
 10
562.1013567245311
 20
490.5923569321482
 30
0.0
  0
SPLINE
  5
105
330
1F
100
AcDbEntity
  8
0
  6
Continuous
 62
     7
370
    15
100
AcDbSpline
210
0.0
220
0.0
230
1.0
 70
     8
 71
     3
 72
    11
 73
     7
 74
     0
 42
0.000000001
 43
0.00000001
 40
0.0
 40
0.0
 40
0.0
 40
0.0
 40
0.4214249144976145
 40
0.7704747503298349
 40
0.9457698329123753
 40
1.0
 40
1.0
 40
1.0
 40
1.0
 10
561.3540336883373
 20
491.951712102428
 30
0.0
 10
561.2929144416422
 20
491.9775020008954
 30
0.0
 10
561.1811725044245
 20
492.0246526673583
 30
0.0
 10
561.0377058304462
 20
492.0548208768089
 30
0.0
 10
560.9491689039837
 20
492.0660882975873
 30
0.0
 10
560.925472281248
 20
492.0680042059694
 30
0.0
 10
560.9198734557933
 20
492.0684568796157
 30
0.0
  0
LINE
  5
106
330
1F
100
AcDbEntity
  8
0
  6
Continuous
 62
     7
370
    15
100
AcDbLine
 10
550.7885739601
 20
468.5350448571
 30
0.0
 11
550.0181541241
 21
472.9043447159
 31
0.0
  0
LINE
  5
107
330
1F
100
AcDbEntity
  8
0
  6
Continuous
 62
     7
370
    15
100
AcDbLine
 10
526.524163822
 20
467.9348707877
 30
0.0
 11
527.1531865394
 21
464.367489957
 31
0.0
  0
LINE
  5
108
330
1F
100
AcDbEntity
  8
0
  6
Continuous
 62
     7
370
    15
100
AcDbLine
 10
527.1531865394
 20
464.367489957
 30
0.0
 11
528.2382592953
 21
463.972558894
 31
0.0
  0
LINE
  5
109
330
1F
100
AcDbEntity
  8
0
  6
Continuous
 62
     7
370
    15
100
AcDbLine
 10
549.9040261305
 20
467.792818018
 30
0.0
 11
550.7885739601
 21
468.5350448571
 31
0.0
  0
ARC
  5
10A
330
1F
100
AcDbEntity
  8
0
  6
Continuous
 62
     7
370
    15
100
AcDbCircle
 10
530.0601498645
 20
464.2938074086
 30
0.0
 40
0.2000000000000756
100
AcDbArc
 50
190.0
 51
280.0
  0
ARC
  5
10B
330
1F
100
AcDbEntity
  8
0
  6
Continuous
 62
     7
370
    15
100
AcDbCircle
 10
548.0821317447
 20
467.4715690599
 30
0.0
 40
0.2000000000000658
100
AcDbArc
 50
280.0
 51
10.0
  0
LINE
  5
10C
330
1F
100
AcDbEntity
  8
0
  6
Continuous
 62
     7
370
    15
100
AcDbLine
 10
550.0550941027
 20
472.8931762956
 30
0.0
 11
550.2470806635
 21
472.8857331656
 31
0.0
  0
LINE
  5
10D
330
1F
100
AcDbEntity
  8
0
  6
Continuous
 62
     7
370
    15
100
AcDbLine
 10
550.2337590254
 20
472.8862491183
 30
0.0
 11
550.2465293205
 21
472.8856158189
 31
0.0
  0
SPLINE
  5
10E
330
1F
100
AcDbEntity
  8
0
  6
Continuous
 62
     7
370
    15
100
AcDbSpline
210
0.0
220
0.0
230
1.0
 70
     8
 71
     3
 72
     9
 73
     5
 74
     0
 42
0.000000001
 43
0.00000001
 40
0.0
 40
0.0
 40
0.0
 40
0.0
 40
0.5054052159604732
 40
0.9999999999999999
 40
0.9999999999999999
 40
0.9999999999999999
 40
0.9999999999999999
 10
550.2467975414103
 20
472.8856735609322
 30
0.0
 10
550.2805530119797
 20
472.8946756344322
 30
0.0
 10
550.347341936002
 20
472.912487230387
 30
0.0
 10
550.4055627476123
 20
472.9497259574097
 30
0.0
 10
550.4343584573572
 20
472.9681440375595
 30
0.0
  0
LINE
  5
10F
330
1F
100
AcDbEntity
  8
0
  6
Continuous
 62
     7
370
    15
100
AcDbLine
 10
550.2466485298
 20
472.8857052259
 30
0.0
 11
550.0418469704
 21
472.8853867136
 31
0.0
  0
SPLINE
  5
110
330
1F
100
AcDbEntity
  8
0
  6
Continuous
 62
     7
370
    15
100
AcDbSpline
210
0.0
220
0.0
230
1.0
 70
     8
 71
     3
 72
     9
 73
     5
 74
     0
 42
0.000000001
 43
0.00000001
 40
0.0
 40
0.0
 40
0.0
 40
0.0
 40
0.5443662776610593
 40
1.0
 40
1.0
 40
1.0
 40
1.0
 10
398.5012323057955
 20
492.6397331736832
 30
0.0
 10
396.1521472061934
 20
492.643363062418
 30
0.0
 10
391.8368815551042
 20
492.6500311623422
 30
0.0
 10
387.5177589216545
 20
492.668484190967
 30
0.0
 10
385.5498209989375
 20
492.6768920130878
 30
0.0
  0
SPLINE
  5
111
330
1F
100
AcDbEntity
  8
0
  6
Continuous
 62
     7
370
    15
100
AcDbSpline
210
0.0
220
0.0
230
1.0
 70
     8
 71
     3
 72
    11
 73
     7
 74
     0
 42
0.000000001
 43
0.00000001
 40
0.0
 40
0.0
 40
0.0
 40
0.0
 40
0.4436371950987826
 40
0.7831204590420333
 40
0.9472274752939085
 40
1.0
 40
1.0
 40
1.0
 40
1.0
 10
561.3495335376566
 20
491.9549379709958
 30
0.0
 10
561.2850235483324
 20
491.9811822588245
 30
0.0
 10
561.1711487582777
 20
492.0275093904506
 30
0.0
 10
561.0273215513411
 20
492.0564794522992
 30
0.0
 10
560.9437248088003
 20
492.0666076537936
 30
0.0
 10
560.9221203557028
 20
492.0683112653008
 30
0.0
 10
560.916863421232
 20
492.0687257990091
 30
0.0
  0
ARC
  5
112
330
1F
100
AcDbEntity
  8
0
  6
Continuous
 62
     7
370
    15
100
AcDbCircle
 10
342.0614199468
 20
509.6933781128
 30
0.0
 40
0.2000000000000869
100
AcDbArc
 50
54.8892770262
 51
166.8658427455
  0
ARC
  5
113
330
1F
100
AcDbEntity
  8
0
  6
Continuous
 62
     7
370
    15
100
AcDbCircle
 10
331.6096803943
 20
464.9006853606
 30
0.0
 40
0.2000000000000583
100
AcDbArc
 50
166.8658427455
 51
278.8424084648
  0
ARC
  5
114
330
1F
100
AcDbEntity
  8
0
  6
Continuous
 62
     7
370
    15
100
AcDbCircle
 10
327.7974926269
 20
489.4059342764
 30
0.0
 40
24.99999999999999
100
AcDbArc
 50
22.9866031457
 51
54.8892770262
  0
LWPOLYLINE
  5
115
330
1F
100
AcDbEntity
  8
0
  6
Continuous
 62
     7
370
    15
100
AcDbPolyline
 90
        3
 70
   128
 43
0.0
 10
331.6404242462
 20
464.7030622445
 10
334.3088273353
 20
465.2687736533
 10
336.8208110726
 20
466.0911389373
  0
LINE
  5
116
330
1F
100
AcDbEntity
  8
0
  6
Continuous
 62
     7
370
    15
100
AcDbLine
 10
327.8974928356
 20
511.2199966542
 30
0.0
 11
312.1411130226
 21
511.2199966542
 31
0.0
  0
LINE
  5
117
330
1F
100
AcDbEntity
  8
0
  6
Continuous
 62
     7
370
    15
100
AcDbLine
 10
312.1350100658
 20
466.1199968986
 30
0.0
 11
327.8974928356
 21
466.1199968986
 31
0.0
  0
ARC
  5
118
330
1F
100
AcDbEntity
  8
0
  6
Continuous
 62
     7
370
    15
100
AcDbCircle
 10
327.8974926269
 20
510.5199967764
 30
0.0
 40
0.7000000000000455
100
AcDbArc
 50
67.5048470877
 51
90.0
  0
ARC
  5
119
330
1F
100
AcDbEntity
  8
0
  6
Continuous
 62
     7
370
    15
100
AcDbCircle
 10
327.8974926269
 20
466.8199967764
 30
0.0
 40
0.7000000000000077
100
AcDbArc
 50
270.0
 51
291.1553840824
  0
SPLINE
  5
11A
330
1F
100
AcDbEntity
  8
0
  6
Continuous
 62
     7
370
    15
100
AcDbSpline
210
0.0
220
0.0
230
1.0
 70
     8
 71
     3
 72
    22
 73
    18
 74
     0
 42
0.000000001
 43
0.00000001
 40
0.0
 40
0.0
 40
0.0
 40
0.0
 40
0.0150245590678029
 40
0.0404009843285881
 40
0.0823629957597592
 40
0.1551778377704683
 40
0.273853455969123
 40
0.3682413541810487
 40
0.4516874350364504
 40
0.5332193903452115
 40
0.6006293483088473
 40
0.6625029207722687
 40
0.7257984641305694
 40
0.8124026914199319
 40
0.9015328879216936
 40
0.9949833371995095
 40
1.0
 40
1.0
 40
1.0
 40
1.0
 10
378.4249946868723
 20
399.397721209362
 30
0.0
 10
378.4530080872408
 20
399.7290322729218
 30
0.0
 10
378.5283360182749
 20
400.6199265099079
 30
0.0
 10
378.6160405948133
 20
402.4741978396651
 30
0.0
 10
378.5982945282966
 20
405.6285342960138
 30
0.0
 10
378.3764180614501
 20
410.8812286900258
 30
0.0
 10
378.0643081800584
 20
417.3096612442895
 30
0.0
 10
377.563077135813
 20
423.9671054676001
 30
0.0
 10
377.0248143204348
 20
429.7817147845616
 30
0.0
 10
376.4537749455863
 20
434.9826517063278
 30
0.0
 10
375.8650142890763
 20
439.6923641848549
 30
0.0
 10
375.2713807005898
 20
443.9873315203223
 30
0.0
 10
374.5585619491305
 20
448.7016217931147
 30
0.0
 10
373.6786118417247
 20
454.0111253082508
 30
0.0
 10
372.5654563983534
 20
459.9681420612577
 30
0.0
 10
371.7559607176598
 20
464.114622260793
 30
0.0
 10
371.2568503421938
 20
466.2745765503868
 30
0.0
 10
371.2314218676394
 20
466.3846210323124
 30
0.0
  0
ARC
  5
11B
330
1F
100
AcDbEntity
  8
0
  6
Continuous
 62
     7
370
    15
100
AcDbCircle
 10
309.0974926269
 20
454.9699967764
 30
0.0
 40
1.800000000000011
100
AcDbArc
 50
270.0
 51
352.0164438544
  0
LINE
  5
11C
330
1F
100
AcDbEntity
  8
0
  6
Continuous
 62
     7
370
    15
100
AcDbLine
 10
309.0974926411
 20
453.1699956141
 30
0.0
 11
303.1974926519
 21
453.1699956141
 31
0.0
  0
SPLINE
  5
11D
330
1F
100
AcDbEntity
  8
0
  6
Continuous
 62
     7
370
    15
100
AcDbSpline
210
0.0
220
0.0
230
1.0
 70
    24
 71
     3
 72
    36
 73
    32
 74
     0
 42
0.000000001
 43
0.00000001
 40
0.0
 40
0.0
 40
0.0
 40
0.0
 40
0.0518528914626914
 40
0.1027572092530006
 40
0.1527130481843891
 40
0.201720508575311
 40
0.2497796966831395
 40
0.3865775747267834
 40
0.4995608456981522
 40
0.5714513260138151
 40
0.6244231846128484
 40
0.6400285207735338
 40
0.6556410674207604
 40
0.6712858228836724
 40
0.686993755608949
 40
0.7026178942488358
 40
0.7105775473281548
 40
0.718255431202466
 40
0.7340632243040395
 40
0.7495994819893035
 40
0.7648668234377447
 40
0.780957641652713
 40
0.7960547817447975
 40
0.8123273902347736
 40
0.8415888540898088
 40
0.8750412885609201
 40
0.9047006620530342
 40
0.9374837757527906
 40
0.9572465590930722
 40
0.9780827831713667
 40
1.0
 40
1.0
 40
1.0
 40
1.0
 10
302.8974926269358
 20
453.4699967764168
 30
0.0
 10
302.8974926269358
 20
453.4707951165586
 30
0.0
 10
302.8974926269358
 20
453.4723771923639
 30
0.0
 10
302.8974926269358
 20
453.4854502776233
 30
0.0
 10
302.8974926269358
 20
453.506409778
 30
0.0
 10
302.8974926269358
 20
453.5359690371181
 30
0.0
 10
302.8974926269358
 20
453.5976449719924
 30
0.0
 10
302.8974926269358
 20
453.7133074260784
 30
0.0
 10
302.8974926269358
 20
453.9268258689074
 30
0.0
 10
302.8974926269358
 20
454.1768571431003
 30
0.0
 10
302.8974926269358
 20
454.4014849764791
 30
0.0
 10
302.8974926269358
 20
454.6076374763087
 30
0.0
 10
302.8974926269358
 20
454.7651301653676
 30
0.0
 10
302.8974926269358
 20
454.9975852258297
 30
0.0
 10
302.8974926269358
 20
455.3551596147206
 30
0.0
 10
302.8974926269358
 20
455.7812569520199
 30
0.0
 10
302.8974926269358
 20
456.2258464587047
 30
0.0
 10
302.8974926269358
 20
456.7497298975589
 30
0.0
 10
302.8974926269358
 20
457.5589079997156
 30
0.0
 10
302.8974926269358
 20
458.7810538541078
 30
0.0
 10
302.8974926269358
 20
460.2339467510109
 30
0.0
 10
302.8974926269358
 20
461.8397351999998
 30
0.0
 10
302.8974926269358
 20
463.5958076624181
 30
0.0
 10
302.8974926269358
 20
465.9377524529688
 30
0.0
 10
302.8974926269358
 20
469.1088981154299
 30
0.0
 10
302.8974926269358
 20
472.9005826359365
 30
0.0
 10
302.8974926269358
 20
476.8755280081687
 30
0.0
 10
302.8974926269358
 20
480.2991343991523
 30
0.0
 10
302.8974926269358
 20
483.3600731637999
 30
0.0
 10
302.8974926269358
 20
485.9696851459721
 30
0.0
 10
302.8974926269358
 20
487.7548473472685
 30
0.0
 10
302.8974926269358
 20
488.6699967764167
 30
0.0
  0
ARC
  5
11E
330
1F
100
AcDbEntity
  8
0
  6
Continuous
 62
     7
370
    15
100
AcDbCircle
 10
303.1974926269
 20
453.4699967764
 30
0.0
 40
0.3000000000000114
100
AcDbArc
 50
180.0
 51
270.0
  0
ARC
  5
11F
330
1F
100
AcDbEntity
  8
0
  6
Continuous
 62
     7
370
    15
100
AcDbCircle
 10
309.0974926269
 20
522.3699967764
 30
0.0
 40
1.799999999999997
100
AcDbArc
 50
7.9835561456
 51
90.0
  0
LINE
  5
120
330
1F
100
AcDbEntity
  8
0
  6
Continuous
 62
     7
370
    15
100
AcDbLine
 10
309.0974926411
 20
524.1699979387
 30
0.0
 11
303.1974926519
 21
524.1699979387
 31
0.0
  0
SPLINE
  5
121
330
1F
100
AcDbEntity
  8
0
  6
Continuous
 62
     7
370
    15
100
AcDbSpline
210
0.0
220
0.0
230
1.0
 70
    24
 71
     3
 72
    39
 73
    35
 74
     0
 42
0.000000001
 43
0.00000001
 40
0.0
 40
0.0
 40
0.0
 40
0.0
 40
0.009531192280197
 40
0.0188632618809566
 40
0.0279967305264383
 40
0.0369321547287807
 40
0.0456701288399153
 40
0.0542112884316305
 40
0.062556314045053
 40
0.0953461977296853
 40
0.125018335827641
 40
0.1584683131170025
 40
0.1877346704611177
 40
0.2040343971542492
 40
0.2191631314044718
 40
0.2352235789209644
 40
0.2504737195738981
 40
0.2660322647855699
 40
0.2818760117592504
 40
0.289574377381529
 40
0.2975803205501892
 40
0.313315038844165
 40
0.3289131512708649
 40
0.34447812320846
 40
0.3600528727660204
 40
0.375643963101025
 40
0.4088608335294238
 40
0.4504815696342869
 40
0.5005104151453151
 40
0.6134778065975062
 40
0.7502553502672172
 40
0.8308682024634462
 40
0.9141162641916379
 40
1.0
 40
1.0
 40
1.0
 40
1.0
 10
302.8974926269358
 20
488.6699967764167
 30
0.0
 10
302.8974926269358
 20
489.0679658520786
 30
0.0
 10
302.8974926269358
 20
489.8555897583061
 30
0.0
 10
302.8974926269358
 20
491.0245162842169
 30
0.0
 10
302.8974926269358
 20
492.1684413851993
 30
0.0
 10
302.8974926269358
 20
493.2873660458022
 30
0.0
 10
302.8974926269358
 20
494.3812883822534
 30
0.0
 10
302.8974926269358
 20
495.4502166079213
 30
0.0
 10
302.8974926269358
 20
497.5215361750955
 30
0.0
 10
302.8974926269358
 20
500.4704863049802
 30
0.0
 10
302.8974926269358
 20
504.4460838918366
 30
0.0
 10
302.8974926269358
 20
508.2382945349012
 30
0.0
 10
302.8974926269358
 20
511.4104445265855
 30
0.0
 10
302.8974926269358
 20
513.75448191653
 30
0.0
 10
302.8974926269358
 20
515.5110087639582
 30
0.0
 10
302.8974926269358
 20
517.115278337042
 30
0.0
 10
302.8974926269358
 20
518.5663550832722
 30
0.0
 10
302.8974926269358
 20
519.788243280054
 30
0.0
 10
302.8974926269358
 20
520.5975419809972
 30
0.0
 10
302.8974926269358
 20
521.1215308087527
 30
0.0
 10
302.8974926269358
 20
521.566723056447
 30
0.0
 10
302.8974926269358
 20
521.9916416895771
 30
0.0
 10
302.8974926269358
 20
522.3446645967392
 30
0.0
 10
302.8974926269358
 20
522.5767384042911
 30
0.0
 10
302.8974926269358
 20
522.7329277473406
 30
0.0
 10
302.8974926269358
 20
522.8908305108864
 30
0.0
 10
302.8974926269358
 20
523.0554043560327
 30
0.0
 10
302.8974926269358
 20
523.2219708318961
 30
0.0
 10
302.8974926269358
 20
523.4279779345012
 30
0.0
 10
302.8974926269358
 20
523.6266621183179
 30
0.0
 10
302.8974926269358
 20
523.7551721050384
 30
0.0
 10
302.8974926269358
 20
523.8274221267335
 30
0.0
 10
302.8974926269358
 20
523.8635007577655
 30
0.0
 10
302.8974926269358
 20
523.8678090573302
 30
0.0
 10
302.8974926269358
 20
523.8699967764168
 30
0.0
  0
ARC
  5
122
330
1F
100
AcDbEntity
  8
0
  6
Continuous
 62
     7
370
    15
100
AcDbCircle
 10
303.1974926269
 20
523.8699967764
 30
0.0
 40
0.3000000000000114
100
AcDbArc
 50
90.0
 51
180.0
  0
SPLINE
  5
123
330
1F
100
AcDbEntity
  8
0
  6
Continuous
 62
     7
370
    15
100
AcDbSpline
210
0.0
220
0.0
230
1.0
 70
     8
 71
     3
 72
    17
 73
    13
 74
     0
 42
0.000000001
 43
0.00000001
 40
0.0
 40
0.0
 40
0.0
 40
0.0
 40
0.1056093709120217
 40
0.2142701211126808
 40
0.3201799793733926
 40
0.4291643862528963
 40
0.5349026435855821
 40
0.6436895590260611
 40
0.7495825652108915
 40
0.8585538054862805
 40
0.9643217959409448
 40
1.0
 40
1.0
 40
1.0
 40
1.0
 10
312.6933100095695
 20
488.6699970194128
 30
0.0
 10
312.6933112989916
 20
489.9531191109448
 30
0.0
 10
312.6933139150912
 20
492.556436634576
 30
0.0
 10
312.6890204700189
 20
496.3385290232611
 30
0.0
 10
312.6601293903514
 20
499.9405257962634
 30
0.0
 10
312.5876812959666
 20
503.1929115078253
 30
0.0
 10
312.4699554688327
 20
506.0605185319569
 30
0.0
 10
312.3315389210626
 20
508.4092243226671
 30
0.0
 10
312.2002450202552
 20
510.2319513398214
 30
0.0
 10
312.1100209981136
 20
511.3828435317447
 30
0.0
 10
312.0680847429415
 20
511.9155286683851
 30
0.0
 10
312.0789866651731
 20
511.8340357659342
 30
0.0
 10
312.0817365518516
 20
511.8134801022558
 30
0.0
  0
LINE
  5
124
330
1F
100
AcDbEntity
  8
0
  6
Continuous
 62
     7
370
    15
100
AcDbLine
 10
312.0941436312
 20
511.736891859
 30
0.0
 11
312.1504681579
 21
511.1699976705
 31
0.0
  0
LINE
  5
125
330
1F
100
AcDbEntity
  8
0
  6
Continuous
 62
     7
370
    15
100
AcDbLine
 10
312.1501878298
 20
466.1699958823
 30
0.0
 11
312.0938642344
 21
465.6022951685
 31
0.0
  0
SPLINE
  5
126
330
1F
100
AcDbEntity
  8
0
  6
Continuous
 62
     7
370
    15
100
AcDbSpline
210
0.0
220
0.0
230
1.0
 70
     8
 71
     3
 72
    17
 73
    13
 74
     0
 42
0.000000001
 43
0.00000001
 40
0.0
 40
0.0
 40
0.0
 40
0.0
 40
0.0325896041673382
 40
0.1412790854135575
 40
0.2467328765921776
 40
0.35523127098825
 40
0.4610689576249374
 40
0.5699630600983955
 40
0.6759363329320403
 40
0.784989551603084
 40
0.8909537172908214
 40
1.0
 40
1.0
 40
1.0
 40
1.0
 10
312.0809095374053
 20
465.5198787085562
 30
0.0
 10
312.0783712774806
 20
465.5008719987476
 30
0.0
 10
312.0673676752626
 20
465.4184760738176
 30
0.0
 10
312.1082846080003
 20
465.9387561348427
 30
0.0
 10
312.1980994022401
 20
467.0857596153454
 30
0.0
 10
312.3274275415636
 20
468.8746798615586
 30
0.0
 10
312.4669765079201
 20
471.2304969506258
 30
0.0
 10
312.5846548167526
 20
474.0640184949726
 30
0.0
 10
312.6589610477232
 20
477.3401896886325
 30
0.0
 10
312.6884498721975
 20
480.9091473446455
 30
0.0
 10
312.6932885379695
 20
484.7324462984949
 30
0.0
 10
312.6933027842971
 20
487.3449967096541
 30
0.0
 10
312.6933100095695
 20
488.6699970194128
 30
0.0
  0
SPLINE
  5
127
330
1F
100
AcDbEntity
  8
0
  6
Continuous
 62
     7
370
    15
100
AcDbSpline
210
0.0
220
0.0
230
1.0
 70
     8
 71
     3
 72
    10
 73
     6
 74
     0
 42
0.000000001
 43
0.00000001
 40
0.0
 40
0.0
 40
0.0
 40
0.0
 40
0.5
 40
0.5
 40
1.0
 40
1.0
 40
1.0
 40
1.0
 10
338.1260958481947
 20
511.1101738054622
 30
0.0
 10
338.3547292989472
 20
511.1079850343738
 30
0.0
 10
338.5824205195367
 20
511.044112808219
 30
0.0
 10
338.97512151441
 20
510.8102186707998
 30
0.0
 10
339.1396337934557
 20
510.640498943157
 30
0.0
 10
339.2504055234559
 20
510.4407152770759
 30
0.0
  0
SPLINE
  5
128
330
1F
100
AcDbEntity
  8
0
  6
Continuous
 62
     7
370
     0
100
AcDbSpline
210
0.0
220
0.0
230
1.0
 70
    24
 71
     3
 72
    11
 73
     7
 74
     0
 42
0.000000001
 43
0.00000001
 40
0.5368636735614428
 40
0.5368636735614428
 40
0.5368636735614428
 40
0.5368636735614428
 40
0.6526477551766044
 40
0.7684318367917663
 40
0.8842159184069281
 40
1.0
 40
1.0
 40
1.0
 40
1.0
 10
325.8974926269358
 20
511.1699967764168
 30
0.0
 10
325.8974926269358
 20
511.1699967764168
 30
0.0
 10
325.8974926269358
 20
510.1096577020495
 30
0.0
 10
325.8974926269358
 20
505.5722997293864
 30
0.0
 10
325.8974926269358
 20
498.7707716923227
 30
0.0
 10
325.8974926269358
 20
493.3872958561342
 30
0.0
 10
325.8974926269358
 20
490.6699967745809
 30
0.0
  0
SPLINE
  5
129
330
1F
100
AcDbEntity
  8
0
  6
Continuous
 62
     7
370
    15
100
AcDbSpline
210
0.0
220
0.0
230
1.0
 70
     8
 71
     3
 72
    19
 73
    15
 74
     0
 42
0.000000001
 43
0.00000001
 40
0.892820377882933
 40
0.892820377882933
 40
0.892820377882933
 40
0.892820377882933
 40
0.9130742385442762
 40
0.9265768123185049
 40
0.9333280992056192
 40
0.9400793860927336
 40
0.9468306729798479
 40
0.9468306729798479
 40
0.9543203506497129
 40
0.9618100283195777
 40
0.9692997059894427
 40
0.9842790613291726
 40
0.9992584166689025
 40
1.0
 40
1.0
 40
1.0
 40
1.0
 10
325.8974926269358
 20
511.1699967764168
 30
0.0
 10
326.6679277831726
 20
511.1699967782528
 30
0.0
 10
327.951983182007
 20
511.1687661216372
 30
0.0
 10
329.4928434002389
 20
511.1648778715626
 30
0.0
 10
330.5200810760905
 20
511.1613344136173
 30
0.0
 10
331.2905081067889
 20
511.1582044979502
 30
0.0
 10
331.8041253155463
 20
511.1558052216376
 30
0.0
 10
332.3458293528113
 20
511.1531110268019
 30
0.0
 10
332.9152737747571
 20
511.1500861025971
 30
0.0
 10
333.7687895237558
 20
511.1449801458191
 30
0.0
 10
334.906462219189
 20
511.137420159439
 30
0.0
 10
336.3288741611607
 20
511.1265714376045
 30
0.0
 10
337.4974520335992
 20
511.1161735037277
 30
0.0
 10
338.097093627892
 20
511.110451437188
 30
0.0
 10
338.1253825581819
 20
511.1101806338028
 30
0.0
  0
SPLINE
  5
12A
330
1F
100
AcDbEntity
  8
0
  6
Continuous
 62
     7
370
    15
100
AcDbSpline
210
0.0
220
0.0
230
1.0
 70
     8
 71
     3
 72
     8
 73
     4
 74
     0
 42
0.000000001
 43
0.00000001
 40
0.0
 40
0.0
 40
0.0
 40
0.0
 40
1.0
 40
1.0
 40
1.0
 40
1.0
 10
528.1555699366992
 20
469.1370907205596
 30
0.0
 10
528.2027284113974
 20
469.1700904085213
 30
0.0
 10
528.249823566586
 20
469.2036747474156
 30
0.0
 10
528.2968591210545
 20
469.2378411065492
 30
0.0
  0
SPLINE
  5
12B
330
1F
100
AcDbEntity
  8
0
  6
Continuous
 62
     7
370
    15
100
AcDbSpline
210
0.0
220
0.0
230
1.0
 70
     8
 71
     3
 72
     9
 73
     5
 74
     0
 42
0.000000001
 43
0.00000001
 40
0.0
 40
0.0
 40
0.0
 40
0.0
 40
0.9258939420288753
 40
0.9999999999999999
 40
0.9999999999999999
 40
0.9999999999999999
 40
0.9999999999999999
 10
526.2502506769007
 20
467.8506773643045
 30
0.0
 10
526.2637409749684
 20
467.8717825290027
 30
0.0
 10
526.2783110001683
 20
467.8945768942535
 30
0.0
 10
526.7542673526207
 20
468.2093477892519
 30
0.0
 10
526.7895386016672
 20
468.2326742194443
 30
0.0
  0
LINE
  5
12C
330
1F
100
AcDbEntity
  8
0
  6
Continuous
 62
     7
370
    15
100
AcDbLine
 10
527.4240151441
 20
468.6527305029
 30
0.0
 11
528.1555727518
 21
469.1370648078
 31
0.0
  0
SPLINE
  5
12D
330
1F
100
AcDbEntity
  8
0
  6
Continuous
 62
     7
370
    15
100
AcDbSpline
210
0.0
220
0.0
230
1.0
 70
     8
 71
     3
 72
    35
 73
    31
 74
     0
 42
0.000000001
 43
0.00000001
 40
0.1649873960588578
 40
0.1649873960588578
 40
0.1649873960588578
 40
0.1649873960588578
 40
0.6893129900921052
 40
0.6893129900921052
 40
0.7139079017736127
 40
0.7385028134551203
 40
0.7876926368181354
 40
0.8040892446058071
 40
0.8122875484996429
 40
0.8286841562873146
 40
0.8368824601811504
 40
0.8446138080638372
 40
0.8523451559465242
 40
0.8600765038292111
 40
0.8678078517118979
 40
0.8678078517118979
 40
0.8769400676280317
 40
0.8860722835441656
 40
0.8935619612140305
 40
0.9085413165537604
 40
0.9235206718934903
 40
0.9310103495633553
 40
0.9385000272332201
 40
0.9459897049030851
 40
0.9459897049030851
 40
0.9527409917901994
 40
0.9594922786773138
 40
0.9662435655644281
 40
0.9797461393386568
 40
1.0
 40
1.0
 40
1.0
 40
1.0
 10
526.1875479148939
 20
467.8055747844326
 30
0.0
 10
484.1218288509111
 20
467.4195336236708
 30
0.0
 10
442.056109739148
 20
467.0334924606837
 30
0.0
 10
398.0171839639585
 20
466.6293429819471
 30
0.0
 10
394.0707710354781
 20
466.5931263690007
 30
0.0
 10
386.1779453825128
 20
466.5206931526085
 30
0.0
 10
378.9428540834842
 20
466.4542959855552
 30
0.0
 10
373.0232362651403
 20
466.3999711394569
 30
0.0
 10
369.7345563148415
 20
466.3697905117784
 30
0.0
 10
367.1036278219846
 20
466.3456467299755
 30
0.0
 10
364.5101177892953
 20
466.3218446732621
 30
0.0
 10
362.6119265047631
 20
466.3044281187808
 30
0.0
 10
360.7507791749172
 20
466.2873358480945
 30
0.0
 10
358.8911947976542
 20
466.2703163665071
 30
0.0
 10
357.6496775336363
 20
466.258886480011
 30
0.0
 10
356.2967435047179
 20
466.2464704738605
 30
0.0
 10
354.8501269567812
 20
466.2338942909019
 30
0.0
 10
352.8509670342015
 20
466.2185727441633
 30
0.0
 10
350.4286448901764
 20
466.2023586255772
 30
0.0
 10
347.5908658142405
 20
466.1872847613787
 30
0.0
 10
344.7477608011268
 20
466.1774510259723
 30
0.0
 10
342.4407410636531
 20
466.1726256973139
 30
0.0
 10
340.6884299821809
 20
466.1704374464111
 30
0.0
 10
339.4984015803957
 20
466.1699967764168
 30
0.0
 10
338.3558259602692
 20
466.1699967764168
 30
0.0
 10
337.2717731625421
 20
466.170023668671
 30
0.0
 10
335.6476808979922
 20
466.1699897391914
 30
0.0
 10
333.4807183768085
 20
466.1700007976884
 30
0.0
 10
330.2308797519996
 20
466.1699947657809
 30
0.0
 10
327.5225127988347
 20
466.1699960224284
 30
0.0
 10
325.8974926269358
 20
466.1699967764168
 30
0.0
  0
SPLINE
  5
12E
330
1F
100
AcDbEntity
  8
0
  6
Continuous
 62
     7
370
    15
100
AcDbSpline
210
0.0
220
0.0
230
1.0
 70
     8
 71
     3
 72
     9
 73
     5
 74
     0
 42
0.000000001
 43
0.00000001
 40
0.0
 40
0.0
 40
0.0
 40
0.0
 40
0.5362810938455188
 40
1.0
 40
1.0
 40
1.0
 40
1.0
 10
339.2504044270819
 20
510.4407143525629
 30
0.0
 10
339.5831049833193
 20
509.852009264255
 30
0.0
 10
340.2034896287144
 20
508.7542545698158
 30
0.0
 10
340.9448582252011
 20
507.7345419962308
 30
0.0
 10
341.2886448598211
 20
507.261681997016
 30
0.0
  0
SPLINE
  5
12F
330
1F
100
AcDbEntity
  8
0
  6
Continuous
 62
     7
370
    15
100
AcDbSpline
210
0.0
220
0.0
230
1.0
 70
     8
 71
     3
 72
    13
 73
     9
 74
     0
 42
0.000000001
 43
0.00000001
 40
0.0
 40
0.0
 40
0.0
 40
0.0
 40
0.0013654374867962
 40
0.1282863680043839
 40
0.1726169278329319
 40
0.3438955983842976
 40
0.673919492427598
 40
1.0
 40
1.0
 40
1.0
 40
1.0
 10
385.5498209989374
 20
492.6768920130878
 30
0.0
 10
385.6295768863924
 20
492.6753450879972
 30
0.0
 10
393.1228478911116
 20
492.5300074922737
 30
0.0
 10
403.208849498104
 20
492.6330512111336
 30
0.0
 10
423.2195320389159
 20
492.5409829408163
 30
0.0
 10
455.0962331326136
 20
492.4474708298793
 30
0.0
 10
503.4327232376562
 20
492.2700398628698
 30
0.0
 10
541.7630747138486
 20
492.1386398239929
 30
0.0
 10
560.8130619323557
 20
492.0733346816002
 30
0.0
  0
ARC
  5
130
330
1F
100
AcDbEntity
  8
0
  6
Continuous
 62
     7
370
    15
100
AcDbCircle
 10
560.8085118845
 20
490.7733412097
 30
0.0
 40
1.300001434625059
100
AcDbArc
 50
346.6932861297
 51
89.7994624742
  0
SPLINE
  5
131
330
1F
100
AcDbEntity
  8
0
  6
Continuous
 62
     7
370
    15
100
AcDbSpline
210
0.0
220
0.0
230
1.0
 70
     8
 71
     3
 72
    46
 73
    42
 74
     0
 42
0.000000001
 43
0.00000001
 40
0.0
 40
0.0
 40
0.0
 40
0.0
 40
0.0085457586012212
 40
0.0172885628871211
 40
0.0262373786437083
 40
0.0354005669524031
 40
0.0447859159754794
 40
0.0544006740189703
 40
0.0642515829966015
 40
0.0743449116086645
 40
0.0846864877169861
 40
0.0952817295394526
 40
0.1061356754052871
 40
0.1172530119073085
 40
0.1286381003622392
 40
0.1600446084315935
 40
0.1894663192173724
 40
0.2042310592886553
 40
0.2182285247903095
 40
0.2334998327495549
 40
0.2466580923629704
 40
0.2746500577348467
 40
0.3030957292920651
 40
0.3313586562443475
 40
0.3620681057576224
 40
0.4110375966007561
 40
0.4484055935056239
 40
0.4863423638996766
 40
0.54957746722725
 40
0.6133288486293028
 40
0.6789843073233988
 40
0.7416495009556413
 40
0.807259870153549
 40
0.8706902739989918
 40
0.8892748524522228
 40
0.9077291748931379
 40
0.9261086694133682
 40
0.9444694422946914
 40
0.9628677715488103
 40
0.9813595926984189
 40
1.0
 40
1.0
 40
1.0
 40
1.0
 10
549.9545132110579
 20
472.9032710106552
 30
0.0
 10
549.9473856779051
 20
472.9047293965258
 30
0.0
 10
549.9329662669563
 20
472.9076797953158
 30
0.0
 10
549.8988680257386
 20
472.9146192851414
 30
0.0
 10
549.8554470190204
 20
472.9233964784627
 30
0.0
 10
549.8017555022591
 20
472.934157789546
 30
0.0
 10
549.7380446413582
 20
472.946794806822
 30
0.0
 10
549.6642302753019
 20
472.9612566717183
 30
0.0
 10
549.5803188725589
 20
472.9774633527708
 30
0.0
 10
549.486289633438
 20
472.9953296645559
 30
0.0
 10
549.3821266859754
 20
473.0147586728102
 30
0.0
 10
549.2678133315704
 20
473.035643041255
 30
0.0
 10
549.1433224473114
 20
473.0578663360909
 30
0.0
 10
549.0086637320131
 20
473.0812959583991
 30
0.0
 10
548.7798867209281
 20
473.1199843888767
 30
0.0
 10
548.4488247708199
 20
473.1728954439006
 30
0.0
 10
548.0601976811887
 20
473.2290650933749
 30
0.0
 10
547.732657967571
 20
473.2722421897556
 30
0.0
 10
547.4677273895513
 20
473.3048882346675
 30
0.0
 10
547.1949966286218
 20
473.335975056124
 30
0.0
 10
546.8017289912789
 20
473.3770078316571
 30
0.0
 10
546.2330743947579
 20
473.4280742789473
 30
0.0
 10
545.427786686548
 20
473.4798368981229
 30
0.0
 10
544.5183763852805
 20
473.5120960113111
 30
0.0
 10
543.3406808180206
 20
473.5165921930166
 30
0.0
 10
542.0231475794079
 20
473.4634290076825
 30
0.0
 10
540.61842035721
 20
473.337256691653
 30
0.0
 10
539.0599462623907
 20
473.1298073417987
 30
0.0
 10
537.2315317254356
 20
472.7783368597586
 30
0.0
 10
535.1703833496346
 20
472.227359199772
 30
0.0
 10
533.2264183858414
 20
471.5567896896822
 30
0.0
 10
531.4233961143959
 20
470.7959189073148
 30
0.0
 10
529.8454811504411
 20
470.009982458301
 30
0.0
 10
528.8324091334878
 20
469.4327114672817
 30
0.0
 10
528.2451539604574
 20
469.076712365666
 30
0.0
 10
527.9472479507114
 20
468.8911123715974
 30
0.0
 10
527.6773006862883
 20
468.7187038296254
 30
0.0
 10
527.4346163436369
 20
468.5602097184731
 30
0.0
 10
527.2193959079563
 20
468.4168144991478
 30
0.0
 10
527.0287827049108
 20
468.2876245540679
 30
0.0
 10
526.9244948136571
 20
468.2156556505896
 30
0.0
 10
526.8721422118693
 20
468.1795272055745
 30
0.0
  0
SPLINE
  5
132
330
1F
100
AcDbEntity
  8
0
  6
Continuous
 62
     7
370
    15
100
AcDbSpline
210
0.0
220
0.0
230
1.0
 70
     8
 71
     3
 72
    17
 73
    13
 74
     0
 42
0.000000001
 43
0.00000001
 40
0.0
 40
0.0
 40
0.0
 40
0.0
 40
0.0832971637390773
 40
0.1666737545621124
 40
0.2499286791477254
 40
0.3329409125311416
 40
0.4158246201417427
 40
0.4986528050827687
 40
0.6373135145800773
 40
0.7670337436384848
 40
0.887923797209727
 40
1.0
 40
1.0
 40
1.0
 40
1.0
 10
526.8721422118693
 20
468.1795272055745
 30
0.0
 10
526.8933999645097
 20
468.1943809309076
 30
0.0
 10
526.9359357398838
 20
468.2241025451785
 30
0.0
 10
527.009258166389
 20
468.2769565253553
 30
0.0
 10
527.0893878939273
 20
468.3356713381049
 30
0.0
 10
527.176910176924
 20
468.4007067016342
 30
0.0
 10
527.2717129968057
 20
468.4718165777808
 30
0.0
 10
527.3967805616392
 20
468.5663529944235
 30
0.0
 10
527.555405940795
 20
468.6869336945273
 30
0.0
 10
527.7510836357244
 20
468.8352067623587
 30
0.0
 10
527.9488923869183
 20
468.9842128343447
 30
0.0
 10
528.0884327909738
 20
469.0875465860174
 30
0.0
 10
528.1555633654469
 20
469.1372587404231
 30
0.0
  0
LWPOLYLINE
  5
133
330
1F
100
AcDbEntity
  8
0
  6
Continuous
 62
     7
370
    15
100
AcDbPolyline
 90
        8
 70
   128
 43
0.0
 10
550.7885739601
 20
468.5350448571
 10
550.7415905989
 20
468.5267598115
 10
550.3679290808
 20
468.4608724646
 10
549.6324524677
 20
468.3311895214
 10
548.5585257805
 20
468.1418274276
 10
547.1802428758
 20
467.8987969391
 10
545.5413386619
 20
467.6098149948
 10
543.6938628948
 20
467.284055122
  0
LINE
  5
134
330
1F
100
AcDbEntity
  8
0
  6
Continuous
 62
     7
370
    15
100
AcDbLine
 10
543.6938628948
 20
467.284055122
 30
0.0
 11
543.0995151794
 21
470.6547070972
 31
0.0
  0
LWPOLYLINE
  5
135
330
1F
100
AcDbEntity
  8
0
  6
Continuous
 62
     7
370
    15
100
AcDbPolyline
 90
        9
 70
   128
 43
0.0
 10
533.6535796917
 20
468.9891316674
 10
534.790001849
 20
469.18951317
 10
535.9642729557
 20
469.3965703927
 10
537.1640101469
 20
469.6081165902
 10
538.3765474356
 20
469.821918451
 10
539.5890847242
 20
470.0357221745
 10
540.7888219154
 20
470.247268372
 10
541.9631079233
 20
470.4543255947
 10
543.0995151794
 20
470.6547070972
  0
LINE
  5
136
330
1F
100
AcDbEntity
  8
0
  6
Continuous
 62
     7
370
    15
100
AcDbLine
 10
533.6535796917
 20
468.9891316674
 30
0.0
 11
534.2479125059
 21
465.6184796922
 31
0.0
  0
LWPOLYLINE
  5
137
330
1F
100
AcDbEntity
  8
0
  6
Continuous
 62
     7
370
    15
100
AcDbPolyline
 90
        8
 70
   128
 43
0.0
 10
534.2479125059
 20
465.6184796922
 10
532.4004367388
 20
465.2927198194
 10
530.7615325249
 20
465.0037360124
 10
529.3832496202
 20
464.7607073866
 10
528.309322933
 20
464.5713452928
 10
527.5738463199
 20
464.4416623495
 10
527.2001848018
 20
464.3757750027
 10
527.1531865394
 20
464.367489957
  0
LWPOLYLINE
  5
138
330
1F
100
AcDbEntity
  8
0
  6
Continuous
 62
     7
370
    15
100
AcDbPolyline
 90
       10
 70
   128
 43
0.0
 10
539.0711352623
 20
465.882688456
 10
537.0806083477
 20
465.53170278
 10
535.1578519142
 20
465.1926696978
 10
533.3683565653
 20
464.8771338843
 10
531.7730680502
 20
464.5958428018
 10
530.4263160026
 20
464.358372309
 10
529.3739363945
 20
464.1728100113
 10
528.6517963207
 20
464.0454758637
 10
528.2844677961
 20
463.9807061039
 10
528.2382592953
 20
463.972558894
  0
SPLINE
  5
139
330
1F
100
AcDbEntity
  8
0
  6
Continuous
 62
     7
370
    15
100
AcDbSpline
210
0.0
220
0.0
230
1.0
 70
     8
 71
     3
 72
     8
 73
     4
 74
     0
 42
0.000000001
 43
0.00000001
 40
0.0
 40
0.0
 40
0.0
 40
0.0
 40
1.0
 40
1.0
 40
1.0
 40
1.0
 10
534.2479129161837
 20
465.6184798511265
 30
0.0
 10
535.8680218173477
 20
465.5337719528363
 30
0.0
 10
537.4772106648636
 20
465.6016353452453
 30
0.0
 10
539.0711408046028
 20
465.8826882342457
 30
0.0
  0
SPLINE
  5
13A
330
1F
100
AcDbEntity
  8
0
  6
Continuous
 62
     7
370
    15
100
AcDbSpline
210
0.0
220
0.0
230
1.0
 70
     8
 71
     3
 72
    10
 73
     6
 74
     0
 42
0.000000001
 43
0.00000001
 40
0.0
 40
0.0
 40
0.0
 40
0.0
 40
0.5
 40
0.5
 40
1.0
 40
1.0
 40
1.0
 40
1.0
 10
539.0711408046028
 20
465.8826882342457
 30
0.0
 10
539.8662498177264
 20
466.0228874058639
 30
0.0
 10
540.6614793399524
 20
466.2168885084623
 30
0.0
 10
542.2040542832584
 20
466.6910070911186
 30
0.0
 10
542.9562600025457
 20
466.9710696004109
 30
0.0
 10
543.6938570487813
 20
467.2840546599681
 30
0.0
  0
LWPOLYLINE
  5
13B
330
1F
100
AcDbEntity
  8
0
  6
Continuous
 62
     7
370
    15
100
AcDbPolyline
 90
       10
 70
   128
 43
0.0
 10
549.9040261305
 20
467.792818018
 10
549.8578176296
 20
467.7846708082
 10
549.490489105
 20
467.7199010484
 10
548.7683490312
 20
467.5925669007
 10
547.7159694231
 20
467.407004603
 10
546.3692024744
 20
467.1695341103
 10
544.7739139593
 20
466.8882411651
 10
542.9844335115
 20
466.5727072142
 10
541.061677078
 20
466.2336741321
 10
539.0711352623
 20
465.882688456
  0
LWPOLYLINE
  5
13C
330
1F
100
AcDbEntity
  8
0
  6
Continuous
 62
     7
370
    15
100
AcDbPolyline
 90
        9
 70
   128
 43
0.0
 10
539.105869869
 20
465.68572677
 10
537.3479202783
 20
465.3757509522
 10
535.6575176513
 20
465.0776886128
 10
534.0996310509
 20
464.8029912941
 10
532.7341333425
 20
464.5622183315
 10
531.6135064161
 20
464.3646214835
 10
530.7807997263
 20
464.2177928917
 10
530.2680209673
 20
464.1273763709
 10
530.0948843754
 20
464.0968457542
  0
LWPOLYLINE
  5
13D
330
1F
100
AcDbEntity
  8
0
  6
Continuous
 62
     7
370
    15
100
AcDbPolyline
 90
        9
 70
   128
 43
0.0
 10
548.1168553627
 20
467.2746077858
 10
547.9437187708
 20
467.2440771691
 10
547.4309400118
 20
467.1536606483
 10
546.5982333219
 20
467.0068320565
 10
545.4776063955
 20
466.8092352085
 10
544.1121086872
 20
466.5684622459
 10
542.5542220867
 20
466.2937649272
 10
540.8638343609
 20
465.9957025878
 10
539.105869869
 20
465.68572677
  0
ARC
  5
13E
330
1F
100
AcDbEntity
  8
0
  6
Continuous
 62
     7
370
    15
100
AcDbCircle
 10
526.1829595599
 20
468.305553731
 30
0.0
 40
0.5000000000000927
100
AcDbArc
 50
270.525794134
 51
305.6341051917
  0
SPLINE
  5
13F
330
1F
100
AcDbEntity
  8
0
  6
Continuous
 62
     7
370
    15
100
AcDbSpline
210
0.0
220
0.0
230
1.0
 70
     8
 71
     3
 72
     9
 73
     5
 74
     0
 42
0.000000001
 43
0.00000001
 40
0.0
 40
0.0
 40
0.0
 40
0.0
 40
0.0000221639841916
 40
1.0
 40
1.0
 40
1.0
 40
1.0
 10
560.8130619323557
 20
492.0733346816002
 30
0.0
 10
560.8130619323621
 20
492.0733346816027
 30
0.0
 10
560.8130622188136
 20
492.0733347895084
 30
0.0
 10
560.7743484297771
 20
492.0587292238345
 30
0.0
 10
560.7356354987925
 20
492.044123981878
 30
0.0
  0
LWPOLYLINE
  5
140
330
1F
100
AcDbEntity
  8
0
  6
Continuous
 62
     7
370
    15
100
AcDbPolyline
 90
        4
 70
   128
 43
0.0
 10
331.4149119354
 20
464.9461318485
 10
331.456119234
 20
465.1227329604
 10
331.5790929294
 20
465.6497535042
 10
331.6951711124
 20
466.147226908
  0
LWPOLYLINE
  5
141
330
1F
100
AcDbEntity
  8
0
  6
Continuous
 62
     7
370
    15
100
AcDbPolyline
 90
        5
 70
   128
 43
0.0
 10
341.3236327863
 20
507.4116212062
 10
341.4996713794
 20
508.1660744481
 10
341.7024724579
 20
509.0352014385
 10
341.8254442907
 20
509.5622219823
 10
341.8666534519
 20
509.7388249568
  0
ARC
  5
142
330
1F
100
AcDbEntity
  8
0
  6
Continuous
 62
     7
370
    15
100
AcDbCircle
 10
357.9304719503
 20
504.5091429891
 30
0.0
 40
1.400000000000054
100
AcDbArc
 50
23.8197983656
 51
111.671664185
  0
SPLINE
  5
143
330
1F
100
AcDbEntity
  8
0
  6
Continuous
 62
     7
370
    15
100
AcDbSpline
210
0.0
220
0.0
230
1.0
 70
     8
 71
     3
 72
    12
 73
     8
 74
     0
 42
0.000000001
 43
0.00000001
 40
0.0
 40
0.0
 40
0.0
 40
0.0
 40
0.2500000000000037
 40
0.2500000000000037
 40
0.5000000000000074
 40
0.5000000000000074
 40
1.0
 40
1.0
 40
1.0
 40
1.0
 10
378.428460701905
 20
399.3761188230936
 30
0.0
 10
378.4131553859138
 20
399.2028955873524
 30
0.0
 10
378.3663763750908
 20
399.0362666239474
 30
0.0
 10
378.2135224260201
 20
398.7257607619163
 30
0.0
 10
378.109007679094
 20
398.5861866540657
 30
0.0
 10
377.7285776256609
 20
398.2359011879278
 30
0.0
 10
377.3890153995612
 20
398.1011774573074
 30
0.0
 10
377.0412240078384
 20
398.0993564091968
 30
0.0
  0
SPLINE
  5
144
330
1F
100
AcDbEntity
  8
0
  6
Continuous
 62
     7
370
    15
100
AcDbSpline
210
0.0
220
0.0
230
1.0
 70
     8
 71
     3
 72
    36
 73
    32
 74
     0
 42
0.000000001
 43
0.00000001
 40
0.3263893184623795
 40
0.3263893184623795
 40
0.3263893184623795
 40
0.3263893184623795
 40
0.3353815202101044
 40
0.3747975431955106
 40
0.375
 40
0.4057753405342413
 40
0.4326064606567435
 40
0.4536904553121331
 40
0.4769531651772052
 40
0.4952294512815819
 40
0.5
 40
0.5144770595495093
 40
0.5295967959261346
 40
0.5468823310713626
 40
0.5604601793980922
 40
0.6073137111541508
 40
0.625
 40
0.6440958461729963
 40
0.6576721120961124
 40
0.6683364856808596
 40
0.7208206190357934
 40
0.75
 40
0.762071786177911
 40
0.7962145524500887
 40
0.8231075610513068
 40
0.875
 40
0.8904516614060828
 40
0.9441411256803024
 40
0.9751799444697651
 40
0.9875312344303273
 40
1.0
 40
1.0
 40
1.0
 40
1.0
 10
361.0437335998581
 20
460.3602868328297
 30
0.0
 10
361.0796938308752
 20
460.1099633125426
 30
0.0
 10
361.2680015694192
 20
458.7603574532912
 30
0.0
 10
361.43079865564
 20
457.3963700221922
 30
0.0
 10
361.6470130004275
 20
455.4222904974204
 30
0.0
 10
361.812067874627
 20
453.8018975199922
 30
0.0
 10
362.0090419952044
 20
451.5976837573227
 30
0.0
 10
362.1689624227441
 20
449.6047411444264
 30
0.0
 10
362.2964616721476
 20
447.8518231110472
 30
0.0
 10
362.3828713760314
 20
446.5557451429054
 30
0.0
 10
362.4497950122352
 20
445.5055937989643
 30
0.0
 10
362.5088127106177
 20
444.5438030854245
 30
0.0
 10
362.5855813278891
 20
443.2317821152061
 30
0.0
 10
362.6580204333189
 20
441.9448970745537
 30
0.0
 10
362.7779865928385
 20
439.7697914273072
 30
0.0
 10
362.8970208414213
 20
437.5831281959931
 30
0.0
 10
363.0357107543279
 20
435.2411811556469
 30
0.0
 10
363.1247644043912
 20
433.8307174485704
 30
0.0
 10
363.2080795422191
 20
432.6172118638852
 30
0.0
 10
363.3666357074474
 20
430.4696515861835
 30
0.0
 10
363.5976912790236
 20
427.8893693202937
 30
0.0
 10
363.9213683330103
 20
425.2831101058422
 30
0.0
 10
364.2260995346023
 20
423.1940749802965
 30
0.0
 10
364.5710910156453
 20
421.1755646511739
 30
0.0
 10
365.2123665957995
 20
418.0681658876243
 30
0.0
 10
365.8705031310137
 20
415.4830112570199
 30
0.0
 10
366.8640901346851
 20
412.1641560113252
 30
0.0
 10
367.8265175969635
 20
409.4302448498889
 30
0.0
 10
368.9832192758294
 20
406.8457684473696
 30
0.0
 10
369.724640214425
 20
405.3861708029015
 30
0.0
 10
370.0743569579354
 20
404.7454563204166
 30
0.0
 10
370.2554139965431
 20
404.4257765443448
 30
0.0
  0
SPLINE
  5
145
330
1F
100
AcDbEntity
  8
0
  6
Continuous
 62
     7
370
    15
100
AcDbSpline
210
0.0
220
0.0
230
1.0
 70
     8
 71
     3
 72
    15
 73
    11
 74
     0
 42
0.000000001
 43
0.00000001
 40
0.0622547595065104
 40
0.0622547595065104
 40
0.0622547595065104
 40
0.0622547595065104
 40
0.0687156696329354
 40
0.0687156696329354
 40
0.1167395001017629
 40
0.1407514153361767
 40
0.1647633305705905
 40
0.1887752458050042
 40
0.212787161039418
 40
0.2608109982492181
 40
0.2608109982492181
 40
0.2608109982492181
 40
0.2608109982492181
 10
357.4134698612067
 20
505.81018443337
 30
0.0
 10
357.3656343335598
 20
505.7911757631725
 30
0.0
 10
357.3168920937476
 20
505.7718067877088
 30
0.0
 10
356.8966310669269
 20
505.6048053214619
 30
0.0
 10
356.3273178889239
 20
505.2938561515139
 30
0.0
 10
355.6735805328834
 20
504.6680136997379
 30
0.0
 10
355.2677125108874
 20
504.1288466181915
 30
0.0
 10
354.9475577042703
 20
503.5560352248513
 30
0.0
 10
354.6205916797157
 20
502.795795499407
 30
0.0
 10
354.4566148882179
 20
502.2635078731938
 30
0.0
 10
354.3638813258992
 20
501.9337257130691
 30
0.0
  0
SPLINE
  5
146
330
1F
100
AcDbEntity
  8
0
  6
Continuous
 62
     7
370
    15
100
AcDbSpline
210
0.0
220
0.0
230
1.0
 70
     8
 71
     3
 72
    18
 73
    14
 74
     0
 42
0.000000001
 43
0.00000001
 40
0.0
 40
0.0
 40
0.0
 40
0.0
 40
0.013671875
 40
0.0341796875
 40
0.068359375
 40
0.247802734375
 40
0.546875
 40
0.669921875
 40
0.875
 40
0.93359375
 40
0.96875
 40
0.984375
 40
1.0
 40
1.0
 40
1.0
 40
1.0
 10
376.7975131885647
 20
398.0980803306696
 30
0.0
 10
376.7607614110743
 20
398.0978878970541
 30
0.0
 10
376.6690244392615
 20
398.099163439734
 30
0.0
 10
376.5965198725387
 20
398.1051925097728
 30
0.0
 10
376.179621897023
 20
398.1545758290069
 30
0.0
 10
375.1895650985971
 20
398.4989673312659
 30
0.0
 10
373.8701564444132
 20
399.5152187158041
 30
0.0
 10
372.4167602264153
 20
401.129034214986
 30
0.0
 10
371.4967046242448
 20
402.3879055942968
 30
0.0
 10
370.7846669755752
 20
403.5223721315841
 30
0.0
 10
370.5244322924328
 20
403.9587718785073
 30
0.0
 10
370.3666427288935
 20
404.2303234939305
 30
0.0
 10
370.2783940291389
 20
404.3852023042884
 30
0.0
 10
370.2554139965431
 20
404.4257765443448
 30
0.0
  0
LINE
  5
147
330
1F
100
AcDbEntity
  8
0
  6
Continuous
 62
     7
370
    15
100
AcDbLine
 10
377.0412207043
 20
398.0993532322
 30
0.0
 11
376.797512213
 21
398.0980791829
 31
0.0
  0
SPLINE
  5
148
330
1F
100
AcDbEntity
  8
0
  6
Continuous
 62
     7
370
    15
100
AcDbSpline
210
0.0
220
0.0
230
1.0
 70
     8
 71
     3
 72
     9
 73
     5
 74
     0
 42
0.000000001
 43
0.00000001
 40
0.0
 40
0.0
 40
0.0
 40
0.0
 40
0.411990552270244
 40
1.0
 40
1.0
 40
1.0
 40
1.0
 10
363.5184429979628
 20
493.9985770478694
 30
0.0
 10
362.9906627576278
 20
495.5440866269224
 30
0.0
 10
361.7096133805809
 20
499.2954094923048
 30
0.0
 10
360.1363280279876
 20
502.9346445595677
 30
0.0
 10
359.2112213766878
 20
505.0745491616278
 30
0.0
  0
SPLINE
  5
149
330
1F
100
AcDbEntity
  8
0
  6
Continuous
 62
     7
370
    15
100
AcDbSpline
210
0.0
220
0.0
230
1.0
 70
     8
 71
     3
 72
     9
 73
     5
 74
     0
 42
0.000000001
 43
0.00000001
 40
0.0
 40
0.0
 40
0.0
 40
0.0
 40
0.1045522556191497
 40
1.0
 40
1.0
 40
1.0
 40
1.0
 10
359.8464802301233
 20
466.281355985239
 30
0.0
 10
359.912949523892
 20
466.0813244545988
 30
0.0
 10
360.5487014105922
 20
464.1681038410818
 30
0.0
 10
360.8098699094706
 20
462.1591761880963
 30
0.0
 10
361.0437326526945
 20
460.3602864526062
 30
0.0
  0
SPLINE
  5
14A
330
1F
100
AcDbEntity
  8
0
  6
Continuous
 62
     7
370
    15
100
AcDbSpline
210
0.0
220
0.0
230
1.0
 70
     8
 71
     3
 72
     9
 73
     5
 74
     0
 42
0.000000001
 43
0.00000001
 40
0.0
 40
0.0
 40
0.0
 40
0.0
 40
0.05
 40
0.3046688700282364
 40
0.3046688700282364
 40
0.3046688700282364
 40
0.3046688700282364
 10
354.3638812868479
 20
501.9337255741934
 30
0.0
 10
354.3166582895071
 20
501.76578958984
 30
0.0
 10
354.0490453326589
 20
500.7605271535095
 30
0.0
 10
353.8247697237073
 20
499.8946896677626
 30
0.0
 10
353.6201934277731
 20
499.2761487668662
 30
0.0
  0
SPLINE
  5
14B
330
1F
100
AcDbEntity
  8
0
  6
Continuous
 62
     7
370
    15
100
AcDbSpline
210
0.0
220
0.0
230
1.0
 70
     8
 71
     3
 72
    22
 73
    18
 74
     0
 42
0.000000001
 43
0.00000001
 40
0.0
 40
0.0
 40
0.0
 40
0.0
 40
0.1249999999999989
 40
0.1249999999999989
 40
0.2499999999999978
 40
0.2499999999999978
 40
0.5000000000000002
 40
0.5000000000000002
 40
0.6250000000000013
 40
0.6250000000000013
 40
0.7500000000000024
 40
0.7500000000000024
 40
0.8750000000000037
 40
0.8750000000000037
 40
0.9375000000000019
 40
0.9375000000000019
 40
1.0
 40
1.0
 40
1.0
 40
1.0
 10
353.6201934277731
 20
499.2761487668662
 30
0.0
 10
353.5722183636394
 20
499.1310951121683
 30
0.0
 10
353.5038166700484
 20
498.9968856468521
 30
0.0
 10
353.3267824300582
 20
498.7498246689726
 30
0.0
 10
353.2203659017824
 20
498.6408813918899
 30
0.0
 10
352.8579001763087
 20
498.3674083890763
 30
0.0
 10
352.558473417924
 20
498.2607668729011
 30
0.0
 10
352.106794582189
 20
498.2424881458771
 30
0.0
 10
351.9531004672302
 20
498.2596361932997
 30
0.0
 10
351.6621802172605
 20
498.3377930847806
 30
0.0
 10
351.5206328277845
 20
498.3999455923999
 30
0.0
 10
351.2660479735812
 20
498.5613898005042
 30
0.0
 10
351.1497879509453
 20
498.6625644092628
 30
0.0
 10
351.0032989862012
 20
498.8353596194186
 30
0.0
 10
350.9590581074615
 20
498.896301555468
 30
0.0
 10
350.87976014896
 20
499.0248770443935
 30
0.0
 10
350.8443201259362
 20
499.093524992382
 30
0.0
 10
350.814928217353
 20
499.1628630370974
 30
0.0
  0
SPLINE
  5
14C
330
1F
100
AcDbEntity
  8
0
  6
Continuous
 62
     8
370
     0
100
AcDbSpline
210
0.0
220
0.0
230
1.0
 70
    24
 71
     3
 72
    48
 73
    44
 74
     0
 42
0.000000001
 43
0.00000001
 40
0.0
 40
0.0
 40
0.0
 40
0.0
 40
0.249999999999997
 40
0.249999999999997
 40
0.3749999999999953
 40
0.3749999999999953
 40
0.4999999999999937
 40
0.4999999999999937
 40
0.562499999999993
 40
0.562499999999993
 40
0.5937499999999929
 40
0.5937499999999929
 40
0.6249999999999927
 40
0.6249999999999927
 40
0.6562499999999926
 40
0.6562499999999926
 40
0.6874999999999925
 40
0.6874999999999925
 40
0.7031249999999927
 40
0.7031249999999927
 40
0.7187499999999929
 40
0.7187499999999929
 40
0.7343749999999932
 40
0.7343749999999932
 40
0.7499999999999934
 40
0.7499999999999934
 40
0.7656249999999937
 40
0.7656249999999937
 40
0.781249999999994
 40
0.781249999999994
 40
0.8124999999999948
 40
0.8124999999999948
 40
0.8281249999999953
 40
0.8281249999999953
 40
0.8437499999999958
 40
0.8437499999999958
 40
0.8749999999999966
 40
0.8749999999999966
 40
0.9062499999999974
 40
0.9062499999999974
 40
0.9374999999999983
 40
0.9374999999999983
 40
1.0
 40
1.0
 40
1.0
 40
1.0
 10
309.0974926269358
 20
453.1699967764168
 30
0.0
 10
309.0974926269358
 20
453.1699967764168
 30
0.0
 10
309.0974926269358
 20
453.2020304314051
 30
0.0
 10
309.0974926269358
 20
453.3142864357926
 30
0.0
 10
309.0974926269358
 20
453.3626267508275
 30
0.0
 10
309.0974926269358
 20
453.4926553036651
 30
0.0
 10
309.0974926269358
 20
453.5730771527518
 30
0.0
 10
309.0974926269358
 20
453.7444606157962
 30
0.0
 10
309.0974926269358
 20
453.8100249597541
 30
0.0
 10
309.0974926269358
 20
453.9334574068338
 30
0.0
 10
309.0974926269358
 20
453.9788401994574
 30
0.0
 10
309.0974926269358
 20
454.083753171884
 30
0.0
 10
309.0974926269358
 20
454.1427382646463
 30
0.0
 10
309.0974926269358
 20
454.2903233871743
 30
0.0
 10
309.0974926269358
 20
454.3767223567924
 30
0.0
 10
309.0974926269358
 20
454.6558869813261
 30
0.0
 10
309.0974926269358
 20
454.855065419265
 30
0.0
 10
309.0974926269358
 20
455.3191500359752
 30
0.0
 10
309.0974926269358
 20
455.5022009991233
 30
0.0
 10
309.0974926269358
 20
455.9358747764921
 30
0.0
 10
309.0974926269358
 20
456.187187994478
 30
0.0
 10
309.0974926269358
 20
456.7737062005687
 30
0.0
 10
309.0974926269358
 20
457.1089380993303
 30
0.0
 10
309.0974926269358
 20
457.8766622995643
 30
0.0
 10
309.0974926269358
 20
458.3005029349503
 30
0.0
 10
309.0974926269358
 20
459.2146491176831
 30
0.0
 10
309.0974926269358
 20
459.7061822537808
 30
0.0
 10
309.0974926269358
 20
460.7511596307069
 30
0.0
 10
309.0974926269358
 20
461.3069670176529
 30
0.0
 10
309.0974926269358
 20
463.0103823688125
 30
0.0
 10
309.0974926269358
 20
464.206287594509
 30
0.0
 10
309.0974926269358
 20
466.0578911125037
 30
0.0
 10
309.0974926269358
 20
466.6865379435778
 30
0.0
 10
309.0974926269358
 20
467.9523249123116
 30
0.0
 10
309.0974926269358
 20
468.5875331877681
 30
0.0
 10
309.0974926269358
 20
470.4986932964778
 30
0.0
 10
309.0974926269358
 20
471.7801072722111
 30
0.0
 10
309.0974926269358
 20
474.3528502066447
 30
0.0
 10
309.0974926269358
 20
475.6442260268893
 30
0.0
 10
309.0974926269358
 20
478.2342403837524
 30
0.0
 10
309.0974926269358
 20
479.5328991304501
 30
0.0
 10
309.0974926269358
 20
483.4372091247635
 30
0.0
 10
309.0974926269358
 20
486.0533749591125
 30
0.0
 10
309.0974926269358
 20
488.6699967764169
 30
0.0
  0
SPLINE
  5
14D
330
1F
100
AcDbEntity
  8
0
  6
Continuous
 62
     8
370
     0
100
AcDbSpline
210
0.0
220
0.0
230
1.0
 70
    24
 71
     3
 72
    52
 73
    48
 74
     0
 42
0.000000001
 43
0.00000001
 40
0.0
 40
0.0
 40
0.0
 40
0.0
 40
0.062500000000003
 40
0.062500000000003
 40
0.0937500000000045
 40
0.0937500000000045
 40
0.125000000000006
 40
0.125000000000006
 40
0.1562500000000076
 40
0.1562500000000076
 40
0.1718750000000084
 40
0.1718750000000084
 40
0.1875000000000092
 40
0.1875000000000092
 40
0.2187500000000108
 40
0.2187500000000108
 40
0.2265625000000111
 40
0.2265625000000111
 40
0.2343750000000115
 40
0.2343750000000115
 40
0.2500000000000117
 40
0.2500000000000117
 40
0.265625000000012
 40
0.265625000000012
 40
0.2812500000000123
 40
0.2812500000000123
 40
0.2968750000000125
 40
0.2968750000000125
 40
0.3046875000000123
 40
0.3046875000000123
 40
0.3125000000000121
 40
0.3125000000000121
 40
0.3437500000000113
 40
0.3437500000000113
 40
0.3750000000000105
 40
0.3750000000000105
 40
0.4062500000000098
 40
0.4062500000000098
 40
0.437500000000009
 40
0.437500000000009
 40
0.5000000000000079
 40
0.5000000000000079
 40
0.625000000000006
 40
0.625000000000006
 40
0.750000000000004
 40
0.750000000000004
 40
1.0
 40
1.0
 40
1.0
 40
1.0
 10
309.0974926269358
 20
488.6699967764167
 30
0.0
 10
309.0974926269358
 20
491.3081108406838
 30
0.0
 10
309.0974926269358
 20
493.9425399614554
 30
0.0
 10
309.0974926269358
 20
497.8853410220113
 30
0.0
 10
309.0974926269358
 20
499.1981150072411
 30
0.0
 10
309.0974926269358
 20
501.8196932622333
 30
0.0
 10
309.0974926269358
 20
503.1295072298259
 30
0.0
 10
309.0974926269358
 20
505.7393612892482
 30
0.0
 10
309.0974926269358
 20
507.0342959018853
 30
0.0
 10
309.0974926269358
 20
508.9550401503984
 30
0.0
 10
309.0974926269358
 20
509.5916454856218
 30
0.0
 10
309.0974926269358
 20
510.8558506359672
 30
0.0
 10
309.0974926269358
 20
511.485204412352
 30
0.0
 10
309.0974926269358
 20
513.3396659881191
 30
0.0
 10
309.0974926269358
 20
514.532704583377
 30
0.0
 10
309.0974926269358
 20
515.9406810796087
 30
0.0
 10
309.0974926269358
 20
516.2180413861702
 30
0.0
 10
309.0974926269358
 20
516.763243423074
 30
0.0
 10
309.0974926269358
 20
517.0314899621951
 30
0.0
 10
309.0974926269358
 20
517.8087883493827
 30
0.0
 10
309.0974926269358
 20
518.2941075471767
 30
0.0
 10
309.0974926269358
 20
519.192720198048
 30
0.0
 10
309.0974926269358
 20
519.6064968333035
 30
0.0
 10
309.0974926269358
 20
520.3554437195313
 30
0.0
 10
309.0974926269358
 20
520.6819494587496
 30
0.0
 10
309.0974926269358
 20
521.2521267192321
 30
0.0
 10
309.0974926269358
 20
521.4958264729511
 30
0.0
 10
309.0974926269358
 20
521.8105090506073
 30
0.0
 10
309.0974926269358
 20
521.9069547912552
 30
0.0
 10
309.0974926269358
 20
522.0830758598645
 30
0.0
 10
309.0974926269358
 20
522.1630981473389
 30
0.0
 10
309.0974926269358
 20
522.5298591014871
 30
0.0
 10
309.0974926269358
 20
522.7175686002483
 30
0.0
 10
309.0974926269358
 20
522.9818310478641
 30
0.0
 10
309.0974926269358
 20
523.0649826393312
 30
0.0
 10
309.0974926269358
 20
523.2083663330308
 30
0.0
 10
309.0974926269358
 20
523.2661644387692
 30
0.0
 10
309.0974926269358
 20
523.3691071752413
 30
0.0
 10
309.0974926269358
 20
523.4137898138771
 30
0.0
 10
309.0974926269358
 20
523.5354460069657
 30
0.0
 10
309.0974926269358
 20
523.6002702887206
 30
0.0
 10
309.0974926269358
 20
523.769830015985
 30
0.0
 10
309.0974926269358
 20
523.8496088480982
 30
0.0
 10
309.0974926269358
 20
523.9786196248673
 30
0.0
 10
309.0974926269358
 20
524.0266296948487
 30
0.0
 10
309.0974926269358
 20
524.1381388057563
 30
0.0
 10
309.0974926269358
 20
524.1699967764168
 30
0.0
 10
309.0974926269358
 20
524.1699967764167
 30
0.0
  0
SPLINE
  5
14E
330
1F
100
AcDbEntity
  8
0
  6
Continuous
 62
     8
370
     0
100
AcDbSpline
210
0.0
220
0.0
230
1.0
 70
     8
 71
     3
 72
    58
 73
    54
 74
     0
 42
0.000000001
 43
0.00000001
 40
0.0
 40
0.0
 40
0.0
 40
0.0
 40
0.062499999999999
 40
0.062499999999999
 40
0.1249999999999979
 40
0.1249999999999979
 40
0.2499999999999964
 40
0.2499999999999964
 40
0.3124999999999956
 40
0.3124999999999956
 40
0.3437499999999955
 40
0.3437499999999955
 40
0.3749999999999954
 40
0.3749999999999954
 40
0.4374999999999956
 40
0.4374999999999956
 40
0.4999999999999957
 40
0.4999999999999957
 40
0.5312499999999959
 40
0.5312499999999959
 40
0.5624999999999962
 40
0.5624999999999962
 40
0.5937499999999964
 40
0.5937499999999964
 40
0.6249999999999967
 40
0.6249999999999967
 40
0.656249999999997
 40
0.656249999999997
 40
0.671874999999997
 40
0.671874999999997
 40
0.6874999999999971
 40
0.6874999999999971
 40
0.7499999999999979
 40
0.7499999999999979
 40
0.7812499999999983
 40
0.7812499999999983
 40
0.8124999999999983
 40
0.8124999999999983
 40
0.8437499999999983
 40
0.8437499999999983
 40
0.8593749999999984
 40
0.8593749999999984
 40
0.8749999999999986
 40
0.8749999999999986
 40
0.9374999999999987
 40
0.9374999999999987
 40
0.9687499999999991
 40
0.9687499999999991
 40
0.9843749999999996
 40
0.9843749999999996
 40
0.9921874999999998
 40
0.9921874999999998
 40
1.0
 40
1.0
 40
1.0
 40
1.0
 10
389.885824619619
 20
489.6577716428877
 30
0.0
 10
388.3778184454678
 20
489.6547834315001
 30
0.0
 10
386.8697699243487
 20
489.6545382762921
 30
0.0
 10
383.8539238048892
 20
489.6692184359875
 30
0.0
 10
382.3467920106708
 20
489.6840409575906
 30
0.0
 10
377.8292252446292
 20
489.7678819667507
 30
0.0
 10
374.8224043078006
 20
489.8739990413905
 30
0.0
 10
370.3252215232603
 20
490.2135257047158
 30
0.0
 10
368.8282947199359
 20
490.3565531993649
 30
0.0
 10
366.5870724762937
 20
490.6344499923134
 30
0.0
 10
365.8407531057811
 20
490.7385813245201
 30
0.0
 10
364.3497637100949
 20
490.9730408861898
 30
0.0
 10
363.6039330735175
 20
491.1032194543345
 30
0.0
 10
361.3789094744855
 20
491.535045395722
 30
0.0
 10
359.9126284818136
 20
491.8767203719599
 30
0.0
 10
357.0252734580935
 20
492.7027594359002
 30
0.0
 10
355.6046498945398
 20
493.1885410173271
 30
0.0
 10
353.5163000806932
 20
494.051901838381
 30
0.0
 10
352.8272789045476
 20
494.3621316788279
 30
0.0
 10
351.4652126614944
 20
495.0331887689777
 30
0.0
 10
350.7958586929238
 20
495.392399734325
 30
0.0
 10
349.4928977440844
 20
496.1572167252098
 30
0.0
 10
348.8551515736201
 20
496.5655325892618
 30
0.0
 10
347.6331408461064
 20
497.4225171596818
 30
0.0
 10
347.0487583761749
 20
497.8706084324437
 30
0.0
 10
345.9331416082783
 20
498.8012465902012
 30
0.0
 10
345.4019503822923
 20
499.2838088258417
 30
0.0
 10
344.6461160905951
 20
500.030775143396
 30
0.0
 10
344.4009406107301
 20
500.2835593689622
 30
0.0
 10
343.9239366905437
 20
500.7958428456814
 30
0.0
 10
343.6918170238157
 20
501.0557749723392
 30
0.0
 10
342.5820717563598
 20
502.3488094586146
 30
0.0
 10
341.8424392275433
 20
503.3788017084164
 30
0.0
 10
340.9053944898054
 20
504.8644711073678
 30
0.0
 10
340.6212473724394
 20
505.3530986230626
 30
0.0
 10
340.1159939701495
 20
506.2798355271224
 30
0.0
 10
339.8934120880552
 20
506.7198553015835
 30
0.0
 10
339.4962185922179
 20
507.5495977635025
 30
0.0
 10
339.3216484881088
 20
507.9393422572394
 30
0.0
 10
339.0900610123662
 20
508.4825264093669
 30
0.0
 10
339.0179661533331
 20
508.6566692086678
 30
0.0
 10
338.8846152471081
 20
508.9866746160836
 30
0.0
 10
338.823112710369
 20
509.1430819247032
 30
0.0
 10
338.5387404919147
 20
509.8818059372827
 30
0.0
 10
338.3830073572469
 20
510.3344547334235
 30
0.0
 10
338.2276379175358
 20
510.7976388649204
 30
0.0
 10
338.1902323595912
 20
510.914390772046
 30
0.0
 10
338.1528027102396
 20
511.0316007913494
 30
0.0
 10
338.1434138356458
 20
511.0610113855011
 30
0.0
 10
338.1336631569103
 20
511.0904763510014
 30
0.0
 10
338.1311378580594
 20
511.0978535732278
 30
0.0
 10
338.1275274545904
 20
511.1077002685914
 30
0.0
 10
338.1264375820439
 20
511.1101702983052
 30
0.0
 10
338.1260959146746
 20
511.1101738048245
 30
0.0
  0
SPLINE
  5
14F
330
1F
100
AcDbEntity
  8
0
  6
Continuous
 62
     8
370
     0
100
AcDbSpline
210
0.0
220
0.0
230
1.0
 70
     8
 71
     3
 72
    56
 73
    52
 74
     0
 42
0.000000001
 43
0.00000001
 40
0.0
 40
0.0
 40
0.0
 40
0.0
 40
0.0312500000000011
 40
0.0312500000000011
 40
0.0625000000000022
 40
0.0625000000000022
 40
0.0937500000000033
 40
0.0937500000000033
 40
0.1250000000000044
 40
0.1250000000000044
 40
0.1406250000000049
 40
0.1406250000000049
 40
0.1562500000000054
 40
0.1562500000000054
 40
0.187500000000006
 40
0.187500000000006
 40
0.2187500000000065
 40
0.2187500000000065
 40
0.2343750000000068
 40
0.2343750000000068
 40
0.2500000000000067
 40
0.2500000000000067
 40
0.3125000000000064
 40
0.3125000000000064
 40
0.3281250000000062
 40
0.3281250000000062
 40
0.3437500000000061
 40
0.3437500000000061
 40
0.3750000000000058
 40
0.3750000000000058
 40
0.4062500000000055
 40
0.4062500000000055
 40
0.4375000000000052
 40
0.4375000000000052
 40
0.4687500000000049
 40
0.4687500000000049
 40
0.5000000000000046
 40
0.5000000000000046
 40
0.5625000000000041
 40
0.5625000000000041
 40
0.6250000000000034
 40
0.6250000000000034
 40
0.6875000000000029
 40
0.6875000000000029
 40
0.7500000000000023
 40
0.7500000000000023
 40
0.8750000000000011
 40
0.8750000000000011
 40
0.9375000000000006
 40
0.9375000000000006
 40
1.0
 40
1.0
 40
1.0
 40
1.0
 10
339.2504055234558
 20
510.4407152770759
 30
0.0
 10
339.2575397850238
 20
510.431674226514
 30
0.0
 10
339.2697306405537
 20
510.3963296822439
 30
0.0
 10
339.3168249673823
 20
510.2543254993238
 30
0.0
 10
339.3510677876255
 20
510.1493995017497
 30
0.0
 10
339.4499043988068
 20
509.8644900375593
 30
0.0
 10
339.5136443028856
 20
509.6862424997504
 30
0.0
 10
339.671095286393
 20
509.2622683521136
 30
0.0
 10
339.7640926395509
 20
509.0176926472133
 30
0.0
 10
339.9316235829689
 20
508.6008470483505
 30
0.0
 10
339.9920837342708
 20
508.4536545572436
 30
0.0
 10
340.1233299451982
 20
508.1428585632655
 30
0.0
 10
340.194299372146
 20
507.9788553663867
 30
0.0
 10
340.4223942585159
 20
507.4673334399877
 30
0.0
 10
340.5948448191805
 20
507.0994438554218
 30
0.0
 10
340.9884638108998
 20
506.3147085643782
 30
0.0
 10
341.2095620380272
 20
505.8978345162076
 30
0.0
 10
341.5876929113242
 20
505.2381781596285
 30
0.0
 10
341.7221599587112
 20
505.0116592226821
 30
0.0
 10
342.0050052907776
 20
504.5534382114465
 30
0.0
 10
342.1535362964419
 20
504.3213809525167
 30
0.0
 10
342.9340844831721
 20
503.1491989561805
 30
0.0
 10
343.6794316229191
 20
502.1741814803617
 30
0.0
 10
344.8106419025937
 20
500.9535622583683
 30
0.0
 10
345.0452816344314
 20
500.7110370158103
 30
0.0
 10
345.5269020052627
 20
500.2349245813117
 30
0.0
 10
345.7745622533246
 20
500.0006002010024
 30
0.0
 10
346.5384628858048
 20
499.3101565375425
 30
0.0
 10
347.0754832784799
 20
498.8663687543105
 30
0.0
 10
348.2024145341653
 20
498.0150688612377
 30
0.0
 10
348.7923931080167
 20
497.607695800693
 30
0.0
 10
350.0244491973623
 20
496.8332939072366
 30
0.0
 10
350.657656192805
 20
496.4712322702401
 30
0.0
 10
351.9535039578266
 20
495.7925590374344
 30
0.0
 10
352.6179527798523
 20
495.4752715189439
 30
0.0
 10
353.9572940317426
 20
494.888748157103
 30
0.0
 10
354.6337588025211
 20
494.6185472688971
 30
0.0
 10
356.6812329310106
 20
493.8691099332366
 30
0.0
 10
358.0703554025598
 20
493.4511365020313
 30
0.0
 10
360.8865011838246
 20
492.7427035856456
 30
0.0
 10
362.3131617518493
 20
492.4501626687044
 30
0.0
 10
365.1935469231152
 20
491.9593078786892
 30
0.0
 10
366.6366319121914
 20
491.7638770081089
 30
0.0
 10
369.5274718521723
 20
491.4465681962518
 30
0.0
 10
370.9751586325905
 20
491.3237237007932
 30
0.0
 10
375.3236291328071
 20
491.0328445611636
 30
0.0
 10
378.2299124149329
 20
490.9420035109803
 30
0.0
 10
382.5956662585525
 20
490.8701710006372
 30
0.0
 10
384.0520317024425
 20
490.8574944529009
 30
0.0
 10
386.9660926395708
 20
490.8449052990744
 30
0.0
 10
388.4231654546676
 20
490.8450732959522
 30
0.0
 10
389.8802354281623
 20
490.8476123983909
 30
0.0
  0
ARC
  5
150
330
1F
100
AcDbEntity
  8
0
  6
Continuous
 62
     8
370
     0
100
AcDbCircle
 10
260.4387274819
 20
489.6439628228
 30
0.0
 40
129.4471011930004
100
AcDbArc
 50
0.0061120242
 51
0.5327661684
  0
SPLINE
  5
151
330
1F
100
AcDbEntity
  8
0
  6
Continuous
 62
     8
370
     0
100
AcDbSpline
210
0.0
220
0.0
230
1.0
 70
    24
 71
     3
 72
    15
 73
    11
 74
     0
 42
0.000000001
 43
0.00000001
 40
0.0
 40
0.0
 40
0.0
 40
0.0
 40
0.0671079592144996
 40
0.1342159184069187
 40
0.2013238775993379
 40
0.2684318367917571
 40
0.3355397959841762
 40
0.4026477551765953
 40
0.4697557143690145
 40
0.5368636735614336
 40
0.5368636735614336
 40
0.5368636735614336
 40
0.5368636735614336
 10
325.8974926269358
 20
490.6699967745809
 30
0.0
 10
325.8974926269358
 20
489.095061832448
 30
0.0
 10
325.8974926269358
 20
485.9257883961566
 30
0.0
 10
325.8974926269358
 20
481.3155047331603
 30
0.0
 10
325.8974926269358
 20
477.0473223153407
 30
0.0
 10
325.8974926269358
 20
473.2886843983745
 30
0.0
 10
325.8974926269358
 20
470.2046868579522
 30
0.0
 10
325.8974926269358
 20
467.9026803172114
 30
0.0
 10
325.8974926269358
 20
466.4900153992895
 30
0.0
 10
325.8974926269358
 20
466.1699967764168
 30
0.0
 10
325.8974926269358
 20
466.1699967764168
 30
0.0
  0
LWPOLYLINE
  5
152
330
1F
100
AcDbEntity
  8
0
  6
Continuous
 62
     8
370
     0
100
AcDbPolyline
 90
        6
 70
   128
 43
0.0
 10
554.3404147423
 20
489.6399552098
 10
514.0465870893
 20
489.6476455478
 10
483.0063954389
 20
489.6526559468
 10
451.9662037885
 20
489.656936189
 10
420.9260121382
 20
489.6605936091
 10
389.8858279383
 20
489.6577715853
  0
LINE
  5
153
330
1F
100
AcDbEntity
  8
0
  6
Continuous
 62
     8
370
     0
100
AcDbLine
 10
526.7895386017
 20
468.2326742194
 30
0.0
 11
527.4240151441
 21
468.6527305029
 31
0.0
  0
SPLINE
  5
154
330
1F
100
AcDbEntity
  8
0
  6
Continuous
 62
     8
370
     0
100
AcDbSpline
210
0.0
220
0.0
230
1.0
 70
     8
 71
     3
 72
    17
 73
    13
 74
     0
 42
0.000000001
 43
0.00000001
 40
0.0
 40
0.0
 40
0.0
 40
0.0
 40
0.0184259258910454
 40
0.0368518573879793
 40
0.0552778194701785
 40
0.073703783810901
 40
0.1719489796024709
 40
0.2210715786020198
 40
0.2701942231835969
 40
0.3684394228027349
 40
0.6842197082366207
 40
1.0
 40
1.0
 40
1.0
 40
1.0
 10
389.8802325523203
 20
490.847612426415
 30
0.0
 10
390.8903196586036
 20
490.8500257668924
 30
0.0
 10
392.9104941784781
 20
490.8548524485814
 30
0.0
 10
395.9407672003688
 20
490.8580528760677
 30
0.0
 10
398.9710438548772
 20
490.8563647156414
 30
0.0
 10
406.3769300006937
 20
490.8502388990318
 30
0.0
 10
415.4655762686158
 20
490.8473716731566
 30
0.0
 10
426.2369821812881
 20
490.8449819941047
 30
0.0
 10
437.008388465494
 20
490.8425040597735
 30
0.0
 10
462.3976975182027
 20
490.8366343964374
 30
0.0
 10
502.404906423952
 20
490.8270532085
 30
0.0
 10
537.0264128850728
 20
490.8173938673957
 30
0.0
 10
554.3371662891215
 20
490.8125641967951
 30
0.0
  0
SPLINE
  5
155
330
1F
100
AcDbEntity
  8
0
  6
Continuous
 62
     8
370
     0
100
AcDbSpline
210
0.0
220
0.0
230
1.0
 70
     8
 71
     3
 72
    14
 73
    10
 74
     0
 42
0.000000001
 43
0.00000001
 40
0.0
 40
0.0
 40
0.0
 40
0.0
 40
0.25
 40
0.25
 40
0.5
 40
0.5
 40
0.75
 40
0.75
 40
1.0
 40
1.0
 40
1.0
 40
1.0
 10
558.371082860325
 20
491.1838252025129
 30
0.0
 10
558.7766273321708
 20
491.3278974930872
 30
0.0
 10
559.1312685283764
 20
491.4556527900347
 30
0.0
 10
559.7409586758083
 20
491.6768971677135
 30
0.0
 10
559.9960969844138
 20
491.7704356831931
 30
0.0
 10
560.4040788229456
 20
491.9207213861921
 30
0.0
 10
560.5575062623486
 20
491.9776850467685
 30
0.0
 10
560.7619761035055
 20
492.0538646770894
 30
0.0
 10
560.8131126386016
 20
492.0731156485962
 30
0.0
 10
560.8130592174473
 20
492.0733347437049
 30
0.0
  0
SPLINE
  5
156
330
1F
100
AcDbEntity
  8
0
  6
Continuous
 62
     8
370
     0
100
AcDbSpline
210
0.0
220
0.0
230
1.0
 70
     8
 71
     3
 72
    18
 73
    14
 74
     0
 42
0.000000001
 43
0.00000001
 40
0.0
 40
0.0
 40
0.0
 40
0.0
 40
0.2500000000000189
 40
0.2500000000000189
 40
0.3750000000000137
 40
0.3750000000000137
 40
0.5000000000000084
 40
0.5000000000000084
 40
0.6250000000000032
 40
0.6250000000000032
 40
0.749999999999998
 40
0.749999999999998
 40
1.0
 40
1.0
 40
1.0
 40
1.0
 10
554.3371659939795
 20
490.8125641763909
 30
0.0
 10
554.7874372555702
 20
490.8124354299797
 30
0.0
 10
555.2244468782978
 20
490.8224888576391
 30
0.0
 10
555.8613148225571
 20
490.8512591896289
 30
0.0
 10
556.0680493435358
 20
490.8630917086505
 30
0.0
 10
556.4634999331389
 20
490.890505092852
 30
0.0
 10
556.6546724338757
 20
490.9062719751256
 30
0.0
 10
557.0135029896477
 20
490.9407927432784
 30
0.0
 10
557.1810685193675
 20
490.9594896924643
 30
0.0
 10
557.4930400189405
 20
490.9994432145331
 30
0.0
 10
557.6382459112941
 20
491.0208400365237
 30
0.0
 10
558.0315603243254
 20
491.0877670145331
 30
0.0
 10
558.2332246461289
 20
491.134852531733
 30
0.0
 10
558.3710809878443
 20
491.183825274953
 30
0.0
  0
SPLINE
  5
157
330
1F
100
AcDbEntity
  8
0
  6
Continuous
 62
     8
370
     0
100
AcDbSpline
210
0.0
220
0.0
230
1.0
 70
     8
 71
     3
 72
    47
 73
    43
 74
     0
 42
0.000000001
 43
0.00000001
 40
0.0
 40
0.0
 40
0.0
 40
0.0
 40
0.0326707582518128
 40
0.0643760108618153
 40
0.0951829870917182
 40
0.1251481956660406
 40
0.1543193058665567
 40
0.1827365930596019
 40
0.2104340628163842
 40
0.2374403317566983
 40
0.263779323916832
 40
0.2893850079230862
 40
0.3141061900330845
 40
0.3379714949429964
 40
0.361009913359324
 40
0.3832456997745005
 40
0.4046990008114407
 40
0.4253863713809635
 40
0.4453212037601558
 40
0.4645164676021237
 40
0.4829784105851567
 40
0.5007111230428961
 40
0.6305847903042834
 40
0.7502711631662905
 40
0.8131999261418429
 40
0.8750249794835481
 40
0.9372836274206046
 40
0.968559723780167
 40
0.9842560792761008
 40
0.9921216601562446
 40
0.9960591644231422
 40
0.9980291412564761
 40
0.9990144416770151
 40
0.9995071706200003
 40
0.999753554866351
 40
0.9998767519447124
 40
0.9999383517240783
 40
0.9999691514918859
 40
0.9999761259955092
 40
0.9999845963268306
 40
0.999993003503521
 40
1.0
 40
1.0
 40
1.0
 40
1.0
 10
559.5716609396771
 20
489.5491584748095
 30
0.0
 10
559.5494288473074
 20
489.5495425019218
 30
0.0
 10
559.5056216785591
 20
489.5502992071493
 30
0.0
 10
559.4292300985476
 20
489.5515927405249
 30
0.0
 10
559.3472558669282
 20
489.5529638049471
 30
0.0
 10
559.2595950068547
 20
489.5544153861172
 30
0.0
 10
559.1671206977344
 20
489.5559367503758
 30
0.0
 10
559.0703803945261
 20
489.5575230730288
 30
0.0
 10
558.9699424078087
 20
489.5591692646027
 30
0.0
 10
558.866316666608
 20
489.5608724261373
 30
0.0
 10
558.7600978913175
 20
489.5626235675922
 30
0.0
 10
558.6521120926542
 20
489.5644252602712
 30
0.0
 10
558.543204328062
 20
489.5663073965051
 30
0.0
 10
558.4340740973121
 20
489.5682377369824
 30
0.0
 10
558.3251195558478
 20
489.5702035437059
 30
0.0
 10
558.2167004944246
 20
489.5721878911857
 30
0.0
 10
558.1091516351491
 20
489.5741772953776
 30
0.0
 10
558.0027853922826
 20
489.5761487106428
 30
0.0
 10
557.8978917904047
 20
489.5781111744541
 30
0.0
 10
557.7947431328727
 20
489.5799595440056
 30
0.0
 10
557.6935998968606
 20
489.5817439190782
 30
0.0
 10
557.3849988322046
 20
489.5871403942558
 30
0.0
 10
556.8529333424198
 20
489.5963046246422
 30
0.0
 10
556.1798671505343
 20
489.6080399951069
 30
0.0
 10
555.6335055248709
 20
489.6175023197896
 30
0.0
 10
555.2074057244222
 20
489.6249113790396
 30
0.0
 10
554.8488710884507
 20
489.6311315157976
 30
0.0
 10
554.5956354619353
 20
489.6355267330614
 30
0.0
 10
554.4683443218022
 20
489.6377369043634
 30
0.0
 10
554.4044919835609
 20
489.6388440234364
 30
0.0
 10
554.3725088306586
 20
489.6394008004988
 30
0.0
 10
554.356502327911
 20
489.639676296361
 30
0.0
 10
554.3484952798169
 20
489.6398185617814
 30
0.0
 10
554.3444907652718
 20
489.6398834264508
 30
0.0
 10
554.34248830209
 20
489.6399247350523
 30
0.0
 10
554.3414869580328
 20
489.6399328670039
 30
0.0
 10
554.3409863447155
 20
489.6399546099471
 30
0.0
 10
554.3407555041973
 20
489.6399416319039
 30
0.0
 10
554.3406481763043
 20
489.6399471792465
 30
0.0
 10
554.3405931445814
 20
489.6399540883581
 30
0.0
 10
554.340537635705
 20
489.6399546126161
 30
0.0
 10
554.3405018762454
 20
489.6399554778593
 30
0.0
 10
554.340485633955
 20
489.6399558708611
 30
0.0
  0
SPLINE
  5
158
330
1F
100
AcDbEntity
  8
0
  6
Continuous
 62
     8
370
     0
100
AcDbSpline
210
0.0
220
0.0
230
1.0
 70
     8
 71
     3
 72
    23
 73
    19
 74
     0
 42
0.000000001
 43
0.00000001
 40
0.0
 40
0.0
 40
0.0
 40
0.0
 40
0.0119965545309965
 40
0.0240905246797338
 40
0.0924755858437811
 40
0.1639056189972
 40
0.2326997127305907
 40
0.3037643932159318
 40
0.4430702280489226
 40
0.5820956566037743
 40
0.720582347451181
 40
0.8602842310188222
 40
0.8922012198817353
 40
0.9300647691617332
 40
0.9475457749057059
 40
0.9649997340311324
 40
0.9828013579923222
 40
1.0
 40
1.0
 40
1.0
 40
1.0
 10
550.3440558229557
 20
472.9861184454572
 30
0.0
 10
550.3638979381526
 20
473.0059291274028
 30
0.0
 10
550.4037432924677
 20
473.0457113599682
 30
0.0
 10
550.5730723995445
 20
473.2159761506978
 30
0.0
 10
550.9173143248859
 20
473.5686264177572
 30
0.0
 10
551.5137546082809
 20
474.2103307174249
 30
0.0
 10
552.2027050749482
 20
474.9986705696435
 30
0.0
 10
553.1900862552039
 20
476.2066351702009
 30
0.0
 10
554.5051070325394
 20
477.9981574842317
 30
0.0
 10
556.0573057582901
 20
480.4981034885082
 30
0.0
 10
557.4939934134729
 20
483.2994567446248
 30
0.0
 10
558.4048758893612
 20
485.548089907931
 30
0.0
 10
558.926488528645
 20
487.1184700010203
 30
0.0
 10
559.1259671761238
 20
487.7804980999916
 30
0.0
 10
559.2794520893435
 20
488.3369697699779
 30
0.0
 10
559.384473396132
 20
488.7418662252369
 30
0.0
 10
559.4828591835917
 20
489.1459494124257
 30
0.0
 10
559.5424555478274
 20
489.4163071022389
 30
0.0
 10
559.5717403691016
 20
489.5491570961577
 30
0.0
  0
SPLINE
  5
159
330
1F
100
AcDbEntity
  8
0
  6
Continuous
 62
     8
370
     0
100
AcDbSpline
210
0.0
220
0.0
230
1.0
 70
     8
 71
     3
 72
    43
 73
    39
 74
     0
 42
0.000000001
 43
0.00000001
 40
0.0
 40
0.0
 40
0.0
 40
0.0
 40
0.0109134344398284
 40
0.0218038144018196
 40
0.0326824714349946
 40
0.0435603895699674
 40
0.0544482202300199
 40
0.0653562927084589
 40
0.076294620755724
 40
0.087272906331616
 40
0.098300541733416
 40
0.1093866112011291
 40
0.1205398928321518
 40
0.1806980548979621
 40
0.2419040318775867
 40
0.2724779121795569
 40
0.3031365429446566
 40
0.3641652505988112
 40
0.4270511611871073
 40
0.4876568890994791
 40
0.5506195039161186
 40
0.6156766905261482
 40
0.6494671643646225
 40
0.6842630475229522
 40
0.7015417514111637
 40
0.7191804516484244
 40
0.7369913714455598
 40
0.753869577776016
 40
0.7859454387266793
 40
0.818975453192653
 40
0.850065262927565
 40
0.8805056015223729
 40
0.9106314099542938
 40
0.9405563843197777
 40
0.9577402526530713
 40
0.9745631937080578
 40
0.9877029564474648
 40
1.0
 40
1.0
 40
1.0
 40
1.0
 10
528.2968590487719
 20
469.2378482585247
 30
0.0
 10
528.3588277575556
 20
469.2768688660673
 30
0.0
 10
528.4826342670912
 20
469.3548276506643
 30
0.0
 10
528.6769798444573
 20
469.4752566052948
 30
0.0
 10
528.8774362166668
 20
469.5978039200936
 30
0.0
 10
529.0847314415422
 20
469.7225835820732
 30
0.0
 10
529.298788115107
 20
469.8493665810084
 30
0.0
 10
529.5197390857871
 20
469.9780248083615
 30
0.0
 10
529.747655722699
 20
470.1084112385739
 30
0.0
 10
529.9826220428663
 20
470.2403917918462
 30
0.0
 10
530.2247119538603
 20
470.3738349274067
 30
0.0
 10
530.4740075168188
 20
470.5086191666161
 30
0.0
 10
531.1056025379329
 20
470.8434261505739
 30
0.0
 10
532.1926728267686
 20
471.3846437097612
 30
0.0
 10
533.5565575892172
 20
471.9754913485073
 30
0.0
 10
534.7121907411178
 20
472.4188976697703
 30
0.0
 10
535.9015795201371
 20
472.8346322911104
 30
0.0
 10
537.466476231171
 20
473.3013318733529
 30
0.0
 10
539.4149651652265
 20
473.7347379865461
 30
0.0
 10
541.4429871106363
 20
474.0201536321934
 30
0.0
 10
543.5219587232269
 20
474.1477231054186
 30
0.0
 10
545.2673309690293
 20
474.0909293262717
 30
0.0
 10
546.5907306717562
 20
473.9830098593871
 30
0.0
 10
547.3702211448573
 20
473.9055509203727
 30
0.0
 10
547.9470185942181
 20
473.8472557446897
 30
0.0
 10
548.3536405099499
 20
473.8071223930177
 30
0.0
 10
548.724197256709
 20
473.7711058967134
 30
0.0
 10
549.1450845112014
 20
473.7233479320209
 30
0.0
 10
549.5627298806255
 20
473.6560702786671
 30
0.0
 10
549.901285833554
 20
473.5609024886693
 30
0.0
 10
550.1025306732338
 20
473.4465747099468
 30
0.0
 10
550.2058785005106
 20
473.323420313813
 30
0.0
 10
550.2516654024004
 20
473.2017835142428
 30
0.0
 10
550.2693994933467
 20
473.1099400834327
 30
0.0
 10
550.2826565778249
 20
473.047983064365
 30
0.0
 10
550.2990016610355
 20
473.014618621676
 30
0.0
 10
550.3181015770375
 20
472.993304486497
 30
0.0
 10
550.3355450557698
 20
472.9883261851598
 30
0.0
 10
550.343977844667
 20
472.985919499837
 30
0.0
  0
SPLINE
  5
15A
330
1F
100
AcDbEntity
  8
0
  6
Continuous
 62
     8
370
     0
100
AcDbSpline
210
0.0
220
0.0
230
1.0
 70
     8
 71
     3
 72
    14
 73
    10
 74
     0
 42
0.000000001
 43
0.00000001
 40
0.0
 40
0.0
 40
0.0
 40
0.0
 40
0.25
 40
0.25
 40
0.5
 40
0.5
 40
0.75
 40
0.75
 40
1.0
 40
1.0
 40
1.0
 40
1.0
 10
559.5718240280856
 20
489.5491750122194
 30
0.0
 10
559.6147701950115
 20
489.7362960587758
 30
0.0
 10
559.6163061576092
 20
489.9350968524038
 30
0.0
 10
559.5362550579736
 20
490.3168900948356
 30
0.0
 10
559.4547224573008
 20
490.499622796355
 30
0.0
 10
559.224706750951
 20
490.8127582651573
 30
0.0
 10
559.0763801329973
 20
490.9429479954384
 30
0.0
 10
558.7423127573406
 20
491.1249213972863
 30
0.0
 10
558.5567992773476
 20
491.1765812659889
 30
0.0
 10
558.3710809878443
 20
491.183825274953
 30
0.0
  0
SPLINE
  5
15B
330
1F
100
AcDbEntity
  8
0
  6
Continuous
 62
     8
370
     0
100
AcDbSpline
210
0.0
220
0.0
230
1.0
 70
     8
 71
     3
 72
    13
 73
     9
 74
     0
 42
0.000000001
 43
0.00000001
 40
0.0
 40
0.0
 40
0.0
 40
0.0
 40
0.1572849683101749
 40
0.31500584581638
 40
0.4706045902101247
 40
0.6266265536996434
 40
0.81294391665614
 40
1.0
 40
1.0
 40
1.0
 40
1.0
 10
562.0736107623881
 20
490.4741279760225
 30
0.0
 10
562.0616086180095
 20
490.4694917710454
 30
0.0
 10
562.0375710657739
 20
490.4602065120285
 30
0.0
 10
561.8439988293239
 20
490.3872908031931
 30
0.0
 10
561.5376270403478
 20
490.2725230890776
 30
0.0
 10
561.0783820812652
 20
490.101628609098
 30
0.0
 10
560.4525107402524
 20
489.8701054926
 30
0.0
 10
559.8656547410162
 20
489.6562688797741
 30
0.0
 10
559.5716461932964
 20
489.5491390351987
 30
0.0
  0
SPLINE
  5
15C
330
1F
100
AcDbEntity
  8
0
  6
Continuous
 62
     8
370
     0
100
AcDbSpline
210
0.0
220
0.0
230
1.0
 70
     8
 71
     3
 72
    16
 73
    12
 74
     0
 42
0.000000001
 43
0.00000001
 40
0.0
 40
0.0
 40
0.0
 40
0.0
 40
0.1111336929077741
 40
0.2222505929923531
 40
0.3333554099056733
 40
0.444452928593107
 40
0.5555479792270996
 40
0.6666454070755243
 40
0.777750042348836
 40
0.8888666700683902
 40
1.0
 40
1.0
 40
1.0
 40
1.0
 10
550.3441812344929
 20
472.9862434678358
 30
0.0
 10
550.3566740548291
 20
472.983740544104
 30
0.0
 10
550.3816578077779
 20
472.9787350748438
 30
0.0
 10
550.4078844974921
 20
472.9735177582629
 30
0.0
 10
550.4258453035875
 20
472.969953664658
 30
0.0
 10
550.434726936688
 20
472.9681957074458
 30
0.0
 10
550.4347235533572
 20
472.9681963972636
 30
0.0
 10
550.4258351609046
 20
472.9699557297532
 30
0.0
 10
550.4078676172146
 20
472.9735211844975
 30
0.0
 10
550.3816342250435
 20
472.9787398417544
 30
0.0
 10
550.3566460320578
 20
472.9837461797114
 30
0.0
 10
550.3441509966265
 20
472.9862495368045
 30
0.0
  0
SPLINE
  5
15D
330
1F
100
AcDbEntity
  8
0
  6
Continuous
 62
     8
370
     0
100
AcDbSpline
210
0.0
220
0.0
230
1.0
 70
     8
 71
     3
 72
    10
 73
     6
 74
     0
 42
0.000000001
 43
0.00000001
 40
0.0
 40
0.0
 40
0.0
 40
0.0
 40
0.5
 40
0.5
 40
1.0
 40
1.0
 40
1.0
 40
1.0
 10
549.9545132110578
 20
472.9032710106552
 30
0.0
 10
550.019497908236
 20
472.8899641694418
 30
0.0
 10
550.0900707817938
 20
472.8896321610153
 30
0.0
 10
550.2255126645402
 20
472.9183743522566
 30
0.0
 10
550.2899152271474
 20
472.9473495670567
 30
0.0
 10
550.343977844667
 20
472.9859194998371
 30
0.0
  0
LINE
  5
15E
330
1F
100
AcDbEntity
  8
0
  6
Continuous
 62
     8
370
     0
100
AcDbLine
 10
350.8599177397
 20
498.6859352074
 30
0.0
 11
350.8149274087
 21
499.1628627039
 31
0.0
  0
SPLINE
  5
15F
330
1F
100
AcDbEntity
  8
0
  6
Continuous
 62
     8
370
     0
100
AcDbSpline
210
0.0
220
0.0
230
1.0
 70
     8
 71
     3
 72
    14
 73
    10
 74
     0
 42
0.000000001
 43
0.00000001
 40
0.0
 40
0.0
 40
0.0
 40
0.0
 40
0.1182238562872773
 40
0.278791445022653
 40
0.4133603170476389
 40
0.5518289477818411
 40
0.6865470654829438
 40
0.8252597564580713
 40
1.0
 40
1.0
 40
1.0
 40
1.0
 10
361.5162335729902
 20
494.7171748362331
 30
0.0
 10
361.2534362106304
 20
495.4723159821536
 30
0.0
 10
360.6337164797629
 20
497.2530639452015
 30
0.0
 10
359.7787359502436
 20
499.5860928876557
 30
0.0
 10
358.9817158813612
 20
501.7205440215488
 30
0.0
 10
358.3509901562517
 20
503.3771440826189
 30
0.0
 10
357.8616448614513
 20
504.6490006179466
 30
0.0
 10
357.4950527900054
 20
505.59927927606
 30
0.0
 10
357.4426716421473
 20
505.7346943920129
 30
0.0
 10
357.4134707844561
 20
505.8101840995102
 30
0.0
  0
SPLINE
  5
160
330
1F
100
AcDbEntity
  8
0
  6
Continuous
 62
     8
370
     0
100
AcDbSpline
210
0.0
220
0.0
230
1.0
 70
     8
 71
     3
 72
    13
 73
     9
 74
     0
 42
0.000000001
 43
0.00000001
 40
0.0
 40
0.0
 40
0.0
 40
0.0
 40
0.133735287546961
 40
0.3932483423923878
 40
0.5465766972528461
 40
0.7001685683775426
 40
0.8526211106109784
 40
1.0
 40
1.0
 40
1.0
 40
1.0
 10
369.195789138109
 20
466.3661566309481
 30
0.0
 10
369.8127038169984
 20
463.6562042962463
 30
0.0
 10
371.6267401818251
 20
455.6875949401731
 30
0.0
 10
373.3607801839495
 20
444.4529124980069
 30
0.0
 10
374.8599089337051
 20
432.779364311639
 30
0.0
 10
375.759666068424
 20
423.2750943800535
 30
0.0
 10
376.4125433992691
 20
413.8745474652129
 30
0.0
 10
376.6152180456997
 20
407.6473606911906
 30
0.0
 10
376.7148405707186
 20
404.5864545486717
 30
0.0
  0
SPLINE
  5
161
330
1F
100
AcDbEntity
  8
0
  6
Continuous
 62
     8
370
     0
100
AcDbSpline
210
0.0
220
0.0
230
1.0
 70
     8
 71
     3
 72
    13
 73
     9
 74
     0
 42
0.000000001
 43
0.00000001
 40
0.0
 40
0.0
 40
0.0
 40
0.0
 40
0.1775298136333886
 40
0.3527476736961375
 40
0.5262061834216832
 40
0.7055902670309833
 40
0.8826652860981367
 40
1.0
 40
1.0
 40
1.0
 40
1.0
 10
361.0440045988863
 20
460.3661556474714
 30
0.0
 10
361.0559753890076
 20
460.4209853078018
 30
0.0
 10
361.0797610748098
 20
460.5299305871058
 30
0.0
 10
361.2127193021802
 20
461.193895118486
 30
0.0
 10
361.3843868865639
 20
462.1986143187146
 30
0.0
 10
361.5640993498238
 20
463.5353607757211
 30
0.0
 10
361.7103279313916
 20
464.9262261384698
 30
0.0
 10
361.7704720186314
 20
465.9078175402817
 30
0.0
 10
361.7944419777697
 20
466.2990231744795
 30
0.0
  0
LWPOLYLINE
  5
162
330
1F
100
AcDbEntity
  8
0
  6
Continuous
 62
     8
370
     0
100
AcDbPolyline
 90
        3
 70
   128
 43
0.0
 10
361.0437326527
 20
460.3602864526
 10
361.0436097181
 20
460.3631679647
 10
361.0440045989
 20
460.3661556475
  0
SPLINE
  5
163
330
1F
100
AcDbEntity
  8
0
  6
Continuous
 62
     8
370
     0
100
AcDbSpline
210
0.0
220
0.0
230
1.0
 70
     8
 71
     3
 72
    12
 73
     8
 74
     0
 42
0.000000001
 43
0.00000001
 40
0.0
 40
0.0
 40
0.0
 40
0.0
 40
0.1759725309450353
 40
0.381983547864565
 40
0.5880747800024555
 40
0.7940887390289896
 40
1.0
 40
1.0
 40
1.0
 40
1.0
 10
356.5033302104777
 20
496.1749377406983
 30
0.0
 10
356.2902519789254
 20
496.7675928088545
 30
0.0
 10
355.8277230920364
 20
498.0540690809091
 30
0.0
 10
355.2402874559698
 20
499.6318418369717
 30
0.0
 10
354.7595007195708
 20
500.9050706205473
 30
0.0
 10
354.4307765592496
 20
501.7605952335961
 30
0.0
 10
354.3861758738554
 20
501.8760248345594
 30
0.0
 10
354.3638810909098
 20
501.933725246027
 30
0.0
  0
SPLINE
  5
164
330
1F
100
AcDbEntity
  8
0
  6
Continuous
 62
     8
370
     0
100
AcDbSpline
210
0.0
220
0.0
230
1.0
 70
     8
 71
     3
 72
    11
 73
     7
 74
     0
 42
0.000000001
 43
0.00000001
 40
0.0
 40
0.0
 40
0.0
 40
0.0
 40
0.5690114841821641
 40
0.5690114841821641
 40
0.784505742091082
 40
1.0
 40
1.0
 40
1.0
 40
1.0
 10
376.7975131885647
 20
398.0980803306696
 30
0.0
 10
376.7975131885647
 20
398.0980803306697
 30
0.0
 10
376.8040213491078
 20
398.2815554379932
 30
0.0
 10
376.8072441692248
 20
398.797599009872
 30
0.0
 10
376.8026005834379
 20
400.207847615352
 30
0.0
 10
376.7532475838921
 20
403.1064179020382
 30
0.0
 10
376.71483937203
 20
404.5864516035567
 30
0.0
  0
SPLINE
  5
165
330
1F
100
AcDbEntity
  8
0
  6
Continuous
 62
     8
370
     0
100
AcDbSpline
210
0.0
220
0.0
230
1.0
 70
     8
 71
     3
 72
    12
 73
     8
 74
     0
 42
0.000000001
 43
0.00000001
 40
0.0
 40
0.0
 40
0.0
 40
0.0
 40
0.0000112962867154
 40
0.2073530871029982
 40
0.5965911570145811
 40
0.9020946442215204
 40
1.0
 40
1.0
 40
1.0
 40
1.0
 10
353.6201939380472
 20
499.2761487819104
 30
0.0
 10
353.6201939380431
 20
499.2761478505961
 30
0.0
 10
353.6201938626403
 20
499.2590527725211
 30
0.0
 10
353.6321435429987
 20
499.1859169022243
 30
0.0
 10
353.6469157574757
 20
498.6269787607969
 30
0.0
 10
353.6517558429596
 20
497.9051550450655
 30
0.0
 10
353.6028675203703
 20
497.4149922960768
 30
0.0
 10
353.5910025632685
 20
497.2960321910529
 30
0.0
  0
SPLINE
  5
166
330
1F
100
AcDbEntity
  8
0
  6
Continuous
 62
     7
370
    15
100
AcDbSpline
210
0.0
220
0.0
230
1.0
 70
     8
 71
     3
 72
     9
 73
     5
 74
     0
 42
0.000000001
 43
0.00000001
 40
0.0
 40
0.0
 40
0.0
 40
0.0
 40
0.3642287963309109
 40
1.0
 40
1.0
 40
1.0
 40
1.0
 10
236.6029034920388
 20
338.6306757560746
 30
0.0
 10
239.1301821468858
 20
338.7071195294417
 30
0.0
 10
246.068893968427
 20
338.9169979743564
 30
0.0
 10
252.9563694715771
 20
339.8084805320642
 30
0.0
 10
257.3352280624562
 20
340.375259470828
 30
0.0
  0
SPLINE
  5
167
330
1F
100
AcDbEntity
  8
0
  6
Continuous
 62
     7
370
    15
100
AcDbSpline
210
0.0
220
0.0
230
1.0
 70
     8
 71
     3
 72
    12
 73
     8
 74
     0
 42
0.000000001
 43
0.00000001
 40
0.0
 40
0.0
 40
0.0
 40
0.0
 40
0.1989773068533384
 40
0.3971332697555253
 40
0.5922638590875613
 40
0.8477321909152974
 40
1.0
 40
1.0
 40
1.0
 40
1.0
 10
127.1292168267423
 20
338.0754305503146
 30
0.0
 10
131.4045965978472
 20
338.0649867244863
 30
0.0
 10
139.9377081108955
 20
338.0441421831387
 30
0.0
 10
152.6635778307895
 20
338.0287850003996
 30
0.0
 10
166.6032683654792
 20
338.0289531603826
 30
0.0
 10
179.5569610063072
 20
338.0461559049153
 30
0.0
 10
188.3178874365051
 20
338.0700378853604
 30
0.0
 10
191.589628494566
 20
338.0789565375821
 30
0.0
  0
SPLINE
  5
168
330
1F
100
AcDbEntity
  8
0
  6
Continuous
 62
     7
370
    15
100
AcDbSpline
210
0.0
220
0.0
230
1.0
 70
     8
 71
     3
 72
     9
 73
     5
 74
     0
 42
0.000000001
 43
0.00000001
 40
0.0
 40
0.0
 40
0.0
 40
0.0
 40
0.6179781320544713
 40
1.0
 40
1.0
 40
1.0
 40
1.0
 10
60.76943609792524
 20
340.3752487606184
 30
0.0
 10
64.89466107419359
 20
339.8391939019612
 30
0.0
 10
71.57001860271004
 20
338.971760523898
 30
0.0
 10
78.29502811076749
 20
338.7361989556246
 30
0.0
 10
80.86412880498703
 20
338.6462092852966
 30
0.0
  0
ARC
  5
169
330
1F
100
AcDbEntity
  8
0
  6
Continuous
 62
     7
370
    15
100
AcDbCircle
 10
80.8664431822
 20
338.7618568763
 30
0.0
 40
0.200000000000065
100
AcDbArc
 50
269.5735554668
 51
281.9896260393
  0
ARC
  5
16A
330
1F
100
AcDbEntity
  8
0
  6
Continuous
 62
     7
370
    15
100
AcDbCircle
 10
80.8664431822
 20
338.7618568763
 30
0.0
 40
0.2000000000000205
100
AcDbArc
 50
281.9896260393
 51
316.6538451926
  0
LINE
  5
16B
330
1F
100
AcDbEntity
  8
0
  6
Continuous
 62
     7
370
    15
100
AcDbLine
 10
81.5664503344
 20
338.5658249712
 30
0.0
 11
81.5664503344
 21
325.3578557155
 31
0.0
  0
LINE
  5
16C
330
1F
100
AcDbEntity
  8
0
  6
Continuous
 62
     7
370
    15
100
AcDbLine
 10
126.5664446719
 20
325.3578557155
 30
0.0
 11
126.5664446719
 21
338.1387893564
 31
0.0
  0
SPLINE
  5
16D
330
1F
100
AcDbEntity
  8
0
  6
Continuous
 62
     7
370
    15
100
AcDbSpline
210
0.0
220
0.0
230
1.0
 70
     8
 71
     3
 72
    42
 73
    38
 74
     0
 42
0.000000001
 43
0.00000001
 40
0.0
 40
0.0
 40
0.0
 40
0.0
 40
0.0745179468111314
 40
0.1549116121846432
 40
0.2307486638861589
 40
0.3020283833240051
 40
0.3687501177425387
 40
0.4309132142882051
 40
0.4853483298818135
 40
0.5357300022577248
 40
0.5820578397413083
 40
0.6243315160383816
 40
0.6625506394343047
 40
0.695005007976578
 40
0.7238237335062498
 40
0.7496563743764226
 40
0.7738049649004751
 40
0.7970084760005869
 40
0.8185777281876732
 40
0.8331298398923405
 40
0.8460559179941363
 40
0.8572721438322998
 40
0.8670044500135408
 40
0.8739296552000596
 40
0.8845449256004267
 40
0.8979299491765272
 40
0.9126250188927648
 40
0.926818392612847
 40
0.9443113398447097
 40
0.9634473065811255
 40
0.9681785271918544
 40
0.9730766364031342
 40
0.9781390567360015
 40
0.9833618108902669
 40
0.9885462192034865
 40
0.9932669724059571
 40
1.0
 40
1.0
 40
1.0
 40
1.0
 10
123.8069060810262
 20
97.80748323414484
 30
0.0
 10
123.8252783158312
 20
103.4614357140854
 30
0.0
 10
123.8634714308443
 20
115.2151531924113
 30
0.0
 10
123.9200915565249
 20
132.7229100454597
 30
0.0
 10
123.9756891233056
 20
149.9849716025145
 30
0.0
 10
124.0276948394002
 20
166.2096938748462
 30
0.0
 10
124.0761503585953
 20
181.3969227820442
 30
0.0
 10
124.1203118280701
 20
195.3060890475669
 30
0.0
 10
124.1603314869075
 20
207.9754736833122
 30
0.0
 10
124.1964227160768
 20
219.4433778346207
 30
0.0
 10
124.2294142607092
 20
229.9885468483531
 30
0.0
 10
124.2595477499747
 20
239.6108989020663
 30
0.0
 10
124.2857843884413
 20
248.1806116323047
 30
0.0
 10
124.3103771672764
 20
255.7294650841741
 30
0.0
 10
124.32702429236
 20
262.3384494187825
 30
0.0
 10
124.3576658437863
 20
268.3174294067767
 30
0.0
 10
124.5023278511039
 20
273.8687740351546
 30
0.0
 10
124.7283491520017
 20
279.0933789362752
 30
0.0
 10
124.9753025075906
 20
283.5878486010475
 30
0.0
 10
125.2020278776278
 20
287.3023221954728
 30
0.0
 10
125.3915227457002
 20
290.2320361697149
 30
0.0
 10
125.5636673978694
 20
292.7963804091487
 30
0.0
 10
125.7081644926767
 20
294.9061575318524
 30
0.0
 10
125.8501995763979
 20
296.9704439354169
 30
0.0
 10
126.0103424811759
 20
299.3112678946501
 30
0.0
 10
126.2046918228158
 20
302.2406393368686
 30
0.0
 10
126.3954777802817
 20
305.4420603251217
 30
0.0
 10
126.5630996458257
 20
308.9573685393206
 30
0.0
 10
126.5804508157201
 20
312.8130510082181
 30
0.0
 10
126.5737458476728
 20
315.9499495182441
 30
0.0
 10
126.5719668669619
 20
318.1317685079015
 30
0.0
 10
126.5710788965447
 20
319.2461103618174
 30
0.0
 10
126.5701927782643
 20
320.3977477251233
 30
0.0
 10
126.5695990200491
 20
321.5710505979357
 30
0.0
 10
126.5667748090552
 20
322.7186125131543
 30
0.0
 10
126.5748294689039
 20
323.9814739399552
 30
0.0
 10
126.5694690802744
 20
324.8482986631699
 30
0.0
 10
126.5663180120641
 20
325.357855715491
 30
0.0
  0
SPLINE
  5
16E
330
1F
100
AcDbEntity
  8
0
  6
Continuous
 62
     7
370
    15
100
AcDbSpline
210
0.0
220
0.0
230
1.0
 70
     8
 71
     3
 72
    38
 73
    34
 74
     0
 42
0.000000001
 43
0.00000001
 40
0.0
 40
0.0
 40
0.0
 40
0.0
 40
0.0083306657861446
 40
0.0148239659806749
 40
0.0217208238091157
 40
0.0282987170514106
 40
0.0345374618295984
 40
0.0404393661016841
 40
0.0530564216825748
 40
0.0640120360464594
 40
0.0881906736639217
 40
0.1046712694456668
 40
0.1179210547499021
 40
0.1309050593934095
 40
0.1430764066895899
 40
0.1540492007323048
 40
0.1683507823715631
 40
0.1876808474466523
 40
0.2118992489046498
 40
0.2394580314024402
 40
0.2687960274472164
 40
0.3008432373574835
 40
0.3416493704489132
 40
0.3876909484306081
 40
0.4389674822206418
 40
0.4954784826710131
 40
0.5572232972364108
 40
0.6242012738819029
 40
0.6921444568489271
 40
0.7647385656428853
 40
0.8419829478903414
 40
0.923876754236341
 40
0.9999999999999999
 40
0.9999999999999999
 40
0.9999999999999999
 40
0.9999999999999999
 10
81.56656954366501
 20
325.357855715491
 30
0.0
 10
81.564247546201
 20
324.7264527998531
 30
0.0
 10
81.56011567819702
 20
323.6029057050841
 30
0.0
 10
81.56557113070129
 20
321.9545068166921
 30
0.0
 10
81.56206328719016
 20
320.4398440852129
 30
0.0
 10
81.56152684358028
 20
318.944322946964
 30
0.0
 10
81.56011105294745
 20
317.5243355500609
 30
0.0
 10
81.55790842079821
 20
315.6462121701064
 30
0.0
 10
81.55858915153105
 20
313.4103307410226
 30
0.0
 10
81.54546554894385
 20
309.787913053139
 30
0.0
 10
81.70494921438446
 20
305.8737118040642
 30
0.0
 10
81.95740712873348
 20
301.7924065977779
 30
0.0
 10
82.17325371632562
 20
298.5594576233182
 30
0.0
 10
82.37348038661177
 20
295.6527965473043
 30
0.0
 10
82.56109697881173
 20
292.9182730033986
 30
0.0
 10
82.7512577772366
 20
290.0835888920608
 30
0.0
 10
82.96917351619845
 20
286.7062852575144
 30
0.0
 10
83.23188402036294
 20
282.3248163383564
 30
0.0
 10
83.51026616753288
 20
276.9367194307516
 30
0.0
 10
83.73268783628185
 20
270.7856594661987
 30
0.0
 10
83.80844572073337
 20
264.0370869413991
 30
0.0
 10
83.81784702037143
 20
256.2834592337667
 30
0.0
 10
83.85095449914864
 20
247.2624268476611
 30
0.0
 10
83.88183303786539
 20
236.7823980213325
 30
0.0
 10
83.9188359618005
 20
225.1107716595109
 30
0.0
 10
83.9590540418425
 20
212.2476770052213
 30
0.0
 10
84.00344736805366
 20
198.1932490024682
 30
0.0
 10
84.0507848138386
 20
183.2714146628715
 30
0.0
 10
84.1009872339179
 20
167.5264003940856
 30
0.0
 10
84.15393177710426
 20
151.0024329554373
 30
0.0
 10
84.21055527679974
 20
133.4199765436763
 30
0.0
 10
84.26826197521456
 20
115.5697511976232
 30
0.0
 10
84.30721582143936
 20
103.5803668517593
 30
0.0
 10
84.32598147470291
 20
97.80459240887323
 30
0.0
  0
LINE
  5
16F
330
1F
100
AcDbEntity
  8
0
  6
Continuous
 62
     7
370
    15
100
AcDbLine
 10
236.6164430596
 20
323.3578553877
 30
0.0
 11
236.6164430596
 21
338.5344580269
 31
0.0
  0
LINE
  5
170
330
1F
100
AcDbEntity
  8
0
  6
Continuous
 62
     7
370
    15
100
AcDbLine
 10
191.516443304
 20
338.0835665843
 30
0.0
 11
191.516443304
 21
323.3578553877
 31
0.0
  0
ARC
  5
171
330
1F
100
AcDbEntity
  8
0
  6
Continuous
 62
     7
370
    15
100
AcDbCircle
 10
235.9164431818
 20
323.3578555963
 30
0.0
 40
0.6999999999999632
100
AcDbArc
 50
311.0
 51
0.0
  0
ARC
  5
172
330
1F
100
AcDbEntity
  8
0
  6
Continuous
 62
     7
370
    15
100
AcDbCircle
 10
192.2164431818
 20
323.3578555963
 30
0.0
 40
0.700000000000017
100
AcDbArc
 50
180.0
 51
229.0
  0
LINE
  5
173
330
1F
100
AcDbEntity
  8
0
  6
Continuous
 62
     7
370
    15
100
AcDbLine
 10
191.7572013654
 20
322.8295589319
 30
0.0
 11
201.56380549
 21
314.3048076412
 31
0.0
  0
LINE
  5
174
330
1F
100
AcDbEntity
  8
0
  6
Continuous
 62
     7
370
    15
100
AcDbLine
 10
226.5690808736
 20
314.3048076412
 30
0.0
 11
236.3756849982
 21
322.8295589319
 31
0.0
  0
ARC
  5
175
330
1F
100
AcDbEntity
  8
0
  6
Continuous
 62
     7
370
    15
100
AcDbCircle
 10
214.0664431818
 20
323.4578555963
 30
0.0
 40
25.0
100
AcDbArc
 50
202.5990391479
 51
247.6669973614
  0
ARC
  5
176
330
1F
100
AcDbEntity
  8
0
  6
Continuous
 62
     7
370
    15
100
AcDbCircle
 10
214.0664431818
 20
323.4578555963
 30
0.0
 40
25.00000000000002
100
AcDbArc
 50
292.341685274
 51
337.4009608521
  0
SPLINE
  5
177
330
1F
100
AcDbEntity
  8
0
  6
Continuous
 62
     7
370
    15
100
AcDbSpline
210
0.0
220
0.0
230
1.0
 70
     8
 71
     3
 72
    11
 73
     7
 74
     0
 42
0.000000001
 43
0.00000001
 40
0.0
 40
0.0
 40
0.0
 40
0.0
 40
0.2668706537798756
 40
0.5218981126198681
 40
0.7817179621916442
 40
1.0
 40
1.0
 40
1.0
 40
1.0
 10
231.2406256415301
 20
288.636585184075
 30
0.0
 10
231.1518712607688
 20
289.1549012298424
 30
0.0
 10
230.9783012441708
 20
290.1685314742892
 30
0.0
 10
230.0610172466156
 20
291.6459557567227
 30
0.0
 10
228.7619520618459
 20
293.0072181112825
 30
0.0
 10
227.6630540183368
 20
293.7185113695859
 30
0.0
 10
227.161341495102
 20
294.0432591817157
 30
0.0
  0
SPLINE
  5
178
330
1F
100
AcDbEntity
  8
0
  6
Continuous
 62
     7
370
    15
100
AcDbSpline
210
0.0
220
0.0
230
1.0
 70
     8
 71
     3
 72
    11
 73
     7
 74
     0
 42
0.000000001
 43
0.00000001
 40
0.0
 40
0.0
 40
0.0
 40
0.0
 40
0.2182820378083558
 40
0.4781018873801319
 40
0.7331293462201244
 40
1.0
 40
1.0
 40
1.0
 40
1.0
 10
200.9715448685342
 20
294.0432591817157
 30
0.0
 10
200.4698323452994
 20
293.7185113695859
 30
0.0
 10
199.3709343017903
 20
293.0072181112826
 30
0.0
 10
198.0718691170206
 20
291.6459557567227
 30
0.0
 10
197.1545851194653
 20
290.1685314742892
 30
0.0
 10
196.9810151028674
 20
289.1549012298424
 30
0.0
 10
196.892260722106
 20
288.636585184075
 30
0.0
  0
SPLINE
  5
179
330
1F
100
AcDbEntity
  8
0
  6
Continuous
 62
     7
370
    15
100
AcDbSpline
210
0.0
220
0.0
230
1.0
 70
     8
 71
     3
 72
    10
 73
     6
 74
     0
 42
0.000000001
 43
0.00000001
 40
0.0
 40
0.0
 40
0.0
 40
0.0
 40
0.1878828013575066
 40
0.452584009121609
 40
1.0
 40
1.0
 40
1.0
 40
1.0
 10
205.2918068684989
 20
298.3154407224433
 30
0.0
 10
205.1081712755852
 20
297.9136168408504
 30
0.0
 10
204.6658182115592
 20
296.9456779875963
 30
0.0
 10
203.1106032336115
 20
295.3563137163923
 30
0.0
 10
201.7935789735293
 20
294.5649619681527
 30
0.0
 10
200.9058251597338
 20
294.031543143727
 30
0.0
  0
SPLINE
  5
17A
330
1F
100
AcDbEntity
  8
0
  6
Continuous
 62
     7
370
    15
100
AcDbSpline
210
0.0
220
0.0
230
1.0
 70
     8
 71
     3
 72
    10
 73
     6
 74
     0
 42
0.000000001
 43
0.00000001
 40
0.0
 40
0.0
 40
0.0
 40
0.0
 40
0.5474287768037128
 40
0.8121361671600876
 40
1.0
 40
1.0
 40
1.0
 40
1.0
 10
227.2270612039023
 20
294.031543143727
 30
0.0
 10
226.3393084648177
 20
294.5649629628606
 30
0.0
 10
225.0222857991193
 20
295.3563161867958
 30
0.0
 10
223.4671003709921
 20
296.9456370662877
 30
0.0
 10
223.0247670958722
 20
297.9135228151305
 30
0.0
 10
222.8411530696207
 20
298.3152954361216
 30
0.0
  0
SPLINE
  5
17B
330
1F
100
AcDbEntity
  8
0
  6
Continuous
 62
     7
370
    15
100
AcDbSpline
210
0.0
220
0.0
230
1.0
 70
     8
 71
     3
 72
    12
 73
     8
 74
     0
 42
0.000000001
 43
0.00000001
 40
0.0
 40
0.0
 40
0.0
 40
0.0
 40
0.1437489764960584
 40
0.4026775438952633
 40
0.6984509237007609
 40
0.9418933811064986
 40
1.0
 40
1.0
 40
1.0
 40
1.0
 10
204.5686535157614
 20
300.3224855742232
 30
0.0
 10
204.6199032671293
 20
300.3040852628981
 30
0.0
 10
204.7634668910875
 20
300.2525412981902
 30
0.0
 10
205.1911999535945
 20
299.8962248548341
 30
0.0
 10
205.4296437765102
 20
299.3109147216217
 30
0.0
 10
205.4048730153524
 20
298.8908841485268
 30
0.0
 10
205.3863043659901
 20
298.8214022363012
 30
0.0
 10
205.3827263035231
 20
298.8080135068671
 30
0.0
  0
SPLINE
  5
17C
330
1F
100
AcDbEntity
  8
0
  6
Continuous
 62
     7
370
    15
100
AcDbSpline
210
0.0
220
0.0
230
1.0
 70
     8
 71
     3
 72
    12
 73
     8
 74
     0
 42
0.000000001
 43
0.00000001
 40
0.0
 40
0.0
 40
0.0
 40
0.0
 40
0.0704445105972736
 40
0.3280804163651727
 40
0.6425626168926105
 40
0.9114739120341548
 40
1.0
 40
1.0
 40
1.0
 40
1.0
 10
222.7437916763478
 20
298.8556487939135
 30
0.0
 10
222.7391884999811
 20
298.8747007342355
 30
0.0
 10
222.7177501791501
 20
298.9634311187667
 30
0.0
 10
222.7264385705879
 20
299.4362163158912
 30
0.0
 10
223.0256573968606
 20
300.0007706576914
 30
0.0
 10
223.4334147947706
 20
300.2825095487516
 30
0.0
 10
223.5379057357018
 20
300.3173388612977
 30
0.0
 10
223.5637848817163
 20
300.325964995362
 30
0.0
  0
SPLINE
  5
17D
330
1F
100
AcDbEntity
  8
0
  6
Continuous
 62
     7
370
    15
100
AcDbSpline
210
0.0
220
0.0
230
1.0
 70
     8
 71
     3
 72
    10
 73
     6
 74
     0
 42
0.000000001
 43
0.00000001
 40
0.0
 40
0.0
 40
0.0
 40
0.0
 40
0.3802902271493421
 40
0.9582016489711259
 40
1.0
 40
1.0
 40
1.0
 40
1.0
 10
122.751345074957
 20
93.97070244763056
 30
0.0
 10
122.9898546657143
 20
94.32797980872942
 30
0.0
 10
123.5908174747568
 20
95.22819688533207
 30
0.0
 10
123.8005352911465
 20
96.69396680206755
 30
0.0
 10
123.7684286979801
 20
97.62509821425047
 30
0.0
 10
123.7662631638699
 20
97.68790141556421
 30
0.0
  0
SPLINE
  5
17E
330
1F
100
AcDbEntity
  8
0
  6
Continuous
 62
     7
370
    15
100
AcDbSpline
210
0.0
220
0.0
230
1.0
 70
     8
 71
     3
 72
     9
 73
     5
 74
     0
 42
0.000000001
 43
0.00000001
 40
0.0
 40
0.0
 40
0.0
 40
0.0
 40
0.5086490132305213
 40
1.0
 40
1.0
 40
1.0
 40
1.0
 10
84.36578247625168
 20
97.662748255469
 30
0.0
 10
84.36176713671075
 20
97.60752031031639
 30
0.0
 10
84.35387301043417
 20
97.49894260011541
 30
0.0
 10
84.37335916936617
 20
97.4041792455016
 30
0.0
 10
84.3829337127858
 20
97.35761717770258
 30
0.0
  0
SPLINE
  5
17F
330
1F
100
AcDbEntity
  8
0
  6
Continuous
 62
     7
370
    15
100
AcDbSpline
210
0.0
220
0.0
230
1.0
 70
     8
 71
     3
 72
     9
 73
     5
 74
     0
 42
0.000000001
 43
0.00000001
 40
0.0
 40
0.0
 40
0.0
 40
0.0
 40
0.5705061105917396
 40
1.0
 40
1.0
 40
1.0
 40
1.0
 10
84.40687987882431
 20
97.2027941128985
 30
0.0
 10
84.4622529213428
 20
96.45739641919127
 30
0.0
 10
84.55931242954168
 20
95.15084127478795
 30
0.0
 10
85.13424666246891
 20
94.32556905544864
 30
0.0
 10
85.38117740232285
 20
93.97111968014399
 30
0.0
  0
SPLINE
  5
180
330
1F
100
AcDbEntity
  8
0
  6
Continuous
 62
     7
370
    15
100
AcDbSpline
210
0.0
220
0.0
230
1.0
 70
     8
 71
     3
 72
    11
 73
     7
 74
     0
 42
0.000000001
 43
0.00000001
 40
0.0
 40
0.0
 40
0.0
 40
0.0
 40
0.1574671745863255
 40
0.5478534017525781
 40
0.9382733768696587
 40
0.9999999999999999
 40
0.9999999999999999
 40
0.9999999999999999
 40
0.9999999999999999
 10
85.53541932184037
 20
93.64389018032709
 30
0.0
 10
85.6346352496733
 20
93.49438141980471
 30
0.0
 10
85.9798232783156
 20
92.97421660920746
 30
0.0
 10
86.82684358428236
 20
92.29777571441933
 30
0.0
 10
87.6710555285504
 20
91.83190447072408
 30
0.0
 10
88.15879166724436
 20
91.67557014622379
 30
0.0
 10
88.22537694055374
 20
91.65422753307978
 30
0.0
  0
SPLINE
  5
181
330
1F
100
AcDbEntity
  8
0
  6
Continuous
 62
     7
370
    15
100
AcDbSpline
210
0.0
220
0.0
230
1.0
 70
     8
 71
     3
 72
    10
 73
     6
 74
     0
 42
0.000000001
 43
0.00000001
 40
0.0
 40
0.0
 40
0.0
 40
0.0
 40
0.326261254091401
 40
0.682616898348989
 40
1.0
 40
1.0
 40
1.0
 40
1.0
 10
119.9065271385365
 20
91.65616468403498
 30
0.0
 10
120.2805365192574
 20
91.80478237827971
 30
0.0
 10
121.0630539656887
 20
92.1157262866137
 30
0.0
 10
122.0576542923946
 20
92.88154916541264
 30
0.0
 10
122.550625827601
 20
93.55256085074848
 30
0.0
 10
122.7828535803014
 20
93.86865929577509
 30
0.0
  0
SPLINE
  5
182
330
1F
100
AcDbEntity
  8
0
  6
Continuous
 62
     7
370
    15
100
AcDbSpline
210
0.0
220
0.0
230
1.0
 70
     8
 71
     3
 72
     9
 73
     5
 74
     0
 42
0.000000001
 43
0.00000001
 40
0.0
 40
0.0
 40
0.0
 40
0.0
 40
0.5004009753646405
 40
1.0
 40
1.0
 40
1.0
 40
1.0
 10
214.0664431818181
 20
272.7452604553477
 30
0.0
 10
216.7188326923618
 20
272.752476805041
 30
0.0
 10
222.0193609509468
 20
272.7668979393885
 30
0.0
 10
227.3161488616136
 20
272.9580408609486
 30
0.0
 10
229.962418935483
 20
273.053535678126
 30
0.0
  0
SPLINE
  5
183
330
1F
100
AcDbEntity
  8
0
  6
Continuous
 62
     7
370
    15
100
AcDbSpline
210
0.0
220
0.0
230
1.0
 70
     8
 71
     3
 72
     9
 73
     5
 74
     0
 42
0.000000001
 43
0.00000001
 40
0.0
 40
0.0
 40
0.0
 40
0.0
 40
0.4995990246353593
 40
1.0
 40
1.0
 40
1.0
 40
1.0
 10
198.1704674281531
 20
273.053535678126
 30
0.0
 10
200.8167375020226
 20
272.9580408609486
 30
0.0
 10
206.1135254126893
 20
272.7668979393885
 30
0.0
 10
211.4140536712743
 20
272.752476805041
 30
0.0
 10
214.0664431818181
 20
272.7452604553477
 30
0.0
  0
ARC
  5
184
330
1F
100
AcDbEntity
  8
0
  6
Continuous
 62
     7
370
    15
100
AcDbCircle
 10
229.79014374
 20
274.3940729211
 30
0.0
 40
1.40099935534232
100
AcDbArc
 50
286.3335306508
 51
349.1507128259
  0
SPLINE
  5
185
330
1F
100
AcDbEntity
  8
0
  6
Continuous
 62
     7
370
    15
100
AcDbSpline
210
0.0
220
0.0
230
1.0
 70
     8
 71
     3
 72
    12
 73
     8
 74
     0
 42
0.000000001
 43
0.00000001
 40
0.0
 40
0.0
 40
0.0
 40
0.0
 40
0.151622927117913
 40
0.4437269337176635
 40
0.69767803760394
 40
0.9096977772168209
 40
1.0
 40
1.0
 40
1.0
 40
1.0
 10
197.098967767542
 20
273.8020731589572
 30
0.0
 10
197.1194698687048
 20
273.743019490204
 30
0.0
 10
197.1794695973519
 20
273.5701979792446
 30
0.0
 10
197.3846992128292
 20
273.3588818493511
 30
0.0
 10
197.6272932390086
 20
273.1772075543508
 30
0.0
 10
197.8308471054989
 20
273.0827888140844
 30
0.0
 10
197.9215131750243
 20
273.0568273530536
 30
0.0
 10
197.9485947259122
 20
273.0490727803485
 30
0.0
  0
LINE
  5
186
330
1F
100
AcDbEntity
  8
0
  6
Continuous
 62
     7
370
    15
100
AcDbLine
 10
259.2781122394
 20
342.1578555821
 30
0.0
 11
259.2781122394
 21
348.0578555713
 31
0.0
  0
ARC
  5
187
330
1F
100
AcDbEntity
  8
0
  6
Continuous
 62
     7
370
    15
100
AcDbCircle
 10
257.4781137135
 20
342.1578555963
 30
0.0
 40
1.800000000000011
100
AcDbArc
 50
277.9835561456
 51
0.0
  0
SPLINE
  5
188
330
1F
100
AcDbEntity
  8
0
  6
Continuous
 62
     7
370
    15
100
AcDbSpline
210
0.0
220
0.0
230
1.0
 70
    24
 71
     3
 72
    36
 73
    32
 74
     0
 42
0.000000001
 43
0.00000001
 40
0.0
 40
0.0
 40
0.0
 40
0.0
 40
0.0518528915310284
 40
0.1027572093555064
 40
0.1527130482868956
 40
0.2017205086436505
 40
0.2497796966831448
 40
0.386577574815877
 40
0.4995608456981573
 40
0.5714513260140855
 40
0.6244231846128511
 40
0.6400285207735367
 40
0.6556410674207636
 40
0.6712858228836766
 40
0.6869937556089538
 40
0.7026178942488411
 40
0.7105775473279952
 40
0.7182554312024706
 40
0.734063224304249
 40
0.7495994819893242
 40
0.764866823439024
 40
0.7809576416527455
 40
0.7960547817468892
 40
0.8123273902348094
 40
0.8415888540873476
 40
0.8750412885609057
 40
0.9047006620375102
 40
0.9374837757527725
 40
0.9572465590814837
 40
0.9780827831597801
 40
1.0
 40
1.0
 40
1.0
 40
1.0
 10
159.0664431818181
 20
348.3578555962817
 30
0.0
 10
161.2315224482589
 20
348.3578555962817
 30
0.0
 10
165.5220739851929
 20
348.3578555962817
 30
0.0
 10
171.8984837919108
 20
348.3578555962817
 30
0.0
 10
178.1560617197956
 20
348.3578555962817
 30
0.0
 10
184.2948082623058
 20
348.3578555962817
 30
0.0
 10
194.0594561498207
 20
348.3578555962817
 30
0.0
 10
206.4950657767864
 20
348.3578555962817
 30
0.0
 10
219.9247387035589
 20
348.3578555962817
 30
0.0
 10
229.8527091252047
 20
348.3578555962817
 30
0.0
 10
235.7140113418599
 20
348.3578555962817
 30
0.0
 10
239.2233759582004
 20
348.3578555962817
 30
0.0
 10
241.1739581830135
 20
348.3578555962817
 30
0.0
 10
243.1220564524162
 20
348.3578555962817
 30
0.0
 10
245.0521889635291
 20
348.3578555962817
 30
0.0
 10
246.6393528513141
 20
348.3578555962817
 30
0.0
 10
247.8675079875768
 20
348.3578555962817
 30
0.0
 10
249.0721996449628
 20
348.3578555962817
 30
0.0
 10
250.4942940157784
 20
348.3578555962817
 30
0.0
 10
252.0195575035035
 20
348.3578555962817
 30
0.0
 10
253.3427036288354
 20
348.3578555962817
 30
0.0
 10
254.4406895374466
 20
348.3578555962817
 30
0.0
 10
255.365829079334
 20
348.3578555962817
 30
0.0
 10
256.3352346424753
 20
348.3578555962817
 30
0.0
 10
257.2688483305438
 20
348.3578555962817
 30
0.0
 10
257.9981580090812
 20
348.3578555962817
 30
0.0
 10
258.4938382378743
 20
348.3578555962817
 30
0.0
 10
258.7555576810737
 20
348.3578555962817
 30
0.0
 10
258.8956756998919
 20
348.3578555962817
 30
0.0
 10
258.9657468616415
 20
348.3578555962817
 30
0.0
 10
258.9739225241526
 20
348.3578555962817
 30
0.0
 10
258.978113713545
 20
348.3578555962817
 30
0.0
  0
ARC
  5
189
330
1F
100
AcDbEntity
  8
0
  6
Continuous
 62
     7
370
    15
100
AcDbCircle
 10
258.9781137135
 20
348.0578555963
 30
0.0
 40
0.3000000000000682
100
AcDbArc
 50
0.0
 51
90.0
  0
LINE
  5
18A
330
1F
100
AcDbEntity
  8
0
  6
Continuous
 62
     7
370
    15
100
AcDbLine
 10
58.854770995
 20
342.1578555821
 30
0.0
 11
58.854770995
 21
348.0578555713
 31
0.0
  0
ARC
  5
18B
330
1F
100
AcDbEntity
  8
0
  6
Continuous
 62
     7
370
    15
100
AcDbCircle
 10
60.6547726501
 20
342.1578555963
 30
0.0
 40
1.799999999999997
100
AcDbArc
 50
180.0
 51
262.0164438544
  0
ARC
  5
18C
330
1F
100
AcDbEntity
  8
0
  6
Continuous
 62
     7
370
    15
100
AcDbCircle
 10
59.1547726501
 20
348.0578555963
 30
0.0
 40
0.3000000000000114
100
AcDbArc
 50
90.0
 51
180.0
  0
SPLINE
  5
18D
330
1F
100
AcDbEntity
  8
0
  6
Continuous
 62
     7
370
    15
100
AcDbSpline
210
0.0
220
0.0
230
1.0
 70
    24
 71
     3
 72
    39
 73
    35
 74
     0
 42
0.000000001
 43
0.00000001
 40
0.0
 40
0.0
 40
0.0
 40
0.0
 40
0.009531192280197
 40
0.0188632618809566
 40
0.0279967305264383
 40
0.0369321547287807
 40
0.0456701288399153
 40
0.0542112884316305
 40
0.062556314045053
 40
0.0953461977296853
 40
0.125018335827641
 40
0.1584683131170025
 40
0.1877346704611177
 40
0.2040343971542492
 40
0.2191631314044718
 40
0.2352235789209644
 40
0.2504737195738981
 40
0.2660322647855699
 40
0.2818760117592504
 40
0.289574377381529
 40
0.2975803205501892
 40
0.313315038844165
 40
0.3289131512708649
 40
0.34447812320846
 40
0.3600528727660204
 40
0.375643963101025
 40
0.4088608335294238
 40
0.4504815696342869
 40
0.5005104151453151
 40
0.6134778065975062
 40
0.7502553502672172
 40
0.8308682024634462
 40
0.9141162641916379
 40
1.0
 40
1.0
 40
1.0
 40
1.0
 10
59.15477265009111
 20
348.3578555962817
 30
0.0
 10
59.1555689058823
 20
348.3578555962817
 30
0.0
 10
59.15714478233846
 20
348.3578555962817
 30
0.0
 10
59.17020874827386
 20
348.3578555962817
 30
0.0
 10
59.19116263788823
 20
348.3578555962817
 30
0.0
 10
59.22072869742387
 20
348.3578555962817
 30
0.0
 10
59.25872084563347
 20
348.3578555962817
 30
0.0
 10
59.30518183570721
 20
348.3578555962817
 30
0.0
 10
59.41418892359951
 20
348.3578555962817
 30
0.0
 10
59.63956394168562
 20
348.3578555962817
 30
0.0
 10
60.13576090179382
 20
348.3578555962817
 30
0.0
 10
60.86573787700669
 20
348.3578555962817
 30
0.0
 10
61.80038140931027
 20
348.3578555962817
 30
0.0
 10
62.7717259945558
 20
348.3578555962817
 30
0.0
 10
63.69860858921722
 20
348.3578555962817
 30
0.0
 10
64.79761493554231
 20
348.3578555962817
 30
0.0
 10
66.12117260907033
 20
348.3578555962817
 30
0.0
 10
67.64887781664689
 20
348.3578555962817
 30
0.0
 10
69.07472775209986
 20
348.3578555962817
 30
0.0
 10
70.28406257297115
 20
348.3578555962817
 30
0.0
 10
71.51986686645797
 20
348.3578555962817
 30
0.0
 10
73.10943366852956
 20
348.3578555962817
 30
0.0
 10
75.03699483647408
 20
348.3578555962817
 30
0.0
 10
76.97552734778887
 20
348.3578555962817
 30
0.0
 10
78.92071527103676
 20
348.3578555962817
 30
0.0
 10
81.6044163537083
 20
348.3578555962817
 30
0.0
 10
85.3767676100988
 20
348.3578555962817
 30
0.0
 10
90.5878797070581
 20
348.3578555962817
 30
0.0
 10
99.12909504865058
 20
348.3578555962817
 30
0.0
 10
111.6445274968345
 20
348.3578555962817
 30
0.0
 10
125.4378412825381
 20
348.3578555962817
 30
0.0
 10
137.9905864107149
 20
348.3578555962817
 30
0.0
 10
148.4184487420762
 20
348.3578555962817
 30
0.0
 10
155.4804281287083
 20
348.3578555962817
 30
0.0
 10
159.0664431818181
 20
348.3578555962817
 30
0.0
  0
SPLINE
  5
18E
330
1F
100
AcDbEntity
  8
0
  6
Continuous
 62
     7
370
    15
100
AcDbSpline
210
0.0
220
0.0
230
1.0
 70
     8
 71
     3
 72
    26
 73
    22
 74
     0
 42
0.000000001
 43
0.00000001
 40
0.0
 40
0.0
 40
0.0
 40
0.0
 40
0.036274733879386
 40
0.0890013801546553
 40
0.1432532157746194
 40
0.1960588605226872
 40
0.2503851822268746
 40
0.3033749357938786
 40
0.3579001210271357
 40
0.4108988468196774
 40
0.4654447595588611
 40
0.5182633891432021
 40
0.5726190432365349
 40
0.6253583998734132
 40
0.6796184623281294
 40
0.7325157252511237
 40
0.7869429374496248
 40
0.839891906368246
 40
0.8943827339273687
 40
0.94723539199904
 40
1.0
 40
1.0
 40
1.0
 40
1.0
 10
191.5896173186951
 20
338.0835852107779
 30
0.0
 10
191.5890497307128
 20
338.0835424927195
 30
0.0
 10
191.5876571329351
 20
338.083437682408
 30
0.0
 10
192.3173987850119
 20
338.1486162739658
 30
0.0
 10
193.6490766962895
 20
338.2620673156221
 30
0.0
 10
195.5962243618823
 20
338.415643337455
 30
0.0
 10
198.0409648512606
 20
338.5875161549639
 30
0.0
 10
200.9684155145895
 20
338.7624942621904
 30
0.0
 10
204.2437021916765
 20
338.9182894920418
 30
0.0
 10
207.831042867207
 20
339.0400475501307
 30
0.0
 10
211.5599182773601
 20
339.1123269981435
 30
0.0
 10
215.3904991933751
 20
339.1290850907106
 30
0.0
 10
219.1426323835039
 20
339.0898212800658
 30
0.0
 10
222.7820157743343
 20
339.0014815397819
 30
0.0
 10
226.1446209225416
 20
338.8812718939956
 30
0.0
 10
229.1985404069339
 20
338.7511587122063
 30
0.0
 10
231.8017989483352
 20
338.6415876987443
 30
0.0
 10
233.9284534333798
 20
338.5713603928353
 30
0.0
 10
235.4608681570152
 20
338.5418401696394
 30
0.0
 10
236.4365683485938
 20
338.5350508884435
 30
0.0
 10
236.5501970648359
 20
338.5346611270546
 30
0.0
 10
236.6069640584641
 20
338.5344664088265
 30
0.0
  0
SPLINE
  5
18F
330
1F
100
AcDbEntity
  8
0
  6
Continuous
 62
     7
370
    15
100
AcDbSpline
210
0.0
220
0.0
230
1.0
 70
     8
 71
     3
 72
    26
 73
    22
 74
     0
 42
0.000000001
 43
0.00000001
 40
0.0
 40
0.0
 40
0.0
 40
0.0
 40
0.0527663151992073
 40
0.1070572114080932
 40
0.1599736611078418
 40
0.2144262680644082
 40
0.2672569796466157
 40
0.3216109126367458
 40
0.3745189424212915
 40
0.4289649708595235
 40
0.4818105382000091
 40
0.5362016822128801
 40
0.5888817193468923
 40
0.6430876947567662
 40
0.6958622014738168
 40
0.7501571319364769
 40
0.8031364657994015
 40
0.8576511498310184
 40
0.9106350992062541
 40
0.9651647073807621
 40
1.0
 40
1.0
 40
1.0
 40
1.0
 10
80.85792992193039
 20
338.562038213648
 30
0.0
 10
80.91966591439167
 20
338.5620368449641
 30
0.0
 10
81.044921641866
 20
338.5620340680509
 30
0.0
 10
82.05361194188329
 20
338.566328735457
 30
0.0
 10
83.65152421385092
 20
338.5952152129703
 30
0.0
 10
85.82393331828509
 20
338.6676807140895
 30
0.0
 10
88.52906350393869
 20
338.7853424426868
 30
0.0
 10
91.64732018063137
 20
338.9240011051485
 30
0.0
 10
95.14949954895938
 20
339.0544006417032
 30
0.0
 10
98.87405377287692
 20
339.1480027742368
 30
0.0
 10
102.7804825474319
 20
339.1897495233558
 30
0.0
 10
106.6826226068977
 20
339.1715375487419
 30
0.0
 10
110.5407847174199
 20
339.093994706327
 30
0.0
 10
114.178896642307
 20
338.9665354645651
 30
0.0
 10
117.5639518649948
 20
338.8007229279465
 30
0.0
 10
120.5449928830991
 20
338.6170141661219
 30
0.0
 10
123.0853073336512
 20
338.4329499327309
 30
0.0
 10
125.0792670885117
 20
338.2706048531247
 30
0.0
 10
126.4521002536497
 20
338.1500800171595
 30
0.0
 10
127.2290958827534
 20
338.078461208734
 30
0.0
 10
127.1572520441487
 20
338.0850824494175
 30
0.0
 10
127.1292466290646
 20
338.0876634723322
 30
0.0
  0
SPLINE
  5
190
330
1F
100
AcDbEntity
  8
0
  6
Continuous
 62
     7
370
    15
100
AcDbSpline
210
0.0
220
0.0
230
1.0
 70
    24
 71
     3
 72
    11
 73
     7
 74
     0
 42
0.000000001
 43
0.00000001
 40
0.5368636735614428
 40
0.5368636735614428
 40
0.5368636735614428
 40
0.5368636735614428
 40
0.6526477551766044
 40
0.7684318367917663
 40
0.8842159184069281
 40
1.0
 40
1.0
 40
1.0
 40
1.0
 10
104.0664431818181
 20
325.3578555962816
 30
0.0
 10
101.2629580098646
 20
325.3578555962816
 30
0.0
 10
95.6562344678149
 20
325.3578555962816
 30
0.0
 10
88.4325449909861
 20
325.3578555962816
 30
0.0
 10
83.3859531340557
 20
325.3578555962816
 30
0.0
 10
81.89800596192079
 20
325.3578555962816
 30
0.0
 10
81.65550835063928
 20
325.3578555962816
 30
0.0
  0
SPLINE
  5
191
330
1F
100
AcDbEntity
  8
0
  6
Continuous
 62
     7
370
    15
100
AcDbSpline
210
0.0
220
0.0
230
1.0
 70
    24
 71
     3
 72
    22
 73
    18
 74
     0
 42
0.000000001
 43
0.00000001
 40
0.0
 40
0.0
 40
0.0
 40
0.0
 40
0.125
 40
0.125
 40
0.25
 40
0.25
 40
0.375
 40
0.375
 40
0.5
 40
0.5
 40
0.625
 40
0.625
 40
0.75
 40
0.75
 40
0.875
 40
0.875
 40
1.0
 40
1.0
 40
1.0
 40
1.0
 10
126.477378012833
 20
325.3578555962816
 30
0.0
 10
126.3538955157985
 20
325.3578555962817
 30
0.0
 10
126.1019052152082
 20
325.3578555962816
 30
0.0
 10
125.3495099878504
 20
325.3578555962816
 30
0.0
 10
124.8491197968195
 20
325.3578555962816
 30
0.0
 10
123.6170336733592
 20
325.3578555962816
 30
0.0
 10
122.8853618714611
 20
325.3578555962816
 30
0.0
 10
121.2157343486272
 20
325.3578555962816
 30
0.0
 10
120.2778113275151
 20
325.3578555962816
 30
0.0
 10
118.227760133096
 20
325.3578555962816
 30
0.0
 10
117.1156721102489
 20
325.3578555962816
 30
0.0
 10
114.7553292134859
 20
325.3578555962816
 30
0.0
 10
113.5071205671242
 20
325.3578555962816
 30
0.0
 10
110.9172329736946
 20
325.3578555962816
 30
0.0
 10
109.5756047498369
 20
325.3578555962816
 30
0.0
 10
106.8447721579017
 20
325.3578555962816
 30
0.0
 10
105.4556212734565
 20
325.3578555962816
 30
0.0
 10
104.0664431818181
 20
325.3578555962816
 30
0.0
  0
SPLINE
  5
192
330
1F
100
AcDbEntity
  8
0
  6
Continuous
 62
     7
370
    15
100
AcDbSpline
210
0.0
220
0.0
230
1.0
 70
     8
 71
     3
 72
     9
 73
     5
 74
     0
 42
0.000000001
 43
0.00000001
 40
0.0
 40
0.0
 40
0.0
 40
0.0
 40
0.2572704662175579
 40
1.0
 40
1.0
 40
1.0
 40
1.0
 10
123.7702194221669
 20
98.35685924503962
 30
0.0
 10
123.7792127648569
 20
98.30167418569965
 30
0.0
 10
123.8141695277617
 20
98.0871720698863
 30
0.0
 10
123.7903441345981
 20
97.92675152210047
 30
0.0
 10
123.7726483114415
 20
97.80760244343439
 30
0.0
  0
SPLINE
  5
193
330
1F
100
AcDbEntity
  8
0
  6
Continuous
 62
     7
370
    15
100
AcDbSpline
210
0.0
220
0.0
230
1.0
 70
     8
 71
     3
 72
     9
 73
     5
 74
     0
 42
0.000000001
 43
0.00000001
 40
0.0
 40
0.0
 40
0.0
 40
0.0
 40
0.3139677994168346
 40
1.0
 40
1.0
 40
1.0
 40
1.0
 10
84.36619970876511
 20
98.3622087619082
 30
0.0
 10
84.35470026295161
 20
98.29408248355436
 30
0.0
 10
84.31807406805247
 20
98.0770975619146
 30
0.0
 10
84.34163315890825
 20
97.91553431014586
 30
0.0
 10
84.35779545385178
 20
97.80469671700159
 30
0.0
  0
ELLIPSE
  5
194
330
1F
100
AcDbEntity
  8
0
  6
Continuous
 62
     7
370
    15
100
AcDbEllipse
 10
214.0664431818
 20
315.1486814522
 30
0.0
 11
12.97894729201997
 21
0.0
 31
0.0
210
0.0
220
0.0
230
1.0
 40
0.2422251455
 41
3.413347351514271
 42
6.011430609255214
  0
LWPOLYLINE
  5
195
330
1F
100
AcDbEntity
  8
0
  6
Continuous
 62
     7
370
    15
100
AcDbPolyline
 90
       26
 70
   128
 43
0.0
 10
237.1468592055
 20
313.8508586666
 10
236.9755033024
 20
313.5388395271
 10
236.3648555793
 20
312.9052496037
 10
235.4161861904
 20
312.2935122332
 10
234.1438784816
 20
311.7129033885
 10
232.567216418
 20
311.1722222051
 10
230.7100995995
 20
310.6796680472
 10
228.6006837704
 20
310.242702671
 10
226.2709440284
 20
309.8679533682
 10
223.7561951943
 20
309.5611012063
 10
221.0945604921
 20
309.326799073
 10
218.3263862126
 20
309.1685934446
 10
215.493635772
 20
309.0888871333
 10
212.6392505916
 20
309.0888871333
 10
209.806500151
 20
309.1685934446
 10
207.0383258716
 20
309.326799073
 10
204.3766911693
 20
309.5611012063
 10
201.8619423353
 20
309.8679533682
 10
199.5322025933
 20
310.242702671
 10
197.4227867641
 20
310.6796680472
 10
195.5656699457
 20
311.1722222051
 10
193.9890078821
 20
311.7129033885
 10
192.7167001732
 20
312.2935122332
 10
191.7680307843
 20
312.9052496037
 10
191.1573830612
 20
313.5388395271
 10
190.9860271581
 20
313.8508586666
  0
LWPOLYLINE
  5
196
330
1F
100
AcDbEntity
  8
0
  6
Continuous
 62
     7
370
    15
100
AcDbPolyline
 90
        9
 70
   128
 43
0.0
 10
236.946252323
 20
314.085533329
 10
237.019020281
 20
314.2864307842
 10
237.019020281
 20
314.9427002749
 10
236.6570431359
 20
315.5937953374
 10
235.9387997158
 20
316.2294490716
 10
234.8756167658
 20
316.8396329961
 10
233.4842599549
 20
317.4147265485
 10
231.7866731055
 20
317.9456605098
 10
230.9947080531
 20
318.1519465974
  0
LWPOLYLINE
  5
197
330
1F
100
AcDbEntity
  8
0
  6
Continuous
 62
     7
370
    15
100
AcDbPolyline
 90
       10
 70
   128
 43
0.0
 10
197.1381783106
 20
318.1519465974
 10
196.3462132581
 20
317.9456605098
 10
194.6486264088
 20
317.4147265485
 10
193.2572695978
 20
316.8396329961
 10
192.1940866478
 20
316.2294490716
 10
191.4758432277
 20
315.5937953374
 10
191.1138660826
 20
314.9427002749
 10
191.1138660826
 20
314.2864307842
 10
191.4758432277
 20
313.6353357217
 10
191.6497937955
 20
313.4470297477
  0
LINE
  5
198
330
1F
100
AcDbEntity
  8
0
  6
Continuous
 62
     7
370
    15
100
AcDbLine
 10
196.9301152595
 20
288.6337204358
 30
0.0
 11
196.866388581
 21
288.1984053633
 31
0.0
  0
SPLINE
  5
199
330
1F
100
AcDbEntity
  8
0
  6
Continuous
 62
     7
370
    15
100
AcDbSpline
210
0.0
220
0.0
230
1.0
 70
     8
 71
     3
 72
     9
 73
     5
 74
     0
 42
0.000000001
 43
0.00000001
 40
0.0
 40
0.0
 40
0.0
 40
0.0
 40
0.4700180961894886
 40
1.0
 40
1.0
 40
1.0
 40
1.0
 10
200.3964969508701
 20
293.643040069081
 30
0.0
 10
200.459494066359
 20
293.7081515275743
 30
0.0
 10
200.5935253217502
 20
293.8466812119019
 30
0.0
 10
200.8416973559686
 20
293.973682235599
 30
0.0
 10
200.9732240431362
 20
294.0409904799239
 30
0.0
  0
SPLINE
  5
19A
330
1F
100
AcDbEntity
  8
0
  6
Continuous
 62
     7
370
    15
100
AcDbSpline
210
0.0
220
0.0
230
1.0
 70
     8
 71
     3
 72
     9
 73
     5
 74
     0
 42
0.000000001
 43
0.00000001
 40
0.0
 40
0.0
 40
0.0
 40
0.0
 40
0.1329958928256578
 40
1.0
 40
1.0
 40
1.0
 40
1.0
 10
205.3539754443222
 20
298.568302252032
 30
0.0
 10
205.3182130392203
 20
298.4727490784504
 30
0.0
 10
205.0493144714366
 20
297.7542819773132
 30
0.0
 10
204.5912739910912
 20
297.1300805393739
 30
0.0
 10
204.1941510133796
 20
296.5888953289763
 30
0.0
  0
SPLINE
  5
19B
330
1F
100
AcDbEntity
  8
0
  6
Continuous
 62
     7
370
    15
100
AcDbSpline
210
0.0
220
0.0
230
1.0
 70
     8
 71
     3
 72
     9
 73
     5
 74
     0
 42
0.000000001
 43
0.00000001
 40
0.0
 40
0.0
 40
0.0
 40
0.0
 40
0.5595006144104386
 40
1.0
 40
1.0
 40
1.0
 40
1.0
 10
123.7249049909764
 20
96.91496328327814
 30
0.0
 10
123.6780412849716
 20
96.31957635015392
 30
0.0
 10
123.5942814019658
 20
95.25543644076056
 30
0.0
 10
123.0470708138229
 20
94.34405973607402
 30
0.0
 10
122.8060248859578
 20
93.94259885761896
 30
0.0
  0
SPLINE
  5
19C
330
1F
100
AcDbEntity
  8
0
  6
Continuous
 62
     7
370
    15
100
AcDbSpline
210
0.0
220
0.0
230
1.0
 70
     8
 71
     3
 72
    11
 73
     7
 74
     0
 42
0.000000001
 43
0.00000001
 40
0.0
 40
0.0
 40
0.0
 40
0.0
 40
0.500431195599089
 40
0.8942713841380627
 40
0.9756553158944576
 40
1.0
 40
1.0
 40
1.0
 40
1.0
 10
84.40798256475266
 20
96.91496328327814
 30
0.0
 10
84.44238211016928
 20
96.31252981028132
 30
0.0
 10
84.50385415540538
 20
95.23598018570605
 30
0.0
 10
85.20664963138996
 20
94.30171688342115
 30
0.0
 10
85.40562275340189
 20
93.73236373048744
 30
0.0
 10
85.49679765013929
 20
93.64700441496582
 30
0.0
 10
85.51779124814804
 20
93.62734989140192
 30
0.0
  0
SPLINE
  5
19D
330
1F
100
AcDbEntity
  8
0
  6
Continuous
 62
     7
370
    15
100
AcDbSpline
210
0.0
220
0.0
230
1.0
 70
     8
 71
     3
 72
    11
 73
     7
 74
     0
 42
0.000000001
 43
0.00000001
 40
0.0
 40
0.0
 40
0.0
 40
0.0
 40
0.3116093641707883
 40
0.6267102516750912
 40
0.8129922458516271
 40
0.9999999999999999
 40
0.9999999999999999
 40
0.9999999999999999
 40
0.9999999999999999
 10
119.8585528500729
 20
91.6837020299212
 30
0.0
 10
118.2634485839816
 20
91.2118070543187
 30
0.0
 10
115.0553672135442
 20
90.26272961015697
 30
0.0
 10
110.7469914290865
 20
89.57051604920268
 30
0.0
 10
107.0715703718633
 20
89.23210393320203
 30
0.0
 10
105.0695941191199
 20
89.19854803171573
 30
0.0
 10
104.0666598447018
 20
89.18173746082941
 30
0.0
  0
SPLINE
  5
19E
330
1F
100
AcDbEntity
  8
0
  6
Continuous
 62
     7
370
    15
100
AcDbSpline
210
0.0
220
0.0
230
1.0
 70
     8
 71
     3
 72
    13
 73
     9
 74
     0
 42
0.000000001
 43
0.00000001
 40
0.0
 40
0.0
 40
0.0
 40
0.0
 40
0.1572849683101749
 40
0.31500584581638
 40
0.4706045902101247
 40
0.6266265536996434
 40
0.81294391665614
 40
1.0
 40
1.0
 40
1.0
 40
1.0
 10
104.0666598447018
 20
89.18173746082941
 30
0.0
 10
103.2230409174338
 20
89.19373960520804
 30
0.0
 10
101.5334650057248
 20
89.21777715744355
 30
0.0
 10
99.01636182571983
 20
89.41134939389362
 30
0.0
 10
96.519622479456
 20
89.7177211828697
 30
0.0
 10
93.8935858407951
 20
90.17696614195225
 30
0.0
 10
91.13102402352793
 20
90.80283748296513
 30
0.0
 10
89.22782460708856
 20
91.38969348220127
 30
0.0
 10
88.2743421562367
 20
91.68370202992115
 30
0.0
  0
SPLINE
  5
19F
330
1F
100
AcDbEntity
  8
0
  6
Continuous
 62
     7
370
    15
100
AcDbSpline
210
0.0
220
0.0
230
1.0
 70
     8
 71
     3
 72
     8
 73
     4
 74
     0
 42
0.000000001
 43
0.00000001
 40
0.0
 40
0.0
 40
0.0
 40
0.0
 40
1.0
 40
1.0
 40
1.0
 40
1.0
 10
229.8516435273831
 20
272.9956501680336
 30
0.0
 10
229.8512160640487
 20
272.9936737852623
 30
0.0
 10
229.8483520975042
 20
272.9916790157308
 30
0.0
 10
229.8431037275486
 20
272.9896883277727
 30
0.0
  0
SPLINE
  5
1A0
330
1F
100
AcDbEntity
  8
0
  6
Continuous
 62
     7
370
    15
100
AcDbSpline
210
0.0
220
0.0
230
1.0
 70
     8
 71
     3
 72
     8
 73
     4
 74
     0
 42
0.000000001
 43
0.00000001
 40
0.0
 40
0.0
 40
0.0
 40
0.0
 40
1.0
 40
1.0
 40
1.0
 40
1.0
 10
198.281242836253
 20
272.9956501680336
 30
0.0
 10
198.2816702995874
 20
272.9936737852623
 30
0.0
 10
198.2845342661319
 20
272.9916790157308
 30
0.0
 10
198.2897826360876
 20
272.9896883277727
 30
0.0
  0
SPLINE
  5
1A1
330
1F
100
AcDbEntity
  8
0
  6
Continuous
 62
     7
370
    15
100
AcDbSpline
210
0.0
220
0.0
230
1.0
 70
     8
 71
     3
 72
    10
 73
     6
 74
     0
 42
0.000000001
 43
0.00000001
 40
0.0
 40
0.0
 40
0.0
 40
0.0
 40
0.341764773866545
 40
0.867875251408308
 40
1.0
 40
1.0
 40
1.0
 40
1.0
 10
198.2728253670388
 20
273.0526043555514
 30
0.0
 10
198.2736405387921
 20
273.044626463976
 30
0.0
 10
198.2757105806581
 20
273.0243674578227
 30
0.0
 10
198.2787057437959
 20
273.0078513688185
 30
0.0
 10
198.2808185632362
 20
272.9976914705091
 30
0.0
 10
198.2812426604682
 20
272.9956521174685
 30
0.0
  0
ARC
  5
1A2
330
1F
100
AcDbEntity
  8
0
  6
Continuous
 62
     7
370
    15
100
AcDbCircle
 10
198.3413446676
 20
274.3939489342
 30
0.0
 40
1.399587881852578
100
AcDbArc
 50
180.0052528077
 51
267.5388107846
  0
SPLINE
  5
1A3
330
1F
100
AcDbEntity
  8
0
  6
Continuous
 62
     7
370
    15
100
AcDbSpline
210
0.0
220
0.0
230
1.0
 70
     8
 71
     3
 72
    24
 73
    20
 74
     0
 42
0.000000001
 43
0.00000001
 40
0.0
 40
0.0
 40
0.0
 40
0.0
 40
0.0312500000000001
 40
0.0312500000000001
 40
0.0625000000000001
 40
0.0625000000000001
 40
0.1250000000000003
 40
0.1250000000000003
 40
0.2500000000000006
 40
0.2500000000000006
 40
0.5000000000000007
 40
0.5000000000000007
 40
0.6250000000000006
 40
0.6250000000000006
 40
0.7500000000000004
 40
0.7500000000000004
 40
0.8750000000000002
 40
0.8750000000000002
 40
1.0
 40
1.0
 40
1.0
 40
1.0
 10
196.9417572528544
 20
274.39381801041
 30
0.0
 10
196.93771391946
 20
274.4146308340185
 30
0.0
 10
196.9337777545679
 20
274.4422382427035
 30
0.0
 10
196.9261451740594
 20
274.5018673252826
 30
0.0
 10
196.9224417261652
 20
274.5354020985486
 30
0.0
 10
196.9116538254673
 20
274.6467499305336
 30
0.0
 10
196.9048881383328
 20
274.7354810146546
 30
0.0
 10
196.8857447451806
 20
275.045930356227
 30
0.0
 10
196.874537941861
 20
275.3115460304992
 30
0.0
 10
196.8459661361741
 20
276.2844567609985
 30
0.0
 10
196.8335809087185
 20
277.1682783537148
 30
0.0
 10
196.824556910023
 20
278.8453497138916
 30
0.0
 10
196.8231466625504
 20
279.4635544771128
 30
0.0
 10
196.8234781572404
 20
280.8144039298784
 30
0.0
 10
196.8252256742167
 20
281.5437129270221
 30
0.0
 10
196.8318258191853
 20
283.1464563238108
 30
0.0
 10
196.836676502537
 20
284.0236395556814
 30
0.0
 10
196.8493365583221
 20
285.9300437426344
 30
0.0
 10
196.8571639835748
 20
286.95825112903
 30
0.0
 10
196.8663883129844
 20
288.0591472871192
 30
0.0
  0
SPLINE
  5
1A4
330
1F
100
AcDbEntity
  8
0
  6
Continuous
 62
     7
370
    15
100
AcDbSpline
210
0.0
220
0.0
230
1.0
 70
     8
 71
     3
 72
    24
 73
    20
 74
     0
 42
0.000000001
 43
0.00000001
 40
0.0
 40
0.0
 40
0.0
 40
0.0
 40
0.03125
 40
0.03125
 40
0.0625
 40
0.0625
 40
0.1249999999999999
 40
0.1249999999999999
 40
0.2499999999999999
 40
0.2499999999999999
 40
0.4999999999999998
 40
0.4999999999999998
 40
0.6249999999999999
 40
0.6249999999999999
 40
0.7499999999999999
 40
0.7499999999999999
 40
0.875
 40
0.875
 40
1.0
 40
1.0
 40
1.0
 40
1.0
 10
231.1911291107817
 20
274.39381801041
 30
0.0
 10
231.1951724441762
 20
274.4146308340177
 30
0.0
 10
231.1991086090682
 20
274.4422382427035
 30
0.0
 10
231.2067411895768
 20
274.5018673252826
 30
0.0
 10
231.210444637471
 20
274.5354020985479
 30
0.0
 10
231.2212325381689
 20
274.6467499305321
 30
0.0
 10
231.2279982253033
 20
274.7354810146545
 30
0.0
 10
231.2471416184555
 20
275.0459303562269
 30
0.0
 10
231.2583484217751
 20
275.3115460304991
 30
0.0
 10
231.286920227462
 20
276.2844567609986
 30
0.0
 10
231.299305454918
 20
277.1682783536905
 30
0.0
 10
231.308329453613
 20
278.8453497139049
 30
0.0
 10
231.3097397010858
 20
279.463554477114
 30
0.0
 10
231.3094082063957
 20
280.8144039298767
 30
0.0
 10
231.3076606894195
 20
281.5437129270215
 30
0.0
 10
231.3010605444509
 20
283.1464563238101
 30
0.0
 10
231.2962098610987
 20
284.0236395556809
 30
0.0
 10
231.2835498053145
 20
285.9300437426338
 30
0.0
 10
231.2757223800613
 20
286.95825112903
 30
0.0
 10
231.2664980506517
 20
288.0591472871192
 30
0.0
  0
ARC
  5
1A5
330
1F
100
AcDbEntity
  8
0
  6
Continuous
 62
     7
370
    15
100
AcDbCircle
 10
229.7915178903
 20
274.3939717408
 30
0.0
 40
1.39961168981722
100
AcDbArc
 50
272.4621227552
 51
359.9938136524
  0
SPLINE
  5
1A6
330
1F
100
AcDbEntity
  8
0
  6
Continuous
 62
     7
370
    15
100
AcDbSpline
210
0.0
220
0.0
230
1.0
 70
     8
 71
     3
 72
     9
 73
     5
 74
     0
 42
0.000000001
 43
0.00000001
 40
0.0
 40
0.0
 40
0.0
 40
0.0
 40
0.8745188799259994
 40
1.0
 40
1.0
 40
1.0
 40
1.0
 10
231.2664977826529
 20
288.1984053632991
 30
0.0
 10
231.2800799371913
 20
286.5716147698719
 30
0.0
 10
231.2956109392658
 20
284.7114026798085
 30
0.0
 10
231.2994256493147
 20
283.4112765851675
 30
0.0
 10
231.2999043234044
 20
283.2481353065745
 30
0.0
  0
SPLINE
  5
1A7
330
1F
100
AcDbEntity
  8
0
  6
Continuous
 62
     7
370
    15
100
AcDbSpline
210
0.0
220
0.0
230
1.0
 70
     8
 71
     3
 72
     9
 73
     5
 74
     0
 42
0.000000001
 43
0.00000001
 40
0.0
 40
0.0
 40
0.0
 40
0.0
 40
0.8745188799259994
 40
1.0
 40
1.0
 40
1.0
 40
1.0
 10
196.8663885809832
 20
288.1984053632991
 30
0.0
 10
196.8528064264449
 20
286.5716147698719
 30
0.0
 10
196.8372754243703
 20
284.7114026798085
 30
0.0
 10
196.8334607143215
 20
283.4112765851675
 30
0.0
 10
196.8329820402318
 20
283.2481353065745
 30
0.0
  0
SPLINE
  5
1A8
330
1F
100
AcDbEntity
  8
0
  6
Continuous
 62
     8
370
     0
100
AcDbSpline
210
0.0
220
0.0
230
1.0
 70
    24
 71
     3
 72
    48
 73
    44
 74
     0
 42
0.000000001
 43
0.00000001
 40
0.0
 40
0.0
 40
0.0
 40
0.0
 40
0.2500000000000002
 40
0.2500000000000002
 40
0.3750000000000003
 40
0.3750000000000003
 40
0.5000000000000004
 40
0.5000000000000004
 40
0.5625000000000004
 40
0.5625000000000004
 40
0.5937500000000006
 40
0.5937500000000006
 40
0.6250000000000006
 40
0.6250000000000006
 40
0.6562500000000006
 40
0.6562500000000006
 40
0.6875000000000007
 40
0.6875000000000007
 40
0.7031250000000006
 40
0.7031250000000006
 40
0.7187500000000004
 40
0.7187500000000004
 40
0.7343750000000003
 40
0.7343750000000003
 40
0.7500000000000002
 40
0.7500000000000002
 40
0.7656250000000001
 40
0.7656250000000001
 40
0.78125
 40
0.78125
 40
0.8124999999999999
 40
0.8124999999999999
 40
0.828125
 40
0.828125
 40
0.84375
 40
0.84375
 40
0.8749999999999999
 40
0.8749999999999999
 40
0.9062499999999999
 40
0.9062499999999999
 40
0.9374999999999999
 40
0.9374999999999999
 40
1.0
 40
1.0
 40
1.0
 40
1.0
 10
159.0664431818181
 20
342.1578555962817
 30
0.0
 10
169.5463058132339
 20
342.1578555962817
 30
0.0
 10
180.0259834698964
 20
342.1578555962817
 30
0.0
 10
195.7451292072942
 20
342.1578555962817
 30
0.0
 10
200.9847813872665
 20
342.1578555962817
 30
0.0
 10
211.4638931833656
 20
342.1578555962817
 30
0.0
 10
216.7032453646075
 20
342.1578555962817
 30
0.0
 10
224.5610479274439
 20
342.1578555962817
 30
0.0
 10
227.1801272127853
 20
342.1578555962817
 30
0.0
 10
231.1081864237869
 20
342.1578555962817
 30
0.0
 10
232.4175684140414
 20
342.1578555962817
 30
0.0
 10
235.035455706396
 20
342.1578555962817
 30
0.0
 10
236.3437457995604
 20
342.1578555962817
 30
0.0
 10
238.9573613515276
 20
342.1578555962817
 30
0.0
 10
240.2629071497675
 20
342.1578555962817
 30
0.0
 10
242.8633507975413
 20
342.1578555962817
 30
0.0
 10
244.1576066886979
 20
342.1578555962817
 30
0.0
 10
246.082441297606
 20
342.1578555962817
 30
0.0
 10
246.7197552710566
 20
342.1578555962817
 30
0.0
 10
247.9571276057293
 20
342.1578555962817
 30
0.0
 10
248.5601466586632
 20
342.1578555962817
 30
0.0
 10
249.7280617396467
 20
342.1578555962817
 30
0.0
 10
250.2929455386585
 20
342.1578555962817
 30
0.0
 10
251.3785149900993
 20
342.1578555962817
 30
0.0
 10
251.8862381321597
 20
342.1578555962817
 30
0.0
 10
252.8259853705156
 20
342.1578555962816
 30
0.0
 10
253.2598982585411
 20
342.1578555962817
 30
0.0
 10
254.0631167884341
 20
342.1578555962817
 30
0.0
 10
254.433326943991
 20
342.1578555962816
 30
0.0
 10
255.4346488217267
 20
342.1578555962816
 30
0.0
 10
255.9701786627874
 20
342.1578555962817
 30
0.0
 10
256.6470371586156
 20
342.1578555962817
 30
0.0
 10
256.8515640946864
 20
342.1578555962817
 30
0.0
 10
257.2229366789035
 20
342.1578555962817
 30
0.0
 10
257.3893551471031
 20
342.1578555962817
 30
0.0
 10
257.8425360502599
 20
342.1578555962817
 30
0.0
 10
258.0838327842576
 20
342.1578555962816
 30
0.0
 10
258.4838960633689
 20
342.1578555962817
 30
0.0
 10
258.6422725430531
 20
342.1578555962817
 30
0.0
 10
258.8985722110602
 20
342.1578555962817
 30
0.0
 10
258.996327175024
 20
342.1578555962816
 30
0.0
 10
259.2202236865381
 20
342.1578555962817
 30
0.0
 10
259.2781137135451
 20
342.1578555962817
 30
0.0
 10
259.2781137135451
 20
342.1578555962817
 30
0.0
  0
SPLINE
  5
1A9
330
1F
100
AcDbEntity
  8
0
  6
Continuous
 62
     8
370
     0
100
AcDbSpline
210
0.0
220
0.0
230
1.0
 70
    24
 71
     3
 72
    52
 73
    48
 74
     0
 42
0.000000001
 43
0.00000001
 40
0.0
 40
0.0
 40
0.0
 40
0.0
 40
0.062500000000003
 40
0.062500000000003
 40
0.0937500000000045
 40
0.0937500000000045
 40
0.125000000000006
 40
0.125000000000006
 40
0.1562500000000076
 40
0.1562500000000076
 40
0.1718750000000084
 40
0.1718750000000084
 40
0.1875000000000092
 40
0.1875000000000092
 40
0.2187500000000108
 40
0.2187500000000108
 40
0.2265625000000111
 40
0.2265625000000111
 40
0.2343750000000115
 40
0.2343750000000115
 40
0.2500000000000117
 40
0.2500000000000117
 40
0.265625000000012
 40
0.265625000000012
 40
0.2812500000000123
 40
0.2812500000000123
 40
0.2968750000000125
 40
0.2968750000000125
 40
0.3046875000000123
 40
0.3046875000000123
 40
0.3125000000000121
 40
0.3125000000000121
 40
0.3437500000000113
 40
0.3437500000000113
 40
0.3750000000000105
 40
0.3750000000000105
 40
0.4062500000000098
 40
0.4062500000000098
 40
0.437500000000009
 40
0.437500000000009
 40
0.5000000000000079
 40
0.5000000000000079
 40
0.625000000000006
 40
0.625000000000006
 40
0.750000000000004
 40
0.750000000000004
 40
1.0
 40
1.0
 40
1.0
 40
1.0
 10
58.85477265009112
 20
342.1578555962817
 30
0.0
 10
58.85477265009106
 20
342.1578555962817
 30
0.0
 10
58.91336674786626
 20
342.1578555962817
 30
0.0
 10
59.14186395178211
 20
342.1578555962817
 30
0.0
 10
59.24177035877545
 20
342.1578555962817
 30
0.0
 10
59.50470541507252
 20
342.1578555962817
 30
0.0
 10
59.66769212987463
 20
342.1578555962817
 30
0.0
 10
60.0808482120011
 20
342.1578555962817
 30
0.0
 10
60.32988535666301
 20
342.1578555962817
 30
0.0
 10
60.79546738382768
 20
342.1578555962817
 30
0.0
 10
60.96613990996183
 20
342.1578555962817
 30
0.0
 10
61.34575060988098
 20
342.1578555962817
 30
0.0
 10
61.55535597772108
 20
342.1578555962817
 30
0.0
 10
62.25026331452357
 20
342.1578555962817
 30
0.0
 10
62.79957388234886
 20
342.1578555962817
 30
0.0
 10
63.65189423158779
 20
342.1578555962816
 30
0.0
 10
63.83077942397266
 20
342.1578555962817
 30
0.0
 10
64.20747713700331
 20
342.1578555962817
 30
0.0
 10
64.40572103608893
 20
342.1578555962817
 30
0.0
 10
65.02279286315554
 20
342.1578555962816
 30
0.0
 10
65.46639669096402
 20
342.1578555962817
 30
0.0
 10
66.42419062198209
 20
342.1578555962817
 30
0.0
 10
66.93923090800244
 20
342.1578555962817
 30
0.0
 10
68.04093412869483
 20
342.1578555962817
 30
0.0
 10
68.61445446891886
 20
342.1578555962817
 30
0.0
 10
69.80064120721319
 20
342.1578555962817
 30
0.0
 10
70.41329426310017
 20
342.1578555962817
 30
0.0
 10
71.35631276038154
 20
342.1578555962817
 30
0.0
 10
71.67491501150886
 20
342.1578555962817
 30
0.0
 10
72.31184962971282
 20
342.1578555962817
 30
0.0
 10
72.6311452079016
 20
342.1578555962817
 30
0.0
 10
74.23105956638248
 20
342.1578555962816
 30
0.0
 10
75.52188241233823
 20
342.1578555962817
 30
0.0
 10
78.11498178762506
 20
342.1578555962817
 30
0.0
 10
79.41657838614447
 20
342.1578555962817
 30
0.0
 10
82.02213323054508
 20
342.1578555962817
 30
0.0
 10
83.32634227788779
 20
342.1578555962817
 30
0.0
 10
85.93606419944096
 20
342.1578555962817
 30
0.0
 10
87.24172286943057
 20
342.1578555962817
 30
0.0
 10
91.1583997017185
 20
342.1578555962817
 30
0.0
 10
93.76972996903282
 20
342.1578555962817
 30
0.0
 10
101.6040457756358
 20
342.1578555962817
 30
0.0
 10
106.827356887005
 20
342.1578555962817
 30
0.0
 10
117.2743776098744
 20
342.1578555962817
 30
0.0
 10
122.498103161369
 20
342.1578555962817
 30
0.0
 10
138.1697040706067
 20
342.1578555962817
 30
0.0
 10
148.618103952594
 20
342.1578555962817
 30
0.0
 10
159.0664431818181
 20
342.1578555962817
 30
0.0
  0
SPLINE
  5
1AA
330
1F
100
AcDbEntity
  8
0
  6
Continuous
 62
     8
370
     0
100
AcDbSpline
210
0.0
220
0.0
230
1.0
 70
     8
 71
     3
 72
    55
 73
    51
 74
     0
 42
0.000000001
 43
0.00000001
 40
0.0
 40
0.0
 40
0.0
 40
0.0
 40
0.0624999999999999
 40
0.0624999999999999
 40
0.1249999999999998
 40
0.1249999999999998
 40
0.2499999999999996
 40
0.2499999999999996
 40
0.3124999999999994
 40
0.3124999999999994
 40
0.3749999999999993
 40
0.3749999999999993
 40
0.4374999999999996
 40
0.4374999999999996
 40
0.4999999999999998
 40
0.4999999999999998
 40
0.5625
 40
0.5625
 40
0.59375
 40
0.59375
 40
0.6250000000000001
 40
0.6250000000000001
 40
0.6562500000000001
 40
0.6562500000000001
 40
0.6875000000000002
 40
0.6875000000000002
 40
0.7500000000000007
 40
0.7500000000000007
 40
0.7812500000000007
 40
0.7812500000000007
 40
0.8125000000000008
 40
0.8125000000000008
 40
0.8437500000000008
 40
0.8437500000000008
 40
0.8750000000000009
 40
0.8750000000000009
 40
0.9062500000000009
 40
0.9062500000000009
 40
0.937500000000001
 40
0.937500000000001
 40
0.968750000000001
 40
0.968750000000001
 40
0.9843750000000008
 40
0.9843750000000008
 40
0.9921875000000003
 40
0.9921875000000003
 40
0.9960937500000001
 40
0.998046875
 40
0.998046875
 40
1.0
 40
1.0
 40
1.0
 40
1.0
 10
123.2151466715994
 20
261.3745762586067
 30
0.0
 10
123.2206231850701
 20
262.8223148800763
 30
0.0
 10
123.2251528473556
 20
264.2698846951115
 30
0.0
 10
123.2485743174146
 20
267.163504839304
 30
0.0
 10
123.2678905327862
 20
268.6095483092046
 30
0.0
 10
123.3595184284112
 20
272.9438344256345
 30
0.0
 10
123.4631083297486
 20
275.8284772183629
 30
0.0
 10
123.6547890842606
 20
280.141585496571
 30
0.0
 10
123.723905928225
 20
281.5769905492027
 30
0.0
 10
123.8639983677187
 20
284.4418889054388
 30
0.0
 10
123.9352240308335
 20
285.8712982732986
 30
0.0
 10
124.0655515419738
 20
288.7223336428771
 30
0.0
 10
124.1251768900207
 20
290.1440488722936
 30
0.0
 10
124.2103990559228
 20
292.977649926601
 30
0.0
 10
124.2357066094075
 20
294.3956743348472
 30
0.0
 10
124.2068278180045
 20
297.1427571223737
 30
0.0
 10
124.153983129003
 20
298.4794498845901
 30
0.0
 10
123.9642036345641
 20
300.4145130596935
 30
0.0
 10
123.8822613833681
 20
301.0477819227219
 30
0.0
 10
123.6660360501907
 20
302.2867883493005
 30
0.0
 10
123.5305819088253
 20
302.8934089840064
 30
0.0
 10
123.1996407120348
 20
304.0427871777292
 30
0.0
 10
123.003552400438
 20
304.5899213376106
 30
0.0
 10
122.5363345215965
 20
305.6267604023174
 30
0.0
 10
122.2647544964755
 20
306.1171107832223
 30
0.0
 10
121.3234920286108
 20
307.4982966910063
 30
0.0
 10
120.552954900086
 20
308.2584335550332
 30
0.0
 10
119.1681181816827
 20
309.2139432579713
 30
0.0
 10
118.6641656970263
 20
309.5032916536489
 30
0.0
 10
117.6027522556506
 20
310.0151090173682
 30
0.0
 10
117.044798388997
 20
310.2397565473261
 30
0.0
 10
115.8767407648658
 20
310.6399367479317
 30
0.0
 10
115.2666324850221
 20
310.8153988573636
 30
0.0
 10
113.9934801008845
 20
311.1250008176487
 30
0.0
 10
113.3381390309743
 20
311.2570892768684
 30
0.0
 10
112.0010814327661
 20
311.4836535111052
 30
0.0
 10
111.317555363521
 20
311.5780493923691
 30
0.0
 10
109.9222366414415
 20
311.7379672004355
 30
0.0
 10
109.2081843599427
 20
311.8028955296567
 30
0.0
 10
107.7571854336689
 20
311.9031310778569
 30
0.0
 10
107.0236876863683
 20
311.9378087163936
 30
0.0
 10
105.9173421463653
 20
311.9735512923767
 30
0.0
 10
105.5475944220031
 20
311.9827368013824
 30
0.0
 10
104.9925479115723
 20
311.9932949397959
 30
0.0
 10
104.8074436592066
 20
311.9962792115891
 30
0.0
 10
104.5296607786566
 20
312.0000426464529
 30
0.0
 10
104.3907376953618
 20
312.0017456314117
 30
0.0
 10
104.2517680391366
 20
312.0031901783235
 30
0.0
 10
104.1591113088944
 20
312.0040961031799
 30
0.0
 10
104.1114955458658
 20
312.0045063669638
 30
0.0
 10
104.0664431818181
 20
312.0049426997617
 30
0.0
  0
SPLINE
  5
1AB
330
1F
100
AcDbEntity
  8
0
  6
Continuous
 62
     8
370
     0
100
AcDbSpline
210
0.0
220
0.0
230
1.0
 70
     8
 71
     3
 72
    50
 73
    46
 74
     0
 42
0.000000001
 43
0.00000001
 40
0.0
 40
0.0
 40
0.0
 40
0.0
 40
0.0625000000000006
 40
0.0625000000000006
 40
0.093750000000001
 40
0.093750000000001
 40
0.1250000000000013
 40
0.1250000000000013
 40
0.1562500000000017
 40
0.1562500000000017
 40
0.187500000000002
 40
0.187500000000002
 40
0.2187500000000023
 40
0.2187500000000023
 40
0.2500000000000026
 40
0.2500000000000026
 40
0.3125000000000036
 40
0.3125000000000036
 40
0.3281250000000036
 40
0.3281250000000036
 40
0.3437500000000037
 40
0.3437500000000037
 40
0.3750000000000036
 40
0.3750000000000036
 40
0.4062500000000034
 40
0.4062500000000034
 40
0.4375000000000032
 40
0.4375000000000032
 40
0.5000000000000029
 40
0.5000000000000029
 40
0.5312500000000028
 40
0.5312500000000028
 40
0.5625000000000027
 40
0.5625000000000027
 40
0.6250000000000022
 40
0.6250000000000022
 40
0.6875000000000019
 40
0.6875000000000019
 40
0.7500000000000013
 40
0.7500000000000013
 40
0.8750000000000007
 40
0.8750000000000007
 40
0.9375000000000003
 40
0.9375000000000003
 40
1.0
 40
1.0
 40
1.0
 40
1.0
 10
104.1152634144306
 20
313.1292523085429
 30
0.0
 10
105.6500989333001
 20
313.1264703446719
 30
0.0
 10
107.1855205300238
 20
313.0789325863955
 30
0.0
 10
109.4351350718518
 20
312.9213633564317
 30
0.0
 10
110.1731914839091
 20
312.854602682581
 30
0.0
 10
111.6142334405734
 20
312.6913642095635
 30
0.0
 10
112.3190005735555
 20
312.59472788068
 30
0.0
 10
113.6963967379003
 20
312.3638505496496
 30
0.0
 10
114.3695280781294
 20
312.2297445683456
 30
0.0
 10
115.6812859374674
 20
311.9152315551723
 30
0.0
 10
116.3092144290208
 20
311.7375088884921
 30
0.0
 10
117.5103425375595
 20
311.3334484040756
 30
0.0
 10
118.0835385028025
 20
311.1071502164157
 30
0.0
 10
119.1737033440679
 20
310.5939409963611
 30
0.0
 10
119.6933132471282
 20
310.3046104528677
 30
0.0
 10
121.1271803820695
 20
309.348565991936
 30
0.0
 10
121.9292312156961
 20
308.5941641048432
 30
0.0
 10
122.7584514515979
 20
307.4644244006375
 30
0.0
 10
122.9160359745311
 20
307.2283942863649
 30
0.0
 10
123.2102700476848
 20
306.7435609942328
 30
0.0
 10
123.3474032911542
 20
306.4942321489411
 30
0.0
 10
123.7309844266043
 20
305.7251193152021
 30
0.0
 10
123.9495955018591
 20
305.1840927135988
 30
0.0
 10
124.3243977141961
 20
304.0467035875943
 30
0.0
 10
124.4810315392169
 20
303.4486636743468
 30
0.0
 10
124.7408813803712
 20
302.20403378055
 30
0.0
 10
124.842650822152
 20
301.5663433967824
 30
0.0
 10
125.0863039021587
 20
299.6132836137675
 30
0.0
 10
125.1676118159559
 20
298.2582861295965
 30
0.0
 10
125.2232811751074
 20
296.1620113208905
 30
0.0
 10
125.2304071280463
 20
295.4524569114958
 30
0.0
 10
125.227989837103
 20
294.0137761911583
 30
0.0
 10
125.2183334075664
 20
293.2832592070004
 30
0.0
 10
125.172391280204
 20
291.0940338514615
 30
0.0
 10
125.1201797055267
 20
289.6283594406476
 30
0.0
 10
125.0000019596753
 20
286.6877008958764
 30
0.0
 10
124.9314081766616
 20
285.2126363530184
 30
0.0
 10
124.7929251461037
 20
282.2545471312416
 30
0.0
 10
124.7232408036345
 20
280.7718506413684
 30
0.0
 10
124.5277839549739
 20
276.3154940559085
 30
0.0
 10
124.4187954212913
 20
273.3334283252029
 30
0.0
 10
124.3224539350531
 20
268.8516999556252
 30
0.0
 10
124.3020198656862
 20
267.356289347297
 30
0.0
 10
124.2779432230443
 20
264.3636484548405
 30
0.0
 10
124.2737533609649
 20
262.8664256811355
 30
0.0
 10
124.2686065320082
 20
261.3689865948929
 30
0.0
  0
SPLINE
  5
1AC
330
1F
100
AcDbEntity
  8
0
  6
Continuous
 62
     8
370
     0
100
AcDbSpline
210
0.0
220
0.0
230
1.0
 70
     8
 71
     3
 72
    58
 73
    54
 74
     0
 42
0.000000001
 43
0.00000001
 40
0.0
 40
0.0
 40
0.0
 40
0.0
 40
0.062499999999999
 40
0.062499999999999
 40
0.1249999999999979
 40
0.1249999999999979
 40
0.2499999999999964
 40
0.2499999999999964
 40
0.3124999999999956
 40
0.3124999999999956
 40
0.3437499999999955
 40
0.3437499999999955
 40
0.3749999999999954
 40
0.3749999999999954
 40
0.4374999999999956
 40
0.4374999999999956
 40
0.4999999999999957
 40
0.4999999999999957
 40
0.5312499999999959
 40
0.5312499999999959
 40
0.5624999999999962
 40
0.5624999999999962
 40
0.5937499999999964
 40
0.5937499999999964
 40
0.6249999999999967
 40
0.6249999999999967
 40
0.656249999999997
 40
0.656249999999997
 40
0.671874999999997
 40
0.671874999999997
 40
0.6874999999999971
 40
0.6874999999999971
 40
0.7499999999999979
 40
0.7499999999999979
 40
0.7812499999999983
 40
0.7812499999999983
 40
0.8124999999999983
 40
0.8124999999999983
 40
0.8437499999999983
 40
0.8437499999999983
 40
0.8593749999999984
 40
0.8593749999999984
 40
0.8749999999999986
 40
0.8749999999999986
 40
0.9374999999999987
 40
0.9374999999999987
 40
0.9687499999999991
 40
0.9687499999999991
 40
0.9843749999999996
 40
0.9843749999999996
 40
0.9921874999999998
 40
0.9921874999999998
 40
1.0
 40
1.0
 40
1.0
 40
1.0
 10
83.86427798588939
 20
261.3695236035986
 30
0.0
 10
83.85909487760753
 20
262.8775297777497
 30
0.0
 10
83.85488031118135
 20
264.3855782988688
 30
0.0
 10
83.83038721948766
 20
267.4014244183282
 30
0.0
 10
83.80953091206008
 20
268.9085562125468
 30
0.0
 10
83.71143444075585
 20
273.4261229785882
 30
0.0
 10
83.60052615819494
 20
276.432943915417
 30
0.0
 10
83.40239451820786
 20
280.9301266999572
 30
0.0
 10
83.3318420333036
 20
282.4270535032816
 30
0.0
 10
83.2269880941483
 20
284.6682757469238
 30
0.0
 10
83.19226554424198
 20
285.4145951174364
 30
0.0
 10
83.12538462324112
 20
286.9055845131226
 30
0.0
 10
83.09310436303375
 20
287.6514151496999
 30
0.0
 10
83.0035795539227
 20
289.876438748732
 30
0.0
 10
82.9530377815672
 20
291.3427197414039
 30
0.0
 10
82.89731121222177
 20
294.230074765124
 30
0.0
 10
82.89215498381844
 20
295.6506983286777
 30
0.0
 10
82.9538253904963
 20
297.7390481425243
 30
0.0
 10
82.98610778284845
 20
298.4280693186699
 30
0.0
 10
83.08339884364673
 20
299.790135561723
 30
0.0
 10
83.14823980569696
 20
300.4594895302937
 30
0.0
 10
83.31998212535089
 20
301.762450479133
 30
0.0
 10
83.42761343290387
 20
302.4001966495974
 30
0.0
 10
83.69532151575854
 20
303.6222073771111
 30
0.0
 10
83.8550573412891
 20
304.2065898470426
 30
0.0
 10
84.23679382897522
 20
305.3222066149391
 30
0.0
 10
84.4588734754586
 20
305.8533978409252
 30
0.0
 10
84.84774360946278
 20
306.6092321326224
 30
0.0
 10
84.98664285857005
 20
306.8544076124874
 30
0.0
 10
85.28447416249577
 20
307.3314115326737
 30
0.0
 10
85.44376058874114
 20
307.5635311994018
 30
0.0
 10
86.28002200276072
 20
308.6732764668577
 30
0.0
 10
87.08517828828458
 20
309.4129089956742
 30
0.0
 10
88.5171895430297
 20
310.3499537334121
 30
0.0
 10
89.03639099121396
 20
310.6341008507781
 30
0.0
 10
90.12710007026838
 20
311.1393542530681
 30
0.0
 10
90.69950075677762
 20
311.3619361351623
 30
0.0
 10
91.89670562018179
 20
311.7591296309996
 30
0.0
 10
92.5215088685907
 20
311.9336997351086
 30
0.0
 10
93.49864707817837
 20
312.1652872108514
 30
0.0
 10
93.83119124584182
 20
312.2373820698843
 30
0.0
 10
94.50198168889095
 20
312.3707329761094
 30
0.0
 10
94.8411654308515
 20
312.4322355128485
 30
0.0
 10
96.5557800032062
 20
312.7166077313027
 30
0.0
 10
97.98689328609278
 20
312.8723408659706
 30
0.0
 10
100.2217104692122
 20
313.0277103056816
 30
0.0
 10
100.9753637939323
 20
313.0651158636263
 30
0.0
 10
102.1128939760955
 20
313.1025455129779
 30
0.0
 10
102.4931749858052
 20
313.1119343875716
 30
0.0
 10
103.064503415915
 20
313.1216850663072
 30
0.0
 10
103.2550436404415
 20
313.124210365158
 30
0.0
 10
103.6362316328057
 20
313.1278207686271
 30
0.0
 10
103.8291218773077
 20
313.1289106411735
 30
0.0
 10
104.0176229492056
 20
313.1292523085429
 30
0.0
  0
SPLINE
  5
1AD
330
1F
100
AcDbEntity
  8
0
  6
Continuous
 62
     8
370
     0
100
AcDbSpline
210
0.0
220
0.0
230
1.0
 70
     8
 71
     3
 72
    56
 73
    52
 74
     0
 42
0.000000001
 43
0.00000001
 40
0.0
 40
0.0
 40
0.0
 40
0.0
 40
0.0312500000000011
 40
0.0312500000000011
 40
0.0625000000000022
 40
0.0625000000000022
 40
0.0937500000000033
 40
0.0937500000000033
 40
0.1250000000000044
 40
0.1250000000000044
 40
0.1406250000000049
 40
0.1406250000000049
 40
0.1562500000000054
 40
0.1562500000000054
 40
0.187500000000006
 40
0.187500000000006
 40
0.2187500000000065
 40
0.2187500000000065
 40
0.2343750000000068
 40
0.2343750000000068
 40
0.2500000000000067
 40
0.2500000000000067
 40
0.3125000000000064
 40
0.3125000000000064
 40
0.3281250000000062
 40
0.3281250000000062
 40
0.3437500000000061
 40
0.3437500000000061
 40
0.3750000000000058
 40
0.3750000000000058
 40
0.4062500000000055
 40
0.4062500000000055
 40
0.4375000000000052
 40
0.4375000000000052
 40
0.4687500000000049
 40
0.4687500000000049
 40
0.5000000000000046
 40
0.5000000000000046
 40
0.5625000000000041
 40
0.5625000000000041
 40
0.6250000000000034
 40
0.6250000000000034
 40
0.6875000000000029
 40
0.6875000000000029
 40
0.7500000000000023
 40
0.7500000000000023
 40
0.8750000000000011
 40
0.8750000000000011
 40
0.9375000000000006
 40
0.9375000000000006
 40
1.0
 40
1.0
 40
1.0
 40
1.0
 10
104.0664431818181
 20
312.0049426997617
 30
0.0
 10
103.3298142904521
 20
311.9978084381937
 30
0.0
 10
102.5931907404635
 20
311.9856175826637
 30
0.0
 10
101.1272347925087
 20
311.9385232558353
 30
0.0
 10
100.3979552248425
 20
311.9042804355919
 30
0.0
 10
98.95618007886992
 20
311.8054438244106
 30
0.0
 10
98.2495461518518
 20
311.7417039203319
 30
0.0
 10
96.86354935105356
 20
311.5842529368244
 30
0.0
 10
96.18369414250652
 20
311.4912555836667
 30
0.0
 10
95.18489492220691
 20
311.3237246402487
 30
0.0
 10
94.8554218375083
 20
311.2632644889467
 30
0.0
 10
94.20351595761903
 20
311.1320182780193
 30
0.0
 10
93.88032577889422
 20
311.0610488510715
 30
0.0
 10
92.93167222974813
 20
310.8329539647016
 30
0.0
 10
92.32444973782664
 20
310.6605034040369
 30
0.0
 10
91.15993773498506
 20
310.2668844123178
 30
0.0
 10
90.60264310485024
 20
310.0457861851904
 30
0.0
 10
89.80598659842364
 20
309.6676553118932
 30
0.0
 10
89.546269083099
 20
309.5331882645063
 30
0.0
 10
89.04722776919292
 20
309.2503429324399
 30
0.0
 10
88.80729328349565
 20
309.1018119267756
 30
0.0
 10
87.65431558057307
 20
308.3212637400454
 30
0.0
 10
86.88013446385246
 20
307.5759166002984
 30
0.0
 10
86.08801288052733
 20
306.4447063206238
 30
0.0
 10
85.93946120434853
 20
306.2100665887861
 30
0.0
 10
85.66346064505412
 20
305.7284462179548
 30
0.0
 10
85.53549026201446
 20
305.4807859698928
 30
0.0
 10
85.1797569005448
 20
304.7168853374127
 30
0.0
 10
84.98023066649164
 20
304.1798649447376
 30
0.0
 10
84.6424583469204
 20
303.0529336890522
 30
0.0
 10
84.50409011392671
 20
302.4629551152008
 30
0.0
 10
84.27772794239368
 20
301.2308990258551
 30
0.0
 10
84.19101197920118
 20
300.5976920304125
 30
0.0
 10
84.05625444347848
 20
299.301844265391
 30
0.0
 10
84.00825981480573
 20
298.6373954433652
 30
0.0
 10
83.94149050524213
 20
297.2980541914749
 30
0.0
 10
83.92247930274071
 20
296.6215894206964
 30
0.0
 10
83.8958842242008
 20
294.5741152922069
 30
0.0
 10
83.91821491627408
 20
293.1849928206577
 30
0.0
 10
83.9992625252067
 20
290.3688470393928
 30
0.0
 10
84.05792814132992
 20
288.9421864713681
 30
0.0
 10
84.18839538762626
 20
286.0618013001023
 30
0.0
 10
84.26016774367265
 20
284.618716311026
 30
0.0
 10
84.40166749523664
 20
281.7278763710452
 30
0.0
 10
84.4716130773713
 20
280.2801895906269
 30
0.0
 10
84.6657977443733
 20
275.9317190904104
 30
0.0
 10
84.77106060066478
 20
273.0254358082846
 30
0.0
 10
84.86421811789283
 20
268.659681964665
 30
0.0
 10
84.88389270779398
 20
267.203316520775
 30
0.0
 10
84.90767187054898
 20
264.2892555836466
 30
0.0
 10
84.91222589475359
 20
262.8321827685499
 30
0.0
 10
84.91773766243193
 20
261.3751127950552
 30
0.0
  0
LINE
  5
1AE
330
1F
100
AcDbEntity
  8
0
  6
Continuous
 62
     8
370
     0
100
AcDbLine
 10
81.6555145748
 20
325.3578557155
 30
0.0
 11
81.6849443682
 21
325.3578557155
 31
0.0
  0
LINE
  5
1AF
330
1F
100
AcDbEntity
  8
0
  6
Continuous
 62
     8
370
     0
100
AcDbLine
 10
126.4773804315
 20
325.3578557155
 30
0.0
 11
126.447935737
 21
325.3578557155
 31
0.0
  0
SPLINE
  5
1B0
330
1F
100
AcDbEntity
  8
0
  6
Continuous
 62
     8
370
     0
100
AcDbSpline
210
0.0
220
0.0
230
1.0
 70
     8
 71
     3
 72
    18
 73
    14
 74
     0
 42
0.000000001
 43
0.00000001
 40
0.0
 40
0.0
 40
0.0
 40
0.0
 40
0.0312499999999999
 40
0.0312499999999999
 40
0.0624999999999999
 40
0.0624999999999999
 40
0.1249999999999998
 40
0.1249999999999998
 40
0.2499999999999998
 40
0.2499999999999998
 40
0.4999999999999998
 40
0.4999999999999998
 40
1.0
 40
1.0
 40
1.0
 40
1.0
 10
124.2686065320082
 20
261.3689865948929
 30
0.0
 10
124.2627185989835
 20
259.6559277148415
 30
0.0
 10
124.2566685404295
 20
257.9428709790066
 30
0.0
 10
124.2451481919916
 20
254.5167495824672
 30
0.0
 10
124.2395568775551
 20
252.8036865892839
 30
0.0
 10
124.2227998922971
 20
247.6644974015296
 30
0.0
 10
124.2115747191632
 20
244.2383716663815
 30
0.0
 10
124.1777725606119
 20
233.959994127758
 30
0.0
 10
124.1551067421528
 20
227.10774254583
 30
0.0
 10
124.0871927806291
 20
206.5509878155472
 30
0.0
 10
124.0418968136828
 20
192.8464847596754
 30
0.0
 10
123.9060215349579
 20
151.7329756478827
 30
0.0
 10
123.8154730598333
 20
124.3239696181842
 30
0.0
 10
123.7250527896295
 20
96.91496328728894
 30
0.0
  0
LINE
  5
1B1
330
1F
100
AcDbEntity
  8
0
  6
Continuous
 62
     8
370
     0
100
AcDbLine
 10
123.7726483114
 20
97.8076024434
 30
0.0
 11
123.7250391014
 21
96.9149632833
 31
0.0
  0
LWPOLYLINE
  5
1B2
330
1F
100
AcDbEntity
  8
0
  6
Continuous
 62
     8
370
     0
100
AcDbPolyline
 90
        6
 70
   128
 43
0.0
 10
84.4078335531
 20
96.914933481
 10
84.2748257883
 20
137.2087611339
 10
84.172275997
 20
168.2489527843
 10
84.0696964033
 20
199.2891444347
 10
83.967146612
 20
230.3293360851
 10
83.8642838963
 20
261.3695202849
  0
LINE
  5
1B3
330
1F
100
AcDbEntity
  8
0
  6
Continuous
 62
     8
370
     0
100
AcDbLine
 10
84.3577954539
 20
97.804696717
 30
0.0
 11
84.4078335531
 21
96.9148738763
 31
0.0
  0
LINE
  5
1B4
330
1F
100
AcDbEntity
  8
0
  6
Continuous
 62
     8
370
     0
100
AcDbLine
 10
236.6164430596
 20
323.3578553877
 30
0.0
 11
191.516443304
 21
323.3578553877
 31
0.0
  0
SPLINE
  5
1B5
330
1F
100
AcDbEntity
  8
0
  6
Continuous
 62
     8
370
     0
100
AcDbSpline
210
0.0
220
0.0
230
1.0
 70
     8
 71
     3
 72
    17
 73
    13
 74
     0
 42
0.000000001
 43
0.00000001
 40
0.0
 40
0.0
 40
0.0
 40
0.0
 40
0.0184259258910454
 40
0.0368518573879793
 40
0.0552778194701785
 40
0.073703783810901
 40
0.1719489796024709
 40
0.2210715786020198
 40
0.2701942231835969
 40
0.3684394228027349
 40
0.6842197082366207
 40
1.0
 40
1.0
 40
1.0
 40
1.0
 10
84.91773638803299
 20
261.3751156708972
 30
0.0
 10
84.92161225095616
 20
260.3650285646139
 30
0.0
 10
84.92936397798165
 20
258.3448540447394
 30
0.0
 10
84.94069525614294
 20
255.3145810228486
 30
0.0
 10
84.9516918790116
 20
252.2843043683403
 30
0.0
 10
84.9784111341097
 20
244.8784182225238
 30
0.0
 10
85.0117114394483
 20
235.7897719546017
 30
0.0
 10
85.0513254431317
 20
225.0183660419294
 30
0.0
 10
85.09093836113648
 20
214.2469597577236
 30
0.0
 10
85.18439692692797
 20
188.8576507050147
 30
0.0
 10
85.33192039463907
 20
148.8504417992656
 30
0.0
 10
85.45967879613961
 20
114.2289353381446
 30
0.0
 10
85.52355799753006
 20
96.91818193409601
 30
0.0
  0
SPLINE
  5
1B6
330
1F
100
AcDbEntity
  8
0
  6
Continuous
 62
     8
370
     0
100
AcDbSpline
210
0.0
220
0.0
230
1.0
 70
     8
 71
     3
 72
    14
 73
    10
 74
     0
 42
0.000000001
 43
0.00000001
 40
0.0
 40
0.0
 40
0.0
 40
0.0
 40
0.25
 40
0.25
 40
0.5
 40
0.5
 40
0.75
 40
0.75
 40
1.0
 40
1.0
 40
1.0
 40
1.0
 10
88.47901175432976
 20
92.88426536289252
 30
0.0
 10
89.73142536332693
 20
92.47872089104663
 30
0.0
 10
90.99855921414083
 20
92.1240796948411
 30
0.0
 10
93.56184596507508
 20
91.51438954740915
 30
0.0
 10
94.85952760144869
 20
91.25925123880357
 30
0.0
 10
97.46871609764563
 20
90.85126940027183
 30
0.0
 10
98.78354842427106
 20
90.69784196086883
 30
0.0
 10
101.420737273953
 20
90.49337211971198
 30
0.0
 10
102.7421680549274
 20
90.44223558461584
 30
0.0
 10
104.0664431818181
 20
90.44228900577022
 30
0.0
  0
SPLINE
  5
1B7
330
1F
100
AcDbEntity
  8
0
  6
Continuous
 62
     8
370
     0
100
AcDbSpline
210
0.0
220
0.0
230
1.0
 70
     8
 71
     3
 72
    18
 73
    14
 74
     0
 42
0.000000001
 43
0.00000001
 40
0.0
 40
0.0
 40
0.0
 40
0.0
 40
0.2500000000000189
 40
0.2500000000000189
 40
0.3750000000000137
 40
0.3750000000000137
 40
0.5000000000000084
 40
0.5000000000000084
 40
0.6250000000000032
 40
0.6250000000000032
 40
0.749999999999998
 40
0.749999999999998
 40
1.0
 40
1.0
 40
1.0
 40
1.0
 10
85.5235596489469
 20
96.91818222923793
 30
0.0
 10
85.52521879624442
 20
96.46791096764723
 30
0.0
 10
85.59960186841117
 20
96.0309013449196
 30
0.0
 10
85.8135132401259
 20
95.39403340066043
 30
0.0
 10
85.90165608930214
 20
95.18729887968169
 30
0.0
 10
86.10766031324071
 20
94.79184829007859
 30
0.0
 10
86.2269330785929
 20
94.60067578934178
 30
0.0
 10
86.49127900554701
 20
94.24184523356982
 30
0.0
 10
86.63590049683242
 20
94.07427970384997
 30
0.0
 10
86.94950502882806
 20
93.76230820427695
 30
0.0
 10
87.11961599078182
 20
93.61710231192345
 30
0.0
 10
87.66090004071262
 20
93.22378789889218
 30
0.0
 10
88.05329452733679
 20
93.0221235770886
 30
0.0
 10
88.4790123523252
 20
92.88426723537324
 30
0.0
  0
LWPOLYLINE
  5
1B8
330
1F
100
AcDbEntity
  8
0
  6
Continuous
 62
     8
370
     0
100
AcDbPolyline
 90
        5
 70
   128
 43
0.0
 10
122.6093295582
 20
96.9180627248
 10
122.6440716155
 20
106.3508553884
 10
122.7833527692
 20
144.0820409438
 10
122.9995462664
 20
202.7283026359
 10
123.2151437171
 20
261.3745792291
  0
SPLINE
  5
1B9
330
1F
100
AcDbEntity
  8
0
  6
Continuous
 62
     8
370
     0
100
AcDbSpline
210
0.0
220
0.0
230
1.0
 70
     8
 71
     3
 72
    20
 73
    16
 74
     0
 42
0.000000001
 43
0.00000001
 40
0.0
 40
0.0
 40
0.0
 40
0.0
 40
0.1249999999999997
 40
0.1249999999999997
 40
0.2499999999999994
 40
0.2499999999999994
 40
0.3749999999999991
 40
0.3749999999999991
 40
0.4999999999999988
 40
0.4999999999999988
 40
0.6249999999999984
 40
0.6249999999999984
 40
0.7499999999999982
 40
0.7499999999999982
 40
1.0
 40
1.0
 40
1.0
 40
1.0
 10
119.6538740162179
 20
92.88426737314104
 30
0.0
 10
119.8666837255027
 20
92.9531796755137
 30
0.0
 10
120.0717931512594
 20
93.03863191490136
 30
0.0
 10
120.4673245797079
 20
93.24112010007651
 30
0.0
 10
120.658902483863
 20
93.35919534919267
 30
0.0
 10
121.0173825475609
 20
93.62051465469811
 30
0.0
 10
121.1852619930257
 20
93.76399713534266
 30
0.0
 10
121.4987096503019
 20
94.07617833907634
 30
0.0
 10
121.6453195127175
 20
94.24636629805566
 30
0.0
 10
121.9094020171952
 20
94.60589799446817
 30
0.0
 10
122.0264746347672
 20
94.79412858716817
 30
0.0
 10
122.2311299058638
 20
95.18728400031911
 30
0.0
 10
122.3190963970545
 20
95.39335900116296
 30
0.0
 10
122.5332462861503
 20
96.0306354565535
 30
0.0
 10
122.6076674661766
 20
96.46779284998408
 30
0.0
 10
122.6093262754972
 20
96.91806269585635
 30
0.0
  0
SPLINE
  5
1BA
330
1F
100
AcDbEntity
  8
0
  6
Continuous
 62
     8
370
     0
100
AcDbSpline
210
0.0
220
0.0
230
1.0
 70
     8
 71
     3
 72
    14
 73
    10
 74
     0
 42
0.000000001
 43
0.00000001
 40
0.0
 40
0.0
 40
0.0
 40
0.0
 40
0.125000000000001
 40
0.125000000000001
 40
0.2500000000000019
 40
0.2500000000000019
 40
0.5000000000000012
 40
0.5000000000000012
 40
1.0
 40
1.0
 40
1.0
 40
1.0
 10
104.0664431818181
 20
90.44228900577045
 30
0.0
 10
104.7284380077197
 20
90.44226235362396
 30
0.0
 10
105.3921044332423
 20
90.45509444663263
 30
0.0
 10
106.7152343591183
 20
90.50634997094708
 30
0.0
 10
107.3759569761482
 20
90.54477329686384
 30
0.0
 10
109.3555977045426
 20
90.69846008889965
 30
0.0
 10
110.6741294684112
 20
90.85258162959214
 30
0.0
 10
114.5857580151709
 20
91.46495524286064
 30
0.0
 10
117.1447511144584
 20
92.07178523770965
 30
0.0
 10
119.6538746536274
 20
92.8842653772442
 30
0.0
  0
LWPOLYLINE
  5
1BB
330
1F
100
AcDbEntity
  8
0
  6
Continuous
 62
     8
370
     0
100
AcDbPolyline
 90
       13
 70
   128
 43
0.0
 10
214.0664431818
 20
309.3886947713
 10
216.9488516257
 20
309.4299039325
 10
219.7858026803
 20
309.5528757653
 10
222.5325556092
 20
309.7556768439
 10
225.1457936682
 20
310.0351034186
 10
227.584303505
 20
310.386748471
 10
229.8096280165
 20
310.8050724945
 10
231.7866731055
 20
311.2834705493
 10
233.4842599549
 20
311.8144063732
 10
234.8756167658
 20
312.3894980631
 10
235.9387997158
 20
312.9996819875
 10
236.6570431359
 20
313.6353357217
 10
236.946252323
 20
314.085533329
  0
LWPOLYLINE
  5
1BC
330
1F
100
AcDbEntity
  8
0
  6
Continuous
 62
     8
370
     0
100
AcDbPolyline
 90
       12
 70
   128
 43
0.0
 10
191.6497937955
 20
313.4470297477
 10
192.1940866478
 20
312.9996819875
 10
193.2572695978
 20
312.3894980631
 10
194.6486264088
 20
311.8144063732
 10
196.3462132581
 20
311.2834705493
 10
198.3232583471
 20
310.8050724945
 10
200.5485828586
 20
310.386748471
 10
202.9870926954
 20
310.0351034186
 10
205.6003307544
 20
309.7556768439
 10
208.3470836833
 20
309.5528757653
 10
211.184034738
 20
309.4299039325
 10
214.0664431818
 20
309.3886947713
  0
SPLINE
  5
1BD
330
1F
100
AcDbEntity
  8
0
  6
Continuous
 62
     8
370
     0
100
AcDbSpline
210
0.0
220
0.0
230
1.0
 70
     8
 71
     3
 72
    20
 73
    16
 74
     0
 42
0.000000001
 43
0.00000001
 40
0.0
 40
0.0
 40
0.0
 40
0.0
 40
0.0022892128717097
 40
0.1073341022033659
 40
0.2161877305604127
 40
0.3416113039991386
 40
0.4707192170514717
 40
0.5318822156329054
 40
0.5937181857796934
 40
0.6577266093958328
 40
0.7223314743475252
 40
0.7912261204004046
 40
0.8606165365305462
 40
0.9315039562563168
 40
1.0
 40
1.0
 40
1.0
 40
1.0
 10
214.0664431818181
 20
300.4404208144919
 30
0.0
 10
214.0778020795676
 20
300.4402612271094
 30
0.0
 10
214.610385618228
 20
300.4327786689626
 30
0.0
 10
215.68603846861
 20
300.4262312550546
 30
0.0
 10
217.2947575285085
 20
300.3731962196134
 30
0.0
 10
218.8852925175918
 20
300.3221082103151
 30
0.0
 10
220.1406086155749
 20
300.3091843484882
 30
0.0
 10
221.0203573186893
 20
300.3023282437851
 30
0.0
 10
221.5998215445889
 20
300.2939676982569
 30
0.0
 10
222.094095684141
 20
300.2765133552484
 30
0.0
 10
222.5342041452722
 20
300.2658239386349
 30
0.0
 10
222.9117837876633
 20
300.264795428847
 30
0.0
 10
223.2170541997052
 20
300.2750954119471
 30
0.0
 10
223.4447563780633
 20
300.2962287853763
 30
0.0
 10
223.5271591125771
 20
300.3219793583023
 30
0.0
 10
223.5676535956913
 20
300.3346337458865
 30
0.0
  0
SPLINE
  5
1BE
330
1F
100
AcDbEntity
  8
0
  6
Continuous
 62
     8
370
     0
100
AcDbSpline
210
0.0
220
0.0
230
1.0
 70
     8
 71
     3
 72
    19
 73
    15
 74
     0
 42
0.000000001
 43
0.00000001
 40
0.0
 40
0.0
 40
0.0
 40
0.0
 40
0.0660961248720635
 40
0.1354849584192455
 40
0.2063175857045319
 40
0.2776827349323938
 40
0.339095753302504
 40
0.4009334718234215
 40
0.4647055107376498
 40
0.5292934345341872
 40
0.6547533006374303
 40
0.7838222090570196
 40
0.8898705592273292
 40
1.0
 40
1.0
 40
1.0
 40
1.0
 10
204.5651442923003
 20
300.3346337458865
 30
0.0
 10
204.6039741074958
 20
300.3223796732635
 30
0.0
 10
204.6835681216286
 20
300.2972610672482
 30
0.0
 10
204.9047873473111
 20
300.2757737787891
 30
0.0
 10
205.2097403291034
 20
300.2648191616047
 30
0.0
 10
205.5871691206956
 20
300.2657207663219
 30
0.0
 10
206.0195025175425
 20
300.2758415060164
 30
0.0
 10
206.4989787725455
 20
300.2931684530428
 30
0.0
 10
207.0824324084647
 20
300.3020816023029
 30
0.0
 10
207.9659432096426
 20
300.309004652484
 30
0.0
 10
209.2321854585375
 20
300.3215238386033
 30
0.0
 10
210.8085809520007
 20
300.3725994380745
 30
0.0
 10
212.4440214046083
 20
300.4250129339639
 30
0.0
 10
213.5188721026175
 20
300.4352206193963
 30
0.0
 10
214.0664431818181
 20
300.4404208144919
 30
0.0
  0
SPLINE
  5
1BF
330
1F
100
AcDbEntity
  8
0
  6
Continuous
 62
     8
370
     0
100
AcDbSpline
210
0.0
220
0.0
230
1.0
 70
     8
 71
     3
 72
    38
 73
    34
 74
     0
 42
0.000000001
 43
0.00000001
 40
0.0
 40
0.0
 40
0.0
 40
0.0
 40
0.03125
 40
0.03125
 40
0.0625000000000001
 40
0.0625000000000001
 40
0.1250000000000001
 40
0.1250000000000001
 40
0.1875000000000001
 40
0.1875000000000001
 40
0.2500000000000001
 40
0.2500000000000001
 40
0.3125000000000002
 40
0.3125000000000002
 40
0.3750000000000002
 40
0.3750000000000002
 40
0.5000000000000001
 40
0.5000000000000001
 40
0.5625000000000002
 40
0.5625000000000002
 40
0.6250000000000002
 40
0.6250000000000002
 40
0.7500000000000002
 40
0.7500000000000002
 40
0.8125000000000002
 40
0.8125000000000002
 40
0.8750000000000001
 40
0.8750000000000001
 40
0.9375000000000001
 40
0.9375000000000001
 40
0.9687500000000001
 40
0.9687500000000001
 40
1.0
 40
1.0
 40
1.0
 40
1.0
 10
214.0664431818181
 20
292.044128035579
 30
0.0
 10
213.8065597321087
 20
292.0441278277789
 30
0.0
 10
213.5441343939453
 20
292.0416280098898
 30
0.0
 10
213.0240822921883
 20
292.0317772014317
 30
0.0
 10
212.7648023396869
 20
292.0244262924294
 30
0.0
 10
211.9891667230307
 20
291.9952472136951
 30
0.0
 10
211.4750083010207
 20
291.9663151991857
 30
0.0
 10
210.4525445816611
 20
291.8897404734435
 30
0.0
 10
209.9463427582853
 20
291.842166832845
 30
0.0
 10
208.9578869183597
 20
291.7305161354683
 30
0.0
 10
208.4734980700136
 20
291.6662876671142
 30
0.0
 10
207.5242302138545
 20
291.5213503410168
 30
0.0
 10
207.0593440477252
 20
291.4406477213508
 30
0.0
 10
206.1489871127719
 20
291.2632903633239
 30
0.0
 10
205.701182328745
 20
291.1660460731741
 30
0.0
 10
204.4075076754379
 20
290.8551351322694
 30
0.0
 10
203.6123217353437
 20
290.6234808532144
 30
0.0
 10
202.5193342998121
 20
290.2425136685196
 30
0.0
 10
202.1717889455484
 20
290.1098862137672
 30
0.0
 10
201.5106785037843
 20
289.8336463992744
 30
0.0
 10
201.1991646606589
 20
289.6907524374889
 30
0.0
 10
200.3356355633019
 20
289.2559678011008
 30
0.0
 10
199.847008731835
 20
288.9553152402207
 30
0.0
 10
199.2468165499949
 20
288.4901116973541
 30
0.0
 10
199.0691126035887
 20
288.3326312504958
 30
0.0
 10
198.7600879445403
 20
288.0127164510781
 30
0.0
 10
198.6295248379164
 20
287.8507262206145
 30
0.0
 10
198.4210099593384
 20
287.5288781755536
 30
0.0
 10
198.3421890680929
 20
287.3681740508877
 30
0.0
 10
198.2622125608427
 20
287.1275206188411
 30
0.0
 10
198.241942150431
 20
287.047370187292
 30
0.0
 10
198.2143478235088
 20
286.8872194771167
 30
0.0
 10
198.2070195114478
 20
286.8066915730887
 30
0.0
 10
198.2063106050522
 20
286.7273030087568
 30
0.0
  0
SPLINE
  5
1C0
330
1F
100
AcDbEntity
  8
0
  6
Continuous
 62
     8
370
     0
100
AcDbSpline
210
0.0
220
0.0
230
1.0
 70
     8
 71
     3
 72
    30
 73
    26
 74
     0
 42
0.000000001
 43
0.00000001
 40
0.0
 40
0.0
 40
0.0
 40
0.0
 40
0.1250000000000001
 40
0.1250000000000001
 40
0.1875
 40
0.1875
 40
0.2499999999999999
 40
0.2499999999999999
 40
0.375
 40
0.375
 40
0.4374999999999999
 40
0.4374999999999999
 40
0.4999999999999998
 40
0.4999999999999998
 40
0.6249999999999999
 40
0.6249999999999999
 40
0.6874999999999998
 40
0.6874999999999998
 40
0.7499999999999998
 40
0.7499999999999998
 40
0.8124999999999998
 40
0.8124999999999998
 40
0.8749999999999999
 40
0.8749999999999999
 40
1.0
 40
1.0
 40
1.0
 40
1.0
 10
196.8663981461222
 20
288.0602823770339
 30
0.0
 10
196.8695194592287
 20
288.4059887482273
 30
0.0
 10
196.986986765385
 20
288.7553780309442
 30
0.0
 10
197.3280386102247
 20
289.2829489666494
 30
0.0
 10
197.4703869362169
 20
289.4603284399975
 30
0.0
 10
197.8071371061344
 20
289.8109776395531
 30
0.0
 10
198.0007117997201
 20
289.9837593429354
 30
0.0
 10
198.6542093865129
 20
290.4942611454611
 30
0.0
 10
199.1858774127649
 20
290.8242907060931
 30
0.0
 10
200.1249552427276
 20
291.3006596597659
 30
0.0
 10
200.4637034672735
 20
291.4570880740709
 30
0.0
 10
201.181990437516
 20
291.7588911340947
 30
0.0
 10
201.5594807246667
 20
291.9035647325118
 30
0.0
 10
202.746214700252
 20
292.3183690394098
 30
0.0
 10
203.6090390740296
 20
292.569530395846
 30
0.0
 10
205.0119580482022
 20
292.9051691923206
 30
0.0
 10
205.4971650909372
 20
293.0098154419192
 30
0.0
 10
206.4834472551872
 20
293.2002703075766
 30
0.0
 10
206.9870096034819
 20
293.2867014670033
 30
0.0
 10
208.0150305387181
 20
293.441571021096
 30
0.0
 10
208.5394913096648
 20
293.5100155523394
 30
0.0
 10
209.6094956326907
 20
293.6287232525244
 30
0.0
 10
210.1573783565978
 20
293.6791463302091
 30
0.0
 10
211.8165523391542
 20
293.800569302553
 30
0.0
 10
212.9350601586999
 20
293.84187836201
 30
0.0
 10
214.066443181818
 20
293.84187836201
 30
0.0
  0
SPLINE
  5
1C1
330
1F
100
AcDbEntity
  8
0
  6
Continuous
 62
     8
370
     0
100
AcDbSpline
210
0.0
220
0.0
230
1.0
 70
     8
 71
     3
 72
    30
 73
    26
 74
     0
 42
0.000000001
 43
0.00000001
 40
0.0
 40
0.0
 40
0.0
 40
0.0
 40
0.125
 40
0.125
 40
0.1874999999999999
 40
0.1874999999999999
 40
0.2499999999999997
 40
0.2499999999999997
 40
0.3749999999999997
 40
0.3749999999999997
 40
0.4374999999999996
 40
0.4374999999999996
 40
0.4999999999999994
 40
0.4999999999999994
 40
0.6249999999999993
 40
0.6249999999999993
 40
0.6874999999999994
 40
0.6874999999999994
 40
0.7499999999999996
 40
0.7499999999999996
 40
0.8124999999999998
 40
0.8124999999999998
 40
0.8749999999999999
 40
0.8749999999999999
 40
1.0
 40
1.0
 40
1.0
 40
1.0
 10
231.266488217514
 20
288.0602823770339
 30
0.0
 10
231.2633669044075
 20
288.4059887482273
 30
0.0
 10
231.1458995982511
 20
288.7553780309442
 30
0.0
 10
230.8048477534115
 20
289.2829489666494
 30
0.0
 10
230.6624994274192
 20
289.4603284399975
 30
0.0
 10
230.3257492575017
 20
289.8109776395531
 30
0.0
 10
230.1321745639161
 20
289.9837593429354
 30
0.0
 10
229.4786769771232
 20
290.494261145461
 30
0.0
 10
228.9470089508713
 20
290.824290706093
 30
0.0
 10
228.0079311209086
 20
291.3006596597659
 30
0.0
 10
227.6691828963626
 20
291.4570880740709
 30
0.0
 10
226.9508959261201
 20
291.7588911340947
 30
0.0
 10
226.5734056389694
 20
291.9035647325118
 30
0.0
 10
225.3866716633841
 20
292.3183690394098
 30
0.0
 10
224.5238472896065
 20
292.569530395846
 30
0.0
 10
223.1209283154339
 20
292.9051691923206
 30
0.0
 10
222.635721272699
 20
293.0098154419193
 30
0.0
 10
221.6494391084489
 20
293.2002703075767
 30
0.0
 10
221.1458767601543
 20
293.2867014670033
 30
0.0
 10
220.1178558249181
 20
293.441571021096
 30
0.0
 10
219.5933950539714
 20
293.5100155523395
 30
0.0
 10
218.5233907309455
 20
293.6287232525245
 30
0.0
 10
217.9755080070383
 20
293.6791463302091
 30
0.0
 10
216.3163340244819
 20
293.8005693025531
 30
0.0
 10
215.1978262049363
 20
293.84187836201
 30
0.0
 10
214.0664431818181
 20
293.84187836201
 30
0.0
  0
SPLINE
  5
1C2
330
1F
100
AcDbEntity
  8
0
  6
Continuous
 62
     8
370
     0
100
AcDbSpline
210
0.0
220
0.0
230
1.0
 70
     8
 71
     3
 72
    38
 73
    34
 74
     0
 42
0.000000001
 43
0.00000001
 40
0.0
 40
0.0
 40
0.0
 40
0.0
 40
0.0312499999999999
 40
0.0312499999999999
 40
0.0624999999999999
 40
0.0624999999999999
 40
0.1249999999999998
 40
0.1249999999999998
 40
0.1874999999999998
 40
0.1874999999999998
 40
0.2499999999999998
 40
0.2499999999999998
 40
0.3124999999999998
 40
0.3124999999999998
 40
0.3749999999999998
 40
0.3749999999999998
 40
0.4999999999999996
 40
0.4999999999999996
 40
0.5624999999999994
 40
0.5624999999999994
 40
0.6249999999999993
 40
0.6249999999999993
 40
0.7499999999999993
 40
0.7499999999999993
 40
0.8124999999999994
 40
0.8124999999999994
 40
0.8749999999999996
 40
0.8749999999999996
 40
0.9374999999999997
 40
0.9374999999999997
 40
0.9687499999999998
 40
0.9687499999999998
 40
1.0
 40
1.0
 40
1.0
 40
1.0
 10
214.0664431818181
 20
292.044128035579
 30
0.0
 10
214.3263266315284
 20
292.0441280354273
 30
0.0
 10
214.5887519696909
 20
292.0416280098898
 30
0.0
 10
215.1088040714478
 20
292.0317772014317
 30
0.0
 10
215.3680840239493
 20
292.0244262924294
 30
0.0
 10
216.1437196406054
 20
291.9952472136951
 30
0.0
 10
216.6578780626155
 20
291.9663151991856
 30
0.0
 10
217.6803417819751
 20
291.8897404734435
 30
0.0
 10
218.1865436053509
 20
291.842166832845
 30
0.0
 10
219.1749994452764
 20
291.7305161354683
 30
0.0
 10
219.6593882936226
 20
291.6662876671142
 30
0.0
 10
220.6086561497816
 20
291.5213503410168
 30
0.0
 10
221.0735423159109
 20
291.4406477213508
 30
0.0
 10
221.9838992508643
 20
291.2632903633239
 30
0.0
 10
222.4317040348911
 20
291.1660460731741
 30
0.0
 10
223.7253786881982
 20
290.8551351322694
 30
0.0
 10
224.5205646282924
 20
290.6234808532144
 30
0.0
 10
225.6135520638241
 20
290.2425136685196
 30
0.0
 10
225.9610974180877
 20
290.1098862137672
 30
0.0
 10
226.6222078598519
 20
289.8336463992743
 30
0.0
 10
226.9337217029773
 20
289.6907524374889
 30
0.0
 10
227.7972508003342
 20
289.2559678011008
 30
0.0
 10
228.2858776318011
 20
288.9553152402207
 30
0.0
 10
228.8860698136412
 20
288.4901116973541
 30
0.0
 10
229.0637737600474
 20
288.3326312504958
 30
0.0
 10
229.3727984190959
 20
288.0127164510781
 30
0.0
 10
229.5033615257197
 20
287.8507262206145
 30
0.0
 10
229.7118764042978
 20
287.5288781755536
 30
0.0
 10
229.7906972955433
 20
287.3681740508878
 30
0.0
 10
229.8706738027935
 20
287.1275206188411
 30
0.0
 10
229.8909442132051
 20
287.047370187292
 30
0.0
 10
229.9185385401273
 20
286.8872194771167
 30
0.0
 10
229.9258673525703
 20
286.8066916219191
 30
0.0
 10
229.926575758584
 20
286.7273030087568
 30
0.0
  0
LWPOLYLINE
  5
1C3
330
1F
100
AcDbEntity
  8
0
  6
Continuous
 62
     8
370
     0
100
AcDbPolyline
 90
        3
 70
   128
 43
0.0
 10
231.2664977827
 20
288.0591465614
 10
231.2664977827
 20
288.0591651878
 10
231.2664884694
 20
288.0602827749
  0
SPLINE
  5
1C4
330
1F
100
AcDbEntity
  8
0
  6
Continuous
 62
     8
370
     0
100
AcDbSpline
210
0.0
220
0.0
230
1.0
 70
     8
 71
     3
 72
    13
 73
     9
 74
     0
 42
0.000000001
 43
0.00000001
 40
0.0
 40
0.0
 40
0.0
 40
0.0
 40
0.1300425826632712
 40
0.3041707140980363
 40
0.4781315396460643
 40
0.6521601009191822
 40
0.8261234108555259
 40
1.0
 40
1.0
 40
1.0
 40
1.0
 10
227.1596623205
 20
294.0409904799239
 30
0.0
 10
226.8233333255502
 20
294.2457314478332
 30
0.0
 10
226.0366569271688
 20
294.7246223244883
 30
0.0
 10
224.2965983727039
 20
295.3907326617307
 30
0.0
 10
222.1002170441831
 20
296.0168524606911
 30
0.0
 10
219.601641749467
 20
296.495369832325
 30
0.0
 10
216.8979280750356
 20
296.8246909936987
 30
0.0
 10
215.0101145944689
 20
296.8692121193272
 30
0.0
 10
214.0664431818181
 20
296.8914671323077
 30
0.0
  0
SPLINE
  5
1C5
330
1F
100
AcDbEntity
  8
0
  6
Continuous
 62
     8
370
     0
100
AcDbSpline
210
0.0
220
0.0
230
1.0
 70
     8
 71
     3
 72
    10
 73
     6
 74
     0
 42
0.000000001
 43
0.00000001
 40
0.0
 40
0.0
 40
0.0
 40
0.0
 40
0.9116562011009197
 40
0.975858743422728
 40
1.0
 40
1.0
 40
1.0
 40
1.0
 10
231.210618428176
 20
288.6345027467982
 30
0.0
 10
231.2380044588603
 20
288.5026437269074
 30
0.0
 10
231.2673191253527
 20
288.3614986578517
 30
0.0
 10
231.2664884181735
 20
288.2148887726361
 30
0.0
 10
231.2664957728722
 20
288.2019429906967
 30
0.0
 10
231.2664977826529
 20
288.1984053632991
 30
0.0
  0
LINE
  5
1C6
330
1F
100
AcDbEntity
  8
0
  6
Continuous
 62
     8
370
     0
100
AcDbLine
 10
231.2664977827
 20
288.1984053633
 30
0.0
 11
231.2664977827
 21
288.0591465614
 31
0.0
  0
SPLINE
  5
1C7
330
1F
100
AcDbEntity
  8
0
  6
Continuous
 62
     8
370
     0
100
AcDbSpline
210
0.0
220
0.0
230
1.0
 70
     8
 71
     3
 72
    13
 73
     9
 74
     0
 42
0.000000001
 43
0.00000001
 40
0.0
 40
0.0
 40
0.0
 40
0.0
 40
0.1300425826632712
 40
0.3041707140980363
 40
0.4781315396460643
 40
0.6521601009191822
 40
0.8261234108555259
 40
1.0
 40
1.0
 40
1.0
 40
1.0
 10
200.9732240431362
 20
294.0409904799239
 30
0.0
 10
201.309553038086
 20
294.2457314478332
 30
0.0
 10
202.0962294364674
 20
294.7246223244883
 30
0.0
 10
203.8362879909322
 20
295.3907326617307
 30
0.0
 10
206.0326693194531
 20
296.0168524606911
 30
0.0
 10
208.5312446141691
 20
296.495369832325
 30
0.0
 10
211.2349582886005
 20
296.8246909936987
 30
0.0
 10
213.1227717691673
 20
296.8692121193272
 30
0.0
 10
214.0664431818181
 20
296.8914671323077
 30
0.0
  0
LWPOLYLINE
  5
1C8
330
1F
100
AcDbEntity
  8
0
  6
Continuous
 62
     8
370
     0
100
AcDbPolyline
 90
        3
 70
   128
 43
0.0
 10
196.866388581
 20
288.0591465614
 10
196.866388581
 20
288.0591651878
 10
196.8663978942
 20
288.0602827749
  0
LINE
  5
1C9
330
1F
100
AcDbEntity
  8
0
  6
Continuous
 62
     8
370
     0
100
AcDbLine
 10
196.866388581
 20
288.1984053633
 30
0.0
 11
196.866388581
 21
288.0591465614
 31
0.0
  0
SPLINE
  5
1CA
330
1F
100
AcDbEntity
  8
0
  6
Continuous
 62
     8
370
     0
100
AcDbSpline
210
0.0
220
0.0
230
1.0
 70
     8
 71
     3
 72
    32
 73
    28
 74
     0
 42
0.000000001
 43
0.00000001
 40
0.0
 40
0.0
 40
0.0
 40
0.0
 40
0.0625000000000001
 40
0.0625000000000001
 40
0.1250000000000001
 40
0.1250000000000001
 40
0.2500000000000002
 40
0.2500000000000002
 40
0.3750000000000003
 40
0.3750000000000003
 40
0.4375000000000002
 40
0.4375000000000002
 40
0.5000000000000001
 40
0.5000000000000001
 40
0.5625
 40
0.5625
 40
0.625
 40
0.625
 40
0.75
 40
0.75
 40
0.875
 40
0.875
 40
0.9374999999999999
 40
0.9374999999999999
 40
0.96875
 40
0.96875
 40
1.0
 40
1.0
 40
1.0
 40
1.0
 10
214.0664431818181
 20
297.6351547954444
 30
0.0
 10
213.7146980959039
 20
297.6309397481642
 30
0.0
 10
213.3629899322114
 20
297.6298014747695
 30
0.0
 10
212.666395726425
 20
297.6250445323449
 30
0.0
 10
212.3274272235773
 20
297.6209307188519
 30
0.0
 10
211.3364522461305
 20
297.6094448710667
 30
0.0
 10
210.7013877850908
 20
297.6043555261538
 30
0.0
 10
209.5491593383356
 20
297.6286996275638
 30
0.0
 10
209.0236188341281
 20
297.6590382737065
 30
0.0
 10
208.2944190218113
 20
297.749472300687
 30
0.0
 10
208.0607496199808
 20
297.7823997598688
 30
0.0
 10
207.6193477084243
 20
297.8426840938507
 30
0.0
 10
207.4113383461261
 20
297.8699390823885
 30
0.0
 10
207.0253515912497
 20
297.9128769413294
 30
0.0
 10
206.8495641064685
 20
297.9288992971145
 30
0.0
 10
206.523901042243
 20
297.9464999401509
 30
0.0
 10
206.3754774021246
 20
297.9587330787467
 30
0.0
 10
205.9709233743088
 20
298.0031113750212
 30
0.0
 10
205.7626927628736
 20
298.0434965899054
 30
0.0
 10
205.462129766747
 20
298.1497439325353
 30
0.0
 10
205.3680164722941
 20
298.215219991746
 30
0.0
 10
205.3068316524195
 20
298.3351470953216
 30
0.0
 10
205.3010089880536
 20
298.3804411617326
 30
0.0
 10
205.3073581813114
 20
298.4463258093283
 30
0.0
 10
205.313565607724
 20
298.4715150549155
 30
0.0
 10
205.330810892219
 20
298.5202196679099
 30
0.0
 10
205.3428175560408
 20
298.5453034126593
 30
0.0
 10
205.3540400356881
 20
298.5684817664759
 30
0.0
  0
SPLINE
  5
1CB
330
1F
100
AcDbEntity
  8
0
  6
Continuous
 62
     8
370
     0
100
AcDbSpline
210
0.0
220
0.0
230
1.0
 70
     8
 71
     3
 72
    34
 73
    30
 74
     0
 42
0.000000001
 43
0.00000001
 40
0.0
 40
0.0
 40
0.0
 40
0.0
 40
0.0624999999999998
 40
0.0624999999999998
 40
0.1249999999999996
 40
0.1249999999999996
 40
0.2499999999999994
 40
0.2499999999999994
 40
0.3749999999999992
 40
0.3749999999999992
 40
0.4374999999999992
 40
0.4374999999999992
 40
0.4999999999999992
 40
0.4999999999999992
 40
0.5624999999999992
 40
0.5624999999999992
 40
0.6249999999999992
 40
0.6249999999999992
 40
0.7499999999999993
 40
0.7499999999999993
 40
0.8124999999999996
 40
0.8124999999999996
 40
0.8749999999999997
 40
0.8749999999999997
 40
0.9374999999999998
 40
0.9374999999999998
 40
0.9687499999999999
 40
0.9687499999999999
 40
1.0
 40
1.0
 40
1.0
 40
1.0
 10
222.7788463279481
 20
298.5684817664759
 30
0.0
 10
222.8011046735911
 20
298.5225104813946
 30
0.0
 10
222.8234136743878
 20
298.4682916033528
 30
0.0
 10
222.8318709060029
 20
298.3804844533411
 30
0.0
 10
222.8260633475497
 20
298.3351853959113
 30
0.0
 10
222.7649187443072
 20
298.2152730366966
 30
0.0
 10
222.6708507198984
 20
298.1498008575302
 30
0.0
 10
222.3704241348878
 20
298.0435544549401
 30
0.0
 10
222.1622919104715
 20
298.0031665459344
 30
0.0
 10
221.7578998537589
 20
297.9587774066002
 30
0.0
 10
221.6095326131744
 20
297.94654788921
 30
0.0
 10
221.2840058383542
 20
297.9289179406269
 30
0.0
 10
221.1082902235487
 20
297.9129498202359
 30
0.0
 10
220.7224597826007
 20
297.8700516195027
 30
0.0
 10
220.514529946202
 20
297.8428165650852
 30
0.0
 10
220.0732903117138
 20
297.7825602080055
 30
0.0
 10
219.8402022536457
 20
297.7497303025655
 30
0.0
 10
219.114056092855
 20
297.6595471893955
 30
0.0
 10
218.5877476870062
 20
297.6287260904611
 30
0.0
 10
217.7134327946641
 20
297.6103416373209
 30
0.0
 10
217.4082555736937
 20
297.6086106166902
 30
0.0
 10
216.7783028073931
 20
297.6101138607273
 30
0.0
 10
216.4565729943447
 20
297.613378819321
 30
0.0
 10
215.7991163222091
 20
297.6210095591612
 30
0.0
 10
215.4631886383572
 20
297.6250674325784
 30
0.0
 10
214.9454498715251
 20
297.6286024695765
 30
0.0
 10
214.7702774241267
 20
297.6295080030967
 30
0.0
 10
214.4188104091079
 20
297.6317266314191
 30
0.0
 10
214.2408534709245
 20
297.6330647943508
 30
0.0
 10
214.0664431818181
 20
297.6351547954444
 30
0.0
  0
LWPOLYLINE
  5
1CC
330
1F
100
AcDbEntity
  8
0
  6
Continuous
 62
     8
370
     0
100
AcDbPolyline
 90
        3
 70
   128
 43
0.0
 10
229.9265760549
 20
286.7273031256
 10
229.9265760549
 20
286.7272844991
 10
229.9265853681
 20
286.7262451432
  0
SPLINE
  5
1CD
330
1F
100
AcDbEntity
  8
0
  6
Continuous
 62
     8
370
     0
100
AcDbSpline
210
0.0
220
0.0
230
1.0
 70
     8
 71
     3
 72
    24
 73
    20
 74
     0
 42
0.000000001
 43
0.00000001
 40
0.0
 40
0.0
 40
0.0
 40
0.0
 40
0.1249999999999999
 40
0.1249999999999999
 40
0.2499999999999998
 40
0.2499999999999998
 40
0.3749999999999998
 40
0.3749999999999998
 40
0.4999999999999998
 40
0.4999999999999998
 40
0.7500000000000001
 40
0.7500000000000001
 40
0.8750000000000003
 40
0.8750000000000003
 40
0.9375000000000001
 40
0.9375000000000001
 40
0.96875
 40
0.96875
 40
1.0
 40
1.0
 40
1.0
 40
1.0
 10
229.926584826836
 20
286.7262459364107
 30
0.0
 10
229.9357704606066
 20
285.6203784482815
 30
0.0
 10
229.9433623872552
 20
284.5874984160416
 30
0.0
 10
229.9557262207313
 20
282.6722300433114
 30
0.0
 10
229.9605709089925
 20
281.7908573805519
 30
0.0
 10
229.9676583520919
 20
280.1803542958831
 30
0.0
 10
229.9697215880499
 20
279.4474972543429
 30
0.0
 10
229.9694888156401
 20
278.0900917001646
 30
0.0
 10
229.9675921872454
 20
277.4688703925132
 30
0.0
 10
229.9580622837637
 20
275.7836046489906
 30
0.0
 10
229.9460106907648
 20
274.8954485303952
 30
0.0
 10
229.9179023220092
 20
273.9178596070286
 30
0.0
 10
229.90690729343
 20
273.650958711868
 30
0.0
 10
229.8876321311436
 20
273.3390144450985
 30
0.0
 10
229.8805195632767
 20
273.249855250197
 30
0.0
 10
229.8699460478466
 20
273.1379731303297
 30
0.0
 10
229.866499574606
 20
273.1042799017583
 30
0.0
 10
229.8597233888401
 20
273.0443680681502
 30
0.0
 10
229.8561932870404
 20
273.0166221698245
 30
0.0
 10
229.8516435272139
 20
272.9956501680263
 30
0.0
  0
LWPOLYLINE
  5
1CE
330
1F
100
AcDbEntity
  8
0
  6
Continuous
 62
     8
370
     0
100
AcDbPolyline
 90
        3
 70
   128
 43
0.0
 10
198.2063103088
 20
286.7273031256
 10
198.2063103088
 20
286.7272844991
 10
198.2063009955
 20
286.7262451432
  0
SPLINE
  5
1CF
330
1F
100
AcDbEntity
  8
0
  6
Continuous
 62
     8
370
     0
100
AcDbSpline
210
0.0
220
0.0
230
1.0
 70
     8
 71
     3
 72
    15
 73
    11
 74
     0
 42
0.000000001
 43
0.00000001
 40
0.0
 40
0.0
 40
0.0
 40
0.0
 40
0.1952452989731166
 40
0.2909295156868087
 40
0.3865129550582475
 40
0.5776902354961918
 40
0.6732573175512756
 40
0.8644314898969857
 40
0.9599947334094908
 40
1.0
 40
1.0
 40
1.0
 40
1.0
 10
198.206300995534
 20
286.7262451431529
 30
0.0
 10
198.1943677056403
 20
285.1292956547052
 30
0.0
 10
198.1765862467904
 20
282.7497262428224
 30
0.0
 10
198.1652917250693
 20
280.3015966122135
 30
0.0
 10
198.1612633657826
 20
278.1511208156488
 30
0.0
 10
198.1695034538408
 20
276.3883398839357
 30
0.0
 10
198.1911544633751
 20
274.6811575461232
 30
0.0
 10
198.2184911793994
 20
273.7167162186463
 30
0.0
 10
198.2537779796274
 20
273.2154798912307
 30
0.0
 10
198.2684853350272
 20
273.0897162714003
 30
0.0
 10
198.2728253670388
 20
273.0526043555514
 30
0.0
  0
ENDSEC
  0
SECTION
  2
OBJECTS
  0
DICTIONARY
  5
C
330
0
100
AcDbDictionary
281
     1
  3
ACAD_GROUP
350
D
  3
ACAD_LAYOUT
350
1A
  3
ACAD_MLINESTYLE
350
17
  3
ACAD_PLOTSETTINGS
350
19
  3
ACAD_PLOTSTYLENAME
350
E
  3
ACAD_SCALELIST
350
47
  0
DICTIONARY
  5
D
102
{ACAD_REACTORS
330
C
102
}
330
C
100
AcDbDictionary
281
     1
  0
DICTIONARY
  5
1A
102
{ACAD_REACTORS
330
C
102
}
330
C
100
AcDbDictionary
281
     1
  3
Layout1
350
1E
  3
Layout2
350
26
  3
Model
350
22
  0
DICTIONARY
  5
17
102
{ACAD_REACTORS
330
C
102
}
330
C
100
AcDbDictionary
281
     1
  3
Standard
350
18
  0
DICTIONARY
  5
19
102
{ACAD_REACTORS
330
C
102
}
330
C
100
AcDbDictionary
281
     1
  0
ACDBDICTIONARYWDFLT
  5
E
102
{ACAD_REACTORS
330
C
102
}
330
C
100
AcDbDictionary
281
     1
  3
Normal
350
F
100
AcDbDictionaryWithDefault
340
F
  0
DICTIONARY
  5
47
102
{ACAD_REACTORS
330
C
102
}
330
C
100
AcDbDictionary
281
     1
  3
A0
350
48
  3
A1
350
49
  3
A2
350
4A
  3
A3
350
4B
  3
A4
350
4C
  3
A5
350
4D
  3
A6
350
4E
  3
A7
350
4F
  3
A8
350
50
  3
A9
350
51
  3
B0
350
52
  3
B1
350
53
  3
B2
350
54
  3
B3
350
55
  3
B4
350
56
  3
B5
350
57
  3
B6
350
58
  3
B7
350
59
  3
B8
350
5A
  3
B9
350
5B
  3
C0
350
5C
  3
C1
350
5D
  3
C2
350
5E
  3
C3
350
5F
  3
C4
350
60
  3
C5
350
61
  3
C6
350
62
  3
C7
350
63
  3
C8
350
64
  3
C9
350
65
  3
D0
350
66
  3
D1
350
67
  3
D2
350
68
  0
LAYOUT
  5
1E
102
{ACAD_REACTORS
330
1A
102
}
330
1A
100
AcDbPlotSettings
  1

  2
none_device
  4

  6

 40
0.0
 41
0.0
 42
0.0
 43
0.0
 44
0.0
 45
0.0
 46
0.0
 47
0.0
 48
0.0
 49
0.0
140
0.0
141
0.0
142
1.0
143
1.0
 70
   688
 72
     1
 73
     0
 74
     5
  7

 75
    16
147
1.0
148
0.0
149
0.0
100
AcDbLayout
  1
Layout1
 70
     1
 71
     1
 10
0.0
 20
0.0
 11
420.0
 21
297.0
 12
0.0
 22
0.0
 32
0.0
 14
1.0000000000E+20
 24
1.0000000000E+20
 34
1.0000000000E+20
 15
-1.0000000000E+20
 25
-1.0000000000E+20
 35
-1.0000000000E+20
146
0.0
 13
0.0
 23
0.0
 33
0.0
 16
1.0
 26
0.0
 36
0.0
 17
0.0
 27
1.0
 37
0.0
 76
     0
330
1B
  0
LAYOUT
  5
26
102
{ACAD_REACTORS
330
1A
102
}
330
1A
100
AcDbPlotSettings
  1

  2
none_device
  4

  6

 40
0.0
 41
0.0
 42
0.0
 43
0.0
 44
0.0
 45
0.0
 46
0.0
 47
0.0
 48
0.0
 49
0.0
140
0.0
141
0.0
142
1.0
143
1.0
 70
   688
 72
     1
 73
     0
 74
     5
  7

 75
    16
147
1.0
148
0.0
149
0.0
100
AcDbLayout
  1
Layout2
 70
     1
 71
     2
 10
0.0
 20
0.0
 11
0.0
 21
0.0
 12
0.0
 22
0.0
 32
0.0
 14
0.0
 24
0.0
 34
0.0
 15
0.0
 25
0.0
 35
0.0
146
0.0
 13
0.0
 23
0.0
 33
0.0
 16
1.0
 26
0.0
 36
0.0
 17
0.0
 27
1.0
 37
0.0
 76
     0
330
23
  0
LAYOUT
  5
22
102
{ACAD_REACTORS
330
1A
102
}
330
1A
100
AcDbPlotSettings
  1

  2
none_device
  4
Letter_(8.50_x_11.00_Inches)
  6

 40
6.35
 41
6.35
 42
6.35000508
 43
6.35000508
 44
215.9
 45
279.4
 46
0.0
 47
0.0
 48
0.0
 49
0.0
140
0.0
141
0.0
142
1.0
143
1.0
 70
  1712
 72
     1
 73
     0
 74
     0
  7

 75
     0
147
1.0
148
0.0
149
0.0
100
AcDbLayout
  1
Model
 70
     1
 71
     0
 10
0.0
 20
0.0
 11
594.0
 21
841.0
 12
0.0
 22
0.0
 32
0.0
 14
0.0
 24
0.0
 34
0.0
 15
594.0
 25
841.0
 35
0.0
146
0.0
 13
0.0
 23
0.0
 33
0.0
 16
1.0
 26
0.0
 36
0.0
 17
0.0
 27
1.0
 37
0.0
 76
     0
330
1F
331
29
  0
MLINESTYLE
  5
18
102
{ACAD_REACTORS
330
17
102
}
330
17
100
AcDbMlineStyle
  2
Standard
 70
     0
  3

 62
   256
 51
90.0
 52
90.0
 71
     2
 49
0.5
 62
   256
  6
BYLAYER
 49
-0.5
 62
   256
  6
BYLAYER
  0
ACDBPLACEHOLDER
  5
F
102
{ACAD_REACTORS
330
E
102
}
330
E
  0
SCALE
  5
48
102
{ACAD_REACTORS
330
47
102
}
330
47
100
AcDbScale
 70
     0
300
1:1
140
1.0
141
1.0
290
     1
  0
SCALE
  5
49
102
{ACAD_REACTORS
330
47
102
}
330
47
100
AcDbScale
 70
     0
300
1:2
140
1.0
141
2.0
290
     0
  0
SCALE
  5
4A
102
{ACAD_REACTORS
330
47
102
}
330
47
100
AcDbScale
 70
     0
300
1:4
140
1.0
141
4.0
290
     0
  0
SCALE
  5
4B
102
{ACAD_REACTORS
330
47
102
}
330
47
100
AcDbScale
 70
     0
300
1:5
140
1.0
141
5.0
290
     0
  0
SCALE
  5
4C
102
{ACAD_REACTORS
330
47
102
}
330
47
100
AcDbScale
 70
     0
300
1:8
140
1.0
141
8.0
290
     0
  0
SCALE
  5
4D
102
{ACAD_REACTORS
330
47
102
}
330
47
100
AcDbScale
 70
     0
300
1:10
140
1.0
141
10.0
290
     0
  0
SCALE
  5
4E
102
{ACAD_REACTORS
330
47
102
}
330
47
100
AcDbScale
 70
     0
300
1:16
140
1.0
141
16.0
290
     0
  0
SCALE
  5
4F
102
{ACAD_REACTORS
330
47
102
}
330
47
100
AcDbScale
 70
     0
300
1:20
140
1.0
141
20.0
290
     0
  0
SCALE
  5
50
102
{ACAD_REACTORS
330
47
102
}
330
47
100
AcDbScale
 70
     0
300
1:30
140
1.0
141
30.0
290
     0
  0
SCALE
  5
51
102
{ACAD_REACTORS
330
47
102
}
330
47
100
AcDbScale
 70
     0
300
1:40
140
1.0
141
40.0
290
     0
  0
SCALE
  5
52
102
{ACAD_REACTORS
330
47
102
}
330
47
100
AcDbScale
 70
     0
300
1:50
140
1.0
141
50.0
290
     0
  0
SCALE
  5
53
102
{ACAD_REACTORS
330
47
102
}
330
47
100
AcDbScale
 70
     0
300
1:100
140
1.0
141
100.0
290
     0
  0
SCALE
  5
54
102
{ACAD_REACTORS
330
47
102
}
330
47
100
AcDbScale
 70
     0
300
2:1
140
2.0
141
1.0
290
     0
  0
SCALE
  5
55
102
{ACAD_REACTORS
330
47
102
}
330
47
100
AcDbScale
 70
     0
300
4:1
140
4.0
141
1.0
290
     0
  0
SCALE
  5
56
102
{ACAD_REACTORS
330
47
102
}
330
47
100
AcDbScale
 70
     0
300
8:1
140
8.0
141
1.0
290
     0
  0
SCALE
  5
57
102
{ACAD_REACTORS
330
47
102
}
330
47
100
AcDbScale
 70
     0
300
10:1
140
10.0
141
1.0
290
     0
  0
SCALE
  5
58
102
{ACAD_REACTORS
330
47
102
}
330
47
100
AcDbScale
 70
     0
300
100:1
140
100.0
141
1.0
290
     0
  0
SCALE
  5
59
102
{ACAD_REACTORS
330
47
102
}
330
47
100
AcDbScale
 70
     0
300
1/128" = 1'-0"
140
0.0078125
141
12.0
290
     0
  0
SCALE
  5
5A
102
{ACAD_REACTORS
330
47
102
}
330
47
100
AcDbScale
 70
     0
300
1/64" = 1'-0"
140
0.015625
141
12.0
290
     0
  0
SCALE
  5
5B
102
{ACAD_REACTORS
330
47
102
}
330
47
100
AcDbScale
 70
     0
300
1/32" = 1'-0"
140
0.03125
141
12.0
290
     0
  0
SCALE
  5
5C
102
{ACAD_REACTORS
330
47
102
}
330
47
100
AcDbScale
 70
     0
300
1/16" = 1'-0"
140
0.0625
141
12.0
290
     0
  0
SCALE
  5
5D
102
{ACAD_REACTORS
330
47
102
}
330
47
100
AcDbScale
 70
     0
300
3/32" = 1'-0"
140
0.09375
141
12.0
290
     0
  0
SCALE
  5
5E
102
{ACAD_REACTORS
330
47
102
}
330
47
100
AcDbScale
 70
     0
300
1/8" = 1'-0"
140
0.125
141
12.0
290
     0
  0
SCALE
  5
5F
102
{ACAD_REACTORS
330
47
102
}
330
47
100
AcDbScale
 70
     0
300
3/16" = 1'-0"
140
0.1875
141
12.0
290
     0
  0
SCALE
  5
60
102
{ACAD_REACTORS
330
47
102
}
330
47
100
AcDbScale
 70
     0
300
1/4" = 1'-0"
140
0.25
141
12.0
290
     0
  0
SCALE
  5
61
102
{ACAD_REACTORS
330
47
102
}
330
47
100
AcDbScale
 70
     0
300
3/8" = 1'-0"
140
0.375
141
12.0
290
     0
  0
SCALE
  5
62
102
{ACAD_REACTORS
330
47
102
}
330
47
100
AcDbScale
 70
     0
300
1/2" = 1'-0"
140
0.5
141
12.0
290
     0
  0
SCALE
  5
63
102
{ACAD_REACTORS
330
47
102
}
330
47
100
AcDbScale
 70
     0
300
3/4" = 1'-0"
140
0.75
141
12.0
290
     0
  0
SCALE
  5
64
102
{ACAD_REACTORS
330
47
102
}
330
47
100
AcDbScale
 70
     0
300
1" = 1'-0"
140
1.0
141
12.0
290
     0
  0
SCALE
  5
65
102
{ACAD_REACTORS
330
47
102
}
330
47
100
AcDbScale
 70
     0
300
1-1/2" = 1'-0"
140
1.5
141
12.0
290
     0
  0
SCALE
  5
66
102
{ACAD_REACTORS
330
47
102
}
330
47
100
AcDbScale
 70
     0
300
3" = 1'-0"
140
3.0
141
12.0
290
     0
  0
SCALE
  5
67
102
{ACAD_REACTORS
330
47
102
}
330
47
100
AcDbScale
 70
     0
300
6" = 1'-0"
140
6.0
141
12.0
290
     0
  0
SCALE
  5
68
102
{ACAD_REACTORS
330
47
102
}
330
47
100
AcDbScale
 70
     0
300
1'-0" = 1'-0"
140
12.0
141
12.0
290
     0
  0
ENDSEC
  0
EOF
