  0
SECTION
  2
HEADER
  9
$ACADVER
  1
AC1015
  9
$ACADMAINTVER
 70
     6
  9
$DWGCODEPAGE
  3
ANSI_1252
  9
$INSBASE
 10
0.0
 20
0.0
 30
0.0
  9
$EXTMIN
 10
0.0
 20
0.0
 30
0.0
  9
$EXTMAX
 10
594.0
 20
841.0
 30
0.0
  9
$LIMMIN
 10
0.0
 20
0.0
  9
$LIMMAX
 10
594.0
 20
841.0
  9
$ORTHOMODE
 70
     0
  9
$REGENMODE
 70
     1
  9
$FILLMODE
 70
     1
  9
$QTEXTMODE
 70
     0
  9
$MIRRTEXT
 70
     1
  9
$LTSCALE
 40
1.0
  9
$ATTMODE
 70
     1
  9
$TEXTSIZE
 40
10.0
  9
$TRACEWID
 40
1.0
  9
$TEXTSTYLE
  7
Standard
  9
$CLAYER
  8
0
  9
$CELTYPE
  6
ByLayer
  9
$CECOLOR
 62
   256
  9
$CELTSCALE
 40
1.0
  9
$DISPSILH
 70
     0
  9
$DIMSCALE
 40
1.0
  9
$DIMASZ
 40
2.5
  9
$DIMEXO
 40
0.0
  9
$DIMDLI
 40
3.75
  9
$DIMRND
 40
0.0
  9
$DIMDLE
 40
0.0
  9
$DIMEXE
 40
1.0
  9
$DIMTP
 40
0.0
  9
$DIMTM
 40
0.0
  9
$DIMTXT
 40
3.5
  9
$DIMCEN
 40
2.5
  9
$DIMTSZ
 40
0.0
  9
$DIMTOL
 70
     0
  9
$DIMLIM
 70
     0
  9
$DIMTIH
 70
     1
  9
$DIMTOH
 70
     1
  9
$DIMSE1
 70
     0
  9
$DIMSE2
 70
     0
  9
$DIMTAD
 70
     1
  9
$DIMZIN
 70
     0
  9
$DIMBLK
  1

  9
$DIMASO
 70
     1
  9
$DIMSHO
 70
     1
  9
$DIMPOST
  1

  9
$DIMAPOST
  1

  9
$DIMALT
 70
     0
  9
$DIMALTD
 70
     3
  9
$DIMALTF
 40
0.0393700787
  9
$DIMLFAC
 40
1.0
  9
$DIMTOFL
 70
     1
  9
$DIMTVP
 40
0.0
  9
$DIMTIX
 70
     0
  9
$DIMSOXD
 70
     0
  9
$DIMSAH
 70
     0
  9
$DIMBLK1
  1

  9
$DIMBLK2
  1

  9
$DIMSTYLE
  2
ISO-25
  9
$DIMCLRD
 70
     0
  9
$DIMCLRE
 70
     0
  9
$DIMCLRT
 70
     0
  9
$DIMTFAC
 40
1.0
  9
$DIMGAP
 40
1.5
  9
$DIMJUST
 70
     0
  9
$DIMSD1
 70
     0
  9
$DIMSD2
 70
     0
  9
$DIMTOLJ
 70
     0
  9
$DIMTZIN
 70
     0
  9
$DIMALTZ
 70
     0
  9
$DIMALTTZ
 70
     0
  9
$DIMUPT
 70
     0
  9
$DIMDEC
 70
     2
  9
$DIMTDEC
 70
     2
  9
$DIMALTU
 70
     2
  9
$DIMALTTD
 70
     3
  9
$DIMTXSTY
  7
Standard
  9
$DIMAUNIT
 70
     0
  9
$DIMADEC
 70
     2
  9
$DIMALTRND
 40
0.0
  9
$DIMAZIN
 70
     0
  9
$DIMDSEP
 70
    44
  9
$DIMATFIT
 70
     3
  9
$DIMFRAC
 70
     0
  9
$DIMLDRBLK
  1

  9
$DIMLUNIT
 70
     2
  9
$DIMLWD
 70
    -2
  9
$DIMLWE
 70
    -2
  9
$DIMTMOVE
 70
     0
  9
$LUNITS
 70
     2
  9
$LUPREC
 70
     2
  9
$SKETCHINC
 40
1.0
  9
$FILLETRAD
 40
0.0
  9
$AUNITS
 70
     0
  9
$AUPREC
 70
     2
  9
$MENU
  1
.
  9
$ELEVATION
 40
0.0
  9
$PELEVATION
 40
0.0
  9
$THICKNESS
 40
0.0
  9
$LIMCHECK
 70
     0
  9
$CHAMFERA
 40
0.0
  9
$CHAMFERB
 40
0.0
  9
$CHAMFERC
 40
0.0
  9
$CHAMFERD
 40
0.0
  9
$SKPOLY
 70
     0
  9
$TDCREATE
 40
2460346.452914305
  9
$TDUCREATE
 40
2460346.411247639
  9
$TDUPDATE
 40
2460346.452915567
  9
$TDUUPDATE
 40
2460346.4112489
  9
$TDINDWG
 40
0.0000000116
  9
$TDUSRTIMER
 40
0.0000000116
  9
$USRTIMER
 70
     1
  9
$ANGBASE
 50
0.0
  9
$ANGDIR
 70
     0
  9
$PDMODE
 70
     0
  9
$PDSIZE
 40
-1.0
  9
$PLINEWID
 40
0.0
  9
$SPLFRAME
 70
     0
  9
$SPLINETYPE
 70
     6
  9
$SPLINESEGS
 70
     8
  9
$HANDSEED
  5
1C1
  9
$SURFTAB1
 70
     6
  9
$SURFTAB2
 70
     6
  9
$SURFTYPE
 70
     6
  9
$SURFU
 70
     6
  9
$SURFV
 70
     6
  9
$UCSBASE
  2

  9
$UCSNAME
  2

  9
$UCSORG
 10
0.0
 20
0.0
 30
0.0
  9
$UCSXDIR
 10
1.0
 20
0.0
 30
0.0
  9
$UCSYDIR
 10
0.0
 20
1.0
 30
0.0
  9
$UCSORTHOREF
  2

  9
$UCSORTHOVIEW
 70
     0
  9
$UCSORGTOP
 10
0.0
 20
0.0
 30
0.0
  9
$UCSORGBOTTOM
 10
0.0
 20
0.0
 30
0.0
  9
$UCSORGLEFT
 10
0.0
 20
0.0
 30
0.0
  9
$UCSORGRIGHT
 10
0.0
 20
0.0
 30
0.0
  9
$UCSORGFRONT
 10
0.0
 20
0.0
 30
0.0
  9
$UCSORGBACK
 10
0.0
 20
0.0
 30
0.0
  9
$PUCSBASE
  2

  9
$PUCSNAME
  2

  9
$PUCSORG
 10
0.0
 20
0.0
 30
0.0
  9
$PUCSXDIR
 10
1.0
 20
0.0
 30
0.0
  9
$PUCSYDIR
 10
0.0
 20
1.0
 30
0.0
  9
$PUCSORTHOREF
  2

  9
$PUCSORTHOVIEW
 70
     0
  9
$PUCSORGTOP
 10
0.0
 20
0.0
 30
0.0
  9
$PUCSORGBOTTOM
 10
0.0
 20
0.0
 30
0.0
  9
$PUCSORGLEFT
 10
0.0
 20
0.0
 30
0.0
  9
$PUCSORGRIGHT
 10
0.0
 20
0.0
 30
0.0
  9
$PUCSORGFRONT
 10
0.0
 20
0.0
 30
0.0
  9
$PUCSORGBACK
 10
0.0
 20
0.0
 30
0.0
  9
$USERI1
 70
     0
  9
$USERI2
 70
     0
  9
$USERI3
 70
     0
  9
$USERI4
 70
     0
  9
$USERI5
 70
     0
  9
$USERR1
 40
0.0
  9
$USERR2
 40
0.0
  9
$USERR3
 40
0.0
  9
$USERR4
 40
0.0
  9
$USERR5
 40
0.0
  9
$WORLDVIEW
 70
     1
  9
$SHADEDGE
 70
     3
  9
$SHADEDIF
 70
    70
  9
$TILEMODE
 70
     1
  9
$MAXACTVP
 70
    64
  9
$PINSBASE
 10
0.0
 20
0.0
 30
0.0
  9
$PLIMCHECK
 70
     0
  9
$PEXTMIN
 10
1.0000000000E+20
 20
1.0000000000E+20
 30
1.0000000000E+20
  9
$PEXTMAX
 10
-1.0000000000E+20
 20
-1.0000000000E+20
 30
-1.0000000000E+20
  9
$PLIMMIN
 10
0.0
 20
0.0
  9
$PLIMMAX
 10
420.0
 20
297.0
  9
$UNITMODE
 70
     0
  9
$VISRETAIN
 70
     1
  9
$PLINEGEN
 70
     0
  9
$PSLTSCALE
 70
     1
  9
$TREEDEPTH
 70
  3020
  9
$CMLSTYLE
  2
Standard
  9
$CMLJUST
 70
     0
  9
$CMLSCALE
 40
20.0
  9
$PROXYGRAPHICS
 70
     1
  9
$MEASUREMENT
 70
     1
  9
$CELWEIGHT
370
    -1
  9
$ENDCAPS
280
     0
  9
$JOINSTYLE
280
     0
  9
$LWDISPLAY
290
     1
  9
$INSUNITS
 70
     4
  9
$HYPERLINKBASE
  1

  9
$STYLESHEET
  1

  9
$XEDIT
290
     1
  9
$CEPSNTYPE
380
     0
  9
$PSTYLEMODE
290
     1
  9
$FINGERPRINTGUID
  2
{963779b2-2291-4dc5-8c18-e3b1b8a6ab03}
  9
$VERSIONGUID
  2
{FAEB1C32-E019-11D5-929B-00C0DF256EC4}
  9
$EXTNAMES
290
     1
  9
$PSVPSCALE
 40
0.0
  9
$OLESTARTUP
290
     0
  0
ENDSEC
  0
SECTION
  2
CLASSES
  0
CLASS
  1
ACDBDICTIONARYWDFLT
  2
AcDbDictionaryWithDefault
  3
ObjectDBX Classes
 90
        0
280
     0
281
     0
  0
CLASS
  1
VISUALSTYLE
  2
AcDbVisualStyle
  3
ObjectDBX Classes
 90
     4095
280
     0
281
     0
  0
CLASS
  1
MATERIAL
  2
AcDbMaterial
  3
ObjectDBX Classes
 90
     1153
280
     0
281
     0
  0
CLASS
  1
SCALE
  2
AcDbScale
  3
ObjectDBX Classes
 90
     1153
280
     0
281
     0
  0
CLASS
  1
TABLESTYLE
  2
AcDbTableStyle
  3
ObjectDBX Classes
 90
     4095
280
     0
281
     0
  0
CLASS
  1
MLEADERSTYLE
  2
AcDbMLeaderStyle
  3
ACDB_MLEADERSTYLE_CLASS
 90
     4095
280
     0
281
     0
  0
CLASS
  1
SUN
  2
AcDbSun
  3
SCENEOE
 90
     1153
280
     0
281
     0
  0
CLASS
  1
ACDBPLACEHOLDER
  2
AcDbPlaceHolder
  3
ObjectDBX Classes
 90
        0
280
     0
281
     0
  0
CLASS
  1
LAYOUT
  2
AcDbLayout
  3
ObjectDBX Classes
 90
        0
280
     0
281
     0
  0
ENDSEC
  0
SECTION
  2
TABLES
  0
TABLE
  2
VPORT
  5
8
330
0
100
AcDbSymbolTable
 70
     1
  0
VPORT
  5
29
330
8
100
AcDbSymbolTableRecord
100
AcDbViewportTableRecord
  2
*Active
 70
     0
 10
0.0
 20
0.0
 11
1.0
 21
1.0
 12
297.0
 22
420.5
 13
0.0
 23
0.0
 14
10.0
 24
10.0
 15
10.0
 25
10.0
 16
0.0
 26
0.0
 36
1.0
 17
0.0
 27
0.0
 37
0.0
 40
841.0
 41
0.7063020214
 42
50.0
 43
0.0
 44
0.0
 50
0.0
 51
0.0
 71
     0
 72
  2000
 73
     1
 74
     3
 75
     0
 76
     0
 77
     0
 78
     0
281
     0
 65
     1
110
0.0
120
0.0
130
0.0
111
1.0
121
0.0
131
0.0
112
0.0
122
1.0
132
0.0
 79
     0
146
0.0
  0
ENDTAB
  0
TABLE
  2
LTYPE
  5
5
330
0
100
AcDbSymbolTable
 70
     6
  0
LTYPE
  5
14
330
5
100
AcDbSymbolTableRecord
100
AcDbLinetypeTableRecord
  2
ByBlock
 70
     0
  3

 72
    65
 73
     0
 40
0.0
  0
LTYPE
  5
15
330
5
100
AcDbSymbolTableRecord
100
AcDbLinetypeTableRecord
  2
ByLayer
 70
     0
  3

 72
    65
 73
     0
 40
0.0
  0
LTYPE
  5
16
330
5
100
AcDbSymbolTableRecord
100
AcDbLinetypeTableRecord
  2
Continuous
 70
     0
  3
Solid line
 72
    65
 73
     0
 40
0.0
  0
LTYPE
  5
5E
330
5
100
AcDbSymbolTableRecord
100
AcDbLinetypeTableRecord
  2
HIDDEN
 70
     0
  3
Hidden __ __ __ __ __ __ __ __ __ __ __ __ __ __
 72
    65
 73
     2
 40
1.905
 49
1.27
 74
     0
 49
-0.635
 74
     0
  0
LTYPE
  5
5F
330
5
100
AcDbSymbolTableRecord
100
AcDbLinetypeTableRecord
  2
PHANTOM
 70
     0
  3
Phantom ______  __  __  ______  __  __  ______
 72
    65
 73
     6
 40
12.7
 49
6.35
 74
     0
 49
-1.27
 74
     0
 49
1.27
 74
     0
 49
-1.27
 74
     0
 49
1.27
 74
     0
 49
-1.27
 74
     0
  0
LTYPE
  5
60
330
5
100
AcDbSymbolTableRecord
100
AcDbLinetypeTableRecord
  2
CENTER
 70
     0
  3
Center ____ _ ____ _ ____ _ ____ _ ____ _ ____
 72
    65
 73
     4
 40
10.16
 49
6.35
 74
     0
 49
-1.27
 74
     0
 49
1.27
 74
     0
 49
-1.27
 74
     0
  0
LTYPE
  5
61
330
5
100
AcDbSymbolTableRecord
100
AcDbLinetypeTableRecord
  2
CENTERX2
 70
     0
  3
Center (2x) ________  __  ________  __  _____
 72
    65
 73
     4
 40
20.32
 49
12.7
 74
     0
 49
-2.54
 74
     0
 49
2.54
 74
     0
 49
-2.54
 74
     0
  0
LTYPE
  5
62
330
5
100
AcDbSymbolTableRecord
100
AcDbLinetypeTableRecord
  2
DOT2
 70
     0
  3
Dot (.5x) ........................................
 72
    65
 73
     2
 40
0.635
 49
0.0
 74
     0
 49
-0.635
 74
     0
  0
ENDTAB
  0
TABLE
  2
LAYER
  5
2
330
0
100
AcDbSymbolTable
 70
     1
  0
LAYER
  5
10
330
2
100
AcDbSymbolTableRecord
100
AcDbLayerTableRecord
  2
0
 70
     0
 62
     7
  6
Continuous
370
    -3
390
F
  0
ENDTAB
  0
TABLE
  2
STYLE
  5
3
330
0
100
AcDbSymbolTable
 70
     3
  0
STYLE
  5
11
330
3
100
AcDbSymbolTableRecord
100
AcDbTextStyleTableRecord
  2
Standard
 70
     0
 40
0.0
 41
1.0
 50
0.0
 71
     0
 42
10.0
  3
txt
  4

  0
STYLE
  5
66
330
3
100
AcDbSymbolTableRecord
100
AcDbTextStyleTableRecord
  2
SLDTEXTSTYLE0
 70
     0
 40
0.0
 41
0.96
 50
0.0
 71
     0
 42
10.0
  3
ISOCP3
  4

  0
STYLE
  5
7D
330
3
100
AcDbSymbolTableRecord
100
AcDbTextStyleTableRecord
  2
SLDTEXTSTYLE1
 70
     0
 40
0.0
 41
0.605
 50
0.0
 71
     0
 42
10.0
  3
TXT
  4

  0
ENDTAB
  0
TABLE
  2
VIEW
  5
6
330
0
100
AcDbSymbolTable
 70
     0
  0
ENDTAB
  0
TABLE
  2
UCS
  5
7
330
0
100
AcDbSymbolTable
 70
     0
  0
ENDTAB
  0
TABLE
  2
APPID
  5
9
330
0
100
AcDbSymbolTable
 70
     1
  0
APPID
  5
12
330
9
100
AcDbSymbolTableRecord
100
AcDbRegAppTableRecord
  2
ACAD
 70
     0
  0
ENDTAB
  0
TABLE
  2
DIMSTYLE
  5
A
330
0
100
AcDbSymbolTable
 70
     2
100
AcDbDimStyleTable
  0
DIMSTYLE
105
27
330
A
100
AcDbSymbolTableRecord
100
AcDbDimStyleTableRecord
  2
ISO-25
 70
     0
 41
2.5
 42
0.625
 43
3.75
 44
1.25
 73
     0
 74
     0
 77
     1
 78
     8
140
2.5
141
2.5
143
0.0393700787
147
0.625
171
     3
172
     1
178
     0
271
     2
272
     2
274
     3
278
    44
283
     0
284
     8
340
11
  0
DIMSTYLE
105
67
102
{ACAD_REACTORS
330
65
330
72
102
}
330
A
100
AcDbSymbolTableRecord
100
AcDbDimStyleTableRecord
  2
SLDDIMSTYLE0
 70
     0
 41
2.5
 44
0.0
 45
0.000000001
 73
     0
 74
     0
 77
     1
 78
    12
 79
     3
140
6.0
147
1.5
173
     1
178
     0
271
     2
272
     2
276
     2
284
    12
340
66
  0
ENDTAB
  0
TABLE
  2
BLOCK_RECORD
  5
1
330
0
100
AcDbSymbolTable
 70
     3
  0
BLOCK_RECORD
  5
1F
330
1
100
AcDbSymbolTableRecord
100
AcDbBlockTableRecord
  2
*Model_Space
340
22
  0
BLOCK_RECORD
  5
1B
330
1
100
AcDbSymbolTableRecord
100
AcDbBlockTableRecord
  2
*Paper_Space
340
1E
  0
BLOCK_RECORD
  5
23
330
1
100
AcDbSymbolTableRecord
100
AcDbBlockTableRecord
  2
*Paper_Space0
340
26
  0
BLOCK_RECORD
  5
68
330
1
100
AcDbSymbolTableRecord
100
AcDbBlockTableRecord
  2
_D
340
0
  0
BLOCK_RECORD
  5
73
330
1
100
AcDbSymbolTableRecord
100
AcDbBlockTableRecord
  2
_D_1
340
0
  0
ENDTAB
  0
ENDSEC
  0
SECTION
  2
BLOCKS
  0
BLOCK
  5
20
330
1F
100
AcDbEntity
  8
0
100
AcDbBlockBegin
  2
*Model_Space
 70
     0
 10
0.0
 20
0.0
 30
0.0
  3
*Model_Space
  1

  0
ENDBLK
  5
21
330
1F
100
AcDbEntity
  8
0
100
AcDbBlockEnd
  0
BLOCK
  5
1C
330
1B
100
AcDbEntity
 67
     1
  8
0
100
AcDbBlockBegin
  2
*Paper_Space
 70
     0
 10
0.0
 20
0.0
 30
0.0
  3
*Paper_Space
  1

  0
ENDBLK
  5
1D
330
1B
100
AcDbEntity
 67
     1
  8
0
100
AcDbBlockEnd
  0
BLOCK
  5
24
330
23
100
AcDbEntity
  8
0
100
AcDbBlockBegin
  2
*Paper_Space0
 70
     0
 10
0.0
 20
0.0
 30
0.0
  3
*Paper_Space0
  1

  0
ENDBLK
  5
25
330
23
100
AcDbEntity
  8
0
100
AcDbBlockEnd
  0
BLOCK
  5
69
330
68
100
AcDbEntity
  8
0
100
AcDbBlockBegin
  2
_D
 70
     0
 10
0.0
 20
0.0
 30
0.0
  3
_D
  1

  0
SOLID
  5
6B
330
68
100
AcDbEntity
  8
0
  6
Continuous
 62
     7
370
    18
100
AcDbTrace
 10
42.7614395004
 20
152.0299240879
 30
0.0
 11
42.4614395004
 21
149.5299240879
 31
0.0
 12
43.0614395004
 22
149.5299240879
 32
0.0
 13
43.0614395004
 23
149.5299240879
 33
0.0
  0
SOLID
  5
6C
330
68
100
AcDbEntity
  8
0
  6
Continuous
 62
     7
370
    18
100
AcDbTrace
 10
42.7614395004
 20
52.0299240879
 30
0.0
 11
43.0614395004
 21
54.5299240879
 31
0.0
 12
42.4614395004
 22
54.5299240879
 32
0.0
 13
42.4614395004
 23
54.5299240879
 33
0.0
  0
LINE
  5
6D
330
68
100
AcDbEntity
  8
0
  6
Continuous
 62
     7
370
     0
100
AcDbLine
 10
56.6850079902
 20
152.0299240879
 30
0.0
 11
41.7614395004
 21
152.0299240879
 31
0.0
  0
LINE
  5
6E
330
68
100
AcDbEntity
  8
0
  6
Continuous
 62
     7
370
     0
100
AcDbLine
 10
56.6850079902
 20
52.0299240879
 30
0.0
 11
41.7614395004
 21
52.0299240879
 31
0.0
  0
LINE
  5
6F
330
68
100
AcDbEntity
  8
0
  6
Continuous
 62
     7
370
     0
100
AcDbLine
 10
42.7614395004
 20
152.0299240879
 30
0.0
 11
42.7614395004
 21
52.0299240879
 31
0.0
  0
MTEXT
  5
70
330
68
100
AcDbEntity
  8
0
  6
Continuous
 62
     7
370
    18
100
AcDbMText
 10
35.0270332946
 20
94.3680541463
 30
0.0
 40
6.0
 41
0.0
 71
     1
 72
     1
  1
100
  7
SLDTEXTSTYLE0
 11
-7.044195017643634E-15
 21
1.0
 31
0.0
 73
     1
 44
1.0
  0
MTEXT
  5
71
330
68
100
AcDbEntity
  8
0
  6
Continuous
 62
     7
370
    18
100
AcDbMText
 10
35.0270332946
 20
105.7430548466
 30
0.0
 40
6.0
 41
0.0
 71
     1
 72
     1
  1
mm
  7
SLDTEXTSTYLE0
 11
-7.044195017643634E-15
 21
1.0
 31
0.0
 73
     1
 44
1.0
  0
ENDBLK
  5
6A
330
68
100
AcDbEntity
  8
0
100
AcDbBlockEnd
  0
BLOCK
  5
74
330
73
100
AcDbEntity
  8
0
100
AcDbBlockBegin
  2
_D_1
 70
     0
 10
0.0
 20
0.0
 30
0.0
  3
_D_1
  1

  0
SOLID
  5
76
330
73
100
AcDbEntity
  8
0
  6
Continuous
 62
     7
370
    18
100
AcDbTrace
 10
56.6850079902
 20
38.4602342313
 30
0.0
 11
59.1850079902
 21
38.1602342313
 31
0.0
 12
59.1850079902
 22
38.7602342313
 32
0.0
 13
59.1850079902
 23
38.7602342313
 33
0.0
  0
SOLID
  5
77
330
73
100
AcDbEntity
  8
0
  6
Continuous
 62
     7
370
    18
100
AcDbTrace
 10
156.6850079902
 20
38.4602342313
 30
0.0
 11
154.1850079902
 21
38.7602342313
 31
0.0
 12
154.1850079902
 22
38.1602342313
 32
0.0
 13
154.1850079902
 23
38.1602342313
 33
0.0
  0
LINE
  5
78
330
73
100
AcDbEntity
  8
0
  6
Continuous
 62
     7
370
     0
100
AcDbLine
 10
56.6850079902
 20
52.0299240879
 30
0.0
 11
56.6850079902
 21
37.4602342313
 31
0.0
  0
LINE
  5
79
330
73
100
AcDbEntity
  8
0
  6
Continuous
 62
     7
370
     0
100
AcDbLine
 10
156.6850079902
 20
52.0299240879
 30
0.0
 11
156.6850079902
 21
37.4602342313
 31
0.0
  0
LINE
  5
7A
330
73
100
AcDbEntity
  8
0
  6
Continuous
 62
     7
370
     0
100
AcDbLine
 10
56.6850079902
 20
38.4602342313
 30
0.0
 11
156.6850079902
 21
38.4602342313
 31
0.0
  0
MTEXT
  5
7B
330
73
100
AcDbEntity
  8
0
  6
Continuous
 62
     7
370
    18
100
AcDbMText
 10
93.9626484861
 20
46.1946404371
 30
0.0
 40
6.0
 41
0.0
 71
     1
 72
     1
  1
100
  7
SLDTEXTSTYLE0
 73
     1
 44
1.0
  0
MTEXT
  5
7C
330
73
100
AcDbEntity
  8
0
  6
Continuous
 62
     7
370
    18
100
AcDbMText
 10
105.3376491864
 20
46.1946404371
 30
0.0
 40
6.0
 41
0.0
 71
     1
 72
     1
  1
mm
  7
SLDTEXTSTYLE0
 73
     1
 44
1.0
  0
ENDBLK
  5
75
330
73
100
AcDbEntity
  8
0
100
AcDbBlockEnd
  0
ENDSEC
  0
SECTION
  2
ENTITIES
  0
LINE
  5
63
330
1F
100
AcDbEntity
  8
0
  6
Continuous
 62
     7
370
    18
100
AcDbLine
 10
56.6850079902
 20
152.0299240879
 30
0.0
 11
56.6850079902
 21
52.0299240879
 31
0.0
  0
LINE
  5
64
330
1F
100
AcDbEntity
  8
0
  6
Continuous
 62
     7
370
    18
100
AcDbLine
 10
56.6850079902
 20
52.0299240879
 30
0.0
 11
156.6850079902
 21
52.0299240879
 31
0.0
  0
DIMENSION
  5
65
330
1F
100
AcDbEntity
  8
0
  6
Continuous
 62
     7
370
    18
100
AcDbDimension
  2
_D
 10
42.7614395004
 20
52.0299240879
 30
0.0
 11
42.7614395004
 21
105.4472211621
 31
0.0
 70
   160
  1
<>mm
 71
     2
 42
-1.0
  3
SLDDIMSTYLE0
100
AcDbAlignedDimension
 13
56.6850079902
 23
152.0299240879
 33
0.0
 14
56.6850079902
 24
52.0299240879
 34
0.0
 50
90.0
100
AcDbRotatedDimension
  0
DIMENSION
  5
72
330
1F
100
AcDbEntity
  8
0
  6
Continuous
 62
     7
370
    18
100
AcDbDimension
  2
_D_1
 10
156.6850079902
 20
38.4602342313
 30
0.0
 11
105.0418155019
 21
38.4602342313
 31
0.0
 70
   160
  1
<>mm
 71
     2
 42
-1.0
  3
SLDDIMSTYLE0
100
AcDbAlignedDimension
 13
56.6850079902
 23
52.0299240879
 33
0.0
 14
156.6850079902
 24
52.0299240879
 34
0.0
100
AcDbRotatedDimension
  0
MTEXT
  5
7E
330
1F
100
AcDbEntity
  8
0
  6
Continuous
 62
     7
370
     0
100
AcDbMText
 10
412.8252631579
 20
48.4342449499
 30
0.0
 40
10.0
 41
0.0
 71
     1
 72
     1
  1
KLUDI GmbH & Co KG
  7
SLDTEXTSTYLE1
 73
     1
 44
1.0
  0
MTEXT
  5
7F
330
1F
100
AcDbEntity
  8
0
  6
Continuous
 62
     7
370
     0
100
AcDbMText
 10
210.0873490389
 20
48.4342449499
 30
0.0
 40
10.0
 41
0.0
 71
     1
 72
     1
  1
54 282 .. 75
  7
SLDTEXTSTYLE1
 73
     1
 44
1.0
  0
SPLINE
  5
80
330
1F
100
AcDbEntity
  8
0
  6
Continuous
 62
     7
370
    25
100
AcDbSpline
210
0.0
220
0.0
230
1.0
 70
     8
 71
     3
 72
    15
 73
    11
 74
     0
 42
0.00000001
 43
0.00000001
 40
0.0
 40
0.0
 40
0.0
 40
0.0
 40
0.2026871534861274
 40
0.4384598836071621
 40
0.5756315425414077
 40
0.68738903920048
 40
0.7387771129231797
 40
0.790517587920364
 40
0.9033947369841889
 40
1.0
 40
1.0
 40
1.0
 40
1.0
 10
154.8085618645189
 20
503.9804971140431
 30
0.0
 10
154.7873589582038
 20
503.9007033685998
 30
0.0
 10
154.741492095528
 20
503.7280907696368
 30
0.0
 10
154.7457667132773
 20
503.2845731320012
 30
0.0
 10
154.7863501829485
 20
502.6904962324752
 30
0.0
 10
154.8289959041567
 20
502.1281447856148
 30
0.0
 10
154.8659425914591
 20
501.6293876868409
 30
0.0
 10
154.9048122482048
 20
501.0890733607662
 30
0.0
 10
154.9476005646658
 20
500.4319984574914
 30
0.0
 10
154.9857557757215
 20
499.9178183695495
 30
0.0
 10
155.0033514973044
 20
499.6806982116327
 30
0.0
  0
SPLINE
  5
81
330
1F
100
AcDbEntity
  8
0
  6
Continuous
 62
     7
370
    25
100
AcDbSpline
210
0.0
220
0.0
230
1.0
 70
     8
 71
     3
 72
    15
 73
    11
 74
     0
 42
0.00000001
 43
0.00000001
 40
0.0
 40
0.0
 40
0.0
 40
0.0
 40
0.2176752308650061
 40
0.4207784584200377
 40
0.5430865124949585
 40
0.6428585736923446
 40
0.6886135641529577
 40
0.7409698616498371
 40
0.8835223736916238
 40
1.0
 40
1.0
 40
1.0
 40
1.0
 10
189.0051407236169
 20
499.6923575303817
 30
0.0
 10
189.0363128975584
 20
500.1677417981989
 30
0.0
 10
189.096570462209
 20
501.0866863128061
 30
0.0
 10
189.1862047485784
 20
502.3062585215325
 30
0.0
 10
189.2728493621293
 20
503.2632119070499
 30
0.0
 10
189.3372819643014
 20
503.8651470990123
 30
0.0
 10
189.3830668973443
 20
504.2457667847483
 30
0.0
 10
189.4193488495733
 20
504.5329093612726
 30
0.0
 10
189.4373205438705
 20
504.6729379324574
 30
0.0
 10
189.4263495835786
 20
504.6603609115022
 30
0.0
 10
189.4214162911778
 20
504.65470542463
 30
0.0
  0
SPLINE
  5
82
330
1F
100
AcDbEntity
  8
0
  6
Continuous
 62
     7
370
    25
100
AcDbSpline
210
0.0
220
0.0
230
1.0
 70
     8
 71
     3
 72
    13
 73
     9
 74
     0
 42
0.00000001
 43
0.00000001
 40
0.0
 40
0.0
 40
0.0
 40
0.0
 40
0.1561627598226375
 40
0.3073316193716228
 40
0.4495204948354561
 40
0.5812763538310904
 40
0.8274369258231528
 40
1.0
 40
1.0
 40
1.0
 40
1.0
 10
155.0471287701333
 20
524.5378298593237
 30
0.0
 10
154.9643883926724
 20
524.5332072308413
 30
0.0
 10
154.8015535771161
 20
524.5241098000655
 30
0.0
 10
154.5765255832217
 20
524.4395067547691
 30
0.0
 10
154.3868990482573
 20
524.3170730991716
 30
0.0
 10
154.1952524847238
 20
524.1208620079839
 30
0.0
 10
154.0483905366135
 20
523.8579590917567
 30
0.0
 10
154.0336289473002
 20
523.63552117743
 30
0.0
 10
154.0275454474669
 20
523.5438507626804
 30
0.0
  0
SPLINE
  5
83
330
1F
100
AcDbEntity
  8
0
  6
Continuous
 62
     7
370
    25
100
AcDbSpline
210
0.0
220
0.0
230
1.0
 70
     8
 71
     3
 72
    13
 73
     9
 74
     0
 42
0.00000001
 43
0.00000001
 40
0.0
 40
0.0
 40
0.0
 40
0.0
 40
0.1726951971121587
 40
0.4188197789303591
 40
0.5505486679530773
 40
0.6926981474102718
 40
0.8438404454844126
 40
1.0
 40
1.0
 40
1.0
 40
1.0
 10
189.9734432730281
 20
523.5435500510937
 30
0.0
 10
189.9673724347382
 20
523.635227931324
 30
0.0
 10
189.9526494592703
 20
523.8575648009818
 30
0.0
 10
189.8060159776406
 20
524.1203761520771
 30
0.0
 10
189.614673660804
 20
524.3165476620397
 30
0.0
 10
189.4253302241483
 20
524.4390396443662
 30
0.0
 10
189.2005861527897
 20
524.523816000039
 30
0.0
 10
189.0378902022916
 20
524.533120630154
 30
0.0
 10
188.9552140747735
 20
524.5378489026373
 30
0.0
  0
LINE
  5
84
330
1F
100
AcDbEntity
  8
0
  6
Continuous
 62
     7
370
    25
100
AcDbLine
 10
188.9718487612
 20
524.5399415751
 30
0.0
 11
172.0004693217
 21
524.5399415786
 31
0.0
  0
LINE
  5
85
330
1F
100
AcDbEntity
  8
0
  6
Continuous
 62
     7
370
    25
100
AcDbLine
 10
172.0004693216
 20
524.5399415786
 30
0.0
 11
155.029089882
 21
524.5399415751
 31
0.0
  0
SPLINE
  5
86
330
1F
100
AcDbEntity
  8
0
  6
Continuous
 62
     7
370
    25
100
AcDbSpline
210
0.0
220
0.0
230
1.0
 70
     8
 71
     3
 72
    11
 73
     7
 74
     0
 42
0.00000001
 43
0.00000001
 40
0.0
 40
0.0
 40
0.0
 40
0.0
 40
0.2354114695216875
 40
0.4847121331463256
 40
0.7421296700125599
 40
1.0
 40
1.0
 40
1.0
 40
1.0
 10
154.1900298494086
 20
379.7692795746216
 30
0.0
 10
154.1215148720309
 20
379.3059611742823
 30
0.0
 10
153.98044255765
 20
378.351988750548
 30
0.0
 10
153.2748415957276
 20
376.9792978195285
 30
0.0
 10
152.2090337838904
 20
375.8005682813499
 30
0.0
 10
151.2958680180338
 20
375.3465666516844
 30
0.0
 10
150.8388839271556
 20
375.1193663669746
 30
0.0
  0
LINE
  5
87
330
1F
100
AcDbEntity
  8
0
  6
Continuous
 62
     7
370
    25
100
AcDbLine
 10
154.190029938
 20
390.7692795746
 30
0.0
 11
154.190029938
 21
379.7692796495
 31
0.0
  0
ARC
  5
88
330
1F
100
AcDbEntity
  8
0
  6
Continuous
 62
     7
370
    25
100
AcDbCircle
 10
179.2177537155
 20
495.8376204524
 30
0.0
 40
22.8168918918919
100
AcDbArc
 50
170.2327118159
 51
180.0
  0
ARC
  5
89
330
1F
100
AcDbEntity
  8
0
  6
Continuous
 62
     7
370
    25
100
AcDbCircle
 10
164.7839699317
 20
495.8376204524
 30
0.0
 40
22.81689189189191
100
AcDbArc
 50
0.0
 51
9.4599617976
  0
LINE
  5
8A
330
1F
100
AcDbEntity
  8
0
  6
Continuous
 62
     7
370
    25
100
AcDbLine
 10
190.0009084296
 20
494.8376214759
 30
0.0
 11
190.0009084447
 21
484.8376200594
 31
0.0
  0
SPLINE
  5
8B
330
1F
100
AcDbEntity
  8
0
  6
Continuous
 62
     7
370
    25
100
AcDbSpline
210
0.0
220
0.0
230
1.0
 70
     8
 71
     3
 72
    14
 73
    10
 74
     0
 42
0.00000001
 43
0.00000001
 40
0.0
 40
0.0
 40
0.0
 40
0.0
 40
0.25
 40
0.25
 40
0.5
 40
0.5
 40
0.75
 40
0.75
 40
1.0
 40
1.0
 40
1.0
 40
1.0
 10
189.0009084293075
 20
495.8376214743768
 30
0.0
 10
189.1187595594751
 20
495.8376214743781
 30
0.0
 10
189.2459061883938
 20
495.8161427355991
 30
0.0
 10
189.4921000890266
 20
495.7186768155297
 30
0.0
 10
189.6103841372594
 20
495.642359328862
 30
0.0
 10
189.8056462830739
 20
495.447097183343
 30
0.0
 10
189.8819637699001
 20
495.3288131352463
 30
0.0
 10
189.9794296902688
 20
495.082619234834
 30
0.0
 10
190.0009084291883
 20
494.9554726059998
 30
0.0
 10
190.0009084293075
 20
494.8376214758902
 30
0.0
  0
LINE
  5
8C
330
1F
100
AcDbEntity
  8
0
  6
Continuous
 62
     7
370
    25
100
AcDbLine
 10
155.0009062431
 20
495.8376214744
 30
0.0
 11
189.0009084295
 21
495.8376214744
 31
0.0
  0
SPLINE
  5
8D
330
1F
100
AcDbEntity
  8
0
  6
Continuous
 62
     7
370
    25
100
AcDbSpline
210
0.0
220
0.0
230
1.0
 70
     8
 71
     3
 72
    14
 73
    10
 74
     0
 42
0.00000001
 43
0.00000001
 40
0.0
 40
0.0
 40
0.0
 40
0.0
 40
0.25
 40
0.25
 40
0.5
 40
0.5
 40
0.75
 40
0.75
 40
1.0
 40
1.0
 40
1.0
 40
1.0
 10
154.0009062430278
 20
494.8376214728635
 30
0.0
 10
154.0009062428553
 20
494.955472603152
 30
0.0
 10
154.0223849815149
 20
495.0826192322805
 30
0.0
 10
154.119850901575
 20
495.3288131334068
 30
0.0
 10
154.1961683883579
 20
495.4470971819171
 30
0.0
 10
154.3914305342945
 20
495.6423593281492
 30
0.0
 10
154.5097145826867
 20
495.7186768151086
 30
0.0
 10
154.7559084836567
 20
495.8161427355324
 30
0.0
 10
154.8830551127463
 20
495.8376214743782
 30
0.0
 10
155.0009062430277
 20
495.8376214743769
 30
0.0
  0
LINE
  5
8E
330
1F
100
AcDbEntity
  8
0
  6
Continuous
 62
     7
370
    25
100
AcDbLine
 10
154.0009062584
 20
484.8376200594
 30
0.0
 11
154.0009062433
 21
494.8376214729
 31
0.0
  0
SPLINE
  5
8F
330
1F
100
AcDbEntity
  8
0
  6
Continuous
 62
     7
370
    25
100
AcDbSpline
210
0.0
220
0.0
230
1.0
 70
     8
 71
     3
 72
    22
 73
    18
 74
     0
 42
0.00000001
 43
0.00000001
 40
0.0
 40
0.0
 40
0.0
 40
0.0
 40
1.642405407302315
 40
1.642405407302315
 40
3.284810814604629
 40
3.284810814604629
 40
4.927216221906944
 40
4.927216221906944
 40
5.748418925558101
 40
5.748418925558101
 40
6.569621629209259
 40
6.569621629209259
 40
8.212027036511573
 40
8.212027036511573
 40
9.854432443813888
 40
9.854432443813888
 40
12.84707673440169
 40
12.84707673440169
 40
12.84707673440169
 40
12.84707673440169
 10
190.0009115268865
 20
484.8376198481863
 30
0.0
 10
190.0006417506763
 20
484.3920086945444
 30
0.0
 10
189.9879609872974
 20
483.9458159853973
 30
0.0
 10
189.9083316922578
 20
483.0580970053714
 30
0.0
 10
189.842644396277
 20
482.6147275488918
 30
0.0
 10
189.5940073184127
 20
481.7595368603363
 30
0.0
 10
189.4033646467529
 20
481.3448423191441
 30
0.0
 10
188.9613505397378
 20
480.8402981775873
 30
0.0
 10
188.7910920852251
 20
480.6941192819075
 30
0.0
 10
188.4170872560157
 20
480.4509047500476
 30
0.0
 10
188.2153592254424
 20
480.3535183373759
 30
0.0
 10
187.5885015740445
 20
480.1189741216369
 30
0.0
 10
187.1478088852407
 20
480.0336892457564
 30
0.0
 10
186.2643300597942
 20
479.9184831583269
 30
0.0
 10
185.8187591489792
 20
479.88945083585
 30
0.0
 10
184.5617717871201
 20
479.838599340268
 30
0.0
 10
183.7494580586479
 20
479.8382892859198
 30
0.0
 10
182.9372067350089
 20
479.8380460451988
 30
0.0
  0
SPLINE
  5
90
330
1F
100
AcDbEntity
  8
0
  6
Continuous
 62
     7
370
    25
100
AcDbSpline
210
0.0
220
0.0
230
1.0
 70
     8
 71
     3
 72
    22
 73
    18
 74
     0
 42
0.00000001
 43
0.00000001
 40
39.71234552961985
 40
39.71234552961985
 40
39.71234552961985
 40
39.71234552961985
 40
42.70254058986018
 40
42.70254058986018
 40
44.3449459971625
 40
44.3449459971625
 40
45.98735140446481
 40
45.98735140446481
 40
46.80855410811597
 40
46.80855410811597
 40
47.62975681176712
 40
47.62975681176712
 40
49.27216221906944
 40
49.27216221906944
 40
50.91456762637176
 40
50.91456762637176
 40
52.55697303367407
 40
52.55697303367407
 40
52.55697303367407
 40
52.55697303367407
 10
161.0626922594591
 20
479.8380460451987
 30
0.0
 10
160.2511545684647
 20
479.8382890958133
 30
0.0
 10
159.4391866233028
 20
479.8386283427814
 30
0.0
 10
158.1830912288666
 20
479.8894516238514
 30
0.0
 10
157.7376028732786
 20
479.9184748343695
 30
0.0
 10
156.8540423261388
 20
480.0336753138553
 30
0.0
 10
156.4131985078953
 20
480.1190119818065
 30
0.0
 10
155.7865225179508
 20
480.3534924487912
 30
0.0
 10
155.584701419847
 20
480.4509269261037
 30
0.0
 10
155.2108220062608
 20
480.694045557146
 30
0.0
 10
155.0404121498966
 20
480.8403534821272
 30
0.0
 10
154.5985232103072
 20
481.3447593574974
 30
0.0
 10
154.4078234197027
 20
481.7595092971463
 30
0.0
 10
154.1591990748807
 20
482.6146127649702
 30
0.0
 10
154.0934750643014
 20
483.0582073870909
 30
0.0
 10
154.0138705000668
 20
483.9457248775583
 30
0.0
 10
154.0011784364858
 20
484.3920087732412
 30
0.0
 10
154.0009115268865
 20
484.8376198481865
 30
0.0
  0
LINE
  5
91
330
1F
100
AcDbEntity
  8
0
  6
Continuous
 62
     7
370
    25
100
AcDbLine
 10
182.9372067351
 20
479.8380460452
 30
0.0
 11
161.0626922595
 21
479.8380460452
 31
0.0
  0
SPLINE
  5
92
330
1F
100
AcDbEntity
  8
0
  6
Continuous
 62
     7
370
    25
100
AcDbSpline
210
0.0
220
0.0
230
1.0
 70
    24
 71
     3
 72
    10
 73
     6
 74
     0
 42
0.00000001
 43
0.00000001
 40
0.0
 40
0.0
 40
0.0
 40
0.0
 40
0.5
 40
0.5
 40
1.0
 40
1.0
 40
1.0
 40
1.0
 10
179.484766240563
 20
479.8380460451987
 30
0.0
 10
179.8039762753896
 20
479.8380460451987
 30
0.0
 10
180.0493724573768
 20
479.8380460451987
 30
0.0
 10
180.3782156018029
 20
479.8380460451988
 30
0.0
 10
180.4616436190577
 20
479.8380460451988
 30
0.0
 10
180.4616436190562
 20
479.8380460451987
 30
0.0
  0
SPLINE
  5
93
330
1F
100
AcDbEntity
  8
0
  6
Continuous
 62
     7
370
    25
100
AcDbSpline
210
0.0
220
0.0
230
1.0
 70
     8
 71
     3
 72
     9
 73
     5
 74
     0
 42
0.00000001
 43
0.00000001
 40
0.0
 40
0.0
 40
0.0
 40
0.0
 40
0.2232286676084823
 40
1.0
 40
1.0
 40
1.0
 40
1.0
 10
154.7924091812803
 20
503.9779815605521
 30
0.0
 10
154.7842072540278
 20
504.083642097472
 30
0.0
 10
154.7474649872732
 20
504.5569708058852
 30
0.0
 10
154.5910290158716
 20
505.0142540195865
 30
0.0
 10
154.469514037932
 20
505.3694585107738
 30
0.0
  0
LINE
  5
94
330
1F
100
AcDbEntity
  8
0
  6
Continuous
 62
     7
370
    25
100
AcDbLine
 10
154.0004983363
 20
506.3496663569
 30
0.0
 11
154.0004983363
 21
521.503233139
 31
0.0
  0
SPLINE
  5
95
330
1F
100
AcDbEntity
  8
0
  6
Continuous
 62
     7
370
    25
100
AcDbSpline
210
0.0
220
0.0
230
1.0
 70
     8
 71
     3
 72
    14
 73
    10
 74
     0
 42
0.00000001
 43
0.00000001
 40
0.0
 40
0.0
 40
0.0
 40
0.0
 40
0.25
 40
0.25
 40
0.5
 40
0.5
 40
0.75
 40
0.75
 40
1.0
 40
1.0
 40
1.0
 40
1.0
 10
154.0004983526795
 20
521.5032331321027
 30
0.0
 10
154.0004742920038
 20
521.5273867473766
 30
0.0
 10
154.0272285482727
 20
521.5515325211783
 30
0.0
 10
154.130260129373
 20
521.5965084445007
 30
0.0
 10
154.2064968953366
 20
521.6173226664479
 30
0.0
 10
154.3969186563922
 20
521.6528059659969
 30
0.0
 10
154.5110286910601
 20
521.6674628528411
 30
0.0
 10
154.7598434404146
 20
521.6887377371459
 30
0.0
 10
154.8944502080018
 20
521.6953491370583
 30
0.0
 10
155.0291094747671
 20
521.6976062958553
 30
0.0
  0
LINE
  5
96
330
1F
100
AcDbEntity
  8
0
  6
Continuous
 62
     7
370
    25
100
AcDbLine
 10
155.0291094747
 20
521.6976062959
 30
0.0
 11
188.9717363381
 21
521.6977718359
 31
0.0
  0
SPLINE
  5
97
330
1F
100
AcDbEntity
  8
0
  6
Continuous
 62
     7
370
    25
100
AcDbSpline
210
0.0
220
0.0
230
1.0
 70
     8
 71
     3
 72
    14
 73
    10
 74
     0
 42
0.00000001
 43
0.00000001
 40
0.0
 40
0.0
 40
0.0
 40
0.0
 40
0.25
 40
0.25
 40
0.5
 40
0.5
 40
0.75
 40
0.75
 40
1.0
 40
1.0
 40
1.0
 40
1.0
 10
188.9717363361304
 20
521.6977718346873
 30
0.0
 10
189.1064009997732
 20
521.6954782825849
 30
0.0
 10
189.241015570676
 20
521.6888301352423
 30
0.0
 10
189.489847972839
 20
521.667480854684
 30
0.0
 10
189.6039678344023
 20
521.6527863191475
 30
0.0
 10
189.7944084205602
 20
521.6172268588713
 30
0.0
 10
189.8706541653437
 20
521.5963741266089
 30
0.0
 10
189.9737005822284
 20
521.5513205631904
 30
0.0
 10
190.0004606831413
 20
521.5271356625071
 30
0.0
 10
190.0004402952191
 20
521.5029427998967
 30
0.0
  0
SPLINE
  5
98
330
1F
100
AcDbEntity
  8
0
  6
Continuous
 62
     7
370
    25
100
AcDbSpline
210
0.0
220
0.0
230
1.0
 70
    24
 71
     3
 72
    17
 73
    13
 74
     0
 42
0.00000001
 43
0.00000001
 40
0.0
 40
0.0
 40
0.0
 40
0.0
 40
0.0125608246447144
 40
0.0445525619353226
 40
0.0959752278017524
 40
0.1668288250680362
 40
0.2571133547348524
 40
0.3668288172712101
 40
0.4959752129344206
 40
0.6445525418808433
 40
0.8125608042125856
 40
1.0
 40
1.0
 40
1.0
 40
1.0
 10
190.0004403069738
 20
521.502942795226
 30
0.0
 10
190.0004403069738
 20
521.4386444337487
 30
0.0
 10
190.0004403069738
 20
521.2105816422454
 30
0.0
 10
190.0004403069738
 20
520.7256795307057
 30
0.0
 10
190.0004403069738
 20
519.944678755152
 30
0.0
 10
190.0004403069738
 20
518.8707219608643
 30
0.0
 10
190.0004403069739
 20
517.5024100015202
 30
0.0
 10
190.0004403069739
 20
515.8403414287467
 30
0.0
 10
190.0004403069739
 20
513.8843062478285
 30
0.0
 10
190.000440306974
 20
511.6343879284964
 30
0.0
 10
190.000440306974
 20
509.090546153509
 30
0.0
 10
190.0004403069741
 20
507.2968157907067
 30
0.0
 10
190.0004403069741
 20
506.3509224695329
 30
0.0
  0
LINE
  5
99
330
1F
100
AcDbEntity
  8
0
  6
Continuous
 62
     7
370
    25
100
AcDbLine
 10
188.9877022009
 20
499.6344544262
 30
0.0
 11
189.0005360693
 21
499.6926750594
 31
0.0
  0
SPLINE
  5
9A
330
1F
100
AcDbEntity
  8
0
  6
Continuous
 62
     7
370
    25
100
AcDbSpline
210
0.0
220
0.0
230
1.0
 70
     8
 71
     3
 72
    12
 73
     8
 74
     0
 42
0.00000001
 43
0.00000001
 40
0.0
 40
0.0
 40
0.0
 40
0.0
 40
0.249999999999999
 40
0.249999999999999
 40
0.499999999999998
 40
0.499999999999998
 40
1.0
 40
1.0
 40
1.0
 40
1.0
 10
188.6256672744669
 20
499.6105506621096
 30
0.0
 10
188.6784794309127
 20
499.612537155601
 30
0.0
 10
188.7218602799848
 20
499.6145259345275
 30
0.0
 10
188.8014309517213
 20
499.6185052349411
 30
0.0
 10
188.8368932654901
 20
499.6204959327213
 30
0.0
 10
188.9281458301539
 20
499.6264716934894
 30
0.0
 10
188.9669097751792
 20
499.6304608823654
 30
0.0
 10
188.9877021710316
 20
499.6344544261846
 30
0.0
  0
SPLINE
  5
9B
330
1F
100
AcDbEntity
  8
0
  6
Continuous
 62
     7
370
    25
100
AcDbSpline
210
0.0
220
0.0
230
1.0
 70
     8
 71
     3
 72
    14
 73
    10
 74
     0
 42
0.00000001
 43
0.00000001
 40
0.0
 40
0.0
 40
0.0
 40
0.0
 40
0.25
 40
0.25
 40
0.5
 40
0.5
 40
0.75
 40
0.75
 40
1.0
 40
1.0
 40
1.0
 40
1.0
 10
186.96756711291
 20
499.5835274533167
 30
0.0
 10
187.1917211931024
 20
499.5856949801611
 30
0.0
 10
187.3830750792431
 20
499.5878947075557
 30
0.0
 10
187.7365391941713
 20
499.5923228713778
 30
0.0
 10
187.8944520347334
 20
499.5945554284581
 30
0.0
 10
188.1709856470779
 20
499.599059116361
 30
0.0
 10
188.289780038295
 20
499.6013300767382
 30
0.0
 10
188.4866479180623
 20
499.6059119739475
 30
0.0
 10
188.5638064476455
 20
499.6082238090113
 30
0.0
 10
188.6256672744669
 20
499.6105506621096
 30
0.0
  0
SPLINE
  5
9C
330
1F
100
AcDbEntity
  8
0
  6
Continuous
 62
     7
370
    25
100
AcDbSpline
210
0.0
220
0.0
230
1.0
 70
     8
 71
     3
 72
    22
 73
    18
 74
     0
 42
0.00000001
 43
0.00000001
 40
0.0
 40
0.0
 40
0.0
 40
0.0
 40
0.125
 40
0.125
 40
0.25
 40
0.25
 40
0.375
 40
0.375
 40
0.5
 40
0.5
 40
0.625
 40
0.625
 40
0.75
 40
0.75
 40
0.875
 40
0.875
 40
1.0
 40
1.0
 40
1.0
 40
1.0
 10
179.7770239764939
 20
499.5611905633369
 30
0.0
 10
180.1745815780789
 20
499.5614108547877
 30
0.0
 10
180.5655981622976
 20
499.5617152838778
 30
0.0
 10
181.331228302792
 20
499.5625351355429
 30
0.0
 10
181.7061321671591
 20
499.5630468238612
 30
0.0
 10
182.4401941459105
 20
499.5642727393629
 30
0.0
 10
182.8017847168002
 20
499.5649931227757
 30
0.0
 10
183.4904631099775
 20
499.5666005742234
 30
0.0
 10
183.8190152571038
 20
499.5674884756928
 30
0.0
 10
184.4449759624385
 20
499.5694303346648
 30
0.0
 10
184.7423750179271
 20
499.5704843428356
 30
0.0
 10
185.3041919226562
 20
499.5727682132928
 30
0.0
 10
185.5655441986066
 20
499.5739868990641
 30
0.0
 10
186.0410671696422
 20
499.576521601553
 30
0.0
 10
186.256874757493
 20
499.5778449529345
 30
0.0
 10
186.6438894558198
 20
499.5806054228688
 30
0.0
 10
186.8142331862897
 20
499.5820447437367
 30
0.0
 10
186.96756711291
 20
499.5835274533167
 30
0.0
  0
SPLINE
  5
9D
330
1F
100
AcDbEntity
  8
0
  6
Continuous
 62
     7
370
    25
100
AcDbSpline
210
0.0
220
0.0
230
1.0
 70
     8
 71
     3
 72
    14
 73
    10
 74
     0
 42
0.00000001
 43
0.00000001
 40
0.0
 40
0.0
 40
0.0
 40
0.0
 40
0.5000000000000027
 40
0.5000000000000027
 40
0.7500000000000013
 40
0.7500000000000013
 40
0.8750000000000007
 40
0.8750000000000007
 40
1.0
 40
1.0
 40
1.0
 40
1.0
 10
172.000868037382
 20
499.559168959954
 30
0.0
 10
173.3023844810183
 20
499.5591679922267
 30
0.0
 10
174.6011189321454
 20
499.5593382379956
 30
0.0
 10
176.5451562379923
 20
499.5598437421685
 30
0.0
 10
177.1924704348493
 20
499.5600552155811
 30
0.0
 10
178.1624328736022
 20
499.5604345142403
 30
0.0
 10
178.4856279280103
 20
499.5605686867427
 30
0.0
 10
179.1315391851459
 20
499.5608665019458
 30
0.0
 10
179.4545521991998
 20
499.561011877845
 30
0.0
 10
179.7770239764939
 20
499.5611905633369
 30
0.0
  0
SPLINE
  5
9E
330
1F
100
AcDbEntity
  8
0
  6
Continuous
 62
     7
370
    25
100
AcDbSpline
210
0.0
220
0.0
230
1.0
 70
     8
 71
     3
 72
    14
 73
    10
 74
     0
 42
0.00000001
 43
0.00000001
 40
0.0
 40
0.0
 40
0.0
 40
0.0
 40
0.1249999999999987
 40
0.1249999999999987
 40
0.2499999999999973
 40
0.2499999999999973
 40
0.4999999999999973
 40
0.4999999999999973
 40
1.0
 40
1.0
 40
1.0
 40
1.0
 10
164.2245015550732
 20
499.5611887260574
 30
0.0
 10
164.5469515381864
 20
499.5610081456905
 30
0.0
 10
164.8700186934706
 20
499.5608655838263
 30
0.0
 10
165.5160263421866
 20
499.5605726575849
 30
0.0
 10
165.8391254798662
 20
499.5604320658724
 30
0.0
 10
166.8091622217635
 20
499.5600558342276
 30
0.0
 10
167.4564843062354
 20
499.5598438787133
 30
0.0
 10
169.4005637518578
 20
499.5593381871964
 30
0.0
 10
170.6993580315498
 20
499.5591699276766
 30
0.0
 10
172.000868037382
 20
499.559168959954
 30
0.0
  0
SPLINE
  5
9F
330
1F
100
AcDbEntity
  8
0
  6
Continuous
 62
     7
370
    25
100
AcDbSpline
210
0.0
220
0.0
230
1.0
 70
     8
 71
     3
 72
    22
 73
    18
 74
     0
 42
0.00000001
 43
0.00000001
 40
0.0
 40
0.0
 40
0.0
 40
0.0
 40
0.125
 40
0.125
 40
0.25
 40
0.25
 40
0.375
 40
0.375
 40
0.5
 40
0.5
 40
0.625
 40
0.625
 40
0.75
 40
0.75
 40
0.875
 40
0.875
 40
1.0
 40
1.0
 40
1.0
 40
1.0
 10
157.0351609818664
 20
499.5835282975738
 30
0.0
 10
157.1880251516839
 20
499.5820449431679
 30
0.0
 10
157.3559767438503
 20
499.5805995164985
 30
0.0
 10
157.7428315786064
 20
499.577836748708
 30
0.0
 10
157.9598623569756
 20
499.5765147004656
 30
0.0
 10
158.437248599384
 20
499.573979516373
 30
0.0
 10
158.6999790272482
 20
499.5727580986762
 30
0.0
 10
159.260879661603
 20
499.5704801029626
 30
0.0
 10
159.5577411417791
 20
499.5694268451207
 30
0.0
 10
160.1831367945987
 20
499.5674858032137
 30
0.0
 10
160.5116023021447
 20
499.5665976604085
 30
0.0
 10
161.200935922876
 20
499.5649906620014
 30
0.0
 10
161.5625054348069
 20
499.5642721915008
 30
0.0
 10
162.2960185766263
 20
499.5630475191333
 30
0.0
 10
162.6706269445801
 20
499.5625349170452
 30
0.0
 10
163.4359326227388
 20
499.5617140757803
 30
0.0
 10
163.8270603246881
 20
499.5614113034708
 30
0.0
 10
164.2245015550732
 20
499.5611887260574
 30
0.0
  0
SPLINE
  5
A0
330
1F
100
AcDbEntity
  8
0
  6
Continuous
 62
     7
370
    25
100
AcDbSpline
210
0.0
220
0.0
230
1.0
 70
     8
 71
     3
 72
    14
 73
    10
 74
     0
 42
0.00000001
 43
0.00000001
 40
0.0
 40
0.0
 40
0.0
 40
0.0
 40
0.25
 40
0.25
 40
0.5
 40
0.5
 40
0.75
 40
0.75
 40
1.0
 40
1.0
 40
1.0
 40
1.0
 10
155.3733377321736
 20
499.6106914792545
 30
0.0
 10
155.4348903927167
 20
499.608352575108
 30
0.0
 10
155.5106229382303
 20
499.6060275509765
 30
0.0
 10
155.7070381335581
 20
499.6014215022328
 30
0.0
 10
155.8258164747148
 20
499.5991386135834
 30
0.0
 10
156.1035612341765
 20
499.5946121744816
 30
0.0
 10
156.2625575088572
 20
499.5923686532544
 30
0.0
 10
156.6176078179937
 20
499.5879178848784
 30
0.0
 10
156.8105755387811
 20
499.5857076166837
 30
0.0
 10
157.0351609818664
 20
499.5835282975738
 30
0.0
  0
SPLINE
  5
A1
330
1F
100
AcDbEntity
  8
0
  6
Continuous
 62
     7
370
    25
100
AcDbSpline
210
0.0
220
0.0
230
1.0
 70
     8
 71
     3
 72
    12
 73
     8
 74
     0
 42
0.00000001
 43
0.00000001
 40
0.0
 40
0.0
 40
0.0
 40
0.0
 40
0.5
 40
0.5
 40
0.75
 40
0.75
 40
1.0
 40
1.0
 40
1.0
 40
1.0
 10
155.0157948283633
 20
499.6344544118467
 30
0.0
 10
155.037250578655
 20
499.6304847426755
 30
0.0
 10
155.0743294091702
 20
499.6265188345432
 30
0.0
 10
155.1653138361937
 20
499.6205784862602
 30
0.0
 10
155.2004810384921
 20
499.6185995351022
 30
0.0
 10
155.2784814461525
 20
499.6146434782695
 30
0.0
 10
155.3213643853733
 20
499.6126663845675
 30
0.0
 10
155.3733377321736
 20
499.6106914792545
 30
0.0
  0
LINE
  5
A2
330
1F
100
AcDbEntity
  8
0
  6
Continuous
 62
     7
370
    25
100
AcDbLine
 10
155.0053910616
 20
499.6808500721
 30
0.0
 11
155.0157948237
 21
499.6344544127
 31
0.0
  0
LINE
  5
A3
330
1F
100
AcDbEntity
  8
0
  6
Continuous
 62
     7
370
    25
100
AcDbLine
 10
190.000440307
 20
523.511350039
 30
0.0
 11
190.000440307
 21
521.4931887928
 31
0.0
  0
LINE
  5
A4
330
1F
100
AcDbEntity
  8
0
  6
Continuous
 62
     7
370
    25
100
AcDbLine
 10
154.0004983363
 20
521.4931887928
 30
0.0
 11
154.0004983363
 21
523.5113500387
 31
0.0
  0
SPLINE
  5
A5
330
1F
100
AcDbEntity
  8
0
  6
Continuous
 62
     7
370
    25
100
AcDbSpline
210
0.0
220
0.0
230
1.0
 70
     8
 71
     3
 72
    11
 73
     7
 74
     0
 42
0.00000001
 43
0.00000001
 40
0.0
 40
0.0
 40
0.0
 40
0.0
 40
0.2938960606543132
 40
0.6066937600517476
 40
0.9324237895241451
 40
0.9999999999999999
 40
0.9999999999999999
 40
0.9999999999999999
 40
0.9999999999999999
 10
154.0004983344317
 20
523.5110565293005
 30
0.0
 10
154.0044608276887
 20
523.5799021783068
 30
0.0
 10
154.0126406580951
 20
523.7220212171461
 30
0.0
 10
154.085847017328
 20
523.9286201496344
 30
0.0
 10
154.1633615096102
 20
524.078336071744
 30
0.0
 10
154.228655393921
 20
524.143921163428
 30
0.0
 10
154.2398739122683
 20
524.1551897157915
 30
0.0
  0
SPLINE
  5
A6
330
1F
100
AcDbEntity
  8
0
  6
Continuous
 62
     7
370
    25
100
AcDbSpline
210
0.0
220
0.0
230
1.0
 70
     8
 71
     3
 72
    11
 73
     7
 74
     0
 42
0.00000001
 43
0.00000001
 40
0.0
 40
0.0
 40
0.0
 40
0.0
 40
0.2940857438333836
 40
0.6070853256989157
 40
0.9330255842826201
 40
1.0
 40
1.0
 40
1.0
 40
1.0
 10
190.0004403088443
 20
523.5110565293005
 30
0.0
 10
189.9964783505909
 20
523.5799026090657
 30
0.0
 10
189.9882996246
 20
523.7220225371266
 30
0.0
 10
189.9150844510241
 20
523.9286143727376
 30
0.0
 10
189.8376665654626
 20
524.0782143099892
 30
0.0
 10
189.7724895094027
 20
524.1436996982022
 30
0.0
 10
189.7613797302743
 20
524.1548620342014
 30
0.0
  0
SPLINE
  5
A7
330
1F
100
AcDbEntity
  8
0
  6
Continuous
 62
     7
370
    25
100
AcDbSpline
210
0.0
220
0.0
230
1.0
 70
     8
 71
     3
 72
    16
 73
    12
 74
     0
 42
0.00000001
 43
0.00000001
 40
0.0
 40
0.0
 40
0.0
 40
0.0
 40
0.0001358551756093
 40
0.001179227746137
 40
0.0026686736325275
 40
0.0054891262411728
 40
0.0157218010443409
 40
0.056218816717775
 40
0.2176756894413253
 40
0.8649640078040923
 40
1.0
 40
1.0
 40
1.0
 40
1.0
 10
161.0626922038525
 20
479.8380460452011
 30
0.0
 10
161.0626938379702
 20
479.8380460447114
 30
0.0
 10
161.0627080221698
 20
479.8380460404612
 30
0.0
 10
161.0632199864892
 20
479.8380458871248
 30
0.0
 10
161.0656592061641
 20
479.8380451567976
 30
0.0
 10
161.0751922799878
 20
479.8380423044687
 30
0.0
 10
161.1172914994471
 20
479.8380297153208
 30
0.0
 10
161.2898276949717
 20
479.8379747597675
 30
0.0
 10
161.986654793247
 20
479.8374790744821
 30
0.0
 10
162.7774075987441
 20
479.8376381145891
 30
0.0
 10
163.4276363271952
 20
479.8376278313445
 30
0.0
 10
163.539871471004
 20
479.8376260563669
 30
0.0
  0
SPLINE
  5
A8
330
1F
100
AcDbEntity
  8
0
  6
Continuous
 62
     7
370
    25
100
AcDbSpline
210
0.0
220
0.0
230
1.0
 70
     8
 71
     3
 72
     9
 73
     5
 74
     0
 42
0.00000001
 43
0.00000001
 40
0.0
 40
0.0
 40
0.0
 40
0.0
 40
0.2128619803338122
 40
0.9999999999999999
 40
0.9999999999999999
 40
0.9999999999999999
 40
0.9999999999999999
 10
165.1017535819099
 20
479.8376209989282
 30
0.0
 10
165.3642200475268
 20
479.8376200589084
 30
0.0
 10
166.5972559574869
 20
479.8376156428084
 30
0.0
 10
167.8302921538173
 20
479.8376171950662
 30
0.0
 10
168.8008618235736
 20
479.8376184169074
 30
0.0
  0
SPLINE
  5
A9
330
1F
100
AcDbEntity
  8
0
  6
Continuous
 62
     7
370
    25
100
AcDbSpline
210
0.0
220
0.0
230
1.0
 70
     8
 71
     3
 72
    10
 73
     6
 74
     0
 42
0.00000001
 43
0.00000001
 40
0.0
 40
0.0
 40
0.0
 40
0.0
 40
0.3858298325519793
 40
0.9480584785636719
 40
0.9999999999999999
 40
0.9999999999999999
 40
0.9999999999999999
 40
0.9999999999999999
 10
175.2008618235736
 20
479.8376183457155
 30
0.0
 10
175.6782089529311
 20
479.8376190441818
 30
0.0
 10
176.8511431198203
 20
479.8376207604487
 30
0.0
 10
178.0883435488897
 20
479.8376091245512
 30
0.0
 10
178.8481891659742
 20
479.8376229029838
 30
0.0
 10
178.9124507330446
 20
479.8376240682517
 30
0.0
  0
SPLINE
  5
AA
330
1F
100
AcDbEntity
  8
0
  6
Continuous
 62
     7
370
    25
100
AcDbSpline
210
0.0
220
0.0
230
1.0
 70
     8
 71
     3
 72
    24
 73
    20
 74
     0
 42
0.00000001
 43
0.00000001
 40
0.0
 40
0.0
 40
0.0
 40
0.0
 40
0.2359003116434662
 40
0.4861601509801185
 40
0.6540465345729932
 40
0.7670022886255102
 40
0.8432102819274225
 40
0.8948025299775272
 40
0.9298814042979803
 40
0.953002192671635
 40
0.968320410558211
 40
0.9785653691915901
 40
0.9854814592480726
 40
0.9902012811345462
 40
0.994461706741118
 40
0.9969151333482184
 40
0.9984441104725027
 40
0.9995751849525165
 40
0.9999999999999999
 40
0.9999999999999999
 40
0.9999999999999999
 40
0.9999999999999999
 10
180.4618491801305
 20
479.8376321044653
 30
0.0
 10
180.6579524064309
 20
479.8376253129765
 30
0.0
 10
181.0620958916246
 20
479.8376113165932
 30
0.0
 10
181.6058348877111
 20
479.8375841106817
 30
0.0
 10
182.047321387381
 20
479.8376511324792
 30
0.0
 10
182.3436060624953
 20
479.8377514083566
 30
0.0
 10
182.5427059638407
 20
479.837847654058
 30
0.0
 10
182.6761415125113
 20
479.8379320107646
 30
0.0
 10
182.7648965240524
 20
479.8379863505473
 30
0.0
 10
182.8247084930825
 20
479.8380099973897
 30
0.0
 10
182.8641569781139
 20
479.8380236198549
 30
0.0
 10
182.8902614213171
 20
479.8380318617574
 30
0.0
 10
182.907589536484
 20
479.8380371555558
 30
0.0
 10
182.9198537488465
 20
479.838040849072
 30
0.0
 10
182.9282871700404
 20
479.8380433752358
 30
0.0
 10
182.9336909264643
 20
479.8380449925399
 30
0.0
 10
182.9362646933705
 20
479.8380457630892
 30
0.0
 10
182.9371349012631
 20
479.8380460236863
 30
0.0
 10
182.9371913304639
 20
479.8380460405849
 30
0.0
 10
182.9372067377104
 20
479.8380460451987
 30
0.0
  0
SPLINE
  5
AB
330
1F
100
AcDbEntity
  8
0
  6
Continuous
 62
     7
370
    25
100
AcDbSpline
210
0.0
220
0.0
230
1.0
 70
     8
 71
     3
 72
    38
 73
    34
 74
     0
 42
0.00000001
 43
0.00000001
 40
0.0
 40
0.0
 40
0.0
 40
0.0
 40
0.0625
 40
0.0625
 40
0.1249999999999999
 40
0.1249999999999999
 40
0.1874999999999999
 40
0.1874999999999999
 40
0.2499999999999999
 40
0.2499999999999999
 40
0.3124999999999999
 40
0.3124999999999999
 40
0.3749999999999999
 40
0.3749999999999999
 40
0.4375
 40
0.4375
 40
0.5
 40
0.5
 40
0.5625
 40
0.5625
 40
0.625
 40
0.625
 40
0.6875
 40
0.6875
 40
0.7499999999999999
 40
0.7499999999999999
 40
0.8124999999999999
 40
0.8124999999999999
 40
0.8749999999999999
 40
0.8749999999999999
 40
0.9374999999999999
 40
0.9374999999999999
 40
1.0
 40
1.0
 40
1.0
 40
1.0
 10
154.0009115268868
 20
484.8376198481713
 30
0.0
 10
154.0009115268868
 20
484.8376198481713
 30
0.0
 10
154.0009115266913
 20
484.8381263472419
 30
0.0
 10
154.0009115151146
 20
484.8292154341101
 30
0.0
 10
154.000911503754
 20
484.8197118922223
 30
0.0
 10
154.0009114634155
 20
484.7690660850318
 30
0.0
 10
154.0009114344582
 20
484.7278376900437
 30
0.0
 10
154.0009113561995
 20
484.5840056117187
 30
0.0
 10
154.0009113069185
 20
484.4813157986962
 30
0.0
 10
154.0009111883727
 20
484.1793864571405
 30
0.0
 10
154.0009111191284
 20
483.9800607989216
 30
0.0
 10
154.0009109634856
 20
483.4468313681466
 30
0.0
 10
154.0009108771077
 20
483.112841465905
 30
0.0
 10
154.0009106918799
 20
482.2719850671583
 30
0.0
 10
154.0009105930505
 20
481.7650324409678
 30
0.0
 10
154.0009103888368
 20
480.5422659238615
 30
0.0
 10
154.000910283473
 20
479.8263659032602
 30
0.0
 10
154.0009100727249
 20
478.1546176268988
 30
0.0
 10
154.0009099673612
 20
477.1986832414534
 30
0.0
 10
154.0009097631475
 20
475.0232608555628
 30
0.0
 10
154.0009096643181
 20
473.8036867254322
 30
0.0
 10
154.0009094790902
 20
471.0874449514872
 30
0.0
 10
154.0009093927123
 20
469.5906911779873
 30
0.0
 10
154.0009092370695
 20
466.3191995903405
 30
0.0
 10
154.0009091678251
 20
464.5443756465081
 30
0.0
 10
154.0009090492793
 20
460.7310864535179
 30
0.0
 10
154.0009089999984
 20
458.6925350746747
 30
0.0
 10
154.0009089217396
 20
454.3839508998338
 30
0.0
 10
154.0009088927823
 20
452.1138319741508
 30
0.0
 10
154.0009088524438
 20
447.3946736372142
 30
0.0
 10
154.0009088410831
 20
444.9455480962755
 30
0.0
 10
154.0009088295064
 20
439.9439223943894
 30
0.0
 10
154.0009088293109
 20
437.3913361037567
 30
0.0
 10
154.0009088293109
 20
434.8376198481713
 30
0.0
  0
SPLINE
  5
AC
330
1F
100
AcDbEntity
  8
0
  6
Continuous
 62
     7
370
    25
100
AcDbSpline
210
0.0
220
0.0
230
1.0
 70
     8
 71
     3
 72
    38
 73
    34
 74
     0
 42
0.00000001
 43
0.00000001
 40
0.0
 40
0.0
 40
0.0
 40
0.0
 40
0.0625
 40
0.0625
 40
0.1250000000000001
 40
0.1250000000000001
 40
0.1875000000000001
 40
0.1875000000000001
 40
0.2500000000000001
 40
0.2500000000000001
 40
0.3125000000000001
 40
0.3125000000000001
 40
0.3750000000000002
 40
0.3750000000000002
 40
0.4375000000000002
 40
0.4375000000000002
 40
0.5000000000000002
 40
0.5000000000000002
 40
0.5625000000000002
 40
0.5625000000000002
 40
0.6250000000000001
 40
0.6250000000000001
 40
0.6875000000000001
 40
0.6875000000000001
 40
0.75
 40
0.75
 40
0.8125
 40
0.8125
 40
0.875
 40
0.875
 40
0.9375
 40
0.9375
 40
1.0
 40
1.0
 40
1.0
 40
1.0
 10
190.0009088293109
 20
434.8376198481711
 30
0.0
 10
190.0009088293109
 20
437.3913361037565
 30
0.0
 10
190.0009088295064
 20
439.9439223943892
 30
0.0
 10
190.0009088410832
 20
444.9455480962753
 30
0.0
 10
190.0009088524438
 20
447.3946736372142
 30
0.0
 10
190.0009088927824
 20
452.1138319741506
 30
0.0
 10
190.0009089217397
 20
454.3839508998337
 30
0.0
 10
190.0009089999984
 20
458.6925350746746
 30
0.0
 10
190.0009090492794
 20
460.7310864535178
 30
0.0
 10
190.0009091678251
 20
464.5443756465079
 30
0.0
 10
190.0009092370695
 20
466.3191995903404
 30
0.0
 10
190.0009093927123
 20
469.5906911779871
 30
0.0
 10
190.0009094790903
 20
471.087444951487
 30
0.0
 10
190.0009096643182
 20
473.803686725432
 30
0.0
 10
190.0009097631475
 20
475.0232608555626
 30
0.0
 10
190.0009099673612
 20
477.1986832414532
 30
0.0
 10
190.000910072725
 20
478.1546176268988
 30
0.0
 10
190.000910283473
 20
479.8263659032601
 30
0.0
 10
190.0009103888368
 20
480.5422659238614
 30
0.0
 10
190.0009105930506
 20
481.7650324409677
 30
0.0
 10
190.0009106918799
 20
482.2719850671582
 30
0.0
 10
190.0009108771077
 20
483.1128414659048
 30
0.0
 10
190.0009109634856
 20
483.4468313681465
 30
0.0
 10
190.0009111191285
 20
483.9800607989216
 30
0.0
 10
190.0009111883728
 20
484.1793864571403
 30
0.0
 10
190.0009113069186
 20
484.4813157986961
 30
0.0
 10
190.0009113561995
 20
484.5840056117185
 30
0.0
 10
190.0009114344582
 20
484.7278376900435
 30
0.0
 10
190.0009114634155
 20
484.7690660850317
 30
0.0
 10
190.000911503754
 20
484.8197118922222
 30
0.0
 10
190.0009115151146
 20
484.82921543411
 30
0.0
 10
190.0009115266913
 20
484.8381263472418
 30
0.0
 10
190.0009115268869
 20
484.8376198481712
 30
0.0
 10
190.0009115268869
 20
484.8376198481712
 30
0.0
  0
LINE
  5
AD
330
1F
100
AcDbEntity
  8
0
  6
Continuous
 62
     7
370
    25
100
AcDbLine
 10
148.9008618334
 20
369.7692795601
 30
0.0
 11
195.1008618334
 21
369.7692795601
 31
0.0
  0
LINE
  5
AE
330
1F
100
AcDbEntity
  8
0
  6
Continuous
 62
     7
370
    25
100
AcDbLine
 10
148.9008618334
 20
374.7692795607
 30
0.0
 11
195.1008618334
 21
374.7692795607
 31
0.0
  0
LINE
  5
AF
330
1F
100
AcDbEntity
  8
0
  6
Continuous
 62
     7
370
    25
100
AcDbLine
 10
196.1008618334
 20
373.7692795607
 30
0.0
 11
196.1008618334
 21
369.7692795601
 31
0.0
  0
LINE
  5
B0
330
1F
100
AcDbEntity
  8
0
  6
Continuous
 62
     7
370
    25
100
AcDbLine
 10
195.1008618334
 20
369.7692795601
 30
0.0
 11
196.1008618334
 21
369.7692795601
 31
0.0
  0
ARC
  5
B1
330
1F
100
AcDbEntity
  8
0
  6
Continuous
 62
     7
370
    25
100
AcDbCircle
 10
195.1008618334
 20
373.7692795607
 30
0.0
 40
1.0
100
AcDbArc
 50
0.0
 51
90.0
  0
LINE
  5
B2
330
1F
100
AcDbEntity
  8
0
  6
Continuous
 62
     7
370
    25
100
AcDbLine
 10
147.9008618334
 20
369.7692795601
 30
0.0
 11
147.9008618334
 21
373.7692795607
 31
0.0
  0
LINE
  5
B3
330
1F
100
AcDbEntity
  8
0
  6
Continuous
 62
     7
370
    25
100
AcDbLine
 10
147.9008618334
 20
369.7692795601
 30
0.0
 11
148.9008618334
 21
369.7692795601
 31
0.0
  0
ARC
  5
B4
330
1F
100
AcDbEntity
  8
0
  6
Continuous
 62
     7
370
    25
100
AcDbCircle
 10
148.9008618334
 20
373.7692795607
 30
0.0
 40
1.0
100
AcDbArc
 50
90.0
 51
180.0
  0
SPLINE
  5
B5
330
1F
100
AcDbEntity
  8
0
  6
Continuous
 62
     7
370
    25
100
AcDbSpline
210
0.0
220
0.0
230
1.0
 70
     8
 71
     3
 72
    10
 73
     6
 74
     0
 42
0.00000001
 43
0.00000001
 40
0.0
 40
0.0
 40
0.0
 40
0.0
 40
0.140237219944185
 40
0.4411018757567702
 40
1.0
 40
1.0
 40
1.0
 40
1.0
 10
152.8894201056914
 20
376.6683235189071
 30
0.0
 10
152.9914816912724
 20
376.7874365158482
 30
0.0
 10
153.3125060017973
 20
377.1620943021239
 30
0.0
 10
153.8213636977698
 20
378.1812138585217
 30
0.0
 10
153.9301493926889
 20
379.1436425091449
 30
0.0
 10
154.0008667140771
 20
379.7692796965518
 30
0.0
  0
ARC
  5
B6
330
1F
100
AcDbEntity
  8
0
  6
Continuous
 62
     7
370
    25
100
AcDbCircle
 10
195.0008708619
 20
379.7692795616
 30
0.0
 40
5.000000000935131
100
AcDbArc
 50
179.9999996668
 51
269.9999999906
  0
LINE
  5
B7
330
1F
100
AcDbEntity
  8
0
  6
Continuous
 62
     7
370
    25
100
AcDbLine
 10
190.0008708611
 20
390.7692795532
 30
0.0
 11
190.0008708172
 21
419.8376205027
 31
0.0
  0
LINE
  5
B8
330
1F
100
AcDbEntity
  8
0
  6
Continuous
 62
     7
370
    25
100
AcDbLine
 10
154.0008667141
 20
390.7692796966
 30
0.0
 11
154.0008659245
 21
419.8376205027
 31
0.0
  0
LINE
  5
B9
330
1F
100
AcDbEntity
  8
0
  6
Continuous
 62
     7
370
    25
100
AcDbLine
 10
190.0008699683
 20
390.7692795532
 30
0.0
 11
190.0008699683
 21
379.7692795906
 31
0.0
  0
LINE
  5
BA
330
1F
100
AcDbEntity
  8
0
  6
Continuous
 62
     7
370
    25
100
AcDbLine
 10
154.0009063565
 20
419.8376205027
 30
0.0
 11
154.0009063338
 21
434.8376204748
 31
0.0
  0
LINE
  5
BB
330
1F
100
AcDbEntity
  8
0
  6
Continuous
 62
     7
370
    25
100
AcDbLine
 10
190.0009085427
 20
419.8376205027
 30
0.0
 11
190.0009085201
 21
434.8376204748
 31
0.0
  0
SPLINE
  5
BC
330
1F
100
AcDbEntity
  8
0
  6
Continuous
 62
     7
370
    25
100
AcDbSpline
210
0.0
220
0.0
230
1.0
 70
     8
 71
     3
 72
    11
 73
     7
 74
     0
 42
0.00000001
 43
0.00000001
 40
0.0
 40
0.0
 40
0.0
 40
0.0
 40
0.2838371913768796
 40
0.5737887902893581
 40
0.8282849467280157
 40
1.0
 40
1.0
 40
1.0
 40
1.0
 10
189.4183670865283
 20
504.1654789324691
 30
0.0
 10
189.5103695522113
 20
504.217841456357
 30
0.0
 10
189.6963563964013
 20
504.3236944951797
 30
0.0
 10
189.8834346700883
 20
504.4650903249067
 30
0.0
 10
189.9856611363923
 20
504.5660216638447
 30
0.0
 10
189.9961958647358
 20
504.6011482647883
 30
0.0
 10
190.000440172247
 20
504.6153003237086
 30
0.0
  0
SPLINE
  5
BD
330
1F
100
AcDbEntity
  8
0
  6
Continuous
 62
     7
370
    25
100
AcDbSpline
210
0.0
220
0.0
230
1.0
 70
    24
 71
     3
 72
    14
 73
    10
 74
     0
 42
0.00000001
 43
0.00000001
 40
0.0000000000000009
 40
0.0000000000000009
 40
0.0000000000000009
 40
0.0000000000000009
 40
0.0027220924773576
 40
0.0027220924773576
 40
0.0027220924773576
 40
0.0054441839602498
 40
0.0054441839602498
 40
0.0054441839602498
 40
0.0104862958462568
 40
0.0104862958462568
 40
0.0104862958462568
 40
0.0104862958462568
 10
190.0004403069741
 20
506.3509284662624
 30
0.0
 10
190.0004403069741
 20
506.201300462898
 30
0.0
 10
190.0004403069741
 20
506.0506165922337
 30
0.0
 10
190.0004403069741
 20
505.8999135481098
 30
0.0
 10
190.0004403069741
 20
505.7492105489907
 30
0.0
 10
190.0004403069741
 20
505.5985170500276
 30
0.0
 10
190.0004403069741
 20
505.4482903870554
 30
0.0
 10
190.0004403069741
 20
505.1700265431476
 30
0.0
 10
190.0004403069742
 20
504.8922702360925
 30
0.0
 10
190.0004403069742
 20
504.6153096427155
 30
0.0
  0
SPLINE
  5
BE
330
1F
100
AcDbEntity
  8
0
  6
Continuous
 62
     7
370
    25
100
AcDbSpline
210
0.0
220
0.0
230
1.0
 70
     8
 71
     3
 72
    12
 73
     8
 74
     0
 42
0.00000001
 43
0.00000001
 40
0.0
 40
0.0
 40
0.0
 40
0.0
 40
0.5000000000000078
 40
0.5000000000000078
 40
0.7500000000000039
 40
0.7500000000000039
 40
1.0
 40
1.0
 40
1.0
 40
1.0
 10
154.7633768602981
 20
504.0688080946579
 30
0.0
 10
154.5529589443981
 20
504.1746292293993
 30
0.0
 10
154.3612438041487
 20
504.2872974045129
 30
0.0
 10
154.1552391797618
 20
504.4370520068302
 30
0.0
 10
154.099562884825
 20
504.4835304594637
 30
0.0
 10
154.0217521482685
 20
504.562887670064
 30
0.0
 10
154.0004996363208
 20
504.5950062657252
 30
0.0
 10
154.0004983363349
 20
504.6152718666359
 30
0.0
  0
SPLINE
  5
BF
330
1F
100
AcDbEntity
  8
0
  6
Continuous
 62
     7
370
    25
100
AcDbSpline
210
0.0
220
0.0
230
1.0
 70
    24
 71
     3
 72
    14
 73
    10
 74
     0
 42
0.00000001
 43
0.00000001
 40
0.0
 40
0.0
 40
0.0
 40
0.0
 40
0.0026283545570111
 40
0.0026283545570111
 40
0.0026283545570111
 40
0.0052567090778632
 40
0.0052567090778632
 40
0.0052567090778632
 40
0.0104863578434055
 40
0.0104863578434055
 40
0.0104863578434055
 40
0.0104863578434055
 10
154.0004983362942
 20
504.6152718683044
 30
0.0
 10
154.0004983362942
 20
504.7596731286599
 30
0.0
 10
154.0004983362942
 20
504.9042762287772
 30
0.0
 10
154.0004983362942
 20
505.0490916039114
 30
0.0
 10
154.0004983362942
 20
505.1939069781195
 30
0.0
 10
154.0004983362941
 20
505.3389323029324
 30
0.0
 10
154.0004983362941
 20
505.4840793893777
 30
0.0
 10
154.0004983362941
 20
505.7728791923639
 30
0.0
 10
154.0004983362941
 20
506.0640211496655
 30
0.0
 10
154.0004983362941
 20
506.3518094588127
 30
0.0
  0
LINE
  5
C0
330
1F
100
AcDbEntity
  8
0
  6
Continuous
 62
     7
370
    25
100
AcDbLine
 10
154.0008656148
 20
419.8376205027
 30
0.0
 11
154.0008664045
 21
390.7692796966
 31
0.0
  0
LINE
  5
C1
330
1F
100
AcDbEntity
  8
0
  6
Continuous
 62
     7
370
    25
100
AcDbLine
 10
154.0008659245
 20
419.8376205027
 30
0.0
 11
154.0008656148
 21
419.8376205027
 31
0.0
  0
LINE
  5
C2
330
1F
100
AcDbEntity
  8
0
  6
Continuous
 62
     7
370
    25
100
AcDbLine
 10
154.000866338
 20
390.7692796966
 30
0.0
 11
154.000866338
 21
379.769279734
 31
0.0
  0
LINE
  5
C3
330
1F
100
AcDbEntity
  8
0
  6
Continuous
 62
     8
370
    18
100
AcDbLine
 10
189.0009084447
 20
484.8376200579
 30
0.0
 11
189.0009084296
 21
494.8376214744
 31
0.0
  0
SPLINE
  5
C4
330
1F
100
AcDbEntity
  8
0
  6
Continuous
 62
     8
370
    18
100
AcDbSpline
210
0.0
220
0.0
230
1.0
 70
    24
 71
     3
 72
    10
 73
     6
 74
     0
 42
0.00000001
 43
0.00000001
 40
0.0
 40
0.0
 40
0.0
 40
0.0
 40
0.5
 40
0.5
 40
1.0
 40
1.0
 40
1.0
 40
1.0
 10
189.0009084296866
 20
494.8376214743768
 30
0.0
 10
189.2627078174687
 20
494.8376214747727
 30
0.0
 10
189.5228950884052
 20
494.8376214751662
 30
0.0
 10
189.8931353332086
 20
494.837621475726
 30
0.0
 10
190.0009084295841
 20
494.8376214758891
 30
0.0
 10
190.0009084295841
 20
494.8376214758891
 30
0.0
  0
SPLINE
  5
C5
330
1F
100
AcDbEntity
  8
0
  6
Continuous
 62
     8
370
    18
100
AcDbSpline
210
0.0
220
0.0
230
1.0
 70
     8
 71
     3
 72
    20
 73
    16
 74
     0
 42
0.00000001
 43
0.00000001
 40
0.0
 40
0.0
 40
0.0
 40
0.0
 40
0.0602271756808131
 40
0.121109874031512
 40
0.1826480791035844
 40
0.2448417747661474
 40
0.307690944705718
 40
0.3711955724254757
 40
0.4353556412449697
 40
0.5001711342995796
 40
0.580709848927398
 40
0.6709676515600425
 40
0.7709392673129832
 40
0.8806188535002034
 40
1.0
 40
1.0
 40
1.0
 40
1.0
 10
190.0009115268865
 20
484.8376198481863
 30
0.0
 10
190.0000495966132
 20
484.8376198239975
 30
0.0
 10
189.998316354673
 20
484.8376197753564
 30
0.0
 10
189.9842219171158
 20
484.8376195457853
 30
0.0
 10
189.9615086144392
 20
484.8376193660023
 30
0.0
 10
189.9292667166845
 20
484.8376192926333
 30
0.0
 10
189.8877447409311
 20
484.837619360516
 30
0.0
 10
189.8370089720484
 20
484.8376195630334
 30
0.0
 10
189.7773126959977
 20
484.837619772179
 30
0.0
 10
189.7037214856502
 20
484.8376200793392
 30
0.0
 10
189.6109688534728
 20
484.8376192242785
 30
0.0
 10
189.4927009612855
 20
484.8376180389458
 30
0.0
 10
189.3500516378332
 20
484.8376179366628
 30
0.0
 10
189.1834947180357
 20
484.8376192791325
 30
0.0
 10
189.0634670008986
 20
484.8376197898687
 30
0.0
 10
189.0009113357896
 20
484.8376200560525
 30
0.0
  0
SPLINE
  5
C6
330
1F
100
AcDbEntity
  8
0
  6
Continuous
 62
     8
370
    18
100
AcDbSpline
210
0.0
220
0.0
230
1.0
 70
    24
 71
     3
 72
    10
 73
     6
 74
     0
 42
0.00000001
 43
0.00000001
 40
0.0
 40
0.0
 40
0.0
 40
0.0
 40
0.5
 40
0.5
 40
1.0
 40
1.0
 40
1.0
 40
1.0
 10
189.0009084294816
 20
494.8376214743768
 30
0.0
 10
189.0009084294816
 20
495.099420862176
 30
0.0
 10
189.0009084294816
 20
495.3596081331401
 30
0.0
 10
189.0009084294816
 20
495.7298483779867
 30
0.0
 10
189.0009084294816
 20
495.8376214743768
 30
0.0
 10
189.0009084294816
 20
495.8376214743768
 30
0.0
  0
SPLINE
  5
C7
330
1F
100
AcDbEntity
  8
0
  6
Continuous
 62
     8
370
    18
100
AcDbSpline
210
0.0
220
0.0
230
1.0
 70
     8
 71
     3
 72
    28
 73
    24
 74
     0
 42
0.00000001
 43
0.00000001
 40
0.0
 40
0.0
 40
0.0
 40
0.0
 40
0.2499999999999972
 40
0.2499999999999972
 40
0.3749999999999958
 40
0.3749999999999958
 40
0.4374999999999951
 40
0.4374999999999951
 40
0.4999999999999944
 40
0.4999999999999944
 40
0.5624999999999938
 40
0.5624999999999938
 40
0.6249999999999931
 40
0.6249999999999931
 40
0.6562499999999926
 40
0.6562499999999926
 40
0.6874999999999921
 40
0.6874999999999921
 40
0.7499999999999956
 40
0.7499999999999956
 40
0.8749999999999978
 40
0.8749999999999978
 40
1.0
 40
1.0
 40
1.0
 40
1.0
 10
182.9369072701719
 20
480.8380460003591
 30
0.0
 10
183.674198429836
 20
480.838266793146
 30
0.0
 10
184.4114958201452
 20
480.8383683760788
 30
0.0
 10
185.5154653057796
 20
480.8763386928592
 30
0.0
 10
185.8831608602458
 20
480.894625760124
 30
0.0
 10
186.4333207040267
 20
480.9485263958806
 30
0.0
 10
186.6164850968898
 20
480.9707450043711
 30
0.0
 10
186.9821191533361
 20
481.0284743564024
 30
0.0
 10
187.1655690681391
 20
481.064563627196
 30
0.0
 10
187.5236921478921
 20
481.1610001299659
 30
0.0
 10
187.6990936290346
 20
481.2200514030602
 30
0.0
 10
188.0342325469983
 20
481.3845163014715
 30
0.0
 10
188.1885550184458
 20
481.4896368923764
 30
0.0
 10
188.3813487921518
 20
481.6916718889176
 30
0.0
 10
188.4390609523497
 20
481.7668717325329
 30
0.0
 10
188.539072494076
 20
481.9233847720805
 30
0.0
 10
188.5824495694618
 20
482.0054498829723
 30
0.0
 10
188.6979773082829
 20
482.2600358126114
 30
0.0
 10
188.7544143975953
 20
482.4391265491059
 30
0.0
 10
188.8895817846499
 20
482.9812973723252
 30
0.0
 10
188.9347192006645
 20
483.3530904019776
 30
0.0
 10
188.9915282875282
 20
484.0936308564168
 30
0.0
 10
189.0006761316716
 20
484.4653013998156
 30
0.0
 10
189.0009113357896
 20
484.8376200560522
 30
0.0
  0
LINE
  5
C8
330
1F
100
AcDbEntity
  8
0
  6
Continuous
 62
     8
370
    18
100
AcDbLine
 10
161.0626922595
 20
480.8380460901
 30
0.0
 11
182.9369072702
 21
480.8380460452
 31
0.0
  0
SPLINE
  5
C9
330
1F
100
AcDbEntity
  8
0
  6
Continuous
 62
     8
370
    18
100
AcDbSpline
210
0.0
220
0.0
230
1.0
 70
     8
 71
     3
 72
    26
 73
    22
 74
     0
 42
0.00000001
 43
0.00000001
 40
0.0
 40
0.0
 40
0.0
 40
0.0
 40
0.1250000000000013
 40
0.1250000000000013
 40
0.2500000000000027
 40
0.2500000000000027
 40
0.3125000000000033
 40
0.3125000000000033
 40
0.375000000000004
 40
0.375000000000004
 40
0.4375000000000047
 40
0.4375000000000047
 40
0.5000000000000053
 40
0.5000000000000053
 40
0.562500000000006
 40
0.562500000000006
 40
0.6250000000000067
 40
0.6250000000000067
 40
0.7500000000000052
 40
0.7500000000000052
 40
1.0
 40
1.0
 40
1.0
 40
1.0
 10
155.0009117139466
 20
484.8376200643066
 30
0.0
 10
155.0011427927562
 20
484.4679210504455
 30
0.0
 10
155.0101599302704
 20
484.0987143368648
 30
0.0
 10
155.066133602153
 20
483.3624267292921
 30
0.0
 10
155.1107910311176
 20
482.9930885832962
 30
0.0
 10
155.2420732517286
 20
482.4577169672812
 30
0.0
 10
155.2960903520871
 20
482.2819753599496
 30
0.0
 10
155.4463763213939
 20
481.941679234744
 30
0.0
 10
155.5407053646019
 20
481.7804893872366
 30
0.0
 10
155.7945897776322
 20
481.5046209680656
 30
0.0
 10
155.9470725151946
 20
481.3971817597171
 30
0.0
 10
156.2802360254656
 20
481.2288077609541
 30
0.0
 10
156.4554852424653
 20
481.1682948087668
 30
0.0
 10
156.814111238899
 20
481.0694682863627
 30
0.0
 10
156.9966669955371
 20
481.0327659287215
 30
0.0
 10
157.3620673517469
 20
480.9738387258719
 30
0.0
 10
157.5455897638193
 20
480.9511594165572
 30
0.0
 10
158.0977138839882
 20
480.8959674131713
 30
0.0
 10
158.468222901071
 20
480.8771467608526
 30
0.0
 10
159.5798025866989
 20
480.8383691507973
 30
0.0
 10
160.3212483463195
 20
480.8382681700487
 30
0.0
 10
161.0626922594741
 20
480.8380460900514
 30
0.0
  0
LINE
  5
CA
330
1F
100
AcDbEntity
  8
0
  6
Continuous
 62
     8
370
    18
100
AcDbLine
 10
155.0009062433
 20
494.8376214744
 30
0.0
 11
155.0009062584
 21
484.8376200609
 31
0.0
  0
LINE
  5
CB
330
1F
100
AcDbEntity
  8
0
  6
Continuous
 62
     8
370
    18
100
AcDbLine
 10
189.0009084296
 20
494.8376214744
 30
0.0
 11
155.0009062433
 21
494.8376214744
 31
0.0
  0
SPLINE
  5
CC
330
1F
100
AcDbEntity
  8
0
  6
Continuous
 62
     8
370
    18
100
AcDbSpline
210
0.0
220
0.0
230
1.0
 70
    24
 71
     3
 72
    10
 73
     6
 74
     0
 42
0.00000001
 43
0.00000001
 40
0.0
 40
0.0
 40
0.0
 40
0.0
 40
0.5
 40
0.5
 40
1.0
 40
1.0
 40
1.0
 40
1.0
 10
155.0009062433045
 20
494.8376214743804
 30
0.0
 10
155.0009062432484
 20
495.0994208621789
 30
0.0
 10
155.0009062431927
 20
495.3596081331422
 30
0.0
 10
155.0009062431134
 20
495.7298483779873
 30
0.0
 10
155.0009062430904
 20
495.8376214743769
 30
0.0
 10
155.0009062430904
 20
495.8376214743769
 30
0.0
  0
SPLINE
  5
CD
330
1F
100
AcDbEntity
  8
0
  6
Continuous
 62
     8
370
    18
100
AcDbSpline
210
0.0
220
0.0
230
1.0
 70
    24
 71
     3
 72
    10
 73
     6
 74
     0
 42
0.00000001
 43
0.00000001
 40
0.0
 40
0.0
 40
0.0
 40
0.0
 40
0.5
 40
0.5
 40
1.0
 40
1.0
 40
1.0
 40
1.0
 10
155.0009062433045
 20
494.8376214743804
 30
0.0
 10
154.7391068555053
 20
494.8376214739853
 30
0.0
 10
154.4789195845412
 20
494.8376214735928
 30
0.0
 10
154.1086793396947
 20
494.8376214730342
 30
0.0
 10
154.0009062433045
 20
494.8376214728716
 30
0.0
 10
154.0009062433045
 20
494.8376214728716
 30
0.0
  0
SPLINE
  5
CE
330
1F
100
AcDbEntity
  8
0
  6
Continuous
 62
     8
370
    18
100
AcDbSpline
210
0.0
220
0.0
230
1.0
 70
    24
 71
     3
 72
    10
 73
     6
 74
     0
 42
0.00000001
 43
0.00000001
 40
0.0
 40
0.0
 40
0.0
 40
0.0
 40
0.5
 40
0.5
 40
1.0
 40
1.0
 40
1.0
 40
1.0
 10
154.0009062583923
 20
484.8376200593879
 30
0.0
 10
154.0009062583923
 20
484.8376200593879
 30
0.0
 10
154.1086793547825
 20
484.8376200595504
 30
0.0
 10
154.4789195996291
 20
484.837620060109
 30
0.0
 10
154.7391068705932
 20
484.8376200605016
 30
0.0
 10
155.0009062583923
 20
484.8376200608966
 30
0.0
  0
LINE
  5
CF
330
1F
100
AcDbEntity
  8
0
  6
Continuous
 62
     8
370
    18
100
AcDbLine
 10
182.9372067351
 20
479.8380460452
 30
0.0
 11
182.9369072702
 21
480.8380460452
 31
0.0
  0
LINE
  5
D0
330
1F
100
AcDbEntity
  8
0
  6
Continuous
 62
     8
370
    18
100
AcDbLine
 10
161.0626922595
 20
479.8380460452
 30
0.0
 11
161.0626922595
 21
480.8380460901
 31
0.0
  0
LINE
  5
D1
330
1F
100
AcDbEntity
  8
0
  6
Continuous
 62
     8
370
    18
100
AcDbLine
 10
154.4695140379
 20
505.3694585108
 30
0.0
 11
154.4244770423
 21
505.5351236726
 31
0.0
  0
SPLINE
  5
D2
330
1F
100
AcDbEntity
  8
0
  6
Continuous
 62
     8
370
    18
100
AcDbSpline
210
0.0
220
0.0
230
1.0
 70
     8
 71
     3
 72
    12
 73
     8
 74
     0
 42
0.00000001
 43
0.00000001
 40
8.172668223544328
 40
8.172668223544328
 40
8.172668223544328
 40
8.172668223544328
 40
8.176115058065244
 40
8.176115058065244
 40
8.468667056943024
 40
8.468667056943024
 40
8.487454801976577
 40
8.487454801976577
 40
8.487454801976577
 40
8.487454801976577
 10
154.3299634347471
 20
505.7508973451314
 30
0.0
 10
154.3303290007293
 20
505.7501147918333
 30
0.0
 10
154.3306943459814
 20
505.7493321709701
 30
0.0
 10
154.3620496859791
 20
505.6821182232363
 30
0.0
 10
154.3913861425351
 20
505.6153442204367
 30
0.0
 10
154.4209299821368
 20
505.5437703913864
 30
0.0
 10
154.4227067390148
 20
505.5394480935465
 30
0.0
 10
154.4244770422843
 20
505.5351236726015
 30
0.0
  0
SPLINE
  5
D3
330
1F
100
AcDbEntity
  8
0
  6
Continuous
 62
     8
370
    18
100
AcDbSpline
210
0.0
220
0.0
230
1.0
 70
     8
 71
     3
 72
    16
 73
    12
 74
     0
 42
0.00000001
 43
0.00000001
 40
8.48745480197669
 40
8.48745480197669
 40
8.48745480197669
 40
8.48745480197669
 40
8.505695716722947
 40
8.505695716722947
 40
8.523980216652808
 40
8.523980216652808
 40
8.542264716582668
 40
8.542264716582668
 40
8.578833716442398
 40
8.578833716442398
 40
8.648524881640807
 40
8.648524881640807
 40
8.648524881640807
 40
8.648524881640807
 10
154.2771949053997
 20
505.8603182539603
 30
0.0
 10
154.2792532789957
 20
505.8561780027944
 30
0.0
 10
154.281302350909
 20
505.8520406467786
 30
0.0
 10
154.2853798026571
 20
505.8437877259911
 30
0.0
 10
154.2874132822711
 20
505.839657460905
 30
0.0
 10
154.2914722458891
 20
505.8313839106868
 30
0.0
 10
154.2934877960821
 20
505.8272609579888
 30
0.0
 10
154.2995263721091
 20
505.81486490719
 30
0.0
 10
154.3035355237531
 20
505.8065760403146
 30
0.0
 10
154.3150905232924
 20
505.7825144410215
 30
0.0
 10
154.3225720966639
 20
505.7667197035411
 30
0.0
 10
154.329963434747
 20
505.7508973451315
 30
0.0
  0
SPLINE
  5
D4
330
1F
100
AcDbEntity
  8
0
  6
Continuous
 62
     8
370
    18
100
AcDbSpline
210
0.0
220
0.0
230
1.0
 70
     8
 71
     3
 72
    16
 73
    12
 74
     0
 42
0.00000001
 43
0.00000001
 40
8.64852488164624
 40
8.64852488164624
 40
8.64852488164624
 40
8.64852488164624
 40
8.67384782792568
 40
8.67384782792568
 40
8.746985827645121
 40
8.746985827645121
 40
8.783554827504851
 40
8.783554827504851
 40
8.801839327434712
 40
8.801839327434712
 40
8.80188291261288
 40
8.80188291261288
 40
8.80188291261288
 40
8.80188291261288
 10
154.2238453487381
 20
505.9646518657636
 30
0.0
 10
154.226863773254
 20
505.9589092905928
 30
0.0
 10
154.2298722096918
 20
505.9531583996209
 30
0.0
 10
154.2415093946651
 20
505.9308155088752
 30
0.0
 10
154.2500210027891
 20
505.9142581443122
 30
0.0
 10
154.2626566412881
 20
505.8893504663156
 30
0.0
 10
154.2668245255151
 20
505.8810792822698
 30
0.0
 10
154.2730548434991
 20
505.8686318248735
 30
0.0
 10
154.2751168138411
 20
505.8644980901451
 30
0.0
 10
154.2771850687131
 20
505.8603380395655
 30
0.0
 10
154.277189987082
 20
505.8603281467564
 30
0.0
 10
154.2771949053979
 20
505.860318253964
 30
0.0
  0
SPLINE
  5
D5
330
1F
100
AcDbEntity
  8
0
  6
Continuous
 62
     8
370
    18
100
AcDbSpline
210
0.0
220
0.0
230
1.0
 70
     8
 71
     3
 72
    18
 73
    14
 74
     0
 42
0.00000001
 43
0.00000001
 40
8.801882912619167
 40
8.801882912619167
 40
8.801882912619167
 40
8.801882912619167
 40
8.8095006011305
 40
8.8095006011305
 40
8.818642851095431
 40
8.818642851095431
 40
8.83692735102529
 40
8.83692735102529
 40
8.91006535074473
 40
8.91006535074473
 40
8.94663435060446
 40
8.94663435060446
 40
8.957880404178454
 40
8.957880404178454
 40
8.957880404178454
 40
8.957880404178454
 10
154.1669188672557
 20
506.0698387215834
 30
0.0
 10
154.167863661004
 20
506.0681434390818
 30
0.0
 10
154.1688087371086
 20
506.0664455152776
 30
0.0
 10
154.1708743921101
 20
506.0627280133057
 30
0.0
 10
154.1720120173301
 20
506.0606755643586
 30
0.0
 10
154.1754057323511
 20
506.0545444957118
 30
0.0
 10
154.177655827993
 20
506.0504656967718
 30
0.0
 10
154.1889075948071
 20
506.0300013415546
 30
0.0
 10
154.1978194711791
 20
506.0135731767789
 30
0.0
 10
154.2110591011401
 20
505.9888333250688
 30
0.0
 10
154.2154482611711
 20
505.9805752852116
 30
0.0
 10
154.2211623823996
 20
505.9697508412947
 30
0.0
 10
154.2225048505394
 20
505.9672021735918
 30
0.0
 10
154.2238453487358
 20
505.9646518657679
 30
0.0
  0
SPLINE
  5
D6
330
1F
100
AcDbEntity
  8
0
  6
Continuous
 62
     8
370
    18
100
AcDbSpline
210
0.0
220
0.0
230
1.0
 70
     8
 71
     3
 72
    18
 73
    14
 74
     0
 42
0.00000001
 43
0.00000001
 40
8.957880404168616
 40
8.957880404168616
 40
8.957880404168616
 40
8.957880404168616
 40
8.963411976457529
 40
8.963411976457529
 40
8.972554226422458
 40
8.972554226422458
 40
9.009123226282188
 40
9.009123226282188
 40
9.082261226001629
 40
9.082261226001629
 40
9.118830225861348
 40
9.118830225861348
 40
9.120354787324793
 40
9.120354787324793
 40
9.120354787324793
 40
9.120354787324793
 10
154.1050168600206
 20
506.1778964096845
 30
0.0
 10
154.1057397484838
 20
506.1766658246593
 30
0.0
 10
154.1064618762544
 20
506.1754357389272
 30
0.0
 10
154.1083652522141
 20
506.1721952519346
 30
0.0
 10
154.1095536928391
 20
506.1701692834395
 30
0.0
 10
154.1154718413321
 20
506.1600646051739
 30
0.0
 10
154.1201847411211
 20
506.1519693220419
 30
0.0
 10
154.1342413608121
 20
506.1276776595381
 30
0.0
 10
154.1435124846601
 20
506.111459336043
 30
0.0
 10
154.1572659740171
 20
506.0870998813456
 30
0.0
 10
154.1618179669491
 20
506.0789872670892
 30
0.0
 10
154.1665407071228
 20
506.0705171844504
 30
0.0
 10
154.1667297815364
 20
506.0701780059107
 30
0.0
 10
154.1669188672594
 20
506.0698387215768
 30
0.0
  0
SPLINE
  5
D7
330
1F
100
AcDbEntity
  8
0
  6
Continuous
 62
     8
370
    18
100
AcDbSpline
210
0.0
220
0.0
230
1.0
 70
     8
 71
     3
 72
    22
 73
    18
 74
     0
 42
0.00000001
 43
0.00000001
 40
9.12035478733263
 40
9.12035478733263
 40
9.12035478733263
 40
9.12035478733263
 40
9.156923787192351
 40
9.156923787192351
 40
9.17520828712221
 40
9.17520828712221
 40
9.19349278705207
 40
9.19349278705207
 40
9.23006178691179
 40
9.23006178691179
 40
9.26663078677152
 40
9.26663078677152
 40
9.33976878649096
 40
9.33976878649096
 40
9.358053286420821
 40
9.358053286420821
 40
9.361663964089
 40
9.361663964089
 40
9.361663964089
 40
9.361663964089
 10
154.0043402592871
 20
506.3450583743901
 30
0.0
 10
154.0098441590011
 20
506.3360165710564
 30
0.0
 10
154.0152949942011
 20
506.3270340923038
 30
0.0
 10
154.0233690201511
 20
506.3137337733896
 30
0.0
 10
154.0260437139981
 20
506.309328403603
 30
0.0
 10
154.0313344480031
 20
506.3006209804125
 30
0.0
 10
154.0339542798321
 20
506.2963143392047
 30
0.0
 10
154.0417774152271
 20
506.2834427693658
 30
0.0
 10
154.0469028156881
 20
506.2750030793301
 30
0.0
 10
154.0570773853091
 20
506.2582055792582
 30
0.0
 10
154.0621033241841
 20
506.2498827651106
 30
0.0
 10
154.0770414444021
 20
506.2250701103167
 30
0.0
 10
154.0867914916891
 20
506.2087602517659
 30
0.0
 10
154.0988081504401
 20
506.1884420727037
 30
0.0
 10
154.1012140370691
 20
506.18436309942
 30
0.0
 10
154.1040728196951
 20
506.1795031261935
 30
0.0
 10
154.1045450019102
 20
506.1786996615749
 30
0.0
 10
154.1050168600175
 20
506.1778964096897
 30
0.0
  0
SPLINE
  5
D8
330
1F
100
AcDbEntity
  8
0
  6
Continuous
 62
     8
370
    18
100
AcDbSpline
210
0.0
220
0.0
230
1.0
 70
     8
 71
     3
 72
     9
 73
     5
 74
     0
 42
0.00000001
 43
0.00000001
 40
0.0
 40
0.0
 40
0.0
 40
0.0
 40
0.4796725236756209
 40
1.0
 40
1.0
 40
1.0
 40
1.0
 10
189.9054119937004
 20
506.1768316906573
 30
0.0
 10
189.9204387696569
 20
506.2028907063963
 30
0.0
 10
189.9517659256118
 20
506.2572173864804
 30
0.0
 10
189.9865903433556
 20
506.3165971567531
 30
0.0
 10
190.0047104447547
 20
506.3474940827639
 30
0.0
  0
SPLINE
  5
D9
330
1F
100
AcDbEntity
  8
0
  6
Continuous
 62
     8
370
    18
100
AcDbSpline
210
0.0
220
0.0
230
1.0
 70
     8
 71
     3
 72
     9
 73
     5
 74
     0
 42
0.00000001
 43
0.00000001
 40
0.0
 40
0.0
 40
0.0
 40
0.0
 40
0.9000875101033808
 40
1.0
 40
1.0
 40
1.0
 40
1.0
 10
189.8432265470588
 20
506.0655451422674
 30
0.0
 10
189.8616627594117
 20
506.0989665302711
 30
0.0
 10
189.8821454482014
 20
506.1360977954298
 30
0.0
 10
189.9032985360274
 20
506.1731315554816
 30
0.0
 10
189.9054119937011
 20
506.1768316906586
 30
0.0
  0
LWPOLYLINE
  5
DA
330
1F
100
AcDbEntity
  8
0
  6
Continuous
 62
     8
370
    18
100
AcDbPolyline
 90
        3
 70
   128
 43
0.0
 10
189.7738845957
 20
505.9575002493
 10
189.8024281472
 20
506.0112165126
 10
189.8315797782
 20
506.0644867543
  0
LWPOLYLINE
  5
DB
330
1F
100
AcDbEntity
  8
0
  6
Continuous
 62
     8
370
    18
100
AcDbPolyline
 90
        3
 70
   128
 43
0.0
 10
189.7192229483
 20
505.8500942979
 10
189.7461570377
 20
505.9037887607
 10
189.7738845957
 20
505.9575002493
  0
SPLINE
  5
DC
330
1F
100
AcDbEntity
  8
0
  6
Continuous
 62
     8
370
    18
100
AcDbSpline
210
0.0
220
0.0
230
1.0
 70
     8
 71
     3
 72
     9
 73
     5
 74
     0
 42
0.00000001
 43
0.00000001
 40
0.0
 40
0.0
 40
0.0
 40
0.0
 40
0.521592163647868
 40
1.0
 40
1.0
 40
1.0
 40
1.0
 10
189.5805743238713
 20
505.5159258254708
 30
0.0
 10
189.6052215042353
 20
505.5744189988658
 30
0.0
 10
189.6524752439993
 20
505.6865625038332
 30
0.0
 10
189.7059744004934
 20
505.7972395511481
 30
0.0
 10
189.7315688161985
 20
505.8501883178877
 30
0.0
  0
LINE
  5
DD
330
1F
100
AcDbEntity
  8
0
  6
Continuous
 62
     8
370
    18
100
AcDbLine
 10
189.2866637409
 20
504.3879309403
 30
0.0
 11
189.5696720666
 21
505.5170598781
 31
0.0
  0
ARC
  5
DE
330
1F
100
AcDbEntity
  8
0
  6
Continuous
 62
     8
370
    18
100
AcDbCircle
 10
189.2221977019
 20
521.9717198118
 30
0.0
 40
1.725144280451032
100
AcDbArc
 50
63.1846021029
 51
98.3440939802
  0
LINE
  5
DF
330
1F
100
AcDbEntity
  8
0
  6
Continuous
 62
     8
370
    18
100
AcDbLine
 10
188.9718487612
 20
521.6987169352
 30
0.0
 11
188.9718487612
 21
523.6786024047
 31
0.0
  0
LINE
  5
E0
330
1F
100
AcDbEntity
  8
0
  6
Continuous
 62
     8
370
    18
100
AcDbLine
 10
155.0290898821
 20
523.6786024016
 30
0.0
 11
155.0290898821
 21
521.6987169352
 31
0.0
  0
ARC
  5
E1
330
1F
100
AcDbEntity
  8
0
  6
Continuous
 62
     8
370
    18
100
AcDbCircle
 10
154.7787409414
 20
521.9717198047
 30
0.0
 40
1.725144281379095
100
AcDbArc
 50
81.6559060272
 51
116.8153978848
  0
LINE
  5
E2
330
1F
100
AcDbEntity
  8
0
  6
Continuous
 62
     8
370
    18
100
AcDbLine
 10
155.0290898813
 20
523.6786024014
 30
0.0
 11
172.0004693216
 21
523.6786024048
 31
0.0
  0
LINE
  5
E3
330
1F
100
AcDbEntity
  8
0
  6
Continuous
 62
     8
370
    18
100
AcDbLine
 10
172.0004693216
 20
523.6786024017
 30
0.0
 11
188.971848762
 21
523.6786024
 31
0.0
  0
LINE
  5
E4
330
1F
100
AcDbEntity
  8
0
  6
Continuous
 62
     8
370
    18
100
AcDbLine
 10
155.029089882
 20
524.5399415751
 30
0.0
 11
155.0290898821
 21
523.6786024012
 31
0.0
  0
LINE
  5
E5
330
1F
100
AcDbEntity
  8
0
  6
Continuous
 62
     8
370
    18
100
AcDbLine
 10
188.9718487612
 20
523.6786024043
 30
0.0
 11
188.9718487612
 21
524.5399415751
 31
0.0
  0
LINE
  5
E6
330
1F
100
AcDbEntity
  8
0
  6
Continuous
 62
     8
370
    18
100
AcDbLine
 10
172.0004693216
 20
523.6786024048
 30
0.0
 11
172.0004693216
 21
524.5399415786
 31
0.0
  0
LINE
  5
E7
330
1F
100
AcDbEntity
  8
0
  6
Continuous
 62
     8
370
    18
100
AcDbLine
 10
195.1008618334
 20
373.7692795607
 30
0.0
 11
148.9008618334
 21
373.7692795607
 31
0.0
  0
LINE
  5
E8
330
1F
100
AcDbEntity
  8
0
  6
Continuous
 62
     8
370
    18
100
AcDbLine
 10
195.1008618334
 20
369.7692795601
 30
0.0
 11
195.1008618334
 21
373.7692795607
 31
0.0
  0
LINE
  5
E9
330
1F
100
AcDbEntity
  8
0
  6
Continuous
 62
     8
370
    18
100
AcDbLine
 10
148.9008618334
 20
373.7692795607
 30
0.0
 11
148.9008618334
 21
369.7692795601
 31
0.0
  0
LINE
  5
EA
330
1F
100
AcDbEntity
  8
0
  6
Continuous
 62
     8
370
    18
100
AcDbLine
 10
195.1008618334
 20
374.7692795607
 30
0.0
 11
195.1008618334
 21
373.7692795607
 31
0.0
  0
LINE
  5
EB
330
1F
100
AcDbEntity
  8
0
  6
Continuous
 62
     8
370
    18
100
AcDbLine
 10
148.9008618334
 20
374.7692795607
 30
0.0
 11
148.9008618334
 21
373.7692795607
 31
0.0
  0
LINE
  5
EC
330
1F
100
AcDbEntity
  8
0
  6
Continuous
 62
     8
370
    18
100
AcDbLine
 10
196.1008618334
 20
373.7692795607
 30
0.0
 11
195.1008618334
 21
373.7692795607
 31
0.0
  0
LINE
  5
ED
330
1F
100
AcDbEntity
  8
0
  6
Continuous
 62
     8
370
    18
100
AcDbLine
 10
147.9008618334
 20
373.7692795607
 30
0.0
 11
148.9008618334
 21
373.7692795607
 31
0.0
  0
LINE
  5
EE
330
1F
100
AcDbEntity
  8
0
  6
Continuous
 62
     8
370
    18
100
AcDbLine
 10
149.0008667141
 20
374.7692795607
 30
0.0
 11
150.8390119195
 21
375.1198939448
 31
0.0
  0
LINE
  5
EF
330
1F
100
AcDbEntity
  8
0
  6
Continuous
 62
     8
370
    18
100
AcDbLine
 10
154.0008668078
 20
379.769279734
 30
0.0
 11
154.0008668078
 21
390.7692796966
 31
0.0
  0
LINE
  5
F0
330
1F
100
AcDbEntity
  8
0
  6
Continuous
 62
     8
370
    18
100
AcDbLine
 10
154.000866338
 20
379.769279734
 30
0.0
 11
154.0008668078
 21
379.769279734
 31
0.0
  0
LINE
  5
F1
330
1F
100
AcDbEntity
  8
0
  6
Continuous
 62
     7
370
    25
100
AcDbLine
 10
154.0176712511
 20
286.2991619929
 30
0.0
 11
154.0029631145
 21
285.5142364613
 31
0.0
  0
SPLINE
  5
F2
330
1F
100
AcDbEntity
  8
0
  6
Continuous
 62
     7
370
    25
100
AcDbSpline
210
0.0
220
0.0
230
1.0
 70
     8
 71
     3
 72
    13
 73
     9
 74
     0
 42
0.00000001
 43
0.00000001
 40
0.0
 40
0.0
 40
0.0
 40
0.0
 40
0.1819688671826261
 40
0.3649168341721277
 40
0.5441416619674264
 40
0.7177721741981377
 40
0.8929497497647871
 40
1.0
 40
1.0
 40
1.0
 40
1.0
 10
154.0344211160228
 20
185.9431475871157
 30
0.0
 10
154.029724632814
 20
185.8748346220221
 30
0.0
 10
154.0203063965473
 20
185.7378411278006
 30
0.0
 10
154.0542708070024
 20
185.5268750719881
 30
0.0
 10
154.1213347636333
 20
185.3283192800653
 30
0.0
 10
154.2227366805832
 20
185.1509253635324
 30
0.0
 10
154.3318178226469
 20
185.0142197034816
 30
0.0
 10
154.4160667217856
 20
184.951266532397
 30
0.0
 10
154.4480226981647
 20
184.9273881189253
 30
0.0
  0
SPLINE
  5
F3
330
1F
100
AcDbEntity
  8
0
  6
Continuous
 62
     7
370
    25
100
AcDbSpline
210
0.0
220
0.0
230
1.0
 70
     8
 71
     3
 72
    13
 73
     9
 74
     0
 42
0.00000001
 43
0.00000001
 40
0.0
 40
0.0
 40
0.0
 40
0.0
 40
0.1091872211126007
 40
0.2839573644839203
 40
0.4571773531573972
 40
0.6359719879348001
 40
0.818475897614947
 40
1.0
 40
1.0
 40
1.0
 40
1.0
 10
189.5508976913993
 20
184.9257535006659
 30
0.0
 10
189.5835789385377
 20
184.9501532136898
 30
0.0
 10
189.6685713095395
 20
185.0136082419781
 30
0.0
 10
189.7782871350518
 20
185.1509495883181
 30
0.0
 10
189.8796612216437
 20
185.3283654895481
 30
0.0
 10
189.9467199782275
 20
185.5268993858537
 30
0.0
 10
189.9806730971865
 20
185.7378435891675
 30
0.0
 10
189.9712519520249
 20
185.8748198139116
 30
0.0
 10
189.9665540582854
 20
185.9431235856562
 30
0.0
  0
LINE
  5
F4
330
1F
100
AcDbEntity
  8
0
  6
Continuous
 62
     7
370
    25
100
AcDbLine
 10
189.9979755288
 20
285.5142364615
 30
0.0
 11
189.9832673922
 21
286.2991619929
 31
0.0
  0
ARC
  5
F5
330
1F
100
AcDbEntity
  8
0
  6
Continuous
 62
     7
370
    18
100
AcDbCircle
 10
154.7719461111
 20
350.5863687474
 30
0.0
 40
64.2910866588796
100
AcDbArc
 50
269.3124744848
 51
270.2291653905
  0
SPLINE
  5
F6
330
1F
100
AcDbEntity
  8
0
  6
Continuous
 62
     7
370
    18
100
AcDbSpline
210
0.0
220
0.0
230
1.0
 70
     8
 71
     3
 72
    23
 73
    19
 74
     0
 42
0.00000001
 43
0.00000001
 40
0.0
 40
0.0
 40
0.0
 40
0.0
 40
1.736884773864148
 40
3.473769547728295
 40
5.210654321592443
 40
6.947539095456591
 40
8.684423869320739
 40
10.42130864318489
 40
12.15819341704903
 40
13.89507819091318
 40
15.63196296477733
 40
17.36884773864148
 40
19.10573251250563
 40
20.84261728636977
 40
52.39352589075726
 40
83.94443449514475
 40
92.75701556081138
 40
101.569596626478
 40
101.569596626478
 40
101.569596626478
 40
101.569596626478
 10
155.0290549544899
 20
286.295796336974
 30
0.0
 10
155.0290548025226
 20
285.7245848577752
 30
0.0
 10
155.0290544743788
 20
284.5817690408063
 30
0.0
 10
155.029053946676
 20
282.8698893867154
 30
0.0
 10
155.0290534206511
 20
281.157407280939
 30
0.0
 10
155.0290529334465
 20
279.4451376964029
 30
0.0
 10
155.0290525222221
 20
277.7328824425638
 30
0.0
 10
155.0290522241233
 20
276.0207289825078
 30
0.0
 10
155.0290520763077
 20
274.3086311700845
 30
0.0
 10
155.0290521159244
 20
272.5967876324002
 30
0.0
 10
155.0290523801309
 20
270.8845474540918
 30
0.0
 10
155.0290529060733
 20
269.172237035239
 30
0.0
 10
155.029053730905
 20
267.459942154903
 30
0.0
 10
155.0290615340338
 20
255.9519396756504
 30
0.0
 10
155.0291204796261
 20
234.5462835096314
 30
0.0
 10
155.0291491891013
 20
210.8878483994902
 30
0.0
 10
155.0290958180248
 20
194.6521142199344
 30
0.0
 10
155.0290691753909
 20
188.8349031105915
 30
0.0
 10
155.029054953406
 20
185.9259359100319
 30
0.0
  0
SPLINE
  5
F7
330
1F
100
AcDbEntity
  8
0
  6
Continuous
 62
     7
370
    18
100
AcDbSpline
210
0.0
220
0.0
230
1.0
 70
     8
 71
     3
 72
    10
 73
     6
 74
     0
 42
0.00000001
 43
0.00000001
 40
0.0
 40
0.0
 40
0.0
 40
0.0
 40
0.5
 40
0.5
 40
1.0
 40
1.0
 40
1.0
 40
1.0
 10
154.3684956780357
 20
185.8868842340318
 30
0.0
 10
154.4655964520619
 20
185.9001131950106
 30
0.0
 10
154.5770908698365
 20
185.9101963357584
 30
0.0
 10
154.8048762033733
 20
185.9230875835736
 30
0.0
 10
154.920753032046
 20
185.9259359100833
 30
0.0
 10
155.0290898801959
 20
185.9259359100319
 30
0.0
  0
SPLINE
  5
F8
330
1F
100
AcDbEntity
  8
0
  6
Continuous
 62
     7
370
    18
100
AcDbSpline
210
0.0
220
0.0
230
1.0
 70
     8
 71
     3
 72
     8
 73
     4
 74
     0
 42
0.00000001
 43
0.00000001
 40
0.0
 40
0.0
 40
0.0
 40
0.0
 40
1.0
 40
1.0
 40
1.0
 40
1.0
 10
154.0004983344316
 20
286.2999106702442
 30
0.0
 10
154.105403054426
 20
252.8224831422368
 30
0.0
 10
154.2250617711797
 20
219.3499204781248
 30
0.0
 10
154.3684956780357
 20
185.8868842340318
 30
0.0
  0
LINE
  5
F9
330
1F
100
AcDbEntity
  8
0
  6
Continuous
 62
     7
370
    18
100
AcDbLine
 10
172.0004693216
 20
185.9259842784
 30
0.0
 11
188.9718138344
 21
185.9259842779
 31
0.0
  0
LINE
  5
FA
330
1F
100
AcDbEntity
  8
0
  6
Continuous
 62
     7
370
    18
100
AcDbLine
 10
155.0290549534
 20
185.9259842779
 30
0.0
 11
172.0004693216
 21
185.9259842784
 31
0.0
  0
LINE
  5
FB
330
1F
100
AcDbEntity
  8
0
  6
Continuous
 62
     7
370
    18
100
AcDbLine
 10
172.0004693218
 20
286.295796337
 30
0.0
 11
155.0290549545
 21
286.295796337
 31
0.0
  0
LINE
  5
FC
330
1F
100
AcDbEntity
  8
0
  6
Continuous
 62
     7
370
    18
100
AcDbLine
 10
188.9718138347
 20
286.295796337
 30
0.0
 11
172.0004693218
 21
286.295796337
 31
0.0
  0
LINE
  5
FD
330
1F
100
AcDbEntity
  8
0
  6
Continuous
 62
     7
370
    18
100
AcDbLine
 10
188.9718138344
 20
185.92593591
 30
0.0
 11
188.9718138347
 21
286.295796337
 31
0.0
  0
SPLINE
  5
FE
330
1F
100
AcDbEntity
  8
0
  6
Continuous
 62
     7
370
    25
100
AcDbSpline
210
0.0
220
0.0
230
1.0
 70
     8
 71
     3
 72
     9
 73
     5
 74
     0
 42
0.00000001
 43
0.00000001
 40
0.0
 40
0.0
 40
0.0
 40
0.0
 40
0.9129139648748541
 40
1.0
 40
1.0
 40
1.0
 40
1.0
 10
154.0004983344317
 20
185.7586835412982
 30
0.0
 10
154.0010461746568
 20
185.7701512193087
 30
0.0
 10
154.0016462752646
 20
185.7827128389704
 30
0.0
 10
154.0256467670606
 20
185.7944777747314
 30
0.0
 10
154.0277368747321
 20
185.7955023363404
 30
0.0
  0
SPLINE
  5
FF
330
1F
100
AcDbEntity
  8
0
  6
Continuous
 62
     7
370
    18
100
AcDbSpline
210
0.0
220
0.0
230
1.0
 70
     8
 71
     3
 72
    16
 73
    12
 74
     0
 42
0.00000001
 43
0.00000001
 40
0.0
 40
0.0
 40
0.0
 40
0.0
 40
0.1445578844925662
 40
0.282018332661735
 40
0.4115521941844035
 40
0.5325416620284497
 40
0.6445656509225068
 40
0.7473756175406182
 40
0.8408661968056939
 40
0.9250443774193391
 40
1.0
 40
1.0
 40
1.0
 40
1.0
 10
189.6325894192898
 20
185.8869126454633
 30
0.0
 10
189.6054424879149
 20
185.8904190606252
 30
0.0
 10
189.5524814726781
 20
185.897259734595
 30
0.0
 10
189.4680410988722
 20
185.9057419347256
 30
0.0
 10
189.3847080268305
 20
185.9125658456823
 30
0.0
 10
189.3037136085789
 20
185.9177289598789
 30
0.0
 10
189.2266249834907
 20
185.9214153700685
 30
0.0
 10
189.1544894049252
 20
185.9238383895945
 30
0.0
 10
189.0880672738394
 20
185.9252353916571
 30
0.0
 10
189.0278283822338
 20
185.9258980261756
 30
0.0
 10
188.9897734821981
 20
185.9259566603238
 30
0.0
 10
188.9718487630803
 20
185.9259842783346
 30
0.0
  0
LINE
  5
100
330
1F
100
AcDbEntity
  8
0
  6
Continuous
 62
     7
370
    18
100
AcDbLine
 10
189.9984970106
 20
285.769655585
 30
0.0
 11
189.6324429652
 21
185.886884234
 31
0.0
  0
SPLINE
  5
101
330
1F
100
AcDbEntity
  8
0
  6
Continuous
 62
     7
370
    18
100
AcDbSpline
210
0.0
220
0.0
230
1.0
 70
     8
 71
     3
 72
    20
 73
    16
 74
     0
 42
0.00000001
 43
0.00000001
 40
0.0
 40
0.0
 40
0.0
 40
0.0
 40
0.2499999999999989
 40
0.2499999999999989
 40
0.4999999999999978
 40
0.4999999999999978
 40
0.7499999999999967
 40
0.7499999999999967
 40
0.8750000000000008
 40
0.8750000000000008
 40
0.9375000000000292
 40
0.9375000000000292
 40
0.9687500000000147
 40
0.9687500000000147
 40
1.0
 40
1.0
 40
1.0
 40
1.0
 10
188.971848761217
 20
286.2957963369752
 30
0.0
 10
189.0930694374122
 20
286.2957963369812
 30
0.0
 10
189.2238513850671
 20
286.2958847076762
 30
0.0
 10
189.4770843500344
 20
286.296285714962
 30
0.0
 10
189.598750322123
 20
286.2965997105392
 30
0.0
 10
189.7995953145784
 20
286.2974030840821
 30
0.0
 10
189.8780948363039
 20
286.2978897440751
 30
0.0
 10
189.9532843024652
 20
286.2986494368868
 30
0.0
 10
189.9714845129121
 20
286.298907302177
 30
0.0
 10
189.9891602686877
 20
286.2992893693298
 30
0.0
 10
189.9934597196813
 20
286.2994159586536
 30
0.0
 10
189.9976894804435
 20
286.2996034893911
 30
0.0
 10
189.9987299867149
 20
286.2996656095117
 30
0.0
 10
190.0001053896239
 20
286.2997888950176
 30
0.0
 10
190.0004403069812
 20
286.2998433496313
 30
0.0
 10
190.0004403069812
 20
286.2999106702441
 30
0.0
  0
LINE
  5
102
330
1F
100
AcDbEntity
  8
0
  6
Continuous
 62
     7
370
    25
100
AcDbLine
 10
154.0004983363
 20
286.184180481
 30
0.0
 11
154.0004983363
 21
185.7586835413
 31
0.0
  0
LINE
  5
103
330
1F
100
AcDbEntity
  8
0
  6
Continuous
 62
     7
370
    25
100
AcDbLine
 10
154.0004983344
 20
286.3006606151
 30
0.0
 11
154.0004983344
 21
286.3079106058
 31
0.0
  0
LINE
  5
104
330
1F
100
AcDbEntity
  8
0
  6
Continuous
 62
     7
370
    25
100
AcDbLine
 10
190.000440307
 20
286.2999106702
 30
0.0
 11
190.000440307
 21
286.3059156172
 31
0.0
  0
LINE
  5
105
330
1F
100
AcDbEntity
  8
0
  6
Continuous
 62
     7
370
    25
100
AcDbLine
 10
190.000440307
 20
286.0677203465
 30
0.0
 11
190.000440307
 21
185.7586835413
 31
0.0
  0
LINE
  5
106
330
1F
100
AcDbEntity
  8
0
  6
Continuous
 62
     7
370
    25
100
AcDbLine
 10
155.0291094747
 20
184.4173681638
 30
0.0
 11
188.9717363381
 21
184.4173954442
 31
0.0
  0
SPLINE
  5
107
330
1F
100
AcDbEntity
  8
0
  6
Continuous
 62
     7
370
    25
100
AcDbSpline
210
0.0
220
0.0
230
1.0
 70
     8
 71
     3
 72
    14
 73
    10
 74
     0
 42
0.00000001
 43
0.00000001
 40
0.0
 40
0.0
 40
0.0
 40
0.0
 40
0.25
 40
0.25
 40
0.5
 40
0.5
 40
0.75
 40
0.75
 40
1.0
 40
1.0
 40
1.0
 40
1.0
 10
188.9717363361304
 20
184.4173954503822
 30
0.0
 10
189.1064009997732
 20
184.4170025636855
 30
0.0
 10
189.241015570676
 20
184.4430337563646
 30
0.0
 10
189.489847972839
 20
184.5439623913217
 30
0.0
 10
189.6039678344023
 20
184.6188197982825
 30
0.0
 10
189.7944084205602
 20
184.8059770942386
 30
0.0
 10
189.8706541653437
 20
184.9182029981749
 30
0.0
 10
189.9737005822284
 20
185.1629713741785
 30
0.0
 10
190.0004606831413
 20
185.2954171786903
 30
0.0
 10
190.0004402952191
 20
185.4279112968929
 30
0.0
  0
LINE
  5
108
330
1F
100
AcDbEntity
  8
0
  6
Continuous
 62
     7
370
    25
100
AcDbLine
 10
190.000440307
 20
185.7587319115
 30
0.0
 11
190.000440307
 21
185.4261490822
 31
0.0
  0
SPLINE
  5
109
330
1F
100
AcDbEntity
  8
0
  6
Continuous
 62
     7
370
    25
100
AcDbSpline
210
0.0
220
0.0
230
1.0
 70
     8
 71
     3
 72
    14
 73
    10
 74
     0
 42
0.00000001
 43
0.00000001
 40
0.0
 40
0.0
 40
0.0
 40
0.0
 40
0.25
 40
0.25
 40
0.5
 40
0.5
 40
0.75
 40
0.75
 40
1.0
 40
1.0
 40
1.0
 40
1.0
 10
154.0004983526795
 20
185.4279875815782
 30
0.0
 10
154.0004742920038
 20
185.2954924666281
 30
0.0
 10
154.0272285482727
 20
185.1630449344372
 30
0.0
 10
154.130260129373
 20
184.9182693792878
 30
0.0
 10
154.2064968953366
 20
184.8060380062916
 30
0.0
 10
154.3969186563922
 20
184.6188645542451
 30
0.0
 10
154.5110286910601
 20
184.5439964498175
 30
0.0
 10
154.7598434404146
 20
184.4430409517851
 30
0.0
 10
154.8944502080018
 20
184.4169935926991
 30
0.0
 10
155.0291094747671
 20
184.4173681641279
 30
0.0
  0
LINE
  5
10A
330
1F
100
AcDbEntity
  8
0
  6
Continuous
 62
     7
370
    25
100
AcDbLine
 10
154.0004983363
 20
185.4261490822
 30
0.0
 11
154.0004983363
 21
185.7587319115
 31
0.0
  0
SPLINE
  5
10B
330
1F
100
AcDbEntity
  8
0
  6
Continuous
 62
     7
370
    25
100
AcDbSpline
210
0.0
220
0.0
230
1.0
 70
     8
 71
     3
 72
    12
 73
     8
 74
     0
 42
0.00000001
 43
0.00000001
 40
0.0
 40
0.0
 40
0.0
 40
0.0
 40
0.5000000000000078
 40
0.5000000000000078
 40
0.7500000000000039
 40
0.7500000000000039
 40
1.0
 40
1.0
 40
1.0
 40
1.0
 10
154.7633768602981
 20
287.3131350571691
 30
0.0
 10
154.5529589443981
 20
287.2564448594316
 30
0.0
 10
154.3612438041487
 20
287.1314102830041
 30
0.0
 10
154.1552391797618
 20
286.8716611082385
 30
0.0
 10
154.099562884825
 20
286.7731061340576
 30
0.0
 10
154.0217521482685
 20
286.5553836148479
 30
0.0
 10
154.0004996363208
 20
286.4385438714085
 30
0.0
 10
154.0004983363349
 20
286.3172736878179
 30
0.0
  0
ELLIPSE
  5
10C
330
1F
100
AcDbEntity
  8
0
  6
Continuous
 62
     7
370
    25
100
AcDbEllipse
 10
155.0290898816
 20
286.319841375
 30
0.0
 11
1.028591545345307
 21
-2.057731762761250E-9
 31
0.0
210
0.0
220
0.0
230
1.0
 40
0.9996126348
 41
1.57079632838391
 42
1.83208640229204
  0
LINE
  5
10D
330
1F
100
AcDbEntity
  8
0
  6
Continuous
 62
     7
370
    25
100
AcDbLine
 10
155.0290898821
 20
287.3480344798
 30
0.0
 11
188.9718487605
 21
287.3480344798
 31
0.0
  0
SPLINE
  5
10E
330
1F
100
AcDbEntity
  8
0
  6
Continuous
 62
     7
370
    25
100
AcDbSpline
210
0.0
220
0.0
230
1.0
 70
     8
 71
     3
 72
    10
 73
     6
 74
     0
 42
0.00000001
 43
0.00000001
 40
0.0
 40
0.0
 40
0.0
 40
0.0
 40
0.5
 40
0.5
 40
1.0
 40
1.0
 40
1.0
 40
1.0
 10
190.0004401722469
 20
286.3177890404446
 30
0.0
 10
190.0003173442274
 20
286.5579152543825
 30
0.0
 10
189.9140826133305
 20
286.7856653992512
 30
0.0
 10
189.6391547212739
 20
287.1318617822079
 30
0.0
 10
189.4470444799113
 20
287.2567308054755
 30
0.0
 10
189.2374099385129
 20
287.3131756327386
 30
0.0
  0
ELLIPSE
  5
10F
330
1F
100
AcDbEntity
  8
0
  6
Continuous
 62
     7
370
    25
100
AcDbEllipse
 10
188.9718487616
 20
286.319841375
 30
0.0
 11
1.028591545345307
 21
2.057618075923529E-9
 31
0.0
210
0.0
220
0.0
230
1.0
 40
0.9996126348
 41
1.309659058651284
 42
1.570796325925384
  0
ARC
  5
110
330
1F
100
AcDbEntity
  8
0
  6
Continuous
 62
     7
370
    25
100
AcDbCircle
 10
155.000906243
 20
286.3193152042
 30
0.0
 40
1.000000000287685
100
AcDbArc
 50
89.99999999
 51
179.9999999847
  0
LINE
  5
111
330
1F
100
AcDbEntity
  8
0
  6
Continuous
 62
     7
370
    25
100
AcDbLine
 10
154.0009062433
 20
128.3193152044
 30
0.0
 11
154.0009062433
 21
185.4259684563
 31
0.0
  0
LINE
  5
112
330
1F
100
AcDbEntity
  8
0
  6
Continuous
 62
     7
370
    25
100
AcDbLine
 10
190.0009084296
 20
128.3193152044
 30
0.0
 11
190.0009084296
 21
185.6422043475
 31
0.0
  0
LINE
  5
113
330
1F
100
AcDbEntity
  8
0
  6
Continuous
 62
     7
370
    25
100
AcDbLine
 10
189.0009084296
 20
127.3193152044
 30
0.0
 11
155.0009062433
 21
127.3193152044
 31
0.0
  0
SPLINE
  5
114
330
1F
100
AcDbEntity
  8
0
  6
Continuous
 62
     7
370
    25
100
AcDbSpline
210
0.0
220
0.0
230
1.0
 70
     8
 71
     3
 72
    10
 73
     6
 74
     0
 42
0.00000001
 43
0.00000001
 40
0.0
 40
0.0
 40
0.0
 40
0.0
 40
0.5
 40
0.5
 40
1.0
 40
1.0
 40
1.0
 40
1.0
 10
155.0009062433045
 20
127.3193152044278
 30
0.0
 10
154.7391068555053
 20
127.3193152044278
 30
0.0
 10
154.4789195845412
 20
127.4270883008179
 30
0.0
 10
154.1086793396947
 20
127.7973285456645
 30
0.0
 10
154.0009062433045
 20
128.0575158166286
 30
0.0
 10
154.0009062433045
 20
128.3193152044278
 30
0.0
  0
SPLINE
  5
115
330
1F
100
AcDbEntity
  8
0
  6
Continuous
 62
     7
370
    25
100
AcDbSpline
210
0.0
220
0.0
230
1.0
 70
     8
 71
     3
 72
    10
 73
     6
 74
     0
 42
0.00000001
 43
0.00000001
 40
0.0
 40
0.0
 40
0.0
 40
0.0
 40
0.5
 40
0.5
 40
1.0
 40
1.0
 40
1.0
 40
1.0
 10
189.0009084296866
 20
127.3193152044277
 30
0.0
 10
189.2627078174687
 20
127.3193152044545
 30
0.0
 10
189.5228950884052
 20
127.4270883008566
 30
0.0
 10
189.8931353332086
 20
127.797328545698
 30
0.0
 10
190.0009084295841
 20
128.0575158166456
 30
0.0
 10
190.0009084295841
 20
128.3193152044277
 30
0.0
  0
ARC
  5
116
330
1F
100
AcDbEntity
  8
0
  6
Continuous
 62
     7
370
    25
100
AcDbCircle
 10
148.9008618334
 20
292.4193142015
 30
0.0
 40
1.0
100
AcDbArc
 50
90.0
 51
180.0
  0
LINE
  5
117
330
1F
100
AcDbEntity
  8
0
  6
Continuous
 62
     7
370
    25
100
AcDbLine
 10
148.9008618334
 20
293.4193142015
 30
0.0
 11
195.1008618334
 21
293.4193142015
 31
0.0
  0
LINE
  5
118
330
1F
100
AcDbEntity
  8
0
  6
Continuous
 62
     7
370
    25
100
AcDbLine
 10
147.9008618334
 20
246.2193142012
 30
0.0
 11
147.9008618334
 21
292.4193142015
 31
0.0
  0
ARC
  5
119
330
1F
100
AcDbEntity
  8
0
  6
Continuous
 62
     7
370
    25
100
AcDbCircle
 10
195.1008618334
 20
292.4193142015
 30
0.0
 40
1.0
100
AcDbArc
 50
0.0
 51
90.0
  0
LINE
  5
11A
330
1F
100
AcDbEntity
  8
0
  6
Continuous
 62
     7
370
    25
100
AcDbLine
 10
195.1008618334
 20
245.2193142012
 30
0.0
 11
190.0009084296
 21
245.2193142012
 31
0.0
  0
LINE
  5
11B
330
1F
100
AcDbEntity
  8
0
  6
Continuous
 62
     7
370
    25
100
AcDbLine
 10
154.0004983363
 20
245.2193142012
 30
0.0
 11
148.9008618334
 21
245.2193142012
 31
0.0
  0
ARC
  5
11C
330
1F
100
AcDbEntity
  8
0
  6
Continuous
 62
     7
370
    25
100
AcDbCircle
 10
148.9008618334
 20
246.2193142012
 30
0.0
 40
1.0
100
AcDbArc
 50
180.0
 51
270.0
  0
LINE
  5
11D
330
1F
100
AcDbEntity
  8
0
  6
Continuous
 62
     7
370
    25
100
AcDbLine
 10
196.1008618334
 20
292.4193142015
 30
0.0
 11
196.1008618334
 21
246.2193142012
 31
0.0
  0
ARC
  5
11E
330
1F
100
AcDbEntity
  8
0
  6
Continuous
 62
     7
370
    25
100
AcDbCircle
 10
195.1008618334
 20
246.2193142012
 30
0.0
 40
1.0
100
AcDbArc
 50
270.0
 51
0.0
  0
LINE
  5
11F
330
1F
100
AcDbEntity
  8
0
  6
Continuous
 62
     8
370
    18
100
AcDbLine
 10
155.0290898821
 20
185.9259842793
 30
0.0
 11
155.0290898821
 21
184.7438293498
 31
0.0
  0
LINE
  5
120
330
1F
100
AcDbEntity
  8
0
  6
Continuous
 62
     8
370
    18
100
AcDbLine
 10
172.0004693216
 20
184.7438293472
 30
0.0
 11
172.0004693216
 21
185.925984279
 31
0.0
  0
LINE
  5
121
330
1F
100
AcDbEntity
  8
0
  6
Continuous
 62
     8
370
    18
100
AcDbLine
 10
155.0290898813
 20
184.7438293484
 30
0.0
 11
172.0004693216
 21
184.7438293472
 31
0.0
  0
SPLINE
  5
122
330
1F
100
AcDbEntity
  8
0
  6
Continuous
 62
     8
370
    18
100
AcDbSpline
210
0.0
220
0.0
230
1.0
 70
     8
 71
     3
 72
    10
 73
     6
 74
     0
 42
0.00000001
 43
0.00000001
 40
0.0
 40
0.0
 40
0.0
 40
0.0
 40
0.3024767208865317
 40
0.6484701272787396
 40
1.0
 40
1.0
 40
1.0
 40
1.0
 10
154.0277368747321
 20
185.7955023363404
 30
0.0
 10
154.0457392144575
 20
185.8060834865001
 30
0.0
 10
154.0843338524146
 20
185.8287680744934
 30
0.0
 10
154.1996921531836
 20
185.8604726068333
 30
0.0
 10
154.3119308781469
 20
185.8780338951038
 30
0.0
 10
154.3684956780356
 20
185.8868842340321
 30
0.0
  0
ARC
  5
123
330
1F
100
AcDbEntity
  8
0
  6
Continuous
 62
     8
370
    18
100
AcDbCircle
 10
155.0222909357
 20
185.7656225607
 30
0.0
 40
1.021815833324219
100
AcDbArc
 50
180.3863789842
 51
270.3812367639
  0
LINE
  5
124
330
1F
100
AcDbEntity
  8
0
  6
Continuous
 62
     8
370
    18
100
AcDbLine
 10
188.9718487612
 20
184.7438293503
 30
0.0
 11
188.9718487612
 21
185.9259842797
 31
0.0
  0
SPLINE
  5
125
330
1F
100
AcDbEntity
  8
0
  6
Continuous
 62
     8
370
    18
100
AcDbSpline
210
0.0
220
0.0
230
1.0
 70
     8
 71
     3
 72
    13
 73
     9
 74
     0
 42
0.00000001
 43
0.00000001
 40
0.0
 40
0.0
 40
0.0
 40
0.0
 40
0.1022359318077744
 40
0.2311188623515433
 40
0.3868899204360742
 40
0.5687097487423806
 40
0.7741023563612888
 40
1.0
 40
1.0
 40
1.0
 40
1.0
 10
190.0004402636961
 20
185.7586835413001
 30
0.0
 10
189.9996471614516
 20
185.7635322460784
 30
0.0
 10
189.9978542410445
 20
185.7744934327415
 30
0.0
 10
189.9804201643546
 20
185.7921618269143
 30
0.0
 10
189.9434430006065
 20
185.8136148573079
 30
0.0
 10
189.8770282311167
 20
185.8379796273927
 30
0.0
 10
189.7763479596494
 20
185.864214381834
 30
0.0
 10
189.6820040779777
 20
185.8791104867376
 30
0.0
 10
189.6325894192898
 20
185.8869126454633
 30
0.0
  0
ARC
  5
126
330
1F
100
AcDbEntity
  8
0
  6
Continuous
 62
     8
370
    18
100
AcDbCircle
 10
188.9786477075
 20
185.7656225617
 30
0.0
 40
1.021815833319957
100
AcDbArc
 50
269.6187632359
 51
359.6136210311
  0
LINE
  5
127
330
1F
100
AcDbEntity
  8
0
  6
Continuous
 62
     8
370
    18
100
AcDbLine
 10
172.0004693216
 20
184.7438293467
 30
0.0
 11
188.971848762
 21
184.7438293762
 31
0.0
  0
LINE
  5
128
330
1F
100
AcDbEntity
  8
0
  6
Continuous
 62
     8
370
    18
100
AcDbLine
 10
154.0004983344
 20
286.2999106702
 30
0.0
 11
154.0004983344
 21
286.3006606151
 31
0.0
  0
LINE
  5
129
330
1F
100
AcDbEntity
  8
0
  6
Continuous
 62
     8
370
    18
100
AcDbLine
 10
155.0290898821
 20
184.7438293469
 30
0.0
 11
155.0290898821
 21
184.4175511933
 31
0.0
  0
LINE
  5
12A
330
1F
100
AcDbEntity
  8
0
  6
Continuous
 62
     8
370
    18
100
AcDbLine
 10
188.9718487612
 20
184.4175511933
 30
0.0
 11
188.9718487612
 21
184.7438293474
 31
0.0
  0
SPLINE
  5
12B
330
1F
100
AcDbEntity
  8
0
  6
Continuous
 62
     8
370
    18
100
AcDbSpline
210
0.0
220
0.0
230
1.0
 70
     8
 71
     3
 72
    14
 73
    10
 74
     0
 42
0.00000001
 43
0.00000001
 40
0.0
 40
0.0
 40
0.0
 40
0.0
 40
0.25
 40
0.25
 40
0.5
 40
0.5
 40
0.75
 40
0.75
 40
1.0
 40
1.0
 40
1.0
 40
1.0
 10
154.0004983374309
 20
286.3079106057792
 30
0.0
 10
154.0004918519974
 20
286.4425559755273
 30
0.0
 10
154.0272585158604
 20
286.5771496511532
 30
0.0
 10
154.1303034571904
 20
286.8259455765667
 30
0.0
 10
154.2065411859182
 20
286.9400499238185
 30
0.0
 10
154.3969554315316
 20
287.130471817849
 30
0.0
 10
154.5110570193866
 20
287.2067144325875
 30
0.0
 10
154.7598499715689
 20
287.309770533048
 30
0.0
 10
154.8944434345304
 20
287.3365434656396
 30
0.0
 10
155.0290898815933
 20
287.3365434656383
 30
0.0
  0
LINE
  5
12C
330
1F
100
AcDbEntity
  8
0
  6
Continuous
 62
     8
370
    18
100
AcDbLine
 10
155.0290898818
 20
287.3284939871
 30
0.0
 11
155.0290898816
 21
287.3364939231
 31
0.0
  0
LINE
  5
12D
330
1F
100
AcDbEntity
  8
0
  6
Continuous
 62
     8
370
    18
100
AcDbLine
 10
155.0290898821
 20
286.295796337
 30
0.0
 11
155.0290898818
 21
287.3284939871
 31
0.0
  0
LINE
  5
12E
330
1F
100
AcDbEntity
  8
0
  6
Continuous
 62
     8
370
    18
100
AcDbLine
 10
172.0004693218
 20
287.3284939871
 30
0.0
 11
155.0290898818
 21
287.3284939871
 31
0.0
  0
LINE
  5
12F
330
1F
100
AcDbEntity
  8
0
  6
Continuous
 62
     8
370
    18
100
AcDbLine
 10
172.0004693218
 20
286.295796337
 30
0.0
 11
172.0004693218
 21
287.3284939871
 31
0.0
  0
LINE
  5
130
330
1F
100
AcDbEntity
  8
0
  6
Continuous
 62
     8
370
    18
100
AcDbLine
 10
188.9718487617
 20
286.295796337
 30
0.0
 11
188.9718487617
 21
287.3284939871
 31
0.0
  0
LINE
  5
131
330
1F
100
AcDbEntity
  8
0
  6
Continuous
 62
     8
370
    18
100
AcDbLine
 10
188.9718487617
 20
287.3284939871
 30
0.0
 11
188.9718487617
 21
287.3364939231
 31
0.0
  0
SPLINE
  5
132
330
1F
100
AcDbEntity
  8
0
  6
Continuous
 62
     8
370
    18
100
AcDbSpline
210
0.0
220
0.0
230
1.0
 70
     8
 71
     3
 72
    10
 73
     6
 74
     0
 42
0.00000001
 43
0.00000001
 40
0.0
 40
0.0
 40
0.0
 40
0.0
 40
0.5
 40
0.5
 40
1.0
 40
1.0
 40
1.0
 40
1.0
 10
190.0004403069812
 20
286.3079106057791
 30
0.0
 10
190.0021014791193
 20
286.5778007166445
 30
0.0
 10
189.8895643647746
 20
286.8448728966838
 30
0.0
 10
189.5093288294075
 20
287.2258156193938
 30
0.0
 10
189.2412258605205
 20
287.3366960158116
 30
0.0
 10
188.9718487616833
 20
287.3364939231419
 30
0.0
  0
LINE
  5
133
330
1F
100
AcDbEntity
  8
0
  6
Continuous
 62
     8
370
    18
100
AcDbLine
 10
172.0004693218
 20
287.3284939871
 30
0.0
 11
188.9718487617
 21
287.3284939871
 31
0.0
  0
LINE
  5
134
330
1F
100
AcDbEntity
  8
0
  6
Continuous
 62
     8
370
    18
100
AcDbLine
 10
172.0004693216
 20
287.3284939871
 30
0.0
 11
172.0004693216
 21
287.3364939231
 31
0.0
  0
LINE
  5
135
330
1F
100
AcDbEntity
  8
0
  6
Continuous
 62
     8
370
    18
100
AcDbLine
 10
172.0004693216
 20
287.3365422924
 30
0.0
 11
188.9718487608
 21
287.3365422924
 31
0.0
  0
LINE
  5
136
330
1F
100
AcDbEntity
  8
0
  6
Continuous
 62
     8
370
    18
100
AcDbLine
 10
172.0004693216
 20
287.3364939231
 30
0.0
 11
155.0290898816
 21
287.3364939231
 31
0.0
  0
LINE
  5
137
330
1F
100
AcDbEntity
  8
0
  6
Continuous
 62
     8
370
    18
100
AcDbLine
 10
155.0290898821
 20
287.3480344798
 30
0.0
 11
155.0290898832
 21
287.3365422929
 31
0.0
  0
LINE
  5
138
330
1F
100
AcDbEntity
  8
0
  6
Continuous
 62
     8
370
    18
100
AcDbLine
 10
188.9718487608
 20
287.3365422932
 30
0.0
 11
188.9718487605
 21
287.3480344798
 31
0.0
  0
LINE
  5
139
330
1F
100
AcDbEntity
  8
0
  6
Continuous
 62
     8
370
    18
100
AcDbLine
 10
189.0009084295
 20
128.3193152044
 30
0.0
 11
189.0009084295
 21
184.4173954677
 31
0.0
  0
LINE
  5
13A
330
1F
100
AcDbEntity
  8
0
  6
Continuous
 62
     8
370
    18
100
AcDbLine
 10
155.0009062431
 20
128.3193152044
 30
0.0
 11
189.0009084295
 21
128.3193152044
 31
0.0
  0
LINE
  5
13B
330
1F
100
AcDbEntity
  8
0
  6
Continuous
 62
     8
370
    18
100
AcDbLine
 10
155.0009062431
 20
128.3193152044
 30
0.0
 11
155.0009062431
 21
184.4173681411
 31
0.0
  0
SPLINE
  5
13C
330
1F
100
AcDbEntity
  8
0
  6
Continuous
 62
     8
370
    18
100
AcDbSpline
210
0.0
220
0.0
230
1.0
 70
    24
 71
     3
 72
    14
 73
    10
 74
     0
 42
0.00000001
 43
0.00000001
 40
0.0
 40
0.0
 40
0.0
 40
0.0
 40
0.25
 40
0.25
 40
0.5
 40
0.5
 40
0.75
 40
0.75
 40
1.0
 40
1.0
 40
1.0
 40
1.0
 10
154.0009062430278
 20
128.3193152044278
 30
0.0
 10
154.0009062428553
 20
128.3193152044581
 30
0.0
 10
154.0223849815149
 20
128.3193152044852
 30
0.0
 10
154.119850901575
 20
128.3193152045234
 30
0.0
 10
154.1961683883579
 20
128.3193152045342
 30
0.0
 10
154.3914305342945
 20
128.3193152045342
 30
0.0
 10
154.5097145826867
 20
128.3193152045234
 30
0.0
 10
154.7559084836567
 20
128.3193152044852
 30
0.0
 10
154.8830551127463
 20
128.3193152044581
 30
0.0
 10
155.0009062430277
 20
128.3193152044278
 30
0.0
  0
SPLINE
  5
13D
330
1F
100
AcDbEntity
  8
0
  6
Continuous
 62
     8
370
    18
100
AcDbSpline
210
0.0
220
0.0
230
1.0
 70
     8
 71
     3
 72
    14
 73
    10
 74
     0
 42
0.00000001
 43
0.00000001
 40
0.0
 40
0.0
 40
0.0
 40
0.0
 40
0.25
 40
0.25
 40
0.5
 40
0.5
 40
0.75
 40
0.75
 40
1.0
 40
1.0
 40
1.0
 40
1.0
 10
189.0009084293075
 20
128.3193152044277
 30
0.0
 10
189.1187595594751
 20
128.3193152043598
 30
0.0
 10
189.2459061883938
 20
128.3193152042988
 30
0.0
 10
189.4921000890266
 20
128.3193152042132
 30
0.0
 10
189.6103841372594
 20
128.319315204189
 30
0.0
 10
189.8056462830739
 20
128.319315204189
 30
0.0
 10
189.8819637699001
 20
128.3193152042132
 30
0.0
 10
189.9794296902688
 20
128.3193152042989
 30
0.0
 10
190.0009084291883
 20
128.3193152043598
 30
0.0
 10
190.0009084293075
 20
128.3193152044277
 30
0.0
  0
SPLINE
  5
13E
330
1F
100
AcDbEntity
  8
0
  6
Continuous
 62
     8
370
    18
100
AcDbSpline
210
0.0
220
0.0
230
1.0
 70
    24
 71
     3
 72
    10
 73
     6
 74
     0
 42
0.00000001
 43
0.00000001
 40
0.0
 40
0.0
 40
0.0
 40
0.0
 40
0.5
 40
0.5
 40
1.0
 40
1.0
 40
1.0
 40
1.0
 10
155.0009062433045
 20
127.3193152044278
 30
0.0
 10
155.0009062432484
 20
127.3193152044287
 30
0.0
 10
155.0009062431927
 20
127.4270883008193
 30
0.0
 10
155.0009062431134
 20
127.7973285456656
 30
0.0
 10
155.0009062430904
 20
128.0575158166292
 30
0.0
 10
155.0009062430904
 20
128.3193152044278
 30
0.0
  0
SPLINE
  5
13F
330
1F
100
AcDbEntity
  8
0
  6
Continuous
 62
     8
370
    18
100
AcDbSpline
210
0.0
220
0.0
230
1.0
 70
    24
 71
     3
 72
    10
 73
     6
 74
     0
 42
0.00000001
 43
0.00000001
 40
0.0
 40
0.0
 40
0.0
 40
0.0
 40
0.5
 40
0.5
 40
1.0
 40
1.0
 40
1.0
 40
1.0
 10
189.0009084294816
 20
127.3193152044277
 30
0.0
 10
189.0009084294816
 20
127.3193152044276
 30
0.0
 10
189.0009084294816
 20
127.4270883008178
 30
0.0
 10
189.0009084294816
 20
127.7973285456644
 30
0.0
 10
189.0009084294816
 20
128.0575158166285
 30
0.0
 10
189.0009084294816
 20
128.3193152044277
 30
0.0
  0
SPLINE
  5
140
330
1F
100
AcDbEntity
  8
0
  6
Continuous
 62
     8
370
    18
100
AcDbSpline
210
0.0
220
0.0
230
1.0
 70
     8
 71
     3
 72
    33
 73
    29
 74
     0
 42
0.00000001
 43
0.00000001
 40
0.0
 40
0.0
 40
0.0
 40
0.0
 40
0.0190878135364
 40
0.0381795741833243
 40
0.0572924407854303
 40
0.0868746858683158
 40
0.1165117299857782
 40
0.1774738038076334
 40
0.239983308589099
 40
0.3037884199867963
 40
0.368600991572039
 40
0.4059787639266889
 40
0.4341242959769488
 40
0.4717449285430055
 40
0.4999981980460815
 40
0.53766201613568
 40
0.5658720918559889
 40
0.6033780455041944
 40
0.631395372006781
 40
0.668547415862245
 40
0.6962285011515315
 40
0.760033612549129
 40
0.8225431173304684
 40
0.8835051911521787
 40
0.9427084540340297
 40
0.9716034496708349
 40
0.9857879152615971
 40
1.0
 40
1.0
 40
1.0
 40
1.0
 10
149.0008664044561
 20
286.3193148675273
 30
0.0
 10
149.0013852948276
 20
286.3792682933073
 30
0.0
 10
149.0024231828703
 20
286.4991875424526
 30
0.0
 10
149.0108251317564
 20
286.6789778160278
 30
0.0
 10
149.0266723417502
 20
286.8913141215824
 30
0.0
 10
149.0545090533818
 20
287.135864672189
 30
0.0
 10
149.1145473409207
 20
287.5086339353613
 30
0.0
 10
149.2247627982073
 20
287.9775429146688
 30
0.0
 10
149.4144754735272
 20
288.5352914027739
 30
0.0
 10
149.6635314699188
 20
289.0825732820336
 30
0.0
 10
149.9267410219327
 20
289.5337339714796
 30
0.0
 10
150.1608347157534
 20
289.8698182597678
 30
0.0
 10
150.3594731029213
 20
290.1258503715524
 30
0.0
 10
150.5524143916798
 20
290.3496513680617
 30
0.0
 10
150.7772641698417
 20
290.5847066903471
 30
0.0
 10
150.9925420436471
 20
290.7876118269959
 30
0.0
 10
151.2400937090538
 20
290.9978583780251
 30
0.0
 10
151.4741691348281
 20
291.1767222981953
 30
0.0
 10
151.7402098388738
 20
291.3591326284917
 30
0.0
 10
151.9890135708363
 20
291.5116233130376
 30
0.0
 10
152.3438630762
 20
291.7049930059143
 30
0.0
 10
152.784906256558
 20
291.9057166503355
 30
0.0
 10
153.3426525774188
 20
292.095422457905
 30
0.0
 10
153.9020202947852
 20
292.2268858674291
 30
0.0
 10
154.3665602551652
 20
292.2907542427079
 30
0.0
 10
154.6871814886922
 20
292.3122203636306
 30
0.0
 10
154.8670366481726
 20
292.3184533192155
 30
0.0
 10
154.9562268297607
 20
292.3190268295916
 30
0.0
 10
155.0008652947809
 20
292.3193138636843
 30
0.0
  0
SPLINE
  5
141
330
1F
100
AcDbEntity
  8
0
  6
Continuous
 62
     8
370
    18
100
AcDbSpline
210
0.0
220
0.0
230
1.0
 70
     8
 71
     3
 72
    18
 73
    14
 74
     0
 42
0.00000001
 43
0.00000001
 40
0.0
 40
0.0
 40
0.0
 40
0.0
 40
0.2500000000000016
 40
0.2500000000000016
 40
0.3750000000000012
 40
0.3750000000000012
 40
0.500000000000001
 40
0.500000000000001
 40
0.6250000000000008
 40
0.6250000000000008
 40
0.7500000000000004
 40
0.7500000000000004
 40
1.0
 40
1.0
 40
1.0
 40
1.0
 10
155.0008653109049
 20
287.3193138598999
 30
0.0
 10
155.0008653113397
 20
287.319313846551
 30
0.0
 10
155.0008653113822
 20
287.4267075287354
 30
0.0
 10
155.0008653106117
 20
287.7922047174216
 30
0.0
 10
155.0008653102178
 20
287.9474554915401
 30
0.0
 10
155.0008653091551
 20
288.3212170307507
 30
0.0
 10
155.0008653084861
 20
288.5397022260169
 30
0.0
 10
155.0008653069074
 20
289.0278575912307
 30
0.0
 10
155.0008653059979
 20
289.2974178654534
 30
0.0
 10
155.000865304003
 20
289.8691122382209
 30
0.0
 10
155.000865302918
 20
290.1710979010793
 30
0.0
 10
155.0008652995207
 20
291.0943250422324
 30
0.0
 10
155.0008652970747
 20
291.7300581993531
 30
0.0
 10
155.0008652947342
 20
292.3193138636843
 30
0.0
  0
SPLINE
  5
142
330
1F
100
AcDbEntity
  8
0
  6
Continuous
 62
     8
370
    18
100
AcDbSpline
210
0.0
220
0.0
230
1.0
 70
    24
 71
     3
 72
    18
 73
    14
 74
     0
 42
0.00000001
 43
0.00000001
 40
0.0
 40
0.0
 40
0.0
 40
0.0
 40
0.2500000000000006
 40
0.2500000000000006
 40
0.3750000000000001
 40
0.3750000000000001
 40
0.4999999999999996
 40
0.4999999999999996
 40
0.6249999999999991
 40
0.6249999999999991
 40
0.7499999999999986
 40
0.7499999999999986
 40
1.0
 40
1.0
 40
1.0
 40
1.0
 10
154.000866404456
 20
286.3193149707345
 30
0.0
 10
154.0008664204626
 20
286.3193149707342
 30
0.0
 10
153.893472740667
 20
286.3193149685172
 30
0.0
 10
153.527975552876
 20
286.3193149609726
 30
0.0
 10
153.3727247786233
 20
286.3193149577679
 30
0.0
 10
152.9989632383347
 20
286.3193149500528
 30
0.0
 10
152.780478042126
 20
286.3193149455429
 30
0.0
 10
152.2923226746906
 20
286.3193149354667
 30
0.0
 10
152.0227623991972
 20
286.3193149299026
 30
0.0
 10
151.4510680243035
 20
286.3193149181021
 30
0.0
 10
151.1490823605998
 20
286.3193149118688
 30
0.0
 10
150.2258552186218
 20
286.3193148928124
 30
0.0
 10
149.5901220634474
 20
286.3193148796901
 30
0.0
 10
149.0008664044552
 20
286.3193148675273
 30
0.0
  0
SPLINE
  5
143
330
1F
100
AcDbEntity
  8
0
  6
Continuous
 62
     8
370
    18
100
AcDbSpline
210
0.0
220
0.0
230
1.0
 70
    24
 71
     3
 72
    18
 73
    14
 74
     0
 42
0.00000001
 43
0.00000001
 40
0.0
 40
0.0
 40
0.0
 40
0.0
 40
0.2500000000000003
 40
0.2500000000000003
 40
0.3750000000000004
 40
0.3750000000000004
 40
0.5000000000000004
 40
0.5000000000000004
 40
0.6250000000000004
 40
0.6250000000000004
 40
0.7500000000000006
 40
0.7500000000000006
 40
1.0
 40
1.0
 40
1.0
 40
1.0
 10
149.0008667140764
 20
271.3193140208378
 30
0.0
 10
149.5901223730684
 20
271.3193140330005
 30
0.0
 10
150.2258555282428
 20
271.3193140461226
 30
0.0
 10
151.1490826702207
 20
271.319314065179
 30
0.0
 10
151.4510683339243
 20
271.3193140714122
 30
0.0
 10
152.022762708818
 20
271.3193140832126
 30
0.0
 10
152.2923229843114
 20
271.3193140887767
 30
0.0
 10
152.7804783517469
 20
271.3193140988528
 30
0.0
 10
152.9989635479555
 20
271.3193141033626
 30
0.0
 10
153.3727250882442
 20
271.3193141110777
 30
0.0
 10
153.5279758624969
 20
271.3193141142823
 30
0.0
 10
153.893473050288
 20
271.3193141218268
 30
0.0
 10
154.0008667300837
 20
271.3193141240438
 30
0.0
 10
154.0008667140771
 20
271.3193141240441
 30
0.0
  0
LINE
  5
144
330
1F
100
AcDbEntity
  8
0
  6
Continuous
 62
     8
370
    18
100
AcDbLine
 10
149.0008667141
 20
286.3193148675
 30
0.0
 11
149.0008667141
 21
271.3193140208
 31
0.0
  0
LINE
  5
145
330
1F
100
AcDbEntity
  8
0
  6
Continuous
 62
     8
370
    18
100
AcDbLine
 10
195.0008708611
 20
271.319314124
 30
0.0
 11
190.000870861
 21
271.319314124
 31
0.0
  0
SPLINE
  5
146
330
1F
100
AcDbEntity
  8
0
  6
Continuous
 62
     8
370
    18
100
AcDbSpline
210
0.0
220
0.0
230
1.0
 70
     8
 71
     3
 72
    14
 73
    10
 74
     0
 42
0.00000001
 43
0.00000001
 40
0.0
 40
0.0
 40
0.0
 40
0.0
 40
0.1738748365796194
 40
0.3472541162751507
 40
0.5204005073940636
 40
0.6504965794456002
 40
0.7805651009971109
 40
0.910666518704122
 40
1.0
 40
1.0
 40
1.0
 40
1.0
 10
149.0008667140781
 20
271.3193140208378
 30
0.0
 10
149.0146892529164
 20
270.2331841915592
 30
0.0
 10
149.0422949352762
 20
268.0640200879682
 30
0.0
 10
149.3590384051789
 20
264.8244776643445
 30
0.0
 10
149.9428468571295
 20
261.899138160195
 30
0.0
 10
150.767235339506
 20
259.3160300159211
 30
0.0
 10
151.7530315445089
 20
257.0840023225776
 30
0.0
 10
152.8234148945532
 20
255.1722528530441
 30
0.0
 10
153.6602321066657
 20
254.0855048886736
 30
0.0
 10
154.0009062433049
 20
253.6430821957038
 30
0.0
  0
SPLINE
  5
147
330
1F
100
AcDbEntity
  8
0
  6
Continuous
 62
     8
370
    18
100
AcDbSpline
210
0.0
220
0.0
230
1.0
 70
     8
 71
     3
 72
    14
 73
    10
 74
     0
 42
0.00000001
 43
0.00000001
 40
0.0
 40
0.0
 40
0.0
 40
0.0
 40
0.0893607590446239
 40
0.2194460873065106
 40
0.3495264999918513
 40
0.4796119160856785
 40
0.6528274409662009
 40
0.8260500970649813
 40
1.0
 40
1.0
 40
1.0
 40
1.0
 10
190.0009084295846
 20
253.6422614634135
 30
0.0
 10
190.3415847239888
 20
254.0849372518888
 30
0.0
 10
191.1781944466945
 20
255.1720304096106
 30
0.0
 10
192.2464175256535
 20
257.0850658267416
 30
0.0
 10
193.2367796212421
 20
259.3150625566145
 30
0.0
 10
194.0586310914054
 20
261.8997047818934
 30
0.0
 10
194.6422265899888
 20
264.8243914329228
 30
0.0
 10
194.9587935821559
 20
268.0639919365261
 30
0.0
 10
194.9868255279343
 20
270.2326924182721
 30
0.0
 10
195.00087086107
 20
271.3193141240449
 30
0.0
  0
LINE
  5
148
330
1F
100
AcDbEntity
  8
0
  6
Continuous
 62
     8
370
    18
100
AcDbLine
 10
155.0008652948
 20
292.3193149705
 30
0.0
 11
189.0008674846
 21
292.3193149705
 31
0.0
  0
SPLINE
  5
149
330
1F
100
AcDbEntity
  8
0
  6
Continuous
 62
     8
370
    18
100
AcDbSpline
210
0.0
220
0.0
230
1.0
 70
     8
 71
     3
 72
    18
 73
    14
 74
     0
 42
0.00000001
 43
0.00000001
 40
0.0
 40
0.0
 40
0.0
 40
0.0
 40
0.2499999999999994
 40
0.2499999999999994
 40
0.3749999999999991
 40
0.3749999999999991
 40
0.4999999999999988
 40
0.4999999999999988
 40
0.6249999999999984
 40
0.6249999999999984
 40
0.7499999999999982
 40
0.7499999999999982
 40
1.0
 40
1.0
 40
1.0
 40
1.0
 10
189.0008674876106
 20
292.3193183471857
 30
0.0
 10
189.0008674872551
 20
291.7300626966431
 30
0.0
 10
189.0008674867871
 20
291.0943295523944
 30
0.0
 10
189.000867485943
 20
290.1711024255746
 30
0.0
 10
189.0008674856388
 20
289.8691167666564
 30
0.0
 10
189.0008674850003
 20
289.2974223995843
 30
0.0
 10
189.0008674846661
 20
289.0278621271126
 30
0.0
 10
189.0008674839881
 20
288.5397067629448
 30
0.0
 10
189.0008674836446
 20
288.3212215669726
 30
0.0
 10
189.00086748297
 20
287.9474600239623
 30
0.0
 10
189.0008674826391
 20
287.7922092467529
 30
0.0
 10
189.0008674816934
 20
287.4267120457916
 30
0.0
 10
189.0008674811292
 20
287.3193183514135
 30
0.0
 10
189.0008674806664
 20
287.3193183509712
 30
0.0
  0
LINE
  5
14A
330
1F
100
AcDbEntity
  8
0
  6
Continuous
 62
     8
370
    18
100
AcDbLine
 10
190.0008708611
 20
286.3193149707
 30
0.0
 11
195.0008708611
 21
286.3193149707
 31
0.0
  0
SPLINE
  5
14B
330
1F
100
AcDbEntity
  8
0
  6
Continuous
 62
     8
370
    18
100
AcDbSpline
210
0.0
220
0.0
230
1.0
 70
     8
 71
     3
 72
    22
 73
    18
 74
     0
 42
0.00000001
 43
0.00000001
 40
0.0
 40
0.0
 40
0.0
 40
0.0
 40
0.125
 40
0.125
 40
0.25
 40
0.25
 40
0.375
 40
0.375
 40
0.5
 40
0.5
 40
0.625
 40
0.625
 40
0.75
 40
0.75
 40
0.875
 40
0.875
 40
1.0
 40
1.0
 40
1.0
 40
1.0
 10
195.0008708610692
 20
286.3193149707344
 30
0.0
 10
195.0008708610507
 20
286.6728685601988
 30
0.0
 10
194.9694407597386
 20
287.0396438036765
 30
0.0
 10
194.8319652706676
 20
287.7825439949131
 30
0.0
 10
194.7257993930972
 20
288.1585934114617
 30
0.0
 10
194.4334014679665
 20
288.8971755291685
 30
0.0
 10
194.2471004305122
 20
289.2595585241252
 30
0.0
 10
193.7985863264577
 20
289.9455921513081
 30
0.0
 10
193.5364039436689
 20
290.2690646606148
 30
0.0
 10
192.9506171767609
 20
290.8548514278151
 30
0.0
 10
192.6271446675848
 20
291.1170338107652
 30
0.0
 10
191.9411110406256
 20
291.565547915162
 30
0.0
 10
191.5787280457619
 20
291.751848952797
 30
0.0
 10
190.8401459282008
 20
292.0442468782961
 30
0.0
 10
190.4640965117052
 20
292.1504127560542
 30
0.0
 10
189.7211963205371
 20
292.2878882454958
 30
0.0
 10
189.354421077075
 20
292.3193183469909
 30
0.0
 10
189.0008674876106
 20
292.3193183471857
 30
0.0
  0
LINE
  5
14C
330
1F
100
AcDbEntity
  8
0
  6
Continuous
 62
     8
370
    18
100
AcDbLine
 10
195.0008708611
 20
271.319314124
 30
0.0
 11
195.0008708611
 21
286.3193149707
 31
0.0
  0
LINE
  5
14D
330
1F
100
AcDbEntity
  8
0
  6
Continuous
 62
     8
370
    18
100
AcDbLine
 10
195.1008618334
 20
292.4193142015
 30
0.0
 11
148.9008618334
 21
292.4193142015
 31
0.0
  0
LINE
  5
14E
330
1F
100
AcDbEntity
  8
0
  6
Continuous
 62
     8
370
    18
100
AcDbLine
 10
195.1008618334
 20
246.2193142012
 30
0.0
 11
195.1008618334
 21
292.4193142015
 31
0.0
  0
LINE
  5
14F
330
1F
100
AcDbEntity
  8
0
  6
Continuous
 62
     8
370
    18
100
AcDbLine
 10
148.9008618334
 20
246.2193142012
 30
0.0
 11
154.0004983363
 21
246.2193142012
 31
0.0
  0
LINE
  5
150
330
1F
100
AcDbEntity
  8
0
  6
Continuous
 62
     8
370
    18
100
AcDbLine
 10
190.0009084296
 20
246.2193142012
 30
0.0
 11
195.1008618334
 21
246.2193142012
 31
0.0
  0
LINE
  5
151
330
1F
100
AcDbEntity
  8
0
  6
Continuous
 62
     8
370
    18
100
AcDbLine
 10
148.9008618334
 20
292.4193142015
 30
0.0
 11
148.9008618334
 21
246.2193142012
 31
0.0
  0
LINE
  5
152
330
1F
100
AcDbEntity
  8
0
  6
Continuous
 62
     8
370
    18
100
AcDbLine
 10
148.9008618334
 20
292.4193142015
 30
0.0
 11
147.9008618334
 21
292.4193142015
 31
0.0
  0
LINE
  5
153
330
1F
100
AcDbEntity
  8
0
  6
Continuous
 62
     8
370
    18
100
AcDbLine
 10
148.9008618334
 20
293.4193142015
 30
0.0
 11
148.9008618334
 21
292.4193142015
 31
0.0
  0
LINE
  5
154
330
1F
100
AcDbEntity
  8
0
  6
Continuous
 62
     8
370
    18
100
AcDbLine
 10
195.1008618334
 20
293.4193142015
 30
0.0
 11
195.1008618334
 21
292.4193142015
 31
0.0
  0
LINE
  5
155
330
1F
100
AcDbEntity
  8
0
  6
Continuous
 62
     8
370
    18
100
AcDbLine
 10
148.9008618334
 20
246.2193142012
 30
0.0
 11
147.9008618334
 21
246.2193142012
 31
0.0
  0
LINE
  5
156
330
1F
100
AcDbEntity
  8
0
  6
Continuous
 62
     8
370
    18
100
AcDbLine
 10
196.1008618334
 20
292.4193142015
 30
0.0
 11
195.1008618334
 21
292.4193142015
 31
0.0
  0
LINE
  5
157
330
1F
100
AcDbEntity
  8
0
  6
Continuous
 62
     8
370
    18
100
AcDbLine
 10
195.1008618334
 20
246.2193142012
 30
0.0
 11
195.1008618334
 21
245.2193142012
 31
0.0
  0
LINE
  5
158
330
1F
100
AcDbEntity
  8
0
  6
Continuous
 62
     8
370
    18
100
AcDbLine
 10
148.9008618334
 20
246.2193142012
 30
0.0
 11
148.9008618334
 21
245.2193142012
 31
0.0
  0
LINE
  5
159
330
1F
100
AcDbEntity
  8
0
  6
Continuous
 62
     8
370
    18
100
AcDbLine
 10
196.1008618334
 20
246.2193142012
 30
0.0
 11
195.1008618334
 21
246.2193142012
 31
0.0
  0
SPLINE
  5
15A
330
1F
100
AcDbEntity
  8
0
  6
Continuous
 62
     7
370
    25
100
AcDbSpline
210
0.0
220
0.0
230
1.0
 70
     8
 71
     3
 72
    31
 73
    27
 74
     0
 42
0.00000001
 43
0.00000001
 40
0.0
 40
0.0
 40
0.0
 40
0.0
 40
0.0280936424366799
 40
0.0554975164660504
 40
0.0755688082495289
 40
0.0963206744227252
 40
0.1333002144924787
 40
0.1741407769333791
 40
0.2184985731748997
 40
0.2646180056238655
 40
0.3123451489456091
 40
0.3615099550378787
 40
0.4593274032025953
 40
0.5607356280083531
 40
0.6561071281990861
 40
0.7409213682283989
 40
0.8161852312031207
 40
0.8449408745743937
 40
0.8722492083044209
 40
0.897341983955283
 40
0.9138115298679611
 40
0.9292521396995976
 40
0.9448369792218841
 40
0.9616829784984627
 40
0.9806707625340677
 40
1.0
 40
1.0
 40
1.0
 40
1.0
 10
325.033122686917
 20
499.5481457295904
 30
0.0
 10
325.5168196827102
 20
499.8937320292447
 30
0.0
 10
326.4723377166966
 20
500.5764196301401
 30
0.0
 10
327.8514261017332
 20
501.4532899250699
 30
0.0
 10
329.1279482535722
 20
502.2090131787076
 30
0.0
 10
330.6842172276076
 20
503.0764015073259
 30
0.0
 10
332.7424067809965
 20
504.1323990594138
 30
0.0
 10
335.3285060062246
 20
505.3261434210268
 30
0.0
 10
338.1328966209405
 20
506.479983734463
 30
0.0
 10
341.1499071272777
 20
507.5904951125638
 30
0.0
 10
344.3054621445661
 20
508.6534272192854
 30
0.0
 10
348.6338224530958
 20
510.0236809303894
 30
0.0
 10
354.1859754527957
 20
511.6918133372168
 30
0.0
 10
360.7867943262164
 20
513.6288290487093
 30
0.0
 10
367.1059868111599
 20
515.4554129468503
 30
0.0
 10
372.8495669886167
 20
517.0864975460063
 30
0.0
 10
377.1032453411235
 20
518.2637442744161
 30
0.0
 10
380.0655069669702
 20
519.0675919789159
 30
0.0
 10
381.8921365076403
 20
519.5562159161735
 30
0.0
 10
383.4560171658624
 20
519.9687940843172
 30
0.0
 10
384.680808606795
 20
520.2890369704063
 30
0.0
 10
385.5704073378671
 20
520.5234111543739
 30
0.0
 10
386.254603567635
 20
520.709982556228
 30
0.0
 10
386.7290556180006
 20
520.847881738584
 30
0.0
 10
387.0132354594064
 20
520.9401995796388
 30
0.0
 10
387.0428220695256
 20
520.9639067336374
 30
0.0
 10
387.0577472017617
 20
520.9758659410946
 30
0.0
  0
SPLINE
  5
15B
330
1F
100
AcDbEntity
  8
0
  6
Continuous
 62
     7
370
    25
100
AcDbSpline
210
0.0
220
0.0
230
1.0
 70
     8
 71
     3
 72
    11
 73
     7
 74
     0
 42
0.00000001
 43
0.00000001
 40
0.0
 40
0.0
 40
0.0
 40
0.0
 40
0.2327870170059991
 40
0.4795759535503099
 40
0.7368349554233827
 40
1.0
 40
1.0
 40
1.0
 40
1.0
 10
287.2149285424018
 20
379.7692796971723
 30
0.0
 10
287.1964100462785
 20
379.4641871828281
 30
0.0
 10
287.1582591839542
 20
378.835651127126
 30
0.0
 10
286.8740785350943
 20
377.9055683615926
 30
0.0
 10
286.4164231018054
 20
377.0007727147697
 30
0.0
 10
285.9630346922575
 20
376.4913484197183
 30
0.0
 10
285.7337678437651
 20
376.2337456662903
 30
0.0
  0
SPLINE
  5
15C
330
1F
100
AcDbEntity
  8
0
  6
Continuous
 62
     7
370
    25
100
AcDbSpline
210
0.0
220
0.0
230
1.0
 70
     8
 71
     3
 72
    13
 73
     9
 74
     0
 42
0.00000001
 43
0.00000001
 40
0.0
 40
0.0
 40
0.0
 40
0.0
 40
0.2394557791914638
 40
0.3683592375999074
 40
0.4999984459826755
 40
0.6316379126455167
 40
0.7605420833652963
 40
1.0
 40
1.0
 40
1.0
 40
1.0
 10
328.198329048382
 20
374.7692795607317
 30
0.0
 10
327.5693531998327
 20
374.8360696426251
 30
0.0
 10
326.6017880618239
 20
374.9388140563477
 30
0.0
 10
325.4377192178491
 20
375.5623021697784
 30
0.0
 10
324.6366933000939
 20
376.2076112116092
 30
0.0
 10
323.9913908393092
 20
377.0086448935267
 30
0.0
 10
323.3679089529559
 20
378.1727257829836
 30
0.0
 10
323.2651660854365
 20
379.1402982193744
 30
0.0
 10
323.1983769291962
 20
379.7692795607368
 30
0.0
  0
SPLINE
  5
15D
330
1F
100
AcDbEntity
  8
0
  6
Continuous
 62
     7
370
    25
100
AcDbSpline
210
0.0
220
0.0
230
1.0
 70
     8
 71
     3
 72
    13
 73
     9
 74
     0
 42
0.00000001
 43
0.00000001
 40
0.0
 40
0.0
 40
0.0
 40
0.0
 40
0.22686527978709
 40
0.4705771359655878
 40
0.5950858510865064
 40
0.7260689191965356
 40
0.8622424065684469
 40
0.9999999999999999
 40
0.9999999999999999
 40
0.9999999999999999
 40
0.9999999999999999
 10
389.775934107476
 20
523.6645468079788
 30
0.0
 10
389.7441560461257
 20
523.7839801022287
 30
0.0
 10
389.6782401461218
 20
524.0317155758974
 30
0.0
 10
389.4489963328829
 20
524.2731151214451
 30
0.0
 10
389.2138280555744
 20
524.4156042246229
 30
0.0
 10
389.0082509502242
 20
524.4890359546674
 30
0.0
 10
388.7836243458436
 20
524.5251386761037
 30
0.0
 10
388.6346195072418
 20
524.5109912024096
 30
0.0
 10
388.5596862506166
 20
524.5038765591077
 30
0.0
  0
SPLINE
  5
15E
330
1F
100
AcDbEntity
  8
0
  6
Continuous
 62
     7
370
    25
100
AcDbSpline
210
0.0
220
0.0
230
1.0
 70
     8
 71
     3
 72
    14
 73
    10
 74
     0
 42
0.00000001
 43
0.00000001
 40
0.0
 40
0.0
 40
0.0
 40
0.0
 40
0.120435025258865
 40
0.2438890632789728
 40
0.4927195107660653
 40
0.616314550123675
 40
0.7430413674208812
 40
0.871849421093131
 40
0.9999999999999999
 40
0.9999999999999999
 40
0.9999999999999999
 40
0.9999999999999999
 10
288.2113769311255
 20
495.8375350742406
 30
0.0
 10
288.1481442240099
 20
495.8348130131671
 30
0.0
 10
288.0200937198157
 20
495.8293006555787
 30
0.0
 10
287.7743814542985
 20
495.7559136059197
 30
0.0
 10
287.5561933736463
 20
495.6115750507554
 30
0.0
 10
287.3903431503351
 20
495.4096275999572
 30
0.0
 10
287.2957144298825
 20
495.2335771427628
 30
0.0
 10
287.2319902135906
 20
495.0390762436613
 30
0.0
 10
287.2206051729505
 20
494.9046584188952
 30
0.0
 10
287.2149272179649
 20
494.8376214725733
 30
0.0
  0
LINE
  5
15F
330
1F
100
AcDbEntity
  8
0
  6
Continuous
 62
     7
370
    25
100
AcDbLine
 10
323.1982328205
 20
390.7692795938
 30
0.0
 11
323.1982328206
 21
419.8376204909
 31
0.0
  0
LINE
  5
160
330
1F
100
AcDbEntity
  8
0
  6
Continuous
 62
     7
370
    25
100
AcDbLine
 10
323.1983769292
 20
379.7692796356
 30
0.0
 11
323.1983769292
 21
390.7692795607
 31
0.0
  0
LINE
  5
161
330
1F
100
AcDbEntity
  8
0
  6
Continuous
 62
     7
370
    25
100
AcDbLine
 10
323.1982325869
 20
419.8376604903
 30
0.0
 11
323.1982325869
 21
434.8376211433
 31
0.0
  0
SPLINE
  5
162
330
1F
100
AcDbEntity
  8
0
  6
Continuous
 62
     7
370
    25
100
AcDbSpline
210
0.0
220
0.0
230
1.0
 70
     8
 71
     3
 72
    27
 73
    23
 74
     0
 42
0.00000001
 43
0.00000001
 40
0.0
 40
0.0
 40
0.0
 40
0.0
 40
0.087769470271123
 40
0.1696715055538859
 40
0.2452734996176735
 40
0.3136091891838335
 40
0.3739157539079977
 40
0.4258679236426202
 40
0.4695438322820461
 40
0.5073354632571332
 40
0.543256558488913
 40
0.577463337455209
 40
0.6180171338578188
 40
0.6582807194412497
 40
0.7023851810750827
 40
0.750421918906965
 40
0.7823843616652212
 40
0.8139749666019626
 40
0.84592951695641
 40
0.8861376685520678
 40
0.9374308051819622
 40
1.0
 40
1.0
 40
1.0
 40
1.0
 10
323.1980536881819
 20
434.8376198481712
 30
0.0
 10
323.1980313560262
 20
436.6963168466015
 30
0.0
 10
323.1979881846312
 20
440.2894559770756
 30
0.0
 10
323.3121257616131
 20
445.4831171501657
 30
0.0
 10
323.6013401525029
 20
450.2585503387936
 30
0.0
 10
324.0810448833516
 20
454.559354032291
 30
0.0
 10
324.7312392231851
 20
458.3306952875915
 30
0.0
 10
325.5063876329456
 20
461.5432820902622
 30
0.0
 10
326.3587535661991
 20
464.2394743839161
 30
0.0
 10
327.2750959106697
 20
466.5525799345649
 30
0.0
 10
328.2754875250847
 20
468.6101081040953
 30
0.0
 10
329.4734957272457
 20
470.6279239627034
 30
0.0
 10
330.9263494951784
 20
472.5903159070638
 30
0.0
 10
332.7599912093564
 20
474.5077143119891
 30
0.0
 10
334.9775295980486
 20
476.2417955696917
 30
0.0
 10
337.2933872607048
 20
477.5109467849747
 30
0.0
 10
339.4992809935391
 20
478.3679262178935
 30
0.0
 10
341.4468766956447
 20
478.9230414565869
 30
0.0
 10
343.6033435257261
 20
479.3540295512392
 30
0.0
 10
346.2008908785299
 20
479.6714018819225
 30
0.0
 10
349.4616815362867
 20
479.836636613559
 30
0.0
 10
351.8731123227189
 20
479.8372711589649
 30
0.0
 10
353.1982325863548
 20
479.8376198519402
 30
0.0
  0
ARC
  5
163
330
1F
100
AcDbEntity
  8
0
  6
Continuous
 62
     7
370
    25
100
AcDbCircle
 10
311.3151254812
 20
495.8376204524
 30
0.0
 40
22.81689189189189
100
AcDbArc
 50
160.3646928818
 51
180.0
  0
ARC
  5
164
330
1F
100
AcDbEntity
  8
0
  6
Continuous
 62
     7
370
    25
100
AcDbCircle
 10
296.8813416974
 20
495.8376204524
 30
0.0
 40
22.81689189189188
100
AcDbArc
 50
0.0
 51
9.445670957
  0
ARC
  5
165
330
1F
100
AcDbEntity
  8
0
  6
Continuous
 62
     7
370
    25
100
AcDbCircle
 10
290.0133931843
 20
503.4376204524
 30
0.0
 40
0.1999999999999886
100
AcDbArc
 50
90.0
 51
160.3646928818
  0
LINE
  5
166
330
1F
100
AcDbEntity
  8
0
  6
Continuous
 62
     7
370
    25
100
AcDbLine
 10
290.0133931843
 20
503.7910572686
 30
0.0
 11
290.0133931843
 21
503.6376204524
 31
0.0
  0
LWPOLYLINE
  5
167
330
1F
100
AcDbEntity
  8
0
  6
Continuous
 62
     7
370
    25
100
AcDbPolyline
 90
        8
 70
   128
 43
0.0
 10
298.5422060463
 20
506.3496663569
 10
365.9817298194
 20
517.6311669964
 10
383.0771067019
 20
520.4933793798
 10
387.4686988922
 20
521.2298510874
 10
388.6254709246
 20
521.4244283202
 10
388.9441009251
 20
521.4783022813
 10
389.0384769214
 20
521.4943855981
 10
389.0895602484
 20
521.503233139
  0
SPLINE
  5
168
330
1F
100
AcDbEntity
  8
0
  6
Continuous
 62
     7
370
    25
100
AcDbSpline
210
0.0
220
0.0
230
1.0
 70
     8
 71
     3
 72
    14
 73
    10
 74
     0
 42
0.00000001
 43
0.00000001
 40
0.0
 40
0.0
 40
0.0
 40
0.0
 40
0.25
 40
0.25
 40
0.5
 40
0.5
 40
0.75
 40
0.75
 40
1.0
 40
1.0
 40
1.0
 40
1.0
 10
389.0895602092038
 20
521.5032331321027
 30
0.0
 10
389.2220553241539
 20
521.5273867473766
 30
0.0
 10
389.3545028563449
 20
521.5515325211783
 30
0.0
 10
389.5992784114943
 20
521.5965084445007
 30
0.0
 10
389.7115097844904
 20
521.6173226664479
 30
0.0
 10
389.898683236537
 20
521.6528059659969
 30
0.0
 10
389.9735513409645
 20
521.6674628528411
 30
0.0
 10
390.0745068389969
 20
521.6887377371459
 30
0.0
 10
390.100554198083
 20
521.6953491370583
 30
0.0
 10
390.100179626654
 20
521.6976062958553
 30
0.0
  0
SPLINE
  5
169
330
1F
100
AcDbEntity
  8
0
  6
Continuous
 62
     7
370
    25
100
AcDbSpline
210
0.0
220
0.0
230
1.0
 70
     8
 71
     3
 72
    10
 73
     6
 74
     0
 42
0.00000001
 43
0.00000001
 40
0.0
 40
0.0
 40
0.0
 40
0.0
 40
0.1343875136950564
 40
0.4677207743934542
 40
1.0
 40
1.0
 40
1.0
 40
1.0
 10
389.0896364680349
 20
521.502942795226
 30
0.0
 10
388.8139409971583
 20
521.4560611805194
 30
0.0
 10
387.854413615561
 20
521.292894941838
 30
0.0
 10
385.8020623475029
 20
520.9490997657537
 30
0.0
 10
384.0256034145364
 20
520.6510285162875
 30
0.0
 10
382.9332298638756
 20
520.467739647017
 30
0.0
  0
SPLINE
  5
16A
330
1F
100
AcDbEntity
  8
0
  6
Continuous
 62
     7
370
    25
100
AcDbSpline
210
0.0
220
0.0
230
1.0
 70
    24
 71
     3
 72
     9
 73
     5
 74
     0
 42
0.00000001
 43
0.00000001
 40
0.0
 40
0.0
 40
0.0
 40
0.0
 40
0.5622445587646744
 40
1.0
 40
1.0
 40
1.0
 40
1.0
 10
324.5491586422868
 20
499.5611887260574
 30
0.0
 10
324.6986081020369
 20
499.5605909282183
 30
0.0
 10
324.9644167389021
 20
499.5595276936709
 30
0.0
 10
325.0068748629128
 20
499.5593578611749
 30
0.0
 10
325.0254611377231
 20
499.5592835160757
 30
0.0
  0
SPLINE
  5
16B
330
1F
100
AcDbEntity
  8
0
  6
Continuous
 62
     7
370
    25
100
AcDbSpline
210
0.0
220
0.0
230
1.0
 70
    24
 71
     3
 72
    22
 73
    18
 74
     0
 42
0.00000001
 43
0.00000001
 40
0.0
 40
0.0
 40
0.0
 40
0.0
 40
0.125
 40
0.125
 40
0.25
 40
0.25
 40
0.375
 40
0.375
 40
0.5
 40
0.5
 40
0.625
 40
0.625
 40
0.75
 40
0.75
 40
0.875
 40
0.875
 40
1.0
 40
1.0
 40
1.0
 40
1.0
 10
318.9642657631821
 20
499.5835282975738
 30
0.0
 10
319.3351043646672
 20
499.5820449431679
 30
0.0
 10
319.6964610320441
 20
499.5805995164985
 30
0.0
 10
320.3871529796556
 20
499.577836748708
 30
0.0
 10
320.7176650402538
 20
499.5765147004656
 30
0.0
 10
321.3514610634173
 20
499.573979516373
 30
0.0
 10
321.656815487611
 20
499.5727580986762
 30
0.0
 10
322.2263144160041
 20
499.5704801029626
 30
0.0
 10
322.4896288764708
 20
499.5694268451207
 30
0.0
 10
322.9748893531796
 20
499.5674858032137
 30
0.0
 10
323.1969250545113
 20
499.5665976604085
 30
0.0
 10
323.5986746562887
 20
499.5649906620014
 30
0.0
 10
323.7782922814493
 20
499.5642721915008
 30
0.0
 10
324.0844603733017
 20
499.5630475191333
 30
0.0
 10
324.212610895337
 20
499.5625349170452
 30
0.0
 10
324.4178212115467
 20
499.5617140757803
 30
0.0
 10
324.4935142889325
 20
499.5614113034708
 30
0.0
 10
324.5491586422868
 20
499.5611887260574
 30
0.0
  0
SPLINE
  5
16C
330
1F
100
AcDbEntity
  8
0
  6
Continuous
 62
     7
370
    25
100
AcDbSpline
210
0.0
220
0.0
230
1.0
 70
    24
 71
     3
 72
    14
 73
    10
 74
     0
 42
0.00000001
 43
0.00000001
 40
0.0
 40
0.0
 40
0.0
 40
0.0
 40
0.25
 40
0.25
 40
0.5
 40
0.5
 40
0.75
 40
0.75
 40
1.0
 40
1.0
 40
1.0
 40
1.0
 10
312.1734703430302
 20
499.6106914792545
 30
0.0
 10
312.75819637963
 20
499.608352575108
 30
0.0
 10
313.3394524124911
 20
499.6060275509765
 30
0.0
 10
314.4909645984328
 20
499.6014215022328
 30
0.0
 10
315.0616867608056
 20
499.5991386135834
 30
0.0
 10
316.1932965362413
 20
499.5946121744816
 30
0.0
 10
316.7541768430575
 20
499.5923686532544
 30
0.0
 10
317.8668689370768
 20
499.5879178848784
 30
0.0
 10
318.4194359856935
 20
499.5857076166837
 30
0.0
 10
318.9642657631821
 20
499.5835282975738
 30
0.0
  0
SPLINE
  5
16D
330
1F
100
AcDbEntity
  8
0
  6
Continuous
 62
     7
370
    25
100
AcDbSpline
210
0.0
220
0.0
230
1.0
 70
    24
 71
     3
 72
    12
 73
     8
 74
     0
 42
0.00000001
 43
0.00000001
 40
0.0
 40
0.0
 40
0.0
 40
0.0
 40
0.5
 40
0.5
 40
0.75
 40
0.75
 40
1.0
 40
1.0
 40
1.0
 40
1.0
 10
306.2327371949728
 20
499.6344544118467
 30
0.0
 10
307.2251544877656
 20
499.6304847426755
 30
0.0
 10
308.2166315208366
 20
499.6265188345432
 30
0.0
 10
309.701718591599
 20
499.6205784862602
 30
0.0
 10
310.1964563811211
 20
499.6185995351022
 30
0.0
 10
311.1854705893084
 20
499.6146434782695
 30
0.0
 10
311.6797440147902
 20
499.6126663845675
 30
0.0
 10
312.1734703430302
 20
499.6106914792545
 30
0.0
  0
SPLINE
  5
16E
330
1F
100
AcDbEntity
  8
0
  6
Continuous
 62
     7
370
    25
100
AcDbSpline
210
0.0
220
0.0
230
1.0
 70
     8
 71
     3
 72
     8
 73
     4
 74
     0
 42
0.00000001
 43
0.00000001
 40
0.0
 40
0.0
 40
0.0
 40
0.0
 40
1.0
 40
1.0
 40
1.0
 40
1.0
 10
304.7016300537467
 20
499.7189604550666
 30
0.0
 10
305.2106340716193
 20
499.6646621474389
 30
0.0
 10
305.7209848857198
 20
499.6365014279026
 30
0.0
 10
306.232736759721
 20
499.6344544135878
 30
0.0
  0
LINE
  5
16F
330
1F
100
AcDbEntity
  8
0
  6
Continuous
 62
     7
370
    25
100
AcDbLine
 10
282.0982335893
 20
369.7692795601
 30
0.0
 11
328.2982335896
 21
369.7692795601
 31
0.0
  0
LINE
  5
170
330
1F
100
AcDbEntity
  8
0
  6
Continuous
 62
     7
370
    25
100
AcDbLine
 10
282.0982335893
 20
374.7692795607
 30
0.0
 11
328.2982335896
 21
374.7692795607
 31
0.0
  0
LINE
  5
171
330
1F
100
AcDbEntity
  8
0
  6
Continuous
 62
     7
370
    25
100
AcDbLine
 10
281.0982335893
 20
369.7692795601
 30
0.0
 11
281.0982335893
 21
373.7692795607
 31
0.0
  0
LINE
  5
172
330
1F
100
AcDbEntity
  8
0
  6
Continuous
 62
     7
370
    25
100
AcDbLine
 10
281.0982335893
 20
369.7692795601
 30
0.0
 11
282.0982335893
 21
369.7692795601
 31
0.0
  0
LINE
  5
173
330
1F
100
AcDbEntity
  8
0
  6
Continuous
 62
     7
370
    25
100
AcDbLine
 10
329.2982335896
 20
373.7692795607
 30
0.0
 11
329.2982335896
 21
369.7692795601
 31
0.0
  0
LINE
  5
174
330
1F
100
AcDbEntity
  8
0
  6
Continuous
 62
     7
370
    25
100
AcDbLine
 10
328.2982335896
 20
369.7692795601
 30
0.0
 11
329.2982335896
 21
369.7692795601
 31
0.0
  0
ARC
  5
175
330
1F
100
AcDbEntity
  8
0
  6
Continuous
 62
     7
370
    25
100
AcDbCircle
 10
282.0982335893
 20
373.7692795607
 30
0.0
 40
1.0
100
AcDbArc
 50
90.0
 51
180.0
  0
ARC
  5
176
330
1F
100
AcDbEntity
  8
0
  6
Continuous
 62
     7
370
    25
100
AcDbCircle
 10
328.2982335896
 20
373.7692795607
 30
0.0
 40
1.0
100
AcDbArc
 50
0.0
 51
90.0
  0
SPLINE
  5
177
330
1F
100
AcDbEntity
  8
0
  6
Continuous
 62
     7
370
    25
100
AcDbSpline
210
0.0
220
0.0
230
1.0
 70
     8
 71
     3
 72
    18
 73
    14
 74
     0
 42
0.00000001
 43
0.00000001
 40
0.0
 40
0.0
 40
0.0
 40
0.0
 40
0.2500000000000016
 40
0.2500000000000016
 40
0.3750000000000012
 40
0.3750000000000012
 40
0.500000000000001
 40
0.500000000000001
 40
0.6250000000000008
 40
0.6250000000000008
 40
0.7500000000000004
 40
0.7500000000000004
 40
1.0
 40
1.0
 40
1.0
 40
1.0
 10
287.1982339308822
 20
379.7692796973084
 30
0.0
 10
287.198233944231
 20
379.1800240329771
 30
0.0
 10
287.0908402620466
 20
378.5442908731017
 30
0.0
 10
286.7253430733605
 20
377.6210637225733
 30
0.0
 10
286.5700922992419
 20
377.3190780557325
 30
0.0
 10
286.1963307600313
 20
376.7473836733779
 30
0.0
 10
285.9778455647651
 20
376.477823393551
 30
0.0
 10
285.4896901995513
 20
375.9896680158158
 30
0.0
 10
285.2201299253287
 20
375.7711828136353
 30
0.0
 10
284.6484355525611
 20
375.3974212597605
 30
0.0
 10
284.3464498897027
 20
375.242170477896
 30
0.0
 10
283.4232227485496
 20
374.8766732655288
 30
0.0
 10
282.7874895914289
 20
374.7692795670376
 30
0.0
 10
282.1982339270978
 20
374.769279565272
 30
0.0
  0
SPLINE
  5
178
330
1F
100
AcDbEntity
  8
0
  6
Continuous
 62
     7
370
    25
100
AcDbSpline
210
0.0
220
0.0
230
1.0
 70
     8
 71
     3
 72
    14
 73
    10
 74
     0
 42
0.00000001
 43
0.00000001
 40
0.0
 40
0.0
 40
0.0
 40
0.0
 40
0.0026283545570111
 40
0.0026283545570111
 40
0.0026283545570111
 40
0.0052567090778632
 40
0.0052567090778632
 40
0.0052567090778632
 40
0.0104863578434055
 40
0.0104863578434055
 40
0.0104863578434055
 40
0.0104863578434055
 10
288.2002741128034
 20
504.6152718683044
 30
0.0
 10
289.0644103007217
 20
504.7596731286599
 30
0.0
 10
289.9285127870418
 20
504.9042762287772
 30
0.0
 10
290.7925796724084
 20
505.0490916039114
 30
0.0
 10
291.6566465522491
 20
505.1939069781195
 30
0.0
 10
292.5206782521914
 20
505.3389323029324
 30
0.0
 10
293.3846894724549
 20
505.4840793893777
 30
0.0
 10
295.1038164373912
 20
505.7728791923639
 30
0.0
 10
296.8225500682547
 20
506.0640211496655
 30
0.0
 10
298.5418466502597
 20
506.3518094588127
 30
0.0
  0
LINE
  5
179
330
1F
100
AcDbEntity
  8
0
  6
Continuous
 62
     7
370
    25
100
AcDbLine
 10
389.7737184438
 20
523.6786024016
 30
0.0
 11
390.0999965975
 21
521.6987169352
 31
0.0
  0
SPLINE
  5
17A
330
1F
100
AcDbEntity
  8
0
  6
Continuous
 62
     7
370
    18
100
AcDbSpline
210
0.0
220
0.0
230
1.0
 70
    24
 71
     3
 72
    10
 73
     6
 74
     0
 42
0.00000001
 43
0.00000001
 40
0.0
 40
0.0
 40
0.0
 40
0.0
 40
0.5
 40
0.5
 40
1.0
 40
1.0
 40
1.0
 40
1.0
 10
388.6306635567502
 20
524.2889899778771
 30
0.0
 10
388.6174345957714
 20
524.369264513588
 30
0.0
 10
388.6073514550235
 20
524.4304499267718
 30
0.0
 10
388.5944602072084
 20
524.5086751887455
 30
0.0
 10
388.5916118806987
 20
524.5259590927601
 30
0.0
 10
388.5916118807502
 20
524.5259590927628
 30
0.0
  0
ARC
  5
17B
330
1F
100
AcDbEntity
  8
0
  6
Continuous
 62
     7
370
    25
100
AcDbCircle
 10
388.7588158777
 20
523.5113500288
 30
0.0
 40
1.028591546237928
100
AcDbArc
 50
9.3580330718
 51
99.3580327291
  0
LINE
  5
17C
330
1F
100
AcDbEntity
  8
0
  6
Continuous
 62
     7
370
    25
100
AcDbLine
 10
287.169513311
 20
504.0722589351
 30
0.0
 11
287.1810054979
 21
506.9453057908
 31
0.0
  0
SPLINE
  5
17D
330
1F
100
AcDbEntity
  8
0
  6
Continuous
 62
     7
370
    25
100
AcDbSpline
210
0.0
220
0.0
230
1.0
 70
     8
 71
     3
 72
    12
 73
     8
 74
     0
 42
0.00000001
 43
0.00000001
 40
0.0
 40
0.0
 40
0.0
 40
0.0
 40
0.5000000000000078
 40
0.5000000000000078
 40
0.7500000000000039
 40
0.7500000000000039
 40
1.0
 40
1.0
 40
1.0
 40
1.0
 10
287.204412733613
 20
504.0688080946579
 30
0.0
 10
287.2611029313505
 20
504.1746292293993
 30
0.0
 10
287.3861375077778
 20
504.2872974045129
 30
0.0
 10
287.6458866825435
 20
504.4370520068302
 30
0.0
 10
287.7444416567243
 20
504.4835304594637
 30
0.0
 10
287.9621641759341
 20
504.562887670064
 30
0.0
 10
288.0790039193736
 20
504.5950062657252
 30
0.0
 10
288.2002741029641
 20
504.6152718666359
 30
0.0
  0
LINE
  5
17E
330
1F
100
AcDbEntity
  8
0
  6
Continuous
 62
     7
370
    25
100
AcDbLine
 10
287.2044127336
 20
504.0688080947
 30
0.0
 11
287.169513311
 21
504.0722589351
 31
0.0
  0
LINE
  5
17F
330
1F
100
AcDbEntity
  8
0
  6
Continuous
 62
     7
370
    25
100
AcDbLine
 10
287.1982325866
 20
494.8376214744
 30
0.0
 11
287.1982325866
 21
419.8376205027
 31
0.0
  0
LINE
  5
180
330
1F
100
AcDbEntity
  8
0
  6
Continuous
 62
     7
370
    25
100
AcDbLine
 10
446.1982325864
 20
495.8376214744
 30
0.0
 11
288.1982325864
 21
495.8376214744
 31
0.0
  0
SPLINE
  5
181
330
1F
100
AcDbEntity
  8
0
  6
Continuous
 62
     7
370
    25
100
AcDbSpline
210
0.0
220
0.0
230
1.0
 70
    24
 71
     3
 72
     8
 73
     4
 74
     0
 42
0.00000001
 43
0.00000001
 40
0.0
 40
0.0
 40
0.0
 40
0.0
 40
1.0
 40
1.0
 40
1.0
 40
1.0
 10
287.2044127336112
 20
504.0688080946541
 30
0.0
 10
288.1173691393714
 20
503.978535342564
 30
0.0
 10
289.0706379149848
 20
503.8842765200035
 30
0.0
 10
290.0511171693927
 20
503.7873271365455
 30
0.0
  0
SPLINE
  5
182
330
1F
100
AcDbEntity
  8
0
  6
Continuous
 62
     7
370
    25
100
AcDbSpline
210
0.0
220
0.0
230
1.0
 70
     8
 71
     3
 72
    10
 73
     6
 74
     0
 42
0.00000001
 43
0.00000001
 40
0.0
 40
0.0
 40
0.0
 40
0.0
 40
0.5
 40
0.5
 40
1.0
 40
1.0
 40
1.0
 40
1.0
 10
299.8948661635843
 20
501.0671956068171
 30
0.0
 10
300.6578389133164
 20
500.7073997223107
 30
0.0
 10
301.4399274904923
 20
500.4166617436832
 30
0.0
 10
303.0417759034611
 20
499.9672547258959
 30
0.0
 10
303.8615181511671
 20
499.8085798696919
 30
0.0
 10
304.7016304815428
 20
499.7189604094312
 30
0.0
  0
SPLINE
  5
183
330
1F
100
AcDbEntity
  8
0
  6
Continuous
 62
     7
370
    25
100
AcDbSpline
210
0.0
220
0.0
230
1.0
 70
     8
 71
     3
 72
    14
 73
    10
 74
     0
 42
0.00000001
 43
0.00000001
 40
0.0
 40
0.0
 40
0.0
 40
0.0
 40
0.25
 40
0.25
 40
0.5
 40
0.5
 40
0.75
 40
0.75
 40
1.0
 40
1.0
 40
1.0
 40
1.0
 10
290.0511171693926
 20
503.7873271365454
 30
0.0
 10
290.9031042735212
 20
503.7030830038029
 30
0.0
 10
291.754094242291
 20
503.5819852656704
 30
0.0
 10
293.4407524589734
 20
503.267533922843
 30
0.0
 10
294.2745781189057
 20
503.0747304109184
 30
0.0
 10
295.9241471776589
 20
502.6183035365348
 30
0.0
 10
296.7405570777398
 20
502.3542103482661
 30
0.0
 10
298.3393038755175
 20
501.760700013859
 30
0.0
 10
299.124261775521
 20
501.4305903512625
 30
0.0
 10
299.8948661635843
 20
501.0671956068171
 30
0.0
  0
SPLINE
  5
184
330
1F
100
AcDbEntity
  8
0
  6
Continuous
 62
     7
370
    25
100
AcDbSpline
210
0.0
220
0.0
230
1.0
 70
     8
 71
     3
 72
    10
 73
     6
 74
     0
 42
0.00000001
 43
0.00000001
 40
0.0
 40
0.0
 40
0.0
 40
0.0
 40
0.5
 40
0.5
 40
1.0
 40
1.0
 40
1.0
 40
1.0
 10
447.1982325863543
 20
494.8376214743804
 30
0.0
 10
447.1982325863534
 20
495.0994208621789
 30
0.0
 10
447.0904594899627
 20
495.3596081331422
 30
0.0
 10
446.7202192451164
 20
495.7298483779873
 30
0.0
 10
446.4600319741529
 20
495.8376214743769
 30
0.0
 10
446.1982325863543
 20
495.8376214743769
 30
0.0
  0
LINE
  5
185
330
1F
100
AcDbEntity
  8
0
  6
Continuous
 62
     7
370
    25
100
AcDbLine
 10
447.1982325864
 20
494.8376214744
 30
0.0
 11
447.1982325864
 21
484.8376200609
 31
0.0
  0
SPLINE
  5
186
330
1F
100
AcDbEntity
  8
0
  6
Continuous
 62
     7
370
    18
100
AcDbSpline
210
0.0
220
0.0
230
1.0
 70
     8
 71
     3
 72
     8
 73
     4
 74
     0
 42
0.00000001
 43
0.00000001
 40
0.0
 40
0.0
 40
0.0
 40
0.0
 40
1.0
 40
1.0
 40
1.0
 40
1.0
 10
288.2176371205377
 20
508.9408819531524
 30
0.0
 10
321.6950646485453
 20
514.1158736084319
 30
0.0
 10
355.1676273126572
 20
519.241968176525
 30
0.0
 10
388.6306635567502
 20
524.2889899778772
 30
0.0
  0
LINE
  5
187
330
1F
100
AcDbEntity
  8
0
  6
Continuous
 62
     7
370
    18
100
AcDbLine
 10
288.2217514538
 20
509.9694652704
 30
0.0
 11
288.2176371205
 21
508.9408819532
 31
0.0
  0
LINE
  5
188
330
1F
100
AcDbEntity
  8
0
  6
Continuous
 62
     7
370
    25
100
AcDbLine
 10
287.1890538036
 20
508.9449962866
 30
0.0
 11
287.1810538676
 21
506.9450122862
 31
0.0
  0
ARC
  5
189
330
1F
100
AcDbEntity
  8
0
  6
Continuous
 62
     7
370
    25
100
AcDbCircle
 10
288.2176371205
 20
508.9408819535
 30
0.0
 40
1.028591545499509
100
AcDbArc
 50
89.7708181024
 51
179.7708181144
  0
SPLINE
  5
18A
330
1F
100
AcDbEntity
  8
0
  6
Continuous
 62
     7
370
    25
100
AcDbSpline
210
0.0
220
0.0
230
1.0
 70
     8
 71
     3
 72
    17
 73
    13
 74
     0
 42
0.00000001
 43
0.00000001
 40
0.0
 40
0.0
 40
0.0
 40
0.0
 40
0.0000309342141816
 40
0.0002685100770304
 40
0.0006076568033498
 40
0.0012498736691662
 40
0.0035798530210144
 40
0.0128010207162254
 40
0.0495647395772391
 40
0.1969522453358347
 40
0.4421349999705055
 40
0.9999999999999999
 40
0.9999999999999999
 40
0.9999999999999999
 40
0.9999999999999999
 10
353.198232587019
 20
479.8380460452011
 30
0.0
 10
353.1981196282179
 20
479.8380460447114
 30
0.0
 10
353.1971391418146
 20
479.8380460404611
 30
0.0
 10
353.1949302816938
 20
479.8380458871243
 30
0.0
 10
353.1911194432059
 20
479.8380451568017
 30
0.0
 10
353.1834213345454
 20
479.8380423044013
 30
0.0
 10
353.1673729415125
 20
479.838029717714
 30
0.0
 10
353.131361492787
 20
479.8379746688493
 30
0.0
 10
353.0075892043728
 20
479.8374825552563
 30
0.0
 10
353.0840730777692
 20
479.8377241336889
 30
0.0
 10
353.0276867566978
 20
479.8375382453052
 30
0.0
 10
353.0420360461945
 20
479.8375855319802
 30
0.0
 10
353.0520042782691
 20
479.8376183813106
 30
0.0
  0
SPLINE
  5
18B
330
1F
100
AcDbEntity
  8
0
  6
Continuous
 62
     7
370
    25
100
AcDbSpline
210
0.0
220
0.0
230
1.0
 70
     8
 71
     3
 72
    23
 73
    19
 74
     0
 42
0.00000001
 43
0.00000001
 40
0.0
 40
0.0
 40
0.0
 40
0.0
 40
1.736884773864148
 40
3.473769547728295
 40
5.210654321592443
 40
6.947539095456591
 40
8.684423869320739
 40
10.42130864318489
 40
12.15819341704903
 40
13.89507819091318
 40
15.63196296477733
 40
17.36884773864148
 40
19.10573251250563
 40
20.84261728636977
 40
52.39352589075726
 40
83.94443449514475
 40
92.75701556081138
 40
101.569596626478
 40
101.569596626478
 40
101.569596626478
 40
101.569596626478
 10
288.221751453808
 20
509.9694652703703
 30
0.0
 10
288.7929629330068
 20
510.0522297480652
 30
0.0
 10
289.9357787499758
 20
510.2178033432849
 30
0.0
 10
291.6476584040666
 20
510.4658057075168
 30
0.0
 10
293.3601405098431
 20
510.7138963089432
 30
0.0
 10
295.0724100943791
 20
510.9619758893253
 30
0.0
 10
296.7846653482183
 20
511.2100921279625
 30
0.0
 10
298.4968188082742
 20
511.4582512762294
 30
0.0
 10
300.2089166206975
 20
511.706478962633
 30
0.0
 10
301.9207601583819
 20
511.9547653165621
 30
0.0
 10
303.6330003366902
 20
512.203223675288
 30
0.0
 10
305.345310755543
 20
512.4518256374413
 30
0.0
 10
307.057605635879
 20
512.7005776985973
 30
0.0
 10
318.5656081151316
 20
514.3735439057135
 30
0.0
 10
339.9712642811506
 20
517.5080206826018
 30
0.0
 10
363.6296993912918
 20
520.9538031324628
 30
0.0
 10
379.8654335708476
 20
523.2812439046578
 30
0.0
 10
385.6826446801905
 20
524.1113251780736
 30
0.0
 10
388.5916118807502
 20
524.5259590927628
 30
0.0
  0
LINE
  5
18C
330
1F
100
AcDbEntity
  8
0
  6
Continuous
 62
     7
370
    25
100
AcDbLine
 10
287.1982328203
 20
419.8376205027
 30
0.0
 11
287.1982328203
 21
390.7692795607
 31
0.0
  0
LINE
  5
18D
330
1F
100
AcDbEntity
  8
0
  6
Continuous
 62
     7
370
    25
100
AcDbLine
 10
287.1982331376
 20
379.7692796961
 30
0.0
 11
287.1982331376
 21
390.7692796586
 31
0.0
  0
LINE
  5
18E
330
1F
100
AcDbEntity
  8
0
  6
Continuous
 62
     7
370
    25
100
AcDbLine
 10
446.1982325864
 20
479.8380460452
 30
0.0
 11
353.1982325864
 21
479.8380460452
 31
0.0
  0
SPLINE
  5
18F
330
1F
100
AcDbEntity
  8
0
  6
Continuous
 62
     7
370
    25
100
AcDbSpline
210
0.0
220
0.0
230
1.0
 70
    24
 71
     3
 72
    26
 73
    22
 74
     0
 42
0.00000001
 43
0.00000001
 40
0.0
 40
0.0
 40
0.0
 40
0.0
 40
0.1250000000000013
 40
0.1250000000000013
 40
0.2500000000000027
 40
0.2500000000000027
 40
0.3125000000000033
 40
0.3125000000000033
 40
0.375000000000004
 40
0.375000000000004
 40
0.4375000000000047
 40
0.4375000000000047
 40
0.5000000000000053
 40
0.5000000000000053
 40
0.562500000000006
 40
0.562500000000006
 40
0.6250000000000067
 40
0.6250000000000067
 40
0.7500000000000052
 40
0.7500000000000052
 40
1.0
 40
1.0
 40
1.0
 40
1.0
 10
447.1982325863543
 20
484.8376200643066
 30
0.0
 10
447.1982325863543
 20
484.4679210504455
 30
0.0
 10
447.1982325863542
 20
484.0987143368648
 30
0.0
 10
447.1982325863542
 20
483.3624267292921
 30
0.0
 10
447.1982325863543
 20
482.9930885832962
 30
0.0
 10
447.1982325863543
 20
482.4577169672812
 30
0.0
 10
447.1982325863543
 20
482.2819753599496
 30
0.0
 10
447.1982325863543
 20
481.941679234744
 30
0.0
 10
447.1982325863542
 20
481.7804893872366
 30
0.0
 10
447.1982325863542
 20
481.5046209680656
 30
0.0
 10
447.1982325863543
 20
481.3971817597171
 30
0.0
 10
447.1982325863543
 20
481.2288077609541
 30
0.0
 10
447.1982325863543
 20
481.1682948087668
 30
0.0
 10
447.1982325863543
 20
481.0694682863627
 30
0.0
 10
447.1982325863543
 20
481.0327659287215
 30
0.0
 10
447.1982325863543
 20
480.9738387258719
 30
0.0
 10
447.1982325863543
 20
480.9511594165572
 30
0.0
 10
447.1982325863543
 20
480.8959674131713
 30
0.0
 10
447.1982325863542
 20
480.8771467608526
 30
0.0
 10
447.1982325863542
 20
480.8383691507973
 30
0.0
 10
447.1982325863543
 20
480.8382681700487
 30
0.0
 10
447.1982325863543
 20
480.8380460900514
 30
0.0
  0
ARC
  5
190
330
1F
100
AcDbEntity
  8
0
  6
Continuous
 62
     7
370
    25
100
AcDbCircle
 10
446.1982325864
 20
480.8380460452
 30
0.0
 40
1.000000000000001
100
AcDbArc
 50
270.0
 51
0.0000025699
  0
LWPOLYLINE
  5
191
330
1F
100
AcDbEntity
  8
0
  6
Continuous
 62
     7
370
    25
100
AcDbPolyline
 90
        2
 70
   128
 43
0.0
 10
288.2217514538
 20
509.9694652704
 10
288.2217514538
 20
509.9694652704
  0
LINE
  5
192
330
1F
100
AcDbEntity
  8
0
  6
Continuous
 62
     7
370
    25
100
AcDbLine
 10
287.1982318544
 20
390.7692795548
 30
0.0
 11
287.1982318544
 21
379.7692795922
 31
0.0
  0
LINE
  5
193
330
1F
100
AcDbEntity
  8
0
  6
Continuous
 62
     7
370
    25
100
AcDbLine
 10
287.1982331376
 20
390.7692796586
 30
0.0
 11
287.1982318544
 21
390.7692795548
 31
0.0
  0
LINE
  5
194
330
1F
100
AcDbEntity
  8
0
  6
Continuous
 62
     7
370
    25
100
AcDbLine
 10
290.0133931843
 20
503.6376204524
 30
0.0
 11
291.0699231982
 21
503.6376204524
 31
0.0
  0
SPLINE
  5
195
330
1F
100
AcDbEntity
  8
0
  6
Continuous
 62
     7
370
    25
100
AcDbSpline
210
0.0
220
0.0
230
1.0
 70
    24
 71
     3
 72
     8
 73
     4
 74
     0
 42
0.00000001
 43
0.00000001
 40
0.0
 40
0.0
 40
0.0
 40
0.0
 40
1.0
 40
1.0
 40
1.0
 40
1.0
 10
438.055941905208
 20
479.8380460451987
 30
0.0
 10
438.4531451276179
 20
479.8380460451987
 30
0.0
 10
438.6590153848031
 20
479.8380460451987
 30
0.0
 10
438.6590153848031
 20
479.8380460451987
 30
0.0
  0
SPLINE
  5
196
330
1F
100
AcDbEntity
  8
0
  6
Continuous
 62
     8
370
    18
100
AcDbSpline
210
0.0
220
0.0
230
1.0
 70
     8
 71
     3
 72
    10
 73
     6
 74
     0
 42
0.00000001
 43
0.00000001
 40
0.5781271939100342
 40
0.5781271939100342
 40
0.5781271939100342
 40
0.5781271939100342
 40
1.154236230988867
 40
1.154236230988867
 40
1.161213034834396
 40
1.161213034834396
 40
1.161213034834396
 40
1.161213034834396
 10
303.9967357742598
 20
500.4730638841188
 30
0.0
 10
304.1265299839463
 20
500.333728448592
 30
0.0
 10
304.2564464873342
 20
500.1944724423834
 30
0.0
 10
304.388043620078
 20
500.0537571764957
 30
0.0
 10
304.3896182433873
 20
500.0520734903061
 30
0.0
 10
304.3911928890951
 20
500.0503898201054
 30
0.0
  0
SPLINE
  5
197
330
1F
100
AcDbEntity
  8
0
  6
Continuous
 62
     8
370
    18
100
AcDbSpline
210
0.0
220
0.0
230
1.0
 70
     8
 71
     3
 72
    44
 73
    40
 74
     0
 42
0.00000001
 43
0.00000001
 40
1.161213034834238
 40
1.161213034834238
 40
1.161213034834238
 40
1.161213034834238
 40
1.215563289518763
 40
1.215563289518763
 40
1.288701289238202
 40
1.288701289238202
 40
1.434977288677093
 40
1.434977288677093
 40
1.727529287554872
 40
1.727529287554872
 40
2.020081286432652
 40
2.020081286432652
 40
2.312633285310443
 40
2.312633285310443
 40
2.897737283066002
 40
2.897737283066002
 40
3.190289281943782
 40
3.190289281943782
 40
3.482841280821562
 40
3.482841280821562
 40
4.067945278577133
 40
4.067945278577133
 40
4.360497277454912
 40
4.360497277454912
 40
4.653049276332692
 40
4.653049276332692
 40
5.238153274088252
 40
5.238153274088252
 40
5.823257271843812
 40
5.823257271843812
 40
6.408361269599383
 40
6.408361269599383
 40
6.993465267354942
 40
6.993465267354942
 40
7.578569265110502
 40
7.578569265110502
 40
8.163673262866062
 40
8.163673262866062
 40
8.172668223542955
 40
8.172668223542955
 40
8.172668223542955
 40
8.172668223542955
 10
299.2874985736401
 20
505.5351236726005
 30
0.0
 10
299.2993463225313
 20
505.5226137423613
 30
0.0
 10
299.3112038257079
 20
505.5100860446632
 30
0.0
 10
299.3390623608854
 20
505.4807188273072
 30
0.0
 10
299.35505471167
 20
505.4638332494728
 30
0.0
 10
299.4030782175994
 20
505.4131219423194
 30
0.0
 10
299.4351572001973
 20
505.3792104250841
 30
0.0
 10
299.5315618946474
 20
505.2772232074904
 30
0.0
 10
299.5960431309735
 20
505.2089059601895
 30
0.0
 10
299.7254895553144
 20
505.0716976061838
 30
0.0
 10
299.7904053051454
 20
505.0028358890639
 30
0.0
 10
299.920560445057
 20
504.8645867869191
 30
0.0
 10
299.9857470377256
 20
504.7952691183997
 30
0.0
 10
300.1816433006419
 20
504.5864957053443
 30
0.0
 10
300.3124351234247
 20
504.4464953382126
 30
0.0
 10
300.508951050905
 20
504.235662124102
 30
0.0
 10
300.574464072455
 20
504.1652946352184
 30
0.0
 10
300.7056333520072
 20
504.02432327856
 30
0.0
 10
300.7712221451509
 20
503.9537858830363
 30
0.0
 10
300.9680745669221
 20
503.7418932666972
 30
0.0
 10
301.0993550022676
 20
503.6003623043097
 30
0.0
 10
301.2962675280853
 20
503.387850099917
 30
0.0
 10
301.3619223260957
 20
503.3169564548885
 30
0.0
 10
301.4931891639055
 20
503.1751615870332
 30
0.0
 10
301.5588426973343
 20
503.1042166924492
 30
0.0
 10
301.7557610687283
 20
502.891373686568
 30
0.0
 10
301.8870486588427
 20
502.7493977116333
 30
0.0
 10
302.1496328324279
 20
502.465422909288
 30
0.0
 10
302.2809587319604
 20
502.3233940223371
 30
0.0
 10
302.5436063569107
 20
502.0394210347334
 30
0.0
 10
302.674984568614
 20
501.8974175535423
 30
0.0
 10
302.9377799850631
 20
501.6135335159357
 30
0.0
 10
303.0692288273287
 20
501.4716084643915
 30
0.0
 10
303.3322387026556
 20
501.1878958600273
 30
0.0
 10
303.4637866862692
 20
501.0461146660126
 30
0.0
 10
303.7271084001849
 20
500.762700704668
 30
0.0
 10
303.8588394751015
 20
500.6211038016656
 30
0.0
 10
303.9926827733536
 20
500.4774148741582
 30
0.0
 10
303.9947092589007
 20
500.4752393694569
 30
0.0
 10
303.9967357742599
 20
500.4730638841186
 30
0.0
  0
SPLINE
  5
198
330
1F
100
AcDbEntity
  8
0
  6
Continuous
 62
     8
370
    18
100
AcDbSpline
210
0.0
220
0.0
230
1.0
 70
     8
 71
     3
 72
    12
 73
     8
 74
     0
 42
0.00000001
 43
0.00000001
 40
8.172668223544328
 40
8.172668223544328
 40
8.172668223544328
 40
8.172668223544328
 40
8.176115058065244
 40
8.176115058065244
 40
8.468667056943024
 40
8.468667056943024
 40
8.487454801976577
 40
8.487454801976577
 40
8.487454801976577
 40
8.487454801976577
 10
299.0825752627218
 20
505.7508973451314
 30
0.0
 10
299.0833189627353
 20
505.7501147918333
 30
0.0
 10
299.0840627380242
 20
505.7493321709701
 30
0.0
 10
299.1479414125765
 20
505.6821182232363
 30
0.0
 10
299.2114723939264
 20
505.6153442204367
 30
0.0
 10
299.2793087017818
 20
505.5437703913864
 30
0.0
 10
299.2834030549212
 20
505.5394480935465
 30
0.0
 10
299.2874985736392
 20
505.5351236726015
 30
0.0
  0
SPLINE
  5
199
330
1F
100
AcDbEntity
  8
0
  6
Continuous
 62
     8
370
    18
100
AcDbSpline
210
0.0
220
0.0
230
1.0
 70
     8
 71
     3
 72
    16
 73
    12
 74
     0
 42
0.00000001
 43
0.00000001
 40
8.48745480197669
 40
8.48745480197669
 40
8.48745480197669
 40
8.48745480197669
 40
8.505695716722947
 40
8.505695716722947
 40
8.523980216652808
 40
8.523980216652808
 40
8.542264716582668
 40
8.542264716582668
 40
8.578833716442398
 40
8.578833716442398
 40
8.648524881640807
 40
8.648524881640807
 40
8.648524881640807
 40
8.648524881640807
 10
298.9788004958846
 20
505.8603182539603
 30
0.0
 10
298.9826883666903
 20
505.8561780027944
 30
0.0
 10
298.9865574845203
 20
505.8520406467786
 30
0.0
 10
298.9943800864042
 20
505.8437877259911
 30
0.0
 10
298.9982971167946
 20
505.839657460905
 30
0.0
 10
299.0061441806654
 20
505.8313839106868
 30
0.0
 10
299.0100555504612
 20
505.8272609579888
 30
0.0
 10
299.021817600334
 20
505.81486490719
 30
0.0
 10
299.0296855885953
 20
505.8065760403146
 30
0.0
 10
299.0525324592994
 20
505.7825144410215
 30
0.0
 10
299.067538474566
 20
505.7667197035411
 30
0.0
 10
299.0825752627217
 20
505.7508973451315
 30
0.0
  0
SPLINE
  5
19A
330
1F
100
AcDbEntity
  8
0
  6
Continuous
 62
     8
370
    18
100
AcDbSpline
210
0.0
220
0.0
230
1.0
 70
     8
 71
     3
 72
    16
 73
    12
 74
     0
 42
0.00000001
 43
0.00000001
 40
8.64852488164624
 40
8.64852488164624
 40
8.64852488164624
 40
8.64852488164624
 40
8.67384782792568
 40
8.67384782792568
 40
8.746985827645121
 40
8.746985827645121
 40
8.783554827504851
 40
8.783554827504851
 40
8.801839327434712
 40
8.801839327434712
 40
8.80188291261288
 40
8.80188291261288
 40
8.80188291261288
 40
8.80188291261288
 10
298.8818091905351
 20
505.9646518657636
 30
0.0
 10
298.8871060805672
 20
505.9589092905928
 30
0.0
 10
298.8924024123443
 20
505.9531583996209
 30
0.0
 10
298.9130430731356
 20
505.9308155088752
 30
0.0
 10
298.9284043861161
 20
505.9142581443122
 30
0.0
 10
298.951620794854
 20
505.8893504663156
 30
0.0
 10
298.9593473268979
 20
505.8810792822698
 30
0.0
 10
298.971002251318
 20
505.8686318248735
 30
0.0
 10
298.9748753755978
 20
505.8644980901451
 30
0.0
 10
298.9787819162736
 20
505.8603380395655
 30
0.0
 10
298.9787912061309
 20
505.8603281467564
 30
0.0
 10
298.9788004958811
 20
505.860318253964
 30
0.0
  0
SPLINE
  5
19B
330
1F
100
AcDbEntity
  8
0
  6
Continuous
 62
     8
370
    18
100
AcDbSpline
210
0.0
220
0.0
230
1.0
 70
     8
 71
     3
 72
    18
 73
    14
 74
     0
 42
0.00000001
 43
0.00000001
 40
8.801882912619167
 40
8.801882912619167
 40
8.801882912619167
 40
8.801882912619167
 40
8.8095006011305
 40
8.8095006011305
 40
8.818642851095431
 40
8.818642851095431
 40
8.83692735102529
 40
8.83692735102529
 40
8.91006535074473
 40
8.91006535074473
 40
8.94663435060446
 40
8.94663435060446
 40
8.957880404178454
 40
8.957880404178454
 40
8.957880404178454
 40
8.957880404178454
 10
298.78363287313
 20
506.0698387215834
 30
0.0
 10
298.7852431173786
 20
506.0681434390818
 30
0.0
 10
298.7868569799336
 20
506.0664455152776
 30
0.0
 10
298.7903778655498
 20
506.0627280133057
 30
0.0
 10
298.792305460342
 20
506.0606755643586
 30
0.0
 10
298.7980776942964
 20
506.0545444957118
 30
0.0
 10
298.8019109477908
 20
506.0504656967718
 30
0.0
 10
298.8211217516257
 20
506.0300013415546
 30
0.0
 10
298.8364627335129
 20
506.0135731767789
 30
0.0
 10
298.8594466052367
 20
505.9888333250688
 30
0.0
 10
298.8670969986825
 20
505.9805752852116
 30
0.0
 10
298.8771043270053
 20
505.9697508412947
 30
0.0
 10
298.8794568138204
 20
505.9672021735918
 30
0.0
 10
298.8818091905312
 20
505.9646518657679
 30
0.0
  0
SPLINE
  5
19C
330
1F
100
AcDbEntity
  8
0
  6
Continuous
 62
     8
370
    18
100
AcDbSpline
210
0.0
220
0.0
230
1.0
 70
     8
 71
     3
 72
    18
 73
    14
 74
     0
 42
0.00000001
 43
0.00000001
 40
8.957880404168616
 40
8.957880404168616
 40
8.957880404168616
 40
8.957880404168616
 40
8.963411976457529
 40
8.963411976457529
 40
8.972554226422458
 40
8.972554226422458
 40
9.009123226282188
 40
9.009123226282188
 40
9.082261226001629
 40
9.082261226001629
 40
9.118830225861348
 40
9.118830225861348
 40
9.120354787324793
 40
9.120354787324793
 40
9.120354787324793
 40
9.120354787324793
 10
298.6813509659814
 20
506.1778964096845
 30
0.0
 10
298.6824956625016
 20
506.1766658246593
 30
0.0
 10
298.6836421288481
 20
506.1754357389272
 30
0.0
 10
298.6866990410359
 20
506.1721952519346
 30
0.0
 10
298.6886136433881
 20
506.1701692834395
 30
0.0
 10
298.6981585619347
 20
506.1600646051739
 30
0.0
 10
298.7058108647363
 20
506.1519693220419
 30
0.0
 10
298.7287876192386
 20
506.1276776595381
 30
0.0
 10
298.7441480634016
 20
506.111459336043
 30
0.0
 10
298.7672482316262
 20
506.0870998813456
 30
0.0
 10
298.7749468670367
 20
506.0789872670892
 30
0.0
 10
298.7829884875538
 20
506.0705171844504
 30
0.0
 10
298.7833106078817
 20
506.0701780059107
 30
0.0
 10
298.7836328731363
 20
506.0698387215768
 30
0.0
  0
SPLINE
  5
19D
330
1F
100
AcDbEntity
  8
0
  6
Continuous
 62
     8
370
    18
100
AcDbSpline
210
0.0
220
0.0
230
1.0
 70
     8
 71
     3
 72
    22
 73
    18
 74
     0
 42
0.00000001
 43
0.00000001
 40
9.12035478733263
 40
9.12035478733263
 40
9.12035478733263
 40
9.12035478733263
 40
9.156923787192351
 40
9.156923787192351
 40
9.17520828712221
 40
9.17520828712221
 40
9.19349278705207
 40
9.19349278705207
 40
9.23006178691179
 40
9.23006178691179
 40
9.26663078677152
 40
9.26663078677152
 40
9.33976878649096
 40
9.33976878649096
 40
9.358053286420821
 40
9.358053286420821
 40
9.361663964089
 40
9.361663964089
 40
9.361663964089
 40
9.361663964089
 10
298.543313920963
 20
506.3450583743901
 30
0.0
 10
298.5491780405202
 20
506.3360165710564
 30
0.0
 10
298.5551233580679
 20
506.3270340923038
 30
0.0
 10
298.5644678529489
 20
506.3137337733896
 30
0.0
 10
298.5676510106969
 20
506.309328403603
 30
0.0
 10
298.5741510818588
 20
506.3006209804125
 30
0.0
 10
298.5774798019759
 20
506.2963143392047
 30
0.0
 10
298.5876173123913
 20
506.2834427693658
 30
0.0
 10
298.5945445047523
 20
506.2750030793301
 30
0.0
 10
298.6086826725173
 20
506.2582055792582
 30
0.0
 10
298.6158637268717
 20
506.2498827651106
 30
0.0
 10
298.6377179933811
 20
506.2250701103167
 30
0.0
 10
298.6526802142339
 20
506.2087602517659
 30
0.0
 10
298.6715353866859
 20
506.1884420727037
 30
0.0
 10
298.6753285718789
 20
506.18436309942
 30
0.0
 10
298.6798573419745
 20
506.1795031261935
 30
0.0
 10
298.6806037769412
 20
506.1786996615749
 30
0.0
 10
298.6813509659765
 20
506.1778964096897
 30
0.0
  0
SPLINE
  5
19E
330
1F
100
AcDbEntity
  8
0
  6
Continuous
 62
     8
370
    18
100
AcDbSpline
210
0.0
220
0.0
230
1.0
 70
     8
 71
     3
 72
     8
 73
     4
 74
     0
 42
0.00000001
 43
0.00000001
 40
0.1199204586113476
 40
0.1199204586113476
 40
0.1199204586113476
 40
0.1199204586113476
 40
0.5781271939121482
 40
0.5781271939121482
 40
0.5781271939121482
 40
0.5781271939121482
 10
304.3911928890936
 20
500.0503898201069
 30
0.0
 10
304.4946089066574
 20
499.939813538608
 30
0.0
 10
304.5981215356409
 20
499.8293062218637
 30
0.0
 10
304.7016751818962
 20
499.7189127565662
 30
0.0
  0
LINE
  5
19F
330
1F
100
AcDbEntity
  8
0
  6
Continuous
 62
     8
370
    18
100
AcDbLine
 10
328.2982335896
 20
373.7692795607
 30
0.0
 11
282.0982335893
 21
373.7692795607
 31
0.0
  0
LINE
  5
1A0
330
1F
100
AcDbEntity
  8
0
  6
Continuous
 62
     8
370
    18
100
AcDbLine
 10
328.2982335896
 20
369.7692795601
 30
0.0
 11
328.2982335896
 21
373.7692795607
 31
0.0
  0
LINE
  5
1A1
330
1F
100
AcDbEntity
  8
0
  6
Continuous
 62
     8
370
    18
100
AcDbLine
 10
282.0982335893
 20
373.7692795607
 30
0.0
 11
282.0982335893
 21
369.7692795601
 31
0.0
  0
LINE
  5
1A2
330
1F
100
AcDbEntity
  8
0
  6
Continuous
 62
     8
370
    18
100
AcDbLine
 10
328.2982335896
 20
374.7692795607
 30
0.0
 11
328.2982335896
 21
373.7692795607
 31
0.0
  0
LINE
  5
1A3
330
1F
100
AcDbEntity
  8
0
  6
Continuous
 62
     8
370
    18
100
AcDbLine
 10
282.0982335893
 20
374.7692795607
 30
0.0
 11
282.0982335893
 21
373.7692795607
 31
0.0
  0
LINE
  5
1A4
330
1F
100
AcDbEntity
  8
0
  6
Continuous
 62
     8
370
    18
100
AcDbLine
 10
281.0982335893
 20
373.7692795607
 30
0.0
 11
282.0982335893
 21
373.7692795607
 31
0.0
  0
LINE
  5
1A5
330
1F
100
AcDbEntity
  8
0
  6
Continuous
 62
     8
370
    18
100
AcDbLine
 10
328.2982335896
 20
373.7692795607
 30
0.0
 11
329.2982335896
 21
373.7692795607
 31
0.0
  0
SPLINE
  5
1A6
330
1F
100
AcDbEntity
  8
0
  6
Continuous
 62
     8
370
    18
100
AcDbSpline
210
0.0
220
0.0
230
1.0
 70
     8
 71
     3
 72
    18
 73
    14
 74
     0
 42
0.00000001
 43
0.00000001
 40
0.0
 40
0.0
 40
0.0
 40
0.0
 40
0.2500000000000006
 40
0.2500000000000006
 40
0.3750000000000001
 40
0.3750000000000001
 40
0.4999999999999996
 40
0.4999999999999996
 40
0.6249999999999991
 40
0.6249999999999991
 40
0.7499999999999986
 40
0.7499999999999986
 40
1.0
 40
1.0
 40
1.0
 40
1.0
 10
288.1982328200475
 20
379.7692796965518
 30
0.0
 10
288.1982328200477
 20
379.1800240375597
 30
0.0
 10
288.1982328222647
 20
378.5442908794682
 30
0.0
 10
288.1982328298095
 20
377.621063727562
 30
0.0
 10
288.1982328330141
 20
377.3190780596411
 30
0.0
 10
288.1982328407292
 20
376.7473836745946
 30
0.0
 10
288.198232845239
 20
376.4778233931664
 30
0.0
 10
288.1982328553153
 20
375.9896680124708
 30
0.0
 10
288.1982328608794
 20
375.7711828089397
 30
0.0
 10
288.1982328726799
 20
375.3974212531216
 30
0.0
 10
288.1982328789132
 20
375.2421704706659
 30
0.0
 10
288.1982328979697
 20
374.8766732577963
 30
0.0
 10
288.1982329110918
 20
374.7692795607318
 30
0.0
 10
288.1982329232547
 20
374.7692795607318
 30
0.0
  0
SPLINE
  5
1A7
330
1F
100
AcDbEntity
  8
0
  6
Continuous
 62
     8
370
    18
100
AcDbSpline
210
0.0
220
0.0
230
1.0
 70
     8
 71
     3
 72
    18
 73
    14
 74
     0
 42
0.00000001
 43
0.00000001
 40
0.0
 40
0.0
 40
0.0
 40
0.0
 40
0.2500000000000003
 40
0.2500000000000003
 40
0.3750000000000004
 40
0.3750000000000004
 40
0.5000000000000004
 40
0.5000000000000004
 40
0.6250000000000004
 40
0.6250000000000004
 40
0.7500000000000006
 40
0.7500000000000006
 40
1.0
 40
1.0
 40
1.0
 40
1.0
 10
303.1982337699442
 20
374.7692795607318
 30
0.0
 10
303.1982337577815
 20
374.7692795607318
 30
0.0
 10
303.1982337446594
 20
374.8766732577964
 30
0.0
 10
303.1982337256031
 20
375.2421704706659
 30
0.0
 10
303.1982337193699
 20
375.3974212531216
 30
0.0
 10
303.1982337075694
 20
375.7711828089398
 30
0.0
 10
303.1982337020053
 20
375.9896680124708
 30
0.0
 10
303.1982336919292
 20
376.4778233931664
 30
0.0
 10
303.1982336874194
 20
376.7473836745946
 30
0.0
 10
303.1982336797043
 20
377.3190780596411
 30
0.0
 10
303.1982336764997
 20
377.621063727562
 30
0.0
 10
303.1982336689551
 20
378.5442908794682
 30
0.0
 10
303.1982336667381
 20
379.1800240375597
 30
0.0
 10
303.1982336667378
 20
379.7692796965518
 30
0.0
  0
LINE
  5
1A8
330
1F
100
AcDbEntity
  8
0
  6
Continuous
 62
     8
370
    18
100
AcDbLine
 10
288.2095888154
 20
506.9411914569
 30
0.0
 11
288.2002818153
 21
504.6144414306
 31
0.0
  0
LINE
  5
1A9
330
1F
100
AcDbEntity
  8
0
  6
Continuous
 62
     8
370
    18
100
AcDbLine
 10
288.209637185
 20
506.940897953
 30
0.0
 11
388.7588642495
 21
523.5110565293
 31
0.0
  0
LINE
  5
1AA
330
1F
100
AcDbEntity
  8
0
  6
Continuous
 62
     8
370
    18
100
AcDbLine
 10
389.0913987086
 20
521.4931887928
 30
0.0
 11
388.7588158793
 21
523.5113500387
 31
0.0
  0
LINE
  5
1AB
330
1F
100
AcDbEntity
  8
0
  6
Continuous
 62
     8
370
    18
100
AcDbLine
 10
388.7588158803
 20
523.5113500327
 30
0.0
 11
389.7737184438
 21
523.6786024016
 31
0.0
  0
SPLINE
  5
1AC
330
1F
100
AcDbEntity
  8
0
  6
Continuous
 62
     8
370
    18
100
AcDbSpline
210
0.0
220
0.0
230
1.0
 70
    24
 71
     3
 72
    10
 73
     6
 74
     0
 42
0.00000001
 43
0.00000001
 40
0.0
 40
0.0
 40
0.0
 40
0.0
 40
0.5
 40
0.5
 40
1.0
 40
1.0
 40
1.0
 40
1.0
 10
388.7588642494838
 20
523.5110565293005
 30
0.0
 10
388.7370584160657
 20
523.6433763073695
 30
0.0
 10
388.7133249945615
 20
523.7873928649807
 30
0.0
 10
388.6682037598815
 20
524.0611926156071
 30
0.0
 10
388.6470389937356
 20
524.1896223389817
 30
0.0
 10
388.6306635567502
 20
524.2889899778771
 30
0.0
  0
SPLINE
  5
1AD
330
1F
100
AcDbEntity
  8
0
  6
Continuous
 62
     8
370
    18
100
AcDbSpline
210
0.0
220
0.0
230
1.0
 70
    24
 71
     3
 72
    14
 73
    10
 74
     0
 42
0.00000001
 43
0.00000001
 40
0.0
 40
0.0
 40
0.0
 40
0.0
 40
0.25
 40
0.25
 40
0.5
 40
0.5
 40
0.75
 40
0.75
 40
1.0
 40
1.0
 40
1.0
 40
1.0
 10
288.2096371850028
 20
506.9408979529585
 30
0.0
 10
288.0749918152547
 20
506.9414365344354
 30
0.0
 10
287.9403981396288
 20
506.941974909136
 30
0.0
 10
287.6916022142153
 20
506.9429700928353
 30
0.0
 10
287.5774978669635
 20
506.9434265102237
 30
0.0
 10
287.387075972933
 20
506.9441881977999
 30
0.0
 10
287.3108333581945
 20
506.9444931682594
 30
0.0
 10
287.2077772577341
 20
506.9449053926635
 30
0.0
 10
287.1810043251424
 20
506.9450124843957
 30
0.0
 10
287.1810043251437
 20
506.9450124843979
 30
0.0
  0
LINE
  5
1AE
330
1F
100
AcDbEntity
  8
0
  6
Continuous
 62
     8
370
    18
100
AcDbLine
 10
288.1982325864
 20
494.8376214729
 30
0.0
 11
287.1982325866
 21
494.8376214744
 31
0.0
  0
LINE
  5
1AF
330
1F
100
AcDbEntity
  8
0
  6
Continuous
 62
     8
370
    18
100
AcDbLine
 10
288.1982325862
 20
494.8376214729
 30
0.0
 11
288.1982325862
 21
419.8376205027
 31
0.0
  0
SPLINE
  5
1B0
330
1F
100
AcDbEntity
  8
0
  6
Continuous
 62
     8
370
    18
100
AcDbSpline
210
0.0
220
0.0
230
1.0
 70
     8
 71
     3
 72
    14
 73
    10
 74
     0
 42
0.00000001
 43
0.00000001
 40
0.0
 40
0.0
 40
0.0
 40
0.0
 40
0.25
 40
0.25
 40
0.5
 40
0.5
 40
0.75
 40
0.75
 40
1.0
 40
1.0
 40
1.0
 40
1.0
 10
288.1982325865853
 20
495.8376214743769
 30
0.0
 10
288.1982325865409
 20
495.8376214743776
 30
0.0
 10
288.1982325865011
 20
495.8161427355314
 30
0.0
 10
288.1982325864451
 20
495.7186768151068
 30
0.0
 10
288.1982325864293
 20
495.6423593281473
 30
0.0
 10
288.1982325864292
 20
495.4470971819151
 30
0.0
 10
288.198232586445
 20
495.3288131334052
 30
0.0
 10
288.1982325865011
 20
495.0826192322795
 30
0.0
 10
288.1982325865409
 20
494.9554726031514
 30
0.0
 10
288.1982325865853
 20
494.8376214728635
 30
0.0
  0
SPLINE
  5
1B1
330
1F
100
AcDbEntity
  8
0
  6
Continuous
 62
     8
370
    18
100
AcDbSpline
210
0.0
220
0.0
230
1.0
 70
    24
 71
     3
 72
    14
 73
    10
 74
     0
 42
0.00000001
 43
0.00000001
 40
0.0
 40
0.0
 40
0.0
 40
0.0
 40
0.25
 40
0.25
 40
0.5
 40
0.5
 40
0.75
 40
0.75
 40
1.0
 40
1.0
 40
1.0
 40
1.0
 10
446.1982325863543
 20
494.8376214728635
 30
0.0
 10
446.198232586324
 20
494.955472603152
 30
0.0
 10
446.1982325862968
 20
495.0826192322805
 30
0.0
 10
446.1982325862586
 20
495.3288131334068
 30
0.0
 10
446.1982325862478
 20
495.4470971819171
 30
0.0
 10
446.1982325862478
 20
495.6423593281492
 30
0.0
 10
446.1982325862585
 20
495.7186768151086
 30
0.0
 10
446.1982325862968
 20
495.8161427355324
 30
0.0
 10
446.198232586324
 20
495.8376214743782
 30
0.0
 10
446.1982325863543
 20
495.8376214743769
 30
0.0
  0
LINE
  5
1B2
330
1F
100
AcDbEntity
  8
0
  6
Continuous
 62
     8
370
    18
100
AcDbLine
 10
446.1982325864
 20
494.8376214729
 30
0.0
 11
288.1982325864
 21
494.8376214729
 31
0.0
  0
SPLINE
  5
1B3
330
1F
100
AcDbEntity
  8
0
  6
Continuous
 62
     8
370
    18
100
AcDbSpline
210
0.0
220
0.0
230
1.0
 70
     8
 71
     3
 72
    38
 73
    34
 74
     0
 42
0.00000001
 43
0.00000001
 40
0.0
 40
0.0
 40
0.0
 40
0.0
 40
0.0625
 40
0.0625
 40
0.1249999999999999
 40
0.1249999999999999
 40
0.1874999999999999
 40
0.1874999999999999
 40
0.2499999999999999
 40
0.2499999999999999
 40
0.3124999999999999
 40
0.3124999999999999
 40
0.3749999999999999
 40
0.3749999999999999
 40
0.4375
 40
0.4375
 40
0.5
 40
0.5
 40
0.5625
 40
0.5625
 40
0.625
 40
0.625
 40
0.6875
 40
0.6875
 40
0.7499999999999999
 40
0.7499999999999999
 40
0.8124999999999999
 40
0.8124999999999999
 40
0.8749999999999999
 40
0.8749999999999999
 40
0.9374999999999999
 40
0.9374999999999999
 40
1.0
 40
1.0
 40
1.0
 40
1.0
 10
353.1982325863548
 20
484.8376198481713
 30
0.0
 10
350.6445163307603
 20
484.8376198481713
 30
0.0
 10
348.0919300401353
 20
484.8381263472419
 30
0.0
 10
343.0903043390217
 20
484.8292154341101
 30
0.0
 10
340.6411787988462
 20
484.8197118922223
 30
0.0
 10
335.9220204646236
 20
484.7690660850318
 30
0.0
 10
333.6519015408898
 20
484.7278376900437
 30
0.0
 10
329.3433173713165
 20
484.5840056117187
 30
0.0
 10
327.3047659957901
 20
484.4813157986962
 30
0.0
 10
323.4914768107776
 20
484.1793864571405
 30
0.0
 10
321.7166528716044
 20
483.9800607989216
 30
0.0
 10
318.4451612944289
 20
483.4468313681466
 30
0.0
 10
316.9484075267396
 20
483.112841465905
 30
0.0
 10
314.2321657652535
 20
482.2719850671583
 30
0.0
 10
313.0125916417696
 20
481.7650324409678
 30
0.0
 10
310.8371692696122
 20
480.5422659238615
 30
0.0
 10
309.8812348912516
 20
479.8263659032602
 30
0.0
 10
308.2094866290606
 20
478.1546176268988
 30
0.0
 10
307.4935866155432
 20
477.1986832414534
 30
0.0
 10
306.2708201121659
 20
475.0232608555628
 30
0.0
 10
305.7638674926192
 20
473.8036867254322
 30
0.0
 10
304.9230111063238
 20
471.0874449514872
 30
0.0
 10
304.5890212098884
 20
469.5906911779873
 30
0.0
 10
304.0557917895749
 20
466.3191995903405
 30
0.0
 10
303.85646613601
 20
464.5443756465081
 30
0.0
 10
303.5545368024216
 20
460.7310864535179
 30
0.0
 10
303.4518469927112
 20
458.6925350746747
 30
0.0
 10
303.3080149196455
 20
454.3839508998338
 30
0.0
 10
303.2667865266034
 20
452.1138319741508
 30
0.0
 10
303.2161407221236
 20
447.3946736372142
 30
0.0
 10
303.2066371809992
 20
444.9455480962755
 30
0.0
 10
303.1977262686453
 20
439.9439223943894
 30
0.0
 10
303.198232767729
 20
437.3913361037567
 30
0.0
 10
303.198232767729
 20
434.8376198481713
 30
0.0
  0
LINE
  5
1B4
330
1F
100
AcDbEntity
  8
0
  6
Continuous
 62
     8
370
    18
100
AcDbLine
 10
303.1982327677
 20
419.8376205027
 30
0.0
 11
303.1982327677
 21
434.8376204748
 31
0.0
  0
LINE
  5
1B5
330
1F
100
AcDbEntity
  8
0
  6
Continuous
 62
     8
370
    18
100
AcDbLine
 10
446.1982325864
 20
484.8376200594
 30
0.0
 11
446.1982325864
 21
494.8376214729
 31
0.0
  0
LINE
  5
1B6
330
1F
100
AcDbEntity
  8
0
  6
Continuous
 62
     8
370
    18
100
AcDbLine
 10
353.1982325864
 20
484.8376198482
 30
0.0
 11
446.1982325864
 21
484.8376200594
 31
0.0
  0
SPLINE
  5
1B7
330
1F
100
AcDbEntity
  8
0
  6
Continuous
 62
     8
370
    18
100
AcDbSpline
210
0.0
220
0.0
230
1.0
 70
     8
 71
     3
 72
    10
 73
     6
 74
     0
 42
0.00000001
 43
0.00000001
 40
0.0
 40
0.0
 40
0.0
 40
0.0
 40
0.5
 40
0.5
 40
1.0
 40
1.0
 40
1.0
 40
1.0
 10
447.1982325863543
 20
494.8376214743804
 30
0.0
 10
447.1982325863543
 20
494.8376214739853
 30
0.0
 10
447.0904594899641
 20
494.8376214735928
 30
0.0
 10
446.7202192451175
 20
494.8376214730342
 30
0.0
 10
446.4600319741534
 20
494.8376214728716
 30
0.0
 10
446.1982325863543
 20
494.8376214728716
 30
0.0
  0
SPLINE
  5
1B8
330
1F
100
AcDbEntity
  8
0
  6
Continuous
 62
     8
370
    18
100
AcDbSpline
210
0.0
220
0.0
230
1.0
 70
     8
 71
     3
 72
    10
 73
     6
 74
     0
 42
0.00000001
 43
0.00000001
 40
0.0
 40
0.0
 40
0.0
 40
0.0
 40
0.5
 40
0.5
 40
1.0
 40
1.0
 40
1.0
 40
1.0
 10
446.1982325863543
 20
484.8376200593879
 30
0.0
 10
446.4600319741534
 20
484.8376200593879
 30
0.0
 10
446.7202192451176
 20
484.8376200595504
 30
0.0
 10
447.0904594899641
 20
484.837620060109
 30
0.0
 10
447.1982325863543
 20
484.8376200605016
 30
0.0
 10
447.1982325863543
 20
484.8376200608966
 30
0.0
  0
LINE
  5
1B9
330
1F
100
AcDbEntity
  8
0
  6
Continuous
 62
     8
370
    18
100
AcDbLine
 10
288.2176371205
 20
508.9408819532
 30
0.0
 11
288.209637185
 21
506.940897953
 31
0.0
  0
LINE
  5
1BA
330
1F
100
AcDbEntity
  8
0
  6
Continuous
 62
     8
370
    18
100
AcDbLine
 10
303.1982336667
 20
379.769279734
 30
0.0
 11
303.1982336667
 21
390.7692796966
 31
0.0
  0
LINE
  5
1BB
330
1F
100
AcDbEntity
  8
0
  6
Continuous
 62
     8
370
    18
100
AcDbLine
 10
288.19823282
 20
390.7692796966
 30
0.0
 11
288.19823282
 21
379.769279734
 31
0.0
  0
LINE
  5
1BC
330
1F
100
AcDbEntity
  8
0
  6
Continuous
 62
     8
370
    18
100
AcDbLine
 10
303.1982330019
 20
390.7692796966
 30
0.0
 11
303.1982330019
 21
419.8376205027
 31
0.0
  0
LINE
  5
1BD
330
1F
100
AcDbEntity
  8
0
  6
Continuous
 62
     8
370
    18
100
AcDbLine
 10
288.19823282
 20
419.8376205027
 30
0.0
 11
288.19823282
 21
390.7692796966
 31
0.0
  0
SPLINE
  5
1BE
330
1F
100
AcDbEntity
  8
0
  6
Continuous
 62
     8
370
    18
100
AcDbSpline
210
0.0
220
0.0
230
1.0
 70
    24
 71
     3
 72
    22
 73
    18
 74
     0
 42
0.00000001
 43
0.00000001
 40
39.71234552961985
 40
39.71234552961985
 40
39.71234552961985
 40
39.71234552961985
 40
42.70254058986018
 40
42.70254058986018
 40
44.3449459971625
 40
44.3449459971625
 40
45.98735140446481
 40
45.98735140446481
 40
46.80855410811597
 40
46.80855410811597
 40
47.62975681176712
 40
47.62975681176712
 40
49.27216221906944
 40
49.27216221906944
 40
50.91456762637176
 40
50.91456762637176
 40
52.55697303367407
 40
52.55697303367407
 40
52.55697303367407
 40
52.55697303367407
 10
446.1982325863544
 20
479.8380460451987
 30
0.0
 10
446.1982325863544
 20
479.8382890958133
 30
0.0
 10
446.1982325863543
 20
479.8386283427814
 30
0.0
 10
446.1982325863544
 20
479.8894516238514
 30
0.0
 10
446.1982325863544
 20
479.9184748343695
 30
0.0
 10
446.1982325863544
 20
480.0336753138553
 30
0.0
 10
446.1982325863544
 20
480.1190119818065
 30
0.0
 10
446.1982325863544
 20
480.3534924487912
 30
0.0
 10
446.1982325863544
 20
480.4509269261037
 30
0.0
 10
446.1982325863544
 20
480.694045557146
 30
0.0
 10
446.1982325863544
 20
480.8403534821272
 30
0.0
 10
446.1982325863544
 20
481.3447593574974
 30
0.0
 10
446.1982325863544
 20
481.7595092971463
 30
0.0
 10
446.1982325863544
 20
482.6146127649702
 30
0.0
 10
446.1982325863544
 20
483.0582073870909
 30
0.0
 10
446.1982325863544
 20
483.9457248775583
 30
0.0
 10
446.1982325863544
 20
484.3920087732412
 30
0.0
 10
446.1982325863544
 20
484.8376198481865
 30
0.0
  0
LINE
  5
1BF
330
1F
100
AcDbEntity
  8
0
  6
Continuous
 62
     8
370
    18
100
AcDbLine
 10
292.0618625858
 20
503.5048268576
 30
0.0
 11
289.8250230723
 21
503.5048268576
 31
0.0
  0
ENDSEC
  0
SECTION
  2
OBJECTS
  0
DICTIONARY
  5
C
330
0
100
AcDbDictionary
281
     1
  3
ACAD_GROUP
350
D
  3
ACAD_LAYOUT
350
1A
  3
ACAD_MLINESTYLE
350
17
  3
ACAD_PLOTSETTINGS
350
19
  3
ACAD_PLOTSTYLENAME
350
E
  3
ACAD_SCALELIST
350
47
  3
DWGPROPS
350
1C0
  0
DICTIONARY
  5
D
102
{ACAD_REACTORS
330
C
102
}
330
C
100
AcDbDictionary
281
     1
  0
DICTIONARY
  5
1A
102
{ACAD_REACTORS
330
C
102
}
330
C
100
AcDbDictionary
281
     1
  3
Layout1
350
1E
  3
Layout2
350
26
  3
Model
350
22
  0
DICTIONARY
  5
17
102
{ACAD_REACTORS
330
C
102
}
330
C
100
AcDbDictionary
281
     1
  3
Standard
350
18
  0
DICTIONARY
  5
19
102
{ACAD_REACTORS
330
C
102
}
330
C
100
AcDbDictionary
281
     1
  0
ACDBDICTIONARYWDFLT
  5
E
102
{ACAD_REACTORS
330
C
102
}
330
C
100
AcDbDictionary
281
     1
  3
Normal
350
F
100
AcDbDictionaryWithDefault
340
F
  0
DICTIONARY
  5
47
102
{ACAD_REACTORS
330
C
102
}
330
C
100
AcDbDictionary
281
     1
  3
A0
350
48
  3
A1
350
49
  3
A2
350
4A
  3
A3
350
4B
  3
A4
350
4C
  3
A5
350
4D
  3
A6
350
4E
  3
A7
350
4F
  3
A8
350
50
  3
A9
350
51
  3
B0
350
52
  3
B1
350
53
  3
B2
350
54
  3
B3
350
55
  3
B4
350
56
  3
B5
350
57
  3
B6
350
58
  0
XRECORD
  5
1C0
102
{ACAD_REACTORS
330
C
102
}
330
C
100
AcDbXrecord
280
     1
  1
DWGPROPS COOKIE
  2

  3

  4

  6

  7

  8
fue-task
  9

300
=
301
=
302
=
303
=
304
=
305
=
306
=
307
=
308
=
309
=
 40
0.0
 41
2460346.411247639
 42
2460346.4112489
  1

 90
        0
  0
LAYOUT
  5
1E
102
{ACAD_REACTORS
330
1A
102
}
330
1A
100
AcDbPlotSettings
  1

  2
none_device
  4

  6

 40
0.0
 41
0.0
 42
0.0
 43
0.0
 44
0.0
 45
0.0
 46
0.0
 47
0.0
 48
0.0
 49
0.0
140
0.0
141
0.0
142
1.0
143
1.0
 70
   688
 72
     1
 73
     0
 74
     5
  7

 75
    16
147
1.0
148
0.0
149
0.0
100
AcDbLayout
  1
Layout1
 70
     1
 71
     1
 10
0.0
 20
0.0
 11
420.0
 21
297.0
 12
0.0
 22
0.0
 32
0.0
 14
1.0000000000E+20
 24
1.0000000000E+20
 34
1.0000000000E+20
 15
-1.0000000000E+20
 25
-1.0000000000E+20
 35
-1.0000000000E+20
146
0.0
 13
0.0
 23
0.0
 33
0.0
 16
1.0
 26
0.0
 36
0.0
 17
0.0
 27
1.0
 37
0.0
 76
     0
330
1B
  0
LAYOUT
  5
26
102
{ACAD_REACTORS
330
1A
102
}
330
1A
100
AcDbPlotSettings
  1

  2
none_device
  4

  6

 40
0.0
 41
0.0
 42
0.0
 43
0.0
 44
0.0
 45
0.0
 46
0.0
 47
0.0
 48
0.0
 49
0.0
140
0.0
141
0.0
142
1.0
143
1.0
 70
   688
 72
     1
 73
     0
 74
     5
  7

 75
    16
147
1.0
148
0.0
149
0.0
100
AcDbLayout
  1
Layout2
 70
     1
 71
     2
 10
0.0
 20
0.0
 11
0.0
 21
0.0
 12
0.0
 22
0.0
 32
0.0
 14
0.0
 24
0.0
 34
0.0
 15
0.0
 25
0.0
 35
0.0
146
0.0
 13
0.0
 23
0.0
 33
0.0
 16
1.0
 26
0.0
 36
0.0
 17
0.0
 27
1.0
 37
0.0
 76
     0
330
23
  0
LAYOUT
  5
22
102
{ACAD_REACTORS
330
1A
102
}
330
1A
100
AcDbPlotSettings
  1

  2
none_device
  4
Letter_(8.50_x_11.00_Inches)
  6

 40
6.35
 41
6.35
 42
6.35000508
 43
6.35000508
 44
215.9
 45
279.4
 46
0.0
 47
0.0
 48
0.0
 49
0.0
140
0.0
141
0.0
142
1.0
143
1.0
 70
  1712
 72
     1
 73
     0
 74
     0
  7

 75
     0
147
1.0
148
0.0
149
0.0
100
AcDbLayout
  1
Model
 70
     1
 71
     0
 10
0.0
 20
0.0
 11
594.0
 21
841.0
 12
0.0
 22
0.0
 32
0.0
 14
0.0
 24
0.0
 34
0.0
 15
594.0
 25
841.0
 35
0.0
146
0.0
 13
0.0
 23
0.0
 33
0.0
 16
1.0
 26
0.0
 36
0.0
 17
0.0
 27
1.0
 37
0.0
 76
     0
330
1F
331
29
  0
MLINESTYLE
  5
18
102
{ACAD_REACTORS
330
17
102
}
330
17
100
AcDbMlineStyle
  2
Standard
 70
     0
  3

 62
   256
 51
90.0
 52
90.0
 71
     2
 49
0.5
 62
   256
  6
BYLAYER
 49
-0.5
 62
   256
  6
BYLAYER
  0
ACDBPLACEHOLDER
  5
F
102
{ACAD_REACTORS
330
E
102
}
330
E
  0
SCALE
  5
48
102
{ACAD_REACTORS
330
47
102
}
330
47
100
AcDbScale
 70
     0
300
1:1
140
1.0
141
1.0
290
     1
  0
SCALE
  5
49
102
{ACAD_REACTORS
330
47
102
}
330
47
100
AcDbScale
 70
     0
300
1:2
140
1.0
141
2.0
290
     0
  0
SCALE
  5
4A
102
{ACAD_REACTORS
330
47
102
}
330
47
100
AcDbScale
 70
     0
300
1:4
140
1.0
141
4.0
290
     0
  0
SCALE
  5
4B
102
{ACAD_REACTORS
330
47
102
}
330
47
100
AcDbScale
 70
     0
300
1:5
140
1.0
141
5.0
290
     0
  0
SCALE
  5
4C
102
{ACAD_REACTORS
330
47
102
}
330
47
100
AcDbScale
 70
     0
300
1:8
140
1.0
141
8.0
290
     0
  0
SCALE
  5
4D
102
{ACAD_REACTORS
330
47
102
}
330
47
100
AcDbScale
 70
     0
300
1:10
140
1.0
141
10.0
290
     0
  0
SCALE
  5
4E
102
{ACAD_REACTORS
330
47
102
}
330
47
100
AcDbScale
 70
     0
300
1:16
140
1.0
141
16.0
290
     0
  0
SCALE
  5
4F
102
{ACAD_REACTORS
330
47
102
}
330
47
100
AcDbScale
 70
     0
300
1:20
140
1.0
141
20.0
290
     0
  0
SCALE
  5
50
102
{ACAD_REACTORS
330
47
102
}
330
47
100
AcDbScale
 70
     0
300
1:30
140
1.0
141
30.0
290
     0
  0
SCALE
  5
51
102
{ACAD_REACTORS
330
47
102
}
330
47
100
AcDbScale
 70
     0
300
1:40
140
1.0
141
40.0
290
     0
  0
SCALE
  5
52
102
{ACAD_REACTORS
330
47
102
}
330
47
100
AcDbScale
 70
     0
300
1:50
140
1.0
141
50.0
290
     0
  0
SCALE
  5
53
102
{ACAD_REACTORS
330
47
102
}
330
47
100
AcDbScale
 70
     0
300
1:100
140
1.0
141
100.0
290
     0
  0
SCALE
  5
54
102
{ACAD_REACTORS
330
47
102
}
330
47
100
AcDbScale
 70
     0
300
2:1
140
2.0
141
1.0
290
     0
  0
SCALE
  5
55
102
{ACAD_REACTORS
330
47
102
}
330
47
100
AcDbScale
 70
     0
300
4:1
140
4.0
141
1.0
290
     0
  0
SCALE
  5
56
102
{ACAD_REACTORS
330
47
102
}
330
47
100
AcDbScale
 70
     0
300
8:1
140
8.0
141
1.0
290
     0
  0
SCALE
  5
57
102
{ACAD_REACTORS
330
47
102
}
330
47
100
AcDbScale
 70
     0
300
10:1
140
10.0
141
1.0
290
     0
  0
SCALE
  5
58
102
{ACAD_REACTORS
330
47
102
}
330
47
100
AcDbScale
 70
     0
300
100:1
140
100.0
141
1.0
290
     0
  0
ENDSEC
  0
EOF
