  0
SECTION
  2
HEADER
  9
$ACADVER
  1
AC1015
  9
$ACADMAINTVER
 70
     6
  9
$DWGCODEPAGE
  3
ANSI_1252
  9
$INSBASE
 10
0.0
 20
0.0
 30
0.0
  9
$EXTMIN
 10
0.0
 20
0.0
 30
0.0
  9
$EXTMAX
 10
594.0
 20
841.0
 30
0.0
  9
$LIMMIN
 10
0.0
 20
0.0
  9
$LIMMAX
 10
594.0
 20
841.0
  9
$ORTHOMODE
 70
     0
  9
$REGENMODE
 70
     1
  9
$FILLMODE
 70
     1
  9
$QTEXTMODE
 70
     0
  9
$MIRRTEXT
 70
     1
  9
$LTSCALE
 40
1.0
  9
$ATTMODE
 70
     1
  9
$TEXTSIZE
 40
10.0
  9
$TRACEWID
 40
1.0
  9
$TEXTSTYLE
  7
Standard
  9
$CLAYER
  8
0
  9
$CELTYPE
  6
ByLayer
  9
$CECOLOR
 62
   256
  9
$CELTSCALE
 40
1.0
  9
$DISPSILH
 70
     0
  9
$DIMSCALE
 40
1.0
  9
$DIMASZ
 40
2.5
  9
$DIMEXO
 40
0.0
  9
$DIMDLI
 40
3.75
  9
$DIMRND
 40
0.0
  9
$DIMDLE
 40
0.0
  9
$DIMEXE
 40
1.0
  9
$DIMTP
 40
0.0
  9
$DIMTM
 40
0.0
  9
$DIMTXT
 40
3.5
  9
$DIMCEN
 40
2.5
  9
$DIMTSZ
 40
0.0
  9
$DIMTOL
 70
     0
  9
$DIMLIM
 70
     0
  9
$DIMTIH
 70
     1
  9
$DIMTOH
 70
     1
  9
$DIMSE1
 70
     0
  9
$DIMSE2
 70
     0
  9
$DIMTAD
 70
     1
  9
$DIMZIN
 70
     0
  9
$DIMBLK
  1

  9
$DIMASO
 70
     1
  9
$DIMSHO
 70
     1
  9
$DIMPOST
  1

  9
$DIMAPOST
  1

  9
$DIMALT
 70
     0
  9
$DIMALTD
 70
     3
  9
$DIMALTF
 40
0.0393700787
  9
$DIMLFAC
 40
1.0
  9
$DIMTOFL
 70
     1
  9
$DIMTVP
 40
0.0
  9
$DIMTIX
 70
     0
  9
$DIMSOXD
 70
     0
  9
$DIMSAH
 70
     0
  9
$DIMBLK1
  1

  9
$DIMBLK2
  1

  9
$DIMSTYLE
  2
ISO-25
  9
$DIMCLRD
 70
     0
  9
$DIMCLRE
 70
     0
  9
$DIMCLRT
 70
     0
  9
$DIMTFAC
 40
1.0
  9
$DIMGAP
 40
1.5
  9
$DIMJUST
 70
     0
  9
$DIMSD1
 70
     0
  9
$DIMSD2
 70
     0
  9
$DIMTOLJ
 70
     0
  9
$DIMTZIN
 70
     0
  9
$DIMALTZ
 70
     0
  9
$DIMALTTZ
 70
     0
  9
$DIMUPT
 70
     0
  9
$DIMDEC
 70
     2
  9
$DIMTDEC
 70
     2
  9
$DIMALTU
 70
     2
  9
$DIMALTTD
 70
     3
  9
$DIMTXSTY
  7
Standard
  9
$DIMAUNIT
 70
     0
  9
$DIMADEC
 70
     2
  9
$DIMALTRND
 40
0.0
  9
$DIMAZIN
 70
     0
  9
$DIMDSEP
 70
    44
  9
$DIMATFIT
 70
     3
  9
$DIMFRAC
 70
     0
  9
$DIMLDRBLK
  1

  9
$DIMLUNIT
 70
     2
  9
$DIMLWD
 70
    -2
  9
$DIMLWE
 70
    -2
  9
$DIMTMOVE
 70
     0
  9
$LUNITS
 70
     2
  9
$LUPREC
 70
     2
  9
$SKETCHINC
 40
1.0
  9
$FILLETRAD
 40
0.0
  9
$AUNITS
 70
     0
  9
$AUPREC
 70
     2
  9
$MENU
  1
.
  9
$ELEVATION
 40
0.0
  9
$PELEVATION
 40
0.0
  9
$THICKNESS
 40
0.0
  9
$LIMCHECK
 70
     0
  9
$CHAMFERA
 40
0.0
  9
$CHAMFERB
 40
0.0
  9
$CHAMFERC
 40
0.0
  9
$CHAMFERD
 40
0.0
  9
$SKPOLY
 70
     0
  9
$TDCREATE
 40
2460075.329730486
  9
$TDUCREATE
 40
2460075.246397153
  9
$TDUPDATE
 40
2460075.329731389
  9
$TDUUPDATE
 40
2460075.246398055
  9
$TDINDWG
 40
0.0000000116
  9
$TDUSRTIMER
 40
0.0000000116
  9
$USRTIMER
 70
     1
  9
$ANGBASE
 50
0.0
  9
$ANGDIR
 70
     0
  9
$PDMODE
 70
     0
  9
$PDSIZE
 40
-1.0
  9
$PLINEWID
 40
0.0
  9
$SPLFRAME
 70
     0
  9
$SPLINETYPE
 70
     6
  9
$SPLINESEGS
 70
     8
  9
$HANDSEED
  5
16D
  9
$SURFTAB1
 70
     6
  9
$SURFTAB2
 70
     6
  9
$SURFTYPE
 70
     6
  9
$SURFU
 70
     6
  9
$SURFV
 70
     6
  9
$UCSBASE
  2

  9
$UCSNAME
  2

  9
$UCSORG
 10
0.0
 20
0.0
 30
0.0
  9
$UCSXDIR
 10
1.0
 20
0.0
 30
0.0
  9
$UCSYDIR
 10
0.0
 20
1.0
 30
0.0
  9
$UCSORTHOREF
  2

  9
$UCSORTHOVIEW
 70
     0
  9
$UCSORGTOP
 10
0.0
 20
0.0
 30
0.0
  9
$UCSORGBOTTOM
 10
0.0
 20
0.0
 30
0.0
  9
$UCSORGLEFT
 10
0.0
 20
0.0
 30
0.0
  9
$UCSORGRIGHT
 10
0.0
 20
0.0
 30
0.0
  9
$UCSORGFRONT
 10
0.0
 20
0.0
 30
0.0
  9
$UCSORGBACK
 10
0.0
 20
0.0
 30
0.0
  9
$PUCSBASE
  2

  9
$PUCSNAME
  2

  9
$PUCSORG
 10
0.0
 20
0.0
 30
0.0
  9
$PUCSXDIR
 10
1.0
 20
0.0
 30
0.0
  9
$PUCSYDIR
 10
0.0
 20
1.0
 30
0.0
  9
$PUCSORTHOREF
  2

  9
$PUCSORTHOVIEW
 70
     0
  9
$PUCSORGTOP
 10
0.0
 20
0.0
 30
0.0
  9
$PUCSORGBOTTOM
 10
0.0
 20
0.0
 30
0.0
  9
$PUCSORGLEFT
 10
0.0
 20
0.0
 30
0.0
  9
$PUCSORGRIGHT
 10
0.0
 20
0.0
 30
0.0
  9
$PUCSORGFRONT
 10
0.0
 20
0.0
 30
0.0
  9
$PUCSORGBACK
 10
0.0
 20
0.0
 30
0.0
  9
$USERI1
 70
     0
  9
$USERI2
 70
     0
  9
$USERI3
 70
     0
  9
$USERI4
 70
     0
  9
$USERI5
 70
     0
  9
$USERR1
 40
0.0
  9
$USERR2
 40
0.0
  9
$USERR3
 40
0.0
  9
$USERR4
 40
0.0
  9
$USERR5
 40
0.0
  9
$WORLDVIEW
 70
     1
  9
$SHADEDGE
 70
     3
  9
$SHADEDIF
 70
    70
  9
$TILEMODE
 70
     1
  9
$MAXACTVP
 70
    64
  9
$PINSBASE
 10
0.0
 20
0.0
 30
0.0
  9
$PLIMCHECK
 70
     0
  9
$PEXTMIN
 10
1.0000000000E+20
 20
1.0000000000E+20
 30
1.0000000000E+20
  9
$PEXTMAX
 10
-1.0000000000E+20
 20
-1.0000000000E+20
 30
-1.0000000000E+20
  9
$PLIMMIN
 10
0.0
 20
0.0
  9
$PLIMMAX
 10
420.0
 20
297.0
  9
$UNITMODE
 70
     0
  9
$VISRETAIN
 70
     1
  9
$PLINEGEN
 70
     0
  9
$PSLTSCALE
 70
     1
  9
$TREEDEPTH
 70
  3020
  9
$CMLSTYLE
  2
Standard
  9
$CMLJUST
 70
     0
  9
$CMLSCALE
 40
20.0
  9
$PROXYGRAPHICS
 70
     1
  9
$MEASUREMENT
 70
     1
  9
$CELWEIGHT
370
    -1
  9
$ENDCAPS
280
     0
  9
$JOINSTYLE
280
     0
  9
$LWDISPLAY
290
     1
  9
$INSUNITS
 70
     4
  9
$HYPERLINKBASE
  1

  9
$STYLESHEET
  1

  9
$XEDIT
290
     1
  9
$CEPSNTYPE
380
     0
  9
$PSTYLEMODE
290
     1
  9
$FINGERPRINTGUID
  2
{ca203d35-ec8d-4e86-a95b-f34a0bb698b1}
  9
$VERSIONGUID
  2
{FAEB1C32-E019-11D5-929B-00C0DF256EC4}
  9
$EXTNAMES
290
     1
  9
$PSVPSCALE
 40
0.0
  9
$OLESTARTUP
290
     0
  0
ENDSEC
  0
SECTION
  2
CLASSES
  0
CLASS
  1
ACDBDICTIONARYWDFLT
  2
AcDbDictionaryWithDefault
  3
ObjectDBX Classes
 90
        0
280
     0
281
     0
  0
CLASS
  1
VISUALSTYLE
  2
AcDbVisualStyle
  3
ObjectDBX Classes
 90
     4095
280
     0
281
     0
  0
CLASS
  1
MATERIAL
  2
AcDbMaterial
  3
ObjectDBX Classes
 90
     1153
280
     0
281
     0
  0
CLASS
  1
SCALE
  2
AcDbScale
  3
ObjectDBX Classes
 90
     1153
280
     0
281
     0
  0
CLASS
  1
TABLESTYLE
  2
AcDbTableStyle
  3
ObjectDBX Classes
 90
     4095
280
     0
281
     0
  0
CLASS
  1
MLEADERSTYLE
  2
AcDbMLeaderStyle
  3
ACDB_MLEADERSTYLE_CLASS
 90
     4095
280
     0
281
     0
  0
CLASS
  1
SUN
  2
AcDbSun
  3
SCENEOE
 90
     1153
280
     0
281
     0
  0
CLASS
  1
ACDBPLACEHOLDER
  2
AcDbPlaceHolder
  3
ObjectDBX Classes
 90
        0
280
     0
281
     0
  0
CLASS
  1
LAYOUT
  2
AcDbLayout
  3
ObjectDBX Classes
 90
        0
280
     0
281
     0
  0
ENDSEC
  0
SECTION
  2
TABLES
  0
TABLE
  2
VPORT
  5
8
330
0
100
AcDbSymbolTable
 70
     1
  0
VPORT
  5
29
330
8
100
AcDbSymbolTableRecord
100
AcDbViewportTableRecord
  2
*Active
 70
     0
 10
0.0
 20
0.0
 11
1.0
 21
1.0
 12
297.0
 22
420.5
 13
0.0
 23
0.0
 14
10.0
 24
10.0
 15
10.0
 25
10.0
 16
0.0
 26
0.0
 36
1.0
 17
0.0
 27
0.0
 37
0.0
 40
841.0
 41
0.7063020214
 42
50.0
 43
0.0
 44
0.0
 50
0.0
 51
0.0
 71
     0
 72
  2000
 73
     1
 74
     3
 75
     0
 76
     0
 77
     0
 78
     0
281
     0
 65
     1
110
0.0
120
0.0
130
0.0
111
1.0
121
0.0
131
0.0
112
0.0
122
1.0
132
0.0
 79
     0
146
0.0
  0
ENDTAB
  0
TABLE
  2
LTYPE
  5
5
330
0
100
AcDbSymbolTable
 70
     6
  0
LTYPE
  5
14
330
5
100
AcDbSymbolTableRecord
100
AcDbLinetypeTableRecord
  2
ByBlock
 70
     0
  3

 72
    65
 73
     0
 40
0.0
  0
LTYPE
  5
15
330
5
100
AcDbSymbolTableRecord
100
AcDbLinetypeTableRecord
  2
ByLayer
 70
     0
  3

 72
    65
 73
     0
 40
0.0
  0
LTYPE
  5
16
330
5
100
AcDbSymbolTableRecord
100
AcDbLinetypeTableRecord
  2
Continuous
 70
     0
  3
Solid line
 72
    65
 73
     0
 40
0.0
  0
LTYPE
  5
5E
330
5
100
AcDbSymbolTableRecord
100
AcDbLinetypeTableRecord
  2
HIDDEN
 70
     0
  3
Hidden __ __ __ __ __ __ __ __ __ __ __ __ __ __
 72
    65
 73
     2
 40
1.905
 49
1.27
 74
     0
 49
-0.635
 74
     0
  0
LTYPE
  5
5F
330
5
100
AcDbSymbolTableRecord
100
AcDbLinetypeTableRecord
  2
PHANTOM
 70
     0
  3
Phantom ______  __  __  ______  __  __  ______
 72
    65
 73
     6
 40
12.7
 49
6.35
 74
     0
 49
-1.27
 74
     0
 49
1.27
 74
     0
 49
-1.27
 74
     0
 49
1.27
 74
     0
 49
-1.27
 74
     0
  0
LTYPE
  5
60
330
5
100
AcDbSymbolTableRecord
100
AcDbLinetypeTableRecord
  2
CENTER
 70
     0
  3
Center ____ _ ____ _ ____ _ ____ _ ____ _ ____
 72
    65
 73
     4
 40
10.16
 49
6.35
 74
     0
 49
-1.27
 74
     0
 49
1.27
 74
     0
 49
-1.27
 74
     0
  0
LTYPE
  5
61
330
5
100
AcDbSymbolTableRecord
100
AcDbLinetypeTableRecord
  2
CENTERX2
 70
     0
  3
Center (2x) ________  __  ________  __  _____
 72
    65
 73
     4
 40
20.32
 49
12.7
 74
     0
 49
-2.54
 74
     0
 49
2.54
 74
     0
 49
-2.54
 74
     0
  0
LTYPE
  5
62
330
5
100
AcDbSymbolTableRecord
100
AcDbLinetypeTableRecord
  2
DOT2
 70
     0
  3
Dot (.5x) ........................................
 72
    65
 73
     2
 40
0.635
 49
0.0
 74
     0
 49
-0.635
 74
     0
  0
ENDTAB
  0
TABLE
  2
LAYER
  5
2
330
0
100
AcDbSymbolTable
 70
     1
  0
LAYER
  5
10
330
2
100
AcDbSymbolTableRecord
100
AcDbLayerTableRecord
  2
0
 70
     0
 62
     7
  6
Continuous
370
    -3
390
F
  0
ENDTAB
  0
TABLE
  2
STYLE
  5
3
330
0
100
AcDbSymbolTable
 70
     3
  0
STYLE
  5
11
330
3
100
AcDbSymbolTableRecord
100
AcDbTextStyleTableRecord
  2
Standard
 70
     0
 40
0.0
 41
1.0
 50
0.0
 71
     0
 42
10.0
  3
txt
  4

  0
STYLE
  5
66
330
3
100
AcDbSymbolTableRecord
100
AcDbTextStyleTableRecord
  2
SLDTEXTSTYLE0
 70
     0
 40
0.0
 41
0.96
 50
0.0
 71
     0
 42
10.0
  3
ISOCP3
  4

  0
STYLE
  5
7D
330
3
100
AcDbSymbolTableRecord
100
AcDbTextStyleTableRecord
  2
SLDTEXTSTYLE1
 70
     0
 40
0.0
 41
0.605
 50
0.0
 71
     0
 42
10.0
  3
TXT
  4

  0
ENDTAB
  0
TABLE
  2
VIEW
  5
6
330
0
100
AcDbSymbolTable
 70
     0
  0
ENDTAB
  0
TABLE
  2
UCS
  5
7
330
0
100
AcDbSymbolTable
 70
     0
  0
ENDTAB
  0
TABLE
  2
APPID
  5
9
330
0
100
AcDbSymbolTable
 70
     1
  0
APPID
  5
12
330
9
100
AcDbSymbolTableRecord
100
AcDbRegAppTableRecord
  2
ACAD
 70
     0
  0
ENDTAB
  0
TABLE
  2
DIMSTYLE
  5
A
330
0
100
AcDbSymbolTable
 70
     2
100
AcDbDimStyleTable
  0
DIMSTYLE
105
27
330
A
100
AcDbSymbolTableRecord
100
AcDbDimStyleTableRecord
  2
ISO-25
 70
     0
 41
2.5
 42
0.625
 43
3.75
 44
1.25
 73
     0
 74
     0
 77
     1
 78
     8
140
2.5
141
2.5
143
0.0393700787
147
0.625
171
     3
172
     1
178
     0
271
     2
272
     2
274
     3
278
    44
283
     0
284
     8
340
11
  0
DIMSTYLE
105
67
102
{ACAD_REACTORS
330
65
330
72
102
}
330
A
100
AcDbSymbolTableRecord
100
AcDbDimStyleTableRecord
  2
SLDDIMSTYLE0
 70
     0
 41
2.5
 44
0.0
 45
0.000000001
 73
     0
 74
     0
 77
     1
 78
    12
 79
     3
140
6.0
147
1.5
173
     1
178
     0
271
     2
272
     2
276
     2
284
    12
340
66
  0
ENDTAB
  0
TABLE
  2
BLOCK_RECORD
  5
1
330
0
100
AcDbSymbolTable
 70
     3
  0
BLOCK_RECORD
  5
1F
330
1
100
AcDbSymbolTableRecord
100
AcDbBlockTableRecord
  2
*Model_Space
340
22
  0
BLOCK_RECORD
  5
1B
330
1
100
AcDbSymbolTableRecord
100
AcDbBlockTableRecord
  2
*Paper_Space
340
1E
  0
BLOCK_RECORD
  5
23
330
1
100
AcDbSymbolTableRecord
100
AcDbBlockTableRecord
  2
*Paper_Space0
340
26
  0
BLOCK_RECORD
  5
68
330
1
100
AcDbSymbolTableRecord
100
AcDbBlockTableRecord
  2
_D
340
0
  0
BLOCK_RECORD
  5
73
330
1
100
AcDbSymbolTableRecord
100
AcDbBlockTableRecord
  2
_D_1
340
0
  0
ENDTAB
  0
ENDSEC
  0
SECTION
  2
BLOCKS
  0
BLOCK
  5
20
330
1F
100
AcDbEntity
  8
0
100
AcDbBlockBegin
  2
*Model_Space
 70
     0
 10
0.0
 20
0.0
 30
0.0
  3
*Model_Space
  1

  0
ENDBLK
  5
21
330
1F
100
AcDbEntity
  8
0
100
AcDbBlockEnd
  0
BLOCK
  5
1C
330
1B
100
AcDbEntity
 67
     1
  8
0
100
AcDbBlockBegin
  2
*Paper_Space
 70
     0
 10
0.0
 20
0.0
 30
0.0
  3
*Paper_Space
  1

  0
ENDBLK
  5
1D
330
1B
100
AcDbEntity
 67
     1
  8
0
100
AcDbBlockEnd
  0
BLOCK
  5
24
330
23
100
AcDbEntity
  8
0
100
AcDbBlockBegin
  2
*Paper_Space0
 70
     0
 10
0.0
 20
0.0
 30
0.0
  3
*Paper_Space0
  1

  0
ENDBLK
  5
25
330
23
100
AcDbEntity
  8
0
100
AcDbBlockEnd
  0
BLOCK
  5
69
330
68
100
AcDbEntity
  8
0
100
AcDbBlockBegin
  2
_D
 70
     0
 10
0.0
 20
0.0
 30
0.0
  3
_D
  1

  0
SOLID
  5
6B
330
68
100
AcDbEntity
  8
0
  6
Continuous
 62
     7
370
    18
100
AcDbTrace
 10
42.7614395004
 20
152.0299240879
 30
0.0
 11
42.4614395004
 21
149.5299240879
 31
0.0
 12
43.0614395004
 22
149.5299240879
 32
0.0
 13
43.0614395004
 23
149.5299240879
 33
0.0
  0
SOLID
  5
6C
330
68
100
AcDbEntity
  8
0
  6
Continuous
 62
     7
370
    18
100
AcDbTrace
 10
42.7614395004
 20
52.0299240879
 30
0.0
 11
43.0614395004
 21
54.5299240879
 31
0.0
 12
42.4614395004
 22
54.5299240879
 32
0.0
 13
42.4614395004
 23
54.5299240879
 33
0.0
  0
LINE
  5
6D
330
68
100
AcDbEntity
  8
0
  6
Continuous
 62
     7
370
     0
100
AcDbLine
 10
56.6850079902
 20
152.0299240879
 30
0.0
 11
41.7614395004
 21
152.0299240879
 31
0.0
  0
LINE
  5
6E
330
68
100
AcDbEntity
  8
0
  6
Continuous
 62
     7
370
     0
100
AcDbLine
 10
56.6850079902
 20
52.0299240879
 30
0.0
 11
41.7614395004
 21
52.0299240879
 31
0.0
  0
LINE
  5
6F
330
68
100
AcDbEntity
  8
0
  6
Continuous
 62
     7
370
     0
100
AcDbLine
 10
42.7614395004
 20
152.0299240879
 30
0.0
 11
42.7614395004
 21
52.0299240879
 31
0.0
  0
MTEXT
  5
70
330
68
100
AcDbEntity
  8
0
  6
Continuous
 62
     7
370
    18
100
AcDbMText
 10
35.0270332946
 20
94.3680541463
 30
0.0
 40
6.0
 41
0.0
 71
     1
 72
     1
  1
100
  7
SLDTEXTSTYLE0
 11
-7.044195017643634E-15
 21
1.0
 31
0.0
 73
     1
 44
1.0
  0
MTEXT
  5
71
330
68
100
AcDbEntity
  8
0
  6
Continuous
 62
     7
370
    18
100
AcDbMText
 10
35.0270332946
 20
105.7430548466
 30
0.0
 40
6.0
 41
0.0
 71
     1
 72
     1
  1
mm
  7
SLDTEXTSTYLE0
 11
-7.044195017643634E-15
 21
1.0
 31
0.0
 73
     1
 44
1.0
  0
ENDBLK
  5
6A
330
68
100
AcDbEntity
  8
0
100
AcDbBlockEnd
  0
BLOCK
  5
74
330
73
100
AcDbEntity
  8
0
100
AcDbBlockBegin
  2
_D_1
 70
     0
 10
0.0
 20
0.0
 30
0.0
  3
_D_1
  1

  0
SOLID
  5
76
330
73
100
AcDbEntity
  8
0
  6
Continuous
 62
     7
370
    18
100
AcDbTrace
 10
56.6850079902
 20
38.4602342313
 30
0.0
 11
59.1850079902
 21
38.1602342313
 31
0.0
 12
59.1850079902
 22
38.7602342313
 32
0.0
 13
59.1850079902
 23
38.7602342313
 33
0.0
  0
SOLID
  5
77
330
73
100
AcDbEntity
  8
0
  6
Continuous
 62
     7
370
    18
100
AcDbTrace
 10
156.6850079902
 20
38.4602342313
 30
0.0
 11
154.1850079902
 21
38.7602342313
 31
0.0
 12
154.1850079902
 22
38.1602342313
 32
0.0
 13
154.1850079902
 23
38.1602342313
 33
0.0
  0
LINE
  5
78
330
73
100
AcDbEntity
  8
0
  6
Continuous
 62
     7
370
     0
100
AcDbLine
 10
56.6850079902
 20
52.0299240879
 30
0.0
 11
56.6850079902
 21
37.4602342313
 31
0.0
  0
LINE
  5
79
330
73
100
AcDbEntity
  8
0
  6
Continuous
 62
     7
370
     0
100
AcDbLine
 10
156.6850079902
 20
52.0299240879
 30
0.0
 11
156.6850079902
 21
37.4602342313
 31
0.0
  0
LINE
  5
7A
330
73
100
AcDbEntity
  8
0
  6
Continuous
 62
     7
370
     0
100
AcDbLine
 10
56.6850079902
 20
38.4602342313
 30
0.0
 11
156.6850079902
 21
38.4602342313
 31
0.0
  0
MTEXT
  5
7B
330
73
100
AcDbEntity
  8
0
  6
Continuous
 62
     7
370
    18
100
AcDbMText
 10
93.9626484861
 20
46.1946404371
 30
0.0
 40
6.0
 41
0.0
 71
     1
 72
     1
  1
100
  7
SLDTEXTSTYLE0
 73
     1
 44
1.0
  0
MTEXT
  5
7C
330
73
100
AcDbEntity
  8
0
  6
Continuous
 62
     7
370
    18
100
AcDbMText
 10
105.3376491864
 20
46.1946404371
 30
0.0
 40
6.0
 41
0.0
 71
     1
 72
     1
  1
mm
  7
SLDTEXTSTYLE0
 73
     1
 44
1.0
  0
ENDBLK
  5
75
330
73
100
AcDbEntity
  8
0
100
AcDbBlockEnd
  0
ENDSEC
  0
SECTION
  2
ENTITIES
  0
LINE
  5
63
330
1F
100
AcDbEntity
  8
0
  6
Continuous
 62
     7
370
    18
100
AcDbLine
 10
56.6850079902
 20
152.0299240879
 30
0.0
 11
56.6850079902
 21
52.0299240879
 31
0.0
  0
LINE
  5
64
330
1F
100
AcDbEntity
  8
0
  6
Continuous
 62
     7
370
    18
100
AcDbLine
 10
56.6850079902
 20
52.0299240879
 30
0.0
 11
156.6850079902
 21
52.0299240879
 31
0.0
  0
DIMENSION
  5
65
330
1F
100
AcDbEntity
  8
0
  6
Continuous
 62
     7
370
    18
100
AcDbDimension
  2
_D
 10
42.7614395004
 20
52.0299240879
 30
0.0
 11
42.7614395004
 21
105.4472211621
 31
0.0
 70
   160
  1
<>mm
 71
     2
 42
-1.0
  3
SLDDIMSTYLE0
100
AcDbAlignedDimension
 13
56.6850079902
 23
152.0299240879
 33
0.0
 14
56.6850079902
 24
52.0299240879
 34
0.0
 50
90.0
100
AcDbRotatedDimension
  0
DIMENSION
  5
72
330
1F
100
AcDbEntity
  8
0
  6
Continuous
 62
     7
370
    18
100
AcDbDimension
  2
_D_1
 10
156.6850079902
 20
38.4602342313
 30
0.0
 11
105.0418155019
 21
38.4602342313
 31
0.0
 70
   160
  1
<>mm
 71
     2
 42
-1.0
  3
SLDDIMSTYLE0
100
AcDbAlignedDimension
 13
56.6850079902
 23
52.0299240879
 33
0.0
 14
156.6850079902
 24
52.0299240879
 34
0.0
100
AcDbRotatedDimension
  0
MTEXT
  5
7E
330
1F
100
AcDbEntity
  8
0
  6
Continuous
 62
     7
370
     0
100
AcDbMText
 10
412.8252631579
 20
48.4342449499
 30
0.0
 40
10.0
 41
0.0
 71
     1
 72
     1
  1
KLUDI GmbH & Co KG
  7
SLDTEXTSTYLE1
 73
     1
 44
1.0
  0
MTEXT
  5
7F
330
1F
100
AcDbEntity
  8
0
  6
Continuous
 62
     7
370
     0
100
AcDbMText
 10
210.0873490389
 20
48.4342449499
 30
0.0
 40
10.0
 41
0.0
 71
     1
 72
     1
  1
53 810 .. 75
  7
SLDTEXTSTYLE1
 73
     1
 44
1.0
  0
ARC
  5
80
330
1F
100
AcDbEntity
  8
0
  6
Continuous
 62
     7
370
    25
100
AcDbCircle
 10
199.1714989119
 20
402.2111270991
 30
0.0
 40
0.5
100
AcDbArc
 50
0.0
 51
86.8024452128
  0
ARC
  5
81
330
1F
100
AcDbEntity
  8
0
  6
Continuous
 62
     7
370
    25
100
AcDbCircle
 10
188.0714989119
 20
402.2111270991
 30
0.0
 40
0.5
100
AcDbArc
 50
93.1975547872
 51
180.0
  0
LINE
  5
82
330
1F
100
AcDbEntity
  8
0
  6
Continuous
 62
     7
370
    25
100
AcDbLine
 10
199.6714989119
 20
394.3947826936
 30
0.0
 11
199.6714989119
 21
402.2111270991
 31
0.0
  0
LINE
  5
83
330
1F
100
AcDbEntity
  8
0
  6
Continuous
 62
     7
370
    25
100
AcDbLine
 10
187.5714989119
 20
402.2111270991
 30
0.0
 11
187.5714989119
 21
394.3947826936
 31
0.0
  0
ARC
  5
84
330
1F
100
AcDbEntity
  8
0
  6
Continuous
 62
     7
370
    25
100
AcDbCircle
 10
193.6214989119
 20
302.8660341151
 30
0.0
 40
100.0
100
AcDbArc
 50
86.8024452128
 51
93.1975547872
  0
LINE
  5
85
330
1F
100
AcDbEntity
  8
0
  6
Continuous
 62
     7
370
    25
100
AcDbLine
 10
185.6214989119
 20
445.5660341151
 30
0.0
 11
185.6214989119
 21
441.9551594082
 31
0.0
  0
LINE
  5
86
330
1F
100
AcDbEntity
  8
0
  6
Continuous
 62
     7
370
    25
100
AcDbLine
 10
201.6214989119
 20
441.9551594082
 30
0.0
 11
201.6214989119
 21
445.5660341151
 31
0.0
  0
ARC
  5
87
330
1F
100
AcDbEntity
  8
0
  6
Continuous
 62
     7
370
    25
100
AcDbCircle
 10
-18.3785010881
 20
445.5660341151
 30
0.0
 40
220.0
100
AcDbArc
 50
0.0
 51
5.3331635089
  0
ARC
  5
88
330
1F
100
AcDbEntity
  8
0
  6
Continuous
 62
     7
370
    25
100
AcDbCircle
 10
405.6214989119
 20
445.5660341151
 30
0.0
 40
220.0
100
AcDbArc
 50
174.6668364911
 51
180.0
  0
ARC
  5
89
330
1F
100
AcDbEntity
  8
0
  6
Continuous
 62
     7
370
    25
100
AcDbCircle
 10
188.5652064916
 20
465.8284604439
 30
0.0
 40
2.000000000000018
100
AcDbArc
 50
106.5986769674
 51
174.6668364911
  0
ARC
  5
8A
330
1F
100
AcDbEntity
  8
0
  6
Continuous
 62
     7
370
    25
100
AcDbCircle
 10
198.6777913323
 20
465.8284604439
 30
0.0
 40
2.000000000000012
100
AcDbArc
 50
5.3331635089
 51
73.4013230326
  0
ARC
  5
8B
330
1F
100
AcDbEntity
  8
0
  6
Continuous
 62
     7
370
    25
100
AcDbCircle
 10
193.6214989119
 20
448.8660341151
 30
0.0
 40
19.69999999999994
100
AcDbArc
 50
73.4013230326
 51
106.5986769674
  0
CIRCLE
  5
8C
330
1F
100
AcDbEntity
  8
0
  6
Continuous
 62
     7
370
    25
100
AcDbCircle
 10
193.6214989119
 20
367.4660341151
 30
0.0
 40
27.6
  0
CIRCLE
  5
8D
330
1F
100
AcDbEntity
  8
0
  6
Continuous
 62
     7
370
    25
100
AcDbCircle
 10
193.6214989119
 20
430.4660341151
 30
0.0
 40
14.0
  0
ARC
  5
8E
330
1F
100
AcDbEntity
  8
0
  6
Continuous
 62
     7
370
    25
100
AcDbCircle
 10
193.6214989119
 20
-9526.0339658849
 30
0.0
 40
10000.0
100
AcDbArc
 50
89.5831904602
 51
90.4168095398
  0
ARC
  5
8F
330
1F
100
AcDbEntity
  8
0
  6
Continuous
 62
     7
370
    25
100
AcDbCircle
 10
193.6214989119
 20
10324.9660341151
 30
0.0
 40
10000.0
100
AcDbArc
 50
269.5831904602
 51
270.4168095398
  0
ARC
  5
90
330
1F
100
AcDbEntity
  8
0
  6
Continuous
 62
     7
370
    25
100
AcDbCircle
 10
-9731.8785010881
 20
399.4660341151
 30
0.0
 40
10000.0
100
AcDbArc
 50
359.5831904602
 51
0.4168095398
  0
ARC
  5
91
330
1F
100
AcDbEntity
  8
0
  6
Continuous
 62
     7
370
    25
100
AcDbCircle
 10
10119.1214989119
 20
399.4660341151
 30
0.0
 40
10000.0
100
AcDbArc
 50
179.5831904602
 51
180.4168095398
  0
ARC
  5
92
330
1F
100
AcDbEntity
  8
0
  6
Continuous
 62
     7
370
    25
100
AcDbCircle
 10
266.3569335547
 20
472.201468758
 30
0.0
 40
1.500000000000153
100
AcDbArc
 50
0.4168095398
 51
89.5831904602
  0
ARC
  5
93
330
1F
100
AcDbEntity
  8
0
  6
Continuous
 62
     7
370
    25
100
AcDbCircle
 10
266.3569335547
 20
326.7305994723
 30
0.0
 40
1.500000000000153
100
AcDbArc
 50
270.4168095398
 51
359.5831904602
  0
ARC
  5
94
330
1F
100
AcDbEntity
  8
0
  6
Continuous
 62
     7
370
    25
100
AcDbCircle
 10
120.8860642691
 20
326.7305994723
 30
0.0
 40
1.500000000000152
100
AcDbArc
 50
180.4168095398
 51
269.5831904602
  0
ARC
  5
95
330
1F
100
AcDbEntity
  8
0
  6
Continuous
 62
     7
370
    25
100
AcDbCircle
 10
120.8860642691
 20
472.201468758
 30
0.0
 40
1.500000000000152
100
AcDbArc
 50
90.4168095398
 51
179.5831904602
  0
CIRCLE
  5
96
330
1F
100
AcDbEntity
  8
0
  6
Continuous
 62
     8
370
    18
100
AcDbCircle
 10
193.6214989119
 20
367.4660341151
 30
0.0
 40
25.75042666398957
  0
LINE
  5
97
330
1F
100
AcDbEntity
  8
0
  6
Continuous
 62
     8
370
    18
100
AcDbLine
 10
199.1993883592
 20
402.7103486719
 30
0.0
 11
188.0436094647
 21
402.7103486719
 31
0.0
  0
LINE
  5
98
330
1F
100
AcDbEntity
  8
0
  6
Continuous
 62
     8
370
    18
100
AcDbLine
 10
199.6714989119
 20
402.2111270991
 30
0.0
 11
187.5714989119
 21
402.2111270991
 31
0.0
  0
CIRCLE
  5
99
330
1F
100
AcDbEntity
  8
0
  6
Continuous
 62
     8
370
    18
100
AcDbCircle
 10
193.6214989119
 20
430.4660341151
 30
0.0
 40
13.24074074074073
  0
LINE
  5
9A
330
1F
100
AcDbEntity
  8
0
  6
Continuous
 62
     8
370
    18
100
AcDbLine
 10
200.4897138068
 20
466.0143542635
 30
0.0
 11
200.6691334646
 21
466.0143542635
 31
0.0
  0
LINE
  5
9B
330
1F
100
AcDbEntity
  8
0
  6
Continuous
 62
     8
370
    18
100
AcDbLine
 10
186.5738643593
 20
466.0143542635
 30
0.0
 11
200.4897138068
 21
466.0143542635
 31
0.0
  0
LINE
  5
9C
330
1F
100
AcDbEntity
  8
0
  6
Continuous
 62
     8
370
    18
100
AcDbLine
 10
199.1058549541
 20
467.7451187862
 30
0.0
 11
199.2491238092
 21
467.7451187862
 31
0.0
  0
LINE
  5
9D
330
1F
100
AcDbEntity
  8
0
  6
Continuous
 62
     8
370
    18
100
AcDbLine
 10
187.9938740147
 20
467.7451187862
 30
0.0
 11
199.1058549541
 21
467.7451187862
 31
0.0
  0
SPLINE
  5
9E
330
1F
100
AcDbEntity
  8
0
  6
Continuous
 62
     8
370
    18
100
AcDbSpline
210
0.0
220
0.0
230
1.0
 70
     8
 71
     3
 72
     8
 73
     4
 74
     0
 42
0.00000001
 43
0.00000001
 40
0.0
 40
0.0
 40
0.0
 40
0.0
 40
1.0
 40
1.0
 40
1.0
 40
1.0
 10
266.2355770513274
 20
472.0801122545467
 30
0.0
 10
217.826191625056
 20
472.418564412089
 30
0.0
 10
169.4168061987847
 20
472.4185644120896
 30
0.0
 10
121.0074207725134
 20
472.0801122545474
 30
0.0
  0
SPLINE
  5
9F
330
1F
100
AcDbEntity
  8
0
  6
Continuous
 62
     8
370
    18
100
AcDbSpline
210
0.0
220
0.0
230
1.0
 70
     8
 71
     3
 72
    26
 73
    22
 74
     0
 42
0.00000001
 43
0.00000001
 40
0.0
 40
0.0
 40
0.0
 40
0.0
 40
0.03125
 40
0.03125
 40
0.0625
 40
0.0625
 40
0.125
 40
0.125
 40
0.25
 40
0.25
 40
0.375
 40
0.375
 40
0.5
 40
0.5
 40
0.625
 40
0.625
 40
0.75
 40
0.75
 40
0.875
 40
0.875
 40
1.0
 40
1.0
 40
1.0
 40
1.0
 10
120.8761590206859
 20
473.5630472808934
 30
0.0
 10
120.8759942189385
 20
473.5624110729523
 30
0.0
 10
120.8758877992793
 20
473.561181786752
 30
0.0
 10
120.8757904251817
 20
473.5575552553366
 30
0.0
 10
120.8757994707434
 20
473.5551580101217
 30
0.0
 10
120.8759978568263
 20
473.54624163221
 30
0.0
 10
120.8763584467457
 20
473.5379978572469
 30
0.0
 10
120.8781096266298
 20
473.5065863333361
 30
0.0
 10
120.8801696267207
 20
473.4767383853668
 30
0.0
 10
120.8859915874198
 20
473.400393265608
 30
0.0
 10
120.8898105941726
 20
473.3531687698605
 30
0.0
 10
120.8989749236517
 20
473.2442604517158
 30
0.0
 10
120.9042899077151
 20
473.1828873594919
 30
0.0
 10
120.9163696945073
 20
473.0464526735284
 30
0.0
 10
120.92319722879
 20
472.9707262927312
 30
0.0
 10
120.9377710833656
 20
472.8115235683163
 30
0.0
 10
120.9455672046711
 20
472.7274670634504
 30
0.0
 10
120.9621932296153
 20
472.5503090775198
 30
0.0
 10
120.9709685388342
 20
472.4578118926641
 30
0.0
 10
120.9888321853299
 20
472.2713830440046
 30
0.0
 10
120.9980028051395
 20
472.1765717935344
 30
0.0
 10
121.007420772513
 20
472.0801122545461
 30
0.0
  0
SPLINE
  5
A0
330
1F
100
AcDbEntity
  8
0
  6
Continuous
 62
     8
370
    18
100
AcDbSpline
210
0.0
220
0.0
230
1.0
 70
     8
 71
     3
 72
     8
 73
     4
 74
     0
 42
0.00000001
 43
0.00000001
 40
0.0
 40
0.0
 40
0.0
 40
0.0
 40
1.0
 40
1.0
 40
1.0
 40
1.0
 10
120.876159020686
 20
473.5630472808924
 30
0.0
 10
169.3730522815074
 20
473.9027480107392
 30
0.0
 10
217.8699455423288
 20
473.9027480107404
 30
0.0
 10
266.3668388031502
 20
473.5630472808936
 30
0.0
  0
SPLINE
  5
A1
330
1F
100
AcDbEntity
  8
0
  6
Continuous
 62
     8
370
    18
100
AcDbSpline
210
0.0
220
0.0
230
1.0
 70
     8
 71
     3
 72
    21
 73
    17
 74
     0
 42
0.00000001
 43
0.00000001
 40
0.0
 40
0.0
 40
0.0
 40
0.0
 40
0.0527050586774087
 40
0.1061279071732079
 40
0.1602714805704285
 40
0.2151385976739343
 40
0.2707319665647216
 40
0.3270541898391478
 40
0.3841077695545096
 40
0.4418951119051742
 40
0.5004185316341229
 40
0.6190410166256455
 40
0.75002715792662
 40
0.8150588969042496
 40
0.8983884788291683
 40
0.9999999999999999
 40
0.9999999999999999
 40
0.9999999999999999
 40
0.9999999999999999
 10
266.3668388031502
 20
473.5630472808944
 30
0.0
 10
266.3670156327082
 20
473.5610378909936
 30
0.0
 10
266.3673717000646
 20
473.5569917453253
 30
0.0
 10
266.3666248216168
 20
473.5382293969139
 30
0.0
 10
266.3649377832315
 20
473.5098204044108
 30
0.0
 10
266.3622042639789
 20
473.4706425642167
 30
0.0
 10
266.3584392912185
 20
473.4208300699016
 30
0.0
 10
266.3536250394276
 20
473.360288528236
 30
0.0
 10
266.3477528752497
 20
473.2891144715081
 30
0.0
 10
266.3408131142181
 20
473.2074757719639
 30
0.0
 10
266.3300827142901
 20
473.0846793653732
 30
0.0
 10
266.3134643205515
 20
472.9009554642813
 30
0.0
 10
266.2937577315359
 20
472.687360309244
 30
0.0
 10
266.2746363220059
 20
472.485919431721
 30
0.0
 10
266.2568251273475
 20
472.2993053634722
 30
0.0
 10
266.2431116161636
 20
472.1578381008389
 30
0.0
 10
266.2355770513282
 20
472.0801122545483
 30
0.0
  0
SPLINE
  5
A2
330
1F
100
AcDbEntity
  8
0
  6
Continuous
 62
     8
370
    18
100
AcDbSpline
210
0.0
220
0.0
230
1.0
 70
     8
 71
     3
 72
     8
 73
     4
 74
     0
 42
0.00000001
 43
0.00000001
 40
0.0
 40
0.0
 40
0.0
 40
0.0
 40
1.0
 40
1.0
 40
1.0
 40
1.0
 10
119.5244857461672
 20
326.720694223906
 30
0.0
 10
119.1847850163204
 20
375.2175874847269
 30
0.0
 10
119.1847850163213
 20
423.714480745548
 30
0.0
 10
119.5244857461681
 20
472.2113740063689
 30
0.0
  0
SPLINE
  5
A3
330
1F
100
AcDbEntity
  8
0
  6
Continuous
 62
     8
370
    18
100
AcDbSpline
210
0.0
220
0.0
230
1.0
 70
     8
 71
     3
 72
    21
 73
    17
 74
     0
 42
0.00000001
 43
0.00000001
 40
0.0
 40
0.0
 40
0.0
 40
0.0
 40
0.0527050579362217
 40
0.1061279058763758
 40
0.1602714789034625
 40
0.2151385958224905
 40
0.2707319647143437
 40
0.3270541881743845
 40
0.3841077682621816
 40
0.4418951111699276
 40
0.50041853164114
 40
0.6190410088379037
 40
0.7500271579309205
 40
0.815058891586119
 40
0.8983884735132007
 40
1.0
 40
1.0
 40
1.0
 40
1.0
 10
119.5244857461664
 20
472.2113740063689
 30
0.0
 10
119.5264951360261
 20
472.2115508359229
 30
0.0
 10
119.530541281619
 20
472.2119069032719
 30
0.0
 10
119.549303629635
 20
472.2111600248165
 30
0.0
 10
119.5777126216651
 20
472.2094729864282
 30
0.0
 10
119.6168904614028
 20
472.2067394671756
 30
0.0
 10
119.6667029553785
 20
472.2029744944178
 30
0.0
 10
119.7272444969305
 20
472.1981602426296
 30
0.0
 10
119.7984185538729
 20
472.1922880784584
 30
0.0
 10
119.8800572540411
 20
472.1853483174162
 30
0.0
 10
120.0028536571839
 20
472.1746179179809
 30
0.0
 10
120.1865775576153
 20
472.1579995241072
 30
0.0
 10
120.4001727085985
 20
472.1382929355752
 30
0.0
 10
120.6016135875569
 20
472.1191715260824
 30
0.0
 10
120.7882276554403
 20
472.1013603313966
 30
0.0
 10
120.9296949221506
 20
472.0876468197907
 30
0.0
 10
121.0074207725125
 20
472.0801122545461
 30
0.0
  0
SPLINE
  5
A4
330
1F
100
AcDbEntity
  8
0
  6
Continuous
 62
     8
370
    18
100
AcDbSpline
210
0.0
220
0.0
230
1.0
 70
     8
 71
     3
 72
     8
 73
     4
 74
     0
 42
0.00000001
 43
0.00000001
 40
0.0
 40
0.0
 40
0.0
 40
0.0
 40
1.0
 40
1.0
 40
1.0
 40
1.0
 10
121.007420772514
 20
472.0801122545462
 30
0.0
 10
120.6689686149718
 20
423.6707268282736
 30
0.0
 10
120.6689686149712
 20
375.2613414020009
 30
0.0
 10
121.0074207725135
 20
326.8519559757284
 30
0.0
  0
SPLINE
  5
A5
330
1F
100
AcDbEntity
  8
0
  6
Continuous
 62
     8
370
    18
100
AcDbSpline
210
0.0
220
0.0
230
1.0
 70
     8
 71
     3
 72
    21
 73
    17
 74
     0
 42
0.00000001
 43
0.00000001
 40
0.0
 40
0.0
 40
0.0
 40
0.0
 40
0.0527015852613899
 40
0.1061218296410487
 40
0.1602636681741176
 40
0.2151299194777583
 40
0.2707232913178108
 40
0.3270463858586243
 40
0.3841017046256605
 40
0.4418916531893876
 40
0.5004185455849708
 40
0.6190205634993978
 40
0.7500271669111371
 40
0.8150462982106057
 40
0.8983758845578886
 40
1.0
 40
1.0
 40
1.0
 40
1.0
 10
119.5244857461659
 20
326.720694223906
 30
0.0
 10
119.5264949420299
 20
326.7205174132479
 30
0.0
 10
119.5305407319268
 20
326.7201613808734
 30
0.0
 10
119.5493012326104
 20
326.7209082962144
 30
0.0
 10
119.5777080185602
 20
326.7225953490963
 30
0.0
 10
119.6168837066437
 20
326.7253288685017
 30
0.0
 10
119.6666946230989
 20
326.7290938288883
 30
0.0
 10
119.7272356435004
 20
326.7339080663328
 30
0.0
 10
119.7984106975064
 20
326.7397802033123
 30
0.0
 10
119.8800523155217
 20
326.7467199951991
 30
0.0
 10
120.0028409330412
 20
326.75744890392
 30
0.0
 10
120.1865640273843
 20
326.7740674719624
 30
0.0
 10
120.400149443921
 20
326.793773185841
 30
0.0
 10
120.6015951469194
 20
326.8128947947798
 30
0.0
 10
120.7882083514756
 20
326.8307060373586
 30
0.0
 10
120.9296852778497
 20
326.8444204790491
 30
0.0
 10
121.007420772512
 20
326.8519559757279
 30
0.0
  0
SPLINE
  5
A6
330
1F
100
AcDbEntity
  8
0
  6
Continuous
 62
     8
370
    18
100
AcDbSpline
210
0.0
220
0.0
230
1.0
 70
     8
 71
     3
 72
     8
 73
     4
 74
     0
 42
0.00000001
 43
0.00000001
 40
0.0
 40
0.0
 40
0.0
 40
0.0
 40
1.0
 40
1.0
 40
1.0
 40
1.0
 10
266.2355770513277
 20
326.8519559757276
 30
0.0
 10
266.5740292088699
 20
375.2613414020007
 30
0.0
 10
266.5740292088694
 20
423.6707268282739
 30
0.0
 10
266.2355770513271
 20
472.080112254547
 30
0.0
  0
SPLINE
  5
A7
330
1F
100
AcDbEntity
  8
0
  6
Continuous
 62
     8
370
    18
100
AcDbSpline
210
0.0
220
0.0
230
1.0
 70
     8
 71
     3
 72
     8
 73
     4
 74
     0
 42
0.00000001
 43
0.00000001
 40
0.0
 40
0.0
 40
0.0
 40
0.0
 40
1.0
 40
1.0
 40
1.0
 40
1.0
 10
121.0074207725125
 20
326.8519559757289
 30
0.0
 10
169.4168061987844
 20
326.5135038181867
 30
0.0
 10
217.8261916250563
 20
326.5135038181867
 30
0.0
 10
266.2355770513282
 20
326.8519559757289
 30
0.0
  0
SPLINE
  5
A8
330
1F
100
AcDbEntity
  8
0
  6
Continuous
 62
     8
370
    18
100
AcDbSpline
210
0.0
220
0.0
230
1.0
 70
     8
 71
     3
 72
     8
 73
     4
 74
     0
 42
0.00000001
 43
0.00000001
 40
0.0
 40
0.0
 40
0.0
 40
0.0
 40
1.0
 40
1.0
 40
1.0
 40
1.0
 10
266.3668388031492
 20
325.3690209493823
 30
0.0
 10
217.8699455423297
 20
325.0293202195356
 30
0.0
 10
169.3730522815101
 20
325.0293202195348
 30
0.0
 10
120.8761590206906
 20
325.3690209493816
 30
0.0
  0
SPLINE
  5
A9
330
1F
100
AcDbEntity
  8
0
  6
Continuous
 62
     8
370
    18
100
AcDbSpline
210
0.0
220
0.0
230
1.0
 70
     8
 71
     3
 72
    26
 73
    22
 74
     0
 42
0.00000001
 43
0.00000001
 40
0.0
 40
0.0
 40
0.0
 40
0.0
 40
0.03125
 40
0.03125
 40
0.0625
 40
0.0625
 40
0.125
 40
0.125
 40
0.25
 40
0.25
 40
0.375
 40
0.375
 40
0.5
 40
0.5
 40
0.625
 40
0.625
 40
0.75
 40
0.75
 40
0.875
 40
0.875
 40
1.0
 40
1.0
 40
1.0
 40
1.0
 10
120.8761590206905
 20
325.3690209493813
 30
0.0
 10
120.8759942189431
 20
325.3696571573224
 30
0.0
 10
120.8758877992839
 20
325.3708864435227
 30
0.0
 10
120.8757904251863
 20
325.374512974938
 30
0.0
 10
120.8757994707479
 20
325.376910220153
 30
0.0
 10
120.8759978568309
 20
325.3858265980646
 30
0.0
 10
120.8763584467502
 20
325.3940703730276
 30
0.0
 10
120.8781096266342
 20
325.4254818969383
 30
0.0
 10
120.880169626725
 20
325.4553298449075
 30
0.0
 10
120.8859915874238
 20
325.5316749646663
 30
0.0
 10
120.8898105941765
 20
325.5788994604138
 30
0.0
 10
120.8989749236552
 20
325.6878077785585
 30
0.0
 10
120.9042899077185
 20
325.7491808707823
 30
0.0
 10
120.9163696945102
 20
325.8856155567457
 30
0.0
 10
120.9231972287927
 20
325.961341937543
 30
0.0
 10
120.9377710833678
 20
326.1205446619579
 30
0.0
 10
120.9455672046731
 20
326.2046011668237
 30
0.0
 10
120.9621932296167
 20
326.3817591527543
 30
0.0
 10
120.9709685388354
 20
326.4742563376103
 30
0.0
 10
120.9888321853305
 20
326.6606851862696
 30
0.0
 10
120.9980028051397
 20
326.7554964367396
 30
0.0
 10
121.0074207725129
 20
326.8519559757279
 30
0.0
  0
SPLINE
  5
AA
330
1F
100
AcDbEntity
  8
0
  6
Continuous
 62
     8
370
    18
100
AcDbSpline
210
0.0
220
0.0
230
1.0
 70
     8
 71
     3
 72
    21
 73
    17
 74
     0
 42
0.00000001
 43
0.00000001
 40
0.0
 40
0.0
 40
0.0
 40
0.0
 40
0.0527015849058731
 40
0.1061218290196262
 40
0.1602636673753019
 40
0.2151299185914919
 40
0.270723290432859
 40
0.3270463850647773
 40
0.3841017040109643
 40
0.4418916528430275
 40
0.5004185455965368
 40
0.6190205570885836
 40
0.7500271669238893
 40
0.8150462880617559
 40
0.8983758744116833
 40
1.0
 40
1.0
 40
1.0
 40
1.0
 10
266.3668388031493
 20
325.369020949382
 30
0.0
 10
266.3670156138054
 20
325.3710301452261
 30
0.0
 10
266.3673716461764
 20
325.3750759350864
 30
0.0
 10
266.3666247308315
 20
325.3938364355802
 30
0.0
 10
266.364937677948
 20
325.4222432213039
 30
0.0
 10
266.3622041585427
 20
325.4614189091661
 30
0.0
 10
266.3584391981575
 20
325.5112298254589
 30
0.0
 10
266.3536249607141
 20
325.571770845808
 30
0.0
 10
266.3477528237389
 20
325.6429458999158
 30
0.0
 10
266.3408130318442
 20
325.7245875182298
 30
0.0
 10
266.3300841234982
 20
325.8473761326968
 30
0.0
 10
266.3134655553058
 20
326.0310992263367
 30
0.0
 10
266.2937598422728
 20
326.2446846356339
 30
0.0
 10
266.2746382337648
 20
326.4461303352689
 30
0.0
 10
266.256826991166
 20
326.6327435391263
 30
0.0
 10
266.2431125487466
 20
326.77422047329
 30
0.0
 10
266.2355770513283
 20
326.8519559757281
 30
0.0
  0
SPLINE
  5
AB
330
1F
100
AcDbEntity
  8
0
  6
Continuous
 62
     8
370
    18
100
AcDbSpline
210
0.0
220
0.0
230
1.0
 70
     8
 71
     3
 72
    26
 73
    22
 74
     0
 42
0.00000001
 43
0.00000001
 40
0.0
 40
0.0
 40
0.0
 40
0.0
 40
0.03125
 40
0.03125
 40
0.0625
 40
0.0625
 40
0.125
 40
0.125
 40
0.25
 40
0.25
 40
0.375
 40
0.375
 40
0.5
 40
0.5
 40
0.625
 40
0.625
 40
0.75
 40
0.75
 40
0.875
 40
0.875
 40
1.0
 40
1.0
 40
1.0
 40
1.0
 10
267.7185120776739
 20
472.2113740063693
 30
0.0
 10
267.7178758697328
 20
472.2115388081166
 30
0.0
 10
267.7166465835326
 20
472.2116452277759
 30
0.0
 10
267.7130200521171
 20
472.2117426018735
 30
0.0
 10
267.7106228069022
 20
472.2117335563118
 30
0.0
 10
267.7017064289906
 20
472.2115351702288
 30
0.0
 10
267.6934626540274
 20
472.2111745803095
 30
0.0
 10
267.6620511301167
 20
472.2094234004255
 30
0.0
 10
267.6322031821474
 20
472.2073634003347
 30
0.0
 10
267.5558580623887
 20
472.2015414396358
 30
0.0
 10
267.5086335666415
 20
472.1977224328832
 30
0.0
 10
267.3997252484967
 20
472.1885581034044
 30
0.0
 10
267.3383521562732
 20
472.1832431193411
 30
0.0
 10
267.2019174703097
 20
472.1711633325493
 30
0.0
 10
267.1261910895141
 20
472.164335798267
 30
0.0
 10
266.9669883650992
 20
472.1497619436918
 30
0.0
 10
266.8829318602319
 20
472.1419658223863
 30
0.0
 10
266.7057738743013
 20
472.1253397974426
 30
0.0
 10
266.6132766894461
 20
472.1165644882241
 30
0.0
 10
266.4268478407868
 20
472.0987008417288
 30
0.0
 10
266.3320365903167
 20
472.0895302219196
 30
0.0
 10
266.2355770513282
 20
472.0801122545464
 30
0.0
  0
SPLINE
  5
AC
330
1F
100
AcDbEntity
  8
0
  6
Continuous
 62
     8
370
    18
100
AcDbSpline
210
0.0
220
0.0
230
1.0
 70
     8
 71
     3
 72
     8
 73
     4
 74
     0
 42
0.00000001
 43
0.00000001
 40
0.0
 40
0.0
 40
0.0
 40
0.0
 40
1.0
 40
1.0
 40
1.0
 40
1.0
 10
267.7185120776737
 20
472.2113740063692
 30
0.0
 10
268.0582128075205
 20
423.7144807455481
 30
0.0
 10
268.0582128075195
 20
375.2175874847269
 30
0.0
 10
267.7185120776727
 20
326.7206942239058
 30
0.0
  0
SPLINE
  5
AD
330
1F
100
AcDbEntity
  8
0
  6
Continuous
 62
     8
370
    18
100
AcDbSpline
210
0.0
220
0.0
230
1.0
 70
     8
 71
     3
 72
    26
 73
    22
 74
     0
 42
0.00000001
 43
0.00000001
 40
0.0
 40
0.0
 40
0.0
 40
0.0
 40
0.03125
 40
0.03125
 40
0.0625
 40
0.0625
 40
0.125
 40
0.125
 40
0.25
 40
0.25
 40
0.375
 40
0.375
 40
0.5
 40
0.5
 40
0.625
 40
0.625
 40
0.75
 40
0.75
 40
0.875
 40
0.875
 40
1.0
 40
1.0
 40
1.0
 40
1.0
 10
267.7185120776742
 20
326.7206942239057
 30
0.0
 10
267.7178758697331
 20
326.7205294221583
 30
0.0
 10
267.7166465835328
 20
326.7204230024991
 30
0.0
 10
267.7130200521174
 20
326.7203256284016
 30
0.0
 10
267.7106228069024
 20
326.7203346739632
 30
0.0
 10
267.7017064289907
 20
326.7205330600461
 30
0.0
 10
267.6934626540277
 20
326.7208936499654
 30
0.0
 10
267.662051130117
 20
326.7226448298495
 30
0.0
 10
267.6322031821477
 20
326.7247048299402
 30
0.0
 10
267.5558580623891
 20
326.7305267906391
 30
0.0
 10
267.5086335666419
 20
326.7343457973918
 30
0.0
 10
267.3997252484972
 20
326.7435101268704
 30
0.0
 10
267.3383521562733
 20
326.7488251109337
 30
0.0
 10
267.20191747031
 20
326.7609048977254
 30
0.0
 10
267.1261910895138
 20
326.7677324320077
 30
0.0
 10
266.9669883650992
 20
326.7823062865828
 30
0.0
 10
266.8829318602317
 20
326.7901024078882
 30
0.0
 10
266.7057738743013
 20
326.8067284328318
 30
0.0
 10
266.613276689446
 20
326.8155037420504
 30
0.0
 10
266.4268478407866
 20
326.8333673885455
 30
0.0
 10
266.3320365903167
 20
326.8425380083547
 30
0.0
 10
266.2355770513282
 20
326.8519559757278
 30
0.0
  0
LINE
  5
AE
330
1F
100
AcDbEntity
  8
0
  6
Continuous
 62
     8
370
    18
100
AcDbLine
 10
266.3678455067
 20
473.7014290672
 30
0.0
 11
266.3668388032
 21
473.5630472809
 31
0.0
  0
LINE
  5
AF
330
1F
100
AcDbEntity
  8
0
  6
Continuous
 62
     8
370
    18
100
AcDbLine
 10
120.8751523171
 20
473.7014290672
 30
0.0
 11
120.8761590207
 21
473.5630472809
 31
0.0
  0
LINE
  5
B0
330
1F
100
AcDbEntity
  8
0
  6
Continuous
 62
     8
370
    18
100
AcDbLine
 10
120.8751523171
 20
325.2306391631
 30
0.0
 11
120.8761590207
 21
325.3690209494
 31
0.0
  0
LINE
  5
B1
330
1F
100
AcDbEntity
  8
0
  6
Continuous
 62
     8
370
    18
100
AcDbLine
 10
266.3678455067
 20
325.2306391631
 30
0.0
 11
266.3668388031
 21
325.3690209494
 31
0.0
  0
LINE
  5
B2
330
1F
100
AcDbEntity
  8
0
  6
Continuous
 62
     8
370
    18
100
AcDbLine
 10
267.856893864
 20
326.7196875203
 30
0.0
 11
267.7185120777
 21
326.7206942239
 31
0.0
  0
LINE
  5
B3
330
1F
100
AcDbEntity
  8
0
  6
Continuous
 62
     8
370
    18
100
AcDbLine
 10
267.856893864
 20
472.2123807099
 30
0.0
 11
267.7185120777
 21
472.2113740064
 31
0.0
  0
LINE
  5
B4
330
1F
100
AcDbEntity
  8
0
  6
Continuous
 62
     8
370
    18
100
AcDbLine
 10
119.3861039599
 20
472.2123807099
 30
0.0
 11
119.5244857462
 21
472.2113740064
 31
0.0
  0
LINE
  5
B5
330
1F
100
AcDbEntity
  8
0
  6
Continuous
 62
     8
370
    18
100
AcDbLine
 10
119.3861039599
 20
326.7196875203
 30
0.0
 11
119.5244857462
 21
326.7206942239
 31
0.0
  0
SPLINE
  5
B6
330
1F
100
AcDbEntity
  8
0
  6
Continuous
 62
     8
370
    18
100
AcDbSpline
210
0.0
220
0.0
230
1.0
 70
     8
 71
     3
 72
    25
 73
    21
 74
     0
 42
0.00000001
 43
0.00000001
 40
0.0
 40
0.0
 40
0.0
 40
0.0
 40
0.0555740769933564
 40
0.1111416178191766
 40
0.1667034389905849
 40
0.2222603572237526
 40
0.2778131894090244
 40
0.3333627525819134
 40
0.3889098638941327
 40
0.444455340584554
 40
0.4999999999501496
 40
0.5555446593169773
 40
0.6110901360110876
 40
0.6666372473294615
 40
0.7221868105109714
 40
0.7777396427073173
 40
0.8332965609540269
 40
0.8888583821414353
 40
0.9444259229857194
 40
1.0
 40
1.0
 40
1.0
 40
1.0
 10
120.8761590206905
 20
325.3690209493824
 30
0.0
 10
120.8369288083808
 20
325.3703118834424
 30
0.0
 10
120.7584729976975
 20
325.3728935997331
 30
0.0
 10
120.6417655948852
 20
325.3896218439325
 30
0.0
 10
120.5268869766983
 20
325.4156277767725
 30
0.0
 10
120.4146994739472
 20
325.4516416232469
 30
0.0
 10
120.3060370191098
 20
325.49714657923
 30
0.0
 10
120.2017094998027
 20
325.5518694197237
 30
0.0
 10
120.1024939196632
 20
325.6153842089158
 30
0.0
 10
120.0091293980574
 20
325.6872221838047
 30
0.0
 10
119.9223114412204
 20
325.766846644287
 30
0.0
 10
119.842686980723
 20
325.8536646011137
 30
0.0
 10
119.7708490058155
 20
325.947029122715
 30
0.0
 10
119.7073342166021
 20
326.0462447028565
 30
0.0
 10
119.6526113760864
 20
326.1505722221727
 30
0.0
 10
119.6071064200816
 20
326.2592346770266
 30
0.0
 10
119.5710925735878
 20
326.3714221798018
 30
0.0
 10
119.545086640732
 20
326.4863007980199
 30
0.0
 10
119.5283583965214
 20
326.6030082008704
 30
0.0
 10
119.5257766802292
 20
326.6814640115815
 30
0.0
 10
119.5244857461685
 20
326.7206942239059
 30
0.0
  0
SPLINE
  5
B7
330
1F
100
AcDbEntity
  8
0
  6
Continuous
 62
     8
370
    18
100
AcDbSpline
210
0.0
220
0.0
230
1.0
 70
     8
 71
     3
 72
    25
 73
    21
 74
     0
 42
0.00000001
 43
0.00000001
 40
0.0
 40
0.0
 40
0.0
 40
0.0
 40
0.0555740770039925
 40
0.1111416178392036
 40
0.166703439018742
 40
0.2222603572587847
 40
0.2778131894496884
 40
0.3333627526269553
 40
0.3889098639422989
 40
0.4444553406345922
 40
0.5000000000008086
 40
0.5555446593670121
 40
0.6110901360592383
 40
0.6666372473744842
 40
0.722186810551614
 40
0.7777396427423311
 40
0.8332965609821633
 40
0.8888583821614406
 40
0.944425922996349
 40
1.0
 40
1.0
 40
1.0
 40
1.0
 10
267.7185120776724
 20
326.7206942239057
 30
0.0
 10
267.7172211436121
 20
326.6814640115885
 30
0.0
 10
267.7146394273207
 20
326.6030082008911
 30
0.0
 10
267.6979111831155
 20
326.4863007980593
 30
0.0
 10
267.6719052502675
 20
326.3714221798564
 30
0.0
 10
267.6358914037833
 20
326.2592346770932
 30
0.0
 10
267.5903864477892
 20
326.1505722222473
 30
0.0
 10
267.5356636072842
 20
326.0462447029355
 30
0.0
 10
267.4721488180813
 20
325.947029122795
 30
0.0
 10
267.4003108431829
 20
325.8536646011915
 30
0.0
 10
267.3206863826929
 20
325.7668466443596
 30
0.0
 10
267.2338684258609
 20
325.6872221838698
 30
0.0
 10
267.1405039042573
 20
325.6153842089718
 30
0.0
 10
267.0412883241169
 20
325.5518694197692
 30
0.0
 10
266.9369608048053
 20
325.4971465792647
 30
0.0
 10
266.8282983499597
 20
325.4516416232709
 30
0.0
 10
266.7161108471968
 20
325.4156277767869
 30
0.0
 10
266.6012322289944
 20
325.389621843939
 30
0.0
 10
266.4845248261632
 20
325.3728935997342
 30
0.0
 10
266.4060690154662
 20
325.3703118834428
 30
0.0
 10
266.3668388031493
 20
325.3690209493824
 30
0.0
  0
SPLINE
  5
B8
330
1F
100
AcDbEntity
  8
0
  6
Continuous
 62
     8
370
    18
100
AcDbSpline
210
0.0
220
0.0
230
1.0
 70
     8
 71
     3
 72
    25
 73
    21
 74
     0
 42
0.00000001
 43
0.00000001
 40
0.0
 40
0.0
 40
0.0
 40
0.0
 40
0.0555740769952394
 40
0.1111416178227194
 40
0.1667034389955598
 40
0.2222603572299373
 40
0.277813189416198
 40
0.3333627525898602
 40
0.3889098639026276
 40
0.4444553405933713
 40
0.4999999999590709
 40
0.5555446593257898
 40
0.6110901360195594
 40
0.6666372473373772
 40
0.7221868105181174
 40
0.7777396427134698
 40
0.8332965609589699
 40
0.888858382144941
 40
0.9444259229875819
 40
1.0
 40
1.0
 40
1.0
 40
1.0
 10
266.3668388031504
 20
473.5630472808922
 30
0.0
 10
266.4060690154614
 20
473.5617563468323
 30
0.0
 10
266.4845248261471
 20
473.5591746305414
 30
0.0
 10
266.6012322289628
 20
473.5424463863409
 30
0.0
 10
266.7161108471525
 20
473.5164404534995
 30
0.0
 10
266.8282983499057
 20
473.4804266070234
 30
0.0
 10
266.9369608047446
 20
473.4349216510383
 30
0.0
 10
267.0412883240525
 20
473.3801988105427
 30
0.0
 10
267.1405039041921
 20
473.3166840213486
 30
0.0
 10
267.2338684257974
 20
473.2448460464582
 30
0.0
 10
267.3206863826335
 20
473.1652215859746
 30
0.0
 10
267.4003108431295
 20
473.0784036291469
 30
0.0
 10
267.4721488180354
 20
472.9850391075452
 30
0.0
 10
267.5356636072468
 20
472.8858235274041
 30
0.0
 10
267.5903864477606
 20
472.7814960080887
 30
0.0
 10
267.6358914037634
 20
472.6728335532362
 30
0.0
 10
267.6719052502555
 20
472.5606460504634
 30
0.0
 10
267.69791118311
 20
472.445767432248
 30
0.0
 10
267.7146394273196
 20
472.329060029401
 30
0.0
 10
267.7172211436118
 20
472.2506042186924
 30
0.0
 10
267.7185120776724
 20
472.2113740063693
 30
0.0
  0
SPLINE
  5
B9
330
1F
100
AcDbEntity
  8
0
  6
Continuous
 62
     8
370
    18
100
AcDbSpline
210
0.0
220
0.0
230
1.0
 70
     8
 71
     3
 72
    25
 73
    21
 74
     0
 42
0.00000001
 43
0.00000001
 40
0.0
 40
0.0
 40
0.0
 40
0.0
 40
0.0555740770111256
 40
0.1111416178526283
 40
0.1667034390376246
 40
0.222260357282292
 40
0.2778131894769694
 40
0.3333627526571794
 40
0.388909863974627
 40
0.4444553406681826
 40
0.5000000000348253
 40
0.5555446594006129
 40
0.611090136091585
 40
0.666637247404733
 40
0.7221868105789204
 40
0.7777396427658618
 40
0.8332965610010726
 40
0.8888583821748844
 40
0.9444259230034925
 40
1.0
 40
1.0
 40
1.0
 40
1.0
 10
119.5244857461685
 20
472.2113740063691
 30
0.0
 10
119.5257766802291
 20
472.2506042186911
 30
0.0
 10
119.5283583965211
 20
472.3290600293979
 30
0.0
 10
119.5450866407298
 20
472.4457674322423
 30
0.0
 10
119.5710925735832
 20
472.5606460504556
 30
0.0
 10
119.6071064200739
 20
472.6728335532268
 30
0.0
 10
119.6526113760752
 20
472.7814960080781
 30
0.0
 10
119.7073342165874
 20
472.8858235273927
 30
0.0
 10
119.7708490057973
 20
472.9850391075337
 30
0.0
 10
119.8426869807017
 20
473.0784036291356
 30
0.0
 10
119.9223114411965
 20
473.1652215859639
 30
0.0
 10
120.0091293980316
 20
473.2448460464484
 30
0.0
 10
120.1024939196363
 20
473.3166840213401
 30
0.0
 10
120.2017094997757
 20
473.3801988105355
 30
0.0
 10
120.3060370190838
 20
473.4349216510327
 30
0.0
 10
120.4146994739234
 20
473.4804266070192
 30
0.0
 10
120.5268869766778
 20
473.5164404534967
 30
0.0
 10
120.641765594869
 20
473.5424463863395
 30
0.0
 10
120.7584729976868
 20
473.5591746305409
 30
0.0
 10
120.8369288083741
 20
473.5617563468321
 30
0.0
 10
120.8761590206859
 20
473.5630472808922
 30
0.0
  0
ARC
  5
BA
330
1F
100
AcDbEntity
  8
0
  6
Continuous
 62
     7
370
    25
100
AcDbCircle
 10
193.6214989119
 20
7220.4537614872
 30
0.0
 40
7000.000000000001
100
AcDbArc
 50
269.4035572858
 51
269.8854083646
  0
ARC
  5
BB
330
1F
100
AcDbEntity
  8
0
  6
Continuous
 62
     7
370
    25
100
AcDbCircle
 10
193.6214989119
 20
7220.4537614872
 30
0.0
 40
7000.000000000001
100
AcDbArc
 50
270.1145916354
 51
270.5964431983
  0
ARC
  5
BC
330
1F
100
AcDbEntity
  8
0
  6
Continuous
 62
     7
370
    25
100
AcDbCircle
 10
266.4737987811
 20
222.3329571281
 30
0.0
 40
1.500000000000017
100
AcDbArc
 50
270.6103433351
 51
358.4893102131
  0
ARC
  5
BD
330
1F
100
AcDbEntity
  8
0
  6
Continuous
 62
     7
370
    25
100
AcDbCircle
 10
120.7691990428
 20
222.3329571281
 30
0.0
 40
1.500000000000003
100
AcDbArc
 50
181.5241076744
 51
269.4062135039
  0
LINE
  5
BE
330
1F
100
AcDbEntity
  8
0
  6
Continuous
 62
     7
370
    25
100
AcDbLine
 10
267.9732851437
 20
222.2937060316
 30
0.0
 11
268.1214989119
 21
227.9537614872
 31
0.0
  0
LINE
  5
BF
330
1F
100
AcDbEntity
  8
0
  6
Continuous
 62
     7
370
    25
100
AcDbLine
 10
119.1214989119
 20
227.9537614872
 30
0.0
 11
119.2697126802
 21
222.2937060316
 31
0.0
  0
LINE
  5
C0
330
1F
100
AcDbEntity
  8
0
  6
Continuous
 62
     7
370
    25
100
AcDbLine
 10
207.6214989119
 20
205.4537614872
 30
0.0
 11
207.6214989119
 21
220.5364115112
 31
0.0
  0
LINE
  5
C1
330
1F
100
AcDbEntity
  8
0
  6
Continuous
 62
     7
370
    25
100
AcDbLine
 10
179.6214989119
 20
220.5364100097
 30
0.0
 11
179.6214989119
 21
205.4537614872
 31
0.0
  0
ARC
  5
C2
330
1F
100
AcDbEntity
  8
0
  6
Continuous
 62
     7
370
    25
100
AcDbCircle
 10
180.1214989119
 20
205.4537614872
 30
0.0
 40
0.5
100
AcDbArc
 50
180.0
 51
270.0
  0
ARC
  5
C3
330
1F
100
AcDbEntity
  8
0
  6
Continuous
 62
     7
370
    25
100
AcDbCircle
 10
207.1214989119
 20
205.4537614872
 30
0.0
 40
0.5
100
AcDbArc
 50
270.0
 51
0.0
  0
LINE
  5
C4
330
1F
100
AcDbEntity
  8
0
  6
Continuous
 62
     7
370
    25
100
AcDbLine
 10
207.6214989119
 20
183.1172084367
 30
0.0
 11
207.6214989119
 21
204.0290391622
 31
0.0
  0
LINE
  5
C5
330
1F
100
AcDbEntity
  8
0
  6
Continuous
 62
     7
370
    25
100
AcDbLine
 10
179.6214989119
 20
204.0290391622
 30
0.0
 11
179.6214989119
 21
183.1172084367
 31
0.0
  0
ARC
  5
C6
330
1F
100
AcDbEntity
  8
0
  6
Continuous
 62
     7
370
    25
100
AcDbCircle
 10
206.6214989119
 20
183.1172084367
 30
0.0
 40
1.0
100
AcDbArc
 50
283.9302635925
 51
0.0
  0
ARC
  5
C7
330
1F
100
AcDbEntity
  8
0
  6
Continuous
 62
     7
370
    25
100
AcDbCircle
 10
180.6214989119
 20
183.1172084367
 30
0.0
 40
1.0
100
AcDbArc
 50
180.0
 51
256.0697364075
  0
ARC
  5
C8
330
1F
100
AcDbEntity
  8
0
  6
Continuous
 62
     7
370
    25
100
AcDbCircle
 10
193.6214989119
 20
235.5290391622
 30
0.0
 40
55.00000000000003
100
AcDbArc
 50
256.0697364075
 51
270.0
  0
ARC
  5
C9
330
1F
100
AcDbEntity
  8
0
  6
Continuous
 62
     7
370
    25
100
AcDbCircle
 10
193.6214989119
 20
235.5290391622
 30
0.0
 40
55.00000000000003
100
AcDbArc
 50
270.0
 51
283.9302635925
  0
LINE
  5
CA
330
1F
100
AcDbEntity
  8
0
  6
Continuous
 62
     7
370
    25
100
AcDbLine
 10
205.6214989119
 20
204.0290391622
 30
0.0
 11
205.6214989119
 21
204.9537614872
 31
0.0
  0
LINE
  5
CB
330
1F
100
AcDbEntity
  8
0
  6
Continuous
 62
     7
370
    25
100
AcDbLine
 10
181.6214989119
 20
204.9537614872
 30
0.0
 11
181.6214989119
 21
204.0290391622
 31
0.0
  0
ARC
  5
CC
330
1F
100
AcDbEntity
  8
0
  6
Continuous
 62
     7
370
    25
100
AcDbCircle
 10
325.1225387807
 20
144.5537614872
 30
0.0
 40
159.1010398688184
100
AcDbArc
 50
174.8071373335
 51
180.0
  0
ARC
  5
CD
330
1F
100
AcDbEntity
  8
0
  6
Continuous
 62
     7
370
    25
100
AcDbCircle
 10
62.1204590431
 20
144.5537614872
 30
0.0
 40
159.1010398688185
100
AcDbArc
 50
0.0
 51
5.1928626665
  0
ARC
  5
CE
330
1F
100
AcDbEntity
  8
0
  6
Continuous
 62
     7
370
    25
100
AcDbCircle
 10
221.1214989119
 20
144.0537614872
 30
0.0
 40
0.0999999999999943
100
AcDbArc
 50
0.0
 51
90.0
  0
ARC
  5
CF
330
1F
100
AcDbEntity
  8
0
  6
Continuous
 62
     7
370
    25
100
AcDbCircle
 10
166.1214989119
 20
144.0537614872
 30
0.0
 40
0.0999999999999943
100
AcDbArc
 50
90.0
 51
180.0
  0
LINE
  5
D0
330
1F
100
AcDbEntity
  8
0
  6
Continuous
 62
     7
370
    25
100
AcDbLine
 10
221.2214989119
 20
143.7646984792
 30
0.0
 11
221.2214989119
 21
144.0537614872
 31
0.0
  0
LINE
  5
D1
330
1F
100
AcDbEntity
  8
0
  6
Continuous
 62
     7
370
    25
100
AcDbLine
 10
166.0214989119
 20
144.0537614872
 30
0.0
 11
166.0214989119
 21
143.7646984792
 31
0.0
  0
ARC
  5
D2
330
1F
100
AcDbEntity
  8
0
  6
Continuous
 62
     7
370
    25
100
AcDbCircle
 10
219.2714989119
 20
143.7646984792
 30
0.0
 40
1.949999999999991
100
AcDbArc
 50
272.952087508
 51
0.0
  0
ARC
  5
D3
330
1F
100
AcDbEntity
  8
0
  6
Continuous
 62
     7
370
    25
100
AcDbCircle
 10
167.9714989119
 20
143.7646984792
 30
0.0
 40
1.949999999999991
100
AcDbArc
 50
180.0
 51
267.047912492
  0
ARC
  5
D4
330
1F
100
AcDbEntity
  8
0
  6
Continuous
 62
     7
370
    25
100
AcDbCircle
 10
718.5163379823
 20
204.2080225903
 30
0.0
 40
500.0000000000001
100
AcDbArc
 50
181.1751341531
 51
185.1928626665
  0
ARC
  5
D5
330
1F
100
AcDbEntity
  8
0
  6
Continuous
 62
     7
370
    25
100
AcDbCircle
 10
-331.2733401585
 20
204.2080225903
 30
0.0
 40
500.0000000000001
100
AcDbArc
 50
354.8071373335
 51
358.8248658469
  0
ARC
  5
D6
330
1F
100
AcDbEntity
  8
0
  6
Continuous
 62
     7
370
    25
100
AcDbCircle
 10
193.6214989119
 20
641.1537614872
 30
0.0
 40
500.0
100
AcDbArc
 50
267.047912492
 51
270.0
  0
ARC
  5
D7
330
1F
100
AcDbEntity
  8
0
  6
Continuous
 62
     7
370
    25
100
AcDbCircle
 10
193.6214989119
 20
641.1537614872
 30
0.0
 40
500.0
100
AcDbArc
 50
270.0
 51
272.952087508
  0
LINE
  5
D8
330
1F
100
AcDbEntity
  8
0
  6
Continuous
 62
     7
370
    25
100
AcDbLine
 10
218.6214989119
 20
144.1537614872
 30
0.0
 11
218.6214989119
 21
144.5537614872
 31
0.0
  0
LINE
  5
D9
330
1F
100
AcDbEntity
  8
0
  6
Continuous
 62
     7
370
    25
100
AcDbLine
 10
168.6214989119
 20
144.5537614872
 30
0.0
 11
168.6214989119
 21
144.1537614872
 31
0.0
  0
LINE
  5
DA
330
1F
100
AcDbEntity
  8
0
  6
Continuous
 62
     7
370
    25
100
AcDbLine
 10
170.6714989138
 20
195.9537614872
 30
0.0
 11
170.7064090437
 21
193.9537614872
 31
0.0
  0
LINE
  5
DB
330
1F
100
AcDbEntity
  8
0
  6
Continuous
 62
     7
370
    25
100
AcDbLine
 10
216.5365887872
 20
193.9537614872
 30
0.0
 11
216.571498917
 21
195.9537614872
 31
0.0
  0
LINE
  5
DC
330
1F
100
AcDbEntity
  8
0
  6
Continuous
 62
     7
370
    25
100
AcDbLine
 10
216.5214989119
 20
196.9537614872
 30
0.0
 11
216.5214989119
 21
220.4912194446
 31
0.0
  0
LINE
  5
DD
330
1F
100
AcDbEntity
  8
0
  6
Continuous
 62
     7
370
    25
100
AcDbLine
 10
170.7214989119
 20
220.4912194446
 30
0.0
 11
170.7214989119
 21
196.9537614872
 31
0.0
  0
ARC
  5
DE
330
1F
100
AcDbEntity
  8
0
  6
Continuous
 62
     7
370
    25
100
AcDbCircle
 10
171.7214989119
 20
196.9537614872
 30
0.0
 40
1.0
100
AcDbArc
 50
180.0
 51
270.0
  0
ARC
  5
DF
330
1F
100
AcDbEntity
  8
0
  6
Continuous
 62
     7
370
    25
100
AcDbCircle
 10
215.5214989119
 20
196.9537614872
 30
0.0
 40
1.0
100
AcDbArc
 50
270.0
 51
0.0
  0
LINE
  5
E0
330
1F
100
AcDbEntity
  8
0
  6
Continuous
 62
     7
370
    25
100
AcDbLine
 10
120.8751523171
 20
227.9537614872
 30
0.0
 11
266.3678455067
 21
227.9537614872
 31
0.0
  0
SPLINE
  5
E1
330
1F
100
AcDbEntity
  8
0
  6
Continuous
 62
     7
370
    25
100
AcDbSpline
210
0.0
220
0.0
230
1.0
 70
     8
 71
     3
 72
    27
 73
    23
 74
     0
 42
0.00000001
 43
0.00000001
 40
0.0
 40
0.0
 40
0.0
 40
0.0
 40
0.018549761780621
 40
0.072245586945295
 40
0.1259415381258447
 40
0.1796374875464664
 40
0.2333332237536461
 40
0.2870289575000836
 40
0.3407242322436
 40
0.3944195049040646
 40
0.4481142739411343
 40
0.501809042185782
 40
0.5555034829104659
 40
0.6091979244805815
 40
0.6628923581710533
 40
0.7165867939742239
 40
0.7702815449865328
 40
0.8239762984529007
 40
0.8776715520735722
 40
0.9313668074141817
 40
0.9850625286596408
 40
1.0
 40
1.0
 40
1.0
 40
1.0
 10
179.6674250608952
 20
220.5364100096676
 30
0.0
 10
179.6554208506474
 20
220.5376129659229
 30
0.0
 10
179.6086681631777
 20
220.5422981086087
 30
0.0
 10
179.9313267400516
 20
220.5504268763438
 30
0.0
 10
180.639844770264
 20
220.560410544121
 30
0.0
 10
181.7363100124987
 20
220.5697287719655
 30
0.0
 10
183.169877961064
 20
220.5780810124005
 30
0.0
 10
184.8959661026814
 20
220.5852746654785
 30
0.0
 10
186.8743292389466
 20
220.591052410979
 30
0.0
 10
189.0404103537244
 20
220.5953108018644
 30
0.0
 10
191.3391716247138
 20
220.5978625673417
 30
0.0
 10
193.7013848539097
 20
220.5987056639514
 30
0.0
 10
196.0612789664888
 20
220.5977438116454
 30
0.0
 10
198.3533261933109
 20
220.5950766250546
 30
0.0
 10
200.5083262059307
 20
220.5907096454158
 30
0.0
 10
202.4717060230606
 20
220.5848329126503
 30
0.0
 10
204.1792679192791
 20
220.5775531026691
 30
0.0
 10
205.5911386618378
 20
220.5691295024946
 30
0.0
 10
206.6643365194422
 20
220.5597569668336
 30
0.0
 10
207.3446779183063
 20
220.5497383363612
 30
0.0
 10
207.6450947433653
 20
220.5418278700229
 30
0.0
 10
207.5920653635266
 20
220.5373796344728
 30
0.0
 10
207.5805239385732
 20
220.5364115111998
 30
0.0
  0
LINE
  5
E2
330
1F
100
AcDbEntity
  8
0
  6
Continuous
 62
     7
370
    25
100
AcDbLine
 10
119.3861039599
 20
227.9537614872
 30
0.0
 11
119.5244857462
 21
222.6690344368
 31
0.0
  0
LINE
  5
E3
330
1F
100
AcDbEntity
  8
0
  6
Continuous
 62
     7
370
    25
100
AcDbLine
 10
120.8751523171
 20
227.9537614872
 30
0.0
 11
119.3861039599
 21
227.9537614872
 31
0.0
  0
LINE
  5
E4
330
1F
100
AcDbEntity
  8
0
  6
Continuous
 62
     7
370
    25
100
AcDbLine
 10
267.856893864
 20
227.9537614872
 30
0.0
 11
267.7185120777
 21
222.6690344368
 31
0.0
  0
LINE
  5
E5
330
1F
100
AcDbEntity
  8
0
  6
Continuous
 62
     7
370
    25
100
AcDbLine
 10
266.3678455067
 20
227.9537614872
 30
0.0
 11
267.856893864
 21
227.9537614872
 31
0.0
  0
LINE
  5
E6
330
1F
100
AcDbEntity
  8
0
  6
Continuous
 62
     7
370
    25
100
AcDbLine
 10
268.1214989119
 20
227.9537614872
 30
0.0
 11
267.856893864
 21
227.9537614872
 31
0.0
  0
LINE
  5
E7
330
1F
100
AcDbEntity
  8
0
  6
Continuous
 62
     7
370
    25
100
AcDbLine
 10
119.1214989119
 20
227.9537614872
 30
0.0
 11
119.3861039599
 21
227.9537614872
 31
0.0
  0
CIRCLE
  5
E8
330
1F
100
AcDbEntity
  8
0
  6
Continuous
 62
     7
370
    25
100
AcDbCircle
 10
193.6214989119
 20
191.9290391622
 30
0.0
 40
8.000000000000004
  0
LINE
  5
E9
330
1F
100
AcDbEntity
  8
0
  6
Continuous
 62
     7
370
    25
100
AcDbLine
 10
201.4480265739
 20
204.9537614872
 30
0.0
 11
180.1214989119
 21
204.9537614872
 31
0.0
  0
LINE
  5
EA
330
1F
100
AcDbEntity
  8
0
  6
Continuous
 62
     7
370
    25
100
AcDbLine
 10
207.1214989119
 20
204.9537614872
 30
0.0
 11
201.4480265739
 21
204.9537614872
 31
0.0
  0
SPLINE
  5
EB
330
1F
100
AcDbEntity
  8
0
  6
Continuous
 62
     7
370
    25
100
AcDbSpline
210
0.0
220
0.0
230
1.0
 70
    11
 71
     3
 72
    92
 73
    88
 74
     0
 42
0.00000001
 43
0.00000001
 40
0.0
 40
0.0
 40
0.0
 40
0.0
 40
0.0312500000000059
 40
0.0312500000000059
 40
0.0625000000000118
 40
0.0625000000000118
 40
0.0937500000000177
 40
0.0937500000000177
 40
0.1250000000000236
 40
0.1250000000000236
 40
0.1406250000000255
 40
0.1406250000000255
 40
0.1562500000000274
 40
0.1562500000000274
 40
0.1875000000000311
 40
0.1875000000000311
 40
0.2187500000000348
 40
0.2187500000000348
 40
0.2500000000000386
 40
0.2500000000000386
 40
0.2656250000000405
 40
0.2656250000000405
 40
0.2812500000000423
 40
0.2812500000000423
 40
0.2968750000000442
 40
0.2968750000000442
 40
0.312500000000046
 40
0.312500000000046
 40
0.3437500000000498
 40
0.3437500000000498
 40
0.3593750000000526
 40
0.3593750000000526
 40
0.3750000000000554
 40
0.3750000000000554
 40
0.3906250000000582
 40
0.3906250000000582
 40
0.406250000000061
 40
0.406250000000061
 40
0.4375000000000665
 40
0.4375000000000665
 40
0.4531250000000678
 40
0.4531250000000678
 40
0.4687500000000692
 40
0.4687500000000692
 40
0.5000000000000718
 40
0.5000000000000718
 40
0.5156250000000716
 40
0.5156250000000716
 40
0.5312500000000713
 40
0.5312500000000713
 40
0.5625000000000708
 40
0.5625000000000708
 40
0.5781250000000693
 40
0.5781250000000693
 40
0.5937500000000677
 40
0.5937500000000677
 40
0.625000000000062
 40
0.625000000000062
 40
0.6562500000000562
 40
0.6562500000000562
 40
0.6875000000000504
 40
0.6875000000000504
 40
0.7031250000000481
 40
0.7031250000000481
 40
0.7187500000000456
 40
0.7187500000000456
 40
0.750000000000041
 40
0.750000000000041
 40
0.7656250000000387
 40
0.7656250000000387
 40
0.7812500000000364
 40
0.7812500000000364
 40
0.8125000000000311
 40
0.8125000000000311
 40
0.8437500000000258
 40
0.8437500000000258
 40
0.8750000000000204
 40
0.8750000000000204
 40
0.8906250000000189
 40
0.8906250000000189
 40
0.9062500000000172
 40
0.9062500000000172
 40
0.9375000000000115
 40
0.9375000000000115
 40
0.9687500000000058
 40
0.9687500000000058
 40
1.0
 40
1.0
 40
1.0
 40
1.0
 10
201.8214989119203
 20
191.9290391621777
 30
0.0
 10
201.8214989119203
 20
192.4849369331916
 30
0.0
 10
201.7656013614118
 20
193.0279950788534
 30
0.0
 10
201.5499379649098
 20
194.0909741745315
 30
0.0
 10
201.3873769239902
 20
194.6151539751959
 30
0.0
 10
200.9743180215026
 20
195.5978434944948
 30
0.0
 10
200.7236171583336
 20
196.0618552528155
 30
0.0
 10
200.1332494267454
 20
196.940761187365
 30
0.0
 10
199.8014669901334
 20
197.3438549239333
 30
0.0
 10
199.2493582351181
 20
197.8985666337343
 30
0.0
 10
199.0561318740162
 20
198.0751124111402
 30
0.0
 10
198.6502710014976
 20
198.4113923680282
 30
0.0
 10
198.4372855477016
 20
198.5711681792148
 30
0.0
 10
197.7815404127445
 20
199.0151361070943
 30
0.0
 10
197.3180405326164
 20
199.2680682784874
 30
0.0
 10
196.3339131115502
 20
199.6858798549618
 30
0.0
 10
195.8062372769157
 20
199.8513322537772
 30
0.0
 10
194.7407734597481
 20
200.0704784722306
 30
0.0
 10
194.1990049839052
 20
200.1272337839735
 30
0.0
 10
193.3720910081593
 20
200.1298789226867
 30
0.0
 10
193.0931549854309
 20
200.1166190335369
 30
0.0
 10
192.5458409285577
 20
200.062831104278
 30
0.0
 10
192.2755936355629
 20
200.0224114719977
 30
0.0
 10
191.7416714744649
 20
199.9153014395938
 30
0.0
 10
191.4779971234217
 20
199.8486096835113
 30
0.0
 10
190.9571502023523
 20
199.6889001862873
 30
0.0
 10
190.6997899008999
 20
199.5956021156264
 30
0.0
 10
189.9544580324879
 20
199.2831601460646
 30
0.0
 10
189.4868096249124
 20
199.0302032445567
 30
0.0
 10
188.8255711181087
 20
198.5855865632548
 30
0.0
 10
188.6120375850423
 20
198.4263067116628
 30
0.0
 10
188.2059303272174
 20
198.0918960726907
 30
0.0
 10
188.0122532877197
 20
197.9160680616161
 30
0.0
 10
187.6427874801109
 20
197.5471492652705
 30
0.0
 10
187.4669998149304
 20
197.3540598496915
 30
0.0
 10
187.1330837376586
 20
196.9499133013305
 30
0.0
 10
186.9742267703525
 20
196.7376995232339
 30
0.0
 10
186.5316813974913
 20
196.0826223358154
 30
0.0
 10
186.2807319069795
 20
195.6215189260899
 30
0.0
 10
185.9698680307089
 20
194.8892522650848
 30
0.0
 10
185.8772716382247
 20
194.638338933691
 30
0.0
 10
185.7153658251554
 20
194.1213942732245
 30
0.0
 10
185.6462777418344
 20
193.8552232387048
 30
0.0
 10
185.4807753697081
 20
193.054193126347
 30
0.0
 10
185.4232751808625
 20
192.5099850415349
 30
0.0
 10
185.4206708945924
 20
191.6770224067535
 30
0.0
 10
185.4339950500432
 20
191.3999306046969
 30
0.0
 10
185.4876259275802
 20
190.8541970209889
 30
0.0
 10
185.5279239488443
 20
190.5843603126797
 30
0.0
 10
185.6884430877019
 20
189.78355719891
 30
0.0
 10
185.8502348071634
 20
189.2583030745541
 30
0.0
 10
186.1593828276424
 20
188.5190292203061
 30
0.0
 10
186.2737501840731
 20
188.2792589664579
 30
0.0
 10
186.5248912075527
 20
187.8121877032397
 30
0.0
 10
186.6623496516451
 20
187.5839159651706
 30
0.0
 10
187.103731006991
 20
186.9252288506946
 30
0.0
 10
187.4349795227493
 20
186.5215410903663
 30
0.0
 10
188.1728541120058
 20
185.7787279998384
 30
0.0
 10
188.5836677751488
 20
185.4376508896711
 30
0.0
 10
189.4562827287748
 20
184.846042733072
 30
0.0
 10
189.9203212270148
 20
184.5921293460661
 30
0.0
 10
190.662448227564
 20
184.2768329754848
 30
0.0
 10
190.9193911008245
 20
184.1822320464285
 30
0.0
 10
191.4401970438796
 20
184.0197832381424
 30
0.0
 10
191.7034349756682
 20
183.9518955434054
 30
0.0
 10
192.5016530365697
 20
183.7877184138137
 30
0.0
 10
193.0450563399473
 20
183.730480120935
 30
0.0
 10
193.8784064343484
 20
183.7283585426924
 30
0.0
 10
194.1556342661345
 20
183.7418485383306
 30
0.0
 10
194.7021139629306
 20
183.7959178671667
 30
0.0
 10
194.9724858959125
 20
183.8364911457797
 30
0.0
 10
195.7752124424739
 20
183.9981177186877
 30
0.0
 10
196.303956205432
 20
184.1615173695692
 30
0.0
 10
197.2967183044776
 20
184.5790232202405
 30
0.0
 10
197.765445259328
 20
184.8330416622825
 30
0.0
 10
198.6512199584269
 20
185.4307795457081
 30
0.0
 10
199.0557631116808
 20
185.7660236355911
 30
0.0
 10
199.6104024529411
 20
186.3217643053702
 30
0.0
 10
199.7865476245986
 20
186.5159397184759
 30
0.0
 10
200.1214506310388
 20
186.9230328830936
 30
0.0
 10
200.2798154286953
 20
187.1357156920648
 30
0.0
 10
200.7199039034459
 20
187.7903000446375
 30
0.0
 10
200.9704118988927
 20
188.2523981897343
 30
0.0
 10
201.3846021127603
 20
189.2348900157035
 30
0.0
 10
201.5483628893101
 20
189.7609769566328
 30
0.0
 10
201.7652313181779
 20
190.8266378112978
 30
0.0
 10
201.8214989119203
 20
191.3731413911641
 30
0.0
 10
201.8214989119203
 20
191.9290391621777
 30
0.0
  0
LINE
  5
EC
330
1F
100
AcDbEntity
  8
0
  6
Continuous
 62
     7
370
    25
100
AcDbLine
 10
207.6214989119
 20
204.0290391622
 30
0.0
 11
179.6214989119
 21
204.0290391622
 31
0.0
  0
CIRCLE
  5
ED
330
1F
100
AcDbEntity
  8
0
  6
Continuous
 62
     7
370
    25
100
AcDbCircle
 10
193.6214989119
 20
160.9537614872
 30
0.0
 40
6.050000000000011
  0
LINE
  5
EE
330
1F
100
AcDbEntity
  8
0
  6
Continuous
 62
     7
370
    25
100
AcDbLine
 10
221.2214989119
 20
144.5537614872
 30
0.0
 11
166.0214989119
 21
144.5537614872
 31
0.0
  0
LINE
  5
EF
330
1F
100
AcDbEntity
  8
0
  6
Continuous
 62
     7
370
    25
100
AcDbLine
 10
187.8586870982
 20
158.9537614872
 30
0.0
 11
188.0372237991
 21
158.630711787
 31
0.0
  0
SPLINE
  5
F0
330
1F
100
AcDbEntity
  8
0
  6
Continuous
 62
     7
370
    25
100
AcDbSpline
210
0.0
220
0.0
230
1.0
 70
     8
 71
     3
 72
    12
 73
     8
 74
     0
 42
0.00000001
 43
0.00000001
 40
0.0
 40
0.0
 40
0.0
 40
0.0
 40
0.1177630897013758
 40
0.3721145752703588
 40
0.6296741274687809
 40
0.8962059690244012
 40
1.0
 40
1.0
 40
1.0
 40
1.0
 10
193.4545251787685
 20
154.9394309980804
 30
0.0
 10
193.7592638080679
 20
154.9122828983348
 30
0.0
 10
194.7221944334257
 20
154.8264987733439
 30
0.0
 10
196.3120384874414
 20
155.3812773482889
 30
0.0
 10
197.9641385743776
 20
156.5114962601405
 30
0.0
 10
198.942376401103
 20
157.8279695717331
 30
0.0
 10
199.287562741339
 20
158.7073038293795
 30
0.0
 10
199.38431072561
 20
158.9537614872045
 30
0.0
  0
LINE
  5
F1
330
1F
100
AcDbEntity
  8
0
  6
Continuous
 62
     7
370
    25
100
AcDbLine
 10
221.1214989119
 20
144.1537614872
 30
0.0
 11
166.1214989119
 21
144.1537614872
 31
0.0
  0
LINE
  5
F2
330
1F
100
AcDbEntity
  8
0
  6
Continuous
 62
     7
370
    25
100
AcDbLine
 10
218.6214989119
 20
193.9537614872
 30
0.0
 11
207.6214989119
 21
193.9537614872
 31
0.0
  0
LINE
  5
F3
330
1F
100
AcDbEntity
  8
0
  6
Continuous
 62
     7
370
    25
100
AcDbLine
 10
179.6214989119
 20
193.9537614872
 30
0.0
 11
168.6214989119
 21
193.9537614872
 31
0.0
  0
SPLINE
  5
F4
330
1F
100
AcDbEntity
  8
0
  6
Continuous
 62
     7
370
    25
100
AcDbSpline
210
0.0
220
0.0
230
1.0
 70
     8
 71
     3
 72
    10
 73
     6
 74
     0
 42
0.00000001
 43
0.00000001
 40
0.0
 40
0.0
 40
0.0
 40
0.0
 40
0.4558818468957269
 40
0.9121695717930778
 40
1.0
 40
1.0
 40
1.0
 40
1.0
 10
199.38431072561
 20
158.9537614872045
 30
0.0
 10
199.5339428209123
 20
159.6031997883451
 30
0.0
 10
199.8333402310697
 20
160.9026545946535
 30
0.0
 10
199.6710924845779
 20
162.4557939654649
 30
0.0
 10
199.2733658965302
 20
163.1564491179258
 30
0.0
 10
199.2091656923315
 20
163.2695474251869
 30
0.0
  0
SPLINE
  5
F5
330
1F
100
AcDbEntity
  8
0
  6
Continuous
 62
     7
370
    25
100
AcDbSpline
210
0.0
220
0.0
230
1.0
 70
     8
 71
     3
 72
     9
 73
     5
 74
     0
 42
0.00000001
 43
0.00000001
 40
0.0
 40
0.0
 40
0.0
 40
0.0
 40
0.5972596915645085
 40
1.0
 40
1.0
 40
1.0
 40
1.0
 10
187.5971623173081
 20
161.0828482215232
 30
0.0
 10
187.5796212410591
 20
160.6469147901009
 30
0.0
 10
187.550251979251
 20
159.9170255349254
 30
0.0
 10
187.7701323926997
 20
159.2303239110196
 30
0.0
 10
187.8586870982309
 20
158.9537614872045
 30
0.0
  0
LINE
  5
F6
330
1F
100
AcDbEntity
  8
0
  6
Continuous
 62
     7
370
    25
100
AcDbLine
 10
179.6214989119
 20
195.9537614872
 30
0.0
 11
170.6714989138
 21
195.9537614872
 31
0.0
  0
LINE
  5
F7
330
1F
100
AcDbEntity
  8
0
  6
Continuous
 62
     7
370
    25
100
AcDbLine
 10
216.571498917
 20
195.9537614872
 30
0.0
 11
207.6214989119
 21
195.9537614872
 31
0.0
  0
SPLINE
  5
F8
330
1F
100
AcDbEntity
  8
0
  6
Continuous
 62
     8
370
    18
100
AcDbSpline
210
0.0
220
0.0
230
1.0
 70
     8
 71
     3
 72
     8
 73
     4
 74
     0
 42
0.00000001
 43
0.00000001
 40
0.0
 40
0.0
 40
0.0
 40
0.0
 40
1.0
 40
1.0
 40
1.0
 40
1.0
 10
266.2355770513274
 20
221.2070597833796
 30
0.0
 10
217.826191625056
 20
220.7083451854558
 30
0.0
 10
169.4168061987847
 20
220.7083451854551
 30
0.0
 10
121.0074207725134
 20
221.2070597833789
 30
0.0
  0
SPLINE
  5
F9
330
1F
100
AcDbEntity
  8
0
  6
Continuous
 62
     8
370
    18
100
AcDbSpline
210
0.0
220
0.0
230
1.0
 70
     8
 71
     3
 72
     9
 73
     5
 74
     0
 42
0.00000001
 43
0.00000001
 40
0.0
 40
0.0
 40
0.0
 40
0.0
 40
0.4999508392748921
 40
1.0
 40
1.0
 40
1.0
 40
1.0
 10
266.4894033156992
 20
220.8330531633824
 30
0.0
 10
266.4788320029706
 20
220.848628753316
 30
0.0
 10
266.4576872985354
 20
220.8797829963137
 30
0.0
 10
266.3096186531716
 20
221.0979603705191
 30
0.0
 10
266.2355770513277
 20
221.2070597833799
 30
0.0
  0
SPLINE
  5
FA
330
1F
100
AcDbEntity
  8
0
  6
Continuous
 62
     8
370
    18
100
AcDbSpline
210
0.0
220
0.0
230
1.0
 70
     8
 71
     3
 72
    10
 73
     6
 74
     0
 42
0.00000001
 43
0.00000001
 40
0.0
 40
0.0
 40
0.0
 40
0.0
 40
0.4999494918653576
 40
0.9999183536636781
 40
1.0
 40
1.0
 40
1.0
 40
1.0
 10
121.0074207725125
 20
221.2070597833801
 30
0.0
 10
120.9379240492156
 20
221.1046569027881
 30
0.0
 10
120.798927910056
 20
220.8998471741293
 30
0.0
 10
120.7324378748494
 20
220.801880045472
 30
0.0
 10
120.7535913974773
 20
220.8330485799928
 30
0.0
 10
120.7535948513436
 20
220.8330536690719
 30
0.0
  0
SPLINE
  5
FB
330
1F
100
AcDbEntity
  8
0
  6
Continuous
 62
     8
370
    18
100
AcDbSpline
210
0.0
220
0.0
230
1.0
 70
     8
 71
     3
 72
    21
 73
    17
 74
     0
 42
0.00000001
 43
0.00000001
 40
0.0
 40
0.0
 40
0.0
 40
0.0
 40
0.0527050579362217
 40
0.1061279058763758
 40
0.1602714789034625
 40
0.2151385958224905
 40
0.2707319647143437
 40
0.3270541881743845
 40
0.3841077682621816
 40
0.4418951111699276
 40
0.50041853164114
 40
0.6190410088379037
 40
0.7500271579309205
 40
0.815058891586119
 40
0.8983884735132007
 40
1.0
 40
1.0
 40
1.0
 40
1.0
 10
119.5244857461664
 20
222.6690344367618
 30
0.0
 10
119.5264951360261
 20
222.6285774718874
 30
0.0
 10
119.530541281619
 20
222.5471125588719
 30
0.0
 10
119.549303629635
 20
222.4252287658996
 30
0.0
 10
119.5777126216651
 20
222.3036294984986
 30
0.0
 10
119.6168904614028
 20
222.1832728974357
 30
0.0
 10
119.6667029553785
 20
222.0651356204515
 30
0.0
 10
119.7272444969305
 20
221.9502432947926
 30
0.0
 10
119.7984185538729
 20
221.8396541970382
 30
0.0
 10
119.8800572540411
 20
221.7344444649318
 30
0.0
 10
120.0028536571839
 20
221.6023527582493
 30
0.0
 10
120.1865775576153
 20
221.4519385398839
 30
0.0
 10
120.4001727085985
 20
221.3366190153855
 30
0.0
 10
120.6016135875569
 20
221.2647248439261
 30
0.0
 10
120.7882276554403
 20
221.219285654594
 30
0.0
 10
120.9296949221506
 20
221.2113950756969
 30
0.0
 10
121.0074207725125
 20
221.2070597833789
 30
0.0
  0
SPLINE
  5
FC
330
1F
100
AcDbEntity
  8
0
  6
Continuous
 62
     8
370
    18
100
AcDbSpline
210
0.0
220
0.0
230
1.0
 70
     8
 71
     3
 72
    26
 73
    22
 74
     0
 42
0.00000001
 43
0.00000001
 40
0.0
 40
0.0
 40
0.0
 40
0.0
 40
0.03125
 40
0.03125
 40
0.0625
 40
0.0625
 40
0.125
 40
0.125
 40
0.25
 40
0.25
 40
0.375
 40
0.375
 40
0.5
 40
0.5
 40
0.625
 40
0.625
 40
0.75
 40
0.75
 40
0.875
 40
0.875
 40
1.0
 40
1.0
 40
1.0
 40
1.0
 10
267.7185120776739
 20
222.6690344367617
 30
0.0
 10
267.7178758697328
 20
222.6447850616711
 30
0.0
 10
267.7166465835326
 20
222.6205797879921
 30
0.0
 10
267.7130200521171
 20
222.5723086931944
 30
0.0
 10
267.7106228069022
 20
222.5482428720758
 30
0.0
 10
267.7017064289906
 20
222.4763314621669
 30
0.0
 10
267.6934626540274
 20
222.4287719268235
 30
0.0
 10
267.6620511301167
 20
222.2878525314302
 30
0.0
 10
267.6322031821474
 20
222.1962518820174
 30
0.0
 10
267.5558580623887
 20
222.0210217947553
 30
0.0
 10
267.5086335666415
 20
221.9358919357681
 30
0.0
 10
267.3997252484967
 20
221.7777060536727
 30
0.0
 10
267.3383521562732
 20
221.7046535614879
 30
0.0
 10
267.2019174703097
 20
221.5704990746317
 30
0.0
 10
267.1261910895141
 20
221.5091570548577
 30
0.0
 10
266.9669883650992
 20
221.403702945637
 30
0.0
 10
266.8829318602319
 20
221.3588531067018
 30
0.0
 10
266.7057738743013
 20
221.2851460094761
 30
0.0
 10
266.6132766894461
 20
221.2567664314132
 30
0.0
 10
266.4268478407868
 20
221.2184696896174
 30
0.0
 10
266.3320365903167
 20
221.2081582155181
 30
0.0
 10
266.2355770513282
 20
221.20705978338
 30
0.0
  0
SPLINE
  5
FD
330
1F
100
AcDbEntity
  8
0
  6
Continuous
 62
     8
370
    18
100
AcDbSpline
210
0.0
220
0.0
230
1.0
 70
     8
 71
     3
 72
    10
 73
     6
 74
     0
 42
0.00000001
 43
0.00000001
 40
0.0
 40
0.0
 40
0.0
 40
0.0
 40
0.4999510413281487
 40
0.9999215213148364
 40
1.0
 40
1.0
 40
1.0
 40
1.0
 10
267.7185120776737
 20
222.6690344367617
 30
0.0
 10
267.7882651185607
 20
222.5662698655378
 30
0.0
 10
267.9277739124113
 20
222.3607367274878
 30
0.0
 10
267.9945093917593
 20
222.26242327796
 30
0.0
 10
267.9732781041847
 20
222.2937015236688
 30
0.0
 10
267.9732747721039
 20
222.2937064325394
 30
0.0
  0
SPLINE
  5
FE
330
1F
100
AcDbEntity
  8
0
  6
Continuous
 62
     8
370
    18
100
AcDbSpline
210
0.0
220
0.0
230
1.0
 70
     8
 71
     3
 72
     9
 73
     5
 74
     0
 42
0.00000001
 43
0.00000001
 40
0.0
 40
0.0
 40
0.0
 40
0.0
 40
0.4999510989238528
 40
0.9999999999999999
 40
0.9999999999999999
 40
0.9999999999999999
 40
0.9999999999999999
 10
119.2697230358523
 20
222.2937064091379
 30
0.0
 10
119.2803333370441
 20
222.3093370073468
 30
0.0
 10
119.3015560150513
 20
222.3406012614763
 30
0.0
 10
119.4501709908404
 20
222.5595495737945
 30
0.0
 10
119.5244857461671
 20
222.6690344367617
 30
0.0
  0
CIRCLE
  5
FF
330
1F
100
AcDbEntity
  8
0
  6
Continuous
 62
     8
370
    18
100
AcDbCircle
 10
193.6214989119
 20
191.9290391622
 30
0.0
 40
5.627624897229708
  0
CIRCLE
  5
100
330
1F
100
AcDbEntity
  8
0
  6
Continuous
 62
     8
370
    18
100
AcDbCircle
 10
193.6214989119
 20
191.9290391622
 30
0.0
 40
7.047634552650453
  0
LINE
  5
101
330
1F
100
AcDbEntity
  8
0
  6
Continuous
 62
     8
370
    18
100
AcDbLine
 10
207.6214989119
 20
183.1172084367
 30
0.0
 11
179.6214989119
 21
183.1172084367
 31
0.0
  0
LINE
  5
102
330
1F
100
AcDbEntity
  8
0
  6
Continuous
 62
     8
370
    18
100
AcDbLine
 10
206.8622396527
 20
182.1466189788
 30
0.0
 11
180.3807581712
 21
182.1466189788
 31
0.0
  0
CIRCLE
  5
103
330
1F
100
AcDbEntity
  8
0
  6
Continuous
 62
     8
370
    18
100
AcDbCircle
 10
193.6214989119
 20
160.9537614872
 30
0.0
 40
5.577889447236174
  0
LINE
  5
104
330
1F
100
AcDbEntity
  8
0
  6
Continuous
 62
     8
370
    18
100
AcDbLine
 10
221.2214989119
 20
144.0537614872
 30
0.0
 11
166.0214989119
 21
144.0537614872
 31
0.0
  0
LINE
  5
105
330
1F
100
AcDbEntity
  8
0
  6
Continuous
 62
     8
370
    18
100
AcDbLine
 10
221.2214989119
 20
143.7646984792
 30
0.0
 11
166.0214989119
 21
143.7646984792
 31
0.0
  0
LINE
  5
106
330
1F
100
AcDbEntity
  8
0
  6
Continuous
 62
     8
370
    18
100
AcDbLine
 10
219.3719255759
 20
141.8172862257
 30
0.0
 11
167.8710722479
 21
141.8172862257
 31
0.0
  0
LINE
  5
107
330
1F
100
AcDbEntity
  8
0
  6
Continuous
 62
     8
370
    18
100
AcDbLine
 10
170.7214989119
 20
196.9537614872
 30
0.0
 11
179.6214989119
 21
196.9537614872
 31
0.0
  0
LINE
  5
108
330
1F
100
AcDbEntity
  8
0
  6
Continuous
 62
     8
370
    18
100
AcDbLine
 10
207.6214989119
 20
196.9537614872
 30
0.0
 11
216.5214989119
 21
196.9537614872
 31
0.0
  0
ARC
  5
109
330
1F
100
AcDbEntity
  8
0
  6
Continuous
 62
     7
370
    25
100
AcDbCircle
 10
-6596.2725397608
 20
399.4660341151
 30
0.0
 40
7000.0
100
AcDbArc
 50
359.9254337634
 51
0.0
  0
ARC
  5
10A
330
1F
100
AcDbEntity
  8
0
  6
Continuous
 62
     7
370
    25
100
AcDbCircle
 10
-6596.2725397608
 20
399.4660341151
 30
0.0
 40
7000.0
100
AcDbArc
 50
359.4035573778
 51
359.551254109
  0
ARC
  5
10B
330
1F
100
AcDbEntity
  8
0
  6
Continuous
 62
     7
370
    25
100
AcDbCircle
 10
-6596.2725397608
 20
399.4660341151
 30
0.0
 40
6999.999999999999
100
AcDbArc
 50
0.3682788128
 51
0.5964431983
  0
ARC
  5
10C
330
1F
100
AcDbEntity
  8
0
  6
Continuous
 62
     7
370
    25
100
AcDbCircle
 10
-6596.2725397608
 20
399.4660341151
 30
0.0
 40
7000.0
100
AcDbArc
 50
0.0
 51
0.1395266155
  0
ARC
  5
10D
330
1F
100
AcDbEntity
  8
0
  6
Continuous
 62
     7
370
    25
100
AcDbCircle
 10
401.8482645983
 20
472.3183339843
 30
0.0
 40
1.500000000000066
100
AcDbArc
 50
0.6103433352
 51
88.4893102131
  0
ARC
  5
10E
330
1F
100
AcDbEntity
  8
0
  6
Continuous
 62
     7
370
    25
100
AcDbCircle
 10
401.8482645983
 20
326.613734246
 30
0.0
 40
1.499999999999979
100
AcDbArc
 50
271.5241076745
 51
359.4065979697
  0
LINE
  5
10F
330
1F
100
AcDbEntity
  8
0
  6
Continuous
 62
     7
370
    25
100
AcDbLine
 10
401.8875156948
 20
473.8178203469
 30
0.0
 11
396.2274602392
 21
473.9660341151
 31
0.0
  0
LINE
  5
110
330
1F
100
AcDbEntity
  8
0
  6
Continuous
 62
     7
370
    25
100
AcDbLine
 10
396.2274602392
 20
324.9660341151
 30
0.0
 11
401.8875156948
 21
325.1142478834
 31
0.0
  0
ARC
  5
111
330
1F
100
AcDbEntity
  8
0
  6
Continuous
 62
     7
370
    25
100
AcDbCircle
 10
480.1274602392
 20
394.9660341151
 30
0.0
 40
0.1000000000000227
100
AcDbArc
 50
90.0
 51
180.0
  0
ARC
  5
112
330
1F
100
AcDbEntity
  8
0
  6
Continuous
 62
     7
370
    25
100
AcDbCircle
 10
480.1274602392
 20
339.9660341151
 30
0.0
 40
0.1000000000000227
100
AcDbArc
 50
180.0
 51
270.0
  0
ARC
  5
113
330
1F
100
AcDbEntity
  8
0
  6
Continuous
 62
     7
370
    25
100
AcDbCircle
 10
480.4165232472
 20
393.1160341151
 30
0.0
 40
1.950000000000045
100
AcDbArc
 50
2.952087508
 51
90.0
  0
ARC
  5
114
330
1F
100
AcDbEntity
  8
0
  6
Continuous
 62
     7
370
    25
100
AcDbCircle
 10
480.4165232472
 20
341.8160341151
 30
0.0
 40
1.949999999999989
100
AcDbArc
 50
270.0
 51
357.047912492
  0
LINE
  5
115
330
1F
100
AcDbEntity
  8
0
  6
Continuous
 62
     7
370
    25
100
AcDbLine
 10
480.4165232472
 20
395.0660341151
 30
0.0
 11
480.1274602392
 21
395.0660341151
 31
0.0
  0
LINE
  5
116
330
1F
100
AcDbEntity
  8
0
  6
Continuous
 62
     7
370
    25
100
AcDbLine
 10
480.1274602392
 20
339.8660341151
 30
0.0
 11
480.4165232472
 21
339.8660341151
 31
0.0
  0
ARC
  5
117
330
1F
100
AcDbEntity
  8
0
  6
Continuous
 62
     7
370
    25
100
AcDbCircle
 10
479.6274602392
 20
498.967073984
 30
0.0
 40
159.1010398688185
100
AcDbArc
 50
264.8071373335
 51
269.711901212
  0
ARC
  5
118
330
1F
100
AcDbEntity
  8
0
  6
Continuous
 62
     7
370
    25
100
AcDbCircle
 10
479.6274602392
 20
235.9649942463
 30
0.0
 40
159.1010398688185
100
AcDbArc
 50
90.0
 51
93.7406277155
  0
ARC
  5
119
330
1F
100
AcDbEntity
  8
0
  6
Continuous
 62
     7
370
    25
100
AcDbCircle
 10
419.9731991361
 20
892.3608731855
 30
0.0
 40
499.9999999999999
100
AcDbArc
 50
271.1751341531
 51
274.269266336
  0
ARC
  5
11A
330
1F
100
AcDbEntity
  8
0
  6
Continuous
 62
     7
370
    25
100
AcDbCircle
 10
419.9731991361
 20
-157.4288049553
 30
0.0
 40
500.0000000000001
100
AcDbArc
 50
84.8071373335
 51
88.8248658469
  0
ARC
  5
11B
330
1F
100
AcDbEntity
  8
0
  6
Continuous
 62
     7
370
    25
100
AcDbCircle
 10
-16.9725397608
 20
367.4660341151
 30
0.0
 40
500.0
100
AcDbArc
 50
357.047912492
 51
0.0
  0
ARC
  5
11C
330
1F
100
AcDbEntity
  8
0
  6
Continuous
 62
     7
370
    25
100
AcDbCircle
 10
-16.9725397608
 20
367.4660341151
 30
0.0
 40
500.0
100
AcDbArc
 50
0.0
 51
2.952087508
  0
LINE
  5
11D
330
1F
100
AcDbEntity
  8
0
  6
Continuous
 62
     7
370
    25
100
AcDbLine
 10
480.0274602392
 20
392.4660341151
 30
0.0
 11
479.6274602392
 21
392.4660341151
 31
0.0
  0
LINE
  5
11E
330
1F
100
AcDbEntity
  8
0
  6
Continuous
 62
     7
370
    25
100
AcDbLine
 10
479.6274602392
 20
342.4660341151
 30
0.0
 11
480.0274602392
 21
342.4660341151
 31
0.0
  0
LINE
  5
11F
330
1F
100
AcDbEntity
  8
0
  6
Continuous
 62
     7
370
    25
100
AcDbLine
 10
428.2274602392
 20
344.5160341125
 30
0.0
 11
430.2274602392
 21
344.5509442424
 31
0.0
  0
LINE
  5
120
330
1F
100
AcDbEntity
  8
0
  6
Continuous
 62
     7
370
    25
100
AcDbLine
 10
427.2274602392
 20
390.3660341151
 30
0.0
 11
403.7214998787
 21
390.3660341151
 31
0.0
  0
LINE
  5
121
330
1F
100
AcDbEntity
  8
0
  6
Continuous
 62
     7
370
    25
100
AcDbLine
 10
403.5125170705
 20
344.5660341151
 30
0.0
 11
427.2274602392
 21
344.5660341151
 31
0.0
  0
ARC
  5
122
330
1F
100
AcDbEntity
  8
0
  6
Continuous
 62
     7
370
    25
100
AcDbCircle
 10
427.2274602392
 20
345.5660341151
 30
0.0
 40
1.0
100
AcDbArc
 50
270.0
 51
0.0
  0
ARC
  5
123
330
1F
100
AcDbEntity
  8
0
  6
Continuous
 62
     7
370
    25
100
AcDbCircle
 10
427.2274602392
 20
389.3660341151
 30
0.0
 40
1.0
100
AcDbArc
 50
0.0
 51
90.0
  0
LINE
  5
124
330
1F
100
AcDbEntity
  8
0
  6
Continuous
 62
     7
370
    25
100
AcDbLine
 10
418.7274602392
 20
444.4660341151
 30
0.0
 11
403.5828448844
 21
444.4660341151
 31
0.0
  0
LINE
  5
125
330
1F
100
AcDbEntity
  8
0
  6
Continuous
 62
     7
370
    25
100
AcDbLine
 10
403.7066116539
 20
416.4660341151
 30
0.0
 11
418.7274602392
 21
416.4660341151
 31
0.0
  0
LINE
  5
126
330
1F
100
AcDbEntity
  8
0
  6
Continuous
 62
     7
370
    25
100
AcDbLine
 10
424.0734959101
 20
444.4660341151
 30
0.0
 11
420.1521825642
 21
444.4660341151
 31
0.0
  0
LINE
  5
127
330
1F
100
AcDbEntity
  8
0
  6
Continuous
 62
     7
370
    25
100
AcDbLine
 10
441.0640132898
 20
444.4660341151
 30
0.0
 11
440.4463167839
 21
444.4660341151
 31
0.0
  0
LINE
  5
128
330
1F
100
AcDbEntity
  8
0
  6
Continuous
 62
     7
370
    25
100
AcDbLine
 10
420.1521825642
 20
416.4660341151
 30
0.0
 11
441.0640132898
 21
416.4660341151
 31
0.0
  0
ARC
  5
129
330
1F
100
AcDbEntity
  8
0
  6
Continuous
 62
     7
370
    25
100
AcDbCircle
 10
418.7274602392
 20
416.9660341151
 30
0.0
 40
0.5
100
AcDbArc
 50
270.0
 51
0.0
  0
ARC
  5
12A
330
1F
100
AcDbEntity
  8
0
  6
Continuous
 62
     7
370
    25
100
AcDbCircle
 10
418.7274602392
 20
443.9660341151
 30
0.0
 40
0.5
100
AcDbArc
 50
0.0
 51
90.0
  0
ARC
  5
12B
330
1F
100
AcDbEntity
  8
0
  6
Continuous
 62
     7
370
    25
100
AcDbCircle
 10
441.0640132898
 20
443.4660341151
 30
0.0
 40
1.000000000000001
100
AcDbArc
 50
13.9302635925
 51
90.0
  0
ARC
  5
12C
330
1F
100
AcDbEntity
  8
0
  6
Continuous
 62
     7
370
    25
100
AcDbCircle
 10
441.0640132898
 20
417.4660341151
 30
0.0
 40
1.000000000000001
100
AcDbArc
 50
270.0
 51
346.0697364075
  0
ARC
  5
12D
330
1F
100
AcDbEntity
  8
0
  6
Continuous
 62
     7
370
    25
100
AcDbCircle
 10
388.6521825642
 20
430.4660341151
 30
0.0
 40
55.00000000000006
100
AcDbArc
 50
346.0697364075
 51
0.0
  0
ARC
  5
12E
330
1F
100
AcDbEntity
  8
0
  6
Continuous
 62
     7
370
    25
100
AcDbCircle
 10
388.6521825642
 20
430.4660341151
 30
0.0
 40
55.00000000000006
100
AcDbArc
 50
0.0
 51
13.9302635925
  0
LINE
  5
12F
330
1F
100
AcDbEntity
  8
0
  6
Continuous
 62
     7
370
    25
100
AcDbLine
 10
420.1521825642
 20
442.4660341151
 30
0.0
 11
419.2274602392
 21
442.4660341151
 31
0.0
  0
LINE
  5
130
330
1F
100
AcDbEntity
  8
0
  6
Continuous
 62
     7
370
    25
100
AcDbLine
 10
419.2274602392
 20
418.4660341151
 30
0.0
 11
420.1521825642
 21
418.4660341151
 31
0.0
  0
LINE
  5
131
330
1F
100
AcDbEntity
  8
0
  6
Continuous
 62
     7
370
    25
100
AcDbLine
 10
424.2521825642
 20
445.5660341151
 30
0.0
 11
424.2521825642
 21
444.3510217903
 31
0.0
  0
LINE
  5
132
330
1F
100
AcDbEntity
  8
0
  6
Continuous
 62
     7
370
    25
100
AcDbLine
 10
440.2521825642
 20
444.3503635728
 30
0.0
 11
440.2521825642
 21
445.5660341151
 31
0.0
  0
ARC
  5
133
330
1F
100
AcDbEntity
  8
0
  6
Continuous
 62
     7
370
    25
100
AcDbCircle
 10
220.2521825642
 20
445.5660341151
 30
0.0
 40
219.9999999999999
100
AcDbArc
 50
0.0
 51
5.3331635089
  0
ARC
  5
134
330
1F
100
AcDbEntity
  8
0
  6
Continuous
 62
     7
370
    25
100
AcDbCircle
 10
644.2521825642
 20
445.5660341151
 30
0.0
 40
220.0
100
AcDbArc
 50
174.6668364911
 51
180.0
  0
ARC
  5
135
330
1F
100
AcDbEntity
  8
0
  6
Continuous
 62
     7
370
    25
100
AcDbCircle
 10
427.1958901439
 20
465.8284604439
 30
0.0
 40
2.000000000000018
100
AcDbArc
 50
106.5986769674
 51
174.6668364911
  0
ARC
  5
136
330
1F
100
AcDbEntity
  8
0
  6
Continuous
 62
     7
370
    25
100
AcDbCircle
 10
437.3084749846
 20
465.8284604439
 30
0.0
 40
2.000000000000018
100
AcDbArc
 50
5.3331635089
 51
73.4013230326
  0
ARC
  5
137
330
1F
100
AcDbEntity
  8
0
  6
Continuous
 62
     7
370
    25
100
AcDbCircle
 10
468.7774602392
 20
402.2111270991
 30
0.0
 40
0.5
100
AcDbArc
 50
0.0
 51
86.8024452128
  0
ARC
  5
138
330
1F
100
AcDbEntity
  8
0
  6
Continuous
 62
     7
370
    25
100
AcDbCircle
 10
457.6774602392
 20
402.2111270991
 30
0.0
 40
0.5
100
AcDbArc
 50
93.1975547872
 51
180.0
  0
LINE
  5
139
330
1F
100
AcDbEntity
  8
0
  6
Continuous
 62
     7
370
    25
100
AcDbLine
 10
469.2774602392
 20
394.7290279169
 30
0.0
 11
469.2774602392
 21
402.2111270991
 31
0.0
  0
LINE
  5
13A
330
1F
100
AcDbEntity
  8
0
  6
Continuous
 62
     7
370
    25
100
AcDbLine
 10
457.1774602392
 20
402.2111270991
 30
0.0
 11
457.1774602392
 21
393.7469514427
 31
0.0
  0
ARC
  5
13B
330
1F
100
AcDbEntity
  8
0
  6
Continuous
 62
     7
370
    25
100
AcDbCircle
 10
432.2521825642
 20
448.8660341151
 30
0.0
 40
19.69999999999995
100
AcDbArc
 50
73.4013230326
 51
106.5986769674
  0
ARC
  5
13C
330
1F
100
AcDbEntity
  8
0
  6
Continuous
 62
     7
370
    25
100
AcDbCircle
 10
463.2274602392
 20
302.8660341151
 30
0.0
 40
100.0
100
AcDbArc
 50
86.8024452128
 51
93.1975547872
  0
LINE
  5
13D
330
1F
100
AcDbEntity
  8
0
  6
Continuous
 62
     7
370
    25
100
AcDbLine
 10
396.2274602392
 20
326.7196875203
 30
0.0
 11
396.2274602392
 21
472.2123807099
 31
0.0
  0
SPLINE
  5
13E
330
1F
100
AcDbEntity
  8
0
  6
Continuous
 62
     7
370
    25
100
AcDbSpline
210
0.0
220
0.0
230
1.0
 70
     8
 71
     3
 72
    21
 73
    17
 74
     0
 42
0.00000001
 43
0.00000001
 40
0.0
 40
0.0
 40
0.0
 40
0.0
 40
0.0705781811296389
 40
0.1432031467965628
 40
0.2137813236101593
 40
0.2864062508040551
 40
0.3569848048737675
 40
0.4296101318942711
 40
0.5001888379139126
 40
0.572814346541331
 40
0.643392760509685
 40
0.7160179871391905
 40
0.7865957930459399
 40
0.8592203976564298
 40
0.9297975459888216
 40
1.0
 40
1.0
 40
1.0
 40
1.0
 10
403.6886457331873
 20
420.5692853692731
 30
0.0
 10
403.686098273027
 20
421.1445149533411
 30
0.0
 10
403.6809294757378
 20
422.3116559202881
 30
0.0
 10
403.6718617442152
 20
424.3591932735275
 30
0.0
 10
403.6620298573002
 20
426.5792776587102
 30
0.0
 10
403.6517767410041
 20
428.8944741676882
 30
0.0
 10
403.6412382068785
 20
431.274115649242
 30
0.0
 10
403.6308941666011
 20
433.6098361547317
 30
0.0
 10
403.6208533524784
 20
435.8770838024431
 30
0.0
 10
403.6115803674624
 20
437.9709502852714
 30
0.0
 10
403.6031700508789
 20
439.8700213564153
 30
0.0
 10
403.5960151755999
 20
441.4856087413285
 30
0.0
 10
403.5901769141445
 20
442.8039004465915
 30
0.0
 10
403.5859724333752
 20
443.7532803537914
 30
0.0
 10
403.5833002435941
 20
444.3566656828858
 30
0.0
 10
403.5829965280893
 20
444.4252451812582
 30
0.0
 10
403.5828450745165
 20
444.459443665985
 30
0.0
  0
SPLINE
  5
13F
330
1F
100
AcDbEntity
  8
0
  6
Continuous
 62
     7
370
    25
100
AcDbSpline
210
0.0
220
0.0
230
1.0
 70
     8
 71
     3
 72
    12
 73
     8
 74
     0
 42
0.00000001
 43
0.00000001
 40
0.0
 40
0.0
 40
0.0
 40
0.0
 40
0.0849235401121399
 40
0.3027196363760724
 40
0.5143771967824556
 40
0.7321727924858779
 40
1.0
 40
1.0
 40
1.0
 40
1.0
 10
403.706611598326
 20
416.5124944007755
 30
0.0
 10
403.7066625459925
 20
416.5009901229758
 30
0.0
 10
403.7068441547555
 20
416.4599818137639
 30
0.0
 10
403.7053207623062
 20
416.8039726494566
 30
0.0
 10
403.7020582174499
 20
417.5406738390234
 30
0.0
 10
403.6967783774327
 20
418.7328912823994
 30
0.0
 10
403.6915366262352
 20
419.9165064281656
 30
0.0
 10
403.6886457331873
 20
420.5692853692731
 30
0.0
  0
SPLINE
  5
140
330
1F
100
AcDbEntity
  8
0
  6
Continuous
 62
     7
370
    25
100
AcDbSpline
210
0.0
220
0.0
230
1.0
 70
     8
 71
     3
 72
    21
 73
    17
 74
     0
 42
0.00000001
 43
0.00000001
 40
0.0
 40
0.0
 40
0.0
 40
0.0
 40
0.0705651928806341
 40
0.1431767944625538
 40
0.2137419827430735
 40
0.2863535433131658
 40
0.3569191337992689
 40
0.4295311206120357
 40
0.5000968735549354
 40
0.5727090544383342
 40
0.643274496772936
 40
0.7158863777883522
 40
0.7864511725859398
 40
0.8590623912239613
 40
0.9296264853531943
 40
1.0
 40
1.0
 40
1.0
 40
1.0
 10
403.5428216621175
 20
351.2707843043252
 30
0.0
 10
403.5471213969273
 20
352.2113269422733
 30
0.0
 10
403.5558455599597
 20
354.1196881960226
 30
0.0
 10
403.57115266458
 20
357.468038869638
 30
0.0
 10
403.5877510569738
 20
361.0988602120015
 30
0.0
 10
403.6050619047206
 20
364.8855371595915
 30
0.0
 10
403.6228558778778
 20
368.7779056588239
 30
0.0
 10
403.6403226676788
 20
372.5987136763145
 30
0.0
 10
403.6572786713577
 20
376.3077979582931
 30
0.0
 10
403.6729393214301
 20
379.7335348779756
 30
0.0
 10
403.6871444530295
 20
382.8408866276634
 30
0.0
 10
403.6992307184348
 20
385.484744519139
 30
0.0
 10
403.7090946636829
 20
387.6424756168838
 30
0.0
 10
403.7162009715955
 20
389.1969773812115
 30
0.0
 10
403.7207229708137
 20
390.1861635830078
 30
0.0
 10
403.7212409463617
 20
390.2994706517336
 30
0.0
 10
403.7214995839257
 20
390.356047577721
 30
0.0
  0
SPLINE
  5
141
330
1F
100
AcDbEntity
  8
0
  6
Continuous
 62
     7
370
    25
100
AcDbSpline
210
0.0
220
0.0
230
1.0
 70
     8
 71
     3
 72
    13
 73
     9
 74
     0
 42
0.00000001
 43
0.00000001
 40
0.0
 40
0.0
 40
0.0
 40
0.0
 40
0.0843912409762298
 40
0.3022257269534506
 40
0.5139205642932569
 40
0.7317545148806033
 40
0.8651327721168707
 40
0.9999999999999999
 40
0.9999999999999999
 40
0.9999999999999999
 40
0.9999999999999999
 10
403.5125171700469
 20
344.6418658691616
 30
0.0
 10
403.5124307328295
 20
344.622958308657
 30
0.0
 10
403.5121211799593
 20
344.5552456982925
 30
0.0
 10
403.5146972402925
 20
345.1187415789226
 30
0.0
 10
403.5201532967624
 20
346.3122179534563
 30
0.0
 10
403.5274913140928
 20
347.9173625091246
 30
0.0
 10
403.535253935484
 20
349.6153883222556
 30
0.0
 10
403.5402897689781
 20
350.7169474742047
 30
0.0
 10
403.5428216621175
 20
351.2707843043252
 30
0.0
  0
LINE
  5
142
330
1F
100
AcDbEntity
  8
0
  6
Continuous
 62
     7
370
    25
100
AcDbLine
 10
396.2274602392
 20
325.2306391631
 30
0.0
 11
401.5121872897
 21
325.3690209494
 31
0.0
  0
LINE
  5
143
330
1F
100
AcDbEntity
  8
0
  6
Continuous
 62
     7
370
    25
100
AcDbLine
 10
396.2274602392
 20
325.2306391631
 30
0.0
 11
396.2274602392
 21
326.7196875203
 31
0.0
  0
LINE
  5
144
330
1F
100
AcDbEntity
  8
0
  6
Continuous
 62
     7
370
    25
100
AcDbLine
 10
396.2274602392
 20
473.7014290672
 30
0.0
 11
401.5121872897
 21
473.5630472809
 31
0.0
  0
LINE
  5
145
330
1F
100
AcDbEntity
  8
0
  6
Continuous
 62
     7
370
    25
100
AcDbLine
 10
396.2274602392
 20
473.7014290672
 30
0.0
 11
396.2274602392
 21
472.2123807099
 31
0.0
  0
LINE
  5
146
330
1F
100
AcDbEntity
  8
0
  6
Continuous
 62
     7
370
    25
100
AcDbLine
 10
396.2274602392
 20
473.7014290672
 30
0.0
 11
396.2274602392
 21
473.9660341151
 31
0.0
  0
LINE
  5
147
330
1F
100
AcDbEntity
  8
0
  6
Continuous
 62
     7
370
    25
100
AcDbLine
 10
396.2274602392
 20
325.2306391631
 30
0.0
 11
396.2274602392
 21
324.9660341151
 31
0.0
  0
LINE
  5
148
330
1F
100
AcDbEntity
  8
0
  6
Continuous
 62
     7
370
    25
100
AcDbLine
 10
480.0274602392
 20
394.9660341151
 30
0.0
 11
480.0274602392
 21
339.9660341151
 31
0.0
  0
LINE
  5
149
330
1F
100
AcDbEntity
  8
0
  6
Continuous
 62
     7
370
    25
100
AcDbLine
 10
479.6274602392
 20
395.0660341151
 30
0.0
 11
479.6274602392
 21
339.9385932606
 31
0.0
  0
SPLINE
  5
14A
330
1F
100
AcDbEntity
  8
0
  6
Continuous
 62
     7
370
    25
100
AcDbSpline
210
0.0
220
0.0
230
1.0
 70
     8
 71
     3
 72
    10
 73
     6
 74
     0
 42
0.00000001
 43
0.00000001
 40
0.0
 40
0.0
 40
0.0
 40
0.0
 40
0.5
 40
0.5
 40
1.0
 40
1.0
 40
1.0
 40
1.0
 10
479.6274602392149
 20
339.9385932606011
 30
0.0
 10
479.4952570225443
 20
339.9385932606011
 30
0.0
 10
479.3630271288669
 20
339.9387584738013
 30
0.0
 10
479.0985139223219
 20
339.9394197302435
 30
0.0
 10
478.9618892929198
 20
339.9399321421931
 30
0.0
 10
478.8274602392149
 20
339.9406098757843
 30
0.0
  0
LINE
  5
14B
330
1F
100
AcDbEntity
  8
0
  6
Continuous
 62
     7
370
    25
100
AcDbLine
 10
478.8274602392
 20
339.8680454283
 30
0.0
 11
478.8274602392
 21
339.9406098758
 31
0.0
  0
SPLINE
  5
14C
330
1F
100
AcDbEntity
  8
0
  6
Continuous
 62
     7
370
    25
100
AcDbSpline
210
0.0
220
0.0
230
1.0
 70
     8
 71
     3
 72
    11
 73
     7
 74
     0
 42
0.00000001
 43
0.00000001
 40
0.0
 40
0.0
 40
0.0
 40
0.0
 40
0.2779057330499126
 40
0.5558537712345168
 40
0.8319176153799298
 40
0.9999999999999999
 40
0.9999999999999999
 40
0.9999999999999999
 40
0.9999999999999999
 10
465.2274602392148
 20
393.7896116134725
 30
0.0
 10
465.8625135122626
 20
393.9089016696087
 30
0.0
 10
467.1327167314783
 20
394.147499941211
 30
0.0
 10
468.4957284883146
 20
394.4976704027738
 30
0.0
 10
469.2658016283057
 20
394.7140719531978
 30
0.0
 10
469.2536710776404
 20
394.7109504054165
 30
0.0
 10
469.249080400628
 20
394.7097690890823
 30
0.0
  0
SPLINE
  5
14D
330
1F
100
AcDbEntity
  8
0
  6
Continuous
 62
     7
370
    25
100
AcDbSpline
210
0.0
220
0.0
230
1.0
 70
     8
 71
     3
 72
    14
 73
    10
 74
     0
 42
0.00000001
 43
0.00000001
 40
0.0
 40
0.0
 40
0.0
 40
0.0
 40
0.048992365608894
 40
0.223679185904671
 40
0.399127032373988
 40
0.5763779527133303
 40
0.7521289315427423
 40
0.9244771245439587
 40
1.0
 40
1.0
 40
1.0
 40
1.0
 10
457.1967234571622
 20
393.7324934954486
 30
0.0
 10
457.1763221919668
 20
393.7356491314117
 30
0.0
 10
457.0831783248847
 20
393.7500564798725
 30
0.0
 10
457.6046542049756
 20
393.6676021282073
 30
0.0
 10
458.722383405743
 20
393.5292496883047
 30
0.0
 10
460.4013710260855
 20
393.4173346866883
 30
0.0
 10
462.3723283038652
 20
393.4420291799123
 30
0.0
 10
464.0423159327793
 20
393.6005928829551
 30
0.0
 10
464.9506909689889
 20
393.7454696673649
 30
0.0
 10
465.2274602392148
 20
393.7896116134725
 30
0.0
  0
LINE
  5
14E
330
1F
100
AcDbEntity
  8
0
  6
Continuous
 62
     7
370
    25
100
AcDbLine
 10
430.2274602392
 20
392.4660341151
 30
0.0
 11
430.2274602392
 21
342.4660341151
 31
0.0
  0
LINE
  5
14F
330
1F
100
AcDbEntity
  8
0
  6
Continuous
 62
     7
370
    25
100
AcDbLine
 10
428.2274602392
 20
390.4101695191
 30
0.0
 11
428.2274602392
 21
344.5160341125
 31
0.0
  0
SPLINE
  5
150
330
1F
100
AcDbEntity
  8
0
  6
Continuous
 62
     7
370
    25
100
AcDbSpline
210
0.0
220
0.0
230
1.0
 70
     8
 71
     3
 72
    21
 73
    17
 74
     0
 42
0.00000001
 43
0.00000001
 40
0.0
 40
0.0
 40
0.0
 40
0.0
 40
0.0122710473554312
 40
0.1042248846260862
 40
0.1969396820385667
 40
0.3005146744741781
 40
0.3570831527073439
 40
0.4155422944252162
 40
0.5027145364698945
 40
0.5899613377856744
 40
0.6778753237887127
 40
0.7810792842731453
 40
0.8377951527437483
 40
0.8964225875926108
 40
0.9485759725038927
 40
1.0
 40
1.0
 40
1.0
 40
1.0
 10
424.073495910133
 20
444.4535788532356
 30
0.0
 10
424.0672679166076
 20
444.4572214336579
 30
0.0
 10
424.0143700760368
 20
444.4881599113012
 30
0.0
 10
424.4238782111003
 20
444.2466417937623
 30
0.0
 10
425.5486543144127
 20
443.6269446806986
 30
0.0
 10
427.0701562107126
 20
442.9082707444077
 30
0.0
 10
428.6492246308602
 20
442.3497735268814
 30
0.0
 10
430.2725190738331
 20
441.9371722700662
 30
0.0
 10
432.3304477194051
 20
441.7313575510174
 30
0.0
 10
434.6372740128841
 20
441.9939179347056
 30
0.0
 10
436.8080049749607
 20
442.6439099765322
 30
0.0
 10
438.3810143803793
 20
443.3470926194607
 30
0.0
 10
439.4325998530222
 20
443.8896919955074
 30
0.0
 10
440.0229521003299
 20
444.2172436878639
 30
0.0
 10
440.3881255545559
 20
444.4283363642527
 30
0.0
 10
440.4270109801508
 20
444.4512412964372
 30
0.0
 10
440.4463167838828
 20
444.4626131181024
 30
0.0
  0
LINE
  5
151
330
1F
100
AcDbEntity
  8
0
  6
Continuous
 62
     7
370
    25
100
AcDbLine
 10
420.1521825642
 20
444.4660341151
 30
0.0
 11
420.1521825642
 21
416.4660341151
 31
0.0
  0
LINE
  5
152
330
1F
100
AcDbEntity
  8
0
  6
Continuous
 62
     7
370
    25
100
AcDbLine
 10
419.2274602392
 20
443.9660341151
 30
0.0
 11
419.2274602392
 21
416.9660341151
 31
0.0
  0
SPLINE
  5
153
330
1F
100
AcDbEntity
  8
0
  6
Continuous
 62
     7
370
    25
100
AcDbSpline
210
0.0
220
0.0
230
1.0
 70
     8
 71
     3
 72
     9
 73
     5
 74
     0
 42
0.00000001
 43
0.00000001
 40
0.0
 40
0.0
 40
0.0
 40
0.0
 40
0.9000178655187079
 40
1.0
 40
1.0
 40
1.0
 40
1.0
 10
428.2274602392148
 20
390.6159152946576
 30
0.0
 10
428.8274653625921
 20
390.6159413973477
 30
0.0
 10
429.4941244883324
 20
390.615970399761
 30
0.0
 10
430.1608041805698
 20
390.6159847078702
 30
0.0
 10
430.2274602392149
 20
390.6159861384255
 30
0.0
  0
SPLINE
  5
154
330
1F
100
AcDbEntity
  8
0
  6
Continuous
 62
     7
370
    25
100
AcDbSpline
210
0.0
220
0.0
230
1.0
 70
    24
 71
     3
 72
     8
 73
     4
 74
     0
 42
0.00000001
 43
0.00000001
 40
0.0
 40
0.0
 40
0.0
 40
0.0
 40
1.0
 40
1.0
 40
1.0
 40
1.0
 10
428.2274602392148
 20
390.5129987365165
 30
0.0
 10
428.2274602392148
 20
390.5776721951278
 30
0.0
 10
428.2274602392148
 20
390.6156404436378
 30
0.0
 10
428.2274602392148
 20
390.6159152946576
 30
0.0
  0
SPLINE
  5
155
330
1F
100
AcDbEntity
  8
0
  6
Continuous
 62
     8
370
    18
100
AcDbSpline
210
0.0
220
0.0
230
1.0
 70
     8
 71
     3
 72
     8
 73
     4
 74
     0
 42
0.00000001
 43
0.00000001
 40
0.0
 40
0.0
 40
0.0
 40
0.0
 40
1.0
 40
1.0
 40
1.0
 40
1.0
 10
402.9741619430398
 20
472.0801122545462
 30
0.0
 10
403.4728765409636
 20
423.6707268282736
 30
0.0
 10
403.4728765409643
 20
375.2613414020009
 30
0.0
 10
402.9741619430405
 20
326.8519559757284
 30
0.0
  0
SPLINE
  5
156
330
1F
100
AcDbEntity
  8
0
  6
Continuous
 62
     8
370
    18
100
AcDbSpline
210
0.0
220
0.0
230
1.0
 70
    24
 71
     3
 72
     9
 73
     5
 74
     0
 42
0.00000001
 43
0.00000001
 40
0.0
 40
0.0
 40
0.0
 40
0.0
 40
0.999914207617622
 40
1.0
 40
1.0
 40
1.0
 40
1.0
 10
402.9741619430397
 20
326.8519559757283
 30
0.0
 10
403.2234891725302
 20
326.6827456036546
 30
0.0
 10
403.4728377942328
 20
326.5135207133744
 30
0.0
 10
403.3481619327223
 20
326.5981342109294
 30
0.0
 10
403.3481512364831
 20
326.598141470123
 30
0.0
  0
SPLINE
  5
157
330
1F
100
AcDbEntity
  8
0
  6
Continuous
 62
     8
370
    18
100
AcDbSpline
210
0.0
220
0.0
230
1.0
 70
     8
 71
     3
 72
     9
 73
     5
 74
     0
 42
0.00000001
 43
0.00000001
 40
0.0
 40
0.0
 40
0.0
 40
0.0
 40
0.4999508392748985
 40
1.0
 40
1.0
 40
1.0
 40
1.0
 10
403.3481685630367
 20
472.3339385189191
 30
0.0
 10
403.3325929731031
 20
472.3233672061906
 30
0.0
 10
403.3014387301054
 20
472.3022225017556
 30
0.0
 10
403.0832613559001
 20
472.1541538563906
 30
0.0
 10
402.9741619430396
 20
472.0801122545462
 30
0.0
  0
SPLINE
  5
158
330
1F
100
AcDbEntity
  8
0
  6
Continuous
 62
     8
370
    18
100
AcDbSpline
210
0.0
220
0.0
230
1.0
 70
     8
 71
     3
 72
    26
 73
    22
 74
     0
 42
0.00000001
 43
0.00000001
 40
0.0
 40
0.0
 40
0.0
 40
0.0
 40
0.03125
 40
0.03125
 40
0.0625
 40
0.0625
 40
0.125
 40
0.125
 40
0.25
 40
0.25
 40
0.375
 40
0.375
 40
0.5
 40
0.5
 40
0.625
 40
0.625
 40
0.75
 40
0.75
 40
0.875
 40
0.875
 40
1.0
 40
1.0
 40
1.0
 40
1.0
 10
401.5121872896578
 20
473.5630472808934
 30
0.0
 10
401.5364366647482
 20
473.5624110729523
 30
0.0
 10
401.5606419384272
 20
473.561181786752
 30
0.0
 10
401.6089130332248
 20
473.5575552553366
 30
0.0
 10
401.6329788543433
 20
473.5551580101217
 30
0.0
 10
401.7048902642523
 20
473.54624163221
 30
0.0
 10
401.7524497995959
 20
473.5379978572469
 30
0.0
 10
401.8933691949894
 20
473.5065863333361
 30
0.0
 10
401.9849698444025
 20
473.4767383853668
 30
0.0
 10
402.1601999316645
 20
473.400393265608
 30
0.0
 10
402.2453297906523
 20
473.3531687698605
 30
0.0
 10
402.4035156727477
 20
473.2442604517158
 30
0.0
 10
402.4765681649322
 20
473.1828873594919
 30
0.0
 10
402.6107226517886
 20
473.0464526735284
 30
0.0
 10
402.6720646715605
 20
472.9707262927312
 30
0.0
 10
402.7775187807811
 20
472.8115235683163
 30
0.0
 10
402.8223686197189
 20
472.7274670634504
 30
0.0
 10
402.8960757169446
 20
472.5503090775198
 30
0.0
 10
402.9244552950066
 20
472.4578118926641
 30
0.0
 10
402.9627520368023
 20
472.2713830440046
 30
0.0
 10
402.9730635109011
 20
472.1765717935344
 30
0.0
 10
402.9741619430391
 20
472.0801122545461
 30
0.0
  0
SPLINE
  5
159
330
1F
100
AcDbEntity
  8
0
  6
Continuous
 62
     8
370
    18
100
AcDbSpline
210
0.0
220
0.0
230
1.0
 70
     8
 71
     3
 72
    26
 73
    22
 74
     0
 42
0.00000001
 43
0.00000001
 40
0.0
 40
0.0
 40
0.0
 40
0.0
 40
0.03125
 40
0.03125
 40
0.0625
 40
0.0625
 40
0.125
 40
0.125
 40
0.25
 40
0.25
 40
0.375
 40
0.375
 40
0.5
 40
0.5
 40
0.625
 40
0.625
 40
0.75
 40
0.75
 40
0.875
 40
0.875
 40
1.0
 40
1.0
 40
1.0
 40
1.0
 10
401.5121872896578
 20
325.3690209493813
 30
0.0
 10
401.5364366647481
 20
325.3696571573224
 30
0.0
 10
401.5606419384271
 20
325.3708864435227
 30
0.0
 10
401.6089130332247
 20
325.374512974938
 30
0.0
 10
401.6329788543433
 20
325.376910220153
 30
0.0
 10
401.7048902642522
 20
325.3858265980646
 30
0.0
 10
401.7524497995957
 20
325.3940703730276
 30
0.0
 10
401.8933691949893
 20
325.4254818969383
 30
0.0
 10
401.9849698444024
 20
325.4553298449075
 30
0.0
 10
402.1601999316644
 20
325.5316749646663
 30
0.0
 10
402.2453297906523
 20
325.5788994604138
 30
0.0
 10
402.4035156727476
 20
325.6878077785585
 30
0.0
 10
402.4765681649322
 20
325.7491808707823
 30
0.0
 10
402.6107226517884
 20
325.8856155567457
 30
0.0
 10
402.6720646715605
 20
325.961341937543
 30
0.0
 10
402.777518780781
 20
326.1205446619579
 30
0.0
 10
402.8223686197188
 20
326.2046011668237
 30
0.0
 10
402.8960757169446
 20
326.3817591527543
 30
0.0
 10
402.9244552950055
 20
326.4742563376103
 30
0.0
 10
402.9627520368013
 20
326.6606851862696
 30
0.0
 10
402.9730635109017
 20
326.7554964367396
 30
0.0
 10
402.9741619430397
 20
326.8519559757279
 30
0.0
  0
SPLINE
  5
15A
330
1F
100
AcDbEntity
  8
0
  6
Continuous
 62
     8
370
    18
100
AcDbSpline
210
0.0
220
0.0
230
1.0
 70
     8
 71
     3
 72
    10
 73
     6
 74
     0
 42
0.00000001
 43
0.00000001
 40
0.0
 40
0.0
 40
0.0
 40
0.0
 40
0.499951041325854
 40
0.9999215213102468
 40
0.9999999999999999
 40
0.9999999999999999
 40
0.9999999999999999
 40
0.9999999999999999
 10
401.5121872896577
 20
473.5630472808924
 30
0.0
 10
401.6149518608724
 20
473.6328003217715
 30
0.0
 10
401.8204849989037
 20
473.7723091156063
 30
0.0
 10
401.9187984485249
 20
473.8390445950409
 30
0.0
 10
401.88752020275
 20
473.8178133074048
 30
0.0
 10
401.8875152938791
 20
473.8178099753239
 30
0.0
  0
SPLINE
  5
15B
330
1F
100
AcDbEntity
  8
0
  6
Continuous
 62
     8
370
    18
100
AcDbSpline
210
0.0
220
0.0
230
1.0
 70
     8
 71
     3
 72
     9
 73
     5
 74
     0
 42
0.00000001
 43
0.00000001
 40
0.0
 40
0.0
 40
0.0
 40
0.0
 40
0.4999510989239291
 40
1.0
 40
1.0
 40
1.0
 40
1.0
 10
401.8875153172815
 20
325.1142582390675
 30
0.0
 10
401.8718847190723
 20
325.1248685402593
 30
0.0
 10
401.8406204649428
 20
325.1460912182664
 30
0.0
 10
401.6216721526249
 20
325.2947061940559
 30
0.0
 10
401.5121872896577
 20
325.3690209493828
 30
0.0
  0
LINE
  5
15C
330
1F
100
AcDbEntity
  8
0
  6
Continuous
 62
     8
370
    18
100
AcDbLine
 10
480.1274602392
 20
395.0660341151
 30
0.0
 11
480.1274602392
 21
339.8660341151
 31
0.0
  0
LINE
  5
15D
330
1F
100
AcDbEntity
  8
0
  6
Continuous
 62
     8
370
    18
100
AcDbLine
 10
480.4165232472
 20
395.0660341151
 30
0.0
 11
480.4165232472
 21
339.8660341151
 31
0.0
  0
LINE
  5
15E
330
1F
100
AcDbEntity
  8
0
  6
Continuous
 62
     8
370
    18
100
AcDbLine
 10
482.3639355008
 20
393.2164607791
 30
0.0
 11
482.3639355008
 21
341.7156074511
 31
0.0
  0
LINE
  5
15F
330
1F
100
AcDbEntity
  8
0
  6
Continuous
 62
     8
370
    18
100
AcDbLine
 10
430.2274602392
 20
390.375224565
 30
0.0
 11
428.2274602392
 21
390.4101695191
 31
0.0
  0
LINE
  5
160
330
1F
100
AcDbEntity
  8
0
  6
Continuous
 62
     8
370
    18
100
AcDbLine
 10
427.2274602392
 20
344.5660341151
 30
0.0
 11
427.2274602392
 21
390.3660341151
 31
0.0
  0
LINE
  5
161
330
1F
100
AcDbEntity
  8
0
  6
Continuous
 62
     8
370
    18
100
AcDbLine
 10
418.7274602392
 20
416.4660341151
 30
0.0
 11
418.7274602392
 21
444.4660341151
 31
0.0
  0
LINE
  5
162
330
1F
100
AcDbEntity
  8
0
  6
Continuous
 62
     8
370
    18
100
AcDbLine
 10
441.0640132898
 20
444.4660341151
 30
0.0
 11
441.0640132898
 21
416.4660341151
 31
0.0
  0
LINE
  5
163
330
1F
100
AcDbEntity
  8
0
  6
Continuous
 62
     8
370
    18
100
AcDbLine
 10
442.0346027476
 20
443.7067748559
 30
0.0
 11
442.0346027476
 21
417.2252933744
 31
0.0
  0
LINE
  5
164
330
1F
100
AcDbEntity
  8
0
  6
Continuous
 62
     8
370
    18
100
AcDbLine
 10
424.2521825642
 20
445.5660341151
 30
0.0
 11
440.2521825642
 21
445.5660341151
 31
0.0
  0
LINE
  5
165
330
1F
100
AcDbEntity
  8
0
  6
Continuous
 62
     8
370
    18
100
AcDbLine
 10
425.2045480116
 20
466.0143542635
 30
0.0
 11
439.2998171169
 21
466.0143542635
 31
0.0
  0
LINE
  5
166
330
1F
100
AcDbEntity
  8
0
  6
Continuous
 62
     8
370
    18
100
AcDbLine
 10
426.624557667
 20
467.7451187862
 30
0.0
 11
437.8798074615
 21
467.7451187862
 31
0.0
  0
LINE
  5
167
330
1F
100
AcDbEntity
  8
0
  6
Continuous
 62
     8
370
    18
100
AcDbLine
 10
463.2274602392
 20
402.7103486719
 30
0.0
 11
457.649570792
 21
402.7103486719
 31
0.0
  0
LINE
  5
168
330
1F
100
AcDbEntity
  8
0
  6
Continuous
 62
     8
370
    18
100
AcDbLine
 10
468.8053496865
 20
402.7103486719
 30
0.0
 11
463.2274602392
 21
402.7103486719
 31
0.0
  0
LINE
  5
169
330
1F
100
AcDbEntity
  8
0
  6
Continuous
 62
     8
370
    18
100
AcDbLine
 10
463.2274602392
 20
402.2111270991
 30
0.0
 11
457.1774602392
 21
402.2111270991
 31
0.0
  0
LINE
  5
16A
330
1F
100
AcDbEntity
  8
0
  6
Continuous
 62
     8
370
    18
100
AcDbLine
 10
469.2774602392
 20
402.2111270991
 30
0.0
 11
463.2274602392
 21
402.2111270991
 31
0.0
  0
LINE
  5
16B
330
1F
100
AcDbEntity
  8
0
  6
Continuous
 62
     8
370
    18
100
AcDbLine
 10
430.2274602392
 20
390.4955593607
 30
0.0
 11
428.2274602392
 21
390.5129987365
 31
0.0
  0
ENDSEC
  0
SECTION
  2
OBJECTS
  0
DICTIONARY
  5
C
330
0
100
AcDbDictionary
281
     1
  3
ACAD_GROUP
350
D
  3
ACAD_LAYOUT
350
1A
  3
ACAD_MLINESTYLE
350
17
  3
ACAD_PLOTSETTINGS
350
19
  3
ACAD_PLOTSTYLENAME
350
E
  3
ACAD_SCALELIST
350
47
  3
DWGPROPS
350
16C
  0
DICTIONARY
  5
D
102
{ACAD_REACTORS
330
C
102
}
330
C
100
AcDbDictionary
281
     1
  0
DICTIONARY
  5
1A
102
{ACAD_REACTORS
330
C
102
}
330
C
100
AcDbDictionary
281
     1
  3
Layout1
350
1E
  3
Layout2
350
26
  3
Model
350
22
  0
DICTIONARY
  5
17
102
{ACAD_REACTORS
330
C
102
}
330
C
100
AcDbDictionary
281
     1
  3
Standard
350
18
  0
DICTIONARY
  5
19
102
{ACAD_REACTORS
330
C
102
}
330
C
100
AcDbDictionary
281
     1
  0
ACDBDICTIONARYWDFLT
  5
E
102
{ACAD_REACTORS
330
C
102
}
330
C
100
AcDbDictionary
281
     1
  3
Normal
350
F
100
AcDbDictionaryWithDefault
340
F
  0
DICTIONARY
  5
47
102
{ACAD_REACTORS
330
C
102
}
330
C
100
AcDbDictionary
281
     1
  3
A0
350
48
  3
A1
350
49
  3
A2
350
4A
  3
A3
350
4B
  3
A4
350
4C
  3
A5
350
4D
  3
A6
350
4E
  3
A7
350
4F
  3
A8
350
50
  3
A9
350
51
  3
B0
350
52
  3
B1
350
53
  3
B2
350
54
  3
B3
350
55
  3
B4
350
56
  3
B5
350
57
  3
B6
350
58
  0
XRECORD
  5
16C
102
{ACAD_REACTORS
330
C
102
}
330
C
100
AcDbXrecord
280
     1
  1
DWGPROPS COOKIE
  2

  3

  4

  6

  7

  8
fue-task
  9

300
=
301
=
302
=
303
=
304
=
305
=
306
=
307
=
308
=
309
=
 40
0.0
 41
2460075.246397153
 42
2460075.246398055
  1

 90
        0
  0
LAYOUT
  5
1E
102
{ACAD_REACTORS
330
1A
102
}
330
1A
100
AcDbPlotSettings
  1

  2
none_device
  4

  6

 40
0.0
 41
0.0
 42
0.0
 43
0.0
 44
0.0
 45
0.0
 46
0.0
 47
0.0
 48
0.0
 49
0.0
140
0.0
141
0.0
142
1.0
143
1.0
 70
   688
 72
     1
 73
     0
 74
     5
  7

 75
    16
147
1.0
148
0.0
149
0.0
100
AcDbLayout
  1
Layout1
 70
     1
 71
     1
 10
0.0
 20
0.0
 11
420.0
 21
297.0
 12
0.0
 22
0.0
 32
0.0
 14
1.0000000000E+20
 24
1.0000000000E+20
 34
1.0000000000E+20
 15
-1.0000000000E+20
 25
-1.0000000000E+20
 35
-1.0000000000E+20
146
0.0
 13
0.0
 23
0.0
 33
0.0
 16
1.0
 26
0.0
 36
0.0
 17
0.0
 27
1.0
 37
0.0
 76
     0
330
1B
  0
LAYOUT
  5
26
102
{ACAD_REACTORS
330
1A
102
}
330
1A
100
AcDbPlotSettings
  1

  2
none_device
  4

  6

 40
0.0
 41
0.0
 42
0.0
 43
0.0
 44
0.0
 45
0.0
 46
0.0
 47
0.0
 48
0.0
 49
0.0
140
0.0
141
0.0
142
1.0
143
1.0
 70
   688
 72
     1
 73
     0
 74
     5
  7

 75
    16
147
1.0
148
0.0
149
0.0
100
AcDbLayout
  1
Layout2
 70
     1
 71
     2
 10
0.0
 20
0.0
 11
0.0
 21
0.0
 12
0.0
 22
0.0
 32
0.0
 14
0.0
 24
0.0
 34
0.0
 15
0.0
 25
0.0
 35
0.0
146
0.0
 13
0.0
 23
0.0
 33
0.0
 16
1.0
 26
0.0
 36
0.0
 17
0.0
 27
1.0
 37
0.0
 76
     0
330
23
  0
LAYOUT
  5
22
102
{ACAD_REACTORS
330
1A
102
}
330
1A
100
AcDbPlotSettings
  1

  2
none_device
  4
Letter_(8.50_x_11.00_Inches)
  6

 40
6.35
 41
6.35
 42
6.35000508
 43
6.35000508
 44
215.9
 45
279.4
 46
0.0
 47
0.0
 48
0.0
 49
0.0
140
0.0
141
0.0
142
1.0
143
1.0
 70
  1712
 72
     1
 73
     0
 74
     0
  7

 75
     0
147
1.0
148
0.0
149
0.0
100
AcDbLayout
  1
Model
 70
     1
 71
     0
 10
0.0
 20
0.0
 11
594.0
 21
841.0
 12
0.0
 22
0.0
 32
0.0
 14
0.0
 24
0.0
 34
0.0
 15
594.0
 25
841.0
 35
0.0
146
0.0
 13
0.0
 23
0.0
 33
0.0
 16
1.0
 26
0.0
 36
0.0
 17
0.0
 27
1.0
 37
0.0
 76
     0
330
1F
331
29
  0
MLINESTYLE
  5
18
102
{ACAD_REACTORS
330
17
102
}
330
17
100
AcDbMlineStyle
  2
Standard
 70
     0
  3

 62
   256
 51
90.0
 52
90.0
 71
     2
 49
0.5
 62
   256
  6
BYLAYER
 49
-0.5
 62
   256
  6
BYLAYER
  0
ACDBPLACEHOLDER
  5
F
102
{ACAD_REACTORS
330
E
102
}
330
E
  0
SCALE
  5
48
102
{ACAD_REACTORS
330
47
102
}
330
47
100
AcDbScale
 70
     0
300
1:1
140
1.0
141
1.0
290
     1
  0
SCALE
  5
49
102
{ACAD_REACTORS
330
47
102
}
330
47
100
AcDbScale
 70
     0
300
1:2
140
1.0
141
2.0
290
     0
  0
SCALE
  5
4A
102
{ACAD_REACTORS
330
47
102
}
330
47
100
AcDbScale
 70
     0
300
1:4
140
1.0
141
4.0
290
     0
  0
SCALE
  5
4B
102
{ACAD_REACTORS
330
47
102
}
330
47
100
AcDbScale
 70
     0
300
1:5
140
1.0
141
5.0
290
     0
  0
SCALE
  5
4C
102
{ACAD_REACTORS
330
47
102
}
330
47
100
AcDbScale
 70
     0
300
1:8
140
1.0
141
8.0
290
     0
  0
SCALE
  5
4D
102
{ACAD_REACTORS
330
47
102
}
330
47
100
AcDbScale
 70
     0
300
1:10
140
1.0
141
10.0
290
     0
  0
SCALE
  5
4E
102
{ACAD_REACTORS
330
47
102
}
330
47
100
AcDbScale
 70
     0
300
1:16
140
1.0
141
16.0
290
     0
  0
SCALE
  5
4F
102
{ACAD_REACTORS
330
47
102
}
330
47
100
AcDbScale
 70
     0
300
1:20
140
1.0
141
20.0
290
     0
  0
SCALE
  5
50
102
{ACAD_REACTORS
330
47
102
}
330
47
100
AcDbScale
 70
     0
300
1:30
140
1.0
141
30.0
290
     0
  0
SCALE
  5
51
102
{ACAD_REACTORS
330
47
102
}
330
47
100
AcDbScale
 70
     0
300
1:40
140
1.0
141
40.0
290
     0
  0
SCALE
  5
52
102
{ACAD_REACTORS
330
47
102
}
330
47
100
AcDbScale
 70
     0
300
1:50
140
1.0
141
50.0
290
     0
  0
SCALE
  5
53
102
{ACAD_REACTORS
330
47
102
}
330
47
100
AcDbScale
 70
     0
300
1:100
140
1.0
141
100.0
290
     0
  0
SCALE
  5
54
102
{ACAD_REACTORS
330
47
102
}
330
47
100
AcDbScale
 70
     0
300
2:1
140
2.0
141
1.0
290
     0
  0
SCALE
  5
55
102
{ACAD_REACTORS
330
47
102
}
330
47
100
AcDbScale
 70
     0
300
4:1
140
4.0
141
1.0
290
     0
  0
SCALE
  5
56
102
{ACAD_REACTORS
330
47
102
}
330
47
100
AcDbScale
 70
     0
300
8:1
140
8.0
141
1.0
290
     0
  0
SCALE
  5
57
102
{ACAD_REACTORS
330
47
102
}
330
47
100
AcDbScale
 70
     0
300
10:1
140
10.0
141
1.0
290
     0
  0
SCALE
  5
58
102
{ACAD_REACTORS
330
47
102
}
330
47
100
AcDbScale
 70
     0
300
100:1
140
100.0
141
1.0
290
     0
  0
ENDSEC
  0
EOF
