  0
SECTION
  2
HEADER
  9
$ACADVER
  1
AC1024
  9
$ACADMAINTVER
 70
     6
  9
$DWGCODEPAGE
  3
ANSI_1252
  9
$INSBASE
 10
0.0
 20
0.0
 30
0.0
  9
$EXTMIN
 10
0.0
 20
0.0
 30
0.0
  9
$EXTMAX
 10
594.0
 20
841.0
 30
0.0
  9
$LIMMIN
 10
0.0
 20
0.0
  9
$LIMMAX
 10
594.0
 20
841.0
  9
$ORTHOMODE
 70
     0
  9
$REGENMODE
 70
     1
  9
$FILLMODE
 70
     1
  9
$QTEXTMODE
 70
     0
  9
$MIRRTEXT
 70
     1
  9
$LTSCALE
 40
1.0
  9
$ATTMODE
 70
     1
  9
$TEXTSIZE
 40
10.0
  9
$TRACEWID
 40
1.0
  9
$TEXTSTYLE
  7
Standard
  9
$CLAYER
  8
0
  9
$CELTYPE
  6
ByLayer
  9
$CECOLOR
 62
   256
  9
$CELTSCALE
 40
1.0
  9
$DISPSILH
 70
     0
  9
$DIMSCALE
 40
1.0
  9
$DIMASZ
 40
2.5
  9
$DIMEXO
 40
0.0
  9
$DIMDLI
 40
3.75
  9
$DIMRND
 40
0.0
  9
$DIMDLE
 40
0.0
  9
$DIMEXE
 40
1.0
  9
$DIMTP
 40
0.0
  9
$DIMTM
 40
0.0
  9
$DIMTXT
 40
3.5
  9
$DIMCEN
 40
2.5
  9
$DIMTSZ
 40
0.0
  9
$DIMTOL
 70
     0
  9
$DIMLIM
 70
     0
  9
$DIMTIH
 70
     1
  9
$DIMTOH
 70
     1
  9
$DIMSE1
 70
     0
  9
$DIMSE2
 70
     0
  9
$DIMTAD
 70
     1
  9
$DIMZIN
 70
     0
  9
$DIMBLK
  1

  9
$DIMASO
 70
     1
  9
$DIMSHO
 70
     1
  9
$DIMPOST
  1

  9
$DIMAPOST
  1

  9
$DIMALT
 70
     0
  9
$DIMALTD
 70
     3
  9
$DIMALTF
 40
0.0393700787
  9
$DIMLFAC
 40
1.0
  9
$DIMTOFL
 70
     1
  9
$DIMTVP
 40
0.0
  9
$DIMTIX
 70
     0
  9
$DIMSOXD
 70
     0
  9
$DIMSAH
 70
     0
  9
$DIMBLK1
  1

  9
$DIMBLK2
  1

  9
$DIMSTYLE
  2
ISO-25
  9
$DIMCLRD
 70
     0
  9
$DIMCLRE
 70
     0
  9
$DIMCLRT
 70
     0
  9
$DIMTFAC
 40
1.0
  9
$DIMGAP
 40
1.5
  9
$DIMJUST
 70
     0
  9
$DIMSD1
 70
     0
  9
$DIMSD2
 70
     0
  9
$DIMTOLJ
 70
     0
  9
$DIMTZIN
 70
     0
  9
$DIMALTZ
 70
     0
  9
$DIMALTTZ
 70
     0
  9
$DIMUPT
 70
     0
  9
$DIMDEC
 70
     2
  9
$DIMTDEC
 70
     2
  9
$DIMALTU
 70
     2
  9
$DIMALTTD
 70
     3
  9
$DIMTXSTY
  7
Standard
  9
$DIMAUNIT
 70
     0
  9
$DIMADEC
 70
     2
  9
$DIMALTRND
 40
0.0
  9
$DIMAZIN
 70
     0
  9
$DIMDSEP
 70
    44
  9
$DIMATFIT
 70
     3
  9
$DIMFRAC
 70
     0
  9
$DIMLDRBLK
  1

  9
$DIMLUNIT
 70
     2
  9
$DIMLWD
 70
    -2
  9
$DIMLWE
 70
    -2
  9
$DIMTMOVE
 70
     0
  9
$DIMFXL
 40
1.0
  9
$DIMFXLON
 70
     0
  9
$DIMJOGANG
 40
0.7853981634
  9
$DIMTFILL
 70
     0
  9
$DIMTFILLCLR
 70
     0
  9
$DIMARCSYM
 70
     0
  9
$DIMLTYPE
  6

  9
$DIMLTEX1
  6

  9
$DIMLTEX2
  6

  9
$DIMTXTDIRECTION
 70
     0
  9
$LUNITS
 70
     2
  9
$LUPREC
 70
     2
  9
$SKETCHINC
 40
1.0
  9
$FILLETRAD
 40
10.0
  9
$AUNITS
 70
     0
  9
$AUPREC
 70
     2
  9
$MENU
  1
.
  9
$ELEVATION
 40
0.0
  9
$PELEVATION
 40
0.0
  9
$THICKNESS
 40
0.0
  9
$LIMCHECK
 70
     0
  9
$CHAMFERA
 40
10.0
  9
$CHAMFERB
 40
10.0
  9
$CHAMFERC
 40
20.0
  9
$CHAMFERD
 40
0.0
  9
$SKPOLY
 70
     0
  9
$TDCREATE
 40
2456174.603424815
  9
$TDUCREATE
 40
2456174.520091482
  9
$TDUPDATE
 40
2456174.603424826
  9
$TDUUPDATE
 40
2456174.520091493
  9
$TDINDWG
 40
0.0000000116
  9
$TDUSRTIMER
 40
0.0000000116
  9
$USRTIMER
 70
     1
  9
$ANGBASE
 50
0.0
  9
$ANGDIR
 70
     0
  9
$PDMODE
 70
     0
  9
$PDSIZE
 40
-1.0
  9
$PLINEWID
 40
0.0
  9
$SPLFRAME
 70
     0
  9
$SPLINETYPE
 70
     6
  9
$SPLINESEGS
 70
     8
  9
$HANDSEED
  5
182
  9
$SURFTAB1
 70
     6
  9
$SURFTAB2
 70
     6
  9
$SURFTYPE
 70
     6
  9
$SURFU
 70
     6
  9
$SURFV
 70
     6
  9
$UCSBASE
  2

  9
$UCSNAME
  2

  9
$UCSORG
 10
0.0
 20
0.0
 30
0.0
  9
$UCSXDIR
 10
1.0
 20
0.0
 30
0.0
  9
$UCSYDIR
 10
0.0
 20
1.0
 30
0.0
  9
$UCSORTHOREF
  2

  9
$UCSORTHOVIEW
 70
     0
  9
$UCSORGTOP
 10
0.0
 20
0.0
 30
0.0
  9
$UCSORGBOTTOM
 10
0.0
 20
0.0
 30
0.0
  9
$UCSORGLEFT
 10
0.0
 20
0.0
 30
0.0
  9
$UCSORGRIGHT
 10
0.0
 20
0.0
 30
0.0
  9
$UCSORGFRONT
 10
0.0
 20
0.0
 30
0.0
  9
$UCSORGBACK
 10
0.0
 20
0.0
 30
0.0
  9
$PUCSBASE
  2

  9
$PUCSNAME
  2

  9
$PUCSORG
 10
0.0
 20
0.0
 30
0.0
  9
$PUCSXDIR
 10
1.0
 20
0.0
 30
0.0
  9
$PUCSYDIR
 10
0.0
 20
1.0
 30
0.0
  9
$PUCSORTHOREF
  2

  9
$PUCSORTHOVIEW
 70
     0
  9
$PUCSORGTOP
 10
0.0
 20
0.0
 30
0.0
  9
$PUCSORGBOTTOM
 10
0.0
 20
0.0
 30
0.0
  9
$PUCSORGLEFT
 10
0.0
 20
0.0
 30
0.0
  9
$PUCSORGRIGHT
 10
0.0
 20
0.0
 30
0.0
  9
$PUCSORGFRONT
 10
0.0
 20
0.0
 30
0.0
  9
$PUCSORGBACK
 10
0.0
 20
0.0
 30
0.0
  9
$USERI1
 70
     0
  9
$USERI2
 70
     0
  9
$USERI3
 70
     0
  9
$USERI4
 70
     0
  9
$USERI5
 70
     0
  9
$USERR1
 40
0.0
  9
$USERR2
 40
0.0
  9
$USERR3
 40
0.0
  9
$USERR4
 40
0.0
  9
$USERR5
 40
0.0
  9
$WORLDVIEW
 70
     1
  9
$SHADEDGE
 70
     3
  9
$SHADEDIF
 70
    70
  9
$TILEMODE
 70
     1
  9
$MAXACTVP
 70
    64
  9
$PINSBASE
 10
0.0
 20
0.0
 30
0.0
  9
$PLIMCHECK
 70
     0
  9
$PEXTMIN
 10
1.0000000000E+20
 20
1.0000000000E+20
 30
1.0000000000E+20
  9
$PEXTMAX
 10
-1.0000000000E+20
 20
-1.0000000000E+20
 30
-1.0000000000E+20
  9
$PLIMMIN
 10
0.0
 20
0.0
  9
$PLIMMAX
 10
420.0
 20
297.0
  9
$UNITMODE
 70
     0
  9
$VISRETAIN
 70
     1
  9
$PLINEGEN
 70
     0
  9
$PSLTSCALE
 70
     1
  9
$TREEDEPTH
 70
  3020
  9
$CMLSTYLE
  2
Standard
  9
$CMLJUST
 70
     0
  9
$CMLSCALE
 40
20.0
  9
$PROXYGRAPHICS
 70
     1
  9
$MEASUREMENT
 70
     1
  9
$CELWEIGHT
370
    -1
  9
$ENDCAPS
280
     0
  9
$JOINSTYLE
280
     0
  9
$LWDISPLAY
290
     1
  9
$INSUNITS
 70
     4
  9
$HYPERLINKBASE
  1

  9
$STYLESHEET
  1

  9
$XEDIT
290
     1
  9
$CEPSNTYPE
380
     0
  9
$PSTYLEMODE
290
     1
  9
$FINGERPRINTGUID
  2
{176A98CD-7570-4F62-A9B7-0FCDBEAFEFFF}
  9
$VERSIONGUID
  2
{FAEB1C32-E019-11D5-929B-00C0DF256EC4}
  9
$EXTNAMES
290
     1
  9
$PSVPSCALE
 40
0.0
  9
$OLESTARTUP
290
     0
  9
$SORTENTS
280
   127
  9
$INDEXCTL
280
     0
  9
$HIDETEXT
280
     1
  9
$XCLIPFRAME
280
     2
  9
$HALOGAP
280
     0
  9
$OBSCOLOR
 70
   257
  9
$OBSLTYPE
280
     0
  9
$INTERSECTIONDISPLAY
280
     0
  9
$INTERSECTIONCOLOR
 70
   257
  9
$DIMASSOC
280
     2
  9
$PROJECTNAME
  1

  9
$CAMERADISPLAY
290
     0
  9
$LENSLENGTH
 40
50.0
  9
$CAMERAHEIGHT
 40
0.0
  9
$STEPSPERSEC
 40
2.0
  9
$STEPSIZE
 40
6.0
  9
$3DDWFPREC
 40
2.0
  9
$PSOLWIDTH
 40
5.0
  9
$PSOLHEIGHT
 40
80.0
  9
$LOFTANG1
 40
1.5707963268
  9
$LOFTANG2
 40
1.5707963268
  9
$LOFTMAG1
 40
0.0
  9
$LOFTMAG2
 40
0.0
  9
$LOFTPARAM
 70
     7
  9
$LOFTNORMALS
280
     1
  9
$LATITUDE
 40
37.795
  9
$LONGITUDE
 40
-122.394
  9
$NORTHDIRECTION
 40
0.0
  9
$TIMEZONE
 70
 -8000
  9
$LIGHTGLYPHDISPLAY
280
     1
  9
$TILEMODELIGHTSYNCH
280
     1
  9
$SOLIDHIST
280
     1
  9
$SHOWHIST
280
     1
  9
$DWFFRAME
280
     2
  9
$DGNFRAME
280
     2
  9
$REALWORLDSCALE
290
     1
  9
$INTERFERECOLOR
 62
   256
  9
$CSHADOW
280
     0
  9
$SHADOWPLANELOCATION
 40
0.0
  0
ENDSEC
  0
SECTION
  2
CLASSES
  0
CLASS
  1
ACDBDICTIONARYWDFLT
  2
AcDbDictionaryWithDefault
  3
ObjectDBX Classes
 90
        0
 91
        4
280
     0
281
     0
  0
CLASS
  1
VISUALSTYLE
  2
AcDbVisualStyle
  3
ObjectDBX Classes
 90
     4095
 91
        4
280
     0
281
     0
  0
CLASS
  1
MATERIAL
  2
AcDbMaterial
  3
ObjectDBX Classes
 90
     1153
 91
        4
280
     0
281
     0
  0
ENDSEC
  0
SECTION
  2
TABLES
  0
TABLE
  2
VPORT
  5
8
330
0
100
AcDbSymbolTable
 70
     1
  0
VPORT
  5
29
330
8
100
AcDbSymbolTableRecord
100
AcDbViewportTableRecord
  2
*Active
 70
     0
 10
0.0
 20
0.0
 11
1.0
 21
1.0
 12
297.0
 22
420.5
 13
0.0
 23
0.0
 14
10.0
 24
10.0
 15
10.0
 25
10.0
 16
0.0
 26
0.0
 36
1.0
 17
0.0
 27
0.0
 37
0.0
 40
841.0
 41
0.7063020214
 42
50.0
 43
0.0
 44
0.0
 50
0.0
 51
0.0
 71
     0
 72
  2000
 73
     1
 74
     3
 75
     0
 76
     0
 77
     0
 78
     0
281
     0
 65
     1
110
0.0
120
0.0
130
0.0
111
1.0
121
0.0
131
0.0
112
0.0
122
1.0
132
0.0
 79
     0
146
0.0
 60
     3
 61
     5
292
     1
282
     1
141
0.0
142
0.0
 63
   250
  0
ENDTAB
  0
TABLE
  2
LTYPE
  5
5
330
0
100
AcDbSymbolTable
 70
     6
  0
LTYPE
  5
14
330
5
100
AcDbSymbolTableRecord
100
AcDbLinetypeTableRecord
  2
ByBlock
 70
     0
  3

 72
    65
 73
     0
 40
0.0
  0
LTYPE
  5
15
330
5
100
AcDbSymbolTableRecord
100
AcDbLinetypeTableRecord
  2
ByLayer
 70
     0
  3

 72
    65
 73
     0
 40
0.0
  0
LTYPE
  5
16
330
5
100
AcDbSymbolTableRecord
100
AcDbLinetypeTableRecord
  2
Continuous
 70
     0
  3
Solid line
 72
    65
 73
     0
 40
0.0
  0
LTYPE
  5
3F
330
5
100
AcDbSymbolTableRecord
100
AcDbLinetypeTableRecord
  2
HIDDEN
 70
     0
  3
Hidden __ __ __ __ __ __ __ __ __ __ __ __ __ __
 72
    65
 73
     2
 40
1.905
 49
1.27
 74
     0
 49
-0.635
 74
     0
  0
LTYPE
  5
40
330
5
100
AcDbSymbolTableRecord
100
AcDbLinetypeTableRecord
  2
PHANTOM
 70
     0
  3
Phantom ______  __  __  ______  __  __  ______
 72
    65
 73
     6
 40
12.7
 49
6.35
 74
     0
 49
-1.27
 74
     0
 49
1.27
 74
     0
 49
-1.27
 74
     0
 49
1.27
 74
     0
 49
-1.27
 74
     0
  0
LTYPE
  5
41
330
5
100
AcDbSymbolTableRecord
100
AcDbLinetypeTableRecord
  2
CENTER
 70
     0
  3
Center ____ _ ____ _ ____ _ ____ _ ____ _ ____
 72
    65
 73
     4
 40
10.16
 49
6.35
 74
     0
 49
-1.27
 74
     0
 49
1.27
 74
     0
 49
-1.27
 74
     0
  0
LTYPE
  5
42
330
5
100
AcDbSymbolTableRecord
100
AcDbLinetypeTableRecord
  2
CENTERX2
 70
     0
  3
Center (2x) ________  __  ________  __  _____
 72
    65
 73
     4
 40
20.32
 49
12.7
 74
     0
 49
-2.54
 74
     0
 49
2.54
 74
     0
 49
-2.54
 74
     0
  0
LTYPE
  5
43
330
5
100
AcDbSymbolTableRecord
100
AcDbLinetypeTableRecord
  2
DOT2
 70
     0
  3
Dot (.5x) ........................................
 72
    65
 73
     2
 40
0.635
 49
0.0
 74
     0
 49
-0.635
 74
     0
  0
ENDTAB
  0
TABLE
  2
LAYER
  5
2
330
0
100
AcDbSymbolTable
 70
     1
  0
LAYER
  5
10
330
2
100
AcDbSymbolTableRecord
100
AcDbLayerTableRecord
  2
0
 70
     0
 62
     7
  6
Continuous
370
    -3
390
F
347
3E
  0
ENDTAB
  0
TABLE
  2
STYLE
  5
3
330
0
100
AcDbSymbolTable
 70
     3
  0
STYLE
  5
11
330
3
100
AcDbSymbolTableRecord
100
AcDbTextStyleTableRecord
  2
Standard
 70
     0
 40
0.0
 41
1.0
 50
0.0
 71
     0
 42
2.5
  3
txt
  4

  0
STYLE
  5
47
330
3
100
AcDbSymbolTableRecord
100
AcDbTextStyleTableRecord
  2
SLDTEXTSTYLE0
 70
     0
 40
0.0
 41
0.96
 50
0.0
 71
     0
 42
0.2
  3
ISOCP3
  4

  0
STYLE
  5
5E
330
3
100
AcDbSymbolTableRecord
100
AcDbTextStyleTableRecord
  2
SLDTEXTSTYLE1
 70
     0
 40
0.0
 41
0.605
 50
0.0
 71
     0
 42
0.2
  3
TXT
  4

  0
ENDTAB
  0
TABLE
  2
VIEW
  5
6
330
0
100
AcDbSymbolTable
 70
     0
  0
ENDTAB
  0
TABLE
  2
UCS
  5
7
330
0
100
AcDbSymbolTable
 70
     0
  0
ENDTAB
  0
TABLE
  2
APPID
  5
9
330
0
100
AcDbSymbolTable
 70
     1
  0
APPID
  5
12
330
9
100
AcDbSymbolTableRecord
100
AcDbRegAppTableRecord
  2
ACAD
 70
     0
  0
ENDTAB
  0
TABLE
  2
DIMSTYLE
  5
A
330
0
100
AcDbSymbolTable
 70
     2
100
AcDbDimStyleTable
  0
DIMSTYLE
105
27
330
A
100
AcDbSymbolTableRecord
100
AcDbDimStyleTableRecord
  2
ISO-25
 70
     0
 41
2.5
 42
0.625
 43
3.75
 44
1.25
 73
     0
 74
     0
 77
     1
 78
     8
140
2.5
141
2.5
143
0.0393700787
147
0.625
171
     3
172
     1
178
     0
271
     2
272
     2
274
     3
278
    44
283
     0
284
     8
340
11
  0
DIMSTYLE
105
48
102
{ACAD_REACTORS
330
46
330
53
102
}
330
A
100
AcDbSymbolTableRecord
100
AcDbDimStyleTableRecord
  2
SLDDIMSTYLE0
 70
     0
 41
2.5
 44
0.0
 45
0.000000001
 73
     0
 74
     0
 77
     1
 78
    12
 79
     3
140
6.0
147
1.5
173
     1
178
     0
271
     2
272
     2
276
     2
284
    12
340
47
  0
ENDTAB
  0
TABLE
  2
BLOCK_RECORD
  5
1
330
0
100
AcDbSymbolTable
 70
     3
  0
BLOCK_RECORD
  5
1F
330
1
100
AcDbSymbolTableRecord
100
AcDbBlockTableRecord
  2
*Model_Space
340
22
 70
     0
280
     1
281
     0
  0
BLOCK_RECORD
  5
1B
330
1
100
AcDbSymbolTableRecord
100
AcDbBlockTableRecord
  2
*Paper_Space
340
1E
 70
     0
280
     1
281
     0
  0
BLOCK_RECORD
  5
23
330
1
100
AcDbSymbolTableRecord
100
AcDbBlockTableRecord
  2
*Paper_Space0
340
26
 70
     0
280
     1
281
     0
  0
BLOCK_RECORD
  5
49
330
1
100
AcDbSymbolTableRecord
100
AcDbBlockTableRecord
  2
*D1
340
0
 70
     0
280
     1
281
     0
  0
BLOCK_RECORD
  5
54
330
1
100
AcDbSymbolTableRecord
100
AcDbBlockTableRecord
  2
*D2
340
0
 70
     0
280
     1
281
     0
  0
ENDTAB
  0
ENDSEC
  0
SECTION
  2
BLOCKS
  0
BLOCK
  5
20
330
1F
100
AcDbEntity
  8
0
100
AcDbBlockBegin
  2
*Model_Space
 70
     0
 10
0.0
 20
0.0
 30
0.0
  3
*Model_Space
  1

  0
ENDBLK
  5
21
330
1F
100
AcDbEntity
  8
0
100
AcDbBlockEnd
  0
BLOCK
  5
1C
330
1B
100
AcDbEntity
 67
     1
  8
0
100
AcDbBlockBegin
  2
*Paper_Space
 70
     0
 10
0.0
 20
0.0
 30
0.0
  3
*Paper_Space
  1

  0
ENDBLK
  5
1D
330
1B
100
AcDbEntity
 67
     1
  8
0
100
AcDbBlockEnd
  0
BLOCK
  5
24
330
23
100
AcDbEntity
  8
0
100
AcDbBlockBegin
  2
*Paper_Space0
 70
     0
 10
0.0
 20
0.0
 30
0.0
  3
*Paper_Space0
  1

  0
ENDBLK
  5
25
330
23
100
AcDbEntity
  8
0
100
AcDbBlockEnd
  0
BLOCK
  5
4A
330
49
100
AcDbEntity
  8
0
100
AcDbBlockBegin
  2
*D1
 70
     1
 10
0.0
 20
0.0
 30
0.0
  3
*D1
  1

  0
SOLID
  5
4C
330
49
100
AcDbEntity
  8
0
  6
Continuous
 62
     7
370
     0
100
AcDbTrace
 10
42.7614395004
 20
152.0299240879
 30
0.0
 11
42.4614395004
 21
149.5299240879
 31
0.0
 12
43.0614395004
 22
149.5299240879
 32
0.0
 13
43.0614395004
 23
149.5299240879
 33
0.0
  0
SOLID
  5
4D
330
49
100
AcDbEntity
  8
0
  6
Continuous
 62
     7
370
     0
100
AcDbTrace
 10
42.7614395004
 20
52.0299240879
 30
0.0
 11
43.0614395004
 21
54.5299240879
 31
0.0
 12
42.4614395004
 22
54.5299240879
 32
0.0
 13
42.4614395004
 23
54.5299240879
 33
0.0
  0
LINE
  5
4E
330
49
100
AcDbEntity
  8
0
  6
Continuous
 62
     7
370
     0
100
AcDbLine
 10
56.6850079902
 20
152.0299240879
 30
0.0
 11
41.7614395004
 21
152.0299240879
 31
0.0
  0
LINE
  5
4F
330
49
100
AcDbEntity
  8
0
  6
Continuous
 62
     7
370
     0
100
AcDbLine
 10
56.6850079902
 20
52.0299240879
 30
0.0
 11
41.7614395004
 21
52.0299240879
 31
0.0
  0
LINE
  5
50
330
49
100
AcDbEntity
  8
0
  6
Continuous
 62
     7
370
     0
100
AcDbLine
 10
42.7614395004
 20
152.0299240879
 30
0.0
 11
42.7614395004
 21
52.0299240879
 31
0.0
  0
MTEXT
  5
51
330
49
100
AcDbEntity
  8
0
  6
Continuous
 62
     7
370
     0
100
AcDbMText
 10
35.0270332946
 20
91.6722208134
 30
0.1
 40
6.0
 41
0.0
 46
0.0
 71
     1
 72
     1
  1
100
  7
SLDTEXTSTYLE0
 11
-7.044195017643634E-15
 21
1.0
 31
0.0
 73
     1
 44
1.0
  0
MTEXT
  5
52
330
49
100
AcDbEntity
  8
0
  6
Continuous
 62
     7
370
     0
100
AcDbMText
 10
35.0270332946
 20
108.4388881795
 30
0.1
 40
6.0
 41
0.0
 46
0.0
 71
     1
 72
     1
  1
mm
  7
SLDTEXTSTYLE0
 11
-7.044195017643634E-15
 21
1.0
 31
0.0
 73
     1
 44
1.0
  0
ENDBLK
  5
4B
330
49
100
AcDbEntity
  8
0
100
AcDbBlockEnd
  0
BLOCK
  5
55
330
54
100
AcDbEntity
  8
0
100
AcDbBlockBegin
  2
*D2
 70
     1
 10
0.0
 20
0.0
 30
0.0
  3
*D2
  1

  0
SOLID
  5
57
330
54
100
AcDbEntity
  8
0
  6
Continuous
 62
     7
370
     0
100
AcDbTrace
 10
56.6850079902
 20
38.4602342313
 30
0.0
 11
59.1850079902
 21
38.1602342313
 31
0.0
 12
59.1850079902
 22
38.7602342313
 32
0.0
 13
59.1850079902
 23
38.7602342313
 33
0.0
  0
SOLID
  5
58
330
54
100
AcDbEntity
  8
0
  6
Continuous
 62
     7
370
     0
100
AcDbTrace
 10
156.6850079902
 20
38.4602342313
 30
0.0
 11
154.1850079902
 21
38.7602342313
 31
0.0
 12
154.1850079902
 22
38.1602342313
 32
0.0
 13
154.1850079902
 23
38.1602342313
 33
0.0
  0
LINE
  5
59
330
54
100
AcDbEntity
  8
0
  6
Continuous
 62
     7
370
     0
100
AcDbLine
 10
56.6850079902
 20
52.0299240879
 30
0.0
 11
56.6850079902
 21
37.4602342313
 31
0.0
  0
LINE
  5
5A
330
54
100
AcDbEntity
  8
0
  6
Continuous
 62
     7
370
     0
100
AcDbLine
 10
156.6850079902
 20
52.0299240879
 30
0.0
 11
156.6850079902
 21
37.4602342313
 31
0.0
  0
LINE
  5
5B
330
54
100
AcDbEntity
  8
0
  6
Continuous
 62
     7
370
     0
100
AcDbLine
 10
56.6850079902
 20
38.4602342313
 30
0.0
 11
156.6850079902
 21
38.4602342313
 31
0.0
  0
MTEXT
  5
5C
330
54
100
AcDbEntity
  8
0
  6
Continuous
 62
     7
370
     0
100
AcDbMText
 10
91.2668151533
 20
46.1946404371
 30
0.1
 40
6.0
 41
0.0
 46
0.0
 71
     1
 72
     1
  1
100
  7
SLDTEXTSTYLE0
 73
     1
 44
1.0
  0
MTEXT
  5
5D
330
54
100
AcDbEntity
  8
0
  6
Continuous
 62
     7
370
     0
100
AcDbMText
 10
108.0334825193
 20
46.1946404371
 30
0.1
 40
6.0
 41
0.0
 46
0.0
 71
     1
 72
     1
  1
mm
  7
SLDTEXTSTYLE0
 73
     1
 44
1.0
  0
ENDBLK
  5
56
330
54
100
AcDbEntity
  8
0
100
AcDbBlockEnd
  0
ENDSEC
  0
SECTION
  2
ENTITIES
  0
LINE
  5
44
330
1F
100
AcDbEntity
  8
0
  6
Continuous
 62
     7
370
     0
100
AcDbLine
 10
56.6850079902
 20
152.0299240879
 30
0.0
 11
56.6850079902
 21
52.0299240879
 31
0.0
  0
LINE
  5
45
330
1F
100
AcDbEntity
  8
0
  6
Continuous
 62
     7
370
     0
100
AcDbLine
 10
56.6850079902
 20
52.0299240879
 30
0.0
 11
156.6850079902
 21
52.0299240879
 31
0.0
  0
DIMENSION
  5
46
330
1F
100
AcDbEntity
  8
0
  6
Continuous
 62
     7
370
     0
100
AcDbDimension
280
     0
  2
*D1
 10
42.7614395004
 20
52.0299240879
 30
0.0
 11
42.7614395004
 21
105.4472211621
 31
0.0
 70
   160
  1
<>mm
 71
     2
 42
-1.0
 73
     0
 74
     0
 75
     0
  3
SLDDIMSTYLE0
100
AcDbAlignedDimension
 13
56.6850079902
 23
152.0299240879
 33
0.0
 14
56.6850079902
 24
52.0299240879
 34
0.0
 50
90.0
100
AcDbRotatedDimension
  0
DIMENSION
  5
53
330
1F
100
AcDbEntity
  8
0
  6
Continuous
 62
     7
370
     0
100
AcDbDimension
280
     0
  2
*D2
 10
156.6850079902
 20
38.4602342313
 30
0.0
 11
105.0418155019
 21
38.4602342313
 31
0.0
 70
   160
  1
<>mm
 71
     2
 42
-1.0
 73
     0
 74
     0
 75
     0
  3
SLDDIMSTYLE0
100
AcDbAlignedDimension
 13
56.6850079902
 23
52.0299240879
 33
0.0
 14
156.6850079902
 24
52.0299240879
 34
0.0
100
AcDbRotatedDimension
  0
MTEXT
  5
5F
330
1F
100
AcDbEntity
  8
0
  6
Continuous
 62
     7
370
     0
100
AcDbMText
 10
272.0661185027
 20
47.4119011911
 30
0.0
 40
10.0
 41
0.0
 46
0.0
 71
     1
 72
     1
  1
42 851 05 78
  7
SLDTEXTSTYLE1
 73
     1
 44
1.0
  0
MTEXT
  5
60
330
1F
100
AcDbEntity
  8
0
  6
Continuous
 62
     7
370
     0
100
AcDbMText
 10
412.8252631579
 20
48.4342449499
 30
0.0
 40
10.0
 41
0.0
 46
0.0
 71
     1
 72
     1
  1
KLUDI GmbH & Co KG
  7
SLDTEXTSTYLE1
 73
     1
 44
1.0
  0
LINE
  5
61
330
1F
100
AcDbEntity
  8
0
  6
Continuous
 62
     7
370
    15
100
AcDbLine
 10
170.3242019508
 20
616.9711470241
 30
0.0
 11
170.3242019508
 21
659.0498208637
 31
0.0
  0
LINE
  5
62
330
1F
100
AcDbEntity
  8
0
  6
Continuous
 62
     7
370
    15
100
AcDbLine
 10
148.2582020331
 20
659.0498208637
 30
0.0
 11
148.2582020331
 21
616.9711470241
 31
0.0
  0
LINE
  5
63
330
1F
100
AcDbEntity
  8
0
  6
Continuous
 62
     7
370
    15
100
AcDbLine
 10
148.4310713355
 20
616.6333227987
 30
0.0
 11
148.6285275538
 21
616.4419173832
 31
0.0
  0
LINE
  5
64
330
1F
100
AcDbEntity
  8
0
  6
Continuous
 62
     7
370
    15
100
AcDbLine
 10
169.9538764302
 20
616.4419173832
 30
0.0
 11
170.1513326485
 21
616.6333227987
 31
0.0
  0
LINE
  5
65
330
1F
100
AcDbEntity
  8
0
  6
Continuous
 62
     7
370
    15
100
AcDbLine
 10
170.1513335798
 20
659.387630188
 30
0.0
 11
169.9538764302
 21
659.5790505047
 31
0.0
  0
LINE
  5
66
330
1F
100
AcDbEntity
  8
0
  6
Continuous
 62
     7
370
    15
100
AcDbLine
 10
148.6285275538
 20
659.5790505047
 30
0.0
 11
148.4310713355
 21
659.387630188
 31
0.0
  0
LINE
  5
67
330
1F
100
AcDbEntity
  8
0
  6
Continuous
 62
     7
370
    15
100
AcDbLine
 10
170.3242019508
 20
659.3461453552
 30
0.0
 11
170.3242019508
 21
666.1616980667
 31
0.0
  0
ARC
  5
68
330
1F
100
AcDbEntity
  8
0
  6
Continuous
 62
     7
370
    15
100
AcDbCircle
 10
159.2912020726
 20
753.1889457008
 30
0.0
 40
11.03299999968559
100
AcDbArc
 50
0.0
 51
180.0
  0
LINE
  5
69
330
1F
100
AcDbEntity
  8
0
  6
Continuous
 62
     7
370
    15
100
AcDbLine
 10
170.3242019508
 20
666.1616980667
 30
0.0
 11
170.3242019508
 21
753.1889497871
 31
0.0
  0
LINE
  5
6A
330
1F
100
AcDbEntity
  8
0
  6
Continuous
 62
     7
370
    15
100
AcDbLine
 10
170.3242019508
 20
659.0498208637
 30
0.0
 11
170.3242019508
 21
659.3461453552
 31
0.0
  0
SPLINE
  5
6B
330
1F
100
AcDbEntity
  8
0
  6
Continuous
 62
     7
370
    15
100
AcDbSpline
210
0.0
220
0.0
230
1.0
 70
     8
 71
     3
 72
     9
 73
     5
 74
     0
 42
0.00000001
 43
0.00000001
 40
0.0
 40
0.0
 40
0.0
 40
0.0
 40
0.5003007645409454
 40
1.0
 40
1.0
 40
1.0
 40
1.0
 10
159.2912013848839
 20
558.205750548338
 30
0.0
 10
159.0690393224119
 20
558.2030375833374
 30
0.0
 10
158.6249823106745
 20
558.197614915229
 30
0.0
 10
158.182503840331
 20
558.1598177244697
 30
0.0
 10
157.9613976869933
 20
558.1409304971447
 30
0.0
  0
SPLINE
  5
6C
330
1F
100
AcDbEntity
  8
0
  6
Continuous
 62
     7
370
    15
100
AcDbSpline
210
0.0
220
0.0
230
1.0
 70
     8
 71
     3
 72
     9
 73
     5
 74
     0
 42
0.00000001
 43
0.00000001
 40
0.0
 40
0.0
 40
0.0
 40
0.0
 40
0.4828729946776088
 40
0.9999999999999999
 40
0.9999999999999999
 40
0.9999999999999999
 40
0.9999999999999999
 10
160.57713436803
 20
558.1441491479626
 30
0.0
 10
160.3705262704104
 20
558.1617060221796
 30
0.0
 10
159.9426537244267
 20
558.198065218926
 30
0.0
 10
159.5132559445541
 20
558.2031309315428
 30
0.0
 10
159.2912027565565
 20
558.205750548338
 30
0.0
  0
SPLINE
  5
6D
330
1F
100
AcDbEntity
  8
0
  6
Continuous
 62
     7
370
    15
100
AcDbSpline
210
0.0
220
0.0
230
1.0
 70
     8
 71
     3
 72
     9
 73
     5
 74
     0
 42
0.00000001
 43
0.00000001
 40
0.0
 40
0.0
 40
0.0
 40
0.0
 40
0.4524797549955737
 40
1.0
 40
1.0
 40
1.0
 40
1.0
 10
135.2199337203257
 20
495.7193478579273
 30
0.0
 10
135.2487292913163
 20
480.3190829845902
 30
0.0
 10
135.3123687595416
 20
446.2838257088523
 30
0.0
 10
135.2518107948003
 20
412.2484842135754
 30
0.0
 10
135.2186540831081
 20
393.6134456992721
 30
0.0
  0
SPLINE
  5
6E
330
1F
100
AcDbEntity
  8
0
  6
Continuous
 62
     7
370
    15
100
AcDbSpline
210
0.0
220
0.0
230
1.0
 70
     8
 71
     3
 72
     9
 73
     5
 74
     0
 42
0.00000001
 43
0.00000001
 40
0.0
 40
0.0
 40
0.0
 40
0.0
 40
0.4524795043948574
 40
1.0
 40
1.0
 40
1.0
 40
1.0
 10
183.3637471068851
 20
393.6134456992721
 30
0.0
 10
183.3346585859824
 20
409.0137130550226
 30
0.0
 10
183.2703716500654
 20
443.048994667052
 30
0.0
 10
183.3298895259769
 20
477.0843133206374
 30
0.0
 10
183.3624767828934
 20
495.7193478579273
 30
0.0
  0
ARC
  5
6F
330
1F
100
AcDbEntity
  8
0
  6
Continuous
 62
     7
370
    15
100
AcDbCircle
 10
183.1626020707
 20
495.7193471997
 30
0.0
 40
0.2006000000000654
100
AcDbArc
 50
357.716942726
 51
90.0
  0
ARC
  5
70
330
1F
100
AcDbEntity
  8
0
  6
Continuous
 62
     7
370
    15
100
AcDbCircle
 10
135.4198020707
 20
495.7193471997
 30
0.0
 40
0.2006000000000654
100
AcDbArc
 50
90.0
 51
178.9648833369
  0
LINE
  5
71
330
1F
100
AcDbEntity
  8
0
  6
Continuous
 62
     7
370
    15
100
AcDbLine
 10
135.2192017008
 20
509.176765346
 30
0.0
 11
135.2192017008
 21
508.2593455548
 31
0.0
  0
LINE
  5
72
330
1F
100
AcDbEntity
  8
0
  6
Continuous
 62
     7
370
    15
100
AcDbLine
 10
183.3632013519
 20
508.2593455548
 30
0.0
 11
183.3632013519
 21
509.176765346
 31
0.0
  0
ARC
  5
73
330
1F
100
AcDbEntity
  8
0
  6
Continuous
 62
     7
370
    15
100
AcDbCircle
 10
135.4198020707
 20
496.1205471997
 30
0.0
 40
0.2006000000000085
100
AcDbArc
 50
180.0
 51
270.0
  0
ARC
  5
74
330
1F
100
AcDbEntity
  8
0
  6
Continuous
 62
     7
370
    15
100
AcDbCircle
 10
183.1626020707
 20
496.1205471997
 30
0.0
 40
0.2006000000000085
100
AcDbArc
 50
270.0
 51
0.0
  0
ARC
  5
75
330
1F
100
AcDbEntity
  8
0
  6
Continuous
 62
     7
370
    15
100
AcDbCircle
 10
142.7417020707
 20
509.1767619639
 30
0.0
 40
7.522500000000008
100
AcDbArc
 50
126.46923439
 51
180.0
  0
ARC
  5
76
330
1F
100
AcDbEntity
  8
0
  6
Continuous
 62
     7
370
    15
100
AcDbCircle
 10
175.8407020707
 20
509.1767619639
 30
0.0
 40
7.522500000000036
100
AcDbArc
 50
0.0
 51
53.53076561
  0
LINE
  5
77
330
1F
100
AcDbEntity
  8
0
  6
Continuous
 62
     7
370
    15
100
AcDbLine
 10
135.2192017008
 20
508.2593455548
 30
0.0
 11
135.2192017008
 21
496.1205467219
 31
0.0
  0
LINE
  5
78
330
1F
100
AcDbEntity
  8
0
  6
Continuous
 62
     7
370
    15
100
AcDbLine
 10
183.3632013519
 20
496.1205467219
 30
0.0
 11
183.3632013519
 21
508.2593455548
 31
0.0
  0
LINE
  5
79
330
1F
100
AcDbEntity
  8
0
  6
Continuous
 62
     7
370
    15
100
AcDbLine
 10
180.3120079208
 20
515.2261748547
 30
0.0
 11
171.9615685512
 21
521.3982432718
 31
0.0
  0
LINE
  5
7A
330
1F
100
AcDbEntity
  8
0
  6
Continuous
 62
     7
370
    15
100
AcDbLine
 10
146.6208354328
 20
521.3982432718
 30
0.0
 11
138.2703951318
 21
515.2261748547
 31
0.0
  0
ARC
  5
7B
330
1F
100
AcDbEntity
  8
0
  6
Continuous
 62
     7
370
    15
100
AcDbCircle
 10
146.9189226998
 20
520.9949471997
 30
0.0
 40
0.5015000000000782
100
AcDbArc
 50
90.0
 51
126.46923439
  0
ARC
  5
7C
330
1F
100
AcDbEntity
  8
0
  6
Continuous
 62
     7
370
    15
100
AcDbCircle
 10
171.6634814416
 20
520.9949471997
 30
0.0
 40
0.5015000000000782
100
AcDbArc
 50
53.53076561
 51
90.0
  0
LINE
  5
7D
330
1F
100
AcDbEntity
  8
0
  6
Continuous
 62
     7
370
    15
100
AcDbLine
 10
170.3242019508
 20
521.4964419241
 30
0.0
 11
170.3242019508
 21
616.9711470241
 31
0.0
  0
LWPOLYLINE
  5
7E
330
1F
100
AcDbEntity
  8
0
  6
Continuous
 62
     7
370
    15
100
AcDbPolyline
 90
       10
 70
   128
 43
0.0
 10
159.2792116768
 20
660.9656631584
 10
161.2494213265
 20
660.9352647896
 10
163.1566924267
 20
660.844248497
 10
164.9397232328
 20
660.6955647106
 10
166.5412059743
 20
660.4939519996
 10
167.9096680824
 20
660.2459668751
 10
169.0011250545
 20
659.9595069523
 10
169.7804967631
 20
659.6438407535
 10
170.2227352876
 20
659.3090414638
 10
170.3242019508
 20
659.0498208637
  0
LWPOLYLINE
  5
7F
330
1F
100
AcDbEntity
  8
0
  6
Continuous
 62
     7
370
    15
100
AcDbPolyline
 90
       10
 70
   128
 43
0.0
 10
148.2582020331
 20
659.0498208637
 10
148.3564500455
 20
659.3049287433
 10
148.7944966871
 20
659.6398770447
 10
149.5699158628
 20
659.9558412666
 10
150.657784449
 20
660.2427184219
 10
152.0231387336
 20
660.491210186
 10
153.6220943313
 20
660.6934189434
 10
155.403260164
 20
660.8427881832
 10
157.3093873672
 20
660.9345197315
 10
159.2792116768
 20
660.9656631584
  0
LWPOLYLINE
  5
80
330
1F
100
AcDbEntity
  8
0
  6
Continuous
 62
     7
370
    15
100
AcDbPolyline
 90
       11
 70
   128
 43
0.0
 10
159.2792116768
 20
618.88700422
 10
161.2494213265
 20
618.85659095
 10
163.1566924267
 20
618.7655746574
 10
164.9397232328
 20
618.6168759699
 10
166.5412059743
 20
618.4152930612
 10
167.9096680824
 20
618.1672930355
 10
169.0011250545
 20
617.8808480139
 10
169.7804967631
 20
617.565166914
 10
170.2227343563
 20
617.2303825254
 10
170.313623989
 20
616.8872683878
 10
170.1513326485
 20
616.6333227987
  0
LWPOLYLINE
  5
81
330
1F
100
AcDbEntity
  8
0
  6
Continuous
 62
     7
370
    15
100
AcDbPolyline
 90
       11
 70
   128
 43
0.0
 10
148.4310713355
 20
616.6333227987
 10
148.2698556725
 20
616.8831109638
 10
148.3564500455
 20
617.2262549038
 10
148.7944966871
 20
617.5612032051
 10
149.5699158628
 20
617.8771823282
 10
150.657784449
 20
618.1640445823
 10
152.0231387336
 20
618.4125512476
 10
153.622094797
 20
618.6147451038
 10
155.403260164
 20
618.7641143436
 10
157.3093873672
 20
618.8558458919
 10
159.2792116768
 20
618.88700422
  0
LWPOLYLINE
  5
82
330
1F
100
AcDbEntity
  8
0
  6
Continuous
 62
     7
370
    15
100
AcDbPolyline
 90
       12
 70
   128
 43
0.0
 10
149.9159599412
 20
615.8313125009
 10
149.0584316422
 20
616.156440937
 10
148.570741782
 20
616.5038764114
 10
148.4705175031
 20
616.8610572452
 10
148.7613816504
 20
617.2150790329
 10
149.4328195919
 20
617.5531416769
 10
150.4605657179
 20
617.8630262251
 10
151.8074746933
 20
618.1335419054
 10
153.4248644244
 20
618.3549135561
 10
155.2542790529
 20
618.5191243524
 10
157.2295984011
 20
618.6202436323
 10
159.2794296836
 20
618.6546206112
  0
ARC
  5
83
330
1F
100
AcDbEntity
  8
0
  6
Continuous
 62
     7
370
    15
100
AcDbCircle
 10
159.2889605401
 20
658.8302868535
 30
0.0
 40
44.00869159157198
100
AcDbArc
 50
257.7029154687
 51
282.3187448397
  0
LWPOLYLINE
  5
84
330
1F
100
AcDbEntity
  8
0
  6
Continuous
 62
     7
370
    15
100
AcDbPolyline
 90
       12
 70
   128
 43
0.0
 10
159.2794296836
 20
618.6546206112
 10
161.3296864312
 20
618.6210184927
 10
163.3062667903
 20
618.5206442709
 10
165.1377326567
 20
618.3571189279
 10
166.7578893472
 20
618.136373126
 10
168.1081804205
 20
617.8663640852
 10
169.1398036424
 20
617.5568669672
 10
169.8154716511
 20
617.2190427418
 10
170.1107660998
 20
616.8651401634
 10
170.0150131006
 20
616.5079146261
 10
169.5316734482
 20
616.1603003378
 10
168.6782159601
 20
615.8348589773
  0
LWPOLYLINE
  5
85
330
1F
100
AcDbEntity
  8
0
  6
Continuous
 62
     7
370
    15
100
AcDbPolyline
 90
        9
 70
   128
 43
0.0
 10
159.2794296836
 20
661.1283838386
 10
161.3296864312
 20
661.0947966213
 10
163.3062667903
 20
660.9944223995
 10
165.1377326567
 20
660.8308970566
 10
166.7578893472
 20
660.6101512546
 10
168.1081804205
 20
660.3401422138
 10
169.1398036424
 20
660.0306450958
 10
169.8154716511
 20
659.6928357715
 10
169.9538764302
 20
659.5790505047
  0
LWPOLYLINE
  5
86
330
1F
100
AcDbEntity
  8
0
  6
Continuous
 62
     7
370
    15
100
AcDbPolyline
 90
        9
 70
   128
 43
0.0
 10
148.6285275538
 20
659.5790505047
 10
148.7613816504
 20
659.6888422603
 10
149.4328195919
 20
660.0269198055
 10
150.4605657179
 20
660.3368043537
 10
151.8074746933
 20
660.607320034
 10
153.4248644244
 20
660.8286916847
 10
155.2542790529
 20
660.9929024811
 10
157.2295984011
 20
661.0940217609
 10
159.2794296836
 20
661.1283838386
  0
LINE
  5
87
330
1F
100
AcDbEntity
  8
0
  6
Continuous
 62
     7
370
    15
100
AcDbLine
 10
148.2582020331
 20
659.3461453552
 30
0.0
 11
148.2582020331
 21
666.1616980667
 31
0.0
  0
LINE
  5
88
330
1F
100
AcDbEntity
  8
0
  6
Continuous
 62
     7
370
    15
100
AcDbLine
 10
148.2582020331
 20
659.1190814609
 30
0.0
 11
148.2582020331
 21
659.3461453552
 31
0.0
  0
LINE
  5
89
330
1F
100
AcDbEntity
  8
0
  6
Continuous
 62
     7
370
    15
100
AcDbLine
 10
148.2582020331
 20
753.1889497871
 30
0.0
 11
148.2582020331
 21
666.1616980667
 31
0.0
  0
SPLINE
  5
8A
330
1F
100
AcDbEntity
  8
0
  6
Continuous
 62
     7
370
    15
100
AcDbSpline
210
0.0
220
0.0
230
1.0
 70
     8
 71
     3
 72
    26
 73
    22
 74
     0
 42
0.00000001
 43
0.00000001
 40
0.0
 40
0.0
 40
0.0
 40
0.0
 40
0.1250000000000043
 40
0.1250000000000043
 40
0.2500000000000086
 40
0.2500000000000086
 40
0.3125000000000108
 40
0.3125000000000108
 40
0.343750000000011
 40
0.343750000000011
 40
0.3750000000000112
 40
0.3750000000000112
 40
0.500000000000009
 40
0.500000000000009
 40
0.6250000000000068
 40
0.6250000000000068
 40
0.7500000000000044
 40
0.7500000000000044
 40
0.8750000000000022
 40
0.8750000000000022
 40
1.0
 40
1.0
 40
1.0
 40
1.0
 10
163.3032020707207
 20
500.3668456397364
 30
0.0
 10
163.3032243055054
 20
499.3465818368139
 30
0.0
 10
163.3351604166986
 20
498.3256455755242
 30
0.0
 10
163.5055392357259
 20
496.290824633128
 30
0.0
 10
163.6441646371221
 20
495.280025379573
 30
0.0
 10
163.9868305657768
 20
493.8012176620476
 30
0.0
 10
164.1239305822877
 20
493.3139182942344
 30
0.0
 10
164.3719886967886
 20
492.5934192765964
 30
0.0
 10
164.4617067897392
 20
492.3549849967987
 30
0.0
 10
164.6562570566951
 20
491.8818355020512
 30
0.0
 10
164.7614494087671
 20
491.6465223365756
 30
0.0
 10
165.3189480203043
 20
490.4964333509191
 30
0.0
 10
165.8728488536843
 20
489.6514575559354
 30
0.0
 10
167.1375758539363
 20
488.0705920815868
 30
0.0
 10
167.8477257355048
 20
487.3310619188714
 30
0.0
 10
169.3130825605176
 20
485.9123404379557
 30
0.0
 10
170.0701564542368
 20
485.2292251857605
 30
0.0
 10
171.5872741256086
 20
483.866142949149
 30
0.0
 10
172.347814170635
 20
483.1866965997833
 30
0.0
 10
173.8525039058115
 20
481.8102800367553
 30
0.0
 10
174.5965999761005
 20
481.1138795576646
 30
0.0
 10
175.3298943249643
 20
480.4047337007752
 30
0.0
  0
SPLINE
  5
8B
330
1F
100
AcDbEntity
  8
0
  6
Continuous
 62
     7
370
    15
100
AcDbSpline
210
0.0
220
0.0
230
1.0
 70
     8
 71
     3
 72
    26
 73
    22
 74
     0
 42
0.00000001
 43
0.00000001
 40
0.0
 40
0.0
 40
0.0
 40
0.0
 40
0.1250000000000016
 40
0.1250000000000016
 40
0.2500000000000032
 40
0.2500000000000032
 40
0.3750000000000048
 40
0.3750000000000048
 40
0.5000000000000063
 40
0.5000000000000063
 40
0.6250000000000079
 40
0.6250000000000079
 40
0.656250000000008
 40
0.656250000000008
 40
0.687500000000008
 40
0.687500000000008
 40
0.7500000000000063
 40
0.7500000000000063
 40
0.8750000000000032
 40
0.8750000000000032
 40
1.0
 40
1.0
 40
1.0
 40
1.0
 10
143.2525098164772
 20
480.4047337007752
 30
0.0
 10
143.9853622093361
 20
481.1134521557215
 30
0.0
 10
144.7299002134612
 20
481.8102800162123
 30
0.0
 10
146.2345899528317
 20
483.1866965836049
 30
0.0
 10
146.9951300000594
 20
483.8661429350423
 30
0.0
 10
148.5122476759947
 20
485.2292251756235
 30
0.0
 10
149.269321572083
 20
485.9123404297093
 30
0.0
 10
150.734678401746
 20
487.3310619145011
 30
0.0
 10
151.4448282856306
 20
488.0705920792437
 30
0.0
 10
152.7095552896317
 20
489.6514575582785
 30
0.0
 10
153.2634561244024
 20
490.4964333559415
 30
0.0
 10
153.8209547368158
 20
491.6465223455475
 30
0.0
 10
153.9261470890073
 20
491.8818355118139
 30
0.0
 10
154.1206973560918
 20
492.3549850080742
 30
0.0
 10
154.2104154490697
 20
492.5934192886376
 30
0.0
 10
154.4584735635557
 20
493.3139183085961
 30
0.0
 10
154.5955735799303
 20
493.8012176779876
 30
0.0
 10
154.9382395079774
 20
495.2800254002966
 30
0.0
 10
155.0768649087126
 20
496.2908246572104
 30
0.0
 10
155.2472437262913
 20
498.3256456057282
 30
0.0
 10
155.2791798493661
 20
499.3471967492644
 30
0.0
 10
155.2792020707207
 20
500.3668456397364
 30
0.0
  0
SPLINE
  5
8C
330
1F
100
AcDbEntity
  8
0
  6
Continuous
 62
     7
370
    15
100
AcDbSpline
210
0.0
220
0.0
230
1.0
 70
     8
 71
     3
 72
    18
 73
    14
 74
     0
 42
0.00000001
 43
0.00000001
 40
0.0
 40
0.0
 40
0.0
 40
0.0
 40
0.2499999999999996
 40
0.2499999999999996
 40
0.3749999999999994
 40
0.3749999999999994
 40
0.4999999999999991
 40
0.4999999999999991
 40
0.7499999999999987
 40
0.7499999999999987
 40
0.8749999999999993
 40
0.8749999999999993
 40
1.0
 40
1.0
 40
1.0
 40
1.0
 10
136.2222020707207
 20
463.8234457005813
 30
0.0
 10
136.2222020707782
 20
465.3780943757598
 30
0.0
 10
136.3777520047307
 20
466.9062559085069
 30
0.0
 10
136.8349402825456
 20
469.1603788479359
 30
0.0
 10
137.0249346544148
 20
469.9053508908192
 30
0.0
 10
137.4819863970741
 20
471.3821722530727
 30
0.0
 10
137.7499010568418
 20
472.1146971870785
 30
0.0
 10
138.6518211664598
 20
474.243123011284
 30
0.0
 10
139.3875690517454
 20
475.5875371716886
 30
0.0
 10
140.6922172097175
 20
477.492715861988
 30
0.0
 10
141.1627946077417
 20
478.1112776784566
 30
0.0
 10
142.1642350073109
 20
479.2975627667871
 30
0.0
 10
142.6938655339036
 20
479.8643701459522
 30
0.0
 10
143.2525098164772
 20
480.4047337007752
 30
0.0
  0
SPLINE
  5
8D
330
1F
100
AcDbEntity
  8
0
  6
Continuous
 62
     7
370
    15
100
AcDbSpline
210
0.0
220
0.0
230
1.0
 70
     8
 71
     3
 72
    18
 73
    14
 74
     0
 42
0.00000001
 43
0.00000001
 40
0.0
 40
0.0
 40
0.0
 40
0.0
 40
0.2499999999999996
 40
0.2499999999999996
 40
0.3749999999999996
 40
0.3749999999999996
 40
0.4999999999999996
 40
0.4999999999999996
 40
0.7499999999999997
 40
0.7499999999999997
 40
0.8749999999999999
 40
0.8749999999999999
 40
1.0
 40
1.0
 40
1.0
 40
1.0
 10
175.3298943964619
 20
480.4047336316171
 30
0.0
 10
176.4472396259079
 20
479.3239517025938
 30
0.0
 10
177.4374841016682
 20
478.1497295190197
 30
0.0
 10
178.7398430407259
 20
476.2539294020717
 30
0.0
 10
179.1432274824906
 20
475.5994116634805
 30
0.0
 10
179.8869933784956
 20
474.2440823278616
 30
0.0
 10
180.2272540283755
 20
473.5422048905024
 30
0.0
 10
181.1300797326355
 20
471.4140548054213
 30
0.0
 10
181.5849085217158
 20
469.9504065351424
 30
0.0
 10
182.0472535303136
 20
467.6878268686635
 30
0.0
 10
182.1646876735483
 20
466.9194238197025
 30
0.0
 10
182.321075239221
 20
465.3746922903478
 30
0.0
 10
182.3602348019228
 20
464.5998342149775
 30
0.0
 10
182.3602020502458
 20
463.8224737588101
 30
0.0
  0
SPLINE
  5
8E
330
1F
100
AcDbEntity
  8
0
  6
Continuous
 62
     7
370
    15
100
AcDbSpline
210
0.0
220
0.0
230
1.0
 70
    24
 71
     3
 72
    20
 73
    16
 74
     0
 42
0.00000001
 43
0.00000001
 40
0.0
 40
0.0
 40
0.0
 40
0.0
 40
0.0625000000000001
 40
0.0625000000000001
 40
0.1250000000000002
 40
0.1250000000000002
 40
0.1875000000000003
 40
0.1875000000000003
 40
0.2500000000000004
 40
0.2500000000000004
 40
0.3750000000000007
 40
0.3750000000000007
 40
0.5000000000000009
 40
0.5000000000000009
 40
1.0
 40
1.0
 40
1.0
 40
1.0
 10
163.3032020707207
 20
550.0235937854976
 30
0.0
 10
163.3032020707207
 20
548.9895835571054
 30
0.0
 10
163.3032020707207
 20
547.9549351935113
 30
0.0
 10
163.3032020707207
 20
545.8859328432003
 30
0.0
 10
163.3032020707206
 20
544.8514145941026
 30
0.0
 10
163.3032020707206
 20
542.7823609237281
 30
0.0
 10
163.3032020707209
 20
541.7478262502061
 30
0.0
 10
163.3032020707209
 20
539.6787621270305
 30
0.0
 10
163.3032020707207
 20
538.644234462769
 30
0.0
 10
163.3032020707207
 20
535.5406598529322
 30
0.0
 10
163.3032020707208
 20
533.4716141514632
 30
0.0
 10
163.3032020707208
 20
529.3335177745453
 30
0.0
 10
163.3032020707208
 20
527.2644697855919
 30
0.0
 10
163.3032020707208
 20
516.9192297639662
 30
0.0
 10
163.3032020707207
 20
508.6430376902395
 30
0.0
 10
163.3032020707207
 20
500.3668456397364
 30
0.0
  0
SPLINE
  5
8F
330
1F
100
AcDbEntity
  8
0
  6
Continuous
 62
     7
370
    15
100
AcDbSpline
210
0.0
220
0.0
230
1.0
 70
    24
 71
     3
 72
    20
 73
    16
 74
     0
 42
0.00000001
 43
0.00000001
 40
0.0
 40
0.0
 40
0.0
 40
0.0
 40
0.5000000000000013
 40
0.5000000000000013
 40
0.6250000000000019
 40
0.6250000000000019
 40
0.7500000000000024
 40
0.7500000000000024
 40
0.8125000000000018
 40
0.8125000000000018
 40
0.8750000000000012
 40
0.8750000000000012
 40
0.9375000000000006
 40
0.9375000000000006
 40
1.0
 40
1.0
 40
1.0
 40
1.0
 10
155.2792020707207
 20
500.3668456397364
 30
0.0
 10
155.2792020707207
 20
508.6431015753936
 30
0.0
 10
155.2792020707207
 20
516.9193571501763
 30
0.0
 10
155.2792020707207
 20
527.2646776430944
 30
0.0
 10
155.2792020707205
 20
529.333741776735
 30
0.0
 10
155.2792020707205
 20
533.4718691653212
 30
0.0
 10
155.2792020707206
 20
535.5409352442643
 30
0.0
 10
155.2792020707206
 20
538.6445313816594
 30
0.0
 10
155.2792020707207
 20
539.6790624232846
 30
0.0
 10
155.2792020707207
 20
541.7481213473627
 30
0.0
 10
155.2792020707207
 20
542.7826592778655
 30
0.0
 10
155.2792020707207
 20
544.8516928047909
 30
0.0
 10
155.2792020707206
 20
545.8861748276212
 30
0.0
 10
155.2792020707206
 20
547.9550007803504
 30
0.0
 10
155.2792020707207
 20
548.9895944592071
 30
0.0
 10
155.2792020707207
 20
550.0235508556688
 30
0.0
  0
SPLINE
  5
90
330
1F
100
AcDbEntity
  8
0
  6
Continuous
 62
     7
370
    15
100
AcDbSpline
210
0.0
220
0.0
230
1.0
 70
    24
 71
     3
 72
    10
 73
     6
 74
     0
 42
0.00000001
 43
0.00000001
 40
0.0
 40
0.0
 40
0.0
 40
0.0
 40
0.5
 40
0.5
 40
1.0
 40
1.0
 40
1.0
 40
1.0
 10
163.3032020707207
 20
551.4495906624428
 30
0.0
 10
163.3032020707207
 20
551.2155845119095
 30
0.0
 10
163.3032020707207
 20
550.9790580739946
 30
0.0
 10
163.3032020707207
 20
550.5032347669729
 30
0.0
 10
163.3032020707207
 20
550.2638855619482
 30
0.0
 10
163.3032020707207
 20
550.0235937854978
 30
0.0
  0
SPLINE
  5
91
330
1F
100
AcDbEntity
  8
0
  6
Continuous
 62
     7
370
    15
100
AcDbSpline
210
0.0
220
0.0
230
1.0
 70
    24
 71
     3
 72
    10
 73
     6
 74
     0
 42
0.00000001
 43
0.00000001
 40
0.0
 40
0.0
 40
0.0
 40
0.0
 40
0.5
 40
0.5
 40
1.0
 40
1.0
 40
1.0
 40
1.0
 10
155.2792020707207
 20
550.0235508556688
 30
0.0
 10
155.2792020707207
 20
550.257943221711
 30
0.0
 10
155.2792020707207
 20
550.4917697899913
 30
0.0
 10
155.2792020707207
 20
550.9563163044063
 30
0.0
 10
155.2792020707207
 20
551.1872380295747
 30
0.0
 10
155.2792020707207
 20
551.4157667036255
 30
0.0
  0
ARC
  5
92
330
1F
100
AcDbEntity
  8
0
  6
Continuous
 62
     7
370
    15
100
AcDbCircle
 10
159.2912020707
 20
463.8234456997
 30
0.0
 40
23.06900000000001
100
AcDbArc
 50
314.0470386778
 51
359.9975860197
  0
ARC
  5
93
330
1F
100
AcDbEntity
  8
0
  6
Continuous
 62
     7
370
    15
100
AcDbCircle
 10
159.2912020707
 20
463.8234456997
 30
0.0
 40
23.06900000000001
100
AcDbArc
 50
180.0
 51
225.9529613222
  0
ARC
  5
94
330
1F
100
AcDbEntity
  8
0
  6
Continuous
 62
     7
370
    15
100
AcDbCircle
 10
159.2912020707
 20
463.8234456997
 30
0.0
 40
23.06900000000002
100
AcDbArc
 50
270.0
 51
314.0470386778
  0
ARC
  5
95
330
1F
100
AcDbEntity
  8
0
  6
Continuous
 62
     7
370
    15
100
AcDbCircle
 10
159.2912020707
 20
463.8234456997
 30
0.0
 40
23.06900000000002
100
AcDbArc
 50
225.9529613222
 51
270.0
  0
SPLINE
  5
96
330
1F
100
AcDbEntity
  8
0
  6
Continuous
 62
     7
370
    15
100
AcDbSpline
210
0.0
220
0.0
230
1.0
 70
    24
 71
     3
 72
     8
 73
     4
 74
     0
 42
0.00000001
 43
0.00000001
 40
0.0
 40
0.0
 40
0.0
 40
0.0
 40
1.0
 40
1.0
 40
1.0
 40
1.0
 10
155.2792020707207
 20
551.4157667036255
 30
0.0
 10
155.2792020707207
 20
551.8512681376749
 30
0.0
 10
155.2792020707207
 20
552.2584526504146
 30
0.0
 10
155.2792020707207
 20
552.6443636705724
 30
0.0
  0
SPLINE
  5
97
330
1F
100
AcDbEntity
  8
0
  6
Continuous
 62
     7
370
    15
100
AcDbSpline
210
0.0
220
0.0
230
1.0
 70
    24
 71
     3
 72
     8
 73
     4
 74
     0
 42
0.00000001
 43
0.00000001
 40
0.0
 40
0.0
 40
0.0
 40
0.0
 40
1.0
 40
1.0
 40
1.0
 40
1.0
 10
163.3032020707207
 20
552.6354140588625
 30
0.0
 10
163.3032020707207
 20
552.2623152385895
 30
0.0
 10
163.3032020707207
 20
551.8692321868816
 30
0.0
 10
163.3032020707207
 20
551.4495906624427
 30
0.0
  0
SPLINE
  5
98
330
1F
100
AcDbEntity
  8
0
  6
Continuous
 62
     7
370
    15
100
AcDbSpline
210
0.0
220
0.0
230
1.0
 70
    24
 71
     3
 72
    12
 73
     8
 74
     0
 42
0.00000001
 43
0.00000001
 40
0.0
 40
0.0
 40
0.0
 40
0.0
 40
0.25
 40
0.25
 40
0.5
 40
0.5
 40
1.0
 40
1.0
 40
1.0
 40
1.0
 10
163.3032020707207
 20
554.5204542369594
 30
0.0
 10
163.3032020707207
 20
554.409537704953
 30
0.0
 10
163.3032020707208
 20
554.2858601251751
 30
0.0
 10
163.3032020707208
 20
554.0135512021349
 30
0.0
 10
163.3032020707207
 20
553.8641122918574
 30
0.0
 10
163.3032020707207
 20
553.387268407223
 30
0.0
 10
163.3032020707207
 20
553.0296158002712
 30
0.0
 10
163.3032020707207
 20
552.6354140588625
 30
0.0
  0
SPLINE
  5
99
330
1F
100
AcDbEntity
  8
0
  6
Continuous
 62
     7
370
    15
100
AcDbSpline
210
0.0
220
0.0
230
1.0
 70
    24
 71
     3
 72
    12
 73
     8
 74
     0
 42
0.00000001
 43
0.00000001
 40
0.0
 40
0.0
 40
0.0
 40
0.0
 40
0.5
 40
0.5
 40
0.75
 40
0.75
 40
1.0
 40
1.0
 40
1.0
 40
1.0
 10
155.2792020707207
 20
552.6443636705725
 30
0.0
 10
155.2792020707207
 20
553.0365779070131
 30
0.0
 10
155.2792020707207
 20
553.3924280253464
 30
0.0
 10
155.2792020707207
 20
553.8668537590421
 30
0.0
 10
155.2792020707207
 20
554.0155652979807
 30
0.0
 10
155.2792020707207
 20
554.2866707530951
 30
0.0
 10
155.2792020707207
 20
554.4098325918228
 30
0.0
 10
155.2792020707207
 20
554.520325171558
 30
0.0
  0
SPLINE
  5
9A
330
1F
100
AcDbEntity
  8
0
  6
Continuous
 62
     7
370
    15
100
AcDbSpline
210
0.0
220
0.0
230
1.0
 70
    24
 71
     3
 72
     8
 73
     4
 74
     0
 42
0.00000001
 43
0.00000001
 40
0.0
 40
0.0
 40
0.0
 40
0.0
 40
1.0
 40
1.0
 40
1.0
 40
1.0
 10
155.2792020707207
 20
554.520325171558
 30
0.0
 10
155.2792020707207
 20
554.720013479629
 30
0.0
 10
155.2792020707207
 20
554.8728855608579
 30
0.0
 10
155.2792020707207
 20
554.978813758481
 30
0.0
  0
SPLINE
  5
9B
330
1F
100
AcDbEntity
  8
0
  6
Continuous
 62
     7
370
    15
100
AcDbSpline
210
0.0
220
0.0
230
1.0
 70
    24
 71
     3
 72
     8
 73
     4
 74
     0
 42
0.00000001
 43
0.00000001
 40
0.0
 40
0.0
 40
0.0
 40
0.0
 40
1.0
 40
1.0
 40
1.0
 40
1.0
 10
163.3032020707207
 20
554.9785237346617
 30
0.0
 10
163.3032020707207
 20
554.8726276295141
 30
0.0
 10
163.3032020707207
 20
554.7198949043807
 30
0.0
 10
163.3032020707207
 20
554.5204542369594
 30
0.0
  0
ARC
  5
9C
330
1F
100
AcDbEntity
  8
0
  6
Continuous
 62
     7
370
    15
100
AcDbCircle
 10
160.2942116
 20
555.1494777894
 30
0.0
 40
3.008990673369622
100
AcDbArc
 50
359.9999979929
 51
84.6036774859
  0
SPLINE
  5
9D
330
1F
100
AcDbEntity
  8
0
  6
Continuous
 62
     7
370
    15
100
AcDbSpline
210
0.0
220
0.0
230
1.0
 70
    24
 71
     3
 72
     8
 73
     4
 74
     0
 42
0.00000001
 43
0.00000001
 40
0.0
 40
0.0
 40
0.0
 40
0.0
 40
1.0
 40
1.0
 40
1.0
 40
1.0
 10
163.3032020707207
 20
555.1494733843011
 30
0.0
 10
163.3032020707207
 20
555.1490980879705
 30
0.0
 10
163.3032020707207
 20
555.0916604174195
 30
0.0
 10
163.3032020707207
 20
554.9785237346617
 30
0.0
  0
ARC
  5
9E
330
1F
100
AcDbEntity
  8
0
  6
Continuous
 62
     7
370
    15
100
AcDbCircle
 10
158.2881918852
 20
555.149478689
 30
0.0
 40
3.008989708959247
100
AcDbArc
 50
95.3963102564
 51
180.0000191368
  0
SPLINE
  5
9F
330
1F
100
AcDbEntity
  8
0
  6
Continuous
 62
     7
370
    15
100
AcDbSpline
210
0.0
220
0.0
230
1.0
 70
    24
 71
     3
 72
     8
 73
     4
 74
     0
 42
0.00000001
 43
0.00000001
 40
0.0
 40
0.0
 40
0.0
 40
0.0
 40
1.0
 40
1.0
 40
1.0
 40
1.0
 10
155.2792020707207
 20
554.9788137584811
 30
0.0
 10
155.2792020707207
 20
555.0917754291671
 30
0.0
 10
155.2792020707207
 20
555.1491175834109
 30
0.0
 10
155.2792020707207
 20
555.1494735614837
 30
0.0
  0
ARC
  5
A0
330
1F
100
AcDbEntity
  8
0
  6
Continuous
 62
     7
370
    15
100
AcDbCircle
 10
159.2912020707
 20
463.8234456997
 30
0.0
 40
23.06900000000304
100
AcDbArc
 50
33.8166068528
 51
47.6941916571
  0
LWPOLYLINE
  5
A1
330
1F
100
AcDbEntity
  8
0
  6
Continuous
 62
     7
370
    15
100
AcDbPolyline
 90
        3
 70
   128
 43
0.0
 10
182.2785141636
 20
465.7630964751
 10
182.3146811445
 20
465.2719616527
 10
182.3602023293
 20
463.8224735493
  0
ARC
  5
A2
330
1F
100
AcDbEntity
  8
0
  6
Continuous
 62
     7
370
    15
100
AcDbCircle
 10
159.2912020707
 20
463.8234456997
 30
0.0
 40
23.06900000000299
100
AcDbArc
 50
168.6542105948
 51
180.0
  0
LINE
  5
A3
330
1F
100
AcDbEntity
  8
0
  6
Continuous
 62
     7
370
    15
100
AcDbLine
 10
142.0696920473
 20
479.172658884
 30
0.0
 11
143.4082950223
 21
480.5540188784
 31
0.0
  0
SPLINE
  5
A4
330
1F
100
AcDbEntity
  8
0
  6
Continuous
 62
     7
370
    15
100
AcDbSpline
210
0.0
220
0.0
230
1.0
 70
    24
 71
     3
 72
    37
 73
    33
 74
     0
 42
0.00000001
 43
0.00000001
 40
0.0
 40
0.0
 40
0.0
 40
0.0
 40
0.021547264549847
 40
0.0746553937822132
 40
0.1015134924192993
 40
0.1288278463693334
 40
0.1819801808476981
 40
0.2088652639824671
 40
0.2362019053359002
 40
0.2627129538760134
 40
0.3163470295888303
 40
0.3437226619157058
 40
0.3702381219403896
 40
0.3969422317203085
 40
0.4239343433626608
 40
0.4513194905894894
 40
0.5044630443205614
 40
0.531368440747081
 40
0.5587146561832196
 40
0.611826458424455
 40
0.6386919354059429
 40
0.6660141802632665
 40
0.7191067332676802
 40
0.7459594579659032
 40
0.7732697347358074
 40
0.8263775022796583
 40
0.8532356019615793
 40
0.8805502478567904
 40
0.9336983827050964
 40
0.9605766622602586
 40
0.987909537122348
 40
1.0
 40
1.0
 40
1.0
 40
1.0
 10
183.3489651549808
 20
393.6134456992721
 30
0.0
 10
183.3430504924876
 20
393.6134456992721
 30
0.0
 10
183.3225578004106
 20
393.6134456992721
 30
0.0
 10
182.9062276782236
 20
393.6134456992721
 30
0.0
 10
182.1728364280235
 20
393.6134456992721
 30
0.0
 10
181.2123881252446
 20
393.6134456992721
 30
0.0
 10
179.9352947893527
 20
393.6134456992721
 30
0.0
 10
178.3758536326734
 20
393.6134456992721
 30
0.0
 10
177.0655101066913
 20
393.6134456992721
 30
0.0
 10
175.1510374110019
 20
393.6134456992721
 30
0.0
 10
173.0003336694887
 20
393.6134456992721
 30
0.0
 10
170.6668548320431
 20
393.6134456992721
 30
0.0
 10
168.8356349890473
 20
393.6134456992721
 30
0.0
 10
166.9457938164471
 20
393.6134456992721
 30
0.0
 10
164.9807866595247
 20
393.6134456992721
 30
0.0
 10
162.3216897815625
 20
393.6134456992721
 30
0.0
 10
159.6067295238804
 20
393.6134456992721
 30
0.0
 10
156.9030974458858
 20
393.6134456992721
 30
0.0
 10
154.2229360933581
 20
393.6134456992721
 30
0.0
 10
151.6008858310761
 20
393.6134456992721
 30
0.0
 10
149.1029317039736
 20
393.6134456992721
 30
0.0
 10
146.7025037028251
 20
393.6134456992721
 30
0.0
 10
144.4671103384226
 20
393.6134456992721
 30
0.0
 10
142.4530796036664
 20
393.6134456992721
 30
0.0
 10
140.600654803344
 20
393.6134456992721
 30
0.0
 10
139.002909709267
 20
393.6134456992721
 30
0.0
 10
137.6974530370812
 20
393.6134456992721
 30
0.0
 10
136.6004501433676
 20
393.6134456992721
 30
0.0
 10
135.816597559138
 20
393.6134456992721
 30
0.0
 10
135.3780555770655
 20
393.6134456992721
 30
0.0
 10
135.2190980717615
 20
393.6134456992721
 30
0.0
 10
135.2346908345074
 20
393.6134456992721
 30
0.0
 10
135.2394728679411
 20
393.6134456992721
 30
0.0
  0
LINE
  5
A5
330
1F
100
AcDbEntity
  8
0
  6
Continuous
 62
     7
370
    15
100
AcDbLine
 10
146.9189229179
 20
521.4964419241
 30
0.0
 11
155.2334490922
 21
521.4964419241
 31
0.0
  0
LINE
  5
A6
330
1F
100
AcDbEntity
  8
0
  6
Continuous
 62
     7
370
    15
100
AcDbLine
 10
163.3592269141
 20
521.4964419241
 30
0.0
 11
171.663481066
 21
521.4964419241
 31
0.0
  0
LINE
  5
A7
330
1F
100
AcDbEntity
  8
0
  6
Continuous
 62
     7
370
    15
100
AcDbLine
 10
148.2582020331
 20
521.4964419241
 30
0.0
 11
148.2582020331
 21
647.8739499683
 31
0.0
  0
LINE
  5
A8
330
1F
100
AcDbEntity
  8
0
  6
Continuous
 62
     8
370
     0
100
AcDbLine
 10
159.2792116768
 20
618.88700422
 30
0.0
 11
159.2794296836
 21
618.6546206112
 31
0.0
  0
LWPOLYLINE
  5
A9
330
1F
100
AcDbEntity
  8
0
  6
Continuous
 62
     8
370
     0
100
AcDbPolyline
 90
       18
 70
   128
 43
0.0
 10
170.1137444694
 20
659.4240784282
 10
169.9706346486
 20
659.6536457176
 10
169.2448540349
 20
660.0326120491
 10
168.1378039289
 20
660.3627919788
 10
166.7714703586
 20
660.6318771476
 10
165.2695064191
 20
660.8368277187
 10
163.6688185614
 20
660.9869718189
 10
161.8060919214
 20
661.0948860283
 10
159.7116905255
 20
661.1444174881
 10
157.4782764297
 20
661.1195325489
 10
155.2410049122
 20
661.0107242698
 10
153.1566635464
 20
660.8187675113
 10
151.3705721814
 20
660.5559408302
 10
149.9843562711
 20
660.2434932823
 10
149.0386466254
 20
659.9065184231
 10
148.5160172675
 20
659.5684706802
 10
148.3585017491
 20
659.2473804588
 10
148.3585017491
 20
659.2473804588
  0
LWPOLYLINE
  5
AA
330
1F
100
AcDbEntity
  8
0
  6
Continuous
 62
     8
370
     0
100
AcDbPolyline
 90
       19
 70
   128
 43
0.0
 10
170.3242010195
 20
659.3468308086
 10
170.2797862459
 20
659.5178663368
 10
169.9266045112
 20
659.8558246727
 10
169.2315920014
 20
660.1773917312
 10
168.2170864884
 20
660.4722559089
 10
166.9156963695
 20
660.7309102649
 10
165.3692482729
 20
660.9450697536
 10
163.62744735
 20
661.1078202362
 10
161.7462756336
 20
661.2139761085
 10
159.7861957494
 20
661.2600803013
 10
157.810206431
 20
661.2446725006
 10
155.881817475
 20
661.1682295437
 10
154.0630089808
 20
661.0332548256
 10
152.4122392517
 20
660.8440100784
 10
150.9825645704
 20
660.6066643829
 10
149.8199368585
 20
660.328787529
 10
148.961723106
 20
660.0193202133
 10
148.4355072249
 20
659.6882462139
 10
148.2582020331
 20
659.3461453552
  0
SPLINE
  5
AB
330
1F
100
AcDbEntity
  8
0
  6
Continuous
 62
     8
370
     0
100
AcDbSpline
210
0.0
220
0.0
230
1.0
 70
     8
 71
     3
 72
    10
 73
     6
 74
     0
 42
0.00000001
 43
0.00000001
 40
0.0
 40
0.0
 40
0.0
 40
0.0
 40
0.5
 40
0.5
 40
1.0
 40
1.0
 40
1.0
 40
1.0
 10
148.2582020707207
 20
659.3461445152082
 30
0.0
 10
148.2582020707207
 20
659.3228627390331
 30
0.0
 10
148.2679944667074
 20
659.2955864480016
 30
0.0
 10
148.3071640506541
 20
659.2570119238948
 30
0.0
 10
148.334861131872
 20
659.2473682928681
 30
0.0
 10
148.3585020707207
 20
659.2473682928681
 30
0.0
  0
LINE
  5
AC
330
1F
100
AcDbEntity
  8
0
  6
Continuous
 62
     8
370
     0
100
AcDbLine
 10
159.2794296836
 20
661.1283838386
 30
0.0
 11
159.2792116768
 21
660.9656631584
 31
0.0
  0
ARC
  5
AD
330
1F
100
AcDbEntity
  8
0
  6
Continuous
 62
     8
370
     0
100
AcDbCircle
 10
159.2912020707
 20
463.8234456997
 30
0.0
 40
20.52174859719134
100
AcDbArc
 50
225.9529613222
 51
270.0
  0
ARC
  5
AE
330
1F
100
AcDbEntity
  8
0
  6
Continuous
 62
     8
370
     0
100
AcDbCircle
 10
159.2912020707
 20
463.8234456997
 30
0.0
 40
20.52174859719136
100
AcDbArc
 50
180.0
 51
225.9529613222
  0
ARC
  5
AF
330
1F
100
AcDbEntity
  8
0
  6
Continuous
 62
     8
370
     0
100
AcDbCircle
 10
159.2912020707
 20
463.8234456997
 30
0.0
 40
20.52174859719136
100
AcDbArc
 50
314.0470386778
 51
0.0
  0
ARC
  5
B0
330
1F
100
AcDbEntity
  8
0
  6
Continuous
 62
     8
370
     0
100
AcDbCircle
 10
159.2912020707
 20
463.8234456997
 30
0.0
 40
20.52174859719134
100
AcDbArc
 50
270.0
 51
314.0470386778
  0
SPLINE
  5
B1
330
1F
100
AcDbEntity
  8
0
  6
Continuous
 62
     8
370
     0
100
AcDbSpline
210
0.0
220
0.0
230
1.0
 70
     8
 71
     3
 72
    30
 73
    26
 74
     0
 42
0.00000001
 43
0.00000001
 40
0.0
 40
0.0
 40
0.0
 40
0.0
 40
0.125
 40
0.125
 40
0.1875000000000001
 40
0.1875000000000001
 40
0.2500000000000001
 40
0.2500000000000001
 40
0.3750000000000013
 40
0.3750000000000013
 40
0.4375000000000014
 40
0.4375000000000014
 40
0.5000000000000014
 40
0.5000000000000014
 40
0.6250000000000016
 40
0.6250000000000016
 40
0.6875000000000016
 40
0.6875000000000016
 40
0.7500000000000016
 40
0.7500000000000016
 40
0.8125000000000016
 40
0.8125000000000016
 40
0.8750000000000016
 40
0.8750000000000016
 40
1.0
 40
1.0
 40
1.0
 40
1.0
 10
173.6284569533005
 20
478.5648195229608
 30
0.0
 10
172.838342041989
 20
479.3429271880024
 30
0.0
 10
172.0362233394498
 20
480.1083195983422
 30
0.0
 10
170.8160477633323
 20
481.2383412044444
 30
0.0
 10
170.4062251711655
 20
481.6117185513829
 30
0.0
 10
169.5820745472986
 20
482.3536582099785
 30
0.0
 10
169.167915420742
 20
482.7223993769794
 30
0.0
 10
167.9316985701595
 20
483.8353110205499
 30
0.0
 10
167.1148846305884
 20
484.5850965562327
 30
0.0
 10
165.9372288495644
 20
485.7605710720771
 30
0.0
 10
165.5526192190913
 20
486.1619043422691
 30
0.0
 10
164.8159672465635
 20
486.9857978207773
 30
0.0
 10
164.4634284722547
 20
487.4089592028815
 30
0.0
 10
163.4669439086865
 20
488.7218741779417
 30
0.0
 10
162.8870881798772
 20
489.6571602160306
 30
0.0
 10
162.1673832531876
 20
491.1667328054081
 30
0.0
 10
161.9563117652604
 20
491.6802400164974
 30
0.0
 10
161.5882219715213
 20
492.719524927941
 30
0.0
 10
161.4308370050219
 20
493.2463944022494
 30
0.0
 10
161.1617524996113
 20
494.3125164341507
 30
0.0
 10
161.0499856704008
 20
494.8517508870084
 30
0.0
 10
160.8654985038511
 20
495.9408044170939
 30
0.0
 10
160.7926747736058
 20
496.4917985269846
 30
0.0
 10
160.6241100041738
 20
498.1482645254395
 30
0.0
 10
160.5768815664672
 20
499.2581188446802
 30
0.0
 10
160.5771904087183
 20
500.366845639732
 30
0.0
  0
SPLINE
  5
B2
330
1F
100
AcDbEntity
  8
0
  6
Continuous
 62
     8
370
     0
100
AcDbSpline
210
0.0
220
0.0
230
1.0
 70
     8
 71
     3
 72
    25
 73
    21
 74
     0
 42
0.00000001
 43
0.00000001
 40
0.0
 40
0.0
 40
0.0
 40
0.0
 40
0.0156249999999988
 40
0.0156249999999988
 40
0.0312499999999977
 40
0.0624999999999978
 40
0.0624999999999978
 40
0.1249999999999981
 40
0.1249999999999981
 40
0.2499999999999987
 40
0.2499999999999987
 40
0.3749999999999993
 40
0.3749999999999993
 40
0.5
 40
0.5
 40
0.7499999999999989
 40
0.7499999999999989
 40
0.8749999999999994
 40
0.8749999999999994
 40
1.0
 40
1.0
 40
1.0
 40
1.0
 10
179.8129577289858
 20
463.8234456997281
 30
0.0
 10
179.812936702927
 20
463.908403379614
 30
0.0
 10
179.8123772526521
 20
463.9956991936695
 30
0.0
 10
179.8101872200626
 20
464.1676799263786
 30
0.0
 10
179.8052948193682
 20
464.4253777787804
 30
0.0
 10
179.7955998597244
 20
464.6822592113977
 30
0.0
 10
179.7698467300164
 20
465.1949403663065
 30
0.0
 10
179.7441806074388
 20
465.5352833053826
 30
0.0
 10
179.6419739231672
 20
466.5520268523349
 30
0.0
 10
179.540433483508
 20
467.2241776001109
 30
0.0
 10
179.2709674333784
 20
468.5571938944702
 30
0.0
 10
179.1029538597404
 20
469.2180444658959
 30
0.0
 10
178.6995105014475
 20
470.5282847459962
 30
0.0
 10
178.4633949344855
 20
471.1784109694418
 30
0.0
 10
177.6687598730528
 20
473.0688412623765
 30
0.0
 10
177.0206955269326
 20
474.2642167458652
 30
0.0
 10
175.8748666422599
 20
475.9619499197059
 30
0.0
 10
175.4620607804884
 20
476.5137062742118
 30
0.0
 10
174.5836448619855
 20
477.5735930931626
 30
0.0
 10
174.1194326265668
 20
478.0811807988421
 30
0.0
 10
173.6284569386181
 20
478.5648195079676
 30
0.0
  0
SPLINE
  5
B3
330
1F
100
AcDbEntity
  8
0
  6
Continuous
 62
     8
370
     0
100
AcDbSpline
210
0.0
220
0.0
230
1.0
 70
     8
 71
     3
 72
    20
 73
    16
 74
     0
 42
0.00000001
 43
0.00000001
 40
0.0
 40
0.0
 40
0.0
 40
0.0
 40
0.1249999999999991
 40
0.1249999999999991
 40
0.2499999999999982
 40
0.2499999999999982
 40
0.4999999999999988
 40
0.4999999999999988
 40
0.6249999999999991
 40
0.6249999999999991
 40
0.7499999999999993
 40
0.7499999999999993
 40
0.8749999999999997
 40
0.8749999999999997
 40
1.0
 40
1.0
 40
1.0
 40
1.0
 10
144.954179878169
 20
478.5650487025
 30
0.0
 10
144.4631864712322
 20
478.0814085328284
 30
0.0
 10
143.9989578104481
 20
477.5738178154745
 30
0.0
 10
143.1205105882182
 20
476.5139228655497
 30
0.0
 10
142.7076884367588
 20
475.9621593785826
 30
0.0
 10
141.5618159384086
 20
474.2644041159415
 30
0.0
 10
140.9137273666344
 20
473.0690112452738
 30
0.0
 10
140.1190623912507
 20
471.1785513455398
 30
0.0
 10
139.8829377800873
 20
470.5284143443815
 30
0.0
 10
139.4794783937601
 20
469.2181495142954
 30
0.0
 10
139.3114581675809
 20
468.5572864364183
 30
0.0
 10
139.0419814655349
 20
467.2242446781087
 30
0.0
 10
138.9404370334364
 20
466.552080971661
 30
0.0
 10
138.8041560552123
 20
465.1963965521615
 30
0.0
 10
138.7696166559659
 20
464.5113288056477
 30
0.0
 10
138.7694464124557
 20
463.8234456997281
 30
0.0
  0
SPLINE
  5
B4
330
1F
100
AcDbEntity
  8
0
  6
Continuous
 62
     8
370
     0
100
AcDbSpline
210
0.0
220
0.0
230
1.0
 70
     8
 71
     3
 72
    30
 73
    26
 74
     0
 42
0.00000001
 43
0.00000001
 40
0.0
 40
0.0
 40
0.0
 40
0.0
 40
0.1249999999999989
 40
0.1249999999999989
 40
0.1874999999999992
 40
0.1874999999999992
 40
0.2499999999999994
 40
0.2499999999999994
 40
0.3124999999999997
 40
0.3124999999999997
 40
0.3749999999999999
 40
0.3749999999999999
 40
0.4999999999999991
 40
0.4999999999999991
 40
0.5624999999999987
 40
0.5624999999999987
 40
0.6249999999999982
 40
0.6249999999999982
 40
0.7499999999999986
 40
0.7499999999999986
 40
0.8124999999999987
 40
0.8124999999999987
 40
0.8749999999999988
 40
0.8749999999999988
 40
1.0
 40
1.0
 40
1.0
 40
1.0
 10
158.0052137327232
 20
500.366845639732
 30
0.0
 10
158.005522611795
 20
499.2579866397578
 30
0.0
 10
157.9582952558365
 20
498.1482916797343
 30
0.0
 10
157.7897350055107
 20
496.491845847066
 30
0.0
 10
157.7169132410988
 20
495.940858193067
 30
0.0
 10
157.5324312157841
 20
494.8518172305946
 30
0.0
 10
157.4206675392136
 20
494.31258890381
 30
0.0
 10
157.1515908123308
 20
493.2464787247351
 30
0.0
 10
156.9942104858795
 20
492.7196149733492
 30
0.0
 10
156.6261317285584
 20
491.6803410314409
 30
0.0
 10
156.4150671627411
 20
491.1668402819399
 30
0.0
 10
155.695382184462
 20
489.6572782885409
 30
0.0
 10
155.1155418541023
 20
488.7219978228708
 30
0.0
 10
154.1190814153875
 20
487.4090904777223
 30
0.0
 10
153.7665508085993
 20
486.9859315496583
 30
0.0
 10
153.0299147803874
 20
486.1620432570666
 30
0.0
 10
152.6453127575623
 20
485.7607125354667
 30
0.0
 10
151.4676776036354
 20
484.5852458539024
 30
0.0
 10
150.6508763262042
 20
483.8354667477811
 30
0.0
 10
149.4146762195069
 20
482.7225671721947
 30
0.0
 10
149.0005223325112
 20
482.3538303971717
 30
0.0
 10
148.1763805078177
 20
481.6119013095155
 30
0.0
 10
147.7665620035408
 20
481.2385295756363
 30
0.0
 10
146.5463983279233
 20
480.1085251733175
 30
0.0
 10
145.7442899207152
 20
479.3431416773014
 30
0.0
 10
144.954179891686
 20
478.5650486886931
 30
0.0
  0
SPLINE
  5
B5
330
1F
100
AcDbEntity
  8
0
  6
Continuous
 62
     8
370
     0
100
AcDbSpline
210
0.0
220
0.0
230
1.0
 70
     8
 71
     3
 72
    24
 73
    20
 74
     0
 42
0.00000001
 43
0.00000001
 40
0.0
 40
0.0
 40
0.0
 40
0.0
 40
0.5000000000000009
 40
0.5000000000000009
 40
0.6250000000000007
 40
0.6250000000000007
 40
0.6875000000000006
 40
0.6875000000000006
 40
0.7500000000000004
 40
0.7500000000000004
 40
0.8125000000000003
 40
0.8125000000000003
 40
0.8750000000000002
 40
0.8750000000000002
 40
0.9375000000000001
 40
0.9375000000000001
 40
0.96875
 40
0.96875
 40
1.0
 40
1.0
 40
1.0
 40
1.0
 10
160.5771904040677
 20
500.3668456397364
 30
0.0
 10
160.5771892424114
 20
508.6611580404411
 30
0.0
 10
160.5771982598466
 20
516.9554704515974
 30
0.0
 10
160.5771919485491
 20
527.3233609382354
 30
0.0
 10
160.5771046306139
 20
529.3969389353964
 30
0.0
 10
160.576469971112
 20
532.507306292458
 30
0.0
 10
160.5766821571033
 20
533.5440950404525
 30
0.0
 10
160.579633260104
 20
535.6176700805772
 30
0.0
 10
160.5816865069722
 20
536.6544558629597
 30
0.0
 10
160.5817842989127
 20
538.72803756879
 30
0.0
 10
160.5793588287023
 20
539.7648358707368
 30
0.0
 10
160.5676762854214
 20
541.8384533100358
 30
0.0
 10
160.5599121677013
 20
542.8752679438367
 30
0.0
 10
160.5576925408604
 20
544.9488566032229
 30
0.0
 10
160.5645558228461
 20
545.9856264100106
 30
0.0
 10
160.5949955806003
 20
547.5407210523894
 30
0.0
 10
160.606026098251
 20
548.0591431931737
 30
0.0
 10
160.609182360867
 20
549.0957510421491
 30
0.0
 10
160.6010807823957
 20
549.6140226005654
 30
0.0
 10
160.5769564705049
 20
550.131595699728
 30
0.0
  0
LINE
  5
B6
330
1F
100
AcDbEntity
  8
0
  6
Continuous
 62
     8
370
     0
100
AcDbLine
 10
160.5769564854
 20
550.1316010589
 30
0.0
 11
160.5769539243
 21
550.1316457624
 31
0.0
  0
SPLINE
  5
B7
330
1F
100
AcDbEntity
  8
0
  6
Continuous
 62
     8
370
     0
100
AcDbSpline
210
0.0
220
0.0
230
1.0
 70
     8
 71
     3
 72
    24
 73
    20
 74
     0
 42
0.00000001
 43
0.00000001
 40
0.0
 40
0.0
 40
0.0
 40
0.0
 40
0.0312500000000003
 40
0.0312500000000003
 40
0.0625000000000006
 40
0.0625000000000006
 40
0.1250000000000012
 40
0.1250000000000012
 40
0.1875000000000019
 40
0.1875000000000019
 40
0.2500000000000025
 40
0.2500000000000025
 40
0.3125000000000031
 40
0.3125000000000031
 40
0.3750000000000038
 40
0.3750000000000038
 40
0.5000000000000033
 40
0.5000000000000033
 40
1.0
 40
1.0
 40
1.0
 40
1.0
 10
158.0054476709365
 20
550.131595699728
 30
0.0
 10
157.9813330835859
 20
549.6142312316307
 30
0.0
 10
157.9732217751859
 20
549.0957507450975
 30
0.0
 10
157.9763780518019
 20
548.0591424316137
 30
0.0
 10
157.9874085809599
 20
547.5407201006561
 30
0.0
 10
158.017848345816
 20
545.9856248671861
 30
0.0
 10
158.0247116085976
 20
544.948854663119
 30
0.0
 10
158.0224919607157
 20
542.8752652053722
 30
0.0
 10
158.0147278340153
 20
541.8384501708005
 30
0.0
 10
158.0030452948612
 20
539.7648319309566
 30
0.0
 10
158.0006198366418
 20
538.7280332295859
 30
0.0
 10
158.0007176408032
 20
536.6544507260422
 30
0.0
 10
158.0027708918718
 20
535.6176643384026
 30
0.0
 10
158.0057219918363
 20
533.5440881121867
 30
0.0
 10
158.0059341692782
 20
532.5072993456424
 30
0.0
 10
158.0052995087744
 20
529.3969324612401
 30
0.0
 10
158.0052121927895
 20
527.3233548201217
 30
0.0
 10
158.0052058819892
 20
516.9554667083675
 30
0.0
 10
158.0052148990294
 20
508.6611561624622
 30
0.0
 10
158.0052137373737
 20
500.3668456397364
 30
0.0
  0
SPLINE
  5
B8
330
1F
100
AcDbEntity
  8
0
  6
Continuous
 62
     8
370
     0
100
AcDbSpline
210
0.0
220
0.0
230
1.0
 70
     8
 71
     3
 72
     8
 73
     4
 74
     0
 42
0.00000001
 43
0.00000001
 40
0.0
 40
0.0
 40
0.0
 40
0.0
 40
1.0
 40
1.0
 40
1.0
 40
1.0
 10
158.0053209633758
 20
554.1591369441326
 30
0.0
 10
158.0027540166145
 20
553.5202310060271
 30
0.0
 10
157.9952724489593
 20
552.8438797063602
 30
0.0
 10
158.0065285903508
 20
552.1239492295825
 30
0.0
  0
SPLINE
  5
B9
330
1F
100
AcDbEntity
  8
0
  6
Continuous
 62
     8
370
     0
100
AcDbSpline
210
0.0
220
0.0
230
1.0
 70
     8
 71
     3
 72
    12
 73
     8
 74
     0
 42
0.00000001
 43
0.00000001
 40
0.0
 40
0.0
 40
0.0
 40
0.0
 40
0.2500000000000051
 40
0.2500000000000051
 40
0.5000000000000102
 40
0.5000000000000102
 40
1.0
 40
1.0
 40
1.0
 40
1.0
 10
158.0051441332375
 20
557.1391111015364
 30
0.0
 10
158.0050658752527
 20
556.9634591817486
 30
0.0
 10
158.0049159549545
 20
556.7677186819858
 30
0.0
 10
158.0047818734865
 20
556.3368290052675
 30
0.0
 10
158.0048027762755
 20
556.1004727821733
 30
0.0
 10
158.0057293931262
 20
555.3471885216505
 30
0.0
 10
158.007827563531
 20
554.7830227792161
 30
0.0
 10
158.0053209633759
 20
554.1591369441327
 30
0.0
  0
SPLINE
  5
BA
330
1F
100
AcDbEntity
  8
0
  6
Continuous
 62
     8
370
     0
100
AcDbSpline
210
0.0
220
0.0
230
1.0
 70
     8
 71
     3
 72
     8
 73
     4
 74
     0
 42
0.00000001
 43
0.00000001
 40
0.0
 40
0.0
 40
0.0
 40
0.0
 40
1.0
 40
1.0
 40
1.0
 40
1.0
 10
158.0052134772934
 20
557.8733950678529
 30
0.0
 10
158.0052311537886
 20
557.7037422932736
 30
0.0
 10
158.0052866286013
 20
557.4589453559942
 30
0.0
 10
158.0051441332374
 20
557.1391111015364
 30
0.0
  0
SPLINE
  5
BB
330
1F
100
AcDbEntity
  8
0
  6
Continuous
 62
     8
370
     0
100
AcDbSpline
210
0.0
220
0.0
230
1.0
 70
     8
 71
     3
 72
     8
 73
     4
 74
     0
 42
0.00000001
 43
0.00000001
 40
0.0
 40
0.0
 40
0.0
 40
0.0
 40
1.0
 40
1.0
 40
1.0
 40
1.0
 10
158.0052137981389
 20
558.145135879972
 30
0.0
 10
158.0052138772503
 20
558.1445682463127
 30
0.0
 10
158.0051947085751
 20
558.0535306104264
 30
0.0
 10
158.0052134772933
 20
557.8733950678529
 30
0.0
  0
SPLINE
  5
BC
330
1F
100
AcDbEntity
  8
0
  6
Continuous
 62
     8
370
     0
100
AcDbSpline
210
0.0
220
0.0
230
1.0
 70
     8
 71
     3
 72
    10
 73
     6
 74
     0
 42
0.00000001
 43
0.00000001
 40
0.0
 40
0.0
 40
0.0
 40
0.0
 40
0.5
 40
0.5
 40
1.0
 40
1.0
 40
1.0
 40
1.0
 10
158.0065285903509
 20
552.1239492295825
 30
0.0
 10
158.0116450440676
 20
551.7967064529005
 30
0.0
 10
158.019360815612
 20
551.4665606547129
 30
0.0
 10
158.024068948506
 20
550.8020261155216
 30
0.0
 10
158.0211925213821
 20
550.4657756919094
 30
0.0
 10
158.0054476709365
 20
550.131595699728
 30
0.0
  0
SPLINE
  5
BD
330
1F
100
AcDbEntity
  8
0
  6
Continuous
 62
     8
370
     0
100
AcDbSpline
210
0.0
220
0.0
230
1.0
 70
     8
 71
     3
 72
     8
 73
     4
 74
     0
 42
0.00000001
 43
0.00000001
 40
0.0
 40
0.0
 40
0.0
 40
0.0
 40
1.0
 40
1.0
 40
1.0
 40
1.0
 10
160.577190615749
 20
557.8729316042673
 30
0.0
 10
160.5772094991429
 20
558.053346218795
 30
0.0
 10
160.5771902629447
 20
558.1445371559348
 30
0.0
 10
160.5771903432635
 20
558.1451355943491
 30
0.0
  0
SPLINE
  5
BE
330
1F
100
AcDbEntity
  8
0
  6
Continuous
 62
     8
370
     0
100
AcDbSpline
210
0.0
220
0.0
230
1.0
 70
     8
 71
     3
 72
     8
 73
     4
 74
     0
 42
0.00000001
 43
0.00000001
 40
0.0
 40
0.0
 40
0.0
 40
0.0
 40
1.0
 40
1.0
 40
1.0
 40
1.0
 10
160.5772599164148
 20
557.139317170161
 30
0.0
 10
160.5771176601889
 20
557.4587556533829
 30
0.0
 10
160.5771728640935
 20
557.7033297791274
 30
0.0
 10
160.5771906157489
 20
557.8729316042673
 30
0.0
  0
SPLINE
  5
BF
330
1F
100
AcDbEntity
  8
0
  6
Continuous
 62
     8
370
     0
100
AcDbSpline
210
0.0
220
0.0
230
1.0
 70
     8
 71
     3
 72
    12
 73
     8
 74
     0
 42
0.00000001
 43
0.00000001
 40
0.0
 40
0.0
 40
0.0
 40
0.0
 40
0.4999999999999967
 40
0.4999999999999967
 40
0.7499999999999983
 40
0.7499999999999983
 40
1.0
 40
1.0
 40
1.0
 40
1.0
 10
160.5771400708513
 20
554.1451640753721
 30
0.0
 10
160.5745532050549
 20
554.7721723494564
 30
0.0
 10
160.5766568720981
 20
555.3391572187337
 30
0.0
 10
160.5776000447481
 20
556.0962019169154
 30
0.0
 10
160.577622588393
 20
556.3336920923874
 30
0.0
 10
160.5774892277363
 20
556.7664583346613
 30
0.0
 10
160.5773384345632
 20
556.963003492931
 30
0.0
 10
160.5772599164147
 20
557.1393171701609
 30
0.0
  0
SPLINE
  5
C0
330
1F
100
AcDbEntity
  8
0
  6
Continuous
 62
     8
370
     0
100
AcDbSpline
210
0.0
220
0.0
230
1.0
 70
     8
 71
     3
 72
     8
 73
     4
 74
     0
 42
0.00000001
 43
0.00000001
 40
0.0
 40
0.0
 40
0.0
 40
0.0
 40
1.0
 40
1.0
 40
1.0
 40
1.0
 10
160.5767503666036
 20
552.1818377753694
 30
0.0
 10
160.5868436822167
 20
552.8752545175664
 30
0.0
 10
160.5796872086834
 20
553.5277851226716
 30
0.0
 10
160.5771400708513
 20
554.1451640753721
 30
0.0
  0
SPLINE
  5
C1
330
1F
100
AcDbEntity
  8
0
  6
Continuous
 62
     8
370
     0
100
AcDbSpline
210
0.0
220
0.0
230
1.0
 70
     8
 71
     3
 72
     8
 73
     4
 74
     0
 42
0.00000001
 43
0.00000001
 40
0.0
 40
0.0
 40
0.0
 40
0.0
 40
1.0
 40
1.0
 40
1.0
 40
1.0
 10
160.5769536396746
 20
550.1316557830393
 30
0.0
 10
160.5443453683008
 20
550.8237883029788
 30
0.0
 10
160.5669575053066
 20
551.5090624220892
 30
0.0
 10
160.5767503666036
 20
552.1818377753694
 30
0.0
  0
SPLINE
  5
C2
330
1F
100
AcDbEntity
  8
0
  6
Continuous
 62
     8
370
     0
100
AcDbSpline
210
0.0
220
0.0
230
1.0
 70
     8
 71
     3
 72
    10
 73
     6
 74
     0
 42
0.00000001
 43
0.00000001
 40
0.0
 40
0.0
 40
0.0
 40
0.0
 40
0.6372519835680507
 40
0.9494199624240592
 40
1.0
 40
1.0
 40
1.0
 40
1.0
 10
146.0289277825705
 20
486.9948446387997
 30
0.0
 10
147.3833374264185
 20
487.8168535644886
 30
0.0
 10
149.4012260895012
 20
489.0415365838651
 30
0.0
 10
151.8665471219745
 20
489.9902322433653
 30
0.0
 10
152.8197827369432
 20
490.2187375428491
 30
0.0
 10
152.9526978489212
 20
490.2505993480435
 30
0.0
  0
LWPOLYLINE
  5
C3
330
1F
100
AcDbEntity
  8
0
  6
Continuous
 62
     8
370
     0
100
AcDbPolyline
 90
       50
 70
   128
 43
0.0
 10
165.6387055051
 20
490.2383282418
 10
167.2682550494
 20
489.7391765947
 10
169.5292575974
 20
488.7744456167
 10
173.5686867256
 20
486.246769094
 10
176.9198032785
 20
483.0579802031
 10
179.4977656324
 20
479.4118150706
 10
180.816754954
 20
476.7365201945
 10
181.819048034
 20
473.8367840285
 10
182.5068483819
 20
470.546570384
 10
182.6840827931
 20
469.0957039232
 10
182.8176437635
 20
467.366968059
 10
182.8969775457
 20
465.1934101815
 10
182.8999167998
 20
462.7134322757
 10
182.824790733
 20
460.4820802445
 10
182.6920269747
 20
458.6881741519
 10
182.2943596859
 20
455.8754384155
 10
181.4919861723
 20
452.7475282187
 10
180.3770086486
 20
449.9354630346
 10
178.9471435119
 20
447.3351135487
 10
176.1647167374
 20
443.7615841264
 10
172.6274176259
 20
440.7107837136
 10
170.5876358543
 20
439.432711118
 10
168.3912726809
 20
438.3559271331
 10
166.0631036144
 20
437.5088519985
 10
163.6344252844
 20
436.9084469611
 10
161.1660827408
 20
436.5731894607
 10
158.6604761183
 20
436.5068196888
 10
156.1486588549
 20
436.711669677
 10
153.6885125321
 20
437.1844350929
 10
151.3054457251
 20
437.9155531163
 10
149.038134398
 20
438.8853691156
 10
144.963517109
 20
441.4448186393
 10
141.6213701237
 20
444.6470483775
 10
139.0325392354
 20
448.3369484181
 10
137.7302876432
 20
451.0137259598
 10
136.7384048868
 20
453.9294212694
 10
136.0555722136
 20
457.281027698
 10
135.8793492187
 20
458.7916925187
 10
135.7502697725
 20
460.5924754972
 10
135.6789435018
 20
462.8401144976
 10
135.6861184109
 20
465.3097435469
 10
135.768376546
 20
467.4529179568
 10
135.9061657209
 20
469.1816612715
 10
136.3128500749
 20
471.930851006
 10
137.1263063271
 20
475.0262319679
 10
138.2462571133
 20
477.8128161664
 10
139.6810806114
 20
480.397750401
 10
142.4782241453
 20
483.9558720226
 10
146.0289277826
 20
486.9948446388
 10
146.0289277826
 20
486.9948446388
  0
LINE
  5
C4
330
1F
100
AcDbEntity
  8
0
  6
Continuous
 62
     8
370
     0
100
AcDbLine
 10
135.2192017008
 20
509.176765346
 30
0.0
 11
155.2579568457
 21
509.176765346
 31
0.0
  0
LINE
  5
C5
330
1F
100
AcDbEntity
  8
0
  6
Continuous
 62
     8
370
     0
100
AcDbLine
 10
163.3221318703
 20
509.176765346
 30
0.0
 11
183.3632013519
 21
509.176765346
 31
0.0
  0
LINE
  5
C6
330
1F
100
AcDbEntity
  8
0
  6
Continuous
 62
     8
370
     0
100
AcDbLine
 10
135.2192017008
 20
508.2593455548
 30
0.0
 11
155.2579568457
 21
508.2593455548
 31
0.0
  0
LINE
  5
C7
330
1F
100
AcDbEntity
  8
0
  6
Continuous
 62
     8
370
     0
100
AcDbLine
 10
163.3221318703
 20
508.2593455548
 30
0.0
 11
183.3632013519
 21
508.2593455548
 31
0.0
  0
LINE
  5
C8
330
1F
100
AcDbEntity
  8
0
  6
Continuous
 62
     8
370
     0
100
AcDbLine
 10
138.2703951318
 20
515.2261748547
 30
0.0
 11
155.2489351239
 21
515.2261748547
 31
0.0
  0
LINE
  5
C9
330
1F
100
AcDbEntity
  8
0
  6
Continuous
 62
     8
370
     0
100
AcDbLine
 10
163.3101797421
 20
515.2261748547
 30
0.0
 11
180.3120079208
 21
515.2261748547
 31
0.0
  0
LINE
  5
CA
330
1F
100
AcDbEntity
  8
0
  6
Continuous
 62
     8
370
     0
100
AcDbLine
 10
146.6208354328
 20
521.3982432718
 30
0.0
 11
155.224947514
 21
521.3982432718
 31
0.0
  0
LINE
  5
CB
330
1F
100
AcDbEntity
  8
0
  6
Continuous
 62
     8
370
     0
100
AcDbLine
 10
163.3608311173
 20
521.3982432718
 30
0.0
 11
171.9615685512
 21
521.3982432718
 31
0.0
  0
LINE
  5
CC
330
1F
100
AcDbEntity
  8
0
  6
Continuous
 62
     7
370
    15
100
AcDbLine
 10
183.1626020707
 20
495.9199471997
 30
0.0
 11
163.5739999808
 21
495.9199471997
 31
0.0
  0
LINE
  5
CD
330
1F
100
AcDbEntity
  8
0
  6
Continuous
 62
     7
370
    15
100
AcDbLine
 10
155.1221548755
 20
495.9199471997
 30
0.0
 11
135.4198020707
 21
495.9199471997
 31
0.0
  0
SPLINE
  5
CE
330
1F
100
AcDbEntity
  8
0
  6
Continuous
 62
     7
370
    15
100
AcDbSpline
210
0.0
220
0.0
230
1.0
 70
     8
 71
     3
 72
     9
 73
     5
 74
     0
 42
0.00000001
 43
0.00000001
 40
0.0
 40
0.0
 40
0.0
 40
0.0
 40
0.4524797771187865
 40
1.0
 40
1.0
 40
1.0
 40
1.0
 10
261.5528494874967
 20
495.7193478579273
 30
0.0
 10
261.5817761085814
 20
480.3190832957242
 30
0.0
 10
261.6457052001065
 20
446.2838283717009
 30
0.0
 10
261.5855999839858
 20
412.2484846691381
 30
0.0
 10
261.552691162659
 20
393.6134456992721
 30
0.0
  0
LINE
  5
CF
330
1F
100
AcDbEntity
  8
0
  6
Continuous
 62
     7
370
    15
100
AcDbLine
 10
309.6908737729
 20
491.1256029839
 30
0.0
 11
309.6958563487
 21
495.7193478579
 31
0.0
  0
LINE
  5
D0
330
1F
100
AcDbEntity
  8
0
  6
Continuous
 62
     7
370
    15
100
AcDbLine
 10
309.6971192221
 20
393.6134456993
 30
0.0
 11
309.6396193664
 21
436.5212551887
 31
0.0
  0
ARC
  5
D1
330
1F
100
AcDbEntity
  8
0
  6
Continuous
 62
     7
370
    15
100
AcDbCircle
 10
309.4959666658
 20
495.7193471997
 30
0.0
 40
0.2006000000000654
100
AcDbArc
 50
359.19448608
 51
90.0
  0
ARC
  5
D2
330
1F
100
AcDbEntity
  8
0
  6
Continuous
 62
     7
370
    15
100
AcDbCircle
 10
261.7531666658
 20
495.7193471997
 30
0.0
 40
0.2006000000000654
100
AcDbArc
 50
90.0
 51
177.0218767457
  0
LINE
  5
D3
330
1F
100
AcDbEntity
  8
0
  6
Continuous
 62
     7
370
    15
100
AcDbLine
 10
261.5525663654
 20
509.176765346
 30
0.0
 11
261.5525663654
 21
508.2593455548
 31
0.0
  0
LINE
  5
D4
330
1F
100
AcDbEntity
  8
0
  6
Continuous
 62
     7
370
    15
100
AcDbLine
 10
309.6965660165
 20
508.2593455548
 30
0.0
 11
309.6965660165
 21
509.176765346
 31
0.0
  0
ARC
  5
D5
330
1F
100
AcDbEntity
  8
0
  6
Continuous
 62
     7
370
    15
100
AcDbCircle
 10
261.7531666658
 20
496.1205471997
 30
0.0
 40
0.2006000000000085
100
AcDbArc
 50
180.0
 51
270.0
  0
ARC
  5
D6
330
1F
100
AcDbEntity
  8
0
  6
Continuous
 62
     7
370
    15
100
AcDbCircle
 10
309.4959666658
 20
496.1205471997
 30
0.0
 40
0.2006000000000085
100
AcDbArc
 50
270.0
 51
0.0
  0
ARC
  5
D7
330
1F
100
AcDbEntity
  8
0
  6
Continuous
 62
     7
370
    15
100
AcDbCircle
 10
269.0750666658
 20
509.1767619639
 30
0.0
 40
7.52249999999998
100
AcDbArc
 50
126.46923439
 51
180.0
  0
ARC
  5
D8
330
1F
100
AcDbEntity
  8
0
  6
Continuous
 62
     7
370
    15
100
AcDbCircle
 10
302.1740666658
 20
509.1767619639
 30
0.0
 40
7.522500000000036
100
AcDbArc
 50
0.0
 51
53.53076561
  0
LINE
  5
D9
330
1F
100
AcDbEntity
  8
0
  6
Continuous
 62
     7
370
    15
100
AcDbLine
 10
261.5525663654
 20
508.2593455548
 30
0.0
 11
261.5525663654
 21
496.1205467219
 31
0.0
  0
LINE
  5
DA
330
1F
100
AcDbEntity
  8
0
  6
Continuous
 62
     7
370
    15
100
AcDbLine
 10
309.6965660165
 20
496.1205467219
 30
0.0
 11
309.6965660165
 21
508.2593455548
 31
0.0
  0
SPLINE
  5
DB
330
1F
100
AcDbEntity
  8
0
  6
Continuous
 62
     7
370
    15
100
AcDbSpline
210
0.0
220
0.0
230
1.0
 70
     8
 71
     3
 72
    13
 73
     9
 74
     0
 42
0.00000001
 43
0.00000001
 40
0.0
 40
0.0
 40
0.0
 40
0.0
 40
0.1928580396594914
 40
0.4334077024821294
 40
0.5694488064938347
 40
0.7119234562490193
 40
0.8568705569874365
 40
1.0
 40
1.0
 40
1.0
 40
1.0
 10
309.6366428594125
 20
436.4980578059902
 30
0.0
 10
309.6746234976998
 20
436.9277234130176
 30
0.0
 10
309.7599769587635
 20
437.8933060970797
 30
0.0
 10
310.4004211399806
 20
439.0370303819078
 30
0.0
 10
311.2195145688904
 20
439.855293532336
 30
0.0
 10
312.022028244809
 20
440.3592854935497
 30
0.0
 10
312.9315150018124
 20
440.6916977031201
 30
0.0
 10
313.5726248641924
 20
440.7335097929559
 30
0.0
 10
313.8911572108997
 20
440.7542839283695
 30
0.0
  0
SPLINE
  5
DC
330
1F
100
AcDbEntity
  8
0
  6
Continuous
 62
     7
370
    15
100
AcDbSpline
210
0.0
220
0.0
230
1.0
 70
     8
 71
     3
 72
    13
 73
     9
 74
     0
 42
0.00000001
 43
0.00000001
 40
0.0
 40
0.0
 40
0.0
 40
0.0
 40
0.1431088329123044
 40
0.2880566763146004
 40
0.430545733032546
 40
0.5666053678214299
 40
0.8071689453702791
 40
1.0
 40
1.0
 40
1.0
 40
1.0
 10
313.9359221617711
 20
486.8922724957218
 30
0.0
 10
313.6173610334466
 20
486.9130751162036
 30
0.0
 10
312.976145128315
 20
486.954947679851
 30
0.0
 10
312.0665615233943
 20
487.2877815840729
 30
0.0
 10
311.264099466635
 20
487.7924365311276
 30
0.0
 10
310.4454647767442
 20
488.6116988646763
 30
0.0
 10
309.80621670857
 20
489.7565668425519
 30
0.0
 10
309.7224707218202
 20
490.7225114769188
 30
0.0
 10
309.6852094690336
 20
491.152290963625
 30
0.0
  0
LINE
  5
DD
330
1F
100
AcDbEntity
  8
0
  6
Continuous
 62
     7
370
    15
100
AcDbLine
 10
313.8673768203
 20
440.7544441159
 30
0.0
 11
338.5829680423
 21
440.7544441159
 31
0.0
  0
LINE
  5
DE
330
1F
100
AcDbEntity
  8
0
  6
Continuous
 62
     7
370
    15
100
AcDbLine
 10
338.5829680423
 20
486.8924438591
 30
0.0
 11
313.9100407074
 21
486.8924438591
 31
0.0
  0
ARC
  5
DF
330
1F
100
AcDbEntity
  8
0
  6
Continuous
 62
     7
370
    15
100
AcDbCircle
 10
338.2820666658
 20
486.4912456997
 30
0.0
 40
0.5015006363846123
100
AcDbArc
 50
0.0000000001
 51
53.1298539429
  0
ARC
  5
E0
330
1F
100
AcDbEntity
  8
0
  6
Continuous
 62
     7
370
    15
100
AcDbCircle
 10
338.2820666658
 20
441.1556456997
 30
0.0
 40
0.5015006363846237
100
AcDbArc
 50
306.8701460571
 51
359.9999999999
  0
LINE
  5
E1
330
1F
100
AcDbEntity
  8
0
  6
Continuous
 62
     7
370
    15
100
AcDbLine
 10
340.7895655195
 20
485.8894466991
 30
0.0
 11
338.7835674743
 21
485.8894466991
 31
0.0
  0
LINE
  5
E2
330
1F
100
AcDbEntity
  8
0
  6
Continuous
 62
     7
370
    15
100
AcDbLine
 10
338.7835674743
 20
441.7574450011
 30
0.0
 11
340.7895655195
 21
441.7574450011
 31
0.0
  0
ARC
  5
E3
330
1F
100
AcDbEntity
  8
0
  6
Continuous
 62
     7
370
    15
100
AcDbCircle
 10
340.8632529686
 20
463.8233226669
 30
0.0
 40
22.06600000000003
100
AcDbArc
 50
269.814547584
 51
299.1523949518
  0
ARC
  5
E4
330
1F
100
AcDbEntity
  8
0
  6
Continuous
 62
     7
370
    15
100
AcDbCircle
 10
340.8632529686
 20
463.8233226669
 30
0.0
 40
22.066
100
AcDbArc
 50
74.3721526114
 51
90.1842848233
  0
LINE
  5
E5
330
1F
100
AcDbEntity
  8
0
  6
Continuous
 62
     7
370
    15
100
AcDbLine
 10
306.6453725855
 20
515.2261748547
 30
0.0
 11
298.2949332158
 21
521.3982432718
 31
0.0
  0
LINE
  5
E6
330
1F
100
AcDbEntity
  8
0
  6
Continuous
 62
     7
370
    15
100
AcDbLine
 10
272.9542000975
 20
521.3982432718
 30
0.0
 11
264.6037597965
 21
515.2261748547
 31
0.0
  0
ARC
  5
E7
330
1F
100
AcDbEntity
  8
0
  6
Continuous
 62
     7
370
    15
100
AcDbCircle
 10
245.1716813909
 20
463.8234456997
 30
0.0
 40
133.730653226773
100
AcDbArc
 50
351.1727494786
 51
0.0
  0
SPLINE
  5
E8
330
1F
100
AcDbEntity
  8
0
  6
Continuous
 62
     7
370
    15
100
AcDbSpline
210
0.0
220
0.0
230
1.0
 70
     8
 71
     3
 72
    12
 73
     8
 74
     0
 42
0.00000001
 43
0.00000001
 40
0.0
 40
0.0
 40
0.0
 40
0.0
 40
0.3373184188164006
 40
0.6121216824911312
 40
0.7236138391545804
 40
0.8211598434034618
 40
1.0
 40
1.0
 40
1.0
 40
1.0
 10
361.351063178016
 20
500.3668486709347
 30
0.0
 10
361.3259171038237
 20
499.5932445188335
 30
0.0
 10
361.2802852723434
 20
498.189408117525
 30
0.0
 10
361.1154648358648
 20
496.5123630265869
 30
0.0
 10
360.878021983537
 20
495.3902996744661
 30
0.0
 10
360.6335388046126
 20
494.5147401866577
 30
0.0
 10
360.4621483771342
 20
494.0172392186261
 30
0.0
 10
360.351247415973
 20
493.695323132967
 30
0.0
  0
ARC
  5
E9
330
1F
100
AcDbEntity
  8
0
  6
Continuous
 62
     7
370
    15
100
AcDbCircle
 10
273.2522872949
 20
520.9949471997
 30
0.0
 40
0.5015000000000782
100
AcDbArc
 50
90.0
 51
126.46923439
  0
ARC
  5
EA
330
1F
100
AcDbEntity
  8
0
  6
Continuous
 62
     7
370
    15
100
AcDbCircle
 10
297.9968460367
 20
520.9949471997
 30
0.0
 40
0.5015000000000782
100
AcDbArc
 50
53.53076561
 51
90.0
  0
SPLINE
  5
EB
330
1F
100
AcDbEntity
  8
0
  6
Continuous
 62
     7
370
    15
100
AcDbSpline
210
0.0
220
0.0
230
1.0
 70
     8
 71
     3
 72
     9
 73
     5
 74
     0
 42
0.00000001
 43
0.00000001
 40
0.0
 40
0.0
 40
0.0
 40
0.0
 40
0.5100814256752852
 40
1.0
 40
1.0
 40
1.0
 40
1.0
 10
506.7048721770776
 20
661.1870050067654
 30
0.0
 10
506.7116343416822
 20
661.1993229855459
 30
0.0
 10
506.7248913713725
 20
661.2234720295229
 30
0.0
 10
506.7227764371218
 20
661.2493428545173
 30
0.0
 10
506.7217402915491
 20
661.2620174522152
 30
0.0
  0
LINE
  5
EC
330
1F
100
AcDbEntity
  8
0
  6
Continuous
 62
     7
370
    15
100
AcDbLine
 10
506.7217402915
 20
661.2620174522
 30
0.0
 11
505.5199765424
 21
668.0775701637
 31
0.0
  0
LINE
  5
ED
330
1F
100
AcDbEntity
  8
0
  6
Continuous
 62
     7
370
    15
100
AcDbLine
 10
483.7892108421
 20
664.245855772
 30
0.0
 11
484.9909745912
 21
657.4302732582
 31
0.0
  0
ARC
  5
EE
330
1F
100
AcDbEntity
  8
0
  6
Continuous
 62
     7
370
    15
100
AcDbCircle
 10
390.9395666669
 20
647.8739456997
 30
0.0
 40
94.28200000139344
100
AcDbArc
 50
10.0000000015
 51
180.0
  0
ARC
  5
EF
330
1F
100
AcDbEntity
  8
0
  6
Continuous
 62
     7
370
    15
100
AcDbCircle
 10
390.9395666669
 20
647.8739456997
 30
0.0
 40
116.3480000035734
100
AcDbArc
 50
10.0000000005
 51
180.0
  0
LINE
  5
F0
330
1F
100
AcDbEntity
  8
0
  6
Continuous
 62
     7
370
    15
100
AcDbLine
 10
485.2059536438
 20
657.3663472767
 30
0.0
 11
485.0432329635
 21
657.1339487667
 31
0.0
  0
LINE
  5
F1
330
1F
100
AcDbEntity
  8
0
  6
Continuous
 62
     7
370
    15
100
AcDbLine
 10
485.0432329635
 20
657.1339487667
 30
0.0
 11
492.4628340463
 21
615.0552898283
 31
0.0
  0
LINE
  5
F2
330
1F
100
AcDbEntity
  8
0
  6
Continuous
 62
     7
370
    15
100
AcDbLine
 10
492.4628340463
 20
615.0552898283
 30
0.0
 11
492.6952176551
 21
614.892569148
 31
0.0
  0
LINE
  5
F3
330
1F
100
AcDbEntity
  8
0
  6
Continuous
 62
     7
370
    15
100
AcDbLine
 10
274.5915666978
 20
647.8739499683
 30
0.0
 11
274.5915666978
 21
521.4964419241
 31
0.0
  0
LINE
  5
F4
330
1F
100
AcDbEntity
  8
0
  6
Continuous
 62
     7
370
    15
100
AcDbLine
 10
296.6575666155
 20
521.4964419241
 30
0.0
 11
296.6575666155
 21
647.8739499683
 31
0.0
  0
LINE
  5
F5
330
1F
100
AcDbEntity
  8
0
  6
Continuous
 62
     7
370
    15
100
AcDbLine
 10
349.0328022103
 20
487.745542788
 30
0.0
 11
348.8135688762
 21
487.1431931491
 31
0.0
  0
LINE
  5
F6
330
1F
100
AcDbEntity
  8
0
  6
Continuous
 62
     7
370
    15
100
AcDbLine
 10
348.8135688762
 20
487.1431931491
 30
0.0
 11
348.8135688762
 21
486.8997305269
 31
0.0
  0
ARC
  5
F7
330
1F
100
AcDbEntity
  8
0
  6
Continuous
 62
     7
370
    15
100
AcDbCircle
 10
349.2213061166
 20
487.676935471
 30
0.0
 40
0.2006000000000085
100
AcDbArc
 50
90.0
 51
160.0
  0
LINE
  5
F8
330
1F
100
AcDbEntity
  8
0
  6
Continuous
 62
     7
370
    15
100
AcDbLine
 10
355.3781785826
 20
487.8775372739
 30
0.0
 11
349.22130935
 21
487.8775372739
 31
0.0
  0
LINE
  5
F9
330
1F
100
AcDbEntity
  8
0
  6
Continuous
 62
     7
370
    15
100
AcDbLine
 10
377.4953015904
 20
500.3668486709
 30
0.0
 11
377.4981626133
 21
515.3349905843
 31
0.0
  0
LINE
  5
FA
330
1F
100
AcDbEntity
  8
0
  6
Continuous
 62
     7
370
    15
100
AcDbLine
 10
361.3522701721
 20
515.3343051309
 30
0.0
 11
361.355131195
 21
500.3668486709
 31
0.0
  0
LINE
  5
FB
330
1F
100
AcDbEntity
  8
0
  6
Continuous
 62
     7
370
    15
100
AcDbLine
 10
361.0030093054
 20
496.5656518574
 30
0.0
 11
360.9960579137
 21
496.5016290183
 31
0.0
  0
SPLINE
  5
FC
330
1F
100
AcDbEntity
  8
0
  6
Continuous
 62
     7
370
    15
100
AcDbSpline
210
0.0
220
0.0
230
1.0
 70
    24
 71
     3
 72
    37
 73
    33
 74
     0
 42
0.00000001
 43
0.00000001
 40
0.0
 40
0.0
 40
0.0
 40
0.0
 40
0.0045193598208683
 40
0.0318367802964881
 40
0.0596017703989779
 40
0.1135279262495481
 40
0.1408038034260773
 40
0.1685444558689337
 40
0.2224510518483155
 40
0.2497139987716477
 40
0.2774424998501032
 40
0.3313645568040759
 40
0.3586329465063315
 40
0.3863658836180358
 40
0.4403289170637141
 40
0.4676178036304365
 40
0.4953692488639004
 40
0.5223073369131526
 40
0.5767312550548852
 40
0.6045221900414852
 40
0.6314708148319118
 40
0.6586114042288327
 40
0.6859697832884466
 40
0.7137766569631406
 40
0.7677436401407309
 40
0.7950661545446795
 40
0.8228364413835534
 40
0.8767587967515039
 40
0.9040322000267792
 40
0.9317702662155518
 40
0.9656955681390192
 40
1.0
 40
1.0
 40
1.0
 40
1.0
 10
309.6711967895759
 20
393.6134456992721
 30
0.0
 10
309.6799414133239
 20
393.6134456992721
 30
0.0
 10
309.7415432056299
 20
393.6134456992721
 30
0.0
 10
309.5854951435953
 20
393.6134456992721
 30
0.0
 10
309.2358346894549
 20
393.6134456992721
 30
0.0
 10
308.5041138695944
 20
393.6134456992721
 30
0.0
 10
307.4665754295801
 20
393.6134456992721
 30
0.0
 10
306.2185575864287
 20
393.6134456992721
 30
0.0
 10
304.6744561258137
 20
393.6134456992721
 30
0.0
 10
302.869244435862
 20
393.6134456992721
 30
0.0
 10
300.8979840471392
 20
393.6134456992721
 30
0.0
 10
298.7003518491864
 20
393.6134456992721
 30
0.0
 10
296.3308867632954
 20
393.6134456992721
 30
0.0
 10
293.8571135869294
 20
393.6134456992721
 30
0.0
 10
291.2524397893285
 20
393.6134456992721
 30
0.0
 10
288.5828777131952
 20
393.6134456992721
 30
0.0
 10
286.5526820526125
 20
393.6134456992721
 30
0.0
 10
283.8431188090898
 20
393.6134456992721
 30
0.0
 10
281.1426961452968
 20
393.6134456992721
 30
0.0
 10
278.5203521336301
 20
393.6134456992721
 30
0.0
 10
276.6038173682791
 20
393.6134456992721
 30
0.0
 10
274.7615227101879
 20
393.6134456992721
 30
0.0
 10
272.9769759443591
 20
393.6134456992721
 30
0.0
 10
270.7316588132287
 20
393.6134456992721
 30
0.0
 10
268.6875706520129
 20
393.6134456992721
 30
0.0
 10
266.8962115229781
 20
393.6134456992721
 30
0.0
 10
265.2829494971537
 20
393.6134456992721
 30
0.0
 10
263.9497560724658
 20
393.6134456992721
 30
0.0
 10
262.9309043491576
 20
393.6134456992721
 30
0.0
 10
262.2793781879673
 20
393.6134456992721
 30
0.0
 10
261.777522629074
 20
393.6134456992721
 30
0.0
 10
261.645629047561
 20
393.6134456992721
 30
0.0
 10
261.5793158124221
 20
393.6134456992721
 30
0.0
  0
LINE
  5
FD
330
1F
100
AcDbEntity
  8
0
  6
Continuous
 62
     7
370
    15
100
AcDbLine
 10
261.7531657974
 20
495.9199472899
 30
0.0
 11
309.4959665845
 21
495.9199472899
 31
0.0
  0
LINE
  5
FE
330
1F
100
AcDbEntity
  8
0
  6
Continuous
 62
     7
370
    15
100
AcDbLine
 10
348.0828792612
 20
486.8924438591
 30
0.0
 11
347.0081665377
 21
486.8924438591
 31
0.0
  0
LINE
  5
FF
330
1F
100
AcDbEntity
  8
0
  6
Continuous
 62
     7
370
    15
100
AcDbLine
 10
338.7835674743
 20
441.1556467051
 30
0.0
 11
338.7835674743
 21
486.4912449951
 31
0.0
  0
SPLINE
  5
100
330
1F
100
AcDbEntity
  8
0
  6
Continuous
 62
     7
370
    15
100
AcDbSpline
210
0.0
220
0.0
230
1.0
 70
     8
 71
     3
 72
     8
 73
     4
 74
     0
 42
0.00000001
 43
0.00000001
 40
0.0
 40
0.0
 40
0.0
 40
0.0
 40
1.0
 40
1.0
 40
1.0
 40
1.0
 10
346.9565335985503
 20
463.2259719662238
 30
0.0
 10
346.8572190010253
 20
463.6243010603987
 30
0.0
 10
346.8075666658244
 20
464.0287146539737
 30
0.0
 10
346.8075666658244
 20
464.4392102726562
 30
0.0
  0
LWPOLYLINE
  5
101
330
1F
100
AcDbEntity
  8
0
  6
Continuous
 62
     7
370
    15
100
AcDbPolyline
 90
        8
 70
   128
 43
0.0
 10
351.3386749486
 20
445.650168472
 10
350.8607574563
 20
447.5669830675
 10
350.3174611191
 20
449.7460394735
 10
349.7175627212
 20
452.1520778174
 10
349.0707852702
 20
454.7461725409
 10
348.3875819306
 20
457.4863507981
 10
347.6790093641
 20
460.3282779093
 10
346.9565340142
 20
463.2259726162
  0
LINE
  5
102
330
1F
100
AcDbEntity
  8
0
  6
Continuous
 62
     7
370
    15
100
AcDbLine
 10
346.8075671057
 20
464.4392102594
 30
0.0
 11
346.8075671057
 21
486.6918444271
 31
0.0
  0
ARC
  5
103
330
1F
100
AcDbEntity
  8
0
  6
Continuous
 62
     7
370
    15
100
AcDbCircle
 10
347.0081666658
 20
486.6918456997
 30
0.0
 40
0.2006000000000085
100
AcDbArc
 50
90.0
 51
180.0
  0
LINE
  5
104
330
1F
100
AcDbEntity
  8
0
  6
Continuous
 62
     7
370
    15
100
AcDbLine
 10
377.4836861352
 20
500.3668486709
 30
0.0
 11
377.4993696074
 21
500.3668486709
 31
0.0
  0
SPLINE
  5
105
330
1F
100
AcDbEntity
  8
0
  6
Continuous
 62
     7
370
    15
100
AcDbSpline
210
0.0
220
0.0
230
1.0
 70
     8
 71
     3
 72
    87
 73
    83
 74
     0
 42
0.00000001
 43
0.00000001
 40
0.0
 40
0.0
 40
0.0
 40
0.0
 40
0.0335711687056576
 40
0.067018047056459
 40
0.093392457496776
 40
0.120000673279818
 40
0.1470335355119635
 40
0.1735983359606556
 40
0.199756465814821
 40
0.2255699789452433
 40
0.25
 40
0.265591756233596
 40
0.3051824309723724
 40
0.3433879332470948
 40
0.375
 40
0.3817705848771541
 40
0.41229599014316
 40
0.4375
 40
0.4433947353476333
 40
0.4671842114838626
 40
0.4858887679867854
 40
0.5
 40
0.5209692807633557
 40
0.5485897842611636
 40
0.5625
 40
0.5674875894953508
 40
0.5685180150510237
 40
0.5830082359460304
 40
0.5841659094457906
 40
0.5979164154117349
 40
0.5991825692971162
 40
0.6096119775388815
 40
0.6109498247093306
 40
0.6301940187506019
 40
0.6316138840422743
 40
0.646292597575724
 40
0.6477198529092457
 40
0.6637500644552602
 40
0.6651096701025327
 40
0.6773868022334969
 40
0.6786298836040341
 40
0.6875
 40
0.6946697917715647
 40
0.6956818423244244
 40
0.7089223372078133
 40
0.7319585354591802
 40
0.749823589420505
 40
0.7673203212028574
 40
0.7810065472781169
 40
0.7970962540561054
 40
0.7980441722344717
 40
0.8097465277826166
 40
0.8108284135345581
 40
0.81590416886141
 40
0.8170368185464351
 40
0.8207486726336523
 40
0.8219144691504365
 40
0.8344204272246287
 40
0.8356473365345608
 40
0.8452134698577592
 40
0.846455229453319
 40
0.8616419003517818
 40
0.8628526543862504
 40
0.8746568686308852
 40
0.8934928481118956
 40
0.8944872684224783
 40
0.9084687759026806
 40
0.9093094680265338
 40
0.9208420823870498
 40
0.9215413730080736
 40
0.9306486505172666
 40
0.9312315391616997
 40
0.9416884209708023
 40
0.9504336215008937
 40
0.9618939958568822
 40
0.9709780577471064
 40
0.9784837120550812
 40
0.9844157704527053
 40
0.9898246057161714
 40
0.9940926327471847
 40
0.9962937090941468
 40
1.0
 40
1.0
 40
1.0
 40
1.0
 10
378.9023346176849
 20
463.8234456997281
 30
0.0
 10
378.9023346176849
 20
464.2701292905207
 30
0.0
 10
378.8971793860396
 20
465.1621431209465
 30
0.0
 10
378.8774131267344
 20
466.4029344746942
 30
0.0
 10
378.8501746835285
 20
467.5467908540134
 30
0.0
 10
378.8185585700869
 20
468.6004796254567
 30
0.0
 10
378.7813316865934
 20
469.6496257098512
 30
0.0
 10
378.7397811909884
 20
470.6841732331621
 30
0.0
 10
378.6953965034984
 20
471.6928416914609
 30
0.0
 10
378.6497608663221
 20
472.6629092842059
 30
0.0
 10
378.609104400636
 20
473.4882391304812
 30
0.0
 10
378.5593082961353
 20
474.4749454862632
 30
0.0
 10
378.4999757072555
 20
475.614387704079
 30
0.0
 10
378.4293700090282
 20
476.9210088130794
 30
0.0
 10
378.3795142939442
 20
477.8187707419403
 30
0.0
 10
378.3345506594446
 20
478.6185031460394
 30
0.0
 10
378.293693684037
 20
479.336878158995
 30
0.0
 10
378.2534314037764
 20
480.035338760555
 30
0.0
 10
378.2176353179978
 20
480.6527416580627
 30
0.0
 10
378.186143530391
 20
481.1931078452936
 30
0.0
 10
378.1494863881547
 20
481.8188941197168
 30
0.0
 10
378.1148307659719
 20
482.4089944948615
 30
0.0
 10
378.0746877432204
 20
483.0914300851304
 30
0.0
 10
378.0351561628502
 20
483.7664657542909
 30
0.0
 10
378.0061468488522
 20
484.2675533363349
 30
0.0
 10
377.9938105182908
 20
484.4821506830688
 30
0.0
 10
377.9811462369333
 20
484.7029949285115
 30
0.0
 10
377.9709127623369
 20
484.8826086949862
 30
0.0
 10
377.9530046777328
 20
485.1994777008388
 30
0.0
 10
377.9432208446984
 20
485.3739631596954
 30
0.0
 10
377.9279480626838
 20
485.6489048856781
 30
0.0
 10
377.9201734449222
 20
485.7899098666178
 30
0.0
 10
377.9017973291786
 20
486.1259878540928
 30
0.0
 10
377.8889133295004
 20
486.3651614204048
 30
0.0
 10
377.8684926463548
 20
486.7510630012606
 30
0.0
 10
377.8584736497468
 20
486.9430980727425
 30
0.0
 10
377.8403142818828
 20
487.2967398381455
 30
0.0
 10
377.8298166581233
 20
487.5047922545823
 30
0.0
 10
377.8134953719529
 20
487.8346536378318
 30
0.0
 10
377.8053999477592
 20
488.0008360991719
 30
0.0
 10
377.7933611662189
 20
488.252134860169
 30
0.0
 10
377.7841513523846
 20
488.4468332161206
 30
0.0
 10
377.7751991696522
 20
488.6401487771946
 30
0.0
 10
377.7640412779369
 20
488.8838389952157
 30
0.0
 10
377.7448893923913
 20
489.3105493657367
 30
0.0
 10
377.7180445199118
 20
489.9424880361168
 30
0.0
 10
377.6905763074089
 20
490.6365455333104
 30
0.0
 10
377.66857566607
 20
491.2312347426573
 30
0.0
 10
377.6484121702635
 20
491.8112560420545
 30
0.0
 10
377.6358909391315
 20
492.194830317037
 30
0.0
 10
377.6245358776476
 20
492.5561339419037
 30
0.0
 10
377.6192376352985
 20
492.7296473209633
 30
0.0
 10
377.6125205081531
 20
492.9563796703831
 30
0.0
 10
377.6098129145024
 20
493.0491367517745
 30
0.0
 10
377.6061763401874
 20
493.1756287098524
 30
0.0
 10
377.6039957500579
 20
493.252393081593
 30
0.0
 10
377.5977555975865
 20
493.4747798425498
 30
0.0
 10
377.592568443252
 20
493.6662355894437
 30
0.0
 10
377.5847191426707
 20
493.9668463089482
 30
0.0
 10
377.5807716500436
 20
494.1226069335069
 30
0.0
 10
377.5724831070214
 20
494.459993054995
 30
0.0
 10
377.5671049249663
 20
494.6899019973561
 30
0.0
 10
377.558816440973
 20
495.0632647044687
 30
0.0
 10
377.5499462540728
 20
495.4810447417931
 30
0.0
 10
377.5420265792256
 20
495.8982396373253
 30
0.0
 10
377.5342758790891
 20
496.3407091692849
 30
0.0
 10
377.5308417645895
 20
496.550196664661
 30
0.0
 10
377.5255099372691
 20
496.8997020185047
 30
0.0
 10
377.5230271871297
 20
497.0732428881426
 30
0.0
 10
377.5192430665475
 20
497.3567042256918
 30
0.0
 10
377.5175057073646
 20
497.4947814944463
 30
0.0
 10
377.5143421872062
 20
497.7626050085356
 30
0.0
 10
377.5114657816198
 20
498.0256851999271
 30
0.0
 10
377.5076435290173
 20
498.4333721142465
 30
0.0
 10
377.5046437292718
 20
498.8225905957807
 30
0.0
 10
377.5024210431174
 20
499.1948920952369
 30
0.0
 10
377.5010661482345
 20
499.493408158167
 30
0.0
 10
377.5002282199292
 20
499.7428654013659
 30
0.0
 10
377.4997435776601
 20
499.9491898686313
 30
0.0
 10
377.4995122066759
 20
500.105993660295
 30
0.0
 10
377.4993933813434
 20
500.2401953463987
 30
0.0
 10
377.4993666658244
 20
500.3180369595868
 30
0.0
 10
377.4993666658243
 20
500.366845639732
 30
0.0
  0
SPLINE
  5
106
330
1F
100
AcDbEntity
  8
0
  6
Continuous
 62
     7
370
    15
100
AcDbSpline
210
0.0
220
0.0
230
1.0
 70
     8
 71
     3
 72
    10
 73
     6
 74
     0
 42
0.00000001
 43
0.00000001
 40
0.0
 40
0.0
 40
0.0
 40
0.0
 40
0.5
 40
0.5
 40
1.0
 40
1.0
 40
1.0
 40
1.0
 10
353.7929595688064
 20
487.1431956997282
 30
0.0
 10
354.0658611518753
 20
487.2304723291888
 30
0.0
 10
354.3169511677396
 20
487.3264830453155
 30
0.0
 10
354.7827272046674
 20
487.5297491566827
 30
0.0
 10
354.9987297531622
 20
487.6378842801195
 30
0.0
 10
355.1933788465786
 20
487.745544711759
 30
0.0
  0
SPLINE
  5
107
330
1F
100
AcDbEntity
  8
0
  6
Continuous
 62
     7
370
    15
100
AcDbSpline
210
0.0
220
0.0
230
1.0
 70
     8
 71
     3
 72
    14
 73
    10
 74
     0
 42
0.00000001
 43
0.00000001
 40
0.0
 40
0.0
 40
0.0
 40
0.0
 40
0.5000000000000006
 40
0.5000000000000006
 40
0.7500000000000009
 40
0.7500000000000009
 40
0.8750000000000004
 40
0.8750000000000004
 40
1.0
 40
1.0
 40
1.0
 40
1.0
 10
355.1933788465786
 20
487.7455447117591
 30
0.0
 10
355.2484985709668
 20
487.7760314364355
 30
0.0
 10
355.2958824720943
 20
487.8047395893593
 30
0.0
 10
355.3499634210437
 20
487.8425906684905
 30
0.0
 10
355.3653730854784
 20
487.8544933698585
 30
0.0
 10
355.3783484857227
 20
487.8684514721226
 30
0.0
 10
355.3809578925274
 20
487.8724065660892
 30
0.0
 10
355.3793528192666
 20
487.8775224492906
 30
0.0
 10
355.3749982164285
 20
487.8786602454556
 30
0.0
 10
355.3630757995666
 20
487.876110313052
 30
0.0
  0
SPLINE
  5
108
330
1F
100
AcDbEntity
  8
0
  6
Continuous
 62
     7
370
    15
100
AcDbSpline
210
0.0
220
0.0
230
1.0
 70
     8
 71
     3
 72
    24
 73
    20
 74
     0
 42
0.00000001
 43
0.00000001
 40
0.0
 40
0.0
 40
0.0
 40
0.0
 40
0.00703125
 40
0.0140625
 40
0.03515625
 40
0.05712890625
 40
0.09375
 40
0.11572265625
 40
0.15234375
 40
0.25
 40
0.2639692276392359
 40
0.2849230690980898
 40
0.3125
 40
0.435546875
 40
0.4833984375
 40
0.5859375
 40
0.640625
 40
0.6884765625
 40
0.6968964418971874
 40
0.6968964418971874
 40
0.6968964418971874
 40
0.6968964418971874
 10
361.3510666658249
 20
500.3668456397364
 30
0.0
 10
361.3478438155915
 20
500.288636773264
 30
0.0
 10
361.3413981151247
 20
500.1322190403189
 30
0.0
 10
361.3228104667824
 20
499.7462833851765
 30
0.0
 10
361.2909647956034
 20
499.2075324873202
 30
0.0
 10
361.2268785979869
 20
498.3794746234611
 30
0.0
 10
361.1441627802671
 20
497.5820924193935
 30
0.0
 10
361.0258411157217
 20
496.6878495216299
 30
0.0
 10
360.7986109924096
 20
495.3002200052126
 30
0.0
 10
360.5135216322145
 20
494.1607039549675
 30
0.0
 10
360.211647926574
 20
493.2799810689149
 30
0.0
 10
360.0621448999028
 20
492.883277592886
 30
0.0
 10
359.6226969740163
 20
491.8537333630576
 30
0.0
 10
359.0026934495212
 20
490.8244010962854
 30
0.0
 10
357.9567334646051
 20
489.6383487661129
 30
0.0
 10
357.0412586562375
 20
488.8966816224344
 30
0.0
 10
355.9789108163416
 20
488.2977800087573
 30
0.0
 10
355.3504284483226
 20
488.0218908587351
 30
0.0
 10
355.0163043162543
 20
487.8948357721889
 30
0.0
 10
354.9659629048921
 20
487.876110313052
 30
0.0
  0
SPLINE
  5
109
330
1F
100
AcDbEntity
  8
0
  6
Continuous
 62
     7
370
    15
100
AcDbSpline
210
0.0
220
0.0
230
1.0
 70
    24
 71
     3
 72
    12
 73
     8
 74
     0
 42
0.00000001
 43
0.00000001
 40
0.8952832756313803
 40
0.8952832756313803
 40
0.8952832756313803
 40
0.8952832756313803
 40
0.9214624567598514
 40
0.947641637839901
 40
0.9738208189199504
 40
0.9912736063066502
 40
1.0
 40
1.0
 40
1.0
 40
1.0
 10
361.4116700971692
 20
500.3668456397364
 30
0.0
 10
361.3997854963013
 20
500.3668456397364
 30
0.0
 10
361.3811896322546
 20
500.3668456397365
 30
0.0
 10
361.3632837386647
 20
500.3668456397363
 30
0.0
 10
361.3543580450246
 20
500.3668456397365
 30
0.0
 10
361.3514292776887
 20
500.3668456397365
 30
0.0
 10
361.3510666660708
 20
500.3668456397364
 30
0.0
 10
361.3510666658249
 20
500.3668456397364
 30
0.0
  0
SPLINE
  5
10A
330
1F
100
AcDbEntity
  8
0
  6
Continuous
 62
     7
370
    15
100
AcDbSpline
210
0.0
220
0.0
230
1.0
 70
     8
 71
     3
 72
    10
 73
     6
 74
     0
 42
0.00000001
 43
0.00000001
 40
0.9732923899723007
 40
0.9732923899723007
 40
0.9732923899723007
 40
0.9732923899723007
 40
0.9859375
 40
0.99296875
 40
1.0
 40
1.0
 40
1.0
 40
1.0
 10
348.8135666658245
 20
486.8997327141869
 30
0.0
 10
348.700253868223
 20
486.8974365263714
 30
0.0
 10
348.5224688606104
 20
486.8947100405602
 30
0.0
 10
348.2781179153635
 20
486.892736893222
 30
0.0
 10
348.1250064918124
 20
486.8924456997281
 30
0.0
 10
348.0828781282987
 20
486.8924456997281
 30
0.0
  0
SPLINE
  5
10B
330
1F
100
AcDbEntity
  8
0
  6
Continuous
 62
     7
370
    15
100
AcDbSpline
210
0.0
220
0.0
230
1.0
 70
     8
 71
     3
 72
    22
 73
    18
 74
     0
 42
0.00000001
 43
0.00000001
 40
0.0
 40
0.0
 40
0.0
 40
0.0
 40
0.125
 40
0.125
 40
0.2499999999999999
 40
0.2499999999999999
 40
0.3749999999999999
 40
0.3749999999999999
 40
0.4999999999999999
 40
0.4999999999999999
 40
0.625
 40
0.625
 40
0.75
 40
0.75
 40
0.875
 40
0.875
 40
1.0
 40
1.0
 40
1.0
 40
1.0
 10
348.8135666658244
 20
486.8997327141869
 30
0.0
 10
348.8135666658245
 20
486.8997326770632
 30
0.0
 10
348.8485124010771
 20
486.8941794283959
 30
0.0
 10
348.9855962290109
 20
486.8742421378964
 30
0.0
 10
349.0896060511052
 20
486.8596152328873
 30
0.0
 10
349.3566118533665
 20
486.826664953422
 30
0.0
 10
349.5205894228713
 20
486.808126422546
 30
0.0
 10
349.9077130214739
 20
486.7740079985393
 30
0.0
 10
350.1247688219481
 20
486.7589881323254
 30
0.0
 10
350.6048615791199
 20
486.7405292866187
 30
0.0
 10
350.8703638988625
 20
486.737297244901
 30
0.0
 10
351.4212637434817
 20
486.7509301151696
 30
0.0
 10
351.7116456847161
 20
486.7677185022951
 30
0.0
 10
352.3093306184635
 20
486.8282154455655
 30
0.0
 10
352.6085876438165
 20
486.8710061034866
 30
0.0
 10
353.2070356583079
 20
486.9857089874434
 30
0.0
 10
353.5059095376847
 20
487.0579749069602
 30
0.0
 10
353.7929595688063
 20
487.1431956997282
 30
0.0
  0
LINE
  5
10C
330
1F
100
AcDbEntity
  8
0
  6
Continuous
 62
     7
370
    15
100
AcDbLine
 10
374.3450023989
 20
440.7544441159
 30
0.0
 11
352.7160414319
 21
440.7544441159
 31
0.0
  0
ARC
  5
10D
330
1F
100
AcDbEntity
  8
0
  6
Continuous
 62
     7
370
    15
100
AcDbCircle
 10
374.3450030264
 20
443.7634456997
 30
0.0
 40
3.009000000000071
100
AcDbArc
 50
270.0
 51
351.1727494786
  0
ARC
  5
10E
330
1F
100
AcDbEntity
  8
0
  6
Continuous
 62
     7
370
    15
100
AcDbCircle
 10
352.7160402601
 20
440.9550456997
 30
0.0
 40
0.2006000000000085
100
AcDbArc
 50
194.0
 51
270.0
  0
LWPOLYLINE
  5
10F
330
1F
100
AcDbEntity
  8
0
  6
Continuous
 62
     7
370
    15
100
AcDbPolyline
 90
        6
 70
   128
 43
0.0
 10
352.5214024643
 20
440.9065179164
 10
352.4724297981
 20
441.1029301221
 10
352.3263537149
 20
441.6887953515
 10
352.085692511
 20
442.6540478701
 10
351.7545663576
 20
443.9821101362
 10
351.3386749486
 20
445.650168472
  0
LINE
  5
110
330
1F
100
AcDbEntity
  8
0
  6
Continuous
 62
     7
370
    15
100
AcDbLine
 10
273.2522875826
 20
521.4964419241
 30
0.0
 11
297.9968457307
 21
521.4964419241
 31
0.0
  0
SPLINE
  5
111
330
1F
100
AcDbEntity
  8
0
  6
Continuous
 62
     7
370
    15
100
AcDbSpline
210
0.0
220
0.0
230
1.0
 70
     8
 71
     3
 72
    15
 73
    11
 74
     0
 42
0.00000001
 43
0.00000001
 40
0.0
 40
0.0
 40
0.0
 40
0.0
 40
0.1077350642255366
 40
0.2247500583310255
 40
0.3500656813415522
 40
0.481922857799833
 40
0.6178331603892634
 40
0.7547959001190296
 40
0.8896700680928143
 40
1.0
 40
1.0
 40
1.0
 40
1.0
 10
495.8737843493951
 20
659.247380458807
 30
0.0
 10
495.2638600974997
 20
659.1398257135403
 30
0.0
 10
493.9914748051494
 20
658.915451825185
 30
0.0
 10
492.0687225238692
 20
658.5764395379077
 30
0.0
 10
490.1539785425675
 20
658.238798912288
 30
0.0
 10
488.3810370518569
 20
657.9261840605805
 30
0.0
 10
486.8871497514655
 20
657.6627920021083
 30
0.0
 10
485.808843153469
 20
657.4726497704828
 30
0.0
 10
485.1855027768867
 20
657.3627260612786
 30
0.0
 10
485.1516445028161
 20
657.3567552809166
 30
0.0
 10
485.1364099244607
 20
657.3540687198391
 30
0.0
  0
SPLINE
  5
112
330
1F
100
AcDbEntity
  8
0
  6
Continuous
 62
     7
370
    15
100
AcDbSpline
210
0.0
220
0.0
230
1.0
 70
     8
 71
     3
 72
    15
 73
    11
 74
     0
 42
0.00000001
 43
0.00000001
 40
0.0
 40
0.0
 40
0.0
 40
0.0
 40
0.1274237878991965
 40
0.2597066859846049
 40
0.3940380291421213
 40
0.5273371551073627
 40
0.6566610256253311
 40
0.7795682712087177
 40
0.8943359217511435
 40
1.0
 40
1.0
 40
1.0
 40
1.0
 10
506.6324227313531
 20
661.1444174880734
 30
0.0
 10
506.616928344027
 20
661.1416839972493
 30
0.0
 10
506.5853487147431
 20
661.1361127781321
 30
0.0
 10
505.9411076882301
 20
661.0225042462218
 30
0.0
 10
504.8597623002287
 20
660.831825937689
 30
0.0
 10
503.3666830678508
 20
660.5685762211177
 30
0.0
 10
501.5935359978843
 20
660.2559259056488
 30
0.0
 10
499.6788490716042
 20
659.9182925578434
 30
0.0
 10
497.7560883663293
 20
659.5792739781157
 30
0.0
 10
496.4837030132956
 20
659.354923156497
 30
0.0
 10
495.8737843493951
 20
659.247380458807
 30
0.0
  0
LWPOLYLINE
  5
113
330
1F
100
AcDbEntity
  8
0
  6
Continuous
 62
     7
370
    15
100
AcDbPolyline
 90
       19
 70
   128
 43
0.0
 10
485.0432329635
 20
657.1339487667
 10
485.0859247903
 20
657.1414887542
 10
485.4316466312
 20
657.2024345035
 10
486.1141198139
 20
657.3227762813
 10
487.1113949279
 20
657.4986397857
 10
488.3914195756
 20
657.7243327732
 10
489.913051651
 20
657.9926430816
 10
491.6273855428
 20
658.2949280376
 10
493.4793316583
 20
658.621472084
 10
495.4093449573
 20
658.9617848034
 10
497.3554068069
 20
659.3049287433
 10
499.2549621324
 20
659.6398770447
 10
501.0469757776
 20
659.9558412666
 10
502.6738398532
 20
660.2427184219
 10
504.0832512836
 20
660.491210186
 10
505.2299254398
 20
660.6934189434
 10
506.0770117502
 20
660.8427881832
 10
506.5972708921
 20
660.9345197315
 10
506.7739837627
 20
660.9656631584
  0
LINE
  5
114
330
1F
100
AcDbEntity
  8
0
  6
Continuous
 62
     7
370
    15
100
AcDbLine
 10
506.5416001539
 20
661.1283838386
 30
0.0
 11
506.7739837627
 21
660.9656631584
 31
0.0
  0
LINE
  5
115
330
1F
100
AcDbEntity
  8
0
  6
Continuous
 62
     7
370
    15
100
AcDbLine
 10
506.7739837627
 20
660.9656631584
 30
0.0
 11
514.1935997467
 21
618.88700422
 31
0.0
  0
LWPOLYLINE
  5
116
330
1F
100
AcDbEntity
  8
0
  6
Continuous
 62
     7
370
    15
100
AcDbPolyline
 90
       19
 70
   128
 43
0.0
 10
492.4628340463
 20
615.0552898283
 10
492.5055258731
 20
615.0628149147
 10
492.8512626152
 20
615.1237755651
 10
493.5337208967
 20
615.2441173429
 10
494.5309960107
 20
615.4199659462
 10
495.8110206584
 20
615.6456589336
 10
497.3326527338
 20
615.9139692421
 10
499.0470015268
 20
616.216254198
 10
500.8989327411
 20
616.5427982445
 10
502.8289460401
 20
616.8831109638
 10
504.7750078897
 20
617.2262549038
 10
506.6745781164
 20
617.5612032051
 10
508.4665768604
 20
617.8771823282
 10
510.093440936
 20
618.1640445823
 10
511.5028523664
 20
618.4125512476
 10
512.6495265226
 20
618.6147451038
 10
513.496612833
 20
618.7641143436
 10
514.0168719749
 20
618.8558458919
 10
514.1935997467
 20
618.88700422
  0
LWPOLYLINE
  5
117
330
1F
100
AcDbEntity
  8
0
  6
Continuous
 62
     7
370
    15
100
AcDbPolyline
 90
       12
 70
   128
 43
0.0
 10
498.0191045265
 20
615.8313125009
 10
499.8629891138
 20
616.156440937
 10
501.8333845596
 20
616.5038764114
 10
503.8590633134
 20
616.8610572452
 10
505.8668159704
 20
617.2150790329
 10
507.7840738754
 20
617.5531416769
 10
509.5415466289
 20
617.8630262251
 10
511.0757254819
 20
618.1335419054
 10
512.3311334114
 20
618.3549135561
 10
513.2624112825
 20
618.5191243524
 10
513.8358973722
 20
618.6202436323
 10
514.0308790664
 20
618.6546206112
  0
LWPOLYLINE
  5
118
330
1F
100
AcDbEntity
  8
0
  6
Continuous
 62
     7
370
    15
100
AcDbPolyline
 90
        7
 70
   128
 43
0.0
 10
492.6952176551
 20
614.892569148
 10
492.7424245338
 20
614.9008988971
 10
493.1240879755
 20
614.9681925411
 10
493.875791953
 20
615.1007383699
 10
494.970401452
 20
615.2937382097
 10
496.3683538894
 20
615.5402332182
 10
498.0191045265
 20
615.8313125009
  0
LINE
  5
119
330
1F
100
AcDbEntity
  8
0
  6
Continuous
 62
     7
370
    15
100
AcDbLine
 10
514.1935997467
 20
618.88700422
 30
0.0
 11
514.0308790664
 21
618.6546206112
 31
0.0
  0
SPLINE
  5
11A
330
1F
100
AcDbEntity
  8
0
  6
Continuous
 62
     7
370
    15
100
AcDbSpline
210
0.0
220
0.0
230
1.0
 70
     8
 71
     3
 72
     8
 73
     4
 74
     0
 42
0.00000001
 43
0.00000001
 40
0.0
 40
0.0
 40
0.0
 40
0.0
 40
1.0
 40
1.0
 40
1.0
 40
1.0
 10
365.3926970248688
 20
557.0566202602057
 30
0.0
 10
366.0102525462448
 20
557.4165969299241
 30
0.0
 10
366.6642841707606
 20
557.6889095554639
 30
0.0
 10
367.3549800525449
 20
557.8731059384874
 30
0.0
  0
SPLINE
  5
11B
330
1F
100
AcDbEntity
  8
0
  6
Continuous
 62
     7
370
    15
100
AcDbSpline
210
0.0
220
0.0
230
1.0
 70
     8
 71
     3
 72
     8
 73
     4
 74
     0
 42
0.00000001
 43
0.00000001
 40
0.0
 40
0.0
 40
0.0
 40
0.0
 40
1.0
 40
1.0
 40
1.0
 40
1.0
 10
361.6636630317129
 20
552.1212978943668
 30
0.0
 10
361.8398511618439
 20
552.8431997835992
 30
0.0
 10
362.1223721626909
 20
553.5216329919339
 30
0.0
 10
362.4982207327539
 20
554.161894099339
 30
0.0
  0
SPLINE
  5
11C
330
1F
100
AcDbEntity
  8
0
  6
Continuous
 62
     7
370
    15
100
AcDbSpline
210
0.0
220
0.0
230
1.0
 70
     8
 71
     3
 72
     8
 73
     4
 74
     0
 42
0.00000001
 43
0.00000001
 40
0.0
 40
0.0
 40
0.0
 40
0.0
 40
1.0
 40
1.0
 40
1.0
 40
1.0
 10
364.3806534043574
 20
556.358215988323
 30
0.0
 10
364.7001831709076
 20
556.616837274637
 30
0.0
 10
365.0375540431506
 20
556.8496053710053
 30
0.0
 10
365.3926970248687
 20
557.0566202602057
 30
0.0
  0
SPLINE
  5
11D
330
1F
100
AcDbEntity
  8
0
  6
Continuous
 62
     7
370
    15
100
AcDbSpline
210
0.0
220
0.0
230
1.0
 70
     8
 71
     3
 72
     8
 73
     4
 74
     0
 42
0.00000001
 43
0.00000001
 40
0.0
 40
0.0
 40
0.0
 40
0.0
 40
1.0
 40
1.0
 40
1.0
 40
1.0
 10
371.494370102624
 20
557.8733950678529
 30
0.0
 10
372.1307957029026
 20
557.7037422932736
 30
0.0
 10
372.7368755535969
 20
557.4589453559942
 30
0.0
 10
373.3126527935463
 20
557.1391111015364
 30
0.0
  0
LINE
  5
11E
330
1F
100
AcDbEntity
  8
0
  6
Continuous
 62
     7
370
    15
100
AcDbLine
 10
353.7929632525
 20
487.1431931491
 30
0.0
 11
348.8135688762
 21
487.1431931491
 31
0.0
  0
SPLINE
  5
11F
330
1F
100
AcDbEntity
  8
0
  6
Continuous
 62
     7
370
    15
100
AcDbSpline
210
0.0
220
0.0
230
1.0
 70
     8
 71
     3
 72
    23
 73
    19
 74
     0
 42
0.00000001
 43
0.00000001
 40
0.0
 40
0.0
 40
0.0
 40
0.0
 40
0.3900599407208071
 40
0.4131212995608719
 40
0.5190339543794373
 40
0.5344674865454659
 40
0.6481214810481142
 40
0.6906864883544314
 40
0.7359302075343406
 40
0.7813917514912674
 40
0.8158169277003238
 40
0.8367569640340278
 40
0.8502016329354621
 40
0.8843403930886006
 40
0.9187469941054726
 40
0.9531537188473668
 40
0.9872929648476966
 40
0.9999999999999999
 40
0.9999999999999999
 40
0.9999999999999999
 40
0.9999999999999999
 10
377.4993696074022
 20
507.8965097303143
 30
0.0
 10
377.4975992279111
 20
515.6624939895058
 30
0.0
 10
377.495724178977
 20
523.8876234493466
 30
0.0
 10
377.5008535319606
 20
534.2213991921562
 30
0.0
 10
377.5032527160204
 20
537.0966345303071
 30
0.0
 10
377.5033511132012
 20
541.7751215662146
 30
0.0
 10
377.4549971206796
 20
545.1974529881784
 30
0.0
 10
377.5551488790797
 20
549.1980780753181
 30
0.0
 10
377.4682800558021
 20
551.8801009314468
 30
0.0
 10
376.4991315696341
 20
554.2204539656398
 30
0.0
 10
375.2738732855959
 20
555.863982812117
 30
0.0
 10
374.1102693426064
 20
556.6027302567762
 30
0.0
 10
373.050331557649
 20
557.4691225628021
 30
0.0
 10
371.4673105847576
 20
558.009317063683
 30
0.0
 10
369.4256621040344
 20
558.3038710793951
 30
0.0
 10
367.3813442496719
 20
558.0112285385388
 30
0.0
 10
365.8188177945856
 20
557.4683778917563
 30
0.0
 10
365.083418892583
 20
556.8904557796432
 30
0.0
 10
364.8839422325624
 20
556.7336946363201
 30
0.0
  0
SPLINE
  5
120
330
1F
100
AcDbEntity
  8
0
  6
Continuous
 62
     7
370
    15
100
AcDbSpline
210
0.0
220
0.0
230
1.0
 70
     8
 71
     3
 72
     9
 73
     5
 74
     0
 42
0.00000001
 43
0.00000001
 40
0.0
 40
0.0
 40
0.0
 40
0.0
 40
0.4745998243021299
 40
0.9999999999999999
 40
0.9999999999999999
 40
0.9999999999999999
 40
0.9999999999999999
 10
364.4788169126047
 20
556.4346134299984
 30
0.0
 10
364.2556180253131
 20
556.2894846024537
 30
0.0
 10
363.7853294245543
 20
555.9836926065167
 30
0.0
 10
363.4618310306854
 20
555.5245718449536
 30
0.0
 10
363.2918649177087
 20
555.2833497161618
 30
0.0
  0
SPLINE
  5
121
330
1F
100
AcDbEntity
  8
0
  6
Continuous
 62
     7
370
    15
100
AcDbSpline
210
0.0
220
0.0
230
1.0
 70
     8
 71
     3
 72
     9
 73
     5
 74
     0
 42
0.00000001
 43
0.00000001
 40
0.0
 40
0.0
 40
0.0
 40
0.0
 40
0.6486429338246351
 40
1.0
 40
1.0
 40
1.0
 40
1.0
 10
363.0632364015115
 20
555.000331961607
 30
0.0
 10
362.8694744939993
 20
554.8018995652357
 30
0.0
 10
362.5707555880988
 20
554.4959802589058
 30
0.0
 10
362.4339771065864
 20
554.0952049069479
 30
0.0
 10
362.3859190206064
 20
553.9543896550884
 30
0.0
  0
SPLINE
  5
122
330
1F
100
AcDbEntity
  8
0
  6
Continuous
 62
     7
370
    15
100
AcDbSpline
210
0.0
220
0.0
230
1.0
 70
     8
 71
     3
 72
     9
 73
     5
 74
     0
 42
0.00000001
 43
0.00000001
 40
0.0
 40
0.0
 40
0.0
 40
0.0
 40
0.3073617504282365
 40
1.0
 40
1.0
 40
1.0
 40
1.0
 10
361.689289734794
 20
552.2114455337277
 30
0.0
 10
361.6344012023009
 20
552.0901803072081
 30
0.0
 10
361.4558216216715
 20
551.6956444667837
 30
0.0
 10
361.4635271583778
 20
551.2572456221989
 30
0.0
 10
361.468864307834
 20
550.9535938138714
 30
0.0
  0
SPLINE
  5
123
330
1F
100
AcDbEntity
  8
0
  6
Continuous
 62
     7
370
    15
100
AcDbSpline
210
0.0
220
0.0
230
1.0
 70
     8
 71
     3
 72
    14
 73
    10
 74
     0
 42
0.00000001
 43
0.00000001
 40
0.0
 40
0.0
 40
0.0
 40
0.0
 40
0.038087229600984
 40
0.1104087451389501
 40
0.3035072598610565
 40
0.3297284583476999
 40
0.5096968759956017
 40
0.5488561603070184
 40
1.0
 40
1.0
 40
1.0
 40
1.0
 10
361.4302255968583
 20
550.4849522943249
 30
0.0
 10
361.385723466323
 20
550.0404056535554
 30
0.0
 10
361.2567189564155
 20
548.7517365306683
 30
0.0
 10
361.4449122219897
 20
545.190692510177
 30
0.0
 10
361.3451513563029
 20
541.7753871489223
 30
0.0
 10
361.3484505275967
 20
537.0962080403401
 30
0.0
 10
361.3494736868934
 20
534.2211585061856
 30
0.0
 10
361.3536718438897
 20
526.3666022836757
 30
0.0
 10
361.3523132575044
 20
520.6210106916751
 30
0.0
 10
361.351063178016
 20
515.3343051309338
 30
0.0
  0
SPLINE
  5
124
330
1F
100
AcDbEntity
  8
0
  6
Continuous
 62
     8
370
     0
100
AcDbSpline
210
0.0
220
0.0
230
1.0
 70
     8
 71
     3
 72
    12
 73
     8
 74
     0
 42
0.00000001
 43
0.00000001
 40
0.0
 40
0.0
 40
0.0
 40
0.0
 40
0.3578101154230885
 40
0.533089068531177
 40
0.7055957670578581
 40
0.8759303263834628
 40
1.0
 40
1.0
 40
1.0
 40
1.0
 10
305.6915622959865
 20
486.9948446387997
 30
0.0
 10
306.4874526871116
 20
487.8276797497904
 30
0.0
 10
307.6732225940247
 20
489.0684923328361
 30
0.0
 10
308.7536493588047
 20
490.1865986638505
 30
0.0
 10
309.3300920178435
 20
490.7834237643862
 30
0.0
 10
309.6463538820479
 20
491.1120414869388
 30
0.0
 10
309.6556478489463
 20
491.1215979789996
 30
0.0
 10
309.659564570619
 20
491.1256253356686
 30
0.0
  0
SPLINE
  5
125
330
1F
100
AcDbEntity
  8
0
  6
Continuous
 62
     8
370
     0
100
AcDbSpline
210
0.0
220
0.0
230
1.0
 70
     8
 71
     3
 72
    30
 73
    26
 74
     0
 42
0.00000001
 43
0.00000001
 40
0.0
 40
0.0
 40
0.0
 40
0.0
 40
0.0070421170937141
 40
0.0398112213476215
 40
0.0728178162012788
 40
0.106396685993938
 40
0.1405764461552987
 40
0.2105305094546737
 40
0.2821187377561555
 40
0.3550470417729612
 40
0.4039745101228224
 40
0.4540048600035644
 40
0.5065694468301133
 40
0.5283522865039159
 40
0.5529812726371239
 40
0.5824961300884753
 40
0.6145162851763128
 40
0.6428615544795072
 40
0.6667792145742221
 40
0.7078097261490192
 40
0.7586249376877191
 40
0.8078776799260656
 40
0.8563820424945742
 40
0.9288684867301783
 40
1.0
 40
1.0
 40
1.0
 40
1.0
 10
309.6142352382673
 20
436.5211993093243
 30
0.0
 10
309.6202819314447
 20
436.5148746688803
 30
0.0
 10
309.6544657198285
 20
436.4791195603934
 30
0.0
 10
309.4578579299035
 20
436.682289819283
 30
0.0
 10
309.0148494443692
 20
437.1423360225293
 30
0.0
 10
308.2992509715058
 20
437.884508876005
 30
0.0
 10
307.0391410859333
 20
439.1923537713946
 30
0.0
 10
304.9540251287526
 20
441.3743060264157
 30
0.0
 10
301.9091687859802
 20
444.6006937397154
 30
0.0
 10
298.9020160278986
 20
447.8735978176076
 30
0.0
 10
296.1703072453208
 20
451.0073294484185
 30
0.0
 10
293.7951573328157
 20
453.9358083481846
 30
0.0
 10
292.009035192271
 20
456.5567980280123
 30
0.0
 10
290.9124479997242
 20
458.8437753473593
 30
0.0
 10
290.2968317774775
 20
460.6997636286511
 30
0.0
 10
289.9515723536937
 20
462.8994005339168
 30
0.0
 10
289.9980506109979
 20
465.2235611227452
 30
0.0
 10
290.4204066451994
 20
467.3590993987829
 30
0.0
 10
291.2505400559079
 20
469.6114796621267
 30
0.0
 10
292.7280912735223
 20
472.1873404766657
 30
0.0
 10
294.8689683104213
 20
475.028495627606
 30
0.0
 10
297.2286367657826
 20
477.82596433715
 30
0.0
 10
299.9184157757512
 20
480.8446037362071
 30
0.0
 10
302.8803059304624
 20
484.0375722718342
 30
0.0
 10
304.7603892470041
 20
486.0153066783386
 30
0.0
 10
305.6915622959865
 20
486.9948446387997
 30
0.0
  0
LINE
  5
126
330
1F
100
AcDbEntity
  8
0
  6
Continuous
 62
     8
370
     0
100
AcDbLine
 10
261.5525663654
 20
509.176765346
 30
0.0
 11
309.6965660165
 21
509.176765346
 31
0.0
  0
LINE
  5
127
330
1F
100
AcDbEntity
  8
0
  6
Continuous
 62
     8
370
     0
100
AcDbLine
 10
261.5525663654
 20
508.2593455548
 30
0.0
 11
309.6965660165
 21
508.2593455548
 31
0.0
  0
LINE
  5
128
330
1F
100
AcDbEntity
  8
0
  6
Continuous
 62
     8
370
     0
100
AcDbLine
 10
264.6037597965
 20
515.2261748547
 30
0.0
 11
306.6453725855
 21
515.2261748547
 31
0.0
  0
SPLINE
  5
129
330
1F
100
AcDbEntity
  8
0
  6
Continuous
 62
     8
370
     0
100
AcDbSpline
210
0.0
220
0.0
230
1.0
 70
     8
 71
     3
 72
    58
 73
    54
 74
     0
 42
0.00000001
 43
0.00000001
 40
0.0
 40
0.0
 40
0.0
 40
0.0
 40
0.0253226280085817
 40
0.0520258000778601
 40
0.0801378849722641
 40
0.1179736831876787
 40
0.1388410384905095
 40
0.1497632941923975
 40
0.1553466455031739
 40
0.1581689206496364
 40
0.1595876927339458
 40
0.1602989855052749
 40
0.160655066702103
 40
0.1608333009743342
 40
0.1609223753774565
 40
0.1609670029039069
 40
0.1609892371571169
 40
0.161000382771858
 40
0.1610059639007643
 40
0.1610087520932389
 40
0.1610101184547379
 40
0.1610108695144819
 40
0.1610112096490615
 40
0.1610113857237787
 40
0.1740366677555013
 40
0.2122125774731022
 40
0.2600534554432692
 40
0.2926412499936435
 40
0.3171725055685422
 40
0.3357005243112053
 40
0.3514476507030373
 40
0.3672020955373955
 40
0.3825942408673933
 40
0.4129929268591785
 40
0.4228641287051266
 40
0.4335710342653828
 40
0.4452065895395694
 40
0.4692996440196772
 40
0.5008982027110881
 40
0.5325826327056188
 40
0.5701775017891441
 40
0.5990652190145207
 40
0.6430731664344301
 40
0.6800790942517175
 40
0.7220523210596362
 40
0.7605856340049043
 40
0.8028163338032418
 40
0.8426966540443982
 40
0.8804266781379377
 40
0.9162424382677261
 40
0.9537831216067358
 40
0.9907071605781852
 40
1.0
 40
1.0
 40
1.0
 40
1.0
 10
309.9748768667711
 20
482.7687859172573
 30
0.0
 10
309.6961969743663
 20
482.4760305111093
 30
0.0
 10
309.1236440638606
 20
481.8745592014643
 30
0.0
 10
308.1717781684379
 20
480.8699887125977
 30
0.0
 10
307.0223662649976
 20
479.6489004435055
 30
0.0
 10
305.8915518657415
 20
478.4388489828011
 30
0.0
 10
304.9608574857892
 20
477.4278519200871
 30
0.0
 10
304.4553032756543
 20
476.8739385116746
 30
0.0
 10
304.192409043046
 20
476.5845976071813
 30
0.0
 10
304.0584207243568
 20
476.4367832906124
 30
0.0
 10
303.9907842263144
 20
476.3620998476746
 30
0.0
 10
303.9568185941839
 20
476.3245455487983
 30
0.0
 10
303.9397806188874
 20
476.305739161625
 30
0.0
 10
303.9312666122863
 20
476.2963045696978
 30
0.0
 10
303.9269931224723
 20
476.2916002666437
 30
0.0
 10
303.9248703791245
 20
476.2892311391749
 30
0.0
 10
303.9237946138063
 20
476.2880612803602
 30
0.0
 10
303.9232678316919
 20
476.2874663313023
 30
0.0
 10
303.9229954282827
 20
476.2871760442813
 30
0.0
 10
303.9228694583722
 20
476.2870220071164
 30
0.0
 10
303.922794331583
 20
476.2869569860957
 30
0.0
 10
303.9227677491363
 20
476.2869129292828
 30
0.0
 10
303.9227482325026
 20
476.2868948568471
 30
0.0
 10
303.7411847577183
 20
476.1034272252105
 30
0.0
 10
303.0358597745113
 20
475.2981016363117
 30
0.0
 10
301.6635248254649
 20
473.7665604795996
 30
0.0
 10
300.0145515928764
 20
471.8069651905506
 30
0.0
 10
298.601116805349
 20
469.9912251781374
 30
0.0
 10
297.6327933807929
 20
468.6206915127374
 30
0.0
 10
296.9583393075408
 20
467.4940433188637
 30
0.0
 10
296.4648557865935
 20
466.4854192522179
 30
0.0
 10
296.1331235948801
 20
465.4782624231202
 30
0.0
 10
295.9368578369578
 20
464.1006782924215
 30
0.0
 10
295.980288944093
 20
462.8233500741022
 30
0.0
 10
296.2643733903361
 20
461.709235564514
 30
0.0
 10
296.516836965661
 20
461.0296047451778
 30
0.0
 10
296.9619094474431
 20
460.0878134008359
 30
0.0
 10
297.7500481159544
 20
458.8056028520738
 30
0.0
 10
298.8773661646946
 20
457.2357039176971
 30
0.0
 10
300.2530769606832
 20
455.5145429992553
 30
0.0
 10
301.6171186647123
 20
453.9081098271298
 30
0.0
 10
303.1502861214255
 20
452.1649322339572
 30
0.0
 10
304.6556526220748
 20
450.4989537442582
 30
0.0
 10
306.2946599118769
 20
448.7306612820183
 30
0.0
 10
307.7893087461337
 20
447.1349533890466
 30
0.0
 10
309.25160910156
 20
445.5907562793796
 30
0.0
 10
310.559080372553
 20
444.2146851027088
 30
0.0
 10
311.6972724439752
 20
443.0257997861459
 30
0.0
 10
312.596796291581
 20
442.0940025789591
 30
0.0
 10
313.2836736253883
 20
441.3844775731501
 30
0.0
 10
313.7143783805003
 20
440.9355045584403
 30
0.0
 10
313.9092287680088
 20
440.7355682300829
 30
0.0
 10
313.8742560555185
 20
440.7713548455543
 30
0.0
 10
313.8672240833772
 20
440.7785504693737
 30
0.0
  0
SPLINE
  5
12A
330
1F
100
AcDbEntity
  8
0
  6
Continuous
 62
     8
370
     0
100
AcDbSpline
210
0.0
220
0.0
230
1.0
 70
     8
 71
     3
 72
    13
 73
     9
 74
     0
 42
0.00000001
 43
0.00000001
 40
0.0
 40
0.0
 40
0.0
 40
0.0
 40
0.1245542322808639
 40
0.2948818121837594
 40
0.4586645828744865
 40
0.6299999590822333
 40
0.8100979214062949
 40
1.0
 40
1.0
 40
1.0
 40
1.0
 10
313.9100183556808
 20
486.8664934868565
 30
0.0
 10
313.906456963779
 20
486.8627542887537
 30
0.0
 10
313.8980253779654
 20
486.8539017472344
 30
0.0
 10
313.5880804401303
 20
486.5302683394431
 30
0.0
 10
313.0391896519985
 20
485.9643766891128
 30
0.0
 10
312.253448863517
 20
485.151946440663
 30
0.0
 10
311.2419131728815
 20
484.0982905398874
 30
0.0
 10
310.4046177443266
 20
483.2197141822864
 30
0.0
 10
309.9748768667711
 20
482.7687859172573
 30
0.0
  0
LINE
  5
12B
330
1F
100
AcDbEntity
  8
0
  6
Continuous
 62
     8
370
     0
100
AcDbLine
 10
377.3183652024
 20
463.8234421248
 30
0.0
 11
377.3183652024
 21
449.0730434293
 31
0.0
  0
ARC
  5
12C
330
1F
100
AcDbEntity
  8
0
  6
Continuous
 62
     8
370
     0
100
AcDbCircle
 10
374.6347104536
 20
450.1014860815
 30
0.0
 40
2.873968875833611
100
AcDbArc
 50
264.214519818
 51
339.0319360619
  0
SPLINE
  5
12D
330
1F
100
AcDbEntity
  8
0
  6
Continuous
 62
     8
370
     0
100
AcDbSpline
210
0.0
220
0.0
230
1.0
 70
     8
 71
     3
 72
    20
 73
    16
 74
     0
 42
0.00000001
 43
0.00000001
 40
0.0
 40
0.0
 40
0.0
 40
0.0
 40
0.1249999999999991
 40
0.1249999999999991
 40
0.2499999999999982
 40
0.2499999999999982
 40
0.4999999999999988
 40
0.4999999999999988
 40
0.6249999999999991
 40
0.6249999999999991
 40
0.7499999999999993
 40
0.7499999999999993
 40
0.8749999999999997
 40
0.8749999999999997
 40
1.0
 40
1.0
 40
1.0
 40
1.0
 10
377.4001677992075
 20
478.5650487025
 30
0.0
 10
377.3882357067847
 20
478.0814085328284
 30
0.0
 10
377.3786445566743
 20
477.5738178154745
 30
0.0
 10
377.3617920267454
 20
476.5139228655497
 30
0.0
 10
377.3546856603161
 20
475.9621593785826
 30
0.0
 10
377.3364883163054
 20
474.2644041159415
 30
0.0
 10
377.3285799321725
 20
473.0690112452738
 30
0.0
 10
377.3219036989429
 20
471.1785513455398
 30
0.0
 10
377.3204436653694
 20
470.5284143443815
 30
0.0
 10
377.318662104349
 20
469.2181495142954
 30
0.0
 10
377.3184140559979
 20
468.5572864364183
 30
0.0
 10
377.318242969156
 20
467.2242446781087
 30
0.0
 10
377.3182592379167
 20
466.552080971661
 30
0.0
 10
377.318345847458
 20
465.1963965521615
 30
0.0
 10
377.3181962667254
 20
464.5113288056477
 30
0.0
 10
377.3183653564878
 20
463.8234456997281
 30
0.0
  0
ARC
  5
12E
330
1F
100
AcDbEntity
  8
0
  6
Continuous
 62
     8
370
     0
100
AcDbCircle
 10
374.6733814479
 20
477.4796231777
 30
0.0
 40
2.934876273494388
100
AcDbArc
 50
21.7055675508
 51
94.6758749079
  0
SPLINE
  5
12F
330
1F
100
AcDbEntity
  8
0
  6
Continuous
 62
     8
370
     0
100
AcDbSpline
210
0.0
220
0.0
230
1.0
 70
    24
 71
     3
 72
    12
 73
     8
 74
     0
 42
0.00000001
 43
0.00000001
 40
0.8952831452635768
 40
0.8952831452635768
 40
0.8952831452635768
 40
0.8952831452635768
 40
0.9040095389569266
 40
0.9214623263436263
 40
0.9476415074236758
 40
0.9738206885037254
 40
1.0
 40
1.0
 40
1.0
 40
1.0
 10
348.0828781282987
 20
486.8924456997281
 30
0.0
 10
348.0828781282987
 20
486.8924456997281
 30
0.0
 10
348.0828781282987
 20
486.8836328000963
 30
0.0
 10
348.0828781282987
 20
486.8138252563816
 30
0.0
 10
348.0828781282987
 20
486.6078808919358
 30
0.0
 10
348.0828781282987
 20
486.2591901641582
 30
0.0
 10
348.0828781282987
 20
485.9762174458045
 30
0.0
 10
348.0828781282987
 20
485.8275419505589
 30
0.0
  0
SPLINE
  5
130
330
1F
100
AcDbEntity
  8
0
  6
Continuous
 62
     8
370
     0
100
AcDbSpline
210
0.0
220
0.0
230
1.0
 70
     8
 71
     3
 72
    14
 73
    10
 74
     0
 42
0.00000001
 43
0.00000001
 40
0.6042587306707184
 40
0.6042587306707184
 40
0.6042587306707184
 40
0.6042587306707184
 40
0.6406367209734348
 40
0.6770148416923764
 40
0.7133929624113176
 40
0.749771083130259
 40
0.7861492038492005
 40
0.8225273245681418
 40
0.8952831452635768
 40
0.8952831452635768
 40
0.8952831452635768
 40
0.8952831452635768
 10
348.0828781282987
 20
485.8275419505589
 30
0.0
 10
348.0828781282987
 20
485.6209451476469
 30
0.0
 10
348.2250726000018
 20
485.134316831208
 30
0.0
 10
348.8806690216555
 20
484.2270328584715
 30
0.0
 10
349.9017115917915
 20
483.239117459015
 30
0.0
 10
351.1888470415384
 20
482.2845577450316
 30
0.0
 10
352.636405571387
 20
481.4632312247525
 30
0.0
 10
354.6871584099371
 20
480.6388085266784
 30
0.0
 10
356.2421656793626
 20
480.4047355056059
 30
0.0
 10
357.1934676863837
 20
480.4047337007909
 30
0.0
  0
LINE
  5
131
330
1F
100
AcDbEntity
  8
0
  6
Continuous
 62
     8
370
     0
100
AcDbLine
 10
357.1934678416
 20
480.404731595
 30
0.0
 11
374.4341336946
 21
480.404731595
 31
0.0
  0
LINE
  5
132
330
1F
100
AcDbEntity
  8
0
  6
Continuous
 62
     8
370
     0
100
AcDbLine
 10
374.3450023989
 20
447.2421563799
 30
0.0
 11
357.1934678416
 21
447.2421563799
 31
0.0
  0
SPLINE
  5
133
330
1F
100
AcDbEntity
  8
0
  6
Continuous
 62
     8
370
     0
100
AcDbSpline
210
0.0
220
0.0
230
1.0
 70
     8
 71
     3
 72
    18
 73
    14
 74
     0
 42
0.00000001
 43
0.00000001
 40
0.0
 40
0.0
 40
0.0
 40
0.0
 40
0.2499999999999961
 40
0.2499999999999961
 40
0.3749999999999976
 40
0.3749999999999976
 40
0.4999999999999991
 40
0.4999999999999991
 40
0.7500000000000028
 40
0.7500000000000028
 40
0.8750000000000013
 40
0.8750000000000013
 40
1.0
 40
1.0
 40
1.0
 40
1.0
 10
357.1934676863928
 20
447.242157698681
 30
0.0
 10
356.6543852827672
 20
447.242157698681
 30
0.0
 10
356.1280813814877
 20
447.1959553718637
 30
0.0
 10
355.3557040805177
 20
447.066536884185
 30
0.0
 10
355.1011042758645
 20
447.0133642771711
 30
0.0
 10
354.5974190805244
 20
446.8883144563779
 30
0.0
 10
354.349709399867
 20
446.8166837713644
 30
0.0
 10
353.6302249921809
 20
446.581885865339
 30
0.0
 10
353.1765931727092
 20
446.397746470346
 30
0.0
 10
352.5291562883709
 20
446.0920199987484
 30
0.0
 10
352.3187136767375
 20
445.9849731412142
 30
0.0
 10
351.9149124922178
 20
445.7661555241061
 30
0.0
 10
351.7206163064477
 20
445.6539635383312
 30
0.0
 10
351.5333147705062
 20
445.5397095328145
 30
0.0
  0
ARC
  5
134
330
1F
100
AcDbEntity
  8
0
  6
Continuous
 62
     8
370
     0
100
AcDbCircle
 10
351.5011171623
 20
445.7096918835
 30
0.0
 40
0.1730043620776048
100
AcDbArc
 50
200.1242597108
 51
280.7254879692
  0
LINE
  5
135
330
1F
100
AcDbEntity
  8
0
  6
Continuous
 62
     8
370
     0
100
AcDbLine
 10
377.4387591342
 20
500.3668486709
 30
0.0
 11
377.4836861352
 21
500.3668486709
 31
0.0
  0
SPLINE
  5
136
330
1F
100
AcDbEntity
  8
0
  6
Continuous
 62
     8
370
     0
100
AcDbSpline
210
0.0
220
0.0
230
1.0
 70
     8
 71
     3
 72
    30
 73
    26
 74
     0
 42
0.00000001
 43
0.00000001
 40
0.0
 40
0.0
 40
0.0
 40
0.0
 40
0.1249999999999989
 40
0.1249999999999989
 40
0.1874999999999992
 40
0.1874999999999992
 40
0.2499999999999994
 40
0.2499999999999994
 40
0.3124999999999997
 40
0.3124999999999997
 40
0.3749999999999999
 40
0.3749999999999999
 40
0.4999999999999991
 40
0.4999999999999991
 40
0.5624999999999987
 40
0.5624999999999987
 40
0.6249999999999982
 40
0.6249999999999982
 40
0.7499999999999986
 40
0.7499999999999986
 40
0.8124999999999987
 40
0.8124999999999987
 40
0.8749999999999988
 40
0.8749999999999988
 40
1.0
 40
1.0
 40
1.0
 40
1.0
 10
377.4387594005897
 20
500.366845639732
 30
0.0
 10
377.4388739135053
 20
499.2579866397578
 30
0.0
 10
377.4429284816158
 20
498.1482916797343
 30
0.0
 10
377.4513558549389
 20
496.491845847066
 30
0.0
 10
377.4545303864041
 20
495.940858193067
 30
0.0
 10
377.4604871856999
 20
494.8518172305946
 30
0.0
 10
377.4632676998301
 20
494.31258890381
 30
0.0
 10
377.4681588011338
 20
493.2464787247351
 30
0.0
 10
377.4702383789883
 20
492.7196149733492
 30
0.0
 10
377.4739069267225
 20
491.6803410314409
 30
0.0
 10
377.4755483079952
 20
491.1668402819399
 30
0.0
 10
377.4813772504929
 20
489.6572782885409
 30
0.0
 10
377.4869398178002
 20
488.7219978228708
 30
0.0
 10
377.4915956892607
 20
487.4090904777223
 30
0.0
 10
377.4925622698489
 20
486.9859315496583
 30
0.0
 10
377.4927163508303
 20
486.1620432570666
 30
0.0
 10
377.4919158388534
 20
485.7607125354667
 30
0.0
 10
377.4868561176284
 20
484.5852458539024
 30
0.0
 10
377.4793564020199
 20
483.8354667477811
 30
0.0
 10
377.4647796191854
 20
482.7225671721947
 30
0.0
 10
377.4595868212554
 20
482.3538303971717
 30
0.0
 10
377.450268973951
 20
481.6119013095155
 30
0.0
 10
377.4460445956095
 20
481.2385295756363
 30
0.0
 10
377.4318817884765
 20
480.1085251733175
 30
0.0
 10
377.4193890698727
 20
479.3431416773014
 30
0.0
 10
377.4001678024903
 20
478.5650486886931
 30
0.0
  0
LINE
  5
137
330
1F
100
AcDbEntity
  8
0
  6
Continuous
 62
     8
370
     0
100
AcDbLine
 10
377.3183652024
 20
449.0730434293
 30
0.0
 11
377.3183652024
 21
443.3016970391
 31
0.0
  0
SPLINE
  5
138
330
1F
100
AcDbEntity
  8
0
  6
Continuous
 62
     8
370
     0
100
AcDbSpline
210
0.0
220
0.0
230
1.0
 70
     8
 71
     3
 72
    10
 73
     6
 74
     0
 42
0.00000001
 43
0.00000001
 40
0.0
 40
0.0
 40
0.0
 40
0.0
 40
0.5
 40
0.5
 40
1.0
 40
1.0
 40
1.0
 40
1.0
 10
495.8563621152944
 20
659.3461445152082
 30
0.0
 10
495.8604673248506
 20
659.3228627390331
 30
0.0
 10
495.865276866221
 20
659.2955864480016
 30
0.0
 10
495.8720785970477
 20
659.2570119238948
 30
0.0
 10
495.8737790297544
 20
659.2473682928681
 30
0.0
 10
495.8737790297544
 20
659.2473682928681
 30
0.0
  0
SPLINE
  5
139
330
1F
100
AcDbEntity
  8
0
  6
Continuous
 62
     8
370
     0
100
AcDbSpline
210
0.0
220
0.0
230
1.0
 70
     8
 71
     3
 72
    24
 73
    20
 74
     0
 42
0.00000001
 43
0.00000001
 40
0.0
 40
0.0
 40
0.0
 40
0.0
 40
0.0312500000000003
 40
0.0312500000000003
 40
0.0625000000000006
 40
0.0625000000000006
 40
0.1250000000000012
 40
0.1250000000000012
 40
0.1875000000000019
 40
0.1875000000000019
 40
0.2500000000000025
 40
0.2500000000000025
 40
0.3125000000000031
 40
0.3125000000000031
 40
0.3750000000000038
 40
0.3750000000000038
 40
0.5000000000000033
 40
0.5000000000000033
 40
1.0
 40
1.0
 40
1.0
 40
1.0
 10
377.4387814977696
 20
550.131595699728
 30
0.0
 10
377.4551757463157
 20
549.6142312316307
 30
0.0
 10
377.4600022809362
 20
549.0957507450975
 30
0.0
 10
377.4577329514253
 20
548.0591424316137
 30
0.0
 10
377.4505685350446
 20
547.5407201006561
 30
0.0
 10
377.4304590971392
 20
545.9856248671861
 30
0.0
 10
377.4255848054036
 20
544.948854663119
 30
0.0
 10
377.4270502005749
 20
542.8752652053722
 30
0.0
 10
377.432344842368
 20
541.8384501708005
 30
0.0
 10
377.4402296104524
 20
539.7648319309566
 30
0.0
 10
377.4418337453864
 20
538.7280332295859
 30
0.0
 10
377.4417954067991
 20
536.6544507260422
 30
0.0
 10
377.4404588098048
 20
535.6176643384026
 30
0.0
 10
377.4386450583947
 20
533.5440881121867
 30
0.0
 10
377.4386676733331
 20
532.5072993456424
 30
0.0
 10
377.439351318971
 20
529.3969324612401
 30
0.0
 10
377.4390849402266
 20
527.3233548201217
 30
0.0
 10
377.4380019269202
 20
516.9554667083675
 30
0.0
 10
377.4387334327869
 20
508.6611561624622
 30
0.0
 10
377.4387594010292
 20
500.3668456397364
 30
0.0
  0
LINE
  5
13A
330
1F
100
AcDbEntity
  8
0
  6
Continuous
 62
     8
370
     0
100
AcDbLine
 10
361.4116736512
 20
509.0777024264
 30
0.0
 11
361.4116736512
 21
500.3668486709
 31
0.0
  0
LINE
  5
13B
330
1F
100
AcDbEntity
  8
0
  6
Continuous
 62
     8
370
     0
100
AcDbLine
 10
361.4116736512
 20
516.8242871399
 30
0.0
 11
361.4116736512
 21
509.0777024264
 31
0.0
  0
SPLINE
  5
13C
330
1F
100
AcDbEntity
  8
0
  6
Continuous
 62
     8
370
     0
100
AcDbSpline
210
0.0
220
0.0
230
1.0
 70
     8
 71
     3
 72
    24
 73
    20
 74
     0
 42
0.00000001
 43
0.00000001
 40
0.0
 40
0.0
 40
0.0
 40
0.0
 40
0.2499999999999994
 40
0.2499999999999994
 40
0.4999999999999988
 40
0.4999999999999988
 40
0.6249999999999984
 40
0.6249999999999984
 40
0.7499999999999982
 40
0.7499999999999982
 40
0.8749999999999979
 40
0.8749999999999979
 40
0.9374999999999977
 40
0.9374999999999977
 40
0.9687499999999977
 40
0.9687499999999977
 40
0.9843749999999988
 40
0.9843749999999988
 40
1.0
 40
1.0
 40
1.0
 40
1.0
 10
361.4116710798594
 20
516.824289665919
 30
0.0
 10
361.411729082767
 20
519.6115280853169
 30
0.0
 10
361.4118611405019
 20
522.3987672031757
 30
0.0
 10
361.4112813484623
 20
527.9732439757634
 30
0.0
 10
361.4127241797038
 20
530.7604833488219
 30
0.0
 10
361.4110034739011
 20
534.9413397894158
 30
0.0
 10
361.4085915298322
 20
536.3349553544366
 30
0.0
 10
361.4086255926687
 20
539.1222010699149
 30
0.0
 10
361.4130258454717
 20
540.5158411966704
 30
0.0
 10
361.4242198982621
 20
543.3031303235629
 30
0.0
 10
361.4285413740762
 20
544.6967702643617
 30
0.0
 10
361.4109273864897
 20
546.7871358707374
 30
0.0
 10
361.3985175041099
 20
547.4839429660369
 30
0.0
 10
361.3908925088305
 20
548.5290495789163
 30
0.0
 10
361.3903553977043
 20
548.8773579594701
 30
0.0
 10
361.3952162525601
 20
549.3996541763395
 30
0.0
 10
361.3977778638629
 20
549.5737254032526
 30
0.0
 10
361.4052111011052
 20
549.9218029000203
 30
0.0
 10
361.4093495517391
 20
550.095794583769
 30
0.0
 10
361.4168007476414
 20
550.2697880132367
 30
0.0
  0
SPLINE
  5
13D
330
1F
100
AcDbEntity
  8
0
  6
Continuous
 62
     8
370
     0
100
AcDbSpline
210
0.0
220
0.0
230
1.0
 70
     8
 71
     3
 72
     8
 73
     4
 74
     0
 42
0.00000001
 43
0.00000001
 40
0.0
 40
0.0
 40
0.0
 40
0.0
 40
1.0
 40
1.0
 40
1.0
 40
1.0
 10
369.4317248866074
 20
558.145135879972
 30
0.0
 10
370.1311319028708
 20
558.1445682463127
 30
0.0
 10
370.8186200531592
 20
558.0535306104264
 30
0.0
 10
371.494370102624
 20
557.8733950678529
 30
0.0
  0
SPLINE
  5
13E
330
1F
100
AcDbEntity
  8
0
  6
Continuous
 62
     8
370
     0
100
AcDbSpline
210
0.0
220
0.0
230
1.0
 70
     8
 71
     3
 72
     8
 73
     4
 74
     0
 42
0.00000001
 43
0.00000001
 40
0.0
 40
0.0
 40
0.0
 40
0.0
 40
1.0
 40
1.0
 40
1.0
 40
1.0
 10
367.3549800525449
 20
557.8731059384874
 30
0.0
 10
368.0353393891648
 20
558.054545747623
 30
0.0
 10
368.7275241364704
 20
558.1457074041911
 30
0.0
 10
369.4317248866072
 20
558.145135879972
 30
0.0
  0
SPLINE
  5
13F
330
1F
100
AcDbEntity
  8
0
  6
Continuous
 62
     8
370
     0
100
AcDbSpline
210
0.0
220
0.0
230
1.0
 70
     8
 71
     3
 72
     8
 73
     4
 74
     0
 42
0.00000001
 43
0.00000001
 40
0.0
 40
0.0
 40
0.0
 40
0.0
 40
1.0
 40
1.0
 40
1.0
 40
1.0
 10
362.4982207327539
 20
554.161894099339
 30
0.0
 10
362.6933957701524
 20
554.4943763688916
 30
0.0
 10
362.9105814131098
 20
554.8117912574761
 30
0.0
 10
363.1500586605978
 20
555.1139450109755
 30
0.0
  0
SPLINE
  5
140
330
1F
100
AcDbEntity
  8
0
  6
Continuous
 62
     8
370
     0
100
AcDbSpline
210
0.0
220
0.0
230
1.0
 70
     8
 71
     3
 72
     8
 73
     4
 74
     0
 42
0.00000001
 43
0.00000001
 40
0.0
 40
0.0
 40
0.0
 40
0.0
 40
1.0
 40
1.0
 40
1.0
 40
1.0
 10
363.1500586605978
 20
555.1139450109755
 30
0.0
 10
363.5145832905913
 20
555.5738738198743
 30
0.0
 10
363.9244414034479
 20
555.9889667137373
 30
0.0
 10
364.3806534043574
 20
556.358215988323
 30
0.0
  0
SPLINE
  5
141
330
1F
100
AcDbEntity
  8
0
  6
Continuous
 62
     8
370
     0
100
AcDbSpline
210
0.0
220
0.0
230
1.0
 70
     8
 71
     3
 72
     8
 73
     4
 74
     0
 42
0.00000001
 43
0.00000001
 40
0.0
 40
0.0
 40
0.0
 40
0.0
 40
1.0
 40
1.0
 40
1.0
 40
1.0
 10
376.353010287613
 20
554.1591369441326
 30
0.0
 10
376.7271948943317
 20
553.5202310060271
 30
0.0
 10
377.0099159986234
 20
552.8438797063602
 30
0.0
 10
377.1861557802494
 20
552.1239492295825
 30
0.0
  0
SPLINE
  5
142
330
1F
100
AcDbEntity
  8
0
  6
Continuous
 62
     8
370
     0
100
AcDbSpline
210
0.0
220
0.0
230
1.0
 70
     8
 71
     3
 72
    12
 73
     8
 74
     0
 42
0.00000001
 43
0.00000001
 40
0.0
 40
0.0
 40
0.0
 40
0.0
 40
0.2500000000000051
 40
0.2500000000000051
 40
0.5000000000000102
 40
0.5000000000000102
 40
1.0
 40
1.0
 40
1.0
 40
1.0
 10
373.3126527935463
 20
557.1391111015364
 30
0.0
 10
373.6288677585089
 20
556.9634591817486
 30
0.0
 10
373.9311736316732
 20
556.7677186819858
 30
0.0
 10
374.508499355745
 20
556.3368290052675
 30
0.0
 10
374.7843907673366
 20
556.1004727821733
 30
0.0
 10
375.5508066382535
 20
555.3471885216505
 30
0.0
 10
375.9876224238997
 20
554.7830227792161
 30
0.0
 10
376.353010287613
 20
554.1591369441327
 30
0.0
  0
SPLINE
  5
143
330
1F
100
AcDbEntity
  8
0
  6
Continuous
 62
     8
370
     0
100
AcDbSpline
210
0.0
220
0.0
230
1.0
 70
     8
 71
     3
 72
    10
 73
     6
 74
     0
 42
0.00000001
 43
0.00000001
 40
0.0
 40
0.0
 40
0.0
 40
0.0
 40
0.5
 40
0.5
 40
1.0
 40
1.0
 40
1.0
 40
1.0
 10
377.1861557802494
 20
552.1239492295825
 30
0.0
 10
377.2662651760333
 20
551.7967064529005
 30
0.0
 10
377.3234912644951
 20
551.4665606547129
 30
0.0
 10
377.4044361178618
 20
550.8020261155216
 30
0.0
 10
377.4282079215317
 20
550.4657756919094
 30
0.0
 10
377.4387814977696
 20
550.131595699728
 30
0.0
  0
SPLINE
  5
144
330
1F
100
AcDbEntity
  8
0
  6
Continuous
 62
     8
370
     0
100
AcDbSpline
210
0.0
220
0.0
230
1.0
 70
     8
 71
     3
 72
     8
 73
     4
 74
     0
 42
0.00000001
 43
0.00000001
 40
0.0
 40
0.0
 40
0.0
 40
0.0
 40
1.0
 40
1.0
 40
1.0
 40
1.0
 10
361.4168007476414
 20
550.2697880132367
 30
0.0
 10
361.4435505597202
 20
550.8944248637806
 30
0.0
 10
361.5151945297409
 20
551.5129726230479
 30
0.0
 10
361.6636630317129
 20
552.1212978943668
 30
0.0
  0
LINE
  5
145
330
1F
100
AcDbEntity
  8
0
  6
Continuous
 62
     8
370
     0
100
AcDbLine
 10
355.1933818321
 20
487.745542788
 30
0.0
 11
349.0328022103
 21
487.745542788
 31
0.0
  0
LINE
  5
146
330
1F
100
AcDbEntity
  8
0
  6
Continuous
 62
     8
370
     0
100
AcDbLine
 10
377.4993696074
 20
500.3668486709
 30
0.0
 11
377.4993696074
 21
507.8965097303
 31
0.0
  0
LINE
  5
147
330
1F
100
AcDbEntity
  8
0
  6
Continuous
 62
     8
370
     0
100
AcDbLine
 10
361.351063178
 20
515.3343051309
 30
0.0
 11
361.351063178
 21
500.3668486709
 31
0.0
  0
LINE
  5
148
330
1F
100
AcDbEntity
  8
0
  6
Continuous
 62
     7
370
    15
100
AcDbLine
 10
170.3242019508
 20
109.234172696
 30
0.0
 11
170.3242019508
 21
318.2642071677
 31
0.0
  0
LINE
  5
149
330
1F
100
AcDbEntity
  8
0
  6
Continuous
 62
     7
370
    15
100
AcDbLine
 10
170.3242019508
 20
108.0324089469
 30
0.0
 11
170.3242019508
 21
109.234172696
 31
0.0
  0
LINE
  5
14A
330
1F
100
AcDbEntity
  8
0
  6
Continuous
 62
     7
370
    15
100
AcDbLine
 10
170.3242019508
 20
100.5605494918
 30
0.0
 11
170.3242019508
 21
107.9801654758
 31
0.0
  0
LINE
  5
14B
330
1F
100
AcDbEntity
  8
0
  6
Continuous
 62
     7
370
    15
100
AcDbLine
 10
148.2582020331
 20
107.9801654758
 30
0.0
 11
148.2582020331
 21
100.5605494918
 31
0.0
  0
SPLINE
  5
14C
330
1F
100
AcDbEntity
  8
0
  6
Continuous
 62
     7
370
    15
100
AcDbSpline
210
0.0
220
0.0
230
1.0
 70
     8
 71
     3
 72
    14
 73
    10
 74
     0
 42
0.00000001
 43
0.00000001
 40
0.0
 40
0.0
 40
0.0
 40
0.0
 40
0.1889043955061326
 40
0.2803590363980207
 40
0.3745291158338876
 40
0.4754851463927953
 40
0.5863737320039948
 40
0.8414206788580357
 40
1.0
 40
1.0
 40
1.0
 40
1.0
 10
182.3601930160276
 20
307.8968327806969
 30
0.0
 10
182.3628459924334
 20
308.2135099506092
 30
0.0
 10
182.3667833593046
 20
308.6835006354103
 30
0.0
 10
182.3867542453207
 20
309.2660344502611
 30
0.0
 10
182.4023883425467
 20
309.6608156830871
 30
0.0
 10
182.4162771014401
 20
310.0088927617402
 30
0.0
 10
182.4260815333669
 20
310.407317004419
 30
0.0
 10
182.4196977621116
 20
310.6772219682673
 30
0.0
 10
182.3755058481872
 20
310.6592916928845
 30
0.0
 10
182.3585632015221
 20
310.6524174416144
 30
0.0
  0
SPLINE
  5
14D
330
1F
100
AcDbEntity
  8
0
  6
Continuous
 62
     7
370
    15
100
AcDbSpline
210
0.0
220
0.0
230
1.0
 70
     8
 71
     3
 72
    16
 73
    12
 74
     0
 42
0.00000001
 43
0.00000001
 40
0.0
 40
0.0
 40
0.0
 40
0.0
 40
0.03712683605929
 40
0.2495143019338014
 40
0.3382691597786278
 40
0.4148783302423588
 40
0.4822221719826257
 40
0.5445777779283041
 40
0.6066040431278351
 40
0.6721560727116662
 40
1.0
 40
1.0
 40
1.0
 40
1.0
 10
136.0219291169397
 20
311.8025072233458
 30
0.0
 10
136.0185852035038
 20
311.8096748188796
 30
0.0
 10
135.996112127011
 20
311.8578453010966
 30
0.0
 10
136.0075886022975
 20
311.7075054954502
 30
0.0
 10
136.0330033107035
 20
311.4298930186756
 30
0.0
 10
136.0598049740913
 20
311.1710162724055
 30
0.0
 10
136.0904246645323
 20
310.8666029553322
 30
0.0
 10
136.1220181155648
 20
310.5224652710575
 30
0.0
 10
136.1513243858246
 20
310.1493849909776
 30
0.0
 10
136.2092600384156
 20
309.2428357313037
 30
0.0
 10
136.2163194731682
 20
308.5127476633563
 30
0.0
 10
136.2222025860302
 20
307.9043150262614
 30
0.0
  0
LINE
  5
14E
330
1F
100
AcDbEntity
  8
0
  6
Continuous
 62
     7
370
    15
100
AcDbLine
 10
136.222202586
 20
308.022898467
 30
0.0
 11
136.222202586
 21
265.3058057965
 31
0.0
  0
LINE
  5
14F
330
1F
100
AcDbEntity
  8
0
  6
Continuous
 62
     7
370
    15
100
AcDbLine
 10
182.3602023293
 20
265.3058057965
 30
0.0
 11
182.3602023293
 21
308.022898467
 31
0.0
  0
LINE
  5
150
330
1F
100
AcDbEntity
  8
0
  6
Continuous
 62
     7
370
    15
100
AcDbLine
 10
182.3602023293
 20
229.5437639894
 30
0.0
 11
182.3602023293
 21
256.8388728739
 31
0.0
  0
LINE
  5
151
330
1F
100
AcDbEntity
  8
0
  6
Continuous
 62
     7
370
    15
100
AcDbLine
 10
136.222202586
 20
256.8389175774
 30
0.0
 11
136.222202586
 21
229.5437639894
 31
0.0
  0
ARC
  5
152
330
1F
100
AcDbEntity
  8
0
  6
Continuous
 62
     7
370
    15
100
AcDbCircle
 10
181.9590020707
 20
265.606707173
 30
0.0
 40
0.5015006363845782
100
AcDbArc
 50
270.0000000001
 51
323.1298539429
  0
ARC
  5
153
330
1F
100
AcDbEntity
  8
0
  6
Continuous
 62
     7
370
    15
100
AcDbCircle
 10
136.6234020707
 20
265.606707173
 30
0.0
 40
0.5015006363846465
100
AcDbArc
 50
216.8701460571
 51
269.9999999999
  0
LINE
  5
154
330
1F
100
AcDbEntity
  8
0
  6
Continuous
 62
     7
370
    15
100
AcDbLine
 10
181.357201444
 20
263.0992083193
 30
0.0
 11
181.357201444
 21
265.1052063646
 31
0.0
  0
LINE
  5
155
330
1F
100
AcDbEntity
  8
0
  6
Continuous
 62
     7
370
    15
100
AcDbLine
 10
137.2252016086
 20
265.1052063646
 30
0.0
 11
137.2252016086
 21
263.0992083193
 31
0.0
  0
ARC
  5
156
330
1F
100
AcDbEntity
  8
0
  6
Continuous
 62
     7
370
    15
100
AcDbCircle
 10
159.2912020707
 20
263.0255208703
 30
0.0
 40
22.06599999999999
100
AcDbArc
 50
344.2711888306
 51
0.1977792437
  0
ARC
  5
157
330
1F
100
AcDbEntity
  8
0
  6
Continuous
 62
     7
370
    15
100
AcDbCircle
 10
159.2912020707
 20
263.0255208703
 30
0.0
 40
22.06599999999999
100
AcDbArc
 50
179.801489143
 51
195.7307874121
  0
SPLINE
  5
158
330
1F
100
AcDbEntity
  8
0
  6
Continuous
 62
     7
370
    15
100
AcDbSpline
210
0.0
220
0.0
230
1.0
 70
     8
 71
     3
 72
    12
 73
     8
 74
     0
 42
0.00000001
 43
0.00000001
 40
0.0
 40
0.0
 40
0.0
 40
0.0
 40
0.479566615687385
 40
0.6799478035805065
 40
0.8078330198366422
 40
0.9342206032626594
 40
1.0
 40
1.0
 40
1.0
 40
1.0
 10
182.3561585266344
 20
256.8303568603177
 30
0.0
 10
182.35923885272
 20
256.8503305974145
 30
0.0
 10
182.3636062563042
 20
256.8786501222187
 30
0.0
 10
182.33955308448
 20
256.9711342126849
 30
0.0
 10
182.2788590044236
 20
257.0430199292256
 30
0.0
 10
182.2089509012628
 20
257.0803164450321
 30
0.0
 10
182.1650810779481
 20
257.0771414634297
 30
0.0
 10
182.1500642914526
 20
257.0760546566625
 30
0.0
  0
SPLINE
  5
159
330
1F
100
AcDbEntity
  8
0
  6
Continuous
 62
     7
370
    15
100
AcDbSpline
210
0.0
220
0.0
230
1.0
 70
     8
 71
     3
 72
    14
 73
    10
 74
     0
 42
0.00000001
 43
0.00000001
 40
0.0
 40
0.0
 40
0.0
 40
0.0
 40
0.1124524088459262
 40
0.240867696996342
 40
0.3531805835381226
 40
0.4711663855579442
 40
0.6352608753959443
 40
0.983894974907945
 40
1.0
 40
1.0
 40
1.0
 40
1.0
 10
136.4301054496519
 20
257.0784239412923
 30
0.0
 10
136.4054522977469
 20
257.0767620768557
 30
0.0
 10
136.3526464220524
 20
257.0732024424855
 30
0.0
 10
136.2881955633752
 20
257.0280185185701
 30
0.0
 10
136.2497223442308
 20
256.9757788049829
 30
0.0
 10
136.2313599177179
 20
256.928933881856
 30
0.0
 10
136.2228759127449
 20
256.8802197466659
 30
0.0
 10
136.2205231848414
 20
256.8599305134124
 30
0.0
 10
136.2223599044125
 20
256.8374764213864
 30
0.0
 10
136.2224410046093
 20
256.8364849628587
 30
0.0
  0
ARC
  5
15A
330
1F
100
AcDbEntity
  8
0
  6
Continuous
 62
     7
370
    15
100
AcDbCircle
 10
159.2912020726
 20
318.264207173
 30
0.0
 40
11.03299999968559
100
AcDbArc
 50
0.0
 51
180.0
  0
LINE
  5
15B
330
1F
100
AcDbEntity
  8
0
  6
Continuous
 62
     7
370
    15
100
AcDbLine
 10
148.2582020331
 20
318.2642071677
 30
0.0
 11
148.2582020331
 21
109.234172696
 31
0.0
  0
LINE
  5
15C
330
1F
100
AcDbEntity
  8
0
  6
Continuous
 62
     7
370
    15
100
AcDbLine
 10
148.2582020331
 20
108.0324089469
 30
0.0
 11
148.2582020331
 21
109.234172696
 31
0.0
  0
ARC
  5
15D
330
1F
100
AcDbEntity
  8
0
  6
Continuous
 62
     7
370
    15
100
AcDbCircle
 10
159.3800686628
 20
100.6391247209
 30
0.0
 40
10.94441535641525
100
AcDbArc
 50
269.4719899385
 51
359.5886424693
  0
ARC
  5
15E
330
1F
100
AcDbEntity
  8
0
  6
Continuous
 62
     7
370
    15
100
AcDbCircle
 10
159.2088244317
 20
100.6459029154
 30
0.0
 40
10.95095503249746
100
AcDbArc
 50
180.4465766174
 51
270.368271062
  0
ARC
  5
15F
330
1F
100
AcDbEntity
  8
0
  6
Continuous
 62
     7
370
    15
100
AcDbCircle
 10
159.2912020707
 20
318.264207173
 30
0.0
 40
24.07200000000002
100
AcDbArc
 50
90.0
 51
242.7203872699
  0
ARC
  5
160
330
1F
100
AcDbEntity
  8
0
  6
Continuous
 62
     7
370
    15
100
AcDbCircle
 10
159.2912020707
 20
318.264207173
 30
0.0
 40
24.072
100
AcDbArc
 50
297.2796127402
 51
90.0
  0
LINE
  5
161
330
1F
100
AcDbEntity
  8
0
  6
Continuous
 62
     7
370
    15
100
AcDbLine
 10
179.8129512686
 20
226.5704086365
 30
0.0
 11
170.3242019508
 21
225.469093615
 31
0.0
  0
LINE
  5
162
330
1F
100
AcDbEntity
  8
0
  6
Continuous
 62
     7
370
    15
100
AcDbLine
 10
148.2582020331
 20
225.469093615
 30
0.0
 11
138.7694461961
 21
226.5704086365
 31
0.0
  0
SPLINE
  5
163
330
1F
100
AcDbEntity
  8
0
  6
Continuous
 62
     7
370
    15
100
AcDbSpline
210
0.0
220
0.0
230
1.0
 70
     8
 71
     3
 72
    10
 73
     6
 74
     0
 42
0.00000001
 43
0.00000001
 40
0.0
 40
0.0
 40
0.0
 40
0.0
 40
0.2805718152918705
 40
0.5196335811778988
 40
1.0
 40
1.0
 40
1.0
 40
1.0
 10
182.359747843837
 20
256.83887287394
 30
0.0
 10
182.3598113987561
 20
256.846570333685
 30
0.0
 10
182.3599291057687
 20
256.8608264291131
 30
0.0
 10
182.3575814512551
 20
256.8760443875111
 30
0.0
 10
182.3541370420908
 20
256.8787804297214
 30
0.0
 10
182.3518371898882
 20
256.8806073011537
 30
0.0
  0
SPLINE
  5
164
330
1F
100
AcDbEntity
  8
0
  6
Continuous
 62
     7
370
    15
100
AcDbSpline
210
0.0
220
0.0
230
1.0
 70
     8
 71
     3
 72
    11
 73
     7
 74
     0
 42
0.00000001
 43
0.00000001
 40
0.0
 40
0.0
 40
0.0
 40
0.0
 40
0.2283134397080704
 40
0.6859661976263203
 40
0.9688663317107624
 40
1.0
 40
1.0
 40
1.0
 40
1.0
 10
136.2305658627502
 20
256.8806073011537
 30
0.0
 10
136.229355936587
 20
256.880101255315
 30
0.0
 10
136.2257207215483
 20
256.8785808439884
 30
0.0
 10
136.2224320853284
 20
256.8677662859772
 30
0.0
 10
136.2227311717038
 20
256.8453553477167
 30
0.0
 10
136.2226298624575
 20
256.8373121745187
 30
0.0
 10
136.2226198185436
 20
256.8365147651811
 30
0.0
  0
LINE
  5
165
330
1F
100
AcDbEntity
  8
0
  6
Continuous
 62
     7
370
    15
100
AcDbLine
 10
170.3242019508
 20
265.1052063646
 30
0.0
 11
181.9590016026
 21
265.1052063646
 31
0.0
  0
LINE
  5
166
330
1F
100
AcDbEntity
  8
0
  6
Continuous
 62
     7
370
    15
100
AcDbLine
 10
136.62340145
 20
265.1052063646
 30
0.0
 11
148.2582020331
 21
265.1052063646
 31
0.0
  0
LINE
  5
167
330
1F
100
AcDbEntity
  8
0
  6
Continuous
 62
     7
370
    15
100
AcDbLine
 10
136.4310945142
 20
257.0812067331
 30
0.0
 11
148.2582020331
 21
257.0812067331
 31
0.0
  0
LINE
  5
168
330
1F
100
AcDbEntity
  8
0
  6
Continuous
 62
     7
370
    15
100
AcDbLine
 10
170.3242019508
 20
257.0812067331
 30
0.0
 11
182.1513104011
 21
257.0812067331
 31
0.0
  0
ARC
  5
169
330
1F
100
AcDbEntity
  8
0
  6
Continuous
 62
     7
370
    15
100
AcDbCircle
 10
182.1512737994
 20
256.8806433427
 30
0.0
 40
0.2005633937435706
100
AcDbArc
 50
359.9897038495
 51
89.9895438473
  0
SPLINE
  5
16A
330
1F
100
AcDbEntity
  8
0
  6
Continuous
 62
     7
370
    15
100
AcDbSpline
210
0.0
220
0.0
230
1.0
 70
     8
 71
     3
 72
    14
 73
    10
 74
     0
 42
0.00000001
 43
0.00000001
 40
0.0
 40
0.0
 40
0.0
 40
0.0
 40
0.25
 40
0.25
 40
0.5
 40
0.5
 40
0.75
 40
0.75
 40
1.0
 40
1.0
 40
1.0
 40
1.0
 10
179.8129577289858
 20
226.5704084823812
 30
0.0
 10
180.1639947937683
 20
226.6249237115967
 30
0.0
 10
180.5051865109338
 20
226.7422320327356
 30
0.0
 10
181.1258688315264
 20
227.0879908632499
 30
0.0
 10
181.4051976155892
 20
227.3163512291294
 30
0.0
 10
181.867437101843
 20
227.8559161967338
 30
0.0
 10
182.0502272926269
 20
228.1669801273661
 30
0.0
 10
182.2966418906327
 20
228.8333700524355
 30
0.0
 10
182.3602020545981
 20
229.1885223109846
 30
0.0
 10
182.3602020502458
 20
229.5437671861558
 30
0.0
  0
SPLINE
  5
16B
330
1F
100
AcDbEntity
  8
0
  6
Continuous
 62
     7
370
    15
100
AcDbSpline
210
0.0
220
0.0
230
1.0
 70
     8
 71
     3
 72
    14
 73
    10
 74
     0
 42
0.00000001
 43
0.00000001
 40
0.0
 40
0.0
 40
0.0
 40
0.0
 40
0.25
 40
0.25
 40
0.5
 40
0.5
 40
0.75
 40
0.75
 40
1.0
 40
1.0
 40
1.0
 40
1.0
 10
138.7694534735294
 20
226.5704108892698
 30
0.0
 10
138.4184156917355
 20
226.6249253804483
 30
0.0
 10
138.0772231417701
 20
226.7422332015427
 30
0.0
 10
137.4565391644238
 20
227.0879915221169
 30
0.0
 10
137.1772095579182
 20
227.3163518776326
 30
0.0
 10
136.7149686527954
 20
227.8559172227132
 30
0.0
 10
136.5321778667588
 20
228.1669815401493
 30
0.0
 10
136.2857624537728
 20
228.8333724616238
 30
0.0
 10
136.2222020707207
 20
229.188525328356
 30
0.0
 10
136.2222020707207
 20
229.5437708124866
 30
0.0
  0
ARC
  5
16C
330
1F
100
AcDbEntity
  8
0
  6
Continuous
 62
     8
370
     0
100
AcDbCircle
 10
159.2912020707
 20
318.264207173
 30
0.0
 40
12.37227937088164
100
AcDbArc
 50
90.0
 51
206.9058151386
  0
ARC
  5
16D
330
1F
100
AcDbEntity
  8
0
  6
Continuous
 62
     8
370
     0
100
AcDbCircle
 10
159.2912020707
 20
318.264207173
 30
0.0
 40
12.37227937088166
100
AcDbArc
 50
333.0941849
 51
90.0
  0
ARC
  5
16E
330
1F
100
AcDbEntity
  8
0
  6
Continuous
 62
     8
370
     0
100
AcDbCircle
 10
159.2912020707
 20
318.264207173
 30
0.0
 40
12.67036648801508
100
AcDbArc
 50
90.0
 51
209.4515282293
  0
ARC
  5
16F
330
1F
100
AcDbEntity
  8
0
  6
Continuous
 62
     8
370
     0
100
AcDbCircle
 10
159.2912020707
 20
318.264207173
 30
0.0
 40
12.67036648801508
100
AcDbArc
 50
330.5484718054
 51
90.0
  0
ARC
  5
170
330
1F
100
AcDbEntity
  8
0
  6
Continuous
 62
     8
370
     0
100
AcDbCircle
 10
159.2912020707
 20
318.264207173
 30
0.0
 40
21.02080675700125
100
AcDbArc
 50
90.0
 51
238.3411189938
  0
ARC
  5
171
330
1F
100
AcDbEntity
  8
0
  6
Continuous
 62
     8
370
     0
100
AcDbCircle
 10
159.2912020707
 20
318.264207173
 30
0.0
 40
21.02080675700127
100
AcDbArc
 50
301.6588810183
 51
90.0
  0
LINE
  5
172
330
1F
100
AcDbEntity
  8
0
  6
Continuous
 62
     8
370
     0
100
AcDbLine
 10
148.2582020331
 20
226.4323940815
 30
0.0
 11
144.9541796688
 21
226.4886087121
 31
0.0
  0
ARC
  5
173
330
1F
100
AcDbEntity
  8
0
  6
Continuous
 62
     8
370
     0
100
AcDbCircle
 10
146.0843647777
 20
229.1081749148
 30
0.0
 40
2.852971340675904
100
AcDbArc
 50
173.024775759
 51
246.6627103058
  0
LINE
  5
174
330
1F
100
AcDbEntity
  8
0
  6
Continuous
 62
     8
370
     0
100
AcDbLine
 10
173.6284571458
 20
226.4886087121
 30
0.0
 11
170.3242019508
 21
226.4323940815
 31
0.0
  0
ARC
  5
175
330
1F
100
AcDbEntity
  8
0
  6
Continuous
 62
     8
370
     0
100
AcDbCircle
 10
172.4980607374
 20
229.1080720763
 30
0.0
 40
2.85296063003455
100
AcDbArc
 50
293.3420041914
 51
6.9771805136
  0
LINE
  5
176
330
1F
100
AcDbEntity
  8
0
  6
Continuous
 62
     8
370
     0
100
AcDbLine
 10
143.25250897
 20
246.6953059973
 30
0.0
 11
143.25250897
 21
229.4546401443
 31
0.0
  0
SPLINE
  5
177
330
1F
100
AcDbEntity
  8
0
  6
Continuous
 62
     8
370
     0
100
AcDbSpline
210
0.0
220
0.0
230
1.0
 70
     8
 71
     3
 72
    13
 73
     9
 74
     0
 42
0.00000001
 43
0.00000001
 40
0.0
 40
0.0
 40
0.0
 40
0.0
 40
0.1059108662254085
 40
0.2850772963092038
 40
0.462900968513094
 40
0.6420979802926882
 40
0.8210617828704606
 40
1.0
 40
1.0
 40
1.0
 40
1.0
 10
148.2582020331375
 20
254.7845280112405
 30
0.0
 10
147.9508980071132
 20
254.6332321488441
 30
0.0
 10
147.1237364135377
 20
254.2259933363231
 30
0.0
 10
145.9868855091911
 20
253.2650279722396
 30
0.0
 10
144.8526365191761
 20
251.9561313768989
 30
0.0
 10
143.9799504513415
 20
250.4018673728163
 30
0.0
 10
143.3729347754018
 20
248.6269847892942
 30
0.0
 10
143.2926489919944
 20
247.3391682404498
 30
0.0
 10
143.2525089699976
 20
246.6953059972901
 30
0.0
  0
SPLINE
  5
178
330
1F
100
AcDbEntity
  8
0
  6
Continuous
 62
     8
370
     0
100
AcDbSpline
210
0.0
220
0.0
230
1.0
 70
     8
 71
     3
 72
    13
 73
     9
 74
     0
 42
0.00000001
 43
0.00000001
 40
0.0
 40
0.0
 40
0.0
 40
0.0
 40
0.1059108639867638
 40
0.2850772902835068
 40
0.4629009587287267
 40
0.642098005966691
 40
0.8210618047616941
 40
1.0
 40
1.0
 40
1.0
 40
1.0
 10
170.3242019508235
 20
254.7845280112405
 30
0.0
 10
170.6315059744553
 20
254.6332321475901
 30
0.0
 10
171.4586675615907
 20
254.2259933316934
 30
0.0
 10
172.595518539921
 20
253.2650280063897
 30
0.0
 10
173.7297673088827
 20
251.9561311558591
 30
0.0
 10
174.6024545490945
 20
250.4018676070157
 30
0.0
 10
175.2094705517536
 20
248.6269848725662
 30
0.0
 10
175.2897548201344
 20
247.3391682464836
 30
0.0
 10
175.3298940826408
 20
246.6953059972901
 30
0.0
  0
LINE
  5
179
330
1F
100
AcDbEntity
  8
0
  6
Continuous
 62
     8
370
     0
100
AcDbLine
 10
175.3298940826
 20
246.6953059973
 30
0.0
 11
175.3298940826
 21
229.4546326937
 31
0.0
  0
SPLINE
  5
17A
330
1F
100
AcDbEntity
  8
0
  6
Continuous
 62
     8
370
     0
100
AcDbSpline
210
0.0
220
0.0
230
1.0
 70
     8
 71
     3
 72
    25
 73
    21
 74
     0
 42
0.00000001
 43
0.00000001
 40
0.0
 40
0.0
 40
0.0
 40
0.0
 40
0.0156249999999988
 40
0.0156249999999988
 40
0.0312499999999977
 40
0.0624999999999978
 40
0.0624999999999978
 40
0.1249999999999981
 40
0.1249999999999981
 40
0.2499999999999987
 40
0.2499999999999987
 40
0.3749999999999993
 40
0.3749999999999993
 40
0.5
 40
0.5
 40
0.7499999999999989
 40
0.7499999999999989
 40
0.8749999999999994
 40
0.8749999999999994
 40
1.0
 40
1.0
 40
1.0
 40
1.0
 10
179.8129577289858
 20
226.5704084823812
 30
0.0
 10
179.812936702927
 20
226.5704293659838
 30
0.0
 10
179.8123772526521
 20
226.5704440923884
 30
0.0
 10
179.8101872200626
 20
226.5704630112145
 30
0.0
 10
179.8052948193682
 20
226.5704765297843
 30
0.0
 10
179.7955998597244
 20
226.5704618350911
 30
0.0
 10
179.7698467300164
 20
226.5704373664285
 30
0.0
 10
179.7441806074388
 20
226.5704496417748
 30
0.0
 10
179.6419739231672
 20
226.5705145971486
 30
0.0
 10
179.540433483508
 20
226.5705308654354
 30
0.0
 10
179.2709674333784
 20
226.5703598076332
 30
0.0
 10
179.1029538597404
 20
226.5701118061642
 30
0.0
 10
178.6995105014475
 20
226.5683304208907
 30
0.0
 10
178.4633949344855
 20
226.5668705025677
 30
0.0
 10
177.6687598730528
 20
226.5601947731542
 30
0.0
 10
177.0206955269326
 20
226.5522869533233
 30
0.0
 10
175.8748666422599
 20
226.5340907123355
 30
0.0
 10
175.4620607804884
 20
226.5269847875738
 30
0.0
 10
174.5836448619855
 20
226.5101333235198
 30
0.0
 10
174.1194326265668
 20
226.5005427725658
 30
0.0
 10
173.6284569386181
 20
226.4886116939856
 30
0.0
  0
SPLINE
  5
17B
330
1F
100
AcDbEntity
  8
0
  6
Continuous
 62
     8
370
     0
100
AcDbSpline
210
0.0
220
0.0
230
1.0
 70
     8
 71
     3
 72
    20
 73
    16
 74
     0
 42
0.00000001
 43
0.00000001
 40
0.0
 40
0.0
 40
0.0
 40
0.0
 40
0.1249999999999991
 40
0.1249999999999991
 40
0.2499999999999982
 40
0.2499999999999982
 40
0.4999999999999988
 40
0.4999999999999988
 40
0.6249999999999991
 40
0.6249999999999991
 40
0.7499999999999993
 40
0.7499999999999993
 40
0.8749999999999997
 40
0.8749999999999997
 40
1.0
 40
1.0
 40
1.0
 40
1.0
 10
144.954179878169
 20
226.4886060396615
 30
0.0
 10
144.4631864712322
 20
226.5005381320842
 30
0.0
 10
143.9989578104481
 20
226.5101292821947
 30
0.0
 10
143.1205105882182
 20
226.5269818121236
 30
0.0
 10
142.7076884367588
 20
226.5340881785528
 30
0.0
 10
141.5618159384086
 20
226.5522855225635
 30
0.0
 10
140.9137273666344
 20
226.5601939066964
 30
0.0
 10
140.1190623912507
 20
226.566870139926
 30
0.0
 10
139.8829377800873
 20
226.5683301734996
 30
0.0
 10
139.4794783937601
 20
226.5701117345199
 30
0.0
 10
139.3114581675809
 20
226.570359782871
 30
0.0
 10
139.0419814655349
 20
226.570530869713
 30
0.0
 10
138.9404370334364
 20
226.5705146009523
 30
0.0
 10
138.8041560552123
 20
226.5704279914109
 30
0.0
 10
138.7696166559659
 20
226.5705775721435
 30
0.0
 10
138.7694464124557
 20
226.5704084823812
 30
0.0
  0
SPLINE
  5
17C
330
1F
100
AcDbEntity
  8
0
  6
Continuous
 62
     8
370
     0
100
AcDbSpline
210
0.0
220
0.0
230
1.0
 70
     8
 71
     3
 72
    39
 73
    35
 74
     0
 42
0.00000001
 43
0.00000001
 40
0.0
 40
0.0
 40
0.0
 40
0.0
 40
0.0645642593225886
 40
0.1326484457519084
 40
0.2043248901796282
 40
0.3007935618684156
 40
0.3539983610974678
 40
0.3818464718577465
 40
0.3960821563134007
 40
0.4032780170421589
 40
0.4068954128645814
 40
0.4087089722995189
 40
0.4096168606404965
 40
0.4100712986146519
 40
0.410298408646843
 40
0.4104121939612935
 40
0.4104688838944872
 40
0.4104973014963335
 40
0.4105115315143987
 40
0.4105186404756768
 40
0.4105221242419795
 40
0.410524039193937
 40
0.4105249064237204
 40
0.4105253553555492
 40
0.4437354821465359
 40
0.5410713247789676
 40
0.663049614332461
 40
0.7461376262634725
 40
0.8086841497092104
 40
0.8559244206016975
 40
0.8960743430980224
 40
0.9362429251829547
 40
0.9754877643157714
 40
0.9999999999999999
 40
0.9999999999999999
 40
0.9999999999999999
 40
0.9999999999999999
 10
146.1286435593121
 20
293.9138969720979
 30
0.0
 10
145.7239500296045
 20
294.1925768645026
 30
0.0
 10
144.8924998079991
 20
294.7651297750083
 30
0.0
 10
143.7236374739357
 20
295.716995670431
 30
0.0
 10
142.4713190881869
 20
296.8664075738713
 30
0.0
 10
141.4180156559664
 20
297.9972219731275
 30
0.0
 10
140.6537142357749
 20
298.9279163530798
 30
0.0
 10
140.2666931201993
 20
299.4334705632147
 30
0.0
 10
140.072727348762
 20
299.6963647958229
 30
0.0
 10
139.9757494383969
 20
299.8303531145121
 30
0.0
 10
139.9272609707049
 20
299.8979896125545
 30
0.0
 10
139.9030307952196
 20
299.931955244685
 30
0.0
 10
139.8909057155386
 20
299.9489932199815
 30
0.0
 10
139.8848543098827
 20
299.9575072265827
 30
0.0
 10
139.8818188788454
 20
299.9617807163967
 30
0.0
 10
139.880309624135
 20
299.9639034597444
 30
0.0
 10
139.8795502169157
 20
299.9649792250627
 30
0.0
 10
139.8791728713242
 20
299.9655060071771
 30
0.0
 10
139.8789836764987
 20
299.9657784105863
 30
0.0
 10
139.8788899622789
 20
299.9659043804966
 30
0.0
 10
139.8788391339253
 20
299.9659795072859
 30
0.0
 10
139.8788169122087
 20
299.9660060897326
 30
0.0
 10
139.8788060318695
 20
299.9660256063663
 30
0.0
 10
139.7376792424131
 20
300.1475890812315
 30
0.0
 10
139.2932062301201
 20
300.8529153584672
 30
0.0
 10
138.4182151439932
 20
302.2252331289974
 30
0.0
 10
137.6136977272939
 20
303.8742852481683
 30
0.0
 10
137.0429632426894
 20
305.2875200514039
 30
0.0
 10
136.7151766704789
 20
306.2563191487581
 30
0.0
 10
136.5086888564907
 20
306.9295590304478
 30
0.0
 10
136.3682744200488
 20
307.4266696432151
 30
0.0
 10
136.2772983228643
 20
307.7454128846637
 30
0.0
 10
136.2184862791188
 20
307.9169837040382
 30
0.0
 10
136.2355205228839
 20
307.8697363095118
 30
0.0
 10
136.2420695591919
 20
307.8515714348932
 30
0.0
  0
SPLINE
  5
17D
330
1F
100
AcDbEntity
  8
0
  6
Continuous
 62
     8
370
     0
100
AcDbSpline
210
0.0
220
0.0
230
1.0
 70
     8
 71
     3
 72
    23
 73
    19
 74
     0
 42
0.00000001
 43
0.00000001
 40
0.0
 40
0.0
 40
0.0
 40
0.0
 40
0.0535578107840722
 40
0.0762482140997938
 40
0.1010281631311341
 40
0.1280856029621913
 40
0.1839834745796638
 40
0.2569139547482261
 40
0.3313043554700631
 40
0.4194027778773504
 40
0.4844745252242346
 40
0.5713866817348111
 40
0.651988343668715
 40
0.726315536230645
 40
0.7944145741506409
 40
0.856345520777831
 40
0.9529049159552996
 40
0.9999999999999999
 40
0.9999999999999999
 40
0.9999999999999999
 40
0.9999999999999999
 10
182.3434068579428
 20
307.8505162464161
 30
0.0
 10
182.3404491996362
 20
307.8468864507424
 30
0.0
 10
182.3362384942229
 20
307.8417188489751
 30
0.0
 10
182.2531842752969
 20
307.5572060107801
 30
0.0
 10
182.178651135258
 20
307.2928618257001
 30
0.0
 10
182.0446966895449
 20
306.8307997492989
 30
0.0
 10
181.8013583185844
 20
306.0332580514561
 30
0.0
 10
181.3886314150342
 20
304.8936057285336
 30
0.0
 10
180.7925650631532
 20
303.5028765002058
 30
0.0
 10
180.0897402177847
 20
302.1345493066189
 30
0.0
 10
179.2224321824315
 20
300.6904784455979
 30
0.0
 10
178.2539002945486
 20
299.3160522045359
 30
0.0
 10
177.099031107488
 20
297.9239276144169
 30
0.0
 10
175.9059834687687
 20
296.6808543690013
 30
0.0
 10
174.7048355538431
 20
295.5844408240044
 30
0.0
 10
173.2510646968234
 20
294.4359317799293
 30
0.0
 10
171.8268850214859
 20
293.454265908186
 30
0.0
 10
170.6952066561207
 20
292.8815096273295
 30
0.0
 10
170.3242019508235
 20
292.6937396021266
 30
0.0
  0
SPLINE
  5
17E
330
1F
100
AcDbEntity
  8
0
  6
Continuous
 62
     8
370
     0
100
AcDbSpline
210
0.0
220
0.0
230
1.0
 70
     8
 71
     3
 72
     9
 73
     5
 74
     0
 42
0.00000001
 43
0.00000001
 40
0.0
 40
0.0
 40
0.0
 40
0.0
 40
0.0025241050028985
 40
1.0
 40
1.0
 40
1.0
 40
1.0
 10
148.2582020331375
 20
292.6604112924715
 30
0.0
 10
148.2562388990132
 20
292.6613113756509
 30
0.0
 10
147.4784843594742
 20
293.0179063582141
 30
0.0
 10
146.8027110980581
 20
293.4664677732118
 30
0.0
 10
146.1286435593121
 20
293.9138969720979
 30
0.0
  0
ARC
  5
17F
330
1F
100
AcDbEntity
  8
0
  6
Continuous
 62
     8
370
     0
100
AcDbCircle
 10
136.4311300279
 20
256.880642568
 30
0.0
 40
0.2005641682619876
100
AcDbArc
 50
90.0101453032
 51
180.0100747958
  0
ENDSEC
  0
SECTION
  2
OBJECTS
  0
DICTIONARY
  5
C
330
0
100
AcDbDictionary
281
     1
  3
ACAD_GROUP
350
D
  3
ACAD_LAYOUT
350
1A
  3
ACAD_MATERIAL
350
3B
  3
ACAD_MLEADERSTYLE
350
181
  3
ACAD_MLINESTYLE
350
17
  3
ACAD_PLOTSETTINGS
350
19
  3
ACAD_PLOTSTYLENAME
350
E
  3
ACAD_TABLESTYLE
350
180
  3
ACAD_VISUALSTYLE
350
2A
  0
DICTIONARY
  5
D
102
{ACAD_REACTORS
330
C
102
}
330
C
100
AcDbDictionary
281
     1
  0
DICTIONARY
  5
1A
102
{ACAD_REACTORS
330
C
102
}
330
C
100
AcDbDictionary
281
     1
  3
Layout1
350
1E
  3
Layout2
350
26
  3
Model
350
22
  0
DICTIONARY
  5
3B
102
{ACAD_REACTORS
330
C
102
}
330
C
100
AcDbDictionary
281
     1
  3
ByBlock
350
3D
  3
ByLayer
350
3C
  3
Global
350
3E
  0
DICTIONARY
  5
181
102
{ACAD_REACTORS
330
C
102
}
330
C
100
AcDbDictionary
281
     1
  0
DICTIONARY
  5
17
102
{ACAD_REACTORS
330
C
102
}
330
C
100
AcDbDictionary
281
     1
  3
Standard
350
18
  0
DICTIONARY
  5
19
102
{ACAD_REACTORS
330
C
102
}
330
C
100
AcDbDictionary
281
     1
  0
ACDBDICTIONARYWDFLT
  5
E
102
{ACAD_REACTORS
330
C
102
}
330
C
100
AcDbDictionary
281
     1
  3
Normal
350
F
100
AcDbDictionaryWithDefault
340
F
  0
DICTIONARY
  5
180
102
{ACAD_REACTORS
330
C
102
}
330
C
100
AcDbDictionary
281
     1
  0
DICTIONARY
  5
2A
102
{ACAD_REACTORS
330
C
102
}
330
C
100
AcDbDictionary
281
     1
  3
2dWireframe
350
2F
  3
3D Hidden
350
31
  3
3dWireframe
350
30
  3
Basic
350
32
  3
Brighten
350
36
  3
ColorChange
350
3A
  3
Conceptual
350
34
  3
Dim
350
35
  3
Facepattern
350
39
  3
Flat
350
2B
  3
FlatWithEdges
350
2C
  3
Gouraud
350
2D
  3
GouraudWithEdges
350
2E
  3
Linepattern
350
38
  3
Realistic
350
33
  3
Thicken
350
37
  0
LAYOUT
  5
1E
102
{ACAD_REACTORS
330
1A
102
}
330
1A
100
AcDbPlotSettings
  1

  2
none_device
  4

  6

 40
0.0
 41
0.0
 42
0.0
 43
0.0
 44
0.0
 45
0.0
 46
0.0
 47
0.0
 48
0.0
 49
0.0
140
0.0
141
0.0
142
1.0
143
1.0
 70
   688
 72
     0
 73
     0
 74
     5
  7

 75
    16
 76
     0
 77
     2
 78
   300
147
1.0
148
0.0
149
0.0
100
AcDbLayout
  1
Layout1
 70
     1
 71
     1
 10
0.0
 20
0.0
 11
420.0
 21
297.0
 12
0.0
 22
0.0
 32
0.0
 14
1.0000000000E+20
 24
1.0000000000E+20
 34
1.0000000000E+20
 15
-1.0000000000E+20
 25
-1.0000000000E+20
 35
-1.0000000000E+20
146
0.0
 13
0.0
 23
0.0
 33
0.0
 16
1.0
 26
0.0
 36
0.0
 17
0.0
 27
1.0
 37
0.0
 76
     0
330
1B
  0
LAYOUT
  5
26
102
{ACAD_REACTORS
330
1A
102
}
330
1A
100
AcDbPlotSettings
  1

  2
none_device
  4

  6

 40
0.0
 41
0.0
 42
0.0
 43
0.0
 44
0.0
 45
0.0
 46
0.0
 47
0.0
 48
0.0
 49
0.0
140
0.0
141
0.0
142
1.0
143
1.0
 70
   688
 72
     0
 73
     0
 74
     5
  7

 75
    16
 76
     0
 77
     2
 78
   300
147
1.0
148
0.0
149
0.0
100
AcDbLayout
  1
Layout2
 70
     1
 71
     2
 10
0.0
 20
0.0
 11
0.0
 21
0.0
 12
0.0
 22
0.0
 32
0.0
 14
0.0
 24
0.0
 34
0.0
 15
0.0
 25
0.0
 35
0.0
146
0.0
 13
0.0
 23
0.0
 33
0.0
 16
1.0
 26
0.0
 36
0.0
 17
0.0
 27
1.0
 37
0.0
 76
     0
330
23
  0
LAYOUT
  5
22
102
{ACAD_REACTORS
330
1A
102
}
330
1A
100
AcDbPlotSettings
  1

  2
none_device
  4

  6

 40
0.0
 41
0.0
 42
0.0
 43
0.0
 44
0.0
 45
0.0
 46
0.0
 47
0.0
 48
0.0
 49
0.0
140
0.0
141
0.0
142
1.0
143
1.0
 70
  1712
 72
     0
 73
     0
 74
     0
  7

 75
     0
 76
     0
 77
     2
 78
   300
147
1.0
148
0.0
149
0.0
100
AcDbLayout
  1
Model
 70
     1
 71
     0
 10
0.0
 20
0.0
 11
594.0
 21
841.0
 12
0.0
 22
0.0
 32
0.0
 14
0.0
 24
0.0
 34
0.0
 15
594.0
 25
841.0
 35
0.0
146
0.0
 13
0.0
 23
0.0
 33
0.0
 16
1.0
 26
0.0
 36
0.0
 17
0.0
 27
1.0
 37
0.0
 76
     0
330
1F
331
29
  0
MATERIAL
  5
3D
102
{ACAD_REACTORS
330
3B
102
}
330
3B
100
AcDbMaterial
  1
ByBlock
 72
     1
 94
      127
  0
MATERIAL
  5
3C
102
{ACAD_REACTORS
330
3B
102
}
330
3B
100
AcDbMaterial
  1
ByLayer
 72
     1
 94
      127
  0
MATERIAL
  5
3E
102
{ACAD_REACTORS
330
3B
102
}
330
3B
100
AcDbMaterial
  1
Global
 72
     1
 94
      127
  0
MLINESTYLE
  5
18
102
{ACAD_REACTORS
330
17
102
}
330
17
100
AcDbMlineStyle
  2
Standard
 70
     0
  3

 62
   256
 51
90.0
 52
90.0
 71
     2
 49
0.5
 62
   256
  6
BYLAYER
 49
-0.5
 62
   256
  6
BYLAYER
  0
ACDBPLACEHOLDER
  5
F
102
{ACAD_REACTORS
330
E
102
}
330
E
  0
VISUALSTYLE
  5
2F
102
{ACAD_REACTORS
330
2A
102
}
330
2A
100
AcDbVisualStyle
  2
2dWireframe
 70
     4
177
     2
291
     0
 71
     0
176
     1
 72
     2
176
     1
 73
     0
176
     1
 90
        0
176
     1
 40
-0.6
176
     1
 41
-30.0
176
     1
 62
     5
 63
     7
421
 16777215
176
     1
 74
     1
176
     1
 91
        4
176
     1
 64
     7
176
     1
 65
   257
176
     1
 75
     1
176
     1
175
     1
176
     1
 42
1.0
176
     1
 92
        0
176
     1
 66
   257
176
     1
 43
1.0
176
     1
 76
     1
176
     1
 77
     6
176
     1
 78
     2
176
     1
 67
     7
176
     1
 79
     5
176
     1
170
     0
176
     1
171
     0
176
     1
290
     0
176
     1
 93
        1
176
     1
 44
0.0
176
     1
173
     0
176
     1
  0
VISUALSTYLE
  5
31
102
{ACAD_REACTORS
330
2A
102
}
330
2A
100
AcDbVisualStyle
  2
3D Hidden
 70
     6
177
     2
291
     0
 71
     1
176
     1
 72
     2
176
     1
 73
     2
176
     1
 90
        0
176
     1
 40
-0.6
176
     1
 41
-30.0
176
     1
 62
     5
 63
     7
421
 16777215
176
     1
 74
     2
176
     1
 91
        2
176
     1
 64
     7
176
     1
 65
   257
176
     1
 75
     2
176
     1
175
     1
176
     1
 42
40.0
176
     1
 92
        0
176
     1
 66
   257
176
     1
 43
1.0
176
     1
 76
     1
176
     1
 77
     6
176
     1
 78
     2
176
     1
 67
     7
176
     1
 79
     3
176
     1
170
     0
176
     1
171
     0
176
     1
290
     0
176
     1
 93
        1
176
     1
 44
0.0
176
     1
173
     0
176
     1
  0
VISUALSTYLE
  5
30
102
{ACAD_REACTORS
330
2A
102
}
330
2A
100
AcDbVisualStyle
  2
3dWireframe
 70
     5
177
     2
291
     0
 71
     0
176
     1
 72
     2
176
     1
 73
     0
176
     1
 90
        0
176
     1
 40
-0.6
176
     1
 41
-30.0
176
     1
 62
     5
 63
     7
421
 16777215
176
     1
 74
     1
176
     1
 91
        4
176
     1
 64
     7
176
     1
 65
   257
176
     1
 75
     1
176
     1
175
     1
176
     1
 42
1.0
176
     1
 92
        0
176
     1
 66
   257
176
     1
 43
1.0
176
     1
 76
     1
176
     1
 77
     6
176
     1
 78
     2
176
     1
 67
     7
176
     1
 79
     5
176
     1
170
     0
176
     1
171
     0
176
     1
290
     0
176
     1
 93
        1
176
     1
 44
0.0
176
     1
173
     0
176
     1
  0
VISUALSTYLE
  5
32
102
{ACAD_REACTORS
330
2A
102
}
330
2A
100
AcDbVisualStyle
  2
Basic
 70
     7
177
     2
291
     1
 71
     1
176
     1
 72
     0
176
     1
 73
     1
176
     1
 90
        0
176
     1
 40
-0.6
176
     1
 41
-30.0
176
     1
 62
     5
 63
     7
421
 16777215
176
     1
 74
     0
176
     1
 91
        4
176
     1
 64
     7
176
     1
 65
   257
176
     1
 75
     1
176
     1
175
     1
176
     1
 42
1.0
176
     1
 92
        8
176
     1
 66
     7
176
     1
 43
1.0
176
     1
 76
     1
176
     1
 77
     6
176
     1
 78
     2
176
     1
 67
     7
176
     1
 79
     5
176
     1
170
     0
176
     1
171
     0
176
     1
290
     0
176
     1
 93
        1
176
     1
 44
0.0
176
     1
173
     0
176
     1
  0
VISUALSTYLE
  5
36
102
{ACAD_REACTORS
330
2A
102
}
330
2A
100
AcDbVisualStyle
  2
Brighten
 70
    12
177
     2
291
     1
 71
     2
176
     1
 72
     2
176
     1
 73
     0
176
     1
 90
        0
176
     1
 40
-0.6
176
     1
 41
-30.0
176
     1
 62
     5
 63
     7
421
 16777215
176
     1
 74
     1
176
     1
 91
        4
176
     1
 64
     7
176
     1
 65
   257
176
     1
 75
     1
176
     1
175
     1
176
     1
 42
1.0
176
     1
 92
        8
176
     1
 66
     7
176
     1
 43
1.0
176
     1
 76
     1
176
     1
 77
     6
176
     1
 78
     2
176
     1
 67
     7
176
     1
 79
     5
176
     1
170
     0
176
     1
171
     0
176
     1
290
     0
176
     1
 93
        1
176
     1
 44
50.0
176
     1
173
     0
176
     1
  0
VISUALSTYLE
  5
3A
102
{ACAD_REACTORS
330
2A
102
}
330
2A
100
AcDbVisualStyle
  2
ColorChange
 70
    16
177
     2
291
     1
 71
     2
176
     1
 72
     2
176
     1
 73
     3
176
     1
 90
        0
176
     1
 40
-0.6
176
     1
 41
-30.0
176
     1
 62
     5
 63
     8
421
  8421504
176
     1
 74
     1
176
     1
 91
        4
176
     1
 64
     7
176
     1
 65
   257
176
     1
 75
     1
176
     1
175
     1
176
     1
 42
1.0
176
     1
 92
        8
176
     1
 66
     8
424
  8421504
176
     1
 43
1.0
176
     1
 76
     1
176
     1
 77
     6
176
     1
 78
     2
176
     1
 67
     7
176
     1
 79
     5
176
     1
170
     0
176
     1
171
     0
176
     1
290
     0
176
     1
 93
        1
176
     1
 44
0.0
176
     1
173
     0
176
     1
  0
VISUALSTYLE
  5
34
102
{ACAD_REACTORS
330
2A
102
}
330
2A
100
AcDbVisualStyle
  2
Conceptual
 70
     9
177
     2
291
     0
 71
     3
176
     1
 72
     2
176
     1
 73
     0
176
     1
 90
        0
176
     1
 40
-0.6
176
     1
 41
-30.0
176
     1
 62
     5
 63
     7
421
 16777215
176
     1
 74
     2
176
     1
 91
        2
176
     1
 64
     7
176
     1
 65
   257
176
     1
 75
     1
176
     1
175
     1
176
     1
 42
40.0
176
     1
 92
        8
176
     1
 66
     7
176
     1
 43
1.0
176
     1
 76
     1
176
     1
 77
     6
176
     1
 78
     2
176
     1
 67
     7
176
     1
 79
     3
176
     1
170
     0
176
     1
171
     0
176
     1
290
     0
176
     1
 93
        1
176
     1
 44
0.0
176
     1
173
     0
176
     1
  0
VISUALSTYLE
  5
35
102
{ACAD_REACTORS
330
2A
102
}
330
2A
100
AcDbVisualStyle
  2
Dim
 70
    11
177
     2
291
     1
 71
     2
176
     1
 72
     2
176
     1
 73
     0
176
     1
 90
        0
176
     1
 40
-0.6
176
     1
 41
-30.0
176
     1
 62
     5
 63
     7
421
 16777215
176
     1
 74
     1
176
     1
 91
        4
176
     1
 64
     7
176
     1
 65
   257
176
     1
 75
     1
176
     1
175
     1
176
     1
 42
1.0
176
     1
 92
        8
176
     1
 66
     7
176
     1
 43
1.0
176
     1
 76
     1
176
     1
 77
     6
176
     1
 78
     2
176
     1
 67
     7
176
     1
 79
     5
176
     1
170
     0
176
     1
171
     0
176
     1
290
     0
176
     1
 93
        1
176
     1
 44
-50.0
176
     1
173
     0
176
     1
  0
VISUALSTYLE
  5
39
102
{ACAD_REACTORS
330
2A
102
}
330
2A
100
AcDbVisualStyle
  2
Facepattern
 70
    15
177
     2
291
     1
 71
     2
176
     1
 72
     2
176
     1
 73
     0
176
     1
 90
        0
176
     1
 40
-0.6
176
     1
 41
-30.0
176
     1
 62
     5
 63
     7
421
 16777215
176
     1
 74
     1
176
     1
 91
        4
176
     1
 64
     7
176
     1
 65
   257
176
     1
 75
     1
176
     1
175
     1
176
     1
 42
1.0
176
     1
 92
        8
176
     1
 66
     7
176
     1
 43
1.0
176
     1
 76
     1
176
     1
 77
     6
176
     1
 78
     2
176
     1
 67
     7
176
     1
 79
     5
176
     1
170
     0
176
     1
171
     0
176
     1
290
     0
176
     1
 93
        1
176
     1
 44
0.0
176
     1
173
     0
176
     1
  0
VISUALSTYLE
  5
2B
102
{ACAD_REACTORS
330
2A
102
}
330
2A
100
AcDbVisualStyle
  2
Flat
 70
     0
177
     2
291
     1
 71
     2
176
     1
 72
     1
176
     1
 73
     1
176
     1
 90
        2
176
     1
 40
-0.6
176
     1
 41
30.0
176
     1
 62
     5
 63
     7
421
 16777215
176
     1
 74
     0
176
     1
 91
        4
176
     1
 64
     7
176
     1
 65
   257
176
     1
 75
     1
176
     1
175
     1
176
     1
 42
1.0
176
     1
 92
        8
176
     1
 66
     7
176
     1
 43
1.0
176
     1
 76
     1
176
     1
 77
     6
176
     1
 78
     2
176
     1
 67
     7
176
     1
 79
     5
176
     1
170
     0
176
     1
171
     0
176
     1
290
     0
176
     1
 93
       13
176
     1
 44
0.0
176
     1
173
     0
176
     1
  0
VISUALSTYLE
  5
2C
102
{ACAD_REACTORS
330
2A
102
}
330
2A
100
AcDbVisualStyle
  2
FlatWithEdges
 70
     1
177
     2
291
     1
 71
     2
176
     1
 72
     1
176
     1
 73
     1
176
     1
 90
        2
176
     1
 40
-0.6
176
     1
 41
30.0
176
     1
 62
     5
 63
     7
421
 16777215
176
     1
 74
     1
176
     1
 91
        4
176
     1
 64
     7
176
     1
 65
   257
176
     1
 75
     1
176
     1
175
     1
176
     1
 42
1.0
176
     1
 92
        0
176
     1
 66
   257
176
     1
 43
1.0
176
     1
 76
     1
176
     1
 77
     6
176
     1
 78
     2
176
     1
 67
     7
176
     1
 79
     5
176
     1
170
     0
176
     1
171
     0
176
     1
290
     0
176
     1
 93
       13
176
     1
 44
0.0
176
     1
173
     0
176
     1
  0
VISUALSTYLE
  5
2D
102
{ACAD_REACTORS
330
2A
102
}
330
2A
100
AcDbVisualStyle
  2
Gouraud
 70
     2
177
     2
291
     1
 71
     2
176
     1
 72
     2
176
     1
 73
     1
176
     1
 90
        2
176
     1
 40
-0.6
176
     1
 41
30.0
176
     1
 62
     5
 63
     7
421
 16777215
176
     1
 74
     0
176
     1
 91
        4
176
     1
 64
     7
176
     1
 65
   257
176
     1
 75
     1
176
     1
175
     1
176
     1
 42
1.0
176
     1
 92
        0
176
     1
 66
     7
176
     1
 43
1.0
176
     1
 76
     1
176
     1
 77
     6
176
     1
 78
     2
176
     1
 67
     7
176
     1
 79
     5
176
     1
170
     0
176
     1
171
     0
176
     1
290
     0
176
     1
 93
       13
176
     1
 44
0.0
176
     1
173
     0
176
     1
  0
VISUALSTYLE
  5
2E
102
{ACAD_REACTORS
330
2A
102
}
330
2A
100
AcDbVisualStyle
  2
GouraudWithEdges
 70
     3
177
     2
291
     1
 71
     2
176
     1
 72
     2
176
     1
 73
     1
176
     1
 90
        2
176
     1
 40
-0.6
176
     1
 41
30.0
176
     1
 62
     5
 63
     7
421
 16777215
176
     1
 74
     1
176
     1
 91
        4
176
     1
 64
     7
176
     1
 65
   257
176
     1
 75
     1
176
     1
175
     1
176
     1
 42
1.0
176
     1
 92
        0
176
     1
 66
   257
176
     1
 43
1.0
176
     1
 76
     1
176
     1
 77
     6
176
     1
 78
     2
176
     1
 67
     7
176
     1
 79
     5
176
     1
170
     0
176
     1
171
     0
176
     1
290
     0
176
     1
 93
       13
176
     1
 44
0.0
176
     1
173
     0
176
     1
  0
VISUALSTYLE
  5
38
102
{ACAD_REACTORS
330
2A
102
}
330
2A
100
AcDbVisualStyle
  2
Linepattern
 70
    14
177
     2
291
     1
 71
     2
176
     1
 72
     2
176
     1
 73
     0
176
     1
 90
        0
176
     1
 40
-0.6
176
     1
 41
-30.0
176
     1
 62
     5
 63
     7
421
 16777215
176
     1
 74
     1
176
     1
 91
        4
176
     1
 64
     7
176
     1
 65
   257
176
     1
 75
     7
176
     1
175
     7
176
     1
 42
1.0
176
     1
 92
        8
176
     1
 66
     7
176
     1
 43
1.0
176
     1
 76
     1
176
     1
 77
     6
176
     1
 78
     2
176
     1
 67
     7
176
     1
 79
     5
176
     1
170
     0
176
     1
171
     0
176
     1
290
     0
176
     1
 93
        1
176
     1
 44
0.0
176
     1
173
     0
176
     1
  0
VISUALSTYLE
  5
33
102
{ACAD_REACTORS
330
2A
102
}
330
2A
100
AcDbVisualStyle
  2
Realistic
 70
     8
177
     2
291
     0
 71
     2
176
     1
 72
     2
176
     1
 73
     0
176
     1
 90
        0
176
     1
 40
-0.6
176
     1
 41
-30.0
176
     1
 62
     5
 63
     7
421
 16777215
176
     1
 74
     1
176
     1
 91
        0
176
     1
 64
     7
176
     1
 65
   257
176
     1
 75
     1
176
     1
175
     1
176
     1
 42
1.0
176
     1
 92
        8
176
     1
 66
     8
424
  7895160
176
     1
 43
1.0
176
     1
 76
     1
176
     1
 77
     6
176
     1
 78
     2
176
     1
 67
     7
176
     1
 79
     5
176
     1
170
     0
176
     1
171
     0
176
     1
290
     0
176
     1
 93
       13
176
     1
 44
0.0
176
     1
173
     0
176
     1
  0
VISUALSTYLE
  5
37
102
{ACAD_REACTORS
330
2A
102
}
330
2A
100
AcDbVisualStyle
  2
Thicken
 70
    13
177
     2
291
     1
 71
     2
176
     1
 72
     2
176
     1
 73
     0
176
     1
 90
        0
176
     1
 40
-0.6
176
     1
 41
-30.0
176
     1
 62
     5
 63
     7
421
 16777215
176
     1
 74
     1
176
     1
 91
        4
176
     1
 64
     7
176
     1
 65
   257
176
     1
 75
     1
176
     1
175
     1
176
     1
 42
1.0
176
     1
 92
       12
176
     1
 66
     7
176
     1
 43
1.0
176
     1
 76
     1
176
     1
 77
     6
176
     1
 78
     2
176
     1
 67
     7
176
     1
 79
     5
176
     1
170
     0
176
     1
171
     0
176
     1
290
     0
176
     1
 93
        1
176
     1
 44
0.0
176
     1
173
     0
176
     1
  0
ENDSEC
  0
EOF
