  0
SECTION
  2
HEADER
  9
$ACADVER
  1
AC1015
  9
$ACADMAINTVER
 70
     6
  9
$DWGCODEPAGE
  3
ANSI_1252
  9
$INSBASE
 10
0.0
 20
0.0
 30
0.0
  9
$EXTMIN
 10
0.0
 20
0.0
 30
0.0
  9
$EXTMAX
 10
594.0
 20
841.0
 30
0.0
  9
$LIMMIN
 10
0.0
 20
0.0
  9
$LIMMAX
 10
594.0
 20
841.0
  9
$ORTHOMODE
 70
     0
  9
$REGENMODE
 70
     1
  9
$FILLMODE
 70
     1
  9
$QTEXTMODE
 70
     0
  9
$MIRRTEXT
 70
     1
  9
$LTSCALE
 40
1.0
  9
$ATTMODE
 70
     1
  9
$TEXTSIZE
 40
10.0
  9
$TRACEWID
 40
1.0
  9
$TEXTSTYLE
  7
Standard
  9
$CLAYER
  8
0
  9
$CELTYPE
  6
ByLayer
  9
$CECOLOR
 62
   256
  9
$CELTSCALE
 40
1.0
  9
$DISPSILH
 70
     0
  9
$DIMSCALE
 40
1.0
  9
$DIMASZ
 40
2.5
  9
$DIMEXO
 40
0.0
  9
$DIMDLI
 40
3.75
  9
$DIMRND
 40
0.0
  9
$DIMDLE
 40
0.0
  9
$DIMEXE
 40
1.0
  9
$DIMTP
 40
0.0
  9
$DIMTM
 40
0.0
  9
$DIMTXT
 40
3.5
  9
$DIMCEN
 40
2.5
  9
$DIMTSZ
 40
0.0
  9
$DIMTOL
 70
     0
  9
$DIMLIM
 70
     0
  9
$DIMTIH
 70
     1
  9
$DIMTOH
 70
     1
  9
$DIMSE1
 70
     0
  9
$DIMSE2
 70
     0
  9
$DIMTAD
 70
     1
  9
$DIMZIN
 70
     0
  9
$DIMBLK
  1

  9
$DIMASO
 70
     1
  9
$DIMSHO
 70
     1
  9
$DIMPOST
  1

  9
$DIMAPOST
  1

  9
$DIMALT
 70
     0
  9
$DIMALTD
 70
     3
  9
$DIMALTF
 40
0.0393700787
  9
$DIMLFAC
 40
1.0
  9
$DIMTOFL
 70
     1
  9
$DIMTVP
 40
0.0
  9
$DIMTIX
 70
     0
  9
$DIMSOXD
 70
     0
  9
$DIMSAH
 70
     0
  9
$DIMBLK1
  1

  9
$DIMBLK2
  1

  9
$DIMSTYLE
  2
ISO-25
  9
$DIMCLRD
 70
     0
  9
$DIMCLRE
 70
     0
  9
$DIMCLRT
 70
     0
  9
$DIMTFAC
 40
1.0
  9
$DIMGAP
 40
1.5
  9
$DIMJUST
 70
     0
  9
$DIMSD1
 70
     0
  9
$DIMSD2
 70
     0
  9
$DIMTOLJ
 70
     0
  9
$DIMTZIN
 70
     0
  9
$DIMALTZ
 70
     0
  9
$DIMALTTZ
 70
     0
  9
$DIMUPT
 70
     0
  9
$DIMDEC
 70
     2
  9
$DIMTDEC
 70
     2
  9
$DIMALTU
 70
     2
  9
$DIMALTTD
 70
     3
  9
$DIMTXSTY
  7
Standard
  9
$DIMAUNIT
 70
     0
  9
$DIMADEC
 70
     2
  9
$DIMALTRND
 40
0.0
  9
$DIMAZIN
 70
     0
  9
$DIMDSEP
 70
    44
  9
$DIMATFIT
 70
     3
  9
$DIMFRAC
 70
     0
  9
$DIMLDRBLK
  1

  9
$DIMLUNIT
 70
     2
  9
$DIMLWD
 70
    -2
  9
$DIMLWE
 70
    -2
  9
$DIMTMOVE
 70
     0
  9
$LUNITS
 70
     2
  9
$LUPREC
 70
     2
  9
$SKETCHINC
 40
1.0
  9
$FILLETRAD
 40
10.0
  9
$AUNITS
 70
     0
  9
$AUPREC
 70
     2
  9
$MENU
  1
.
  9
$ELEVATION
 40
0.0
  9
$PELEVATION
 40
0.0
  9
$THICKNESS
 40
0.0
  9
$LIMCHECK
 70
     0
  9
$CHAMFERA
 40
0.0
  9
$CHAMFERB
 40
0.0
  9
$CHAMFERC
 40
0.0
  9
$CHAMFERD
 40
0.0
  9
$SKPOLY
 70
     0
  9
$TDCREATE
 40
2459989.416903819
  9
$TDUCREATE
 40
2459989.375237153
  9
$TDUPDATE
 40
2459989.416904549
  9
$TDUUPDATE
 40
2459989.375237882
  9
$TDINDWG
 40
0.0000000116
  9
$TDUSRTIMER
 40
0.0000000116
  9
$USRTIMER
 70
     1
  9
$ANGBASE
 50
0.0
  9
$ANGDIR
 70
     0
  9
$PDMODE
 70
     0
  9
$PDSIZE
 40
-1.0
  9
$PLINEWID
 40
0.0
  9
$SPLFRAME
 70
     0
  9
$SPLINETYPE
 70
     6
  9
$SPLINESEGS
 70
     8
  9
$HANDSEED
  5
1ED
  9
$SURFTAB1
 70
     6
  9
$SURFTAB2
 70
     6
  9
$SURFTYPE
 70
     6
  9
$SURFU
 70
     6
  9
$SURFV
 70
     6
  9
$UCSBASE
  2

  9
$UCSNAME
  2

  9
$UCSORG
 10
0.0
 20
0.0
 30
0.0
  9
$UCSXDIR
 10
1.0
 20
0.0
 30
0.0
  9
$UCSYDIR
 10
0.0
 20
1.0
 30
0.0
  9
$UCSORTHOREF
  2

  9
$UCSORTHOVIEW
 70
     0
  9
$UCSORGTOP
 10
0.0
 20
0.0
 30
0.0
  9
$UCSORGBOTTOM
 10
0.0
 20
0.0
 30
0.0
  9
$UCSORGLEFT
 10
0.0
 20
0.0
 30
0.0
  9
$UCSORGRIGHT
 10
0.0
 20
0.0
 30
0.0
  9
$UCSORGFRONT
 10
0.0
 20
0.0
 30
0.0
  9
$UCSORGBACK
 10
0.0
 20
0.0
 30
0.0
  9
$PUCSBASE
  2

  9
$PUCSNAME
  2

  9
$PUCSORG
 10
0.0
 20
0.0
 30
0.0
  9
$PUCSXDIR
 10
1.0
 20
0.0
 30
0.0
  9
$PUCSYDIR
 10
0.0
 20
1.0
 30
0.0
  9
$PUCSORTHOREF
  2

  9
$PUCSORTHOVIEW
 70
     0
  9
$PUCSORGTOP
 10
0.0
 20
0.0
 30
0.0
  9
$PUCSORGBOTTOM
 10
0.0
 20
0.0
 30
0.0
  9
$PUCSORGLEFT
 10
0.0
 20
0.0
 30
0.0
  9
$PUCSORGRIGHT
 10
0.0
 20
0.0
 30
0.0
  9
$PUCSORGFRONT
 10
0.0
 20
0.0
 30
0.0
  9
$PUCSORGBACK
 10
0.0
 20
0.0
 30
0.0
  9
$USERI1
 70
     0
  9
$USERI2
 70
     0
  9
$USERI3
 70
     0
  9
$USERI4
 70
     0
  9
$USERI5
 70
     0
  9
$USERR1
 40
0.0
  9
$USERR2
 40
0.0
  9
$USERR3
 40
0.0
  9
$USERR4
 40
0.0
  9
$USERR5
 40
0.0
  9
$WORLDVIEW
 70
     1
  9
$SHADEDGE
 70
     3
  9
$SHADEDIF
 70
    70
  9
$TILEMODE
 70
     1
  9
$MAXACTVP
 70
    64
  9
$PINSBASE
 10
0.0
 20
0.0
 30
0.0
  9
$PLIMCHECK
 70
     0
  9
$PEXTMIN
 10
1.0000000000E+20
 20
1.0000000000E+20
 30
1.0000000000E+20
  9
$PEXTMAX
 10
-1.0000000000E+20
 20
-1.0000000000E+20
 30
-1.0000000000E+20
  9
$PLIMMIN
 10
0.0
 20
0.0
  9
$PLIMMAX
 10
420.0
 20
297.0
  9
$UNITMODE
 70
     0
  9
$VISRETAIN
 70
     1
  9
$PLINEGEN
 70
     0
  9
$PSLTSCALE
 70
     1
  9
$TREEDEPTH
 70
  3020
  9
$CMLSTYLE
  2
Standard
  9
$CMLJUST
 70
     0
  9
$CMLSCALE
 40
20.0
  9
$PROXYGRAPHICS
 70
     1
  9
$MEASUREMENT
 70
     1
  9
$CELWEIGHT
370
    -1
  9
$ENDCAPS
280
     0
  9
$JOINSTYLE
280
     0
  9
$LWDISPLAY
290
     1
  9
$INSUNITS
 70
     4
  9
$HYPERLINKBASE
  1

  9
$STYLESHEET
  1

  9
$XEDIT
290
     1
  9
$CEPSNTYPE
380
     0
  9
$PSTYLEMODE
290
     1
  9
$FINGERPRINTGUID
  2
{b2907e66-c88c-40e4-9504-16bf894701ad}
  9
$VERSIONGUID
  2
{FAEB1C32-E019-11D5-929B-00C0DF256EC4}
  9
$EXTNAMES
290
     1
  9
$PSVPSCALE
 40
0.0
  9
$OLESTARTUP
290
     0
  0
ENDSEC
  0
SECTION
  2
CLASSES
  0
CLASS
  1
ACDBDICTIONARYWDFLT
  2
AcDbDictionaryWithDefault
  3
ObjectDBX Classes
 90
        0
280
     0
281
     0
  0
CLASS
  1
VISUALSTYLE
  2
AcDbVisualStyle
  3
ObjectDBX Classes
 90
     4095
280
     0
281
     0
  0
CLASS
  1
MATERIAL
  2
AcDbMaterial
  3
ObjectDBX Classes
 90
     1153
280
     0
281
     0
  0
CLASS
  1
SCALE
  2
AcDbScale
  3
ObjectDBX Classes
 90
     1153
280
     0
281
     0
  0
CLASS
  1
TABLESTYLE
  2
AcDbTableStyle
  3
ObjectDBX Classes
 90
     4095
280
     0
281
     0
  0
CLASS
  1
MLEADERSTYLE
  2
AcDbMLeaderStyle
  3
ACDB_MLEADERSTYLE_CLASS
 90
     4095
280
     0
281
     0
  0
CLASS
  1
SUN
  2
AcDbSun
  3
SCENEOE
 90
     1153
280
     0
281
     0
  0
CLASS
  1
ACDBPLACEHOLDER
  2
AcDbPlaceHolder
  3
ObjectDBX Classes
 90
        0
280
     0
281
     0
  0
CLASS
  1
LAYOUT
  2
AcDbLayout
  3
ObjectDBX Classes
 90
        0
280
     0
281
     0
  0
ENDSEC
  0
SECTION
  2
TABLES
  0
TABLE
  2
VPORT
  5
8
330
0
100
AcDbSymbolTable
 70
     1
  0
VPORT
  5
29
330
8
100
AcDbSymbolTableRecord
100
AcDbViewportTableRecord
  2
*Active
 70
     0
 10
0.0
 20
0.0
 11
1.0
 21
1.0
 12
297.0
 22
420.5
 13
0.0
 23
0.0
 14
10.0
 24
10.0
 15
10.0
 25
10.0
 16
0.0
 26
0.0
 36
1.0
 17
0.0
 27
0.0
 37
0.0
 40
841.0
 41
0.7063020214
 42
50.0
 43
0.0
 44
0.0
 50
0.0
 51
0.0
 71
     0
 72
  2000
 73
     1
 74
     3
 75
     0
 76
     0
 77
     0
 78
     0
281
     0
 65
     1
110
0.0
120
0.0
130
0.0
111
1.0
121
0.0
131
0.0
112
0.0
122
1.0
132
0.0
 79
     0
146
0.0
  0
ENDTAB
  0
TABLE
  2
LTYPE
  5
5
330
0
100
AcDbSymbolTable
 70
     6
  0
LTYPE
  5
14
330
5
100
AcDbSymbolTableRecord
100
AcDbLinetypeTableRecord
  2
ByBlock
 70
     0
  3

 72
    65
 73
     0
 40
0.0
  0
LTYPE
  5
15
330
5
100
AcDbSymbolTableRecord
100
AcDbLinetypeTableRecord
  2
ByLayer
 70
     0
  3

 72
    65
 73
     0
 40
0.0
  0
LTYPE
  5
16
330
5
100
AcDbSymbolTableRecord
100
AcDbLinetypeTableRecord
  2
Continuous
 70
     0
  3
Solid line
 72
    65
 73
     0
 40
0.0
  0
LTYPE
  5
6E
330
5
100
AcDbSymbolTableRecord
100
AcDbLinetypeTableRecord
  2
HIDDEN
 70
     0
  3
Hidden __ __ __ __ __ __ __ __ __ __ __ __ __ __
 72
    65
 73
     2
 40
1.905
 49
1.27
 74
     0
 49
-0.635
 74
     0
  0
LTYPE
  5
6F
330
5
100
AcDbSymbolTableRecord
100
AcDbLinetypeTableRecord
  2
PHANTOM
 70
     0
  3
Phantom ______  __  __  ______  __  __  ______
 72
    65
 73
     6
 40
12.7
 49
6.35
 74
     0
 49
-1.27
 74
     0
 49
1.27
 74
     0
 49
-1.27
 74
     0
 49
1.27
 74
     0
 49
-1.27
 74
     0
  0
LTYPE
  5
70
330
5
100
AcDbSymbolTableRecord
100
AcDbLinetypeTableRecord
  2
CENTER
 70
     0
  3
Center ____ _ ____ _ ____ _ ____ _ ____ _ ____
 72
    65
 73
     4
 40
10.16
 49
6.35
 74
     0
 49
-1.27
 74
     0
 49
1.27
 74
     0
 49
-1.27
 74
     0
  0
LTYPE
  5
71
330
5
100
AcDbSymbolTableRecord
100
AcDbLinetypeTableRecord
  2
CENTERX2
 70
     0
  3
Center (2x) ________  __  ________  __  _____
 72
    65
 73
     4
 40
20.32
 49
12.7
 74
     0
 49
-2.54
 74
     0
 49
2.54
 74
     0
 49
-2.54
 74
     0
  0
LTYPE
  5
72
330
5
100
AcDbSymbolTableRecord
100
AcDbLinetypeTableRecord
  2
DOT2
 70
     0
  3
Dot (.5x) ........................................
 72
    65
 73
     2
 40
0.635
 49
0.0
 74
     0
 49
-0.635
 74
     0
  0
ENDTAB
  0
TABLE
  2
LAYER
  5
2
330
0
100
AcDbSymbolTable
 70
     1
  0
LAYER
  5
10
330
2
100
AcDbSymbolTableRecord
100
AcDbLayerTableRecord
  2
0
 70
     0
 62
     7
  6
Continuous
370
    -3
390
F
  0
ENDTAB
  0
TABLE
  2
STYLE
  5
3
330
0
100
AcDbSymbolTable
 70
     3
  0
STYLE
  5
11
330
3
100
AcDbSymbolTableRecord
100
AcDbTextStyleTableRecord
  2
Standard
 70
     0
 40
0.0
 41
1.0
 50
0.0
 71
     0
 42
10.0
  3
txt
  4

  0
STYLE
  5
76
330
3
100
AcDbSymbolTableRecord
100
AcDbTextStyleTableRecord
  2
SLDTEXTSTYLE0
 70
     0
 40
0.0
 41
0.96
 50
0.0
 71
     0
 42
10.0
  3
ISOCP3
  4

  0
STYLE
  5
8D
330
3
100
AcDbSymbolTableRecord
100
AcDbTextStyleTableRecord
  2
SLDTEXTSTYLE1
 70
     0
 40
0.0
 41
0.605
 50
0.0
 71
     0
 42
10.0
  3
TXT
  4

  0
ENDTAB
  0
TABLE
  2
VIEW
  5
6
330
0
100
AcDbSymbolTable
 70
     0
  0
ENDTAB
  0
TABLE
  2
UCS
  5
7
330
0
100
AcDbSymbolTable
 70
     0
  0
ENDTAB
  0
TABLE
  2
APPID
  5
9
330
0
100
AcDbSymbolTable
 70
     1
  0
APPID
  5
12
330
9
100
AcDbSymbolTableRecord
100
AcDbRegAppTableRecord
  2
ACAD
 70
     0
  0
ENDTAB
  0
TABLE
  2
DIMSTYLE
  5
A
330
0
100
AcDbSymbolTable
 70
     2
100
AcDbDimStyleTable
  0
DIMSTYLE
105
27
330
A
100
AcDbSymbolTableRecord
100
AcDbDimStyleTableRecord
  2
ISO-25
 70
     0
 41
2.5
 42
0.625
 43
3.75
 44
1.25
 73
     0
 74
     0
 77
     1
 78
     8
140
2.5
141
2.5
143
0.0393700787
147
0.625
171
     3
172
     1
178
     0
271
     2
272
     2
274
     3
278
    44
283
     0
284
     8
340
11
  0
DIMSTYLE
105
77
102
{ACAD_REACTORS
330
75
330
82
102
}
330
A
100
AcDbSymbolTableRecord
100
AcDbDimStyleTableRecord
  2
SLDDIMSTYLE0
 70
     0
 41
2.5
 44
0.0
 45
0.000000001
 73
     0
 74
     0
 77
     1
 78
    12
 79
     3
140
6.0
147
1.5
173
     1
178
     0
271
     2
272
     2
276
     2
284
    12
340
76
  0
ENDTAB
  0
TABLE
  2
BLOCK_RECORD
  5
1
330
0
100
AcDbSymbolTable
 70
     3
  0
BLOCK_RECORD
  5
1F
330
1
100
AcDbSymbolTableRecord
100
AcDbBlockTableRecord
  2
*Model_Space
340
22
  0
BLOCK_RECORD
  5
1B
330
1
100
AcDbSymbolTableRecord
100
AcDbBlockTableRecord
  2
*Paper_Space
340
1E
  0
BLOCK_RECORD
  5
23
330
1
100
AcDbSymbolTableRecord
100
AcDbBlockTableRecord
  2
*Paper_Space0
340
26
  0
BLOCK_RECORD
  5
78
330
1
100
AcDbSymbolTableRecord
100
AcDbBlockTableRecord
  2
_D
340
0
  0
BLOCK_RECORD
  5
83
330
1
100
AcDbSymbolTableRecord
100
AcDbBlockTableRecord
  2
_D_1
340
0
  0
ENDTAB
  0
ENDSEC
  0
SECTION
  2
BLOCKS
  0
BLOCK
  5
20
330
1F
100
AcDbEntity
  8
0
100
AcDbBlockBegin
  2
*Model_Space
 70
     0
 10
0.0
 20
0.0
 30
0.0
  3
*Model_Space
  1

  0
ENDBLK
  5
21
330
1F
100
AcDbEntity
  8
0
100
AcDbBlockEnd
  0
BLOCK
  5
1C
330
1B
100
AcDbEntity
 67
     1
  8
0
100
AcDbBlockBegin
  2
*Paper_Space
 70
     0
 10
0.0
 20
0.0
 30
0.0
  3
*Paper_Space
  1

  0
ENDBLK
  5
1D
330
1B
100
AcDbEntity
 67
     1
  8
0
100
AcDbBlockEnd
  0
BLOCK
  5
24
330
23
100
AcDbEntity
  8
0
100
AcDbBlockBegin
  2
*Paper_Space0
 70
     0
 10
0.0
 20
0.0
 30
0.0
  3
*Paper_Space0
  1

  0
ENDBLK
  5
25
330
23
100
AcDbEntity
  8
0
100
AcDbBlockEnd
  0
BLOCK
  5
79
330
78
100
AcDbEntity
  8
0
100
AcDbBlockBegin
  2
_D
 70
     0
 10
0.0
 20
0.0
 30
0.0
  3
_D
  1

  0
SOLID
  5
7B
330
78
100
AcDbEntity
  8
0
  6
Continuous
 62
     7
370
    18
100
AcDbTrace
 10
42.7614395004
 20
152.0299240879
 30
0.0
 11
42.4614395004
 21
149.5299240879
 31
0.0
 12
43.0614395004
 22
149.5299240879
 32
0.0
 13
43.0614395004
 23
149.5299240879
 33
0.0
  0
SOLID
  5
7C
330
78
100
AcDbEntity
  8
0
  6
Continuous
 62
     7
370
    18
100
AcDbTrace
 10
42.7614395004
 20
52.0299240879
 30
0.0
 11
43.0614395004
 21
54.5299240879
 31
0.0
 12
42.4614395004
 22
54.5299240879
 32
0.0
 13
42.4614395004
 23
54.5299240879
 33
0.0
  0
LINE
  5
7D
330
78
100
AcDbEntity
  8
0
  6
Continuous
 62
     7
370
     0
100
AcDbLine
 10
56.6850079902
 20
152.0299240879
 30
0.0
 11
41.7614395004
 21
152.0299240879
 31
0.0
  0
LINE
  5
7E
330
78
100
AcDbEntity
  8
0
  6
Continuous
 62
     7
370
     0
100
AcDbLine
 10
56.6850079902
 20
52.0299240879
 30
0.0
 11
41.7614395004
 21
52.0299240879
 31
0.0
  0
LINE
  5
7F
330
78
100
AcDbEntity
  8
0
  6
Continuous
 62
     7
370
     0
100
AcDbLine
 10
42.7614395004
 20
152.0299240879
 30
0.0
 11
42.7614395004
 21
52.0299240879
 31
0.0
  0
MTEXT
  5
80
330
78
100
AcDbEntity
  8
0
  6
Continuous
 62
     7
370
    18
100
AcDbMText
 10
35.0270332946
 20
94.3680541463
 30
0.0
 40
6.0
 41
0.0
 71
     1
 72
     1
  1
100
  7
SLDTEXTSTYLE0
 11
-7.044195017643634E-15
 21
1.0
 31
0.0
 73
     1
 44
1.0
  0
MTEXT
  5
81
330
78
100
AcDbEntity
  8
0
  6
Continuous
 62
     7
370
    18
100
AcDbMText
 10
35.0270332946
 20
105.7430548466
 30
0.0
 40
6.0
 41
0.0
 71
     1
 72
     1
  1
mm
  7
SLDTEXTSTYLE0
 11
-7.044195017643634E-15
 21
1.0
 31
0.0
 73
     1
 44
1.0
  0
ENDBLK
  5
7A
330
78
100
AcDbEntity
  8
0
100
AcDbBlockEnd
  0
BLOCK
  5
84
330
83
100
AcDbEntity
  8
0
100
AcDbBlockBegin
  2
_D_1
 70
     0
 10
0.0
 20
0.0
 30
0.0
  3
_D_1
  1

  0
SOLID
  5
86
330
83
100
AcDbEntity
  8
0
  6
Continuous
 62
     7
370
    18
100
AcDbTrace
 10
56.6850079902
 20
38.4602342313
 30
0.0
 11
59.1850079902
 21
38.1602342313
 31
0.0
 12
59.1850079902
 22
38.7602342313
 32
0.0
 13
59.1850079902
 23
38.7602342313
 33
0.0
  0
SOLID
  5
87
330
83
100
AcDbEntity
  8
0
  6
Continuous
 62
     7
370
    18
100
AcDbTrace
 10
156.6850079902
 20
38.4602342313
 30
0.0
 11
154.1850079902
 21
38.7602342313
 31
0.0
 12
154.1850079902
 22
38.1602342313
 32
0.0
 13
154.1850079902
 23
38.1602342313
 33
0.0
  0
LINE
  5
88
330
83
100
AcDbEntity
  8
0
  6
Continuous
 62
     7
370
     0
100
AcDbLine
 10
56.6850079902
 20
52.0299240879
 30
0.0
 11
56.6850079902
 21
37.4602342313
 31
0.0
  0
LINE
  5
89
330
83
100
AcDbEntity
  8
0
  6
Continuous
 62
     7
370
     0
100
AcDbLine
 10
156.6850079902
 20
52.0299240879
 30
0.0
 11
156.6850079902
 21
37.4602342313
 31
0.0
  0
LINE
  5
8A
330
83
100
AcDbEntity
  8
0
  6
Continuous
 62
     7
370
     0
100
AcDbLine
 10
56.6850079902
 20
38.4602342313
 30
0.0
 11
156.6850079902
 21
38.4602342313
 31
0.0
  0
MTEXT
  5
8B
330
83
100
AcDbEntity
  8
0
  6
Continuous
 62
     7
370
    18
100
AcDbMText
 10
93.9626484861
 20
46.1946404371
 30
0.0
 40
6.0
 41
0.0
 71
     1
 72
     1
  1
100
  7
SLDTEXTSTYLE0
 73
     1
 44
1.0
  0
MTEXT
  5
8C
330
83
100
AcDbEntity
  8
0
  6
Continuous
 62
     7
370
    18
100
AcDbMText
 10
105.3376491864
 20
46.1946404371
 30
0.0
 40
6.0
 41
0.0
 71
     1
 72
     1
  1
mm
  7
SLDTEXTSTYLE0
 73
     1
 44
1.0
  0
ENDBLK
  5
85
330
83
100
AcDbEntity
  8
0
100
AcDbBlockEnd
  0
ENDSEC
  0
SECTION
  2
ENTITIES
  0
LINE
  5
73
330
1F
100
AcDbEntity
  8
0
  6
Continuous
 62
     7
370
    18
100
AcDbLine
 10
56.6850079902
 20
152.0299240879
 30
0.0
 11
56.6850079902
 21
52.0299240879
 31
0.0
  0
LINE
  5
74
330
1F
100
AcDbEntity
  8
0
  6
Continuous
 62
     7
370
    18
100
AcDbLine
 10
56.6850079902
 20
52.0299240879
 30
0.0
 11
156.6850079902
 21
52.0299240879
 31
0.0
  0
DIMENSION
  5
75
330
1F
100
AcDbEntity
  8
0
  6
Continuous
 62
     7
370
    18
100
AcDbDimension
  2
_D
 10
42.7614395004
 20
52.0299240879
 30
0.0
 11
42.7614395004
 21
105.4472211621
 31
0.0
 70
   160
  1
<>mm
 71
     2
 42
-1.0
  3
SLDDIMSTYLE0
100
AcDbAlignedDimension
 13
56.6850079902
 23
152.0299240879
 33
0.0
 14
56.6850079902
 24
52.0299240879
 34
0.0
 50
90.0
100
AcDbRotatedDimension
  0
DIMENSION
  5
82
330
1F
100
AcDbEntity
  8
0
  6
Continuous
 62
     7
370
    18
100
AcDbDimension
  2
_D_1
 10
156.6850079902
 20
38.4602342313
 30
0.0
 11
105.0418155019
 21
38.4602342313
 31
0.0
 70
   160
  1
<>mm
 71
     2
 42
-1.0
  3
SLDDIMSTYLE0
100
AcDbAlignedDimension
 13
56.6850079902
 23
52.0299240879
 33
0.0
 14
156.6850079902
 24
52.0299240879
 34
0.0
100
AcDbRotatedDimension
  0
MTEXT
  5
8E
330
1F
100
AcDbEntity
  8
0
  6
Continuous
 62
     7
370
     0
100
AcDbMText
 10
412.8252631579
 20
48.4342449499
 30
0.0
 40
10.0
 41
0.0
 71
     1
 72
     1
  1
KLUDI GmbH & Co KG
  7
SLDTEXTSTYLE1
 73
     1
 44
1.0
  0
MTEXT
  5
8F
330
1F
100
AcDbEntity
  8
0
  6
Continuous
 62
     7
370
     0
100
AcDbMText
 10
210.0873490389
 20
48.4342449499
 30
0.0
 40
10.0
 41
0.0
 71
     1
 72
     1
  1
20 810 .. 15
  7
SLDTEXTSTYLE1
 73
     1
 44
1.0
  0
CIRCLE
  5
90
330
1F
100
AcDbEntity
  8
0
  6
Continuous
 62
     7
370
    25
100
AcDbCircle
 10
172.9901669299
 20
340.0733041575
 30
0.0
 40
22.90000000000002
  0
LINE
  5
91
330
1F
100
AcDbEntity
  8
0
  6
Continuous
 62
     7
370
    25
100
AcDbLine
 10
178.9901669299
 20
369.7733041575
 30
0.0
 11
178.9901669299
 21
362.1733041575
 31
0.0
  0
LINE
  5
92
330
1F
100
AcDbEntity
  8
0
  6
Continuous
 62
     7
370
    25
100
AcDbLine
 10
177.6901669299
 20
370.7733041575
 30
0.0
 11
177.9901669299
 21
370.7733041575
 31
0.0
  0
ARC
  5
93
330
1F
100
AcDbEntity
  8
0
  6
Continuous
 62
     7
370
    25
100
AcDbCircle
 10
177.9901669299
 20
369.7733041575
 30
0.0
 40
1.0
100
AcDbArc
 50
0.0
 51
90.0
  0
LINE
  5
94
330
1F
100
AcDbEntity
  8
0
  6
Continuous
 62
     7
370
    25
100
AcDbLine
 10
166.9901669299
 20
362.1733041575
 30
0.0
 11
166.9901669299
 21
369.7733041575
 31
0.0
  0
LINE
  5
95
330
1F
100
AcDbEntity
  8
0
  6
Continuous
 62
     7
370
    25
100
AcDbLine
 10
168.2901669299
 20
370.7733041575
 30
0.0
 11
177.6901669299
 21
370.7733041575
 31
0.0
  0
LINE
  5
96
330
1F
100
AcDbEntity
  8
0
  6
Continuous
 62
     7
370
    25
100
AcDbLine
 10
167.9901669299
 20
370.7733041575
 30
0.0
 11
168.2901669299
 21
370.7733041575
 31
0.0
  0
ARC
  5
97
330
1F
100
AcDbEntity
  8
0
  6
Continuous
 62
     7
370
    25
100
AcDbCircle
 10
167.9901669299
 20
369.7733041575
 30
0.0
 40
1.0
100
AcDbArc
 50
90.0
 51
180.0
  0
ARC
  5
98
330
1F
100
AcDbEntity
  8
0
  6
Continuous
 62
     7
370
    25
100
AcDbCircle
 10
176.2401669299
 20
437.0733041575
 30
0.0
 40
1.0
100
AcDbArc
 50
0.0
 51
90.0
  0
LINE
  5
99
330
1F
100
AcDbEntity
  8
0
  6
Continuous
 62
     7
370
    25
100
AcDbLine
 10
169.7401669299
 20
438.0733041575
 30
0.0
 11
176.2401669299
 21
438.0733041575
 31
0.0
  0
ARC
  5
9A
330
1F
100
AcDbEntity
  8
0
  6
Continuous
 62
     7
370
    25
100
AcDbCircle
 10
169.7401669299
 20
437.0733041575
 30
0.0
 40
1.0
100
AcDbArc
 50
90.0
 51
180.0
  0
LINE
  5
9B
330
1F
100
AcDbEntity
  8
0
  6
Continuous
 62
     7
370
    25
100
AcDbLine
 10
177.2401669299
 20
437.0733041575
 30
0.0
 11
177.2401669299
 21
420.2981302449
 31
0.0
  0
LINE
  5
9C
330
1F
100
AcDbEntity
  8
0
  6
Continuous
 62
     7
370
    25
100
AcDbLine
 10
168.7401669299
 20
420.2981302449
 30
0.0
 11
168.7401669299
 21
437.0733041575
 31
0.0
  0
SPLINE
  5
9D
330
1F
100
AcDbEntity
  8
0
  6
Continuous
 62
     7
370
    25
100
AcDbSpline
210
0.0
220
0.0
230
1.0
 70
     8
 71
     3
 72
    20
 73
    16
 74
     0
 42
0.00000001
 43
0.00000001
 40
0.0
 40
0.0
 40
0.0
 40
0.0
 40
0.1249999999999995
 40
0.1249999999999995
 40
0.2499999999999991
 40
0.2499999999999991
 40
0.3749999999999986
 40
0.3749999999999986
 40
0.4999999999999981
 40
0.4999999999999981
 40
0.7499999999999973
 40
0.7499999999999973
 40
0.8749999999999987
 40
0.8749999999999987
 40
1.0
 40
1.0
 40
1.0
 40
1.0
 10
165.7845550105341
 20
415.0766019071646
 30
0.0
 10
165.970709977235
 20
415.1883512342983
 30
0.0
 10
166.1710892003895
 20
415.3034239882679
 30
0.0
 10
166.5952028112162
 20
415.5749138917932
 30
0.0
 10
166.8181368205497
 20
415.7307921005861
 30
0.0
 10
167.2541610151333
 20
416.0864385931395
 30
0.0
 10
167.4664508220446
 20
416.285667936137
 30
0.0
 10
167.8454940898103
 20
416.7156566183583
 30
0.0
 10
168.0114471723261
 20
416.9458770168192
 30
0.0
 10
168.4197398430136
 20
417.6671867855749
 30
0.0
 10
168.576212340982
 20
418.1942181811074
 30
0.0
 10
168.6966449537528
 20
418.9905381465031
 30
0.0
 10
168.7181721264883
 20
419.2562903642963
 30
0.0
 10
168.7399444668657
 20
419.7811699524657
 30
0.0
 10
168.7401669299088
 20
420.0400225797575
 30
0.0
 10
168.7401669299088
 20
420.2981302449269
 30
0.0
  0
ARC
  5
9E
330
1F
100
AcDbEntity
  8
0
  6
Continuous
 62
     7
370
    25
100
AcDbCircle
 10
172.9901669299
 20
403.0733041575
 30
0.0
 40
14.00000000000004
100
AcDbArc
 50
120.9765069015
 51
59.0234930985
  0
SPLINE
  5
9F
330
1F
100
AcDbEntity
  8
0
  6
Continuous
 62
     7
370
    25
100
AcDbSpline
210
0.0
220
0.0
230
1.0
 70
     8
 71
     3
 72
    20
 73
    16
 74
     0
 42
0.00000001
 43
0.00000001
 40
0.0
 40
0.0
 40
0.0
 40
0.0
 40
0.1250000000000012
 40
0.1250000000000012
 40
0.2500000000000025
 40
0.2500000000000025
 40
0.5000000000000018
 40
0.5000000000000018
 40
0.6250000000000014
 40
0.6250000000000014
 40
0.7500000000000011
 40
0.7500000000000011
 40
0.8750000000000009
 40
0.8750000000000009
 40
1.0
 40
1.0
 40
1.0
 40
1.0
 10
177.2401669299088
 20
420.2981302449269
 30
0.0
 10
177.2401669299088
 20
420.0400225797575
 30
0.0
 10
177.2403893929518
 20
419.7811699524657
 30
0.0
 10
177.2621617333292
 20
419.2562903642962
 30
0.0
 10
177.2836889060648
 20
418.9905381465031
 30
0.0
 10
177.4041215188354
 20
418.1942181811074
 30
0.0
 10
177.5605940168037
 20
417.6671867855749
 30
0.0
 10
177.9688866874912
 20
416.9458770168192
 30
0.0
 10
178.1348397700069
 20
416.7156566183583
 30
0.0
 10
178.5138830377726
 20
416.285667936137
 30
0.0
 10
178.7261728446839
 20
416.0864385931395
 30
0.0
 10
179.1621970392674
 20
415.7307921005861
 30
0.0
 10
179.3851310486009
 20
415.5749138917931
 30
0.0
 10
179.8092446594277
 20
415.3034239882678
 30
0.0
 10
180.0096238825821
 20
415.1883512342984
 30
0.0
 10
180.195778849283
 20
415.0766019071648
 30
0.0
  0
CIRCLE
  5
A0
330
1F
100
AcDbEntity
  8
0
  6
Continuous
 62
     7
370
    25
100
AcDbCircle
 10
172.9901669299
 20
373.5733041575
 30
0.0
 40
74.50000000000006
  0
CIRCLE
  5
A1
330
1F
100
AcDbEntity
  8
0
  6
Continuous
 62
     8
370
    18
100
AcDbCircle
 10
172.9901669299
 20
340.0733041575
 30
0.0
 40
22.59999999999999
  0
LINE
  5
A2
330
1F
100
AcDbEntity
  8
0
  6
Continuous
 62
     8
370
    18
100
AcDbLine
 10
177.6901669299
 20
362.4858006717
 30
0.0
 11
177.6901669299
 21
369.7733041575
 31
0.0
  0
LINE
  5
A3
330
1F
100
AcDbEntity
  8
0
  6
Continuous
 62
     8
370
    18
100
AcDbLine
 10
178.9901669299
 20
369.7733041575
 30
0.0
 11
177.6901669299
 21
369.7733041575
 31
0.0
  0
LINE
  5
A4
330
1F
100
AcDbEntity
  8
0
  6
Continuous
 62
     8
370
    18
100
AcDbLine
 10
177.6901669299
 20
370.7733041575
 30
0.0
 11
177.6901669299
 21
369.7733041575
 31
0.0
  0
LINE
  5
A5
330
1F
100
AcDbEntity
  8
0
  6
Continuous
 62
     8
370
    18
100
AcDbLine
 10
168.2901669299
 20
369.7733041575
 30
0.0
 11
168.2901669299
 21
362.4858006717
 31
0.0
  0
LINE
  5
A6
330
1F
100
AcDbEntity
  8
0
  6
Continuous
 62
     8
370
    18
100
AcDbLine
 10
177.6901669299
 20
369.7733041575
 30
0.0
 11
168.2901669299
 21
369.7733041575
 31
0.0
  0
LINE
  5
A7
330
1F
100
AcDbEntity
  8
0
  6
Continuous
 62
     8
370
    18
100
AcDbLine
 10
168.2901669299
 20
369.7733041575
 30
0.0
 11
166.9901669299
 21
369.7733041575
 31
0.0
  0
LINE
  5
A8
330
1F
100
AcDbEntity
  8
0
  6
Continuous
 62
     8
370
    18
100
AcDbLine
 10
168.2901669299
 20
370.7733041575
 30
0.0
 11
168.2901669299
 21
369.7733041575
 31
0.0
  0
LINE
  5
A9
330
1F
100
AcDbEntity
  8
0
  6
Continuous
 62
     8
370
    18
100
AcDbLine
 10
177.2401669299
 20
437.0733041575
 30
0.0
 11
176.2401669299
 21
437.0733041575
 31
0.0
  0
LINE
  5
AA
330
1F
100
AcDbEntity
  8
0
  6
Continuous
 62
     8
370
    18
100
AcDbLine
 10
176.2401669299
 20
438.0733041575
 30
0.0
 11
176.2401669299
 21
437.0733041575
 31
0.0
  0
LINE
  5
AB
330
1F
100
AcDbEntity
  8
0
  6
Continuous
 62
     8
370
    18
100
AcDbLine
 10
176.2401669299
 20
437.0733041575
 30
0.0
 11
169.7401669299
 21
437.0733041575
 31
0.0
  0
LINE
  5
AC
330
1F
100
AcDbEntity
  8
0
  6
Continuous
 62
     8
370
    18
100
AcDbLine
 10
169.7401669299
 20
437.0733041575
 30
0.0
 11
169.7401669299
 21
438.0733041575
 31
0.0
  0
SPLINE
  5
AD
330
1F
100
AcDbEntity
  8
0
  6
Continuous
 62
     8
370
    18
100
AcDbSpline
210
0.0
220
0.0
230
1.0
 70
     8
 71
     3
 72
    22
 73
    18
 74
     0
 42
0.00000001
 43
0.00000001
 40
0.0
 40
0.0
 40
0.0
 40
0.0
 40
0.125
 40
0.125
 40
0.25
 40
0.25
 40
0.375
 40
0.375
 40
0.5
 40
0.5
 40
0.625
 40
0.625
 40
0.75
 40
0.75
 40
0.875
 40
0.875
 40
1.0
 40
1.0
 40
1.0
 40
1.0
 10
169.7401669299088
 20
420.2981302449269
 30
0.0
 10
169.7401669299088
 20
419.9880973797945
 30
0.0
 10
169.739140265038
 20
419.6781724309136
 30
0.0
 10
169.7072602417152
 20
419.0614577187987
 30
0.0
 10
169.6770105110683
 20
418.7546045061841
 30
0.0
 10
169.5731317769397
 20
418.1454578245012
 30
0.0
 10
169.4986184076974
 20
417.8401775888014
 30
0.0
 10
169.2983405761721
 20
417.2517988023452
 30
0.0
 10
169.1734581406694
 20
416.9697997459576
 30
0.0
 10
168.8703175767589
 20
416.4320981214127
 30
0.0
 10
168.689564279318
 20
416.1740965972937
 30
0.0
 10
168.2892033529961
 20
415.6980617003376
 30
0.0
 10
168.0705630688773
 20
415.4793535531995
 30
0.0
 10
167.6037751181858
 20
415.0728025062545
 30
0.0
 10
167.3544903131029
 20
414.8845913046453
 30
0.0
 10
166.8365921817063
 20
414.5365067740597
 30
0.0
 10
166.5667056997915
 20
414.3797829291496
 30
0.0
 10
166.2992415762041
 20
414.2192234964737
 30
0.0
  0
LINE
  5
AE
330
1F
100
AcDbEntity
  8
0
  6
Continuous
 62
     8
370
    18
100
AcDbLine
 10
169.7401669299
 20
437.0733041575
 30
0.0
 11
169.7401669299
 21
420.2981302449
 31
0.0
  0
LINE
  5
AF
330
1F
100
AcDbEntity
  8
0
  6
Continuous
 62
     8
370
    18
100
AcDbLine
 10
176.2401669299
 20
420.2981302449
 30
0.0
 11
176.2401669299
 21
437.0733041575
 31
0.0
  0
SPLINE
  5
B0
330
1F
100
AcDbEntity
  8
0
  6
Continuous
 62
     8
370
    18
100
AcDbSpline
210
0.0
220
0.0
230
1.0
 70
     8
 71
     3
 72
    22
 73
    18
 74
     0
 42
0.00000001
 43
0.00000001
 40
0.0
 40
0.0
 40
0.0
 40
0.0
 40
0.125
 40
0.125
 40
0.25
 40
0.25
 40
0.375
 40
0.375
 40
0.5
 40
0.5
 40
0.625
 40
0.625
 40
0.75
 40
0.75
 40
0.875
 40
0.875
 40
1.0
 40
1.0
 40
1.0
 40
1.0
 10
179.6810922836134
 20
414.2192234964737
 30
0.0
 10
179.413811866682
 20
414.3796726495498
 30
0.0
 10
179.1438253499139
 20
414.5365175664394
 30
0.0
 10
178.628352145257
 20
414.8828385576567
 30
0.0
 10
178.3807052539772
 20
415.0694374716052
 30
0.0
 10
177.9116006819872
 20
415.4775165330602
 30
0.0
 10
177.6879902654915
 20
415.7012743329443
 30
0.0
 10
177.2863622383602
 20
416.1798680282333
 30
0.0
 10
177.1085939465813
 20
416.4340574648818
 30
0.0
 10
176.8040477802684
 20
416.9753873272695
 30
0.0
 10
176.6760432650779
 20
417.266414254194
 30
0.0
 10
176.4772740362175
 20
417.8562433689364
 30
0.0
 10
176.4052018615868
 20
418.155199721235
 30
0.0
 10
176.3028697488672
 20
418.759299953815
 30
0.0
 10
176.2728583556891
 20
419.0644806146834
 30
0.0
 10
176.2412080896938
 20
419.6790406059535
 30
0.0
 10
176.2401669299088
 20
419.9885083881201
 30
0.0
 10
176.2401669299088
 20
420.2981302449269
 30
0.0
  0
ARC
  5
B1
330
1F
100
AcDbEntity
  8
0
  6
Continuous
 62
     8
370
    18
100
AcDbCircle
 10
172.9901669299
 20
403.0733041575
 30
0.0
 40
13.00000000000002
100
AcDbArc
 50
120.9765069015
 51
59.0234930985
  0
LINE
  5
B2
330
1F
100
AcDbEntity
  8
0
  6
Continuous
 62
     8
370
    18
100
AcDbLine
 10
169.7401669299
 20
437.0733041575
 30
0.0
 11
168.7401669299
 21
437.0733041575
 31
0.0
  0
LINE
  5
B3
330
1F
100
AcDbEntity
  8
0
  6
Continuous
 62
     8
370
    18
100
AcDbLine
 10
177.2401669299
 20
420.2981302449
 30
0.0
 11
176.2401669299
 21
420.2981302449
 31
0.0
  0
LINE
  5
B4
330
1F
100
AcDbEntity
  8
0
  6
Continuous
 62
     8
370
    18
100
AcDbLine
 10
169.7401669299
 20
420.2981302449
 30
0.0
 11
168.7401669299
 21
420.2981302449
 31
0.0
  0
LINE
  5
B5
330
1F
100
AcDbEntity
  8
0
  6
Continuous
 62
     8
370
    18
100
AcDbLine
 10
166.2992415762
 20
414.2192234965
 30
0.0
 11
165.7845550105
 21
415.0766019072
 31
0.0
  0
LINE
  5
B6
330
1F
100
AcDbEntity
  8
0
  6
Continuous
 62
     8
370
    18
100
AcDbLine
 10
180.1957788493
 20
415.0766019072
 30
0.0
 11
179.6810922836
 21
414.2192234965
 31
0.0
  0
CIRCLE
  5
B7
330
1F
100
AcDbEntity
  8
0
  6
Continuous
 62
     8
370
    18
100
AcDbCircle
 10
172.9901669299
 20
373.5733041575
 30
0.0
 40
73.3527529442751
  0
CIRCLE
  5
B8
330
1F
100
AcDbEntity
  8
0
  6
Continuous
 62
     8
370
    18
100
AcDbCircle
 10
172.9901669299
 20
373.5733041575
 30
0.0
 40
74.34193130454275
  0
LINE
  5
B9
330
1F
100
AcDbEntity
  8
0
  6
Continuous
 62
     7
370
    25
100
AcDbLine
 10
98.4901669299
 20
203.6196000374
 30
0.0
 11
98.6482356254
 21
197.5832000948
 31
0.0
  0
LINE
  5
BA
330
1F
100
AcDbEntity
  8
0
  6
Continuous
 62
     7
370
    25
100
AcDbLine
 10
247.3320982344
 20
197.5832000948
 30
0.0
 11
247.4901669299
 21
203.6196000374
 31
0.0
  0
ARC
  5
BB
330
1F
100
AcDbEntity
  8
0
  6
Continuous
 62
     7
370
    25
100
AcDbCircle
 10
246.3324409095
 20
197.6093770431
 30
0.0
 40
0.999999999999589
100
AcDbArc
 50
270.6004114401
 51
358.5
  0
ARC
  5
BC
330
1F
100
AcDbEntity
  8
0
  6
Continuous
 62
     7
370
    25
100
AcDbCircle
 10
99.6478929503
 20
197.6093770431
 30
0.0
 40
0.999999999999589
100
AcDbArc
 50
181.5
 51
269.3995885599
  0
ARC
  5
BD
330
1F
100
AcDbEntity
  8
0
  6
Continuous
 62
     7
370
    25
100
AcDbCircle
 10
172.9901669299
 20
7196.2250909431
 30
0.0
 40
7000.0
100
AcDbArc
 50
269.3995885599
 51
269.8854083646
  0
ARC
  5
BE
330
1F
100
AcDbEntity
  8
0
  6
Continuous
 62
     7
370
    25
100
AcDbCircle
 10
172.9901669299
 20
7196.2250909431
 30
0.0
 40
7000.0
100
AcDbArc
 50
270.1145916354
 51
270.6004114401
  0
LINE
  5
BF
330
1F
100
AcDbEntity
  8
0
  6
Continuous
 62
     7
370
    25
100
AcDbLine
 10
158.9901669299
 20
178.4096778619
 30
0.0
 11
158.9901669299
 21
156.1096778619
 31
0.0
  0
LINE
  5
C0
330
1F
100
AcDbEntity
  8
0
  6
Continuous
 62
     7
370
    25
100
AcDbLine
 10
186.9901669299
 20
156.1096778619
 30
0.0
 11
186.9901669299
 21
178.4096778619
 31
0.0
  0
LINE
  5
C1
330
1F
100
AcDbEntity
  8
0
  6
Continuous
 62
     7
370
    25
100
AcDbLine
 10
186.9901669299
 20
178.8096778619
 30
0.0
 11
186.9901669299
 21
196.3012541319
 31
0.0
  0
LINE
  5
C2
330
1F
100
AcDbEntity
  8
0
  6
Continuous
 62
     7
370
    25
100
AcDbLine
 10
158.9901669299
 20
196.3012489846
 30
0.0
 11
158.9901669299
 21
178.8096778619
 31
0.0
  0
ARC
  5
C3
330
1F
100
AcDbEntity
  8
0
  6
Continuous
 62
     7
370
    25
100
AcDbCircle
 10
159.4901669299
 20
178.8096778619
 30
0.0
 40
0.5000000000000338
100
AcDbArc
 50
180.0
 51
205.0576154176
  0
ARC
  5
C4
330
1F
100
AcDbEntity
  8
0
  6
Continuous
 62
     7
370
    25
100
AcDbCircle
 10
186.4901669299
 20
178.8096778619
 30
0.0
 40
0.5000000000000338
100
AcDbArc
 50
334.9423845824
 51
0.0
  0
ARC
  5
C5
330
1F
100
AcDbEntity
  8
0
  6
Continuous
 62
     7
370
    25
100
AcDbCircle
 10
186.5901669299
 20
178.4096778619
 30
0.0
 40
0.3999999999999923
100
AcDbArc
 50
0.0
 51
28.0724869367
  0
ARC
  5
C6
330
1F
100
AcDbEntity
  8
0
  6
Continuous
 62
     7
370
    25
100
AcDbCircle
 10
159.3901669299
 20
178.4096778619
 30
0.0
 40
0.4000000000000057
100
AcDbArc
 50
151.9275130633
 51
180.0
  0
ARC
  5
C7
330
1F
100
AcDbEntity
  8
0
  6
Continuous
 62
     7
370
    25
100
AcDbCircle
 10
159.9901669299
 20
156.1096778619
 30
0.0
 40
1.0
100
AcDbArc
 50
180.0
 51
270.0
  0
ARC
  5
C8
330
1F
100
AcDbEntity
  8
0
  6
Continuous
 62
     7
370
    25
100
AcDbCircle
 10
185.9901669299
 20
156.1096778619
 30
0.0
 40
1.0
100
AcDbArc
 50
270.0
 51
0.0
  0
LINE
  5
C9
330
1F
100
AcDbEntity
  8
0
  6
Continuous
 62
     7
370
    25
100
AcDbLine
 10
195.8901669299
 20
170.5096778619
 30
0.0
 11
195.8901669299
 21
196.2625489005
 31
0.0
  0
LINE
  5
CA
330
1F
100
AcDbEntity
  8
0
  6
Continuous
 62
     7
370
    25
100
AcDbLine
 10
150.0901669299
 20
196.2625489005
 30
0.0
 11
150.0901669299
 21
170.5096778619
 31
0.0
  0
ARC
  5
CB
330
1F
100
AcDbEntity
  8
0
  6
Continuous
 62
     7
370
    25
100
AcDbCircle
 10
151.0901669299
 20
170.5096778619
 30
0.0
 40
1.0
100
AcDbArc
 50
180.0
 51
270.0
  0
ARC
  5
CC
330
1F
100
AcDbEntity
  8
0
  6
Continuous
 62
     7
370
    25
100
AcDbCircle
 10
194.8901669299
 20
170.5096778619
 30
0.0
 40
1.0
100
AcDbArc
 50
270.0
 51
0.0
  0
ARC
  5
CD
330
1F
100
AcDbEntity
  8
0
  6
Continuous
 62
     7
370
    25
100
AcDbCircle
 10
150.3901669299
 20
121.6096778619
 30
0.0
 40
0.3000000000000256
100
AcDbArc
 50
90.0
 51
180.0
  0
ARC
  5
CE
330
1F
100
AcDbEntity
  8
0
  6
Continuous
 62
     7
370
    25
100
AcDbCircle
 10
195.5901669299
 20
121.6096778619
 30
0.0
 40
0.3000000000000256
100
AcDbArc
 50
0.0
 51
90.0
  0
LINE
  5
CF
330
1F
100
AcDbEntity
  8
0
  6
Continuous
 62
     7
370
    25
100
AcDbLine
 10
195.8901669299
 20
119.6096778619
 30
0.0
 11
195.8901669299
 21
121.6096778619
 31
0.0
  0
LINE
  5
D0
330
1F
100
AcDbEntity
  8
0
  6
Continuous
 62
     7
370
    25
100
AcDbLine
 10
150.0901669299
 20
121.6096778619
 30
0.0
 11
150.0901669299
 21
119.6096778619
 31
0.0
  0
ARC
  5
D1
330
1F
100
AcDbEntity
  8
0
  6
Continuous
 62
     7
370
    25
100
AcDbCircle
 10
195.5901669299
 20
119.6096778619
 30
0.0
 40
0.3000000000000256
100
AcDbArc
 50
270.0
 51
0.0
  0
ARC
  5
D2
330
1F
100
AcDbEntity
  8
0
  6
Continuous
 62
     7
370
    25
100
AcDbCircle
 10
150.3901669299
 20
119.6096778619
 30
0.0
 40
0.3000000000000256
100
AcDbArc
 50
180.0
 51
270.0
  0
LINE
  5
D3
330
1F
100
AcDbEntity
  8
0
  6
Continuous
 62
     7
370
    25
100
AcDbLine
 10
195.860877608
 20
168.3389671838
 30
0.0
 11
195.7194562518
 21
168.48038854
 31
0.0
  0
LINE
  5
D4
330
1F
100
AcDbEntity
  8
0
  6
Continuous
 62
     7
370
    25
100
AcDbLine
 10
150.260877608
 20
168.48038854
 30
0.0
 11
150.1194562518
 21
168.3389671838
 31
0.0
  0
LINE
  5
D5
330
1F
100
AcDbEntity
  8
0
  6
Continuous
 62
     7
370
    25
100
AcDbLine
 10
191.3401669299
 20
168.5096778619
 30
0.0
 11
191.3401669299
 21
169.5096778619
 31
0.0
  0
LINE
  5
D6
330
1F
100
AcDbEntity
  8
0
  6
Continuous
 62
     7
370
    25
100
AcDbLine
 10
154.6401669299
 20
169.5096778619
 30
0.0
 11
154.6401669299
 21
168.5096778619
 31
0.0
  0
ARC
  5
D7
330
1F
100
AcDbEntity
  8
0
  6
Continuous
 62
     7
370
    25
100
AcDbCircle
 10
195.5901669299
 20
168.2096778619
 30
0.0
 40
0.2999999999999935
100
AcDbArc
 50
0.0
 51
25.5287793654
  0
ARC
  5
D8
330
1F
100
AcDbEntity
  8
0
  6
Continuous
 62
     7
370
    25
100
AcDbCircle
 10
150.3901669299
 20
168.2096778619
 30
0.0
 40
0.2999999999999829
100
AcDbArc
 50
154.4712206346
 51
180.0
  0
LINE
  5
D9
330
1F
100
AcDbEntity
  8
0
  6
Continuous
 62
     7
370
    25
100
AcDbLine
 10
150.0901669299
 20
168.2096778619
 30
0.0
 11
150.0901669299
 21
122.2096778619
 31
0.0
  0
LINE
  5
DA
330
1F
100
AcDbEntity
  8
0
  6
Continuous
 62
     7
370
    25
100
AcDbLine
 10
195.8901669299
 20
122.2096778619
 30
0.0
 11
195.8901669299
 21
168.2096778619
 31
0.0
  0
ARC
  5
DB
330
1F
100
AcDbEntity
  8
0
  6
Continuous
 62
     7
370
    25
100
AcDbCircle
 10
150.3901669299
 20
122.2096778619
 30
0.0
 40
0.3000000000000256
100
AcDbArc
 50
180.0
 51
270.0
  0
ARC
  5
DC
330
1F
100
AcDbEntity
  8
0
  6
Continuous
 62
     7
370
    25
100
AcDbCircle
 10
195.5901669299
 20
122.2096778619
 30
0.0
 40
0.3000000000000256
100
AcDbArc
 50
270.0
 51
0.0
  0
ARC
  5
DD
330
1F
100
AcDbEntity
  8
0
  6
Continuous
 62
     7
370
    25
100
AcDbCircle
 10
195.5901669299
 20
168.2096778619
 30
0.0
 40
0.3000000000000398
100
AcDbArc
 50
64.4712206346
 51
90.0
  0
ARC
  5
DE
330
1F
100
AcDbEntity
  8
0
  6
Continuous
 62
     7
370
    25
100
AcDbCircle
 10
150.3901669299
 20
168.2096778619
 30
0.0
 40
0.3000000000000398
100
AcDbArc
 50
90.0
 51
115.5287793654
  0
LINE
  5
DF
330
1F
100
AcDbEntity
  8
0
  6
Continuous
 62
     7
370
    25
100
AcDbLine
 10
247.4901669299
 20
203.6196000374
 30
0.0
 11
98.4901669299
 21
203.6196000374
 31
0.0
  0
SPLINE
  5
E0
330
1F
100
AcDbEntity
  8
0
  6
Continuous
 62
     7
370
    25
100
AcDbSpline
210
0.0
220
0.0
230
1.0
 70
     8
 71
     3
 72
    27
 73
    23
 74
     0
 42
0.00000001
 43
0.00000001
 40
0.0
 40
0.0
 40
0.0
 40
0.0
 40
0.0016972880209367
 40
0.0553917427325282
 40
0.1090861966799766
 40
0.1627806580818366
 40
0.2164751175712396
 40
0.2701692918714452
 40
0.3238634639490496
 40
0.377557183181102
 40
0.4312509008545353
 40
0.4849441964964473
 40
0.5386374919267952
 40
0.5923305811021105
 40
0.6460236715055736
 40
0.6997168618205999
 40
0.7534100542651996
 40
0.8071036089976099
 40
0.8607971658277318
 40
0.914491188546912
 40
0.9681852124126185
 40
0.9999999999999999
 40
0.9999999999999999
 40
0.9999999999999999
 40
0.9999999999999999
 10
186.9840388772981
 20
196.3012541318548
 30
0.0
 10
186.9860738958102
 20
196.3013585307636
 30
0.0
 10
187.0524876219934
 20
196.3047656351723
 30
0.0
 10
186.8122596697881
 20
196.3115209304812
 30
0.0
 10
186.2478178745979
 20
196.3211735559181
 30
0.0
 10
185.2525012002133
 20
196.3302589928769
 30
0.0
 10
183.9287924159176
 20
196.3385352920665
 30
0.0
 10
182.2848101689775
 20
196.3457321328235
 30
0.0
 10
180.3833173857045
 20
196.3516920992437
 30
0.0
 10
178.2673925041083
 20
196.3561907603167
 30
0.0
 10
176.0048223368336
 20
196.3591619619747
 30
0.0
 10
173.6549006701035
 20
196.3604554128228
 30
0.0
 10
171.2865098042182
 20
196.3601028821429
 30
0.0
 10
168.9674853590078
 20
196.3580453620996
 30
0.0
 10
166.7602779150581
 20
196.3544088876725
 30
0.0
 10
164.7336495168599
 20
196.3492323959952
 30
0.0
 10
162.9362244698854
 20
196.3427219714611
 30
0.0
 10
161.4313401438165
 20
196.3350100653583
 30
0.0
 10
160.2430787311385
 20
196.3263597708562
 30
0.0
 10
159.4417673308103
 20
196.3169814161789
 30
0.0
 10
159.0178737653555
 20
196.3085010589003
 30
0.0
 10
159.0333150660663
 20
196.3032155386859
 30
0.0
 10
159.0390602248849
 20
196.3012489845956
 30
0.0
  0
ARC
  5
E1
330
1F
100
AcDbEntity
  8
0
  6
Continuous
 62
     7
370
    25
100
AcDbCircle
 10
169.7401669299
 20
162.6096778619
 30
0.0
 40
1.0
100
AcDbArc
 50
90.0
 51
180.0
  0
LINE
  5
E2
330
1F
100
AcDbEntity
  8
0
  6
Continuous
 62
     7
370
    25
100
AcDbLine
 10
169.7401669299
 20
163.6096778619
 30
0.0
 11
176.2401669299
 21
163.6096778619
 31
0.0
  0
LINE
  5
E3
330
1F
100
AcDbEntity
  8
0
  6
Continuous
 62
     7
370
    25
100
AcDbLine
 10
168.7401669299
 20
156.1096778619
 30
0.0
 11
168.7401669299
 21
162.6096778619
 31
0.0
  0
ARC
  5
E4
330
1F
100
AcDbEntity
  8
0
  6
Continuous
 62
     7
370
    25
100
AcDbCircle
 10
176.2401669299
 20
162.6096778619
 30
0.0
 40
1.0
100
AcDbArc
 50
0.0
 51
90.0
  0
LINE
  5
E5
330
1F
100
AcDbEntity
  8
0
  6
Continuous
 62
     7
370
    25
100
AcDbLine
 10
177.2401669299
 20
162.6096778619
 30
0.0
 11
177.2401669299
 21
156.1096778619
 31
0.0
  0
LINE
  5
E6
330
1F
100
AcDbEntity
  8
0
  6
Continuous
 62
     7
370
    25
100
AcDbLine
 10
176.2401669299
 20
155.1096778619
 30
0.0
 11
169.7401669299
 21
155.1096778619
 31
0.0
  0
ARC
  5
E7
330
1F
100
AcDbEntity
  8
0
  6
Continuous
 62
     7
370
    25
100
AcDbCircle
 10
169.7401669299
 20
156.1096778619
 30
0.0
 40
1.0
100
AcDbArc
 50
180.0
 51
270.0
  0
ARC
  5
E8
330
1F
100
AcDbEntity
  8
0
  6
Continuous
 62
     7
370
    25
100
AcDbCircle
 10
176.2401669299
 20
156.1096778619
 30
0.0
 40
1.0
100
AcDbArc
 50
270.0
 51
0.0
  0
SPLINE
  5
E9
330
1F
100
AcDbEntity
  8
0
  6
Continuous
 62
     7
370
    25
100
AcDbSpline
210
0.0
220
0.0
230
1.0
 70
    24
 71
     3
 72
    22
 73
    18
 74
     0
 42
0.00000001
 43
0.00000001
 40
0.0
 40
0.0
 40
0.0
 40
0.0
 40
0.125
 40
0.125
 40
0.25
 40
0.25
 40
0.375
 40
0.375
 40
0.5
 40
0.5
 40
0.625
 40
0.625
 40
0.75
 40
0.75
 40
0.875
 40
0.875
 40
1.0
 40
1.0
 40
1.0
 40
1.0
 10
169.7401669299088
 20
155.1096778619127
 30
0.0
 10
169.7401669299088
 20
155.1096778619127
 30
0.0
 10
169.739140265038
 20
155.1096778619128
 30
0.0
 10
169.7072602417152
 20
155.1096778619129
 30
0.0
 10
169.6770105110683
 20
155.1096778619128
 30
0.0
 10
169.5731317769397
 20
155.1096778619128
 30
0.0
 10
169.4986184076974
 20
155.1096778619128
 30
0.0
 10
169.2983405761721
 20
155.1096778619128
 30
0.0
 10
169.1734581406694
 20
155.1096778619127
 30
0.0
 10
168.8703175767589
 20
155.1096778619126
 30
0.0
 10
168.689564279318
 20
155.1096778619125
 30
0.0
 10
168.2892033529961
 20
155.1096778619126
 30
0.0
 10
168.0705630688773
 20
155.1096778619128
 30
0.0
 10
167.6037751181858
 20
155.1096778619127
 30
0.0
 10
167.3544903131029
 20
155.1096778619127
 30
0.0
 10
166.8365921817063
 20
155.1096778619128
 30
0.0
 10
166.5667056997915
 20
155.1096778619127
 30
0.0
 10
166.2992415762041
 20
155.1096778619127
 30
0.0
  0
SPLINE
  5
EA
330
1F
100
AcDbEntity
  8
0
  6
Continuous
 62
     7
370
    25
100
AcDbSpline
210
0.0
220
0.0
230
1.0
 70
    24
 71
     3
 72
    22
 73
    18
 74
     0
 42
0.00000001
 43
0.00000001
 40
0.0
 40
0.0
 40
0.0
 40
0.0
 40
0.125
 40
0.125
 40
0.25
 40
0.25
 40
0.375
 40
0.375
 40
0.5
 40
0.5
 40
0.625
 40
0.625
 40
0.75
 40
0.75
 40
0.875
 40
0.875
 40
1.0
 40
1.0
 40
1.0
 40
1.0
 10
179.6810922836134
 20
155.1096778619127
 30
0.0
 10
179.413811866682
 20
155.1096778619127
 30
0.0
 10
179.1438253499139
 20
155.1096778619126
 30
0.0
 10
178.628352145257
 20
155.1096778619128
 30
0.0
 10
178.3807052539772
 20
155.1096778619127
 30
0.0
 10
177.9116006819872
 20
155.1096778619127
 30
0.0
 10
177.6879902654915
 20
155.1096778619127
 30
0.0
 10
177.2863622383602
 20
155.1096778619126
 30
0.0
 10
177.1085939465813
 20
155.1096778619128
 30
0.0
 10
176.8040477802684
 20
155.1096778619129
 30
0.0
 10
176.6760432650779
 20
155.1096778619128
 30
0.0
 10
176.4772740362175
 20
155.1096778619128
 30
0.0
 10
176.4052018615868
 20
155.1096778619129
 30
0.0
 10
176.3028697488672
 20
155.1096778619128
 30
0.0
 10
176.2728583556891
 20
155.1096778619129
 30
0.0
 10
176.2412080896938
 20
155.1096778619128
 30
0.0
 10
176.2401669299088
 20
155.1096778619126
 30
0.0
 10
176.2401669299088
 20
155.1096778619127
 30
0.0
  0
LINE
  5
EB
330
1F
100
AcDbEntity
  8
0
  6
Continuous
 62
     7
370
    25
100
AcDbLine
 10
172.9901669299
 20
178.597913156
 30
0.0
 11
186.9431081064
 21
178.597913156
 31
0.0
  0
LINE
  5
EC
330
1F
100
AcDbEntity
  8
0
  6
Continuous
 62
     7
370
    25
100
AcDbLine
 10
159.0372257534
 20
178.597913156
 30
0.0
 11
172.9901669299
 21
178.597913156
 31
0.0
  0
LINE
  5
ED
330
1F
100
AcDbEntity
  8
0
  6
Continuous
 62
     7
370
    25
100
AcDbLine
 10
166.2992415762
 20
155.1096778619
 30
0.0
 11
159.9901669299
 21
155.1096778619
 31
0.0
  0
LINE
  5
EE
330
1F
100
AcDbEntity
  8
0
  6
Continuous
 62
     7
370
    25
100
AcDbLine
 10
185.9901669299
 20
155.1096778619
 30
0.0
 11
179.6810922836
 21
155.1096778619
 31
0.0
  0
ARC
  5
EF
330
1F
100
AcDbEntity
  8
0
  6
Continuous
 62
     7
370
    25
100
AcDbCircle
 10
168.2901669299
 20
138.4096778619
 30
0.0
 40
1.300000000000011
100
AcDbArc
 50
90.0
 51
180.0
  0
LINE
  5
F0
330
1F
100
AcDbEntity
  8
0
  6
Continuous
 62
     7
370
    25
100
AcDbLine
 10
168.2901669299
 20
139.7096778619
 30
0.0
 11
177.6901669299
 21
139.7096778619
 31
0.0
  0
LINE
  5
F1
330
1F
100
AcDbEntity
  8
0
  6
Continuous
 62
     7
370
    25
100
AcDbLine
 10
166.9901669299
 20
129.0096778619
 30
0.0
 11
166.9901669299
 21
138.4096778619
 31
0.0
  0
ARC
  5
F2
330
1F
100
AcDbEntity
  8
0
  6
Continuous
 62
     7
370
    25
100
AcDbCircle
 10
177.6901669299
 20
138.4096778619
 30
0.0
 40
1.300000000000011
100
AcDbArc
 50
0.0
 51
90.0
  0
LINE
  5
F3
330
1F
100
AcDbEntity
  8
0
  6
Continuous
 62
     7
370
    25
100
AcDbLine
 10
178.9901669299
 20
138.4096778619
 30
0.0
 11
178.9901669299
 21
129.0096778619
 31
0.0
  0
ARC
  5
F4
330
1F
100
AcDbEntity
  8
0
  6
Continuous
 62
     7
370
    25
100
AcDbCircle
 10
168.2901669299
 20
129.0096778619
 30
0.0
 40
1.300000000000011
100
AcDbArc
 50
180.0
 51
270.0
  0
LINE
  5
F5
330
1F
100
AcDbEntity
  8
0
  6
Continuous
 62
     7
370
    25
100
AcDbLine
 10
177.6901669299
 20
127.7096778619
 30
0.0
 11
168.2901669299
 21
127.7096778619
 31
0.0
  0
ARC
  5
F6
330
1F
100
AcDbEntity
  8
0
  6
Continuous
 62
     7
370
    25
100
AcDbCircle
 10
177.6901669299
 20
129.0096778619
 30
0.0
 40
1.300000000000011
100
AcDbArc
 50
270.0
 51
0.0
  0
LINE
  5
F7
330
1F
100
AcDbEntity
  8
0
  6
Continuous
 62
     7
370
    25
100
AcDbLine
 10
194.8901669299
 20
169.5096778619
 30
0.0
 11
186.9901669299
 21
169.5096778619
 31
0.0
  0
LINE
  5
F8
330
1F
100
AcDbEntity
  8
0
  6
Continuous
 62
     7
370
    25
100
AcDbLine
 10
158.9901669299
 20
169.5096778619
 30
0.0
 11
151.0901669299
 21
169.5096778619
 31
0.0
  0
LINE
  5
F9
330
1F
100
AcDbEntity
  8
0
  6
Continuous
 62
     7
370
    25
100
AcDbLine
 10
150.2278496681
 20
168.3389671838
 30
0.0
 11
158.9901669299
 21
168.3389671838
 31
0.0
  0
LINE
  5
FA
330
1F
100
AcDbEntity
  8
0
  6
Continuous
 62
     7
370
    25
100
AcDbLine
 10
186.9901669299
 20
168.3389671838
 30
0.0
 11
195.7524841917
 21
168.3389671838
 31
0.0
  0
LINE
  5
FB
330
1F
100
AcDbEntity
  8
0
  6
Continuous
 62
     7
370
    25
100
AcDbLine
 10
177.8901669299
 20
139.9096778619
 30
0.0
 11
168.0901669299
 21
139.9096778619
 31
0.0
  0
LINE
  5
FC
330
1F
100
AcDbEntity
  8
0
  6
Continuous
 62
     7
370
    25
100
AcDbLine
 10
168.0901669299
 20
127.7096778619
 30
0.0
 11
168.2901669299
 21
127.7096778619
 31
0.0
  0
LINE
  5
FD
330
1F
100
AcDbEntity
  8
0
  6
Continuous
 62
     7
370
    25
100
AcDbLine
 10
177.6901669299
 20
127.7096778619
 30
0.0
 11
177.8901669299
 21
127.7096778619
 31
0.0
  0
LINE
  5
FE
330
1F
100
AcDbEntity
  8
0
  6
Continuous
 62
     7
370
    25
100
AcDbLine
 10
195.4830565194
 20
121.9096778619
 30
0.0
 11
150.4972773404
 21
121.9096778619
 31
0.0
  0
LINE
  5
FF
330
1F
100
AcDbEntity
  8
0
  6
Continuous
 62
     7
370
    25
100
AcDbLine
 10
150.4972773404
 20
121.9096778619
 30
0.0
 11
150.3901669299
 21
121.9096778619
 31
0.0
  0
LINE
  5
100
330
1F
100
AcDbEntity
  8
0
  6
Continuous
 62
     7
370
    25
100
AcDbLine
 10
195.5901669299
 20
121.9096778619
 30
0.0
 11
195.4830565194
 21
121.9096778619
 31
0.0
  0
LINE
  5
101
330
1F
100
AcDbEntity
  8
0
  6
Continuous
 62
     7
370
    25
100
AcDbLine
 10
195.5901669299
 20
119.3096778619
 30
0.0
 11
150.3901669299
 21
119.3096778619
 31
0.0
  0
LINE
  5
102
330
1F
100
AcDbEntity
  8
0
  6
Continuous
 62
     7
370
    25
100
AcDbLine
 10
195.7524841917
 20
168.3389671838
 30
0.0
 11
195.860877608
 21
168.3389671838
 31
0.0
  0
LINE
  5
103
330
1F
100
AcDbEntity
  8
0
  6
Continuous
 62
     7
370
    25
100
AcDbLine
 10
150.1194562518
 20
168.3389671838
 30
0.0
 11
150.2278496681
 21
168.3389671838
 31
0.0
  0
LINE
  5
104
330
1F
100
AcDbEntity
  8
0
  6
Continuous
 62
     7
370
    25
100
AcDbLine
 10
150.3686007722
 20
168.48038854
 30
0.0
 11
150.260877608
 21
168.48038854
 31
0.0
  0
LINE
  5
105
330
1F
100
AcDbEntity
  8
0
  6
Continuous
 62
     7
370
    25
100
AcDbLine
 10
195.7194562518
 20
168.48038854
 30
0.0
 11
195.6117330876
 21
168.48038854
 31
0.0
  0
LINE
  5
106
330
1F
100
AcDbEntity
  8
0
  6
Continuous
 62
     7
370
    25
100
AcDbLine
 10
195.6117330876
 20
168.48038854
 30
0.0
 11
186.9901669299
 21
168.48038854
 31
0.0
  0
LINE
  5
107
330
1F
100
AcDbEntity
  8
0
  6
Continuous
 62
     7
370
    25
100
AcDbLine
 10
158.9901669299
 20
168.48038854
 30
0.0
 11
150.3686007722
 21
168.48038854
 31
0.0
  0
LINE
  5
108
330
1F
100
AcDbEntity
  8
0
  6
Continuous
 62
     7
370
    25
100
AcDbLine
 10
150.4972773404
 20
168.5096778619
 30
0.0
 11
158.9901669299
 21
168.5096778619
 31
0.0
  0
LINE
  5
109
330
1F
100
AcDbEntity
  8
0
  6
Continuous
 62
     7
370
    25
100
AcDbLine
 10
186.9901669299
 20
168.5096778619
 30
0.0
 11
195.4830565194
 21
168.5096778619
 31
0.0
  0
SPLINE
  5
10A
330
1F
100
AcDbEntity
  8
0
  6
Continuous
 62
     7
370
    25
100
AcDbSpline
210
0.0
220
0.0
230
1.0
 70
     8
 71
     3
 72
    14
 73
    10
 74
     0
 42
0.00000001
 43
0.00000001
 40
0.0
 40
0.0
 40
0.0
 40
0.0
 40
0.25
 40
0.25
 40
0.5
 40
0.5
 40
0.75
 40
0.75
 40
1.0
 40
1.0
 40
1.0
 40
1.0
 10
168.0901669299085
 20
139.9096778619129
 30
0.0
 10
167.9335166828286
 20
139.9096778619129
 30
0.0
 10
167.7806324677056
 20
139.8794362791119
 30
0.0
 10
167.4928884434292
 20
139.7620108640983
 30
0.0
 10
167.3609252451173
 20
139.6753921099989
 30
0.0
 10
167.138010146705
 20
139.4565345442776
 30
0.0
 10
167.0469020094356
 20
139.3233832298873
 30
0.0
 10
166.9234825149087
 20
139.0319874161717
 30
0.0
 10
166.8901669299086
 20
138.8716392592501
 30
0.0
 10
166.8901669299086
 20
138.709677861913
 30
0.0
  0
SPLINE
  5
10B
330
1F
100
AcDbEntity
  8
0
  6
Continuous
 62
     7
370
    25
100
AcDbSpline
210
0.0
220
0.0
230
1.0
 70
     8
 71
     3
 72
    14
 73
    10
 74
     0
 42
0.00000001
 43
0.00000001
 40
0.0
 40
0.0
 40
0.0
 40
0.0
 40
0.25
 40
0.25
 40
0.5
 40
0.5
 40
0.75
 40
0.75
 40
1.0
 40
1.0
 40
1.0
 40
1.0
 10
177.8901669299086
 20
127.709677861913
 30
0.0
 10
178.0468171769885
 20
127.7096778619129
 30
0.0
 10
178.1997013921115
 20
127.7399194447137
 30
0.0
 10
178.4874454163879
 20
127.8573448597277
 30
0.0
 10
178.6194086146998
 20
127.9439636138269
 30
0.0
 10
178.8423237131121
 20
128.1628211795483
 30
0.0
 10
178.9334318503815
 20
128.2959724939385
 30
0.0
 10
179.0568513449084
 20
128.5873683076541
 30
0.0
 10
179.0901669299085
 20
128.7477164645757
 30
0.0
 10
179.0901669299085
 20
128.9096778619129
 30
0.0
  0
SPLINE
  5
10C
330
1F
100
AcDbEntity
  8
0
  6
Continuous
 62
     7
370
    25
100
AcDbSpline
210
0.0
220
0.0
230
1.0
 70
     8
 71
     3
 72
    14
 73
    10
 74
     0
 42
0.00000001
 43
0.00000001
 40
0.0
 40
0.0
 40
0.0
 40
0.0
 40
0.25
 40
0.25
 40
0.5
 40
0.5
 40
0.75
 40
0.75
 40
1.0
 40
1.0
 40
1.0
 40
1.0
 10
179.0901669299085
 20
138.709677861913
 30
0.0
 10
179.0901669299085
 20
138.8715474474779
 30
0.0
 10
179.0573972754747
 20
139.0303615637646
 30
0.0
 10
178.9336565149282
 20
139.3231876028294
 30
0.0
 10
178.84253107805
 20
139.456190753973
 30
0.0
 10
178.6202977582837
 20
139.6746586607547
 30
0.0
 10
178.4872807576166
 20
139.7619367905041
 30
0.0
 10
178.2017437587115
 20
139.8787431534142
 30
0.0
 10
178.0467331509367
 20
139.9096778619129
 30
0.0
 10
177.8901669299086
 20
139.9096778619129
 30
0.0
  0
SPLINE
  5
10D
330
1F
100
AcDbEntity
  8
0
  6
Continuous
 62
     7
370
    25
100
AcDbSpline
210
0.0
220
0.0
230
1.0
 70
     8
 71
     3
 72
    14
 73
    10
 74
     0
 42
0.00000001
 43
0.00000001
 40
0.0
 40
0.0
 40
0.0
 40
0.0
 40
0.25
 40
0.25
 40
0.5
 40
0.5
 40
0.75
 40
0.75
 40
1.0
 40
1.0
 40
1.0
 40
1.0
 10
166.8901669299086
 20
128.9096778619129
 30
0.0
 10
166.8901669299086
 20
128.747808276348
 30
0.0
 10
166.9229365843424
 20
128.5889941600612
 30
0.0
 10
167.0466773448889
 20
128.2961681209966
 30
0.0
 10
167.1378027817671
 20
128.1631649698529
 30
0.0
 10
167.3600361015334
 20
127.9446970630712
 30
0.0
 10
167.4930531022005
 20
127.8574189333219
 30
0.0
 10
167.7785901011056
 20
127.7406125704115
 30
0.0
 10
167.9336007088803
 20
127.709677861913
 30
0.0
 10
168.0901669299085
 20
127.709677861913
 30
0.0
  0
LINE
  5
10E
330
1F
100
AcDbEntity
  8
0
  6
Continuous
 62
     7
370
    25
100
AcDbLine
 10
166.8901669299
 20
138.7096778619
 30
0.0
 11
166.8901669299
 21
128.9096778619
 31
0.0
  0
LINE
  5
10F
330
1F
100
AcDbEntity
  8
0
  6
Continuous
 62
     7
370
    25
100
AcDbLine
 10
179.0901669299
 20
128.9096778619
 30
0.0
 11
179.0901669299
 21
138.7096778619
 31
0.0
  0
LINE
  5
110
330
1F
100
AcDbEntity
  8
0
  6
Continuous
 62
     7
370
    25
100
AcDbLine
 10
195.4830565194
 20
168.5096778619
 30
0.0
 11
195.5901669299
 21
168.5096778619
 31
0.0
  0
LINE
  5
111
330
1F
100
AcDbEntity
  8
0
  6
Continuous
 62
     7
370
    25
100
AcDbLine
 10
150.3901669299
 20
168.5096778619
 30
0.0
 11
150.4972773404
 21
168.5096778619
 31
0.0
  0
LINE
  5
112
330
1F
100
AcDbEntity
  8
0
  6
Continuous
 62
     8
370
    18
100
AcDbLine
 10
247.3320982344
 20
197.5832000948
 30
0.0
 11
98.6482356254
 21
197.5832000948
 31
0.0
  0
LINE
  5
113
330
1F
100
AcDbEntity
  8
0
  6
Continuous
 62
     8
370
    18
100
AcDbLine
 10
246.3429198742
 20
196.609431949
 30
0.0
 11
99.6374139856
 21
196.609431949
 31
0.0
  0
LINE
  5
114
330
1F
100
AcDbEntity
  8
0
  6
Continuous
 62
     8
370
    18
100
AcDbLine
 10
169.7401669299
 20
162.6096778619
 30
0.0
 11
168.7401669299
 21
162.6096778619
 31
0.0
  0
LINE
  5
115
330
1F
100
AcDbEntity
  8
0
  6
Continuous
 62
     8
370
    18
100
AcDbLine
 10
169.7401669299
 20
162.6096778619
 30
0.0
 11
169.7401669299
 21
163.6096778619
 31
0.0
  0
LINE
  5
116
330
1F
100
AcDbEntity
  8
0
  6
Continuous
 62
     8
370
    18
100
AcDbLine
 10
176.2401669299
 20
162.6096778619
 30
0.0
 11
169.7401669299
 21
162.6096778619
 31
0.0
  0
LINE
  5
117
330
1F
100
AcDbEntity
  8
0
  6
Continuous
 62
     8
370
    18
100
AcDbLine
 10
176.2401669299
 20
163.6096778619
 30
0.0
 11
176.2401669299
 21
162.6096778619
 31
0.0
  0
LINE
  5
118
330
1F
100
AcDbEntity
  8
0
  6
Continuous
 62
     8
370
    18
100
AcDbLine
 10
169.7401669299
 20
162.6096778619
 30
0.0
 11
169.7401669299
 21
156.1096778619
 31
0.0
  0
LINE
  5
119
330
1F
100
AcDbEntity
  8
0
  6
Continuous
 62
     8
370
    18
100
AcDbLine
 10
176.2401669299
 20
156.1096778619
 30
0.0
 11
176.2401669299
 21
162.6096778619
 31
0.0
  0
LINE
  5
11A
330
1F
100
AcDbEntity
  8
0
  6
Continuous
 62
     8
370
    18
100
AcDbLine
 10
169.7401669299
 20
156.1096778619
 30
0.0
 11
176.2401669299
 21
156.1096778619
 31
0.0
  0
LINE
  5
11B
330
1F
100
AcDbEntity
  8
0
  6
Continuous
 62
     8
370
    18
100
AcDbLine
 10
169.7401669299
 20
156.1096778619
 30
0.0
 11
168.7401669299
 21
156.1096778619
 31
0.0
  0
LINE
  5
11C
330
1F
100
AcDbEntity
  8
0
  6
Continuous
 62
     8
370
    18
100
AcDbLine
 10
177.2401669299
 20
162.6096778619
 30
0.0
 11
176.2401669299
 21
162.6096778619
 31
0.0
  0
LINE
  5
11D
330
1F
100
AcDbEntity
  8
0
  6
Continuous
 62
     8
370
    18
100
AcDbLine
 10
177.2401669299
 20
156.1096778619
 30
0.0
 11
176.2401669299
 21
156.1096778619
 31
0.0
  0
LINE
  5
11E
330
1F
100
AcDbEntity
  8
0
  6
Continuous
 62
     8
370
    18
100
AcDbLine
 10
169.7401669299
 20
155.1096778619
 30
0.0
 11
169.7401669299
 21
156.1096778619
 31
0.0
  0
LINE
  5
11F
330
1F
100
AcDbEntity
  8
0
  6
Continuous
 62
     8
370
    18
100
AcDbLine
 10
176.2401669299
 20
156.1096778619
 30
0.0
 11
176.2401669299
 21
155.1096778619
 31
0.0
  0
SPLINE
  5
120
330
1F
100
AcDbEntity
  8
0
  6
Continuous
 62
     8
370
    18
100
AcDbSpline
210
0.0
220
0.0
230
1.0
 70
     8
 71
     3
 72
    19
 73
    15
 74
     0
 42
0.00000001
 43
0.00000001
 40
0.0
 40
0.0
 40
0.0
 40
0.0
 40
0.1139999287608862
 40
0.2175135967422641
 40
0.3116312498832807
 40
0.3996005439282604
 40
0.4857354072823968
 40
0.5491529713734277
 40
0.6224467554854739
 40
0.6996975639479718
 40
0.7567319588987296
 40
0.8495258581462058
 40
0.9181018950603786
 40
1.0
 40
1.0
 40
1.0
 40
1.0
 10
176.2401670973073
 20
163.6095569507709
 30
0.0
 10
176.2401706184267
 20
163.6102215009716
 30
0.0
 10
176.2401773367761
 20
163.6114894728551
 30
0.0
 10
176.2402194156056
 20
163.7083078195145
 30
0.0
 10
176.2402791434303
 20
163.8965242180297
 30
0.0
 10
176.2403825457387
 20
164.1565032168727
 30
0.0
 10
176.2404469351743
 20
164.4695345513282
 30
0.0
 10
176.239768325159
 20
164.8390175651288
 30
0.0
 10
176.2390440054802
 20
165.2560140601
 30
0.0
 10
176.2397630698111
 20
165.7055482762468
 30
0.0
 10
176.2401936130069
 20
166.2210229803435
 30
0.0
 10
176.2399729968248
 20
166.7318615922001
 30
0.0
 10
176.2399143425152
 20
167.3046698451275
 30
0.0
 10
176.24005790212
 20
167.6594355557556
 30
0.0
 10
176.2401360368709
 20
167.8525228134071
 30
0.0
  0
SPLINE
  5
121
330
1F
100
AcDbEntity
  8
0
  6
Continuous
 62
     8
370
    18
100
AcDbSpline
210
0.0
220
0.0
230
1.0
 70
     8
 71
     3
 72
    21
 73
    17
 74
     0
 42
0.00000001
 43
0.00000001
 40
0.0
 40
0.0
 40
0.0
 40
0.0
 40
0.0976305872777069
 40
0.1396035318486565
 40
0.1821109838017703
 40
0.2282618793814389
 40
0.2733259297410377
 40
0.3170756311557294
 40
0.4053131588224573
 40
0.4993749307112557
 40
0.5539569672091238
 40
0.6243381685151159
 40
0.6973700913086458
 40
0.7499365360898799
 40
0.8745856750407541
 40
1.0
 40
1.0
 40
1.0
 40
1.0
 10
169.740166861979
 20
163.6096778619127
 30
0.0
 10
169.7398864611152
 20
163.6098916888716
 30
0.0
 10
169.7394855114535
 20
163.610197443446
 30
0.0
 10
169.7412238980518
 20
163.6421798324982
 30
0.0
 10
169.7402201943482
 20
163.6818288556304
 30
0.0
 10
169.7386055724665
 20
163.7423870460295
 30
0.0
 10
169.7400935645008
 20
163.8247982329897
 30
0.0
 10
169.7399385953393
 20
163.9596100313931
 30
0.0
 10
169.7419123983387
 20
164.183327590189
 30
0.0
 10
169.7394510013768
 20
164.5049314190301
 30
0.0
 10
169.7413161091237
 20
164.8773744680113
 30
0.0
 10
169.7414298775216
 20
165.2651545709075
 30
0.0
 10
169.7401377449411
 20
165.6892270012883
 30
0.0
 10
169.7402300727978
 20
166.2556816618522
 30
0.0
 10
169.7396327694295
 20
166.9671665462343
 30
0.0
 10
169.7400072296114
 20
167.5568041519663
 30
0.0
 10
169.7401950326203
 20
167.8525250907119
 30
0.0
  0
SPLINE
  5
122
330
1F
100
AcDbEntity
  8
0
  6
Continuous
 62
     8
370
    18
100
AcDbSpline
210
0.0
220
0.0
230
1.0
 70
     8
 71
     3
 72
    21
 73
    17
 74
     0
 42
0.00000001
 43
0.00000001
 40
0.0
 40
0.0
 40
0.0
 40
0.0
 40
0.0562903888062159
 40
0.1123394979409529
 40
0.1681509031315663
 40
0.2237282259876212
 40
0.2790751340721251
 40
0.3341953409438859
 40
0.3890926061698405
 40
0.4437707353061939
 40
0.4982335798472378
 40
0.5972270017546446
 40
0.69687781822553
 40
0.7972087959017884
 40
0.8982422415728958
 40
1.0
 40
1.0
 40
1.0
 40
1.0
 10
169.7401457987814
 20
167.8528351249013
 30
0.0
 10
169.8598866950333
 20
167.8616625473536
 30
0.0
 10
170.0988552375006
 20
167.8792795549359
 30
0.0
 10
170.4593847019577
 20
167.9019547010897
 30
0.0
 10
170.820109652271
 20
167.9218051689319
 30
0.0
 10
171.1809875930782
 20
167.9385692411634
 30
0.0
 10
171.5416992707352
 20
167.9523166004158
 30
0.0
 10
171.9020053657421
 20
167.9630286524108
 30
0.0
 10
172.2616507308984
 20
167.970710455589
 30
0.0
 10
172.6203936422869
 20
167.9753602248317
 30
0.0
 10
173.0759045379956
 20
167.9774235692367
 30
0.0
 10
173.6299156077833
 20
167.9732811880238
 30
0.0
 10
174.2827993801696
 20
167.9584804837021
 30
0.0
 10
174.9368492976618
 20
167.9335114754814
 30
0.0
 10
175.5912648451267
 20
167.8992319627038
 30
0.0
 10
176.023355160384
 20
167.86812930561
 30
0.0
 10
176.2401719701375
 20
167.8525224321212
 30
0.0
  0
SPLINE
  5
123
330
1F
100
AcDbEntity
  8
0
  6
Continuous
 62
     8
370
    18
100
AcDbSpline
210
0.0
220
0.0
230
1.0
 70
     8
 71
     3
 72
    24
 73
    20
 74
     0
 42
0.00000001
 43
0.00000001
 40
0.0
 40
0.0
 40
0.0
 40
0.0
 40
0.0244089536966062
 40
0.0488258733797008
 40
0.073295927444243
 40
0.0978639912248559
 40
0.1492801989866235
 40
0.2009201502152605
 40
0.2555669434218811
 40
0.3106742111738025
 40
0.4284870256972919
 40
0.5562087767167081
 40
0.6250510825926192
 40
0.6947395797015558
 40
0.7691911508143758
 40
0.8444284465249321
 40
0.8961754682160553
 40
0.9479613563691398
 40
1.0
 40
1.0
 40
1.0
 40
1.0
 10
176.2401668389862
 20
167.852522549622
 30
0.0
 10
176.2985776428256
 20
167.8461871293472
 30
0.0
 10
176.415418313168
 20
167.8335142212009
 30
0.0
 10
176.5888917073964
 20
167.804660018995
 30
0.0
 10
176.7609038745606
 20
167.7686070360163
 30
0.0
 10
176.9930111366284
 20
167.7087443902486
 30
0.0
 10
177.2812093057461
 20
167.6128148065334
 30
0.0
 10
177.6230063256814
 20
167.4618563778564
 30
0.0
 10
177.9555267069662
 20
167.2752355467414
 30
0.0
 10
178.3959170301852
 20
166.9684656454926
 30
0.0
 10
178.9146839450466
 20
166.4786803700817
 30
0.0
 10
179.3501491282025
 20
165.8643768337997
 30
0.0
 10
179.6445299347501
 20
165.2946049110847
 30
0.0
 10
179.8383286944597
 20
164.8151162835815
 30
0.0
 10
179.9944025157825
 20
164.3017155099202
 30
0.0
 10
180.0966232058423
 20
163.81643745371
 30
0.0
 10
180.1570020520766
 20
163.3792583386693
 30
0.0
 10
180.1897630971218
 20
162.9956061960354
 30
0.0
 10
180.1937703467483
 20
162.7385292534811
 30
0.0
 10
180.195778849283
 20
162.6096778619127
 30
0.0
  0
SPLINE
  5
124
330
1F
100
AcDbEntity
  8
0
  6
Continuous
 62
     8
370
    18
100
AcDbSpline
210
0.0
220
0.0
230
1.0
 70
    24
 71
     3
 72
    20
 73
    16
 74
     0
 42
0.00000001
 43
0.00000001
 40
0.0
 40
0.0
 40
0.0
 40
0.0
 40
0.1250000000000019
 40
0.1250000000000019
 40
0.2500000000000039
 40
0.2500000000000039
 40
0.5000000000000046
 40
0.5000000000000046
 40
0.6250000000000034
 40
0.6250000000000034
 40
0.7500000000000024
 40
0.7500000000000024
 40
0.8750000000000013
 40
0.8750000000000013
 40
1.0
 40
1.0
 40
1.0
 40
1.0
 10
177.2401669299088
 20
162.6096778619127
 30
0.0
 10
177.2401669299088
 20
162.6096778619127
 30
0.0
 10
177.2403893929518
 20
162.6096778619127
 30
0.0
 10
177.2621617333292
 20
162.6096778619128
 30
0.0
 10
177.2836889060648
 20
162.6096778619127
 30
0.0
 10
177.4041215188354
 20
162.6096778619127
 30
0.0
 10
177.5605940168037
 20
162.6096778619127
 30
0.0
 10
177.9688866874912
 20
162.6096778619127
 30
0.0
 10
178.1348397700069
 20
162.6096778619126
 30
0.0
 10
178.5138830377726
 20
162.6096778619127
 30
0.0
 10
178.7261728446839
 20
162.6096778619127
 30
0.0
 10
179.1621970392674
 20
162.6096778619127
 30
0.0
 10
179.3851310486009
 20
162.6096778619126
 30
0.0
 10
179.8092446594277
 20
162.6096778619128
 30
0.0
 10
180.0096238825821
 20
162.6096778619127
 30
0.0
 10
180.195778849283
 20
162.6096778619127
 30
0.0
  0
SPLINE
  5
125
330
1F
100
AcDbEntity
  8
0
  6
Continuous
 62
     8
370
    18
100
AcDbSpline
210
0.0
220
0.0
230
1.0
 70
    24
 71
     3
 72
    20
 73
    16
 74
     0
 42
0.00000001
 43
0.00000001
 40
0.0
 40
0.0
 40
0.0
 40
0.0
 40
0.1250000000000013
 40
0.1250000000000013
 40
0.2500000000000027
 40
0.2500000000000027
 40
0.5000000000000019
 40
0.5000000000000019
 40
0.6250000000000014
 40
0.6250000000000014
 40
0.7500000000000009
 40
0.7500000000000009
 40
0.8750000000000004
 40
0.8750000000000004
 40
1.0
 40
1.0
 40
1.0
 40
1.0
 10
168.7401669299088
 20
162.6096778619126
 30
0.0
 10
168.7401669299088
 20
162.6096778619126
 30
0.0
 10
168.7399444668657
 20
162.6096778619126
 30
0.0
 10
168.7181721264883
 20
162.6096778619126
 30
0.0
 10
168.6966449537528
 20
162.6096778619126
 30
0.0
 10
168.5762123409821
 20
162.6096778619126
 30
0.0
 10
168.4197398430138
 20
162.6096778619126
 30
0.0
 10
168.0114471723263
 20
162.6096778619125
 30
0.0
 10
167.8454940898106
 20
162.6096778619124
 30
0.0
 10
167.4664508220449
 20
162.6096778619126
 30
0.0
 10
167.2541610151336
 20
162.6096778619126
 30
0.0
 10
166.8181368205501
 20
162.6096778619126
 30
0.0
 10
166.5952028112166
 20
162.6096778619126
 30
0.0
 10
166.1710892003898
 20
162.6096778619126
 30
0.0
 10
165.9707099772354
 20
162.6096778619125
 30
0.0
 10
165.7845550105345
 20
162.6096778619126
 30
0.0
  0
SPLINE
  5
126
330
1F
100
AcDbEntity
  8
0
  6
Continuous
 62
     8
370
    18
100
AcDbSpline
210
0.0
220
0.0
230
1.0
 70
     8
 71
     3
 72
    24
 73
    20
 74
     0
 42
0.00000001
 43
0.00000001
 40
0.0
 40
0.0
 40
0.0
 40
0.0
 40
0.0313965838690735
 40
0.0626701743565697
 40
0.0938672300040237
 40
0.1250345515700926
 40
0.156219073629913
 40
0.2311805427854304
 40
0.3057567825660276
 40
0.3750735274567399
 40
0.4436596408143699
 40
0.5712783485516805
 40
0.6888029567245624
 40
0.7439109976308725
 40
0.7987361782876881
 40
0.8504303133125474
 40
0.9018091679882966
 40
0.9510036401246028
 40
0.9999999999999999
 40
0.9999999999999999
 40
0.9999999999999999
 40
0.9999999999999999
 10
165.7845550105345
 20
162.6096778619127
 30
0.0
 10
165.7852854133489
 20
162.6874090803469
 30
0.0
 10
165.7867433576883
 20
162.8425670119402
 30
0.0
 10
165.7986124239501
 20
163.0746225490959
 30
0.0
 10
165.8175932507391
 20
163.3054229048883
 30
0.0
 10
165.8444045948913
 20
163.5349715811594
 30
0.0
 10
165.8949429847853
 20
163.8698575914943
 30
0.0
 10
165.9870113019102
 20
164.3051327214753
 30
0.0
 10
166.1429749998823
 20
164.8171937655993
 30
0.0
 10
166.3362283170318
 20
165.2955854884425
 30
0.0
 10
166.6297967381777
 20
165.8638039736319
 30
0.0
 10
167.0644043473511
 20
166.4767488939691
 30
0.0
 10
167.5818994147622
 20
166.9665392262709
 30
0.0
 10
168.0218271477335
 20
167.2735389002151
 30
0.0
 10
168.3547670795665
 20
167.4604626961617
 30
0.0
 10
168.6968549067439
 20
167.6119885669747
 30
0.0
 10
169.0406285813334
 20
167.7262284458104
 30
0.0
 10
169.3885937553657
 20
167.8097553714513
 30
0.0
 10
169.6231378420462
 20
167.8382863186989
 30
0.0
 10
169.7401732743997
 20
167.852523009949
 30
0.0
  0
SPLINE
  5
127
330
1F
100
AcDbEntity
  8
0
  6
Continuous
 62
     8
370
    18
100
AcDbSpline
210
0.0
220
0.0
230
1.0
 70
    24
 71
     3
 72
    20
 73
    16
 74
     0
 42
0.00000001
 43
0.00000001
 40
0.0
 40
0.0
 40
0.0
 40
0.0
 40
0.1249999999999995
 40
0.1249999999999995
 40
0.2499999999999991
 40
0.2499999999999991
 40
0.3749999999999986
 40
0.3749999999999986
 40
0.4999999999999981
 40
0.4999999999999981
 40
0.7499999999999973
 40
0.7499999999999973
 40
0.8749999999999987
 40
0.8749999999999987
 40
1.0
 40
1.0
 40
1.0
 40
1.0
 10
165.7845550105341
 20
156.1096778619125
 30
0.0
 10
165.970709977235
 20
156.1096778619124
 30
0.0
 10
166.1710892003895
 20
156.1096778619125
 30
0.0
 10
166.5952028112162
 20
156.1096778619125
 30
0.0
 10
166.8181368205497
 20
156.1096778619125
 30
0.0
 10
167.2541610151333
 20
156.1096778619125
 30
0.0
 10
167.4664508220446
 20
156.1096778619125
 30
0.0
 10
167.8454940898103
 20
156.1096778619123
 30
0.0
 10
168.0114471723261
 20
156.1096778619124
 30
0.0
 10
168.4197398430136
 20
156.1096778619125
 30
0.0
 10
168.576212340982
 20
156.1096778619125
 30
0.0
 10
168.6966449537528
 20
156.1096778619125
 30
0.0
 10
168.7181721264883
 20
156.1096778619125
 30
0.0
 10
168.7399444668657
 20
156.1096778619125
 30
0.0
 10
168.7401669299088
 20
156.1096778619125
 30
0.0
 10
168.7401669299088
 20
156.1096778619125
 30
0.0
  0
LINE
  5
128
330
1F
100
AcDbEntity
  8
0
  6
Continuous
 62
     8
370
    18
100
AcDbLine
 10
165.7845550105
 20
156.1096778619
 30
0.0
 11
165.7845550105
 21
162.6096778619
 31
0.0
  0
LINE
  5
129
330
1F
100
AcDbEntity
  8
0
  6
Continuous
 62
     8
370
    18
100
AcDbLine
 10
180.1957788493
 20
162.6096778619
 30
0.0
 11
180.1957788493
 21
156.1096778619
 31
0.0
  0
SPLINE
  5
12A
330
1F
100
AcDbEntity
  8
0
  6
Continuous
 62
     8
370
    18
100
AcDbSpline
210
0.0
220
0.0
230
1.0
 70
    24
 71
     3
 72
    20
 73
    16
 74
     0
 42
0.00000001
 43
0.00000001
 40
0.0
 40
0.0
 40
0.0
 40
0.0
 40
0.1250000000000012
 40
0.1250000000000012
 40
0.2500000000000025
 40
0.2500000000000025
 40
0.5000000000000018
 40
0.5000000000000018
 40
0.6250000000000014
 40
0.6250000000000014
 40
0.7500000000000011
 40
0.7500000000000011
 40
0.8750000000000009
 40
0.8750000000000009
 40
1.0
 40
1.0
 40
1.0
 40
1.0
 10
177.2401669299088
 20
156.1096778619127
 30
0.0
 10
177.2401669299088
 20
156.1096778619128
 30
0.0
 10
177.2403893929518
 20
156.1096778619127
 30
0.0
 10
177.2621617333292
 20
156.1096778619126
 30
0.0
 10
177.2836889060648
 20
156.1096778619127
 30
0.0
 10
177.4041215188354
 20
156.1096778619127
 30
0.0
 10
177.5605940168037
 20
156.1096778619126
 30
0.0
 10
177.9688866874912
 20
156.1096778619126
 30
0.0
 10
178.1348397700069
 20
156.1096778619127
 30
0.0
 10
178.5138830377726
 20
156.1096778619126
 30
0.0
 10
178.7261728446839
 20
156.1096778619127
 30
0.0
 10
179.1621970392674
 20
156.1096778619128
 30
0.0
 10
179.3851310486009
 20
156.1096778619128
 30
0.0
 10
179.8092446594277
 20
156.1096778619128
 30
0.0
 10
180.0096238825821
 20
156.1096778619128
 30
0.0
 10
180.195778849283
 20
156.1096778619127
 30
0.0
  0
LWPOLYLINE
  5
12B
330
1F
100
AcDbEntity
  8
0
  6
Continuous
 62
     8
370
    18
100
AcDbPolyline
 90
        9
 70
   128
 43
0.0
 10
166.2992415762
 20
155.1096778619
 10
166.1988312084
 20
155.1288925815
 10
166.1022795547
 20
155.1857983294
 10
166.013297041
 20
155.2782082496
 10
165.9353032154
 20
155.4025710807
 10
165.871295337
 20
155.5541076289
 10
165.8237331925
 20
155.7269944295
 10
165.7944445686
 20
155.9145875399
 10
165.7845550105
 20
156.1096778619
  0
LWPOLYLINE
  5
12C
330
1F
100
AcDbEntity
  8
0
  6
Continuous
 62
     8
370
    18
100
AcDbPolyline
 90
        9
 70
   128
 43
0.0
 10
180.1957788493
 20
156.1096778619
 10
180.1858892912
 20
155.9145875399
 10
180.1566006673
 20
155.7269944295
 10
180.1090385228
 20
155.5541076289
 10
180.0450306444
 20
155.4025710807
 10
179.9670368188
 20
155.2782082496
 10
179.8780543052
 20
155.1857983294
 10
179.7815026514
 20
155.1288925815
 10
179.6810922836
 20
155.1096778619
  0
LINE
  5
12D
330
1F
100
AcDbEntity
  8
0
  6
Continuous
 62
     8
370
    18
100
AcDbLine
 10
180.1957788493
 20
156.1096778619
 30
0.0
 11
186.9901669299
 21
156.1096778619
 31
0.0
  0
LINE
  5
12E
330
1F
100
AcDbEntity
  8
0
  6
Continuous
 62
     8
370
    18
100
AcDbLine
 10
158.9901669299
 20
156.1096778619
 30
0.0
 11
165.7845550105
 21
156.1096778619
 31
0.0
  0
LINE
  5
12F
330
1F
100
AcDbEntity
  8
0
  6
Continuous
 62
     8
370
    18
100
AcDbLine
 10
186.9901669299
 20
178.4096778619
 30
0.0
 11
158.9901669299
 21
178.4096778619
 31
0.0
  0
LINE
  5
130
330
1F
100
AcDbEntity
  8
0
  6
Continuous
 62
     8
370
    18
100
AcDbLine
 10
159.7521108292
 20
178.8096778619
 30
0.0
 11
186.9901669299
 21
178.8096778619
 31
0.0
  0
LINE
  5
131
330
1F
100
AcDbEntity
  8
0
  6
Continuous
 62
     8
370
    18
100
AcDbLine
 10
158.9901669299
 20
178.8096778619
 30
0.0
 11
159.7521108292
 21
178.8096778619
 31
0.0
  0
LINE
  5
132
330
1F
100
AcDbEntity
  8
0
  6
Continuous
 62
     8
370
    18
100
AcDbLine
 10
168.2901669299
 20
139.7096778619
 30
0.0
 11
168.2901669299
 21
138.7096778619
 31
0.0
  0
ARC
  5
133
330
1F
100
AcDbEntity
  8
0
  6
Continuous
 62
     8
370
    18
100
AcDbCircle
 10
168.2901669299
 20
138.4096778619
 30
0.0
 40
0.3000000000000114
100
AcDbArc
 50
90.0
 51
180.0
  0
LINE
  5
134
330
1F
100
AcDbEntity
  8
0
  6
Continuous
 62
     8
370
    18
100
AcDbLine
 10
166.9901669299
 20
138.4096778619
 30
0.0
 11
167.9901669299
 21
138.4096778619
 31
0.0
  0
LINE
  5
135
330
1F
100
AcDbEntity
  8
0
  6
Continuous
 62
     8
370
    18
100
AcDbLine
 10
177.6901669299
 20
139.7096778619
 30
0.0
 11
177.6901669299
 21
138.7096778619
 31
0.0
  0
LINE
  5
136
330
1F
100
AcDbEntity
  8
0
  6
Continuous
 62
     8
370
    18
100
AcDbLine
 10
177.6901669299
 20
138.7096778619
 30
0.0
 11
168.2901669299
 21
138.7096778619
 31
0.0
  0
ARC
  5
137
330
1F
100
AcDbEntity
  8
0
  6
Continuous
 62
     8
370
    18
100
AcDbCircle
 10
177.6901669299
 20
129.0096778619
 30
0.0
 40
0.3000000000000114
100
AcDbArc
 50
270.0
 51
0.0
  0
LINE
  5
138
330
1F
100
AcDbEntity
  8
0
  6
Continuous
 62
     8
370
    18
100
AcDbLine
 10
168.2901669299
 20
128.7096778619
 30
0.0
 11
177.6901669299
 21
128.7096778619
 31
0.0
  0
ARC
  5
139
330
1F
100
AcDbEntity
  8
0
  6
Continuous
 62
     8
370
    18
100
AcDbCircle
 10
168.2901669299
 20
129.0096778619
 30
0.0
 40
0.3000000000000114
100
AcDbArc
 50
180.0
 51
270.0
  0
LINE
  5
13A
330
1F
100
AcDbEntity
  8
0
  6
Continuous
 62
     8
370
    18
100
AcDbLine
 10
167.9901669299
 20
138.4096778619
 30
0.0
 11
167.9901669299
 21
129.0096778619
 31
0.0
  0
ARC
  5
13B
330
1F
100
AcDbEntity
  8
0
  6
Continuous
 62
     8
370
    18
100
AcDbCircle
 10
177.6901669299
 20
138.4096778619
 30
0.0
 40
0.3000000000000114
100
AcDbArc
 50
0.0
 51
90.0
  0
LINE
  5
13C
330
1F
100
AcDbEntity
  8
0
  6
Continuous
 62
     8
370
    18
100
AcDbLine
 10
177.9901669299
 20
129.0096778619
 30
0.0
 11
177.9901669299
 21
138.4096778619
 31
0.0
  0
LINE
  5
13D
330
1F
100
AcDbEntity
  8
0
  6
Continuous
 62
     8
370
    18
100
AcDbLine
 10
166.9901669299
 20
129.0096778619
 30
0.0
 11
167.9901669299
 21
129.0096778619
 31
0.0
  0
LINE
  5
13E
330
1F
100
AcDbEntity
  8
0
  6
Continuous
 62
     8
370
    18
100
AcDbLine
 10
177.9901669299
 20
138.4096778619
 30
0.0
 11
178.9901669299
 21
138.4096778619
 31
0.0
  0
LINE
  5
13F
330
1F
100
AcDbEntity
  8
0
  6
Continuous
 62
     8
370
    18
100
AcDbLine
 10
177.9901669299
 20
129.0096778619
 30
0.0
 11
178.9901669299
 21
129.0096778619
 31
0.0
  0
LINE
  5
140
330
1F
100
AcDbEntity
  8
0
  6
Continuous
 62
     8
370
    18
100
AcDbLine
 10
168.2901669299
 20
128.7096778619
 30
0.0
 11
168.2901669299
 21
127.7096778619
 31
0.0
  0
LINE
  5
141
330
1F
100
AcDbEntity
  8
0
  6
Continuous
 62
     8
370
    18
100
AcDbLine
 10
177.6901669299
 20
128.7096778619
 30
0.0
 11
177.6901669299
 21
127.7096778619
 31
0.0
  0
LINE
  5
142
330
1F
100
AcDbEntity
  8
0
  6
Continuous
 62
     8
370
    18
100
AcDbLine
 10
150.0901669299
 20
170.5096778619
 30
0.0
 11
158.9901669299
 21
170.5096778619
 31
0.0
  0
LINE
  5
143
330
1F
100
AcDbEntity
  8
0
  6
Continuous
 62
     8
370
    18
100
AcDbLine
 10
186.9901669299
 20
170.5096778619
 30
0.0
 11
195.8901669299
 21
170.5096778619
 31
0.0
  0
ARC
  5
144
330
1F
100
AcDbEntity
  8
0
  6
Continuous
 62
     8
370
    18
100
AcDbCircle
 10
195.4804517908
 20
168.2097018825
 30
0.0
 40
0.3011829099529598
100
AcDbArc
 50
359.995430421
 51
25.4162945782
  0
LINE
  5
145
330
1F
100
AcDbEntity
  8
0
  6
Continuous
 62
     8
370
    18
100
AcDbLine
 10
195.7816346998
 20
168.2096778619
 30
0.0
 11
186.9901669299
 21
168.2096778619
 31
0.0
  0
LINE
  5
146
330
1F
100
AcDbEntity
  8
0
  6
Continuous
 62
     8
370
    18
100
AcDbLine
 10
158.9901669299
 20
168.2096778619
 30
0.0
 11
150.19869916
 21
168.2096778619
 31
0.0
  0
ARC
  5
147
330
1F
100
AcDbEntity
  8
0
  6
Continuous
 62
     8
370
    18
100
AcDbCircle
 10
150.499882069
 20
168.2097018825
 30
0.0
 40
0.3011829099476167
100
AcDbArc
 50
154.5837054216
 51
180.0045695792
  0
LINE
  5
148
330
1F
100
AcDbEntity
  8
0
  6
Continuous
 62
     8
370
    18
100
AcDbLine
 10
195.7816346998
 20
168.2096778619
 30
0.0
 11
195.7816346998
 21
122.2096778619
 31
0.0
  0
LINE
  5
149
330
1F
100
AcDbEntity
  8
0
  6
Continuous
 62
     8
370
    18
100
AcDbLine
 10
150.19869916
 20
122.2096778619
 30
0.0
 11
195.7816346998
 21
122.2096778619
 31
0.0
  0
LINE
  5
14A
330
1F
100
AcDbEntity
  8
0
  6
Continuous
 62
     8
370
    18
100
AcDbLine
 10
150.19869916
 20
122.2096778619
 30
0.0
 11
150.19869916
 21
168.2096778619
 31
0.0
  0
SPLINE
  5
14B
330
1F
100
AcDbEntity
  8
0
  6
Continuous
 62
     8
370
    18
100
AcDbSpline
210
0.0
220
0.0
230
1.0
 70
     8
 71
     3
 72
    18
 73
    14
 74
     0
 42
0.00000001
 43
0.00000001
 40
0.0
 40
0.0
 40
0.0
 40
0.0
 40
0.25
 40
0.25
 40
0.375
 40
0.375
 40
0.5
 40
0.5
 40
0.625
 40
0.625
 40
0.75
 40
0.75
 40
1.0
 40
1.0
 40
1.0
 40
1.0
 10
179.3456735378381
 20
128.9096778619129
 30
0.0
 10
179.3456735378381
 20
128.7209044756805
 30
0.0
 10
179.3065495846522
 20
128.5339720120456
 30
0.0
 10
179.1976836946615
 20
128.2790039073043
 30
0.0
 10
179.1522772868719
 20
128.1965855034558
 30
0.0
 10
179.0475996793355
 20
128.0445264356822
 30
0.0
 10
178.9885292063823
 20
127.9746636450278
 30
0.0
 10
178.8572593957638
 20
127.8468839039798
 30
0.0
 10
178.7845089124596
 20
127.7888335767616
 30
0.0
 10
178.6319177019219
 20
127.6895723644023
 30
0.0
 10
178.55144710022
 20
127.6476125307679
 30
0.0
 10
178.2973415318284
 20
127.5448715765762
 30
0.0
 10
178.1174578903951
 20
127.509677861913
 30
0.0
 10
177.9333387360759
 20
127.5096778619129
 30
0.0
  0
LINE
  5
14C
330
1F
100
AcDbEntity
  8
0
  6
Continuous
 62
     8
370
    18
100
AcDbLine
 10
179.3456735378
 20
138.7096778619
 30
0.0
 11
179.3456735378
 21
128.9096778619
 31
0.0
  0
SPLINE
  5
14D
330
1F
100
AcDbEntity
  8
0
  6
Continuous
 62
     8
370
    18
100
AcDbSpline
210
0.0
220
0.0
230
1.0
 70
     8
 71
     3
 72
    16
 73
    12
 74
     0
 42
0.00000001
 43
0.00000001
 40
0.0
 40
0.0
 40
0.0
 40
0.0
 40
0.2500000000000001
 40
0.2500000000000001
 40
0.5000000000000002
 40
0.5000000000000002
 40
0.7500000000000003
 40
0.7500000000000003
 40
0.8750000000000001
 40
0.8750000000000001
 40
1.0
 40
1.0
 40
1.0
 40
1.0
 10
177.9333387360759
 20
140.1096778619129
 30
0.0
 10
178.1173600230433
 20
140.1096778619129
 30
0.0
 10
178.2997543850515
 20
140.0736722107965
 30
0.0
 10
178.6359443861979
 20
139.9374142049402
 30
0.0
 10
178.792667568677
 20
139.8355078572068
 30
0.0
 10
179.0544004121728
 20
139.5804098863879
 30
0.0
 10
179.1616563162093
 20
139.4251173887782
 30
0.0
 10
179.2708053828978
 20
139.1689021716561
 30
0.0
 10
179.2989759910004
 20
139.0785743143047
 30
0.0
 10
179.3361542388484
 20
138.8966226584114
 30
0.0
 10
179.3456735378381
 20
138.8040101229294
 30
0.0
 10
179.3456735378381
 20
138.709677861913
 30
0.0
  0
LINE
  5
14E
330
1F
100
AcDbEntity
  8
0
  6
Continuous
 62
     8
370
    18
100
AcDbLine
 10
168.0469951237
 20
140.1096778619
 30
0.0
 11
177.9333387361
 21
140.1096778619
 31
0.0
  0
SPLINE
  5
14F
330
1F
100
AcDbEntity
  8
0
  6
Continuous
 62
     8
370
    18
100
AcDbSpline
210
0.0
220
0.0
230
1.0
 70
     8
 71
     3
 72
    18
 73
    14
 74
     0
 42
0.00000001
 43
0.00000001
 40
0.0
 40
0.0
 40
0.0
 40
0.0
 40
0.2499999999999997
 40
0.2499999999999997
 40
0.3749999999999996
 40
0.3749999999999996
 40
0.4999999999999994
 40
0.4999999999999994
 40
0.6249999999999993
 40
0.6249999999999993
 40
0.7499999999999991
 40
0.7499999999999991
 40
1.0
 40
1.0
 40
1.0
 40
1.0
 10
166.6346603219791
 20
138.709677861913
 30
0.0
 10
166.6346603219791
 20
138.8984512481454
 30
0.0
 10
166.6737842751649
 20
139.0853837117804
 30
0.0
 10
166.7826501651556
 20
139.3403518165215
 30
0.0
 10
166.8280565729451
 20
139.4227702203702
 30
0.0
 10
166.9327341804816
 20
139.5748292881436
 30
0.0
 10
166.9918046534348
 20
139.6446920787979
 30
0.0
 10
167.1230744640533
 20
139.7724718198461
 30
0.0
 10
167.1958249473575
 20
139.8305221470643
 30
0.0
 10
167.3484161578952
 20
139.9297833594238
 30
0.0
 10
167.4288867595971
 20
139.971743193058
 30
0.0
 10
167.6829923279887
 20
140.0744841472498
 30
0.0
 10
167.862875969422
 20
140.1096778619129
 30
0.0
 10
168.0469951237411
 20
140.1096778619129
 30
0.0
  0
LINE
  5
150
330
1F
100
AcDbEntity
  8
0
  6
Continuous
 62
     8
370
    18
100
AcDbLine
 10
166.634660322
 20
128.9096778619
 30
0.0
 11
166.634660322
 21
138.7096778619
 31
0.0
  0
SPLINE
  5
151
330
1F
100
AcDbEntity
  8
0
  6
Continuous
 62
     8
370
    18
100
AcDbSpline
210
0.0
220
0.0
230
1.0
 70
     8
 71
     3
 72
    16
 73
    12
 74
     0
 42
0.00000001
 43
0.00000001
 40
0.0
 40
0.0
 40
0.0
 40
0.0
 40
0.25
 40
0.25
 40
0.5
 40
0.5
 40
0.75
 40
0.75
 40
0.875
 40
0.875
 40
1.0
 40
1.0
 40
1.0
 40
1.0
 10
168.0469951237412
 20
127.5096778619129
 30
0.0
 10
167.8629738367738
 20
127.509677861913
 30
0.0
 10
167.6805794747656
 20
127.5456835130295
 30
0.0
 10
167.3443894736191
 20
127.6819415188856
 30
0.0
 10
167.1876662911401
 20
127.7838478666191
 30
0.0
 10
166.9259334476443
 20
128.038945837438
 30
0.0
 10
166.8186775436078
 20
128.1942383350477
 30
0.0
 10
166.7095284769192
 20
128.4504535521698
 30
0.0
 10
166.6813578688167
 20
128.5407814095212
 30
0.0
 10
166.6441796209687
 20
128.7227330654146
 30
0.0
 10
166.6346603219791
 20
128.8153456008963
 30
0.0
 10
166.6346603219791
 20
128.9096778619129
 30
0.0
  0
LINE
  5
152
330
1F
100
AcDbEntity
  8
0
  6
Continuous
 62
     8
370
    18
100
AcDbLine
 10
177.9333387361
 20
127.5096778619
 30
0.0
 11
168.0469951237
 21
127.5096778619
 31
0.0
  0
ARC
  5
153
330
1F
100
AcDbEntity
  8
0
  6
Continuous
 62
     8
370
    18
100
AcDbCircle
 10
168.3110066314
 20
140.062007618
 30
0.0
 40
0.2682806894809179
100
AcDbArc
 50
169.76488209
 51
214.5969500681
  0
ARC
  5
154
330
1F
100
AcDbEntity
  8
0
  6
Continuous
 62
     8
370
    18
100
AcDbCircle
 10
177.6693272284
 20
140.062007618
 30
0.0
 40
0.2682806894807093
100
AcDbArc
 50
325.4030499319
 51
10.2351179101
  0
ARC
  5
155
330
1F
100
AcDbEntity
  8
0
  6
Continuous
 62
     8
370
    18
100
AcDbCircle
 10
168.3110066314
 20
127.5573481059
 30
0.0
 40
0.268280689480928
100
AcDbArc
 50
145.4030499319
 51
190.2351179101
  0
ARC
  5
156
330
1F
100
AcDbEntity
  8
0
  6
Continuous
 62
     8
370
    18
100
AcDbCircle
 10
177.6693272284
 20
127.5573481059
 30
0.0
 40
0.2682806894810144
100
AcDbArc
 50
349.76488209
 51
34.596950068
  0
ARC
  5
157
330
1F
100
AcDbEntity
  8
0
  6
Continuous
 62
     8
370
    18
100
AcDbCircle
 10
150.4979899429
 20
122.2089686368
 30
0.0
 40
0.2992916231798083
100
AcDbArc
 50
179.8642272507
 51
269.863580704
  0
ARC
  5
158
330
1F
100
AcDbEntity
  8
0
  6
Continuous
 62
     8
370
    18
100
AcDbCircle
 10
195.4823439169
 20
122.2089686368
 30
0.0
 40
0.2992916231797371
100
AcDbArc
 50
270.1364192959
 51
0.1357727493
  0
LINE
  5
159
330
1F
100
AcDbEntity
  8
0
  6
Continuous
 62
     8
370
    18
100
AcDbLine
 10
152.1566297485
 20
121.6096778619
 30
0.0
 11
150.0901669299
 21
121.6096778619
 31
0.0
  0
LINE
  5
15A
330
1F
100
AcDbEntity
  8
0
  6
Continuous
 62
     8
370
    18
100
AcDbLine
 10
195.8901669299
 20
121.6096778619
 30
0.0
 11
152.1566297485
 21
121.6096778619
 31
0.0
  0
LINE
  5
15B
330
1F
100
AcDbEntity
  8
0
  6
Continuous
 62
     8
370
    18
100
AcDbLine
 10
150.0901669299
 20
119.6096778619
 30
0.0
 11
195.8901669299
 21
119.6096778619
 31
0.0
  0
ARC
  5
15C
330
1F
100
AcDbEntity
  8
0
  6
Continuous
 62
     8
370
    18
100
AcDbCircle
 10
150.4973014754
 20
168.2122702457
 30
0.0
 40
0.297407617228679
100
AcDbArc
 50
90.0046496218
 51
115.6416869809
  0
ARC
  5
15D
330
1F
100
AcDbEntity
  8
0
  6
Continuous
 62
     8
370
    18
100
AcDbCircle
 10
195.4830323844
 20
168.2122702457
 30
0.0
 40
0.2974076172229945
100
AcDbArc
 50
64.3583130188
 51
89.9953503785
  0
LINE
  5
15E
330
1F
100
AcDbEntity
  8
0
  6
Continuous
 62
     8
370
    18
100
AcDbLine
 10
166.8901669299
 20
138.7096778619
 30
0.0
 11
166.634660322
 21
138.7096778619
 31
0.0
  0
LINE
  5
15F
330
1F
100
AcDbEntity
  8
0
  6
Continuous
 62
     8
370
    18
100
AcDbLine
 10
179.3456735378
 20
128.9096778619
 30
0.0
 11
179.0901669299
 21
128.9096778619
 31
0.0
  0
LINE
  5
160
330
1F
100
AcDbEntity
  8
0
  6
Continuous
 62
     8
370
    18
100
AcDbLine
 10
179.3456735378
 20
138.7096778619
 30
0.0
 11
179.0901669299
 21
138.7096778619
 31
0.0
  0
LINE
  5
161
330
1F
100
AcDbEntity
  8
0
  6
Continuous
 62
     8
370
    18
100
AcDbLine
 10
166.8901669299
 20
128.9096778619
 30
0.0
 11
166.634660322
 21
128.9096778619
 31
0.0
  0
LINE
  5
162
330
1F
100
AcDbEntity
  8
0
  6
Continuous
 62
     8
370
    18
100
AcDbLine
 10
150.19869916
 20
168.2096778619
 30
0.0
 11
150.0901669299
 21
168.2096778619
 31
0.0
  0
LINE
  5
163
330
1F
100
AcDbEntity
  8
0
  6
Continuous
 62
     8
370
    18
100
AcDbLine
 10
195.8901669299
 20
168.2096778619
 30
0.0
 11
195.7816346998
 21
168.2096778619
 31
0.0
  0
LINE
  5
164
330
1F
100
AcDbEntity
  8
0
  6
Continuous
 62
     8
370
    18
100
AcDbLine
 10
195.7816346998
 20
122.2096778619
 30
0.0
 11
195.8901669299
 21
122.2096778619
 31
0.0
  0
LINE
  5
165
330
1F
100
AcDbEntity
  8
0
  6
Continuous
 62
     8
370
    18
100
AcDbLine
 10
150.0901669299
 20
122.2096778619
 30
0.0
 11
150.19869916
 21
122.2096778619
 31
0.0
  0
LINE
  5
166
330
1F
100
AcDbEntity
  8
0
  6
Continuous
 62
     7
370
    25
100
AcDbLine
 10
325.1117266299
 20
299.0733041575
 30
0.0
 11
331.1481265725
 21
299.231372853
 31
0.0
  0
LINE
  5
167
330
1F
100
AcDbEntity
  8
0
  6
Continuous
 62
     7
370
    25
100
AcDbLine
 10
331.1481265725
 20
447.9152354621
 30
0.0
 11
325.1117266299
 21
448.0733041575
 31
0.0
  0
ARC
  5
168
330
1F
100
AcDbEntity
  8
0
  6
Continuous
 62
     7
370
    25
100
AcDbCircle
 10
331.1219496242
 20
446.9155781371
 30
0.0
 40
0.9999999999996458
100
AcDbArc
 50
0.6004114401
 51
88.5
  0
ARC
  5
169
330
1F
100
AcDbEntity
  8
0
  6
Continuous
 62
     7
370
    25
100
AcDbCircle
 10
331.1219496242
 20
300.231030178
 30
0.0
 40
0.9999999999995789
100
AcDbArc
 50
271.5
 51
359.3995885599
  0
ARC
  5
16A
330
1F
100
AcDbEntity
  8
0
  6
Continuous
 62
     7
370
    25
100
AcDbCircle
 10
-6667.4937642758
 20
373.5733041576
 30
0.0
 40
7000.000000000001
100
AcDbArc
 50
359.9126728284
 51
0.0
  0
ARC
  5
16B
330
1F
100
AcDbEntity
  8
0
  6
Continuous
 62
     7
370
    25
100
AcDbCircle
 10
-6667.4937642758
 20
373.5733041576
 30
0.0
 40
7000.0
100
AcDbArc
 50
359.3995885599
 51
359.5389311872
  0
ARC
  5
16C
330
1F
100
AcDbEntity
  8
0
  6
Continuous
 62
     7
370
    25
100
AcDbCircle
 10
-6667.4937642758
 20
373.5733041576
 30
0.0
 40
7000.0
100
AcDbArc
 50
0.3557091147
 51
0.6004114401
  0
ARC
  5
16D
330
1F
100
AcDbEntity
  8
0
  6
Continuous
 62
     7
370
    25
100
AcDbCircle
 10
-6667.4937642758
 20
373.5733041576
 30
0.0
 40
7000.000000000001
100
AcDbArc
 50
0.0
 51
0.1272210196
  0
LINE
  5
16E
330
1F
100
AcDbEntity
  8
0
  6
Continuous
 62
     7
370
    25
100
AcDbLine
 10
358.2216488054
 20
362.9733041575
 30
0.0
 11
332.4978799616
 21
362.9733041575
 31
0.0
  0
LINE
  5
16F
330
1F
100
AcDbEntity
  8
0
  6
Continuous
 62
     7
370
    25
100
AcDbLine
 10
332.2793574493
 20
317.1733041575
 30
0.0
 11
358.2216488054
 21
317.1733041575
 31
0.0
  0
ARC
  5
170
330
1F
100
AcDbEntity
  8
0
  6
Continuous
 62
     7
370
    25
100
AcDbCircle
 10
358.2216488054
 20
318.1733041575
 30
0.0
 40
1.0
100
AcDbArc
 50
270.0
 51
0.0
  0
ARC
  5
171
330
1F
100
AcDbEntity
  8
0
  6
Continuous
 62
     7
370
    25
100
AcDbCircle
 10
358.2216488054
 20
361.9733041575
 30
0.0
 40
1.0
100
AcDbArc
 50
0.0
 51
90.0
  0
ARC
  5
172
330
1F
100
AcDbEntity
  8
0
  6
Continuous
 62
     7
370
    25
100
AcDbCircle
 10
360.5216488054
 20
317.4733041575
 30
0.0
 40
0.3000000000000682
100
AcDbArc
 50
244.4712206346
 51
270.0
  0
LINE
  5
173
330
1F
100
AcDbEntity
  8
0
  6
Continuous
 62
     7
370
    25
100
AcDbLine
 10
360.5216488054
 20
317.1733041575
 30
0.0
 11
406.2216488054
 21
317.1733041575
 31
0.0
  0
LINE
  5
174
330
1F
100
AcDbEntity
  8
0
  6
Continuous
 62
     7
370
    25
100
AcDbLine
 10
409.1216488054
 20
362.9733041575
 30
0.0
 11
407.1216488054
 21
362.9733041575
 31
0.0
  0
LINE
  5
175
330
1F
100
AcDbEntity
  8
0
  6
Continuous
 62
     7
370
    25
100
AcDbLine
 10
407.1216488054
 20
317.1733041575
 30
0.0
 11
409.1216488054
 21
317.1733041575
 31
0.0
  0
ARC
  5
176
330
1F
100
AcDbEntity
  8
0
  6
Continuous
 62
     7
370
    25
100
AcDbCircle
 10
407.1216488054
 20
317.4733041575
 30
0.0
 40
0.3000000000000682
100
AcDbArc
 50
180.0
 51
270.0
  0
ARC
  5
177
330
1F
100
AcDbEntity
  8
0
  6
Continuous
 62
     7
370
    25
100
AcDbCircle
 10
407.1216488054
 20
362.6733041575
 30
0.0
 40
0.3000000000000682
100
AcDbArc
 50
90.0
 51
180.0
  0
ARC
  5
178
330
1F
100
AcDbEntity
  8
0
  6
Continuous
 62
     7
370
    25
100
AcDbCircle
 10
409.1216488054
 20
362.6733041575
 30
0.0
 40
0.3000000000000114
100
AcDbArc
 50
0.0
 51
90.0
  0
ARC
  5
179
330
1F
100
AcDbEntity
  8
0
  6
Continuous
 62
     7
370
    25
100
AcDbCircle
 10
409.1216488054
 20
317.4733041575
 30
0.0
 40
0.3000000000000682
100
AcDbArc
 50
270.0
 51
0.0
  0
LINE
  5
17A
330
1F
100
AcDbEntity
  8
0
  6
Continuous
 62
     7
370
    25
100
AcDbLine
 10
360.3923594835
 20
362.9440148356
 30
0.0
 11
360.2509381273
 21
362.8025934794
 31
0.0
  0
LINE
  5
17B
330
1F
100
AcDbEntity
  8
0
  6
Continuous
 62
     7
370
    25
100
AcDbLine
 10
360.2509381273
 20
317.3440148356
 30
0.0
 11
360.3923594835
 21
317.2025934794
 31
0.0
  0
LINE
  5
17C
330
1F
100
AcDbEntity
  8
0
  6
Continuous
 62
     7
370
    25
100
AcDbLine
 10
388.6216488054
 20
362.9733041575
 30
0.0
 11
360.5216488054
 21
362.9733041575
 31
0.0
  0
LINE
  5
17D
330
1F
100
AcDbEntity
  8
0
  6
Continuous
 62
     7
370
    25
100
AcDbLine
 10
406.5216488054
 20
362.9733041575
 30
0.0
 11
401.2216488054
 21
362.9733041575
 31
0.0
  0
ARC
  5
17E
330
1F
100
AcDbEntity
  8
0
  6
Continuous
 62
     7
370
    25
100
AcDbCircle
 10
360.5216488054
 20
362.6733041575
 30
0.0
 40
0.2999999999999935
100
AcDbArc
 50
90.0
 51
115.5287793654
  0
ARC
  5
17F
330
1F
100
AcDbEntity
  8
0
  6
Continuous
 62
     7
370
    25
100
AcDbCircle
 10
406.5216488054
 20
362.6733041575
 30
0.0
 40
0.3000000000000114
100
AcDbArc
 50
0.0
 51
90.0
  0
ARC
  5
180
330
1F
100
AcDbEntity
  8
0
  6
Continuous
 62
     7
370
    25
100
AcDbCircle
 10
360.5216488054
 20
317.4733041575
 30
0.0
 40
0.3000000000000114
100
AcDbArc
 50
180.0
 51
205.5287793654
  0
ARC
  5
181
330
1F
100
AcDbEntity
  8
0
  6
Continuous
 62
     7
370
    25
100
AcDbCircle
 10
360.5216488054
 20
362.6733041575
 30
0.0
 40
0.3000000000000114
100
AcDbArc
 50
154.4712206346
 51
180.0
  0
LINE
  5
182
330
1F
100
AcDbEntity
  8
0
  6
Continuous
 62
     7
370
    25
100
AcDbLine
 10
360.2216488054
 20
358.4233041575
 30
0.0
 11
359.2216488054
 21
358.4233041575
 31
0.0
  0
LINE
  5
183
330
1F
100
AcDbEntity
  8
0
  6
Continuous
 62
     7
370
    25
100
AcDbLine
 10
359.2216488054
 20
321.7233041575
 30
0.0
 11
360.2216488054
 21
321.7233041575
 31
0.0
  0
ARC
  5
184
330
1F
100
AcDbEntity
  8
0
  6
Continuous
 62
     7
370
    25
100
AcDbCircle
 10
350.3216488054
 20
416.6733041575
 30
0.0
 40
0.4000000000000341
100
AcDbArc
 50
90.0
 51
118.0724869367
  0
ARC
  5
185
330
1F
100
AcDbEntity
  8
0
  6
Continuous
 62
     7
370
    25
100
AcDbCircle
 10
350.3216488054
 20
389.4733041575
 30
0.0
 40
0.4000000000000341
100
AcDbArc
 50
241.9275130633
 51
270.0
  0
LINE
  5
186
330
1F
100
AcDbEntity
  8
0
  6
Continuous
 62
     7
370
    25
100
AcDbLine
 10
350.3216488054
 20
389.0733041575
 30
0.0
 11
372.6216488054
 21
389.0733041575
 31
0.0
  0
LINE
  5
187
330
1F
100
AcDbEntity
  8
0
  6
Continuous
 62
     7
370
    25
100
AcDbLine
 10
360.7552916034
 20
417.0733041575
 30
0.0
 11
350.3216488054
 21
417.0733041575
 31
0.0
  0
LINE
  5
188
330
1F
100
AcDbEntity
  8
0
  6
Continuous
 62
     7
370
    25
100
AcDbLine
 10
349.9216488054
 20
417.0733041575
 30
0.0
 11
332.371251458
 21
417.0733041575
 31
0.0
  0
LINE
  5
189
330
1F
100
AcDbEntity
  8
0
  6
Continuous
 62
     7
370
    25
100
AcDbLine
 10
332.4888937055
 20
389.0733041575
 30
0.0
 11
349.9216488054
 21
389.0733041575
 31
0.0
  0
ARC
  5
18A
330
1F
100
AcDbEntity
  8
0
  6
Continuous
 62
     7
370
    25
100
AcDbCircle
 10
349.9216488054
 20
389.5733041575
 30
0.0
 40
0.5
100
AcDbArc
 50
270.0
 51
295.0576154176
  0
ARC
  5
18B
330
1F
100
AcDbEntity
  8
0
  6
Continuous
 62
     7
370
    25
100
AcDbCircle
 10
349.9216488054
 20
416.5733041575
 30
0.0
 40
0.5
100
AcDbArc
 50
64.9423845824
 51
90.0
  0
ARC
  5
18C
330
1F
100
AcDbEntity
  8
0
  6
Continuous
 62
     7
370
    25
100
AcDbCircle
 10
372.6216488054
 20
390.0733041575
 30
0.0
 40
1.0
100
AcDbArc
 50
270.0
 51
0.0
  0
LINE
  5
18D
330
1F
100
AcDbEntity
  8
0
  6
Continuous
 62
     7
370
    25
100
AcDbLine
 10
365.1397862826
 20
420.9104419319
 30
0.0
 11
365.0499938892
 21
419.9336747688
 31
0.0
  0
SPLINE
  5
18E
330
1F
100
AcDbEntity
  8
0
  6
Continuous
 62
     7
370
    25
100
AcDbSpline
210
0.0
220
0.0
230
1.0
 70
     8
 71
     3
 72
    12
 73
     8
 74
     0
 42
0.00000001
 43
0.00000001
 40
0.0
 40
0.0
 40
0.0
 40
0.0
 40
0.1307129958833415
 40
0.3929541179847827
 40
0.658964773436989
 40
0.868943719283833
 40
0.9999999999999999
 40
0.9999999999999999
 40
0.9999999999999999
 40
0.9999999999999999
 10
389.9717568088379
 20
362.0876509337734
 30
0.0
 10
389.8940661750912
 20
362.087364038562
 30
0.0
 10
389.6605097926265
 20
362.0865015638406
 30
0.0
 10
389.2964909228481
 20
362.1358729608579
 30
0.0
 10
388.9848907311714
 20
362.2086843846748
 30
0.0
 10
388.8197593407045
 20
362.287993507927
 30
0.0
 10
388.8092615851317
 20
362.2984147656973
 30
0.0
 10
388.8052274071521
 20
362.3024195463691
 30
0.0
  0
SPLINE
  5
18F
330
1F
100
AcDbEntity
  8
0
  6
Continuous
 62
     7
370
    25
100
AcDbSpline
210
0.0
220
0.0
230
1.0
 70
     8
 71
     3
 72
    14
 73
    10
 74
     0
 42
0.00000001
 43
0.00000001
 40
0.0
 40
0.0
 40
0.0
 40
0.0
 40
0.0021147724095732
 40
0.1258143536783156
 40
0.2769721114596076
 40
0.4841569785149639
 40
0.7209529109898869
 40
0.9626266149643392
 40
1.0
 40
1.0
 40
1.0
 40
1.0
 10
401.0424385825131
 20
362.3052638750934
 30
0.0
 10
401.0425425533754
 20
362.3055029989583
 30
0.0
 10
401.0487281016566
 20
362.3197292175183
 30
0.0
 10
401.0128129080628
 20
362.2748890112735
 30
0.0
 10
400.8890977300713
 20
362.22641376475
 30
0.0
 10
400.6293799008319
 20
362.1495536256933
 30
0.0
 10
400.2333212088897
 20
362.0932133768722
 30
0.0
 10
399.8892521164286
 20
362.076549145193
 30
0.0
 10
399.7091204251283
 20
362.0836208372739
 30
0.0
 10
399.6849949949726
 20
362.0845679644127
 30
0.0
  0
LINE
  5
190
330
1F
100
AcDbEntity
  8
0
  6
Continuous
 62
     7
370
    25
100
AcDbLine
 10
399.8216488054
 20
362.0815594751
 30
0.0
 11
390.0216488054
 21
362.0815594751
 31
0.0
  0
LINE
  5
191
330
1F
100
AcDbEntity
  8
0
  6
Continuous
 62
     7
370
    25
100
AcDbLine
 10
389.0216488054
 20
362.6733041575
 30
0.0
 11
388.8216488054
 21
362.6733041575
 31
0.0
  0
ARC
  5
192
330
1F
100
AcDbEntity
  8
0
  6
Continuous
 62
     7
370
    25
100
AcDbCircle
 10
388.6216488054
 20
362.7733041575
 30
0.0
 40
0.1999999999999886
100
AcDbArc
 50
0.0
 51
90.0
  0
ARC
  5
193
330
1F
100
AcDbEntity
  8
0
  6
Continuous
 62
     7
370
    25
100
AcDbCircle
 10
401.2216488054
 20
362.7733041575
 30
0.0
 40
0.1999999999999886
100
AcDbArc
 50
90.0
 51
180.0
  0
SPLINE
  5
194
330
1F
100
AcDbEntity
  8
0
  6
Continuous
 62
     7
370
    25
100
AcDbSpline
210
0.0
220
0.0
230
1.0
 70
     8
 71
     3
 72
     9
 73
     5
 74
     0
 42
0.00000001
 43
0.00000001
 40
0.0
 40
0.0
 40
0.0
 40
0.0
 40
0.5006426855848649
 40
1.0
 40
1.0
 40
1.0
 40
1.0
 10
365.1010515730342
 20
420.185335877604
 30
0.0
 10
365.0613087905184
 20
420.0524425216881
 30
0.0
 10
364.9819252627846
 20
419.7869970058695
 30
0.0
 10
364.8705638870186
 20
419.5524634764011
 30
0.0
 10
364.8149547694865
 20
419.4353474429856
 30
0.0
  0
SPLINE
  5
195
330
1F
100
AcDbEntity
  8
0
  6
Continuous
 62
     7
370
    25
100
AcDbSpline
210
0.0
220
0.0
230
1.0
 70
     8
 71
     3
 72
    11
 73
     7
 74
     0
 42
0.00000001
 43
0.00000001
 40
0.0
 40
0.0
 40
0.0
 40
0.0
 40
0.2465998217618061
 40
0.4856354408418259
 40
0.7506985523680259
 40
1.0
 40
1.0
 40
1.0
 40
1.0
 10
364.8119881981513
 20
419.4273263210506
 30
0.0
 10
364.6334691705005
 20
419.0499405556215
 30
0.0
 10
364.2819070076713
 20
418.306744955348
 30
0.0
 10
363.2554332354415
 20
417.5139557677524
 30
0.0
 10
362.0352264299275
 20
417.1192474648877
 30
0.0
 10
361.1719466670423
 20
417.1060462429322
 30
0.0
 10
360.753533518689
 20
417.0996478943574
 30
0.0
  0
LINE
  5
196
330
1F
100
AcDbEntity
  8
0
  6
Continuous
 62
     7
370
    25
100
AcDbLine
 10
325.1117266299
 20
448.0733041575
 30
0.0
 11
325.1117266299
 21
299.0733041575
 31
0.0
  0
SPLINE
  5
197
330
1F
100
AcDbEntity
  8
0
  6
Continuous
 62
     7
370
    25
100
AcDbSpline
210
0.0
220
0.0
230
1.0
 70
     8
 71
     3
 72
    12
 73
     8
 74
     0
 42
0.00000001
 43
0.00000001
 40
0.0
 40
0.0
 40
0.0
 40
0.0
 40
0.2117104564697294
 40
0.4295604965429327
 40
0.6412709647400066
 40
0.859121109363917
 40
1.0
 40
1.0
 40
1.0
 40
1.0
 10
332.4717928266424
 20
393.1741411039596
 30
0.0
 10
332.4739927322814
 20
392.6521320079909
 30
0.0
 10
332.4784563406189
 20
391.5929756006819
 30
0.0
 10
332.4834595799889
 20
390.4057703447457
 30
0.0
 10
332.4870073460394
 20
389.5639300540635
 30
0.0
 10
332.4888986559871
 20
389.1151457643246
 30
0.0
 10
332.4888950027097
 20
389.116012640799
 30
0.0
 10
332.4888935680065
 20
389.1163530776859
 30
0.0
  0
SPLINE
  5
198
330
1F
100
AcDbEntity
  8
0
  6
Continuous
 62
     7
370
    25
100
AcDbSpline
210
0.0
220
0.0
230
1.0
 70
     8
 71
     3
 72
    21
 73
    17
 74
     0
 42
0.00000001
 43
0.00000001
 40
0.0
 40
0.0
 40
0.0
 40
0.0
 40
0.051496535800794
 40
0.1220717050517981
 40
0.1946935520490818
 40
0.2652688644324702
 40
0.3378908390359648
 40
0.4084666342755199
 40
0.4810890977275178
 40
0.5516655039322759
 40
0.6242886032339224
 40
0.6948654807535559
 40
0.7674890842412709
 40
0.8380660868648869
 40
0.9106898419086241
 40
1.0
 40
1.0
 40
1.0
 40
1.0
 10
332.3712516875461
 20
417.0310718317674
 30
0.0
 10
332.3712645569208
 20
417.0280181417875
 30
0.0
 10
332.3712950635653
 20
417.0207794190899
 30
0.0
 10
332.3732943790239
 20
416.5463747015652
 30
0.0
 10
332.3768711324592
 20
415.6976695105104
 30
0.0
 10
332.3820588640428
 20
414.4667047342708
 30
0.0
 10
332.3885405447298
 20
412.9287054748161
 30
0.0
 10
332.3962699845501
 20
411.0946310277163
 30
0.0
 10
332.40488384396
 20
409.0506953246453
 30
0.0
 10
332.4142946497647
 20
406.8176536521868
 30
0.0
 10
332.4240668867764
 20
404.4988466249407
 30
0.0
 10
332.4340976705022
 20
402.1186868930058
 30
0.0
 10
332.4439308969908
 20
399.7854012927148
 30
0.0
 10
332.4534338943373
 20
397.5304712394472
 30
0.0
 10
332.4630587310351
 20
395.2466274651196
 30
0.0
 10
332.4686881027949
 20
393.9108513620519
 30
0.0
 10
332.4717928266424
 20
393.1741411039596
 30
0.0
  0
SPLINE
  5
199
330
1F
100
AcDbEntity
  8
0
  6
Continuous
 62
     7
370
    25
100
AcDbSpline
210
0.0
220
0.0
230
1.0
 70
     8
 71
     3
 72
    12
 73
     8
 74
     0
 42
0.00000001
 43
0.00000001
 40
0.0
 40
0.0
 40
0.0
 40
0.0
 40
0.2117192079860872
 40
0.4295782435286561
 40
0.641297466639058
 40
0.8591566370157013
 40
1.0
 40
1.0
 40
1.0
 40
1.0
 10
332.3111206147354
 20
323.8805659047651
 30
0.0
 10
332.3070343354357
 20
323.0267407754433
 30
0.0
 10
332.2987432753055
 20
321.2943297069172
 30
0.0
 10
332.2894500006988
 20
319.3525108917185
 30
0.0
 10
332.2828604200905
 20
317.9756269662914
 30
0.0
 10
332.2793478614464
 20
317.2416832486962
 30
0.0
 10
332.2793549294644
 20
317.243160101902
 30
0.0
 10
332.2793577046982
 20
317.2437399834272
 30
0.0
  0
SPLINE
  5
19A
330
1F
100
AcDbEntity
  8
0
  6
Continuous
 62
     7
370
    25
100
AcDbSpline
210
0.0
220
0.0
230
1.0
 70
     8
 71
     3
 72
    22
 73
    18
 74
     0
 42
0.00000001
 43
0.00000001
 40
0.0
 40
0.0
 40
0.0
 40
0.0
 40
0.0515030720424339
 40
0.122068213863559
 40
0.194679740623306
 40
0.265245067035748
 40
0.3378567583708863
 40
0.4084227073731961
 40
0.4810350290258127
 40
0.5516017657826648
 40
0.6242149072747758
 40
0.694782251726814
 40
0.7673960432971223
 40
0.8379635490478458
 40
0.9105775360241952
 40
0.9550405514286318
 40
1.0
 40
1.0
 40
1.0
 40
1.0
 10
332.4978795361994
 20
362.9042509869172
 30
0.0
 10
332.4978555023627
 20
362.8992289943113
 30
0.0
 10
332.4977985394012
 20
362.8873262933046
 30
0.0
 10
332.4940841961185
 20
362.1111958726423
 30
0.0
 10
332.4874399125036
 20
360.722840984609
 30
0.0
 10
332.4778033553098
 20
358.7092385519338
 30
0.0
 10
332.4657633501437
 20
356.1934286713091
 30
0.0
 10
332.4514056666806
 20
353.1933358512717
 30
0.0
 10
332.4354052720622
 20
349.8499995654132
 30
0.0
 10
332.4179242916437
 20
346.1972987259311
 30
0.0
 10
332.3997729757424
 20
342.4045391084028
 30
0.0
 10
332.3811376013513
 20
338.5106446766827
 30
0.0
 10
332.3628835145161
 20
334.6964311044961
 30
0.0
 10
332.3451897754367
 20
330.9993124411541
 30
0.0
 10
332.3308979043248
 20
328.0130237481898
 30
0.0
 10
332.319545112007
 20
325.6408601316143
 30
0.0
 10
332.3139391544083
 20
324.4694982712003
 30
0.0
 10
332.3111206147354
 20
323.8805659047651
 30
0.0
  0
LINE
  5
19B
330
1F
100
AcDbEntity
  8
0
  6
Continuous
 62
     7
370
    25
100
AcDbLine
 10
359.2216488054
 20
361.9733041575
 30
0.0
 11
359.2216488054
 21
318.1733041575
 31
0.0
  0
LINE
  5
19C
330
1F
100
AcDbEntity
  8
0
  6
Continuous
 62
     7
370
    25
100
AcDbLine
 10
360.3923594835
 20
317.2025934794
 30
0.0
 11
360.3923594835
 21
342.2973364856
 31
0.0
  0
LINE
  5
19D
330
1F
100
AcDbEntity
  8
0
  6
Continuous
 62
     7
370
    25
100
AcDbLine
 10
406.2216488054
 20
317.1733041575
 30
0.0
 11
406.2216488054
 21
317.2224836033
 31
0.0
  0
LINE
  5
19E
330
1F
100
AcDbEntity
  8
0
  6
Continuous
 62
     7
370
    25
100
AcDbLine
 10
406.5216488054
 20
317.2224836033
 30
0.0
 11
406.2216488054
 21
317.2224836033
 31
0.0
  0
LINE
  5
19F
330
1F
100
AcDbEntity
  8
0
  6
Continuous
 62
     7
370
    25
100
AcDbLine
 10
406.8216488054
 20
342.2710115799
 30
0.0
 11
406.8216488054
 21
317.523137861
 31
0.0
  0
SPLINE
  5
1A0
330
1F
100
AcDbEntity
  8
0
  6
Continuous
 62
     7
370
    25
100
AcDbSpline
210
0.0
220
0.0
230
1.0
 70
     8
 71
     3
 72
    10
 73
     6
 74
     0
 42
0.00000001
 43
0.00000001
 40
0.0
 40
0.0
 40
0.0
 40
0.0
 40
0.5
 40
0.5
 40
1.0
 40
1.0
 40
1.0
 40
1.0
 10
406.8216488054086
 20
317.5231378609848
 30
0.0
 10
406.8216488054087
 20
317.4438196803475
 30
0.0
 10
406.7892534032881
 20
317.3662351113225
 30
0.0
 10
406.6786931483412
 20
317.2552337633413
 30
0.0
 10
406.6009719000544
 20
317.2224836032934
 30
0.0
 10
406.5216488054089
 20
317.2224836032933
 30
0.0
  0
LINE
  5
1A1
330
1F
100
AcDbEntity
  8
0
  6
Continuous
 62
     7
370
    25
100
AcDbLine
 10
406.8216488054
 20
317.4733041575
 30
0.0
 11
406.8216488054
 21
317.523137861
 31
0.0
  0
LINE
  5
1A2
330
1F
100
AcDbEntity
  8
0
  6
Continuous
 62
     7
370
    25
100
AcDbLine
 10
406.8216488054
 20
362.6733041575
 30
0.0
 11
406.8216488054
 21
342.2710115799
 31
0.0
  0
LINE
  5
1A3
330
1F
100
AcDbEntity
  8
0
  6
Continuous
 62
     7
370
    25
100
AcDbLine
 10
409.4216488054
 20
362.6733041575
 30
0.0
 11
409.4216488054
 21
317.4733041575
 31
0.0
  0
LINE
  5
1A4
330
1F
100
AcDbEntity
  8
0
  6
Continuous
 62
     7
370
    25
100
AcDbLine
 10
360.3923594835
 20
342.2973364856
 30
0.0
 11
360.3923594835
 21
362.9440148356
 31
0.0
  0
LINE
  5
1A5
330
1F
100
AcDbEntity
  8
0
  6
Continuous
 62
     7
370
    25
100
AcDbLine
 10
360.2509381273
 20
342.2835841508
 30
0.0
 11
360.2509381273
 21
317.3440148356
 31
0.0
  0
LINE
  5
1A6
330
1F
100
AcDbEntity
  8
0
  6
Continuous
 62
     7
370
    25
100
AcDbLine
 10
360.2509381273
 20
362.8025934794
 30
0.0
 11
360.2509381273
 21
342.2835841508
 31
0.0
  0
LINE
  5
1A7
330
1F
100
AcDbEntity
  8
0
  6
Continuous
 62
     7
370
    25
100
AcDbLine
 10
360.2216488054
 20
317.4733041575
 30
0.0
 11
360.2216488054
 21
342.2710115799
 31
0.0
  0
LINE
  5
1A8
330
1F
100
AcDbEntity
  8
0
  6
Continuous
 62
     7
370
    25
100
AcDbLine
 10
360.2216488054
 20
342.2710115799
 30
0.0
 11
360.2216488054
 21
362.6733041575
 31
0.0
  0
LINE
  5
1A9
330
1F
100
AcDbEntity
  8
0
  6
Continuous
 62
     7
370
    25
100
AcDbLine
 10
350.1334135113
 20
389.120362981
 30
0.0
 11
350.1334135113
 21
417.026245334
 31
0.0
  0
LINE
  5
1AA
330
1F
100
AcDbEntity
  8
0
  6
Continuous
 62
     7
370
    25
100
AcDbLine
 10
373.6216488054
 20
414.2192234965
 30
0.0
 11
373.6216488054
 21
390.0733041575
 31
0.0
  0
SPLINE
  5
1AB
330
1F
100
AcDbEntity
  8
0
  6
Continuous
 62
     7
370
    25
100
AcDbSpline
210
0.0
220
0.0
230
1.0
 70
    24
 71
     3
 72
    22
 73
    18
 74
     0
 42
0.00000001
 43
0.00000001
 40
0.0
 40
0.0
 40
0.0
 40
0.0
 40
0.125
 40
0.125
 40
0.25
 40
0.25
 40
0.375
 40
0.375
 40
0.5
 40
0.5
 40
0.625
 40
0.625
 40
0.75
 40
0.75
 40
0.875
 40
0.875
 40
1.0
 40
1.0
 40
1.0
 40
1.0
 10
373.6216488054091
 20
420.2981302449269
 30
0.0
 10
373.6216488054091
 20
419.9880973797945
 30
0.0
 10
373.621648805409
 20
419.6781724309136
 30
0.0
 10
373.6216488054089
 20
419.0614577187987
 30
0.0
 10
373.6216488054089
 20
418.7546045061841
 30
0.0
 10
373.621648805409
 20
418.1454578245012
 30
0.0
 10
373.6216488054089
 20
417.8401775888014
 30
0.0
 10
373.621648805409
 20
417.2517988023452
 30
0.0
 10
373.6216488054091
 20
416.9697997459576
 30
0.0
 10
373.6216488054091
 20
416.4320981214127
 30
0.0
 10
373.6216488054092
 20
416.1740965972937
 30
0.0
 10
373.6216488054092
 20
415.6980617003376
 30
0.0
 10
373.621648805409
 20
415.4793535531995
 30
0.0
 10
373.6216488054091
 20
415.0728025062545
 30
0.0
 10
373.6216488054091
 20
414.8845913046453
 30
0.0
 10
373.621648805409
 20
414.5365067740597
 30
0.0
 10
373.6216488054091
 20
414.3797829291496
 30
0.0
 10
373.6216488054091
 20
414.2192234964737
 30
0.0
  0
LINE
  5
1AC
330
1F
100
AcDbEntity
  8
0
  6
Continuous
 62
     7
370
    25
100
AcDbLine
 10
390.0216488054
 20
362.0815594751
 30
0.0
 11
390.0216488054
 21
362.0737026938
 31
0.0
  0
LINE
  5
1AD
330
1F
100
AcDbEntity
  8
0
  6
Continuous
 62
     7
370
    25
100
AcDbLine
 10
399.8216488054
 20
362.0815594751
 30
0.0
 11
399.8216488054
 21
362.0737026938
 31
0.0
  0
LINE
  5
1AE
330
1F
100
AcDbEntity
  8
0
  6
Continuous
 62
     7
370
    25
100
AcDbLine
 10
389.0216488054
 20
362.1791857278
 30
0.0
 11
389.0216488054
 21
369.7733041575
 31
0.0
  0
ARC
  5
1AF
330
1F
100
AcDbEntity
  8
0
  6
Continuous
 62
     7
370
    25
100
AcDbCircle
 10
390.0216488054
 20
369.7733041575
 30
0.0
 40
1.0
100
AcDbArc
 50
90.0
 51
180.0
  0
LINE
  5
1B0
330
1F
100
AcDbEntity
  8
0
  6
Continuous
 62
     7
370
    25
100
AcDbLine
 10
390.0216488054
 20
370.7733041575
 30
0.0
 11
390.3216488054
 21
370.7733041575
 31
0.0
  0
LINE
  5
1B1
330
1F
100
AcDbEntity
  8
0
  6
Continuous
 62
     7
370
    25
100
AcDbLine
 10
390.3216488054
 20
370.7733041575
 30
0.0
 11
399.7216488054
 21
370.7733041575
 31
0.0
  0
LINE
  5
1B2
330
1F
100
AcDbEntity
  8
0
  6
Continuous
 62
     7
370
    25
100
AcDbLine
 10
401.0216488054
 20
369.7733041575
 30
0.0
 11
401.0216488054
 21
362.2814107855
 31
0.0
  0
LINE
  5
1B3
330
1F
100
AcDbEntity
  8
0
  6
Continuous
 62
     7
370
    25
100
AcDbLine
 10
399.7216488054
 20
370.7733041575
 30
0.0
 11
400.0216488054
 21
370.7733041575
 31
0.0
  0
ARC
  5
1B4
330
1F
100
AcDbEntity
  8
0
  6
Continuous
 62
     7
370
    25
100
AcDbCircle
 10
400.0216488054
 20
369.7733041575
 30
0.0
 40
1.0
100
AcDbArc
 50
0.0
 51
90.0
  0
LINE
  5
1B5
330
1F
100
AcDbEntity
  8
0
  6
Continuous
 62
     7
370
    25
100
AcDbLine
 10
388.8216488054
 20
362.7733041575
 30
0.0
 11
388.8216488054
 21
362.2381411747
 31
0.0
  0
LINE
  5
1B6
330
1F
100
AcDbEntity
  8
0
  6
Continuous
 62
     7
370
    25
100
AcDbLine
 10
365.1216488054
 20
421.0241102463
 30
0.0
 11
365.1216488054
 21
437.0733041575
 31
0.0
  0
LINE
  5
1B7
330
1F
100
AcDbEntity
  8
0
  6
Continuous
 62
     7
370
    25
100
AcDbLine
 10
373.6216488054
 20
437.0733041575
 30
0.0
 11
373.6216488054
 21
420.2981302449
 31
0.0
  0
ARC
  5
1B8
330
1F
100
AcDbEntity
  8
0
  6
Continuous
 62
     7
370
    25
100
AcDbCircle
 10
366.1216488054
 20
437.0733041575
 30
0.0
 40
1.0
100
AcDbArc
 50
90.0
 51
180.0
  0
LINE
  5
1B9
330
1F
100
AcDbEntity
  8
0
  6
Continuous
 62
     7
370
    25
100
AcDbLine
 10
366.1216488054
 20
438.0733041575
 30
0.0
 11
372.6216488054
 21
438.0733041575
 31
0.0
  0
ARC
  5
1BA
330
1F
100
AcDbEntity
  8
0
  6
Continuous
 62
     7
370
    25
100
AcDbCircle
 10
372.6216488054
 20
437.0733041575
 30
0.0
 40
1.0
100
AcDbArc
 50
360.0
 51
90.0
  0
LINE
  5
1BB
330
1F
100
AcDbEntity
  8
0
  6
Continuous
 62
     8
370
    18
100
AcDbLine
 10
331.1481265725
 20
447.9152354621
 30
0.0
 11
331.1481265725
 21
299.231372853
 31
0.0
  0
LINE
  5
1BC
330
1F
100
AcDbEntity
  8
0
  6
Continuous
 62
     8
370
    18
100
AcDbLine
 10
332.1218947183
 20
446.9260571018
 30
0.0
 11
332.1218947183
 21
300.2205512133
 31
0.0
  0
LINE
  5
1BD
330
1F
100
AcDbEntity
  8
0
  6
Continuous
 62
     8
370
    18
100
AcDbLine
 10
358.2216488054
 20
317.1733041575
 30
0.0
 11
358.2216488054
 21
362.9733041575
 31
0.0
  0
ARC
  5
1BE
330
1F
100
AcDbEntity
  8
0
  6
Continuous
 62
     8
370
    18
100
AcDbCircle
 10
360.5191326664
 20
339.4785409874
 30
0.0
 40
2.82164482177348
100
AcDbArc
 50
89.9489077556
 51
92.5750988232
  0
LINE
  5
1BF
330
1F
100
AcDbEntity
  8
0
  6
Continuous
 62
     8
370
    18
100
AcDbLine
 10
360.5216488054
 20
342.3001846873
 30
0.0
 11
360.5216488054
 21
317.1733041575
 31
0.0
  0
LINE
  5
1C0
330
1F
100
AcDbEntity
  8
0
  6
Continuous
 62
     8
370
    18
100
AcDbLine
 10
406.5216488054
 20
317.2224836033
 30
0.0
 11
406.5216488054
 21
342.3001846873
 31
0.0
  0
ARC
  5
1C1
330
1F
100
AcDbEntity
  8
0
  6
Continuous
 62
     8
370
    18
100
AcDbCircle
 10
406.5959395802
 20
341.507046598
 30
0.0
 40
0.7966097840109422
100
AcDbArc
 50
73.5405164015
 51
95.3511044032
  0
LINE
  5
1C2
330
1F
100
AcDbEntity
  8
0
  6
Continuous
 62
     8
370
    18
100
AcDbLine
 10
409.1216488054
 20
317.1733041575
 30
0.0
 11
409.1216488054
 21
362.9733041575
 31
0.0
  0
LINE
  5
1C3
330
1F
100
AcDbEntity
  8
0
  6
Continuous
 62
     8
370
    18
100
AcDbLine
 10
407.1216488054
 20
349.5798139539
 30
0.0
 11
407.1216488054
 21
317.1733041575
 31
0.0
  0
LINE
  5
1C4
330
1F
100
AcDbEntity
  8
0
  6
Continuous
 62
     8
370
    18
100
AcDbLine
 10
407.1216488054
 20
362.9733041575
 30
0.0
 11
407.1216488054
 21
349.5798139539
 31
0.0
  0
LINE
  5
1C5
330
1F
100
AcDbEntity
  8
0
  6
Continuous
 62
     8
370
    18
100
AcDbLine
 10
360.5216488054
 20
362.9733041575
 30
0.0
 11
360.5216488054
 21
342.3001846873
 31
0.0
  0
LINE
  5
1C6
330
1F
100
AcDbEntity
  8
0
  6
Continuous
 62
     8
370
    18
100
AcDbLine
 10
406.5216488054
 20
342.3001846873
 30
0.0
 11
406.5216488054
 21
362.9733041575
 31
0.0
  0
LINE
  5
1C7
330
1F
100
AcDbEntity
  8
0
  6
Continuous
 62
     8
370
    18
100
AcDbLine
 10
388.6216488054
 20
362.4334260824
 30
0.0
 11
388.6216488054
 21
362.9733041575
 31
0.0
  0
SPLINE
  5
1C8
330
1F
100
AcDbEntity
  8
0
  6
Continuous
 62
     8
370
    18
100
AcDbSpline
210
0.0
220
0.0
230
1.0
 70
     8
 71
     3
 72
    18
 73
    14
 74
     0
 42
0.00000001
 43
0.00000001
 40
0.0
 40
0.0
 40
0.0
 40
0.0
 40
0.2499999999999997
 40
0.2499999999999997
 40
0.3749999999999996
 40
0.3749999999999996
 40
0.4999999999999994
 40
0.4999999999999994
 40
0.6249999999999993
 40
0.6249999999999993
 40
0.7499999999999991
 40
0.7499999999999991
 40
1.0
 40
1.0
 40
1.0
 40
1.0
 10
390.0216488054088
 20
362.0737026938014
 30
0.0
 10
389.8328754191764
 20
362.0737026938014
 30
0.0
 10
389.6459429555413
 20
362.0850964664764
 30
0.0
 10
389.3909748508002
 20
362.1159482420607
 30
0.0
 10
389.3085564469516
 20
362.1287194843352
 30
0.0
 10
389.1564973791782
 20
362.1576981445843
 30
0.0
 10
389.0866345885239
 20
362.1738531978005
 30
0.0
 10
388.9588548474757
 20
362.2090635499322
 30
0.0
 10
388.9008045202575
 20
362.2282541477695
 30
0.0
 10
388.8015433078979
 20
362.2676019906954
 30
0.0
 10
388.7595834742637
 20
362.287933852667
 30
0.0
 10
388.656842520072
 20
362.3505197880622
 30
0.0
 10
388.6216488054089
 20
362.3927226990846
 30
0.0
 10
388.6216488054088
 20
362.4334260823516
 30
0.0
  0
LINE
  5
1C9
330
1F
100
AcDbEntity
  8
0
  6
Continuous
 62
     8
370
    18
100
AcDbLine
 10
399.8216488054
 20
362.0737026938
 30
0.0
 11
390.0216488054
 21
362.0737026938
 31
0.0
  0
SPLINE
  5
1CA
330
1F
100
AcDbEntity
  8
0
  6
Continuous
 62
     8
370
    18
100
AcDbSpline
210
0.0
220
0.0
230
1.0
 70
     8
 71
     3
 72
    16
 73
    12
 74
     0
 42
0.00000001
 43
0.00000001
 40
0.0
 40
0.0
 40
0.0
 40
0.0
 40
0.25
 40
0.25
 40
0.5
 40
0.5
 40
0.75
 40
0.75
 40
0.875
 40
0.875
 40
1.0
 40
1.0
 40
1.0
 40
1.0
 10
401.2216488054088
 20
362.4334260823516
 30
0.0
 10
401.2216488054088
 20
362.392744334706
 30
0.0
 10
401.1856431542922
 20
362.3499343293294
 30
0.0
 10
401.0493851484362
 20
362.2671133769722
 30
0.0
 10
400.9474788007027
 20
362.2263929895985
 30
0.0
 10
400.6923808298837
 20
362.156180572006
 30
0.0
 10
400.537088332274
 20
362.1261597312766
 30
0.0
 10
400.280873115152
 20
362.0952252969747
 30
0.0
 10
400.1905452578006
 20
362.0871475826644
 30
0.0
 10
400.0085936019071
 20
362.0764589129377
 30
0.0
 10
399.9159810664254
 20
362.0737026938013
 30
0.0
 10
399.8216488054088
 20
362.0737026938013
 30
0.0
  0
LINE
  5
1CB
330
1F
100
AcDbEntity
  8
0
  6
Continuous
 62
     8
370
    18
100
AcDbLine
 10
401.2216488054
 20
362.9733041575
 30
0.0
 11
401.2216488054
 21
362.4334260824
 31
0.0
  0
ARC
  5
1CC
330
1F
100
AcDbEntity
  8
0
  6
Continuous
 62
     8
370
    18
100
AcDbCircle
 10
360.2500986572
 20
342.2451370064
 30
0.0
 40
0.0384563079770119
100
AcDbArc
 50
88.7491801888
 51
137.7141050388
  0
LINE
  5
1CD
330
1F
100
AcDbEntity
  8
0
  6
Continuous
 62
     8
370
    18
100
AcDbLine
 10
350.3216488054
 20
417.0733041575
 30
0.0
 11
350.3216488054
 21
389.0733041575
 31
0.0
  0
SPLINE
  5
1CE
330
1F
100
AcDbEntity
  8
0
  6
Continuous
 62
     8
370
    18
100
AcDbSpline
210
0.0
220
0.0
230
1.0
 70
     8
 71
     3
 72
     9
 73
     5
 74
     0
 42
0.00000001
 43
0.00000001
 40
0.0
 40
0.0
 40
0.0
 40
0.0
 40
0.996445071079871
 40
1.0
 40
1.0
 40
1.0
 40
1.0
 10
360.8784915376564
 20
416.6908429605773
 30
0.0
 10
360.7963057089981
 20
416.9449107245317
 30
0.0
 10
360.7138266732304
 20
417.1998849035689
 30
0.0
 10
360.7551447207203
 20
417.0723976744189
 30
0.0
 10
360.7552916034422
 20
417.0719444663811
 30
0.0
  0
SPLINE
  5
1CF
330
1F
100
AcDbEntity
  8
0
  6
Continuous
 62
     8
370
    18
100
AcDbSpline
210
0.0
220
0.0
230
1.0
 70
     8
 71
     3
 72
    24
 73
    20
 74
     0
 42
0.00000001
 43
0.00000001
 40
0.0
 40
0.0
 40
0.0
 40
0.0
 40
0.0313965838690735
 40
0.0626701743565697
 40
0.0938672300040237
 40
0.1250345515700926
 40
0.156219073629913
 40
0.2311805427854304
 40
0.3057567825660276
 40
0.3750735274567399
 40
0.4436596408143699
 40
0.5712783485516805
 40
0.6888029567245624
 40
0.7439109976308725
 40
0.7987361782876881
 40
0.8504303133125474
 40
0.9018091679882966
 40
0.9510036401246028
 40
0.9999999999999999
 40
0.9999999999999999
 40
0.9999999999999999
 40
0.9999999999999999
 10
366.1216488054091
 20
415.0766019071648
 30
0.0
 10
366.0439175869748
 20
415.0770405281081
 30
0.0
 10
365.8887596553816
 20
415.0779160517354
 30
0.0
 10
365.6567041182258
 20
415.0850338065785
 30
0.0
 10
365.4259037624334
 20
415.096382642638
 30
0.0
 10
365.1963550861624
 20
415.1123450567366
 30
0.0
 10
364.8614690758275
 20
415.1422570389132
 30
0.0
 10
364.4261939458464
 20
415.1961759520594
 30
0.0
 10
363.9141329017225
 20
415.2851606400806
 30
0.0
 10
363.4357411788793
 20
415.3917361218489
 30
0.0
 10
362.8675226936899
 20
415.5471924184205
 30
0.0
 10
362.2545777733527
 20
415.7626706981974
 30
0.0
 10
361.7647874410508
 20
415.9902523082561
 30
0.0
 10
361.4577877671067
 20
416.1636471836814
 30
0.0
 10
361.2708639711601
 20
416.2852561844226
 30
0.0
 10
361.119338100347
 20
416.4004016590438
 30
0.0
 10
361.0050982215114
 20
416.5061463623507
 30
0.0
 10
360.9215712958705
 20
416.6041432834726
 30
0.0
 10
360.8930403486228
 20
416.6619863317326
 30
0.0
 10
360.8788036573728
 20
416.6908495030773
 30
0.0
  0
LINE
  5
1D0
330
1F
100
AcDbEntity
  8
0
  6
Continuous
 62
     8
370
    18
100
AcDbLine
 10
372.6216488054
 20
415.0766019072
 30
0.0
 11
366.1216488054
 21
415.0766019072
 31
0.0
  0
LINE
  5
1D1
330
1F
100
AcDbEntity
  8
0
  6
Continuous
 62
     8
370
    18
100
AcDbLine
 10
372.6216488054
 20
389.0733041575
 30
0.0
 11
372.6216488054
 21
415.0766019072
 31
0.0
  0
LINE
  5
1D2
330
1F
100
AcDbEntity
  8
0
  6
Continuous
 62
     8
370
    18
100
AcDbLine
 10
349.9216488054
 20
407.628945789
 30
0.0
 11
349.9216488054
 21
417.0733041575
 31
0.0
  0
LINE
  5
1D3
330
1F
100
AcDbEntity
  8
0
  6
Continuous
 62
     8
370
    18
100
AcDbLine
 10
349.9216488054
 20
389.0733041575
 30
0.0
 11
349.9216488054
 21
407.628945789
 31
0.0
  0
ARC
  5
1D4
330
1F
100
AcDbEntity
  8
0
  6
Continuous
 62
     8
370
    18
100
AcDbCircle
 10
372.6878743706
 20
414.1419815641
 30
0.0
 40
0.9369637192365046
100
AcDbArc
 50
4.7287476393
 51
94.0531045291
  0
SPLINE
  5
1D5
330
1F
100
AcDbEntity
  8
0
  6
Continuous
 62
     8
370
    18
100
AcDbSpline
210
0.0
220
0.0
230
1.0
 70
    24
 71
     3
 72
    20
 73
    16
 74
     0
 42
0.00000001
 43
0.00000001
 40
0.0
 40
0.0
 40
0.0
 40
0.0
 40
0.1250000000000013
 40
0.1250000000000013
 40
0.2500000000000027
 40
0.2500000000000027
 40
0.5000000000000019
 40
0.5000000000000019
 40
0.6250000000000014
 40
0.6250000000000014
 40
0.7500000000000009
 40
0.7500000000000009
 40
0.8750000000000004
 40
0.8750000000000004
 40
1.0
 40
1.0
 40
1.0
 40
1.0
 10
366.1216488054092
 20
420.2981302449269
 30
0.0
 10
366.1216488054092
 20
420.0400225797576
 30
0.0
 10
366.1216488054092
 20
419.7811699524658
 30
0.0
 10
366.1216488054092
 20
419.2562903642963
 30
0.0
 10
366.1216488054092
 20
418.9905381465031
 30
0.0
 10
366.1216488054092
 20
418.1942181811074
 30
0.0
 10
366.1216488054092
 20
417.667186785575
 30
0.0
 10
366.1216488054093
 20
416.9458770168192
 30
0.0
 10
366.1216488054094
 20
416.7156566183584
 30
0.0
 10
366.1216488054092
 20
416.2856679361371
 30
0.0
 10
366.1216488054092
 20
416.0864385931395
 30
0.0
 10
366.1216488054092
 20
415.7307921005862
 30
0.0
 10
366.1216488054092
 20
415.5749138917932
 30
0.0
 10
366.1216488054092
 20
415.3034239882679
 30
0.0
 10
366.1216488054093
 20
415.1883512342985
 30
0.0
 10
366.1216488054092
 20
415.0766019071648
 30
0.0
  0
LINE
  5
1D6
330
1F
100
AcDbEntity
  8
0
  6
Continuous
 62
     8
370
    18
100
AcDbLine
 10
366.1216488054
 20
420.2981302449
 30
0.0
 11
372.6216488054
 21
420.2981302449
 31
0.0
  0
SPLINE
  5
1D7
330
1F
100
AcDbEntity
  8
0
  6
Continuous
 62
     8
370
    18
100
AcDbSpline
210
0.0
220
0.0
230
1.0
 70
    24
 71
     3
 72
    20
 73
    16
 74
     0
 42
0.00000001
 43
0.00000001
 40
0.0
 40
0.0
 40
0.0
 40
0.0
 40
0.1249999999999995
 40
0.1249999999999995
 40
0.2499999999999991
 40
0.2499999999999991
 40
0.3749999999999986
 40
0.3749999999999986
 40
0.4999999999999981
 40
0.4999999999999981
 40
0.7499999999999973
 40
0.7499999999999973
 40
0.8749999999999987
 40
0.8749999999999987
 40
1.0
 40
1.0
 40
1.0
 40
1.0
 10
372.6216488054093
 20
415.0766019071646
 30
0.0
 10
372.6216488054094
 20
415.1883512342983
 30
0.0
 10
372.6216488054093
 20
415.3034239882679
 30
0.0
 10
372.6216488054093
 20
415.5749138917932
 30
0.0
 10
372.6216488054093
 20
415.7307921005861
 30
0.0
 10
372.6216488054092
 20
416.0864385931395
 30
0.0
 10
372.6216488054093
 20
416.285667936137
 30
0.0
 10
372.6216488054094
 20
416.7156566183583
 30
0.0
 10
372.6216488054093
 20
416.9458770168192
 30
0.0
 10
372.6216488054093
 20
417.6671867855749
 30
0.0
 10
372.6216488054093
 20
418.1942181811074
 30
0.0
 10
372.6216488054092
 20
418.9905381465031
 30
0.0
 10
372.6216488054092
 20
419.2562903642963
 30
0.0
 10
372.6216488054093
 20
419.7811699524657
 30
0.0
 10
372.6216488054093
 20
420.0400225797575
 30
0.0
 10
372.6216488054093
 20
420.2981302449269
 30
0.0
  0
LINE
  5
1D8
330
1F
100
AcDbEntity
  8
0
  6
Continuous
 62
     8
370
    18
100
AcDbLine
 10
373.6216488054
 20
420.2981302449
 30
0.0
 11
372.6216488054
 21
420.2981302449
 31
0.0
  0
SPLINE
  5
1D9
330
1F
100
AcDbEntity
  8
0
  6
Continuous
 62
     8
370
    18
100
AcDbSpline
210
0.0
220
0.0
230
1.0
 70
     8
 71
     3
 72
    21
 73
    17
 74
     0
 42
0.00000001
 43
0.00000001
 40
0.0
 40
0.0
 40
0.0
 40
0.0
 40
0.0976305872777069
 40
0.1396035318486565
 40
0.1821109838017703
 40
0.2282618793814389
 40
0.2733259297410377
 40
0.3170756311557294
 40
0.4053131588224573
 40
0.4993749307112557
 40
0.5539569672091238
 40
0.6243381685151159
 40
0.6973700913086458
 40
0.7499365360898799
 40
0.8745856750407541
 40
1.0
 40
1.0
 40
1.0
 40
1.0
 10
365.1216488054091
 20
421.0241102079466
 30
0.0
 10
365.1214349784502
 20
420.7938401021103
 30
0.0
 10
365.1211292238758
 20
420.4645732099375
 30
0.0
 10
365.0891468348236
 20
420.0362248449403
 30
0.0
 10
365.0494978116914
 20
419.7306619732991
 30
0.0
 10
364.9889396212923
 20
419.4210329346693
 30
0.0
 10
364.9065284343321
 20
419.1134530606534
 30
0.0
 10
364.7717166359286
 20
418.7181677952041
 30
0.0
 10
364.5479990771328
 20
418.232431824932
 30
0.0
 10
364.2263952482916
 20
417.7700686123775
 30
0.0
 10
363.8539521993105
 20
417.4099023205603
 30
0.0
 10
363.4661720964143
 20
417.1450791794876
 30
0.0
 10
363.0420996660334
 20
416.9560929363422
 30
0.0
 10
362.4756450054696
 20
416.7883062510351
 30
0.0
 10
361.7641601210874
 20
416.6923941412874
 30
0.0
 10
361.1745225153554
 20
416.6913690003522
 30
0.0
 10
360.8788015766098
 20
416.6908548614357
 30
0.0
  0
SPLINE
  5
1DA
330
1F
100
AcDbEntity
  8
0
  6
Continuous
 62
     8
370
    18
100
AcDbSpline
210
0.0
220
0.0
230
1.0
 70
     8
 71
     3
 72
    18
 73
    14
 74
     0
 42
0.00000001
 43
0.00000001
 40
0.0
 40
0.0
 40
0.0
 40
0.0
 40
0.0549552946371361
 40
0.1173358414242825
 40
0.1871605233606533
 40
0.2644423350809087
 40
0.3586071205259204
 40
0.4017025639375886
 40
0.5360493729718502
 40
0.6676320445141425
 40
0.7815711105316894
 40
0.8881240084018306
 40
1.0
 40
1.0
 40
1.0
 40
1.0
 10
365.1216488054091
 20
421.0241102463348
 30
0.0
 10
365.1223338588283
 20
421.0080592751316
 30
0.0
 10
365.1237965262546
 20
420.9737886152392
 30
0.0
 10
365.1364726331313
 20
420.916559313255
 30
0.0
 10
365.1599286247504
 20
420.8511394705044
 30
0.0
 10
365.1992792785115
 20
420.7740468776942
 30
0.0
 10
365.2463368598133
 20
420.7049780208113
 30
0.0
 10
365.3174845712298
 20
420.6178904481766
 30
0.0
 10
365.4161085444082
 20
420.5216520328195
 30
0.0
 10
365.5709162050842
 20
420.4179698505156
 30
0.0
 10
365.7435336641419
 20
420.3450129915059
 30
0.0
 10
365.9278825240776
 20
420.3048867529535
 30
0.0
 10
366.0560191520045
 20
420.3004187095502
 30
0.0
 10
366.1216488054091
 20
420.2981302449269
 30
0.0
  0
ARC
  5
1DB
330
1F
100
AcDbEntity
  8
0
  6
Continuous
 62
     8
370
    18
100
AcDbCircle
 10
388.6239785615
 20
362.2357551674
 30
0.0
 40
0.1976846437390497
100
AcDbArc
 50
0.6915634119
 51
90.675258721
  0
ARC
  5
1DC
330
1F
100
AcDbEntity
  8
0
  6
Continuous
 62
     8
370
    18
100
AcDbCircle
 10
401.2199289753
 20
362.2342231534
 30
0.0
 40
0.1992103529761499
100
AcDbArc
 50
89.5053458232
 51
158.268587807
  0
LINE
  5
1DD
330
1F
100
AcDbEntity
  8
0
  6
Continuous
 62
     8
370
    18
100
AcDbLine
 10
390.3216488054
 20
369.7733041575
 30
0.0
 11
389.0216488054
 21
369.7733041575
 31
0.0
  0
LINE
  5
1DE
330
1F
100
AcDbEntity
  8
0
  6
Continuous
 62
     8
370
    18
100
AcDbLine
 10
390.3216488054
 20
369.7733041575
 30
0.0
 11
390.3216488054
 21
362.0815594751
 31
0.0
  0
LINE
  5
1DF
330
1F
100
AcDbEntity
  8
0
  6
Continuous
 62
     8
370
    18
100
AcDbLine
 10
390.3216488054
 20
369.7733041575
 30
0.0
 11
390.3216488054
 21
370.7733041575
 31
0.0
  0
LINE
  5
1E0
330
1F
100
AcDbEntity
  8
0
  6
Continuous
 62
     8
370
    18
100
AcDbLine
 10
399.7216488054
 20
369.7733041575
 30
0.0
 11
390.3216488054
 21
369.7733041575
 31
0.0
  0
LINE
  5
1E1
330
1F
100
AcDbEntity
  8
0
  6
Continuous
 62
     8
370
    18
100
AcDbLine
 10
399.7216488054
 20
362.0815594751
 30
0.0
 11
399.7216488054
 21
369.7733041575
 31
0.0
  0
LINE
  5
1E2
330
1F
100
AcDbEntity
  8
0
  6
Continuous
 62
     8
370
    18
100
AcDbLine
 10
399.7216488054
 20
369.7733041575
 30
0.0
 11
399.7216488054
 21
370.7733041575
 31
0.0
  0
LINE
  5
1E3
330
1F
100
AcDbEntity
  8
0
  6
Continuous
 62
     8
370
    18
100
AcDbLine
 10
401.0216488054
 20
369.7733041575
 30
0.0
 11
399.7216488054
 21
369.7733041575
 31
0.0
  0
LINE
  5
1E4
330
1F
100
AcDbEntity
  8
0
  6
Continuous
 62
     8
370
    18
100
AcDbLine
 10
366.1216488054
 20
437.0733041575
 30
0.0
 11
365.1216488054
 21
437.0733041575
 31
0.0
  0
LINE
  5
1E5
330
1F
100
AcDbEntity
  8
0
  6
Continuous
 62
     8
370
    18
100
AcDbLine
 10
366.1216488054
 20
437.0733041575
 30
0.0
 11
366.1216488054
 21
420.2981302449
 31
0.0
  0
LINE
  5
1E6
330
1F
100
AcDbEntity
  8
0
  6
Continuous
 62
     8
370
    18
100
AcDbLine
 10
372.6216488054
 20
437.0733041575
 30
0.0
 11
366.1216488054
 21
437.0733041575
 31
0.0
  0
LINE
  5
1E7
330
1F
100
AcDbEntity
  8
0
  6
Continuous
 62
     8
370
    18
100
AcDbLine
 10
372.6216488054
 20
420.2981302449
 30
0.0
 11
372.6216488054
 21
437.0733041575
 31
0.0
  0
LINE
  5
1E8
330
1F
100
AcDbEntity
  8
0
  6
Continuous
 62
     8
370
    18
100
AcDbLine
 10
373.6216488054
 20
437.0733041575
 30
0.0
 11
372.6216488054
 21
437.0733041575
 31
0.0
  0
LINE
  5
1E9
330
1F
100
AcDbEntity
  8
0
  6
Continuous
 62
     8
370
    18
100
AcDbLine
 10
366.1216488054
 20
438.0733041575
 30
0.0
 11
366.1216488054
 21
437.0733041575
 31
0.0
  0
LINE
  5
1EA
330
1F
100
AcDbEntity
  8
0
  6
Continuous
 62
     8
370
    18
100
AcDbLine
 10
372.6216488054
 20
438.0733041575
 30
0.0
 11
372.6216488054
 21
437.0733041575
 31
0.0
  0
LINE
  5
1EB
330
1F
100
AcDbEntity
  8
0
  6
Continuous
 62
     8
370
    18
100
AcDbLine
 10
365.1217697166
 20
421.0241107036
 30
0.0
 11
365.0341408164
 21
420.2240826928
 31
0.0
  0
ENDSEC
  0
SECTION
  2
OBJECTS
  0
DICTIONARY
  5
C
330
0
100
AcDbDictionary
281
     1
  3
ACAD_GROUP
350
D
  3
ACAD_LAYOUT
350
1A
  3
ACAD_MLINESTYLE
350
17
  3
ACAD_PLOTSETTINGS
350
19
  3
ACAD_PLOTSTYLENAME
350
E
  3
ACAD_SCALELIST
350
47
  3
DWGPROPS
350
1EC
  0
DICTIONARY
  5
D
102
{ACAD_REACTORS
330
C
102
}
330
C
100
AcDbDictionary
281
     1
  0
DICTIONARY
  5
1A
102
{ACAD_REACTORS
330
C
102
}
330
C
100
AcDbDictionary
281
     1
  3
Layout1
350
1E
  3
Layout2
350
26
  3
Model
350
22
  0
DICTIONARY
  5
17
102
{ACAD_REACTORS
330
C
102
}
330
C
100
AcDbDictionary
281
     1
  3
Standard
350
18
  0
DICTIONARY
  5
19
102
{ACAD_REACTORS
330
C
102
}
330
C
100
AcDbDictionary
281
     1
  0
ACDBDICTIONARYWDFLT
  5
E
102
{ACAD_REACTORS
330
C
102
}
330
C
100
AcDbDictionary
281
     1
  3
Normal
350
F
100
AcDbDictionaryWithDefault
340
F
  0
DICTIONARY
  5
47
102
{ACAD_REACTORS
330
C
102
}
330
C
100
AcDbDictionary
281
     1
  3
A0
350
48
  3
A1
350
49
  3
A2
350
4A
  3
A3
350
4B
  3
A4
350
4C
  3
A5
350
4D
  3
A6
350
4E
  3
A7
350
4F
  3
A8
350
50
  3
A9
350
51
  3
B0
350
52
  3
B1
350
53
  3
B2
350
54
  3
B3
350
55
  3
B4
350
56
  3
B5
350
57
  3
B6
350
58
  3
B7
350
59
  3
B8
350
5A
  3
B9
350
5B
  3
C0
350
5C
  3
C1
350
5D
  3
C2
350
5E
  3
C3
350
5F
  3
C4
350
60
  3
C5
350
61
  3
C6
350
62
  3
C7
350
63
  3
C8
350
64
  3
C9
350
65
  3
D0
350
66
  3
D1
350
67
  3
D2
350
68
  0
XRECORD
  5
1EC
102
{ACAD_REACTORS
330
C
102
}
330
C
100
AcDbXrecord
280
     1
  1
DWGPROPS COOKIE
  2

  3

  4

  6

  7

  8
fue-task
  9

300
=
301
=
302
=
303
=
304
=
305
=
306
=
307
=
308
=
309
=
 40
0.0
 41
2459989.375237153
 42
2459989.375237882
  1

 90
        0
  0
LAYOUT
  5
1E
102
{ACAD_REACTORS
330
1A
102
}
330
1A
100
AcDbPlotSettings
  1

  2
none_device
  4

  6

 40
0.0
 41
0.0
 42
0.0
 43
0.0
 44
0.0
 45
0.0
 46
0.0
 47
0.0
 48
0.0
 49
0.0
140
0.0
141
0.0
142
1.0
143
1.0
 70
   688
 72
     1
 73
     0
 74
     5
  7

 75
    16
147
1.0
148
0.0
149
0.0
100
AcDbLayout
  1
Layout1
 70
     1
 71
     1
 10
0.0
 20
0.0
 11
420.0
 21
297.0
 12
0.0
 22
0.0
 32
0.0
 14
1.0000000000E+20
 24
1.0000000000E+20
 34
1.0000000000E+20
 15
-1.0000000000E+20
 25
-1.0000000000E+20
 35
-1.0000000000E+20
146
0.0
 13
0.0
 23
0.0
 33
0.0
 16
1.0
 26
0.0
 36
0.0
 17
0.0
 27
1.0
 37
0.0
 76
     0
330
1B
  0
LAYOUT
  5
26
102
{ACAD_REACTORS
330
1A
102
}
330
1A
100
AcDbPlotSettings
  1

  2
none_device
  4

  6

 40
0.0
 41
0.0
 42
0.0
 43
0.0
 44
0.0
 45
0.0
 46
0.0
 47
0.0
 48
0.0
 49
0.0
140
0.0
141
0.0
142
1.0
143
1.0
 70
   688
 72
     1
 73
     0
 74
     5
  7

 75
    16
147
1.0
148
0.0
149
0.0
100
AcDbLayout
  1
Layout2
 70
     1
 71
     2
 10
0.0
 20
0.0
 11
0.0
 21
0.0
 12
0.0
 22
0.0
 32
0.0
 14
0.0
 24
0.0
 34
0.0
 15
0.0
 25
0.0
 35
0.0
146
0.0
 13
0.0
 23
0.0
 33
0.0
 16
1.0
 26
0.0
 36
0.0
 17
0.0
 27
1.0
 37
0.0
 76
     0
330
23
  0
LAYOUT
  5
22
102
{ACAD_REACTORS
330
1A
102
}
330
1A
100
AcDbPlotSettings
  1

  2
none_device
  4
Letter_(8.50_x_11.00_Inches)
  6

 40
6.35
 41
6.35
 42
6.35000508
 43
6.35000508
 44
215.9
 45
279.4
 46
0.0
 47
0.0
 48
0.0
 49
0.0
140
0.0
141
0.0
142
1.0
143
1.0
 70
  1712
 72
     1
 73
     0
 74
     0
  7

 75
     0
147
1.0
148
0.0
149
0.0
100
AcDbLayout
  1
Model
 70
     1
 71
     0
 10
0.0
 20
0.0
 11
594.0
 21
841.0
 12
0.0
 22
0.0
 32
0.0
 14
0.0
 24
0.0
 34
0.0
 15
594.0
 25
841.0
 35
0.0
146
0.0
 13
0.0
 23
0.0
 33
0.0
 16
1.0
 26
0.0
 36
0.0
 17
0.0
 27
1.0
 37
0.0
 76
     0
330
1F
331
29
  0
MLINESTYLE
  5
18
102
{ACAD_REACTORS
330
17
102
}
330
17
100
AcDbMlineStyle
  2
Standard
 70
     0
  3

 62
   256
 51
90.0
 52
90.0
 71
     2
 49
0.5
 62
   256
  6
BYLAYER
 49
-0.5
 62
   256
  6
BYLAYER
  0
ACDBPLACEHOLDER
  5
F
102
{ACAD_REACTORS
330
E
102
}
330
E
  0
SCALE
  5
48
102
{ACAD_REACTORS
330
47
102
}
330
47
100
AcDbScale
 70
     0
300
1:1
140
1.0
141
1.0
290
     1
  0
SCALE
  5
49
102
{ACAD_REACTORS
330
47
102
}
330
47
100
AcDbScale
 70
     0
300
1:2
140
1.0
141
2.0
290
     0
  0
SCALE
  5
4A
102
{ACAD_REACTORS
330
47
102
}
330
47
100
AcDbScale
 70
     0
300
1:4
140
1.0
141
4.0
290
     0
  0
SCALE
  5
4B
102
{ACAD_REACTORS
330
47
102
}
330
47
100
AcDbScale
 70
     0
300
1:5
140
1.0
141
5.0
290
     0
  0
SCALE
  5
4C
102
{ACAD_REACTORS
330
47
102
}
330
47
100
AcDbScale
 70
     0
300
1:8
140
1.0
141
8.0
290
     0
  0
SCALE
  5
4D
102
{ACAD_REACTORS
330
47
102
}
330
47
100
AcDbScale
 70
     0
300
1:10
140
1.0
141
10.0
290
     0
  0
SCALE
  5
4E
102
{ACAD_REACTORS
330
47
102
}
330
47
100
AcDbScale
 70
     0
300
1:16
140
1.0
141
16.0
290
     0
  0
SCALE
  5
4F
102
{ACAD_REACTORS
330
47
102
}
330
47
100
AcDbScale
 70
     0
300
1:20
140
1.0
141
20.0
290
     0
  0
SCALE
  5
50
102
{ACAD_REACTORS
330
47
102
}
330
47
100
AcDbScale
 70
     0
300
1:30
140
1.0
141
30.0
290
     0
  0
SCALE
  5
51
102
{ACAD_REACTORS
330
47
102
}
330
47
100
AcDbScale
 70
     0
300
1:40
140
1.0
141
40.0
290
     0
  0
SCALE
  5
52
102
{ACAD_REACTORS
330
47
102
}
330
47
100
AcDbScale
 70
     0
300
1:50
140
1.0
141
50.0
290
     0
  0
SCALE
  5
53
102
{ACAD_REACTORS
330
47
102
}
330
47
100
AcDbScale
 70
     0
300
1:100
140
1.0
141
100.0
290
     0
  0
SCALE
  5
54
102
{ACAD_REACTORS
330
47
102
}
330
47
100
AcDbScale
 70
     0
300
2:1
140
2.0
141
1.0
290
     0
  0
SCALE
  5
55
102
{ACAD_REACTORS
330
47
102
}
330
47
100
AcDbScale
 70
     0
300
4:1
140
4.0
141
1.0
290
     0
  0
SCALE
  5
56
102
{ACAD_REACTORS
330
47
102
}
330
47
100
AcDbScale
 70
     0
300
8:1
140
8.0
141
1.0
290
     0
  0
SCALE
  5
57
102
{ACAD_REACTORS
330
47
102
}
330
47
100
AcDbScale
 70
     0
300
10:1
140
10.0
141
1.0
290
     0
  0
SCALE
  5
58
102
{ACAD_REACTORS
330
47
102
}
330
47
100
AcDbScale
 70
     0
300
100:1
140
100.0
141
1.0
290
     0
  0
SCALE
  5
59
102
{ACAD_REACTORS
330
47
102
}
330
47
100
AcDbScale
 70
     0
300
1/128" = 1'-0"
140
0.0078125
141
12.0
290
     0
  0
SCALE
  5
5A
102
{ACAD_REACTORS
330
47
102
}
330
47
100
AcDbScale
 70
     0
300
1/64" = 1'-0"
140
0.015625
141
12.0
290
     0
  0
SCALE
  5
5B
102
{ACAD_REACTORS
330
47
102
}
330
47
100
AcDbScale
 70
     0
300
1/32" = 1'-0"
140
0.03125
141
12.0
290
     0
  0
SCALE
  5
5C
102
{ACAD_REACTORS
330
47
102
}
330
47
100
AcDbScale
 70
     0
300
1/16" = 1'-0"
140
0.0625
141
12.0
290
     0
  0
SCALE
  5
5D
102
{ACAD_REACTORS
330
47
102
}
330
47
100
AcDbScale
 70
     0
300
3/32" = 1'-0"
140
0.09375
141
12.0
290
     0
  0
SCALE
  5
5E
102
{ACAD_REACTORS
330
47
102
}
330
47
100
AcDbScale
 70
     0
300
1/8" = 1'-0"
140
0.125
141
12.0
290
     0
  0
SCALE
  5
5F
102
{ACAD_REACTORS
330
47
102
}
330
47
100
AcDbScale
 70
     0
300
3/16" = 1'-0"
140
0.1875
141
12.0
290
     0
  0
SCALE
  5
60
102
{ACAD_REACTORS
330
47
102
}
330
47
100
AcDbScale
 70
     0
300
1/4" = 1'-0"
140
0.25
141
12.0
290
     0
  0
SCALE
  5
61
102
{ACAD_REACTORS
330
47
102
}
330
47
100
AcDbScale
 70
     0
300
3/8" = 1'-0"
140
0.375
141
12.0
290
     0
  0
SCALE
  5
62
102
{ACAD_REACTORS
330
47
102
}
330
47
100
AcDbScale
 70
     0
300
1/2" = 1'-0"
140
0.5
141
12.0
290
     0
  0
SCALE
  5
63
102
{ACAD_REACTORS
330
47
102
}
330
47
100
AcDbScale
 70
     0
300
3/4" = 1'-0"
140
0.75
141
12.0
290
     0
  0
SCALE
  5
64
102
{ACAD_REACTORS
330
47
102
}
330
47
100
AcDbScale
 70
     0
300
1" = 1'-0"
140
1.0
141
12.0
290
     0
  0
SCALE
  5
65
102
{ACAD_REACTORS
330
47
102
}
330
47
100
AcDbScale
 70
     0
300
1-1/2" = 1'-0"
140
1.5
141
12.0
290
     0
  0
SCALE
  5
66
102
{ACAD_REACTORS
330
47
102
}
330
47
100
AcDbScale
 70
     0
300
3" = 1'-0"
140
3.0
141
12.0
290
     0
  0
SCALE
  5
67
102
{ACAD_REACTORS
330
47
102
}
330
47
100
AcDbScale
 70
     0
300
6" = 1'-0"
140
6.0
141
12.0
290
     0
  0
SCALE
  5
68
102
{ACAD_REACTORS
330
47
102
}
330
47
100
AcDbScale
 70
     0
300
1'-0" = 1'-0"
140
12.0
141
12.0
290
     0
  0
ENDSEC
  0
EOF
