  0
SECTION
  2
HEADER
  9
$ACADVER
  1
AC1015
  9
$ACADMAINTVER
 70
     6
  9
$DWGCODEPAGE
  3
ANSI_1252
  9
$INSBASE
 10
0.0
 20
0.0
 30
0.0
  9
$EXTMIN
 10
0.0
 20
0.0
 30
0.0
  9
$EXTMAX
 10
594.0
 20
841.0
 30
0.0
  9
$LIMMIN
 10
0.0
 20
0.0
  9
$LIMMAX
 10
594.0
 20
841.0
  9
$ORTHOMODE
 70
     0
  9
$REGENMODE
 70
     1
  9
$FILLMODE
 70
     1
  9
$QTEXTMODE
 70
     0
  9
$MIRRTEXT
 70
     1
  9
$LTSCALE
 40
1.0
  9
$ATTMODE
 70
     1
  9
$TEXTSIZE
 40
10.0
  9
$TRACEWID
 40
1.0
  9
$TEXTSTYLE
  7
Standard
  9
$CLAYER
  8
0
  9
$CELTYPE
  6
ByLayer
  9
$CECOLOR
 62
   256
  9
$CELTSCALE
 40
1.0
  9
$DISPSILH
 70
     0
  9
$DIMSCALE
 40
1.0
  9
$DIMASZ
 40
2.5
  9
$DIMEXO
 40
0.0
  9
$DIMDLI
 40
3.75
  9
$DIMRND
 40
0.0
  9
$DIMDLE
 40
0.0
  9
$DIMEXE
 40
1.0
  9
$DIMTP
 40
0.0
  9
$DIMTM
 40
0.0
  9
$DIMTXT
 40
3.5
  9
$DIMCEN
 40
2.5
  9
$DIMTSZ
 40
0.0
  9
$DIMTOL
 70
     0
  9
$DIMLIM
 70
     0
  9
$DIMTIH
 70
     1
  9
$DIMTOH
 70
     1
  9
$DIMSE1
 70
     0
  9
$DIMSE2
 70
     0
  9
$DIMTAD
 70
     1
  9
$DIMZIN
 70
     0
  9
$DIMBLK
  1

  9
$DIMASO
 70
     1
  9
$DIMSHO
 70
     1
  9
$DIMPOST
  1

  9
$DIMAPOST
  1

  9
$DIMALT
 70
     0
  9
$DIMALTD
 70
     3
  9
$DIMALTF
 40
0.0393700787
  9
$DIMLFAC
 40
1.0
  9
$DIMTOFL
 70
     1
  9
$DIMTVP
 40
0.0
  9
$DIMTIX
 70
     0
  9
$DIMSOXD
 70
     0
  9
$DIMSAH
 70
     0
  9
$DIMBLK1
  1

  9
$DIMBLK2
  1

  9
$DIMSTYLE
  2
ISO-25
  9
$DIMCLRD
 70
     0
  9
$DIMCLRE
 70
     0
  9
$DIMCLRT
 70
     0
  9
$DIMTFAC
 40
1.0
  9
$DIMGAP
 40
1.5
  9
$DIMJUST
 70
     0
  9
$DIMSD1
 70
     0
  9
$DIMSD2
 70
     0
  9
$DIMTOLJ
 70
     0
  9
$DIMTZIN
 70
     0
  9
$DIMALTZ
 70
     0
  9
$DIMALTTZ
 70
     0
  9
$DIMUPT
 70
     0
  9
$DIMDEC
 70
     2
  9
$DIMTDEC
 70
     2
  9
$DIMALTU
 70
     2
  9
$DIMALTTD
 70
     3
  9
$DIMTXSTY
  7
Standard
  9
$DIMAUNIT
 70
     0
  9
$DIMADEC
 70
     2
  9
$DIMALTRND
 40
0.0
  9
$DIMAZIN
 70
     0
  9
$DIMDSEP
 70
    44
  9
$DIMATFIT
 70
     3
  9
$DIMFRAC
 70
     0
  9
$DIMLDRBLK
  1

  9
$DIMLUNIT
 70
     2
  9
$DIMLWD
 70
    -2
  9
$DIMLWE
 70
    -2
  9
$DIMTMOVE
 70
     0
  9
$LUNITS
 70
     2
  9
$LUPREC
 70
     2
  9
$SKETCHINC
 40
1.0
  9
$FILLETRAD
 40
10.0
  9
$AUNITS
 70
     0
  9
$AUPREC
 70
     2
  9
$MENU
  1
.
  9
$ELEVATION
 40
0.0
  9
$PELEVATION
 40
0.0
  9
$THICKNESS
 40
0.0
  9
$LIMCHECK
 70
     0
  9
$CHAMFERA
 40
0.0
  9
$CHAMFERB
 40
0.0
  9
$CHAMFERC
 40
0.0
  9
$CHAMFERD
 40
0.0
  9
$SKPOLY
 70
     0
  9
$TDCREATE
 40
2457708.442227188
  9
$TDUCREATE
 40
2457708.400560521
  9
$TDUPDATE
 40
2457708.442229202
  9
$TDUUPDATE
 40
2457708.400562535
  9
$TDINDWG
 40
0.0000000116
  9
$TDUSRTIMER
 40
0.0000000116
  9
$USRTIMER
 70
     1
  9
$ANGBASE
 50
0.0
  9
$ANGDIR
 70
     0
  9
$PDMODE
 70
     0
  9
$PDSIZE
 40
-1.0
  9
$PLINEWID
 40
0.0
  9
$SPLFRAME
 70
     0
  9
$SPLINETYPE
 70
     6
  9
$SPLINESEGS
 70
     8
  9
$HANDSEED
  5
249
  9
$SURFTAB1
 70
     6
  9
$SURFTAB2
 70
     6
  9
$SURFTYPE
 70
     6
  9
$SURFU
 70
     6
  9
$SURFV
 70
     6
  9
$UCSBASE
  2

  9
$UCSNAME
  2

  9
$UCSORG
 10
0.0
 20
0.0
 30
0.0
  9
$UCSXDIR
 10
1.0
 20
0.0
 30
0.0
  9
$UCSYDIR
 10
0.0
 20
1.0
 30
0.0
  9
$UCSORTHOREF
  2

  9
$UCSORTHOVIEW
 70
     0
  9
$UCSORGTOP
 10
0.0
 20
0.0
 30
0.0
  9
$UCSORGBOTTOM
 10
0.0
 20
0.0
 30
0.0
  9
$UCSORGLEFT
 10
0.0
 20
0.0
 30
0.0
  9
$UCSORGRIGHT
 10
0.0
 20
0.0
 30
0.0
  9
$UCSORGFRONT
 10
0.0
 20
0.0
 30
0.0
  9
$UCSORGBACK
 10
0.0
 20
0.0
 30
0.0
  9
$PUCSBASE
  2

  9
$PUCSNAME
  2

  9
$PUCSORG
 10
0.0
 20
0.0
 30
0.0
  9
$PUCSXDIR
 10
1.0
 20
0.0
 30
0.0
  9
$PUCSYDIR
 10
0.0
 20
1.0
 30
0.0
  9
$PUCSORTHOREF
  2

  9
$PUCSORTHOVIEW
 70
     0
  9
$PUCSORGTOP
 10
0.0
 20
0.0
 30
0.0
  9
$PUCSORGBOTTOM
 10
0.0
 20
0.0
 30
0.0
  9
$PUCSORGLEFT
 10
0.0
 20
0.0
 30
0.0
  9
$PUCSORGRIGHT
 10
0.0
 20
0.0
 30
0.0
  9
$PUCSORGFRONT
 10
0.0
 20
0.0
 30
0.0
  9
$PUCSORGBACK
 10
0.0
 20
0.0
 30
0.0
  9
$USERI1
 70
     0
  9
$USERI2
 70
     0
  9
$USERI3
 70
     0
  9
$USERI4
 70
     0
  9
$USERI5
 70
     0
  9
$USERR1
 40
0.0
  9
$USERR2
 40
0.0
  9
$USERR3
 40
0.0
  9
$USERR4
 40
0.0
  9
$USERR5
 40
0.0
  9
$WORLDVIEW
 70
     1
  9
$SHADEDGE
 70
     3
  9
$SHADEDIF
 70
    70
  9
$TILEMODE
 70
     1
  9
$MAXACTVP
 70
    64
  9
$PINSBASE
 10
0.0
 20
0.0
 30
0.0
  9
$PLIMCHECK
 70
     0
  9
$PEXTMIN
 10
1.0000000000E+20
 20
1.0000000000E+20
 30
1.0000000000E+20
  9
$PEXTMAX
 10
-1.0000000000E+20
 20
-1.0000000000E+20
 30
-1.0000000000E+20
  9
$PLIMMIN
 10
0.0
 20
0.0
  9
$PLIMMAX
 10
420.0
 20
297.0
  9
$UNITMODE
 70
     0
  9
$VISRETAIN
 70
     1
  9
$PLINEGEN
 70
     0
  9
$PSLTSCALE
 70
     1
  9
$TREEDEPTH
 70
  3020
  9
$CMLSTYLE
  2
Standard
  9
$CMLJUST
 70
     0
  9
$CMLSCALE
 40
20.0
  9
$PROXYGRAPHICS
 70
     1
  9
$MEASUREMENT
 70
     1
  9
$CELWEIGHT
370
    -1
  9
$ENDCAPS
280
     0
  9
$JOINSTYLE
280
     0
  9
$LWDISPLAY
290
     1
  9
$INSUNITS
 70
     4
  9
$HYPERLINKBASE
  1

  9
$STYLESHEET
  1

  9
$XEDIT
290
     1
  9
$CEPSNTYPE
380
     0
  9
$PSTYLEMODE
290
     1
  9
$FINGERPRINTGUID
  2
{3794D28A-4C22-41E0-8EB1-9DBB3F92529A}
  9
$VERSIONGUID
  2
{FAEB1C32-E019-11D5-929B-00C0DF256EC4}
  9
$EXTNAMES
290
     1
  9
$PSVPSCALE
 40
0.0
  9
$OLESTARTUP
290
     0
  0
ENDSEC
  0
SECTION
  2
CLASSES
  0
CLASS
  1
ACDBDICTIONARYWDFLT
  2
AcDbDictionaryWithDefault
  3
ObjectDBX Classes
 90
        0
280
     0
281
     0
  0
CLASS
  1
VISUALSTYLE
  2
AcDbVisualStyle
  3
ObjectDBX Classes
 90
     4095
280
     0
281
     0
  0
CLASS
  1
MATERIAL
  2
AcDbMaterial
  3
ObjectDBX Classes
 90
     1153
280
     0
281
     0
  0
CLASS
  1
SCALE
  2
AcDbScale
  3
ObjectDBX Classes
 90
     1153
280
     0
281
     0
  0
CLASS
  1
TABLESTYLE
  2
AcDbTableStyle
  3
ObjectDBX Classes
 90
     4095
280
     0
281
     0
  0
CLASS
  1
MLEADERSTYLE
  2
AcDbMLeaderStyle
  3
ACDB_MLEADERSTYLE_CLASS
 90
     4095
280
     0
281
     0
  0
CLASS
  1
SUN
  2
AcDbSun
  3
SCENEOE
 90
     1153
280
     0
281
     0
  0
CLASS
  1
ACDBPLACEHOLDER
  2
AcDbPlaceHolder
  3
ObjectDBX Classes
 90
        0
280
     0
281
     0
  0
CLASS
  1
LAYOUT
  2
AcDbLayout
  3
ObjectDBX Classes
 90
        0
280
     0
281
     0
  0
ENDSEC
  0
SECTION
  2
TABLES
  0
TABLE
  2
VPORT
  5
8
330
0
100
AcDbSymbolTable
 70
     1
  0
VPORT
  5
29
330
8
100
AcDbSymbolTableRecord
100
AcDbViewportTableRecord
  2
*Active
 70
     0
 10
0.0
 20
0.0
 11
1.0
 21
1.0
 12
297.0
 22
420.5
 13
0.0
 23
0.0
 14
10.0
 24
10.0
 15
10.0
 25
10.0
 16
0.0
 26
0.0
 36
1.0
 17
0.0
 27
0.0
 37
0.0
 40
841.0
 41
0.7063020214
 42
50.0
 43
0.0
 44
0.0
 50
0.0
 51
0.0
 71
     0
 72
  2000
 73
     1
 74
     3
 75
     0
 76
     0
 77
     0
 78
     0
281
     0
 65
     1
110
0.0
120
0.0
130
0.0
111
1.0
121
0.0
131
0.0
112
0.0
122
1.0
132
0.0
 79
     0
146
0.0
  0
ENDTAB
  0
TABLE
  2
LTYPE
  5
5
330
0
100
AcDbSymbolTable
 70
     6
  0
LTYPE
  5
14
330
5
100
AcDbSymbolTableRecord
100
AcDbLinetypeTableRecord
  2
ByBlock
 70
     0
  3

 72
    65
 73
     0
 40
0.0
  0
LTYPE
  5
15
330
5
100
AcDbSymbolTableRecord
100
AcDbLinetypeTableRecord
  2
ByLayer
 70
     0
  3

 72
    65
 73
     0
 40
0.0
  0
LTYPE
  5
16
330
5
100
AcDbSymbolTableRecord
100
AcDbLinetypeTableRecord
  2
Continuous
 70
     0
  3
Solid line
 72
    65
 73
     0
 40
0.0
  0
LTYPE
  5
6E
330
5
100
AcDbSymbolTableRecord
100
AcDbLinetypeTableRecord
  2
HIDDEN
 70
     0
  3
Hidden __ __ __ __ __ __ __ __ __ __ __ __ __ __
 72
    65
 73
     2
 40
1.905
 49
1.27
 74
     0
 49
-0.635
 74
     0
  0
LTYPE
  5
6F
330
5
100
AcDbSymbolTableRecord
100
AcDbLinetypeTableRecord
  2
PHANTOM
 70
     0
  3
Phantom ______  __  __  ______  __  __  ______
 72
    65
 73
     6
 40
12.7
 49
6.35
 74
     0
 49
-1.27
 74
     0
 49
1.27
 74
     0
 49
-1.27
 74
     0
 49
1.27
 74
     0
 49
-1.27
 74
     0
  0
LTYPE
  5
70
330
5
100
AcDbSymbolTableRecord
100
AcDbLinetypeTableRecord
  2
CENTER
 70
     0
  3
Center ____ _ ____ _ ____ _ ____ _ ____ _ ____
 72
    65
 73
     4
 40
10.16
 49
6.35
 74
     0
 49
-1.27
 74
     0
 49
1.27
 74
     0
 49
-1.27
 74
     0
  0
LTYPE
  5
71
330
5
100
AcDbSymbolTableRecord
100
AcDbLinetypeTableRecord
  2
CENTERX2
 70
     0
  3
Center (2x) ________  __  ________  __  _____
 72
    65
 73
     4
 40
20.32
 49
12.7
 74
     0
 49
-2.54
 74
     0
 49
2.54
 74
     0
 49
-2.54
 74
     0
  0
LTYPE
  5
72
330
5
100
AcDbSymbolTableRecord
100
AcDbLinetypeTableRecord
  2
DOT2
 70
     0
  3
Dot (.5x) ........................................
 72
    65
 73
     2
 40
0.635
 49
0.0
 74
     0
 49
-0.635
 74
     0
  0
ENDTAB
  0
TABLE
  2
LAYER
  5
2
330
0
100
AcDbSymbolTable
 70
     1
  0
LAYER
  5
10
330
2
100
AcDbSymbolTableRecord
100
AcDbLayerTableRecord
  2
0
 70
     0
 62
     7
  6
Continuous
370
    -3
390
F
  0
ENDTAB
  0
TABLE
  2
STYLE
  5
3
330
0
100
AcDbSymbolTable
 70
     3
  0
STYLE
  5
11
330
3
100
AcDbSymbolTableRecord
100
AcDbTextStyleTableRecord
  2
Standard
 70
     0
 40
0.0
 41
1.0
 50
0.0
 71
     0
 42
10.0
  3
txt
  4

  0
STYLE
  5
76
330
3
100
AcDbSymbolTableRecord
100
AcDbTextStyleTableRecord
  2
SLDTEXTSTYLE0
 70
     0
 40
0.0
 41
0.96
 50
0.0
 71
     0
 42
10.0
  3
ISOCP3
  4

  0
STYLE
  5
8D
330
3
100
AcDbSymbolTableRecord
100
AcDbTextStyleTableRecord
  2
SLDTEXTSTYLE1
 70
     0
 40
0.0
 41
0.605
 50
0.0
 71
     0
 42
10.0
  3
TXT
  4

  0
ENDTAB
  0
TABLE
  2
VIEW
  5
6
330
0
100
AcDbSymbolTable
 70
     0
  0
ENDTAB
  0
TABLE
  2
UCS
  5
7
330
0
100
AcDbSymbolTable
 70
     0
  0
ENDTAB
  0
TABLE
  2
APPID
  5
9
330
0
100
AcDbSymbolTable
 70
     1
  0
APPID
  5
12
330
9
100
AcDbSymbolTableRecord
100
AcDbRegAppTableRecord
  2
ACAD
 70
     0
  0
ENDTAB
  0
TABLE
  2
DIMSTYLE
  5
A
330
0
100
AcDbSymbolTable
 70
     2
100
AcDbDimStyleTable
  0
DIMSTYLE
105
27
330
A
100
AcDbSymbolTableRecord
100
AcDbDimStyleTableRecord
  2
ISO-25
 70
     0
 41
2.5
 42
0.625
 43
3.75
 44
1.25
 73
     0
 74
     0
 77
     1
 78
     8
140
2.5
141
2.5
143
0.0393700787
147
0.625
171
     3
172
     1
178
     0
271
     2
272
     2
274
     3
278
    44
283
     0
284
     8
340
11
  0
DIMSTYLE
105
77
102
{ACAD_REACTORS
330
75
330
82
102
}
330
A
100
AcDbSymbolTableRecord
100
AcDbDimStyleTableRecord
  2
SLDDIMSTYLE0
 70
     0
 41
2.5
 44
0.0
 45
0.000000001
 73
     0
 74
     0
 77
     1
 78
    12
 79
     3
140
6.0
147
1.5
173
     1
178
     0
271
     2
272
     2
276
     2
284
    12
340
76
  0
ENDTAB
  0
TABLE
  2
BLOCK_RECORD
  5
1
330
0
100
AcDbSymbolTable
 70
     3
  0
BLOCK_RECORD
  5
1F
330
1
100
AcDbSymbolTableRecord
100
AcDbBlockTableRecord
  2
*Model_Space
340
22
  0
BLOCK_RECORD
  5
1B
330
1
100
AcDbSymbolTableRecord
100
AcDbBlockTableRecord
  2
*Paper_Space
340
1E
  0
BLOCK_RECORD
  5
23
330
1
100
AcDbSymbolTableRecord
100
AcDbBlockTableRecord
  2
*Paper_Space0
340
26
  0
BLOCK_RECORD
  5
78
330
1
100
AcDbSymbolTableRecord
100
AcDbBlockTableRecord
  2
_D
340
0
  0
BLOCK_RECORD
  5
83
330
1
100
AcDbSymbolTableRecord
100
AcDbBlockTableRecord
  2
_D_1
340
0
  0
ENDTAB
  0
ENDSEC
  0
SECTION
  2
BLOCKS
  0
BLOCK
  5
20
330
1F
100
AcDbEntity
  8
0
100
AcDbBlockBegin
  2
*Model_Space
 70
     0
 10
0.0
 20
0.0
 30
0.0
  3
*Model_Space
  1

  0
ENDBLK
  5
21
330
1F
100
AcDbEntity
  8
0
100
AcDbBlockEnd
  0
BLOCK
  5
1C
330
1B
100
AcDbEntity
 67
     1
  8
0
100
AcDbBlockBegin
  2
*Paper_Space
 70
     0
 10
0.0
 20
0.0
 30
0.0
  3
*Paper_Space
  1

  0
ENDBLK
  5
1D
330
1B
100
AcDbEntity
 67
     1
  8
0
100
AcDbBlockEnd
  0
BLOCK
  5
24
330
23
100
AcDbEntity
  8
0
100
AcDbBlockBegin
  2
*Paper_Space0
 70
     0
 10
0.0
 20
0.0
 30
0.0
  3
*Paper_Space0
  1

  0
ENDBLK
  5
25
330
23
100
AcDbEntity
  8
0
100
AcDbBlockEnd
  0
BLOCK
  5
79
330
78
100
AcDbEntity
  8
0
100
AcDbBlockBegin
  2
_D
 70
     0
 10
0.0
 20
0.0
 30
0.0
  3
_D
  1

  0
SOLID
  5
7B
330
78
100
AcDbEntity
  8
0
  6
Continuous
 62
     7
370
    18
100
AcDbTrace
 10
42.7614395004
 20
152.0299240879
 30
0.0
 11
42.4614395004
 21
149.5299240879
 31
0.0
 12
43.0614395004
 22
149.5299240879
 32
0.0
 13
43.0614395004
 23
149.5299240879
 33
0.0
  0
SOLID
  5
7C
330
78
100
AcDbEntity
  8
0
  6
Continuous
 62
     7
370
    18
100
AcDbTrace
 10
42.7614395004
 20
52.0299240879
 30
0.0
 11
43.0614395004
 21
54.5299240879
 31
0.0
 12
42.4614395004
 22
54.5299240879
 32
0.0
 13
42.4614395004
 23
54.5299240879
 33
0.0
  0
LINE
  5
7D
330
78
100
AcDbEntity
  8
0
  6
Continuous
 62
     7
370
    18
100
AcDbLine
 10
56.6850079902
 20
152.0299240879
 30
0.0
 11
41.7614395004
 21
152.0299240879
 31
0.0
  0
LINE
  5
7E
330
78
100
AcDbEntity
  8
0
  6
Continuous
 62
     7
370
    18
100
AcDbLine
 10
56.6850079902
 20
52.0299240879
 30
0.0
 11
41.7614395004
 21
52.0299240879
 31
0.0
  0
LINE
  5
7F
330
78
100
AcDbEntity
  8
0
  6
Continuous
 62
     7
370
    18
100
AcDbLine
 10
42.7614395004
 20
152.0299240879
 30
0.0
 11
42.7614395004
 21
52.0299240879
 31
0.0
  0
MTEXT
  5
80
330
78
100
AcDbEntity
  8
0
  6
Continuous
 62
     7
370
    18
100
AcDbMText
 10
35.0270332946
 20
94.3680541463
 30
0.0
 40
6.0
 41
0.0
 71
     1
 72
     1
  1
100
  7
SLDTEXTSTYLE0
 11
-7.044195017643634E-15
 21
1.0
 31
0.0
 73
     1
 44
1.0
  0
MTEXT
  5
81
330
78
100
AcDbEntity
  8
0
  6
Continuous
 62
     7
370
    18
100
AcDbMText
 10
35.0270332946
 20
105.7430548466
 30
0.0
 40
6.0
 41
0.0
 71
     1
 72
     1
  1
mm
  7
SLDTEXTSTYLE0
 11
-7.044195017643634E-15
 21
1.0
 31
0.0
 73
     1
 44
1.0
  0
ENDBLK
  5
7A
330
78
100
AcDbEntity
  8
0
100
AcDbBlockEnd
  0
BLOCK
  5
84
330
83
100
AcDbEntity
  8
0
100
AcDbBlockBegin
  2
_D_1
 70
     0
 10
0.0
 20
0.0
 30
0.0
  3
_D_1
  1

  0
SOLID
  5
86
330
83
100
AcDbEntity
  8
0
  6
Continuous
 62
     7
370
    18
100
AcDbTrace
 10
56.6850079902
 20
38.4602342313
 30
0.0
 11
59.1850079902
 21
38.1602342313
 31
0.0
 12
59.1850079902
 22
38.7602342313
 32
0.0
 13
59.1850079902
 23
38.7602342313
 33
0.0
  0
SOLID
  5
87
330
83
100
AcDbEntity
  8
0
  6
Continuous
 62
     7
370
    18
100
AcDbTrace
 10
156.6850079902
 20
38.4602342313
 30
0.0
 11
154.1850079902
 21
38.7602342313
 31
0.0
 12
154.1850079902
 22
38.1602342313
 32
0.0
 13
154.1850079902
 23
38.1602342313
 33
0.0
  0
LINE
  5
88
330
83
100
AcDbEntity
  8
0
  6
Continuous
 62
     7
370
    18
100
AcDbLine
 10
56.6850079902
 20
52.0299240879
 30
0.0
 11
56.6850079902
 21
37.4602342313
 31
0.0
  0
LINE
  5
89
330
83
100
AcDbEntity
  8
0
  6
Continuous
 62
     7
370
    18
100
AcDbLine
 10
156.6850079902
 20
52.0299240879
 30
0.0
 11
156.6850079902
 21
37.4602342313
 31
0.0
  0
LINE
  5
8A
330
83
100
AcDbEntity
  8
0
  6
Continuous
 62
     7
370
    18
100
AcDbLine
 10
56.6850079902
 20
38.4602342313
 30
0.0
 11
156.6850079902
 21
38.4602342313
 31
0.0
  0
MTEXT
  5
8B
330
83
100
AcDbEntity
  8
0
  6
Continuous
 62
     7
370
    18
100
AcDbMText
 10
93.9626484861
 20
46.1946404371
 30
0.0
 40
6.0
 41
0.0
 71
     1
 72
     1
  1
100
  7
SLDTEXTSTYLE0
 73
     1
 44
1.0
  0
MTEXT
  5
8C
330
83
100
AcDbEntity
  8
0
  6
Continuous
 62
     7
370
    18
100
AcDbMText
 10
105.3376491864
 20
46.1946404371
 30
0.0
 40
6.0
 41
0.0
 71
     1
 72
     1
  1
mm
  7
SLDTEXTSTYLE0
 73
     1
 44
1.0
  0
ENDBLK
  5
85
330
83
100
AcDbEntity
  8
0
100
AcDbBlockEnd
  0
ENDSEC
  0
SECTION
  2
ENTITIES
  0
LINE
  5
73
330
1F
100
AcDbEntity
  8
0
  6
Continuous
 62
     7
370
    18
100
AcDbLine
 10
56.6850079902
 20
152.0299240879
 30
0.0
 11
56.6850079902
 21
52.0299240879
 31
0.0
  0
LINE
  5
74
330
1F
100
AcDbEntity
  8
0
  6
Continuous
 62
     7
370
    18
100
AcDbLine
 10
56.6850079902
 20
52.0299240879
 30
0.0
 11
156.6850079902
 21
52.0299240879
 31
0.0
  0
DIMENSION
  5
75
330
1F
100
AcDbEntity
  8
0
  6
Continuous
 62
     7
370
    18
100
AcDbDimension
  2
_D
 10
42.7614395004
 20
52.0299240879
 30
0.0
 11
42.7614395004
 21
105.4472211621
 31
0.0
 70
   160
  1
<>mm
 71
     2
 42
-1.0
  3
SLDDIMSTYLE0
100
AcDbAlignedDimension
 13
56.6850079902
 23
152.0299240879
 33
0.0
 14
56.6850079902
 24
52.0299240879
 34
0.0
 50
90.0
100
AcDbRotatedDimension
  0
DIMENSION
  5
82
330
1F
100
AcDbEntity
  8
0
  6
Continuous
 62
     7
370
    18
100
AcDbDimension
  2
_D_1
 10
156.6850079902
 20
38.4602342313
 30
0.0
 11
105.0418155019
 21
38.4602342313
 31
0.0
 70
   160
  1
<>mm
 71
     2
 42
-1.0
  3
SLDDIMSTYLE0
100
AcDbAlignedDimension
 13
56.6850079902
 23
52.0299240879
 33
0.0
 14
156.6850079902
 24
52.0299240879
 34
0.0
100
AcDbRotatedDimension
  0
MTEXT
  5
8E
330
1F
100
AcDbEntity
  8
0
  6
Continuous
 62
     7
370
     0
100
AcDbMText
 10
412.8252631579
 20
48.4342449499
 30
0.0
 40
10.0
 41
0.0
 71
     1
 72
     1
  1
KLUDI GmbH & Co KG
  7
SLDTEXTSTYLE1
 73
     1
 44
1.0
  0
MTEXT
  5
8F
330
1F
100
AcDbEntity
  8
0
  6
Continuous
 62
     7
370
     0
100
AcDbMText
 10
210.0873490389
 20
48.4342449499
 30
0.0
 40
10.0
 41
0.0
 71
     1
 72
     1
  1
41 029 05 75
  7
SLDTEXTSTYLE1
 73
     1
 44
1.0
  0
SPLINE
  5
90
330
1F
100
AcDbEntity
  8
0
  6
Continuous
 62
     7
370
    25
100
AcDbSpline
210
0.0
220
0.0
230
1.0
 70
     8
 71
     3
 72
    11
 73
     7
 74
     0
 42
0.000000001
 43
0.00000001
 40
0.0
 40
0.0
 40
0.0
 40
0.0
 40
0.253385368752006
 40
0.5147272523602402
 40
0.7912919629118007
 40
1.0
 40
1.0
 40
1.0
 40
1.0
 10
120.9123624955445
 20
412.3643537719912
 30
0.0
 10
120.70630602157
 20
412.3639941367861
 30
0.0
 10
120.2877227260847
 20
412.363263573526
 30
0.0
 10
119.7684645756361
 20
412.3593758759748
 30
0.0
 10
119.4660619744522
 20
412.3563053255123
 30
0.0
 10
119.4665641140599
 20
412.3562928215081
 30
0.0
 10
119.4667800762634
 20
412.3562874437362
 30
0.0
  0
SPLINE
  5
91
330
1F
100
AcDbEntity
  8
0
  6
Continuous
 62
     7
370
    25
100
AcDbSpline
210
0.0
220
0.0
230
1.0
 70
     8
 71
     3
 72
    17
 73
    13
 74
     0
 42
0.000000001
 43
0.00000001
 40
0.0
 40
0.0
 40
0.0
 40
0.0
 40
0.1564640428068824
 40
0.32030706874439
 40
0.4463334483482537
 40
0.541005408236623
 40
0.6123248594328232
 40
0.6424922881591394
 40
0.6707806282077946
 40
0.7264648186539947
 40
0.8527697423659545
 40
1.0
 40
1.0
 40
1.0
 40
1.0
 10
104.2287506836433
 20
411.3832173060863
 30
0.0
 10
104.142848009223
 20
411.3727599306443
 30
0.0
 10
103.9669914140127
 20
411.3513520006532
 30
0.0
 10
103.5876363700505
 20
411.3043706878984
 30
0.0
 10
103.1274735958329
 20
411.2462882528664
 30
0.0
 10
102.6204597322327
 20
411.1807816024805
 30
0.0
 10
102.1221361384771
 20
411.1146544159669
 30
0.0
 10
101.7073832260334
 20
411.0582561923109
 30
0.0
 10
101.3074323533956
 20
411.0030834171321
 30
0.0
 10
100.519559031106
 20
410.8918655076586
 30
0.0
 10
99.41627037518727
 20
410.7287960041813
 30
0.0
 10
98.61963591738746
 20
410.6022342496123
 30
0.0
 10
98.19084757694483
 20
410.5341124100736
 30
0.0
  0
SPLINE
  5
92
330
1F
100
AcDbEntity
  8
0
  6
Continuous
 62
     7
370
    25
100
AcDbSpline
210
0.0
220
0.0
230
1.0
 70
     8
 71
     3
 72
    23
 73
    19
 74
     0
 42
0.000000001
 43
0.00000001
 40
0.0
 40
0.0
 40
0.0
 40
0.0
 40
0.0867122362593962
 40
0.1915800651426677
 40
0.2733292260782342
 40
0.2962883895075323
 40
0.3148879624740658
 40
0.3228154090177389
 40
0.3301237564924083
 40
0.3372039638098395
 40
0.3445468449451099
 40
0.361876858832852
 40
0.3853155041940589
 40
0.4572178245214905
 40
0.5555668413121497
 40
0.6859973767676381
 40
0.8448017847604291
 40
1.0
 40
1.0
 40
1.0
 40
1.0
 10
143.4445719631222
 20
410.5638002210432
 30
0.0
 10
143.2650307488017
 20
410.5921310448481
 30
0.0
 10
142.8683564267093
 20
410.6547245299691
 30
0.0
 10
142.2493090088782
 20
410.748714594612
 30
0.0
 10
141.683903300768
 20
410.8325923750137
 30
0.0
 10
141.2283674129171
 20
410.8985775364661
 30
0.0
 10
141.0042820021681
 20
410.9307053145467
 30
0.0
 10
140.8244375677827
 20
410.9562774340822
 30
0.0
 10
140.6960400884607
 20
410.974443057075
 30
0.0
 10
140.5676354317462
 20
410.9925197513001
 30
0.0
 10
140.3891135699343
 20
411.0175283503008
 30
0.0
 10
140.1675621747341
 20
411.0483153900998
 30
0.0
 10
139.8080892445549
 20
411.0978093074273
 30
0.0
 10
139.4499494642139
 20
411.1463326309874
 30
0.0
 10
139.0816835340688
 20
411.195657900565
 30
0.0
 10
138.7383536549679
 20
411.2409694792059
 30
0.0
 10
138.4214415498797
 20
411.2823719840605
 30
0.0
 10
138.2406008846651
 20
411.3055357220832
 30
0.0
 10
138.1512189928989
 20
411.3169845780271
 30
0.0
  0
SPLINE
  5
93
330
1F
100
AcDbEntity
  8
0
  6
Continuous
 62
     7
370
    25
100
AcDbSpline
210
0.0
220
0.0
230
1.0
 70
     8
 71
     3
 72
    11
 73
     7
 74
     0
 42
0.000000001
 43
0.00000001
 40
0.0
 40
0.0
 40
0.0
 40
0.0
 40
0.2087080370882013
 40
0.4852727476397601
 40
0.7466146312479939
 40
1.0
 40
1.0
 40
1.0
 40
1.0
 10
122.3579449148256
 20
412.3562874437362
 30
0.0
 10
122.3581608770291
 20
412.3562928215081
 30
0.0
 10
122.3586630166368
 20
412.3563053255123
 30
0.0
 10
122.0562604154529
 20
412.3593758759748
 30
0.0
 10
121.5370022650043
 20
412.363263573526
 30
0.0
 10
121.1184189695191
 20
412.3639941367861
 30
0.0
 10
120.9123624955445
 20
412.3643537719912
 30
0.0
  0
LINE
  5
94
330
1F
100
AcDbEntity
  8
0
  6
Continuous
 62
     7
370
    25
100
AcDbLine
 10
131.0835214166
 20
384.7260452792
 30
0.0
 11
132.0081722276
 21
385.208152619
 31
0.0
  0
LINE
  5
95
330
1F
100
AcDbEntity
  8
0
  6
Continuous
 62
     7
370
    25
100
AcDbLine
 10
109.8165527635
 20
385.208152619
 30
0.0
 11
110.7412035745
 21
384.7260452792
 31
0.0
  0
LINE
  5
96
330
1F
100
AcDbEntity
  8
0
  6
Continuous
 62
     7
370
    25
100
AcDbLine
 10
132.9123624955
 20
386.1894485746
 30
0.0
 11
132.9123624955
 21
392.8381038413
 31
0.0
  0
LINE
  5
97
330
1F
100
AcDbEntity
  8
0
  6
Continuous
 62
     7
370
    25
100
AcDbLine
 10
108.9123624955
 20
392.8384840699
 30
0.0
 11
108.9123624955
 21
386.1894485746
 31
0.0
  0
SPLINE
  5
98
330
1F
100
AcDbEntity
  8
0
  6
Continuous
 62
     7
370
    25
100
AcDbSpline
210
0.0
220
0.0
230
1.0
 70
     8
 71
     3
 72
    13
 73
     9
 74
     0
 42
0.000000001
 43
0.00000001
 40
0.0
 40
0.0
 40
0.0
 40
0.0
 40
0.1356722583601225
 40
0.2893274437780926
 40
0.4696148195429052
 40
0.6742060520560736
 40
0.8999057237807007
 40
1.0
 40
1.0
 40
1.0
 40
1.0
 10
120.9123624955445
 20
446.7645520156336
 30
0.0
 10
120.7066250713987
 20
446.7642464217386
 30
0.0
 10
120.267880380796
 20
446.7635947284482
 30
0.0
 10
119.7823872214327
 20
446.7599910767577
 30
0.0
 10
119.4683171019108
 20
446.7570016623587
 30
0.0
 10
119.2822232154645
 20
446.7548535380257
 30
0.0
 10
119.1988758404704
 20
446.7538248095422
 30
0.0
 10
119.2214621196242
 20
446.7540751146205
 30
0.0
 10
119.2284013438751
 20
446.7541520163119
 30
0.0
  0
SPLINE
  5
99
330
1F
100
AcDbEntity
  8
0
  6
Continuous
 62
     7
370
    25
100
AcDbSpline
210
0.0
220
0.0
230
1.0
 70
     8
 71
     3
 72
    22
 73
    18
 74
     0
 42
0.000000001
 43
0.00000001
 40
0.0
 40
0.0
 40
0.0
 40
0.0
 40
0.1431820012189829
 40
0.3085508038740481
 40
0.452503304683059
 40
0.5401297410001891
 40
0.6082551634983872
 40
0.6593488341403501
 40
0.6968264910686452
 40
0.711993789484077
 40
0.7257607376756539
 40
0.738980005206211
 40
0.7524314681801122
 40
0.7820674113097581
 40
0.8170690004382629
 40
0.9023099944036983
 40
1.0
 40
1.0
 40
1.0
 40
1.0
 10
107.1274917865717
 20
446.0849432422798
 30
0.0
 10
106.9813336271143
 20
446.0709612918849
 30
0.0
 10
106.6663693354477
 20
446.0408308146089
 30
0.0
 10
106.16450382445
 20
445.9989486133922
 30
0.0
 10
105.6416353415424
 20
445.9345790855057
 30
0.0
 10
105.1160919449347
 20
445.8751682881048
 30
0.0
 10
104.6141782781362
 20
445.8153069019605
 30
0.0
 10
104.0818228274617
 20
445.7502823507251
 30
0.0
 10
103.5679829171583
 20
445.685852465682
 30
0.0
 10
103.1345229773842
 20
445.6302170567797
 30
0.0
 10
102.8226715374355
 20
445.5896281525714
 30
0.0
 10
102.5043691968576
 20
445.5476106031846
 30
0.0
 10
102.0626910171445
 20
445.4884669252606
 30
0.0
 10
101.4953478445563
 20
445.4107486259089
 30
0.0
 10
100.5666481784638
 20
445.2796974736319
 30
0.0
 10
99.44698789127207
 20
445.1147089228359
 30
0.0
 10
98.59744501140635
 20
444.9803888727931
 30
0.0
 10
98.14376658135781
 20
444.9086584035353
 30
0.0
  0
SPLINE
  5
9A
330
1F
100
AcDbEntity
  8
0
  6
Continuous
 62
     7
370
    25
100
AcDbSpline
210
0.0
220
0.0
230
1.0
 70
     8
 71
     3
 72
    21
 73
    17
 74
     0
 42
0.000000001
 43
0.00000001
 40
0.0
 40
0.0
 40
0.0
 40
0.0
 40
0.0589907826946816
 40
0.1250547026182634
 40
0.1801918245240127
 40
0.2126594580301773
 40
0.226510928192463
 40
0.2396507770744515
 40
0.2532998732132282
 40
0.2688502117780303
 40
0.3094251614975128
 40
0.3966817117946658
 40
0.5131097757202753
 40
0.6528098718321269
 40
0.8379820495007124
 40
1.0
 40
1.0
 40
1.0
 40
1.0
 10
143.5285075967234
 20
444.9326078307867
 30
0.0
 10
143.2984221364194
 20
444.9690097401104
 30
0.0
 10
142.8106634137723
 20
445.0461782355478
 30
0.0
 10
142.0555421422906
 20
445.1606074422171
 30
0.0
 10
141.3120627248895
 20
445.2701735419045
 30
0.0
 10
140.6849644175242
 20
445.3598794178247
 30
0.0
 10
140.2520398828961
 20
445.4206260760108
 30
0.0
 10
139.9403660129119
 20
445.46384518911
 30
0.0
 10
139.6325620591745
 20
445.5060313912172
 30
0.0
 10
139.2016128594925
 20
445.5644254494246
 30
0.0
 10
138.5736888084527
 20
445.647836855777
 30
0.0
 10
137.867332976372
 20
445.738741750763
 30
0.0
 10
137.1097568779031
 20
445.8306013872369
 30
0.0
 10
136.3080668775976
 20
445.9278888804614
 30
0.0
 10
135.5266112614231
 20
446.0063576224466
 30
0.0
 10
134.9994431782357
 20
446.0561581814309
 30
0.0
 10
134.7534376455975
 20
446.079397852855
 30
0.0
  0
SPLINE
  5
9B
330
1F
100
AcDbEntity
  8
0
  6
Continuous
 62
     7
370
    25
100
AcDbSpline
210
0.0
220
0.0
230
1.0
 70
     8
 71
     3
 72
    13
 73
     9
 74
     0
 42
0.000000001
 43
0.00000001
 40
0.0
 40
0.0
 40
0.0
 40
0.0
 40
0.1000942762192966
 40
0.3257939479439251
 40
0.530385180457094
 40
0.7106725562219068
 40
0.864327741639877
 40
1.0
 40
1.0
 40
1.0
 40
1.0
 10
122.5963236472139
 20
446.7541520163119
 30
0.0
 10
122.6032628714648
 20
446.7540751146204
 30
0.0
 10
122.6258491506186
 20
446.7538248095422
 30
0.0
 10
122.5425017756245
 20
446.7548535380258
 30
0.0
 10
122.3564078891782
 20
446.7570016623586
 30
0.0
 10
122.0423377696563
 20
446.7599910767578
 30
0.0
 10
121.556844610293
 20
446.7635947284483
 30
0.0
 10
121.1180999196903
 20
446.7642464217386
 30
0.0
 10
120.9123624955445
 20
446.7645520156336
 30
0.0
  0
LINE
  5
9C
330
1F
100
AcDbEntity
  8
0
  6
Continuous
 62
     7
370
    25
100
AcDbLine
 10
144.0507036408
 20
410.4227385357
 30
0.0
 11
143.5712092707
 21
410.555553102
 31
0.0
  0
LINE
  5
9D
330
1F
100
AcDbEntity
  8
0
  6
Continuous
 62
     7
370
    25
100
AcDbLine
 10
98.2535157204
 20
410.555553102
 30
0.0
 11
97.7740213503
 21
410.4227385357
 31
0.0
  0
SPLINE
  5
9E
330
1F
100
AcDbEntity
  8
0
  6
Continuous
 62
     7
370
    25
100
AcDbSpline
210
0.0
220
0.0
230
1.0
 70
     8
 71
     3
 72
    10
 73
     6
 74
     0
 42
0.000000001
 43
0.00000001
 40
0.0
 40
0.0
 40
0.0
 40
0.0
 40
0.2048753551909408
 40
0.5948806384666457
 40
1.0
 40
1.0
 40
1.0
 40
1.0
 10
144.8791165434435
 20
430.5460160570291
 30
0.0
 10
144.8779725704357
 20
430.7388995259495
 30
0.0
 10
144.8746509049643
 20
431.2989602566998
 30
0.0
 10
144.867740322141
 20
432.5307289197407
 30
0.0
 10
144.8621345718203
 20
433.6202334447687
 30
0.0
 10
144.8592784183786
 20
434.1753405974001
 30
0.0
  0
SPLINE
  5
9F
330
1F
100
AcDbEntity
  8
0
  6
Continuous
 62
     7
370
    25
100
AcDbSpline
210
0.0
220
0.0
230
1.0
 70
     8
 71
     3
 72
    10
 73
     6
 74
     0
 42
0.000000001
 43
0.00000001
 40
0.0
 40
0.0
 40
0.0
 40
0.0
 40
0.0065850805013935
 40
0.6374919244210557
 40
1.0
 40
1.0
 40
1.0
 40
1.0
 10
96.96019708544476
 20
434.17545177353
 30
0.0
 10
96.96015553747125
 20
434.1690167843595
 30
0.0
 10
96.95613333947597
 20
433.5460549801661
 30
0.0
 10
96.95172935795443
 20
432.6277734809108
 30
0.0
 10
96.94888744363794
 20
431.8585198523041
 30
0.0
 10
96.94785039771723
 20
431.5778107074495
 30
0.0
  0
LINE
  5
A0
330
1F
100
AcDbEntity
  8
0
  6
Continuous
 62
     7
370
    25
100
AcDbLine
 10
144.0290115196
 20
444.8343101835
 30
0.0
 11
143.6304106908
 21
444.9293891229
 31
0.0
  0
LINE
  5
A1
330
1F
100
AcDbEntity
  8
0
  6
Continuous
 62
     7
370
    25
100
AcDbLine
 10
98.1943143003
 20
444.9293891229
 30
0.0
 11
97.7957134715
 21
444.8343101835
 31
0.0
  0
ARC
  5
A2
330
1F
100
AcDbEntity
  8
0
  6
Continuous
 62
     7
370
    25
100
AcDbCircle
 10
120.9123624955
 20
408.3640460534
 30
0.0
 40
21.64486082191335
100
AcDbArc
 50
162.7354694863
 51
170.9531540197
  0
ARC
  5
A3
330
1F
100
AcDbEntity
  8
0
  6
Continuous
 62
     7
370
    25
100
AcDbCircle
 10
120.9123624955
 20
408.3640460534
 30
0.0
 40
21.64486082191336
100
AcDbArc
 50
9.0468459803
 51
17.2994163054
  0
ARC
  5
A4
330
1F
100
AcDbEntity
  8
0
  6
Continuous
 62
     7
370
    25
100
AcDbCircle
 10
132.4123624955
 20
410.1951068284
 30
0.0
 40
9.999999999999975
100
AcDbArc
 50
3.1506973634
 51
9.0468459803
  0
ARC
  5
A5
330
1F
100
AcDbEntity
  8
0
  6
Continuous
 62
     7
370
    25
100
AcDbCircle
 10
109.4123624955
 20
410.1951068284
 30
0.0
 40
10.0
100
AcDbArc
 50
170.9531540197
 51
176.8337633772
  0
LINE
  5
A6
330
1F
100
AcDbEntity
  8
0
  6
Continuous
 62
     7
370
    25
100
AcDbLine
 10
144.1184000939
 20
444.7880120093
 30
0.0
 11
144.1106930315
 21
444.7923999132
 31
0.0
  0
LINE
  5
A7
330
1F
100
AcDbEntity
  8
0
  6
Continuous
 62
     7
370
    25
100
AcDbLine
 10
97.7140319596
 20
444.7923999132
 30
0.0
 11
97.7063248973
 21
444.7880120094
 31
0.0
  0
SPLINE
  5
A8
330
1F
100
AcDbEntity
  8
0
  6
Continuous
 62
     7
370
    25
100
AcDbSpline
210
0.0
220
0.0
230
1.0
 70
     8
 71
     3
 72
    11
 73
     7
 74
     0
 42
0.000000001
 43
0.00000001
 40
0.0
 40
0.0
 40
0.0
 40
0.0
 40
0.2448605469613468
 40
0.5643747920327746
 40
0.8685316014596451
 40
1.0
 40
1.0
 40
1.0
 40
1.0
 10
97.63215658829915
 20
444.7146965177387
 30
0.0
 10
97.50036974312856
 20
444.601632296865
 30
0.0
 10
97.19661654867231
 20
444.3410325516887
 30
0.0
 10
97.14380139693307
 20
443.9797878073367
 30
0.0
 10
97.08140193255058
 20
443.5367253897009
 30
0.0
 10
97.06562963714457
 20
443.1348306805178
 30
0.0
 10
97.06086967748107
 20
443.0135418918256
 30
0.0
  0
LINE
  5
A9
330
1F
100
AcDbEntity
  8
0
  6
Continuous
 62
     7
370
    25
100
AcDbLine
 10
144.7287686437
 20
443.6149140549
 30
0.0
 11
144.6986175073
 21
443.7653826375
 31
0.0
  0
SPLINE
  5
AA
330
1F
100
AcDbEntity
  8
0
  6
Continuous
 62
     7
370
    25
100
AcDbSpline
210
0.0
220
0.0
230
1.0
 70
     8
 71
     3
 72
    15
 73
    11
 74
     0
 42
0.000000001
 43
0.00000001
 40
0.0
 40
0.0
 40
0.0
 40
0.0
 40
0.0636355095872607
 40
0.1273845492478234
 40
0.2625391296597447
 40
0.4004285307495286
 40
0.5327986525552221
 40
0.7068678849954483
 40
0.8832892344454741
 40
1.0
 40
1.0
 40
1.0
 40
1.0
 10
140.1421056328452
 20
445.4547322777323
 30
0.0
 10
139.7287503448183
 20
445.5092488803082
 30
0.0
 10
138.9013023148418
 20
445.6183793467838
 30
0.0
 10
137.3147836360809
 20
445.8138902708978
 30
0.0
 10
135.570783221725
 20
446.0288411426217
 30
0.0
 10
133.5058302335389
 20
446.2615688694826
 30
0.0
 10
130.9035280118258
 20
446.4851806700606
 30
0.0
 10
127.8570581907679
 20
446.6543441961728
 30
0.0
 10
124.8234414469517
 20
446.7588922096212
 30
0.0
 10
122.9111234727188
 20
446.7588526098672
 30
0.0
 10
122.1497326754227
 20
446.7588368431962
 30
0.0
  0
SPLINE
  5
AB
330
1F
100
AcDbEntity
  8
0
  6
Continuous
 62
     7
370
    25
100
AcDbSpline
210
0.0
220
0.0
230
1.0
 70
     8
 71
     3
 72
    15
 73
    11
 74
     0
 42
0.000000001
 43
0.00000001
 40
0.0
 40
0.0
 40
0.0
 40
0.0
 40
0.11089489302582
 40
0.2387021481901271
 40
0.3629435151840097
 40
0.4882486074330019
 40
0.6189804942509384
 40
0.749556489494229
 40
0.8749230905400588
 40
1.0
 40
1.0
 40
1.0
 40
1.0
 10
120.4860169418418
 20
446.7636348752644
 30
0.0
 10
119.7283944911876
 20
446.7653505154985
 30
0.0
 10
118.0976060792622
 20
446.7690434448861
 30
0.0
 10
115.6124394790355
 20
446.7077329528983
 30
0.0
 10
113.059687450245
 20
446.6018589357807
 30
0.0
 10
110.7390949132271
 20
446.4709474796239
 30
0.0
 10
108.6712091511749
 20
446.2802508913014
 30
0.0
 10
106.5844482784756
 20
446.0516751403579
 30
0.0
 10
104.2085807366617
 20
445.7815636943133
 30
0.0
 10
102.5239569415809
 20
445.5635920396171
 30
0.0
 10
101.6826193582438
 20
445.4547322777323
 30
0.0
  0
SPLINE
  5
AC
330
1F
100
AcDbEntity
  8
0
  6
Continuous
 62
     7
370
    25
100
AcDbSpline
210
0.0
220
0.0
230
1.0
 70
     8
 71
     3
 72
    15
 73
    11
 74
     0
 42
0.000000001
 43
0.00000001
 40
0.0
 40
0.0
 40
0.0
 40
0.0
 40
0.1475053658666735
 40
0.2878197528285517
 40
0.4215746480398964
 40
0.5502334234123132
 40
0.6746101081529732
 40
0.7938804421362062
 40
0.902758574899553
 40
0.9999999999999999
 40
0.9999999999999999
 40
0.9999999999999999
 40
0.9999999999999999
 10
144.8483906833461
 20
400.0893618332597
 30
0.0
 10
144.8478506195778
 20
400.8366159461575
 30
0.0
 10
144.8467968204878
 20
402.2946950662674
 30
0.0
 10
144.8396012094692
 20
404.4129145554883
 30
0.0
 10
144.8248996314348
 20
406.2542581649703
 30
0.0
 10
144.7979528573296
 20
407.7708008300848
 30
0.0
 10
144.7518456360347
 20
408.9193131291077
 30
0.0
 10
144.6790926214543
 20
409.6446481623163
 30
0.0
 10
144.5843561989975
 20
409.9616105617155
 30
0.0
 10
144.4837582193678
 20
410.0797445051152
 30
0.0
 10
144.4362989146672
 20
410.1354767855838
 30
0.0
  0
SPLINE
  5
AD
330
1F
100
AcDbEntity
  8
0
  6
Continuous
 62
     7
370
    25
100
AcDbSpline
210
0.0
220
0.0
230
1.0
 70
     8
 71
     3
 72
    15
 73
    11
 74
     0
 42
0.000000001
 43
0.00000001
 40
0.0
 40
0.0
 40
0.0
 40
0.0
 40
0.0972414251004469
 40
0.2061195578637937
 40
0.3253898918470267
 40
0.4497665765876872
 40
0.5784253519601034
 40
0.7121802471714465
 40
0.8524946341333264
 40
1.0
 40
1.0
 40
1.0
 40
1.0
 10
97.38842607642178
 20
410.1354767855838
 30
0.0
 10
97.34096677172116
 20
410.0797445051152
 30
0.0
 10
97.24036879209149
 20
409.9616105617155
 30
0.0
 10
97.14563236963468
 20
409.6446481623163
 30
0.0
 10
97.07287935505433
 20
408.9193131291077
 30
0.0
 10
97.0267721337594
 20
407.7708008300848
 30
0.0
 10
96.99982535965422
 20
406.2542581649704
 30
0.0
 10
96.98512378161983
 20
404.4129145554883
 30
0.0
 10
96.97792817060117
 20
402.2946950662674
 30
0.0
 10
96.97687437151122
 20
400.8366159461575
 30
0.0
 10
96.97633430774289
 20
400.0893618332597
 30
0.0
  0
LINE
  5
AE
330
1F
100
AcDbEntity
  8
0
  6
Continuous
 62
     7
370
    25
100
AcDbLine
 10
142.5152955276
 20
410.7287364087
 30
0.0
 11
142.3887688771
 21
410.7471509962
 31
0.0
  0
LINE
  5
AF
330
1F
100
AcDbEntity
  8
0
  6
Continuous
 62
     7
370
    25
100
AcDbLine
 10
99.4371789671
 20
410.7473289693
 30
0.0
 11
99.3094294635
 21
410.7287364087
 31
0.0
  0
SPLINE
  5
B0
330
1F
100
AcDbEntity
  8
0
  6
Continuous
 62
     7
370
    25
100
AcDbSpline
210
0.0
220
0.0
230
1.0
 70
     8
 71
     3
 72
    26
 73
    22
 74
     0
 42
0.000000001
 43
0.00000001
 40
0.0
 40
0.0
 40
0.0
 40
0.0
 40
0.0686307930739338
 40
0.1380841751471656
 40
0.1904591498271053
 40
0.2431934651057693
 40
0.2970635396179432
 40
0.3513296017297209
 40
0.4038621792058563
 40
0.4567671939647043
 40
0.5108481382511316
 40
0.5653347295592807
 40
0.6173747812410233
 40
0.669768095177069
 40
0.7232626485802878
 40
0.7771351131425267
 40
0.8300232314845936
 40
0.883283324342344
 40
0.9377375949652285
 40
0.9926163981907917
 40
1.0
 40
1.0
 40
1.0
 40
1.0
 10
120.9124068989491
 20
394.8122794075649
 30
0.0
 10
120.4806077056043
 20
394.8082303239372
 30
0.0
 10
119.6118338976432
 20
394.800083625527
 30
0.0
 10
118.4275663371405
 20
394.7379909538225
 30
0.0
 10
117.3652696271568
 20
394.6597852369609
 30
0.0
 10
116.4220714926869
 20
394.5732986023448
 30
0.0
 10
115.4992567849976
 20
394.4753408638715
 30
0.0
 10
114.6162704970866
 20
394.3707539300585
 30
0.0
 10
113.7829993057278
 20
394.2637096098907
 30
0.0
 10
113.000286768255
 20
394.1563172272323
 30
0.0
 10
112.2645871423354
 20
394.0487466405212
 30
0.0
 10
111.5952904751611
 20
393.9433547787159
 30
0.0
 10
110.9983396915539
 20
393.839809914636
 30
0.0
 10
110.4724436812813
 20
393.7357239569233
 30
0.0
 10
110.0129184458897
 20
393.6262343905927
 30
0.0
 10
109.6285035968236
 20
393.5084174671972
 30
0.0
 10
109.3239616640049
 20
393.3785048692371
 30
0.0
 10
109.0969275588697
 20
393.2326227474063
 30
0.0
 10
108.9599462923514
 20
393.0628479001701
 30
0.0
 10
108.9025084930303
 20
392.930511194576
 30
0.0
 10
108.9156797559095
 20
392.8482678094352
 30
0.0
 10
108.917241715496
 20
392.8385146942612
 30
0.0
  0
SPLINE
  5
B1
330
1F
100
AcDbEntity
  8
0
  6
Continuous
 62
     7
370
    25
100
AcDbSpline
210
0.0
220
0.0
230
1.0
 70
     8
 71
     3
 72
    27
 73
    23
 74
     0
 42
0.000000001
 43
0.00000001
 40
0.0
 40
0.0
 40
0.0
 40
0.0
 40
0.0093452637353891
 40
0.0603428200212814
 40
0.1116910747259252
 40
0.164122631449085
 40
0.2169197211084305
 40
0.2688063198621129
 40
0.3210377853279587
 40
0.374354449669265
 40
0.4280490657851571
 40
0.4809603075702283
 40
0.5342497183908833
 40
0.5887393072074367
 40
0.643645555264575
 40
0.6956959300190965
 40
0.7481046151082242
 40
0.8016334636310352
 40
0.855546762400346
 40
0.9274068955597404
 40
0.9635845760222547
 40
1.0
 40
1.0
 40
1.0
 40
1.0
 10
132.9060651560506
 20
392.8381422097336
 30
0.0
 10
132.9080717653801
 20
392.8504950915312
 30
0.0
 10
132.9210285388916
 20
392.9302582468756
 30
0.0
 10
132.8663461198313
 20
393.056970430551
 30
0.0
 10
132.7411335742834
 20
393.2199070274024
 30
0.0
 10
132.5279480988185
 20
393.3639474987456
 30
0.0
 10
132.23761677024
 20
393.493071496227
 30
0.0
 10
131.8711340475827
 20
393.6097807101451
 30
0.0
 10
131.430137974743
 20
393.7186947073853
 30
0.0
 10
130.9115187240165
 20
393.8240998190241
 30
0.0
 10
130.3202308167814
 20
393.9283158907305
 30
0.0
 10
129.66279476013
 20
394.0330667317465
 30
0.0
 10
128.9402070546816
 20
394.1398595188516
 30
0.0
 10
128.1502465495944
 20
394.2492995480519
 30
0.0
 10
127.3133566067803
 20
394.3577250802393
 30
0.0
 10
126.4423669871582
 20
394.4619389314156
 30
0.0
 10
125.5413181988131
 20
394.5593629203129
 30
0.0
 10
124.5973312364584
 20
394.6481033699192
 30
0.0
 10
123.5094440687509
 20
394.7316625776213
 30
0.0
 10
122.5034284490743
 20
394.7840164915537
 30
0.0
 10
121.5979644241769
 20
394.8093299506217
 30
0.0
 10
121.1413653258038
 20
394.8112941110321
 30
0.0
 10
120.91231809214
 20
394.8122794075649
 30
0.0
  0
LINE
  5
B2
330
1F
100
AcDbEntity
  8
0
  6
Continuous
 62
     7
370
    25
100
AcDbLine
 10
98.1790338602
 20
410.5534034823
 30
0.0
 11
99.3338349051
 21
410.7277638038
 31
0.0
  0
SPLINE
  5
B3
330
1F
100
AcDbEntity
  8
0
  6
Continuous
 62
     7
370
    25
100
AcDbSpline
210
0.0
220
0.0
230
1.0
 70
     8
 71
     3
 72
    10
 73
     6
 74
     0
 42
0.000000001
 43
0.00000001
 40
0.0
 40
0.0
 40
0.0
 40
0.0
 40
0.1319483514042714
 40
0.7091139548382103
 40
1.0
 40
1.0
 40
1.0
 40
1.0
 10
104.2288245419291
 20
411.3825934381284
 30
0.0
 10
104.3695324001061
 20
411.3992468078769
 30
0.0
 10
105.125721505364
 20
411.4887449846865
 30
0.0
 10
106.3520910950121
 20
411.6210548374018
 30
0.0
 10
107.5152516670414
 20
411.7307630065071
 30
0.0
 10
107.9050293712058
 20
411.7675264588715
 30
0.0
  0
SPLINE
  5
B4
330
1F
100
AcDbEntity
  8
0
  6
Continuous
 62
     7
370
    25
100
AcDbSpline
210
0.0
220
0.0
230
1.0
 70
     8
 71
     3
 72
    18
 73
    14
 74
     0
 42
0.000000001
 43
0.00000001
 40
0.0
 40
0.0
 40
0.0
 40
0.0
 40
0.2499999999999999
 40
0.2499999999999999
 40
0.3749999999999998
 40
0.3749999999999998
 40
0.4999999999999997
 40
0.4999999999999997
 40
0.7499999999999998
 40
0.7499999999999998
 40
0.8749999999999999
 40
0.8749999999999999
 40
1.0
 40
1.0
 40
1.0
 40
1.0
 10
107.9050293712059
 20
411.7675264588715
 30
0.0
 10
108.8392982877131
 20
411.8531654816664
 30
0.0
 10
109.8239597319399
 20
411.934268704214
 30
0.0
 10
111.3761655115428
 20
412.0443167824976
 30
0.0
 10
111.9037512946529
 20
412.0788764398511
 30
0.0
 10
112.9702968289628
 20
412.1426256565491
 30
0.0
 10
113.51054415831
 20
412.1719084457577
 30
0.0
 10
115.1518980079458
 20
412.251246765283
 30
0.0
 10
116.2734807675652
 20
412.2927989066959
 30
0.0
 10
117.9980567791945
 20
412.3351911913387
 30
0.0
 10
118.5801709832733
 20
412.3459708432937
 30
0.0
 10
119.7438918745053
 20
412.3602943439236
 30
0.0
 10
120.3273321840524
 20
412.3638914961242
 30
0.0
 10
120.9123624955445
 20
412.3638664382831
 30
0.0
  0
SPLINE
  5
B5
330
1F
100
AcDbEntity
  8
0
  6
Continuous
 62
     7
370
    25
100
AcDbSpline
210
0.0
220
0.0
230
1.0
 70
     8
 71
     3
 72
    11
 73
     7
 74
     0
 42
0.000000001
 43
0.00000001
 40
0.0
 40
0.0
 40
0.0
 40
0.0
 40
0.3113541279961436
 40
0.6251609690231895
 40
0.9161585923500415
 40
1.0
 40
1.0
 40
1.0
 40
1.0
 10
133.9196956198832
 20
411.7675264588715
 30
0.0
 10
134.4106218177162
 20
411.7210237047599
 30
0.0
 10
135.3963415174401
 20
411.6276518679714
 30
0.0
 10
136.6965828763656
 20
411.4872966361852
 30
0.0
 10
137.6183219238312
 20
411.3822242099446
 30
0.0
 10
138.0537442955467
 20
411.3283645418321
 30
0.0
 10
138.1511365667619
 20
411.3163175829592
 30
0.0
  0
LINE
  5
B6
330
1F
100
AcDbEntity
  8
0
  6
Continuous
 62
     7
370
    25
100
AcDbLine
 10
143.5719291261
 20
410.5542473246
 30
0.0
 11
143.4432930601
 21
410.5558015274
 31
0.0
  0
SPLINE
  5
B7
330
1F
100
AcDbEntity
  8
0
  6
Continuous
 62
     7
370
    25
100
AcDbSpline
210
0.0
220
0.0
230
1.0
 70
     8
 71
     3
 72
    18
 73
    14
 74
     0
 42
0.000000001
 43
0.00000001
 40
0.0
 40
0.0
 40
0.0
 40
0.0
 40
0.2499999999999998
 40
0.2499999999999998
 40
0.3749999999999997
 40
0.3749999999999997
 40
0.4999999999999997
 40
0.4999999999999997
 40
0.7499999999999998
 40
0.7499999999999998
 40
0.8749999999999999
 40
0.8749999999999999
 40
1.0
 40
1.0
 40
1.0
 40
1.0
 10
120.9123624955445
 20
412.3638664382831
 30
0.0
 10
122.082436654036
 20
412.363916554545
 30
0.0
 10
123.2442795147359
 20
412.349477584117
 30
0.0
 10
124.9747311961482
 20
412.306984998576
 30
0.0
 10
125.5466690822602
 20
412.2894004591332
 30
0.0
 10
126.6719869178608
 20
412.2481728711269
 30
0.0
 10
127.2267839563809
 20
412.224496039691
 30
0.0
 10
128.8679185416892
 20
412.1450899553192
 30
0.0
 10
129.9311535571443
 20
412.0809751652372
 30
0.0
 10
131.4782970019671
 20
411.9713228253441
 30
0.0
 10
131.9860791598955
 20
411.9325007110393
 30
0.0
 10
132.9723649024526
 20
411.8520694789844
 30
0.0
 10
133.4525552829199
 20
411.8103465091363
 30
0.0
 10
133.9196956198831
 20
411.7675264588715
 30
0.0
  0
LWPOLYLINE
  5
B8
330
1F
100
AcDbEntity
  8
0
  6
Continuous
 62
     7
370
    25
100
AcDbPolyline
 90
       21
 70
   128
 43
0.0
 10
120.9123624955
 20
383.263477973
 10
122.633141611
 20
383.2925592033
 10
124.3115494337
 20
383.3790868178
 10
125.9062579927
 20
383.5209302195
 10
127.3780002708
 20
383.7145967531
 10
128.6905370886
 20
383.9553177058
 10
129.8115494337
 20
384.2371657288
 10
130.7134342616
 20
384.5532007884
 10
131.3739841748
 20
384.8956410526
 10
131.7769342421
 20
385.2560545055
 10
131.9123624955
 20
385.6255665718
 10
131.7769342421
 20
385.9950786382
 10
131.3739841748
 20
386.3554920911
 10
130.7134342616
 20
386.6979323552
 10
129.8115494337
 20
387.0139674148
 10
128.6905370886
 20
387.2958154378
 10
127.3780002708
 20
387.5365363905
 10
125.9062579927
 20
387.7302029241
 10
124.3115494337
 20
387.8720463258
 10
122.633141611
 20
387.9585739403
 10
120.9123624955
 20
387.9876551707
  0
SPLINE
  5
B9
330
1F
100
AcDbEntity
  8
0
  6
Continuous
 62
     7
370
    25
100
AcDbSpline
210
0.0
220
0.0
230
1.0
 70
     8
 71
     3
 72
     8
 73
     4
 74
     0
 42
0.000000001
 43
0.00000001
 40
0.0
 40
0.0
 40
0.0
 40
0.0
 40
1.0
 40
1.0
 40
1.0
 40
1.0
 10
125.7081940188572
 20
388.5515371734637
 30
0.0
 10
124.1274075844391
 20
388.1952960055651
 30
0.0
 10
122.5308815769224
 20
387.9876551706574
 30
0.0
 10
120.9123624955445
 20
387.9876551706574
 30
0.0
  0
LWPOLYLINE
  5
BA
330
1F
100
AcDbEntity
  8
0
  6
Continuous
 62
     7
370
    25
100
AcDbPolyline
 90
       12
 70
   128
 43
0.0
 10
132.0081722276
 20
385.208152619
 10
132.4115819483
 20
385.452810874
 10
132.7865073791
 20
385.8172258801
 10
132.9123624955
 20
386.1894485746
 10
132.7865073791
 20
386.5616712691
 10
132.4115819483
 20
386.9260862752
 10
131.7954505837
 20
387.2750496774
 10
130.951037166
 20
387.6012416707
 10
129.8960539868
 20
387.8978200999
 10
128.6526302179
 20
388.1585639796
 10
127.2468477331
 20
388.3780039845
 10
125.7081940189
 20
388.5515371735
  0
LINE
  5
BB
330
1F
100
AcDbEntity
  8
0
  6
Continuous
 62
     7
370
    25
100
AcDbLine
 10
125.7081940189
 20
391.894344284
 30
0.0
 11
125.7081940189
 21
388.5515371735
 31
0.0
  0
SPLINE
  5
BC
330
1F
100
AcDbEntity
  8
0
  6
Continuous
 62
     7
370
    25
100
AcDbSpline
210
0.0
220
0.0
230
1.0
 70
     8
 71
     3
 72
    10
 73
     6
 74
     0
 42
0.000000001
 43
0.00000001
 40
0.0
 40
0.0
 40
0.0
 40
0.0
 40
0.5
 40
0.5
 40
1.0
 40
1.0
 40
1.0
 40
1.0
 10
120.9123624955445
 20
387.9876551706574
 30
0.0
 10
120.1049876442687
 20
387.9876551706574
 30
0.0
 10
119.2881515074247
 20
388.0393832823488
 30
0.0
 10
117.6866819157781
 20
388.2337902199218
 30
0.0
 10
116.8972715471925
 20
388.3755918792771
 30
0.0
 10
116.1165309722318
 20
388.5515371734637
 30
0.0
  0
LINE
  5
BD
330
1F
100
AcDbEntity
  8
0
  6
Continuous
 62
     7
370
    25
100
AcDbLine
 10
116.1165309722
 20
388.5515371735
 30
0.0
 11
116.1165309722
 21
391.894344284
 31
0.0
  0
LINE
  5
BE
330
1F
100
AcDbEntity
  8
0
  6
Continuous
 62
     7
370
    25
100
AcDbLine
 10
116.1165309722
 20
391.894344284
 30
0.0
 11
125.7081940189
 21
391.894344284
 31
0.0
  0
LWPOLYLINE
  5
BF
330
1F
100
AcDbEntity
  8
0
  6
Continuous
 62
     7
370
    25
100
AcDbPolyline
 90
       12
 70
   128
 43
0.0
 10
116.1165309722
 20
388.5515371735
 10
114.577877258
 20
388.3780039845
 10
113.1720947732
 20
388.1585639796
 10
111.9286710042
 20
387.8978200999
 10
110.8736878251
 20
387.6012416707
 10
110.0292744074
 20
387.2750496774
 10
109.4131430428
 20
386.9260862752
 10
109.0382176119
 20
386.5616712691
 10
108.9123624955
 20
386.1894485746
 10
109.0382176119
 20
385.8172258801
 10
109.4131430428
 20
385.452810874
 10
109.8165527635
 20
385.208152619
  0
LWPOLYLINE
  5
C0
330
1F
100
AcDbEntity
  8
0
  6
Continuous
 62
     7
370
    25
100
AcDbPolyline
 90
       21
 70
   128
 43
0.0
 10
120.9123624955
 20
387.9876551707
 10
119.1915833801
 20
387.9585739403
 10
117.5131755574
 20
387.8720463258
 10
115.9184669984
 20
387.7302029241
 10
114.4467247203
 20
387.5365363905
 10
113.1341879025
 20
387.2958154378
 10
112.0131755574
 20
387.0139674148
 10
111.1112907295
 20
386.6979323552
 10
110.4507408163
 20
386.3554920911
 10
110.047790749
 20
385.9950786382
 10
109.9123624955
 20
385.6255665718
 10
110.047790749
 20
385.2560545055
 10
110.4507408163
 20
384.8956410526
 10
111.1112907295
 20
384.5532007884
 10
112.0131755574
 20
384.2371657288
 10
113.1341879025
 20
383.9553177058
 10
114.4467247203
 20
383.7145967531
 10
115.9184669984
 20
383.5209302195
 10
117.5131755574
 20
383.3790868178
 10
119.1915833801
 20
383.2925592033
 10
120.9123624955
 20
383.263477973
  0
ARC
  5
C1
330
1F
100
AcDbEntity
  8
0
  6
Continuous
 62
     7
370
    25
100
AcDbCircle
 10
120.9123624955
 20
338.8215311147
 30
0.0
 40
53.289056078187
100
AcDbArc
 50
84.8365910358
 51
95.1634089642
  0
LINE
  5
C2
330
1F
100
AcDbEntity
  8
0
  6
Continuous
 62
     7
370
    25
100
AcDbLine
 10
98.1588426525
 20
444.9280168614
 30
0.0
 11
98.2876809709
 21
444.9298634578
 31
0.0
  0
LINE
  5
C3
330
1F
100
AcDbEntity
  8
0
  6
Continuous
 62
     7
370
    25
100
AcDbLine
 10
143.6631185943
 20
444.927396579
 30
0.0
 11
143.5277477215
 21
444.927894401
 31
0.0
  0
SPLINE
  5
C4
330
1F
100
AcDbEntity
  8
0
  6
Continuous
 62
     7
370
    25
100
AcDbSpline
210
0.0
220
0.0
230
1.0
 70
     8
 71
     3
 72
    14
 73
    10
 74
     0
 42
0.000000001
 43
0.00000001
 40
0.0
 40
0.0
 40
0.0
 40
0.0
 40
0.4999999999999997
 40
0.4999999999999997
 40
0.7499999999999997
 40
0.7499999999999997
 40
0.8749999999999998
 40
0.8749999999999998
 40
1.0
 40
1.0
 40
1.0
 40
1.0
 10
96.96405629305423
 20
400.0574362510046
 30
0.0
 10
96.96068657555742
 20
389.3571004041444
 30
0.0
 10
96.95548841647714
 20
378.65519856818
 30
0.0
 10
96.94183730581764
 20
362.5973322006841
 30
0.0
 10
96.93680685881378
 20
357.2442989110907
 30
0.0
 10
96.93111908889504
 20
349.2163401962589
 30
0.0
 10
96.92923309213481
 20
346.5403624596826
 30
0.0
 10
96.92735538544207
 20
341.1900293694919
 30
0.0
 10
96.928102220547
 20
338.5163065509647
 30
0.0
 10
96.92794070152522
 20
335.841805762473
 30
0.0
  0
SPLINE
  5
C5
330
1F
100
AcDbEntity
  8
0
  6
Continuous
 62
     7
370
    25
100
AcDbSpline
210
0.0
220
0.0
230
1.0
 70
     8
 71
     3
 72
    28
 73
    24
 74
     0
 42
0.000000001
 43
0.00000001
 40
0.0
 40
0.0
 40
0.0
 40
0.0
 40
0.0513216771187389
 40
0.093257531775875
 40
0.1258319034948216
 40
0.1723136392439172
 40
0.214449852208402
 40
0.252513646307161
 40
0.2843745575477161
 40
0.3158712835509977
 40
0.3471190613958665
 40
0.3782359005369118
 40
0.409341314684361
 40
0.4405549718978189
 40
0.4719953329210669
 40
0.5037783501784492
 40
0.586382149177805
 40
0.6676355934608452
 40
0.7494614584648527
 40
0.8073384707729968
 40
0.8738011899245371
 40
0.9124870719756809
 40
0.9999999999999999
 40
0.9999999999999999
 40
0.9999999999999999
 40
0.9999999999999999
 10
97.010717213792
 20
409.1840507378469
 30
0.0
 10
97.00930048891314
 20
409.1814567580678
 30
0.0
 10
97.00672613295237
 20
409.1767431913011
 30
0.0
 10
97.00334874574021
 20
409.157144480249
 30
0.0
 10
97.00015812669774
 20
409.120132375732
 30
0.0
 10
96.99702467753295
 20
409.0483921257485
 30
0.0
 10
96.99382940317048
 20
408.9321565126853
 30
0.0
 10
96.99107703072076
 20
408.7789770325783
 30
0.0
 10
96.98866177078693
 20
408.6001552521413
 30
0.0
 10
96.98647928591816
 20
408.4101084492938
 30
0.0
 10
96.98439334205506
 20
408.1957171289199
 30
0.0
 10
96.98240250685768
 20
407.957779827842
 30
0.0
 10
96.98050520224575
 20
407.6960949389464
 30
0.0
 10
96.97869956889937
 20
407.4107197821912
 30
0.0
 10
96.97698351597472
 20
407.1016917763145
 30
0.0
 10
96.97449803473916
 20
406.5932980708101
 30
0.0
 10
96.97155482858929
 20
405.844567421782
 30
0.0
 10
96.9686246211304
 20
404.8004374552755
 30
0.0
 10
96.96670867051836
 20
403.787962978637
 30
0.0
 10
96.96549264092694
 20
402.8091658132558
 30
0.0
 10
96.96486478285343
 20
402.0243452411875
 30
0.0
 10
96.96439604698875
 20
401.0916336285082
 30
0.0
 10
96.96419542602274
 20
400.4809298945529
 30
0.0
 10
96.96405630483652
 20
400.0574356327461
 30
0.0
  0
SPLINE
  5
C6
330
1F
100
AcDbEntity
  8
0
  6
Continuous
 62
     7
370
    25
100
AcDbSpline
210
0.0
220
0.0
230
1.0
 70
     8
 71
     3
 72
    24
 73
    20
 74
     0
 42
0.000000001
 43
0.00000001
 40
0.0
 40
0.0
 40
0.0
 40
0.0
 40
0.1250000000000004
 40
0.1250000000000004
 40
0.250000000000001
 40
0.250000000000001
 40
0.3750000000000014
 40
0.3750000000000014
 40
0.5000000000000019
 40
0.5000000000000019
 40
0.6250000000000023
 40
0.6250000000000023
 40
0.6875000000000018
 40
0.6875000000000018
 40
0.7500000000000013
 40
0.7500000000000013
 40
0.8750000000000007
 40
0.8750000000000007
 40
1.0
 40
1.0
 40
1.0
 40
1.0
 10
144.8606686862525
 20
400.0574356327461
 30
0.0
 10
144.8604764430033
 20
400.6686902204365
 30
0.0
 10
144.860277950508
 20
401.2842037720475
 30
0.0
 10
144.8595372504839
 20
402.494769247625
 30
0.0
 10
144.8589601392371
 20
403.0922427372145
 30
0.0
 10
144.8572220443029
 20
404.2483515891687
 30
0.0
 10
144.8560806664172
 20
404.7920639020275
 30
0.0
 10
144.853144782787
 20
405.833652678499
 30
0.0
 10
144.8513772814064
 20
406.3252722138687
 30
0.0
 10
144.8473089252809
 20
407.2096550875084
 30
0.0
 10
144.8449447760766
 20
407.6125694482833
 30
0.0
 10
144.8410466965671
 20
408.1218002827322
 30
0.0
 10
144.8396861849807
 20
408.2761382991748
 30
0.0
 10
144.8368265254106
 20
408.5408629837152
 30
0.0
 10
144.8353348636282
 20
408.6589365759061
 30
0.0
 10
144.8306847558619
 20
408.9689916390629
 30
0.0
 10
144.827491062652
 20
409.0650653168224
 30
0.0
 10
144.820895344363
 20
409.1760294424211
 30
0.0
 10
144.8174883523001
 20
409.1799005759739
 30
0.0
 10
144.814007777297
 20
409.1840507378469
 30
0.0
  0
SPLINE
  5
C7
330
1F
100
AcDbEntity
  8
0
  6
Continuous
 62
     7
370
    25
100
AcDbSpline
210
0.0
220
0.0
230
1.0
 70
     8
 71
     3
 72
    10
 73
     6
 74
     0
 42
0.000000001
 43
0.00000001
 40
0.0
 40
0.0
 40
0.0
 40
0.0
 40
0.4999999999999998
 40
0.4999999999999998
 40
1.0
 40
1.0
 40
1.0
 40
1.0
 10
144.8967842895638
 20
335.841805762473
 30
0.0
 10
144.896158136632
 20
346.5454270058044
 30
0.0
 10
144.887446857509
 20
357.2487671817398
 30
0.0
 10
144.869205674552
 20
378.6526514201709
 30
0.0
 10
144.8640160388004
 20
389.3542200831358
 30
0.0
 10
144.8606686980348
 20
400.0574362510046
 30
0.0
  0
SPLINE
  5
C8
330
1F
100
AcDbEntity
  8
0
  6
Continuous
 62
     7
370
    25
100
AcDbSpline
210
0.0
220
0.0
230
1.0
 70
     8
 71
     3
 72
    11
 73
     7
 74
     0
 42
0.000000001
 43
0.00000001
 40
0.0
 40
0.0
 40
0.0
 40
0.0
 40
0.3096357007249884
 40
0.6396537407219416
 40
0.9696717807188975
 40
1.0
 40
1.0
 40
1.0
 40
1.0
 10
144.8139522835056
 20
409.183998295181
 30
0.0
 10
144.7985173805455
 20
409.3427512257576
 30
0.0
 10
144.7666315437608
 20
409.6707072904366
 30
0.0
 10
144.4995733004619
 20
410.0938351967483
 30
0.0
 10
144.2372588381039
 20
410.3542870072062
 30
0.0
 10
144.0630478530644
 20
410.411160709264
 30
0.0
 10
144.0483855419694
 20
410.4159474333188
 30
0.0
  0
SPLINE
  5
C9
330
1F
100
AcDbEntity
  8
0
  6
Continuous
 62
     7
370
    25
100
AcDbSpline
210
0.0
220
0.0
230
1.0
 70
     8
 71
     3
 72
    11
 73
     7
 74
     0
 42
0.000000001
 43
0.00000001
 40
0.0
 40
0.0
 40
0.0
 40
0.0
 40
0.3088870927010949
 40
0.6381091906682734
 40
0.9673312886354388
 40
1.0
 40
1.0
 40
1.0
 40
1.0
 10
97.01071721379202
 20
409.1840507378469
 30
0.0
 10
97.02615696850678
 20
409.3427932372007
 30
0.0
 10
97.05805292537242
 20
409.6707287520891
 30
0.0
 10
97.3250438723528
 20
410.094016187919
 30
0.0
 10
97.58850078715709
 20
410.354925102259
 30
0.0
 10
97.76396169706659
 20
410.4120099646353
 30
0.0
 10
97.77980095485869
 20
410.4171631457721
 30
0.0
  0
SPLINE
  5
CA
330
1F
100
AcDbEntity
  8
0
  6
Continuous
 62
     7
370
    25
100
AcDbSpline
210
0.0
220
0.0
230
1.0
 70
     8
 71
     3
 72
    10
 73
     6
 74
     0
 42
0.000000001
 43
0.00000001
 40
0.0
 40
0.0
 40
0.0
 40
0.0
 40
0.5
 40
0.5
 40
1.0
 40
1.0
 40
1.0
 40
1.0
 10
122.8627867430305
 20
428.0036404931011
 30
0.0
 10
123.1007493412099
 20
427.8954123913682
 30
0.0
 10
123.3229126740973
 20
427.7703544058252
 30
0.0
 10
123.7398301886748
 20
427.4888447729902
 30
0.0
 10
123.9352693711878
 20
427.3316521088937
 30
0.0
 10
124.1155192098058
 20
427.1598313242682
 30
0.0
  0
SPLINE
  5
CB
330
1F
100
AcDbEntity
  8
0
  6
Continuous
 62
     7
370
    25
100
AcDbSpline
210
0.0
220
0.0
230
1.0
 70
     8
 71
     3
 72
    12
 73
     8
 74
     0
 42
0.000000001
 43
0.00000001
 40
0.0
 40
0.0
 40
0.0
 40
0.0
 40
0.2500000000000002
 40
0.2500000000000002
 40
0.5000000000000004
 40
0.5000000000000004
 40
1.0
 40
1.0
 40
1.0
 40
1.0
 10
122.0751018399024
 20
428.1390524862941
 30
0.0
 10
122.1436407724512
 20
428.1512619498131
 30
0.0
 10
122.2120989466348
 20
428.1503166450477
 30
0.0
 10
122.3489582909748
 20
428.1421542650809
 30
0.0
 10
122.4167034340378
 20
428.1333631581698
 30
0.0
 10
122.614862490424
 20
428.096622647168
 30
0.0
 10
122.7429803576822
 20
428.0581298026016
 30
0.0
 10
122.8627867430306
 20
428.0036404931012
 30
0.0
  0
SPLINE
  5
CC
330
1F
100
AcDbEntity
  8
0
  6
Continuous
 62
     7
370
    25
100
AcDbSpline
210
0.0
220
0.0
230
1.0
 70
     8
 71
     3
 72
     8
 73
     4
 74
     0
 42
0.000000001
 43
0.00000001
 40
0.0
 40
0.0
 40
0.0
 40
0.0
 40
1.0
 40
1.0
 40
1.0
 40
1.0
 10
120.9123624955445
 20
428.0929609601799
 30
0.0
 10
121.3014417072083
 20
428.0929779919487
 30
0.0
 10
121.6890041452093
 20
428.1085193458591
 30
0.0
 10
122.0751018399029
 20
428.139052486294
 30
0.0
  0
SPLINE
  5
CD
330
1F
100
AcDbEntity
  8
0
  6
Continuous
 62
     7
370
    25
100
AcDbSpline
210
0.0
220
0.0
230
1.0
 70
     8
 71
     3
 72
     8
 73
     4
 74
     0
 42
0.000000001
 43
0.00000001
 40
0.0
 40
0.0
 40
0.0
 40
0.0
 40
1.0
 40
1.0
 40
1.0
 40
1.0
 10
119.7496231511713
 20
428.1390524862951
 30
0.0
 10
120.1357208458259
 20
428.108519345863
 30
0.0
 10
120.5232832839369
 20
428.0929779935653
 30
0.0
 10
120.9123624955445
 20
428.0929609617965
 30
0.0
  0
SPLINE
  5
CE
330
1F
100
AcDbEntity
  8
0
  6
Continuous
 62
     7
370
    25
100
AcDbSpline
210
0.0
220
0.0
230
1.0
 70
     8
 71
     3
 72
    12
 73
     8
 74
     0
 42
0.000000001
 43
0.00000001
 40
0.0
 40
0.0
 40
0.0
 40
0.0
 40
0.5000000000000003
 40
0.5000000000000003
 40
0.7500000000000001
 40
0.7500000000000001
 40
1.0
 40
1.0
 40
1.0
 40
1.0
 10
118.9619382480585
 20
428.0036404931012
 30
0.0
 10
119.0815703728688
 20
428.0580505469228
 30
0.0
 10
119.2087248365768
 20
428.0964223700987
 30
0.0
 10
119.4087924974352
 20
428.1335007613711
 30
0.0
 10
119.4760592302977
 20
428.142164389545
 30
0.0
 10
119.6120263382832
 20
428.1502881838824
 30
0.0
 10
119.6815813064812
 20
428.1511733990336
 30
0.0
 10
119.749623151186
 20
428.139052486294
 30
0.0
  0
SPLINE
  5
CF
330
1F
100
AcDbEntity
  8
0
  6
Continuous
 62
     7
370
    25
100
AcDbSpline
210
0.0
220
0.0
230
1.0
 70
     8
 71
     3
 72
     8
 73
     4
 74
     0
 42
0.000000001
 43
0.00000001
 40
0.0
 40
0.0
 40
0.0
 40
0.0
 40
1.0
 40
1.0
 40
1.0
 40
1.0
 10
117.7092057812832
 20
427.1598313242681
 30
0.0
 10
118.0706789905979
 20
427.5044009001512
 30
0.0
 10
118.4845198431294
 20
427.7865051613592
 30
0.0
 10
118.9619382480585
 20
428.0036404931012
 30
0.0
  0
LINE
  5
D0
330
1F
100
AcDbEntity
  8
0
  6
Continuous
 62
     7
370
    25
100
AcDbLine
 10
144.8783107973
 20
430.5460154594
 30
0.0
 11
144.8926788628
 21
419.6744015007
 31
0.0
  0
SPLINE
  5
D1
330
1F
100
AcDbEntity
  8
0
  6
Continuous
 62
     7
370
    25
100
AcDbSpline
210
0.0
220
0.0
230
1.0
 70
     8
 71
     3
 72
    10
 73
     6
 74
     0
 42
0.000000001
 43
0.00000001
 40
0.0
 40
0.0
 40
0.0
 40
0.0
 40
0.5
 40
0.5
 40
1.0
 40
1.0
 40
1.0
 40
1.0
 10
144.7211318529606
 20
417.4926556682282
 30
0.0
 10
144.7693192895193
 20
417.8208834871846
 30
0.0
 10
144.8029842230117
 20
418.1667268518407
 30
0.0
 10
144.8568626677427
 20
418.8938384678686
 30
0.0
 10
144.8769163943841
 20
419.2751780151046
 30
0.0
 10
144.8929970180928
 20
419.6742722548621
 30
0.0
  0
LWPOLYLINE
  5
D2
330
1F
100
AcDbEntity
  8
0
  6
Continuous
 62
     7
370
    25
100
AcDbPolyline
 90
        3
 70
   128
 43
0.0
 10
96.9513276788
 20
434.1757089843
 10
96.9511471053
 20
434.082013946
 10
96.9509688466
 20
433.9883198947
  0
SPLINE
  5
D3
330
1F
100
AcDbEntity
  8
0
  6
Continuous
 62
     7
370
    25
100
AcDbSpline
210
0.0
220
0.0
230
1.0
 70
     8
 71
     3
 72
    10
 73
     6
 74
     0
 42
0.000000001
 43
0.00000001
 40
0.0
 40
0.0
 40
0.0
 40
0.0
 40
0.5
 40
0.5
 40
1.0
 40
1.0
 40
1.0
 40
1.0
 10
96.93172797299619
 20
419.674272254862
 30
0.0
 10
96.94780859670487
 20
419.2751780151045
 30
0.0
 10
96.96786232334628
 20
418.8938384678687
 30
0.0
 10
97.0217407680773
 20
418.1667268518407
 30
0.0
 10
97.05540570156973
 20
417.8208834871845
 30
0.0
 10
97.10359313812845
 20
417.4926556682282
 30
0.0
  0
SPLINE
  5
D4
330
1F
100
AcDbEntity
  8
0
  6
Continuous
 62
     7
370
    25
100
AcDbSpline
210
0.0
220
0.0
230
1.0
 70
     8
 71
     3
 72
     8
 73
     4
 74
     0
 42
0.000000001
 43
0.00000001
 40
0.0
 40
0.0
 40
0.0
 40
0.0
 40
1.0
 40
1.0
 40
1.0
 40
1.0
 10
96.95095364224399
 20
433.9807945923206
 30
0.0
 10
96.94194289503866
 20
429.2108615228345
 30
0.0
 10
96.9380906708909
 20
424.4431276836164
 30
0.0
 10
96.9317280414815
 20
419.6743235846602
 30
0.0
  0
ARC
  5
D5
330
1F
100
AcDbEntity
  8
0
  6
Continuous
 62
     7
370
    25
100
AcDbCircle
 10
120.9123624955
 20
424.7640460534
 30
0.0
 40
3.569682227408578
100
AcDbArc
 50
109.0095827787
 51
70.9904172215
  0
ARC
  5
D6
330
1F
100
AcDbEntity
  8
0
  6
Continuous
 62
     7
370
    25
100
AcDbCircle
 10
120.9123624955
 20
424.7640460534
 30
0.0
 40
4.000000000000035
100
AcDbArc
 50
143.2055295753
 51
36.7944704247
  0
SPLINE
  5
D7
330
1F
100
AcDbEntity
  8
0
  6
Continuous
 62
     7
370
    25
100
AcDbSpline
210
0.0
220
0.0
230
1.0
 70
    24
 71
     3
 72
    26
 73
    22
 74
     0
 42
0.000000001
 43
0.00000001
 40
0.0
 40
0.0
 40
0.0
 40
0.0
 40
0.1250000000000007
 40
0.1250000000000007
 40
0.1875000000000009
 40
0.1875000000000009
 40
0.2500000000000011
 40
0.2500000000000011
 40
0.375000000000001
 40
0.375000000000001
 40
0.5000000000000009
 40
0.5000000000000009
 40
0.6250000000000007
 40
0.6250000000000007
 40
0.7500000000000006
 40
0.7500000000000006
 40
0.8125000000000004
 40
0.8125000000000004
 40
0.8750000000000003
 40
0.8750000000000003
 40
1.0
 40
1.0
 40
1.0
 40
1.0
 10
142.0790367272692
 20
414.7640460534472
 30
0.0
 10
141.645011783999
 20
414.7640460534472
 30
0.0
 10
141.1371961517119
 20
414.7640460534471
 30
0.0
 10
140.2651080259309
 20
414.7640460534471
 30
0.0
 10
139.9559652503562
 20
414.7640460534472
 30
0.0
 10
139.3001444145246
 20
414.7640460534472
 30
0.0
 10
138.9538794849011
 20
414.7640460534471
 30
0.0
 10
137.8750724218683
 20
414.7640460534471
 30
0.0
 10
137.0979060848985
 20
414.7640460534472
 30
0.0
 10
135.4314112530266
 20
414.7640460534473
 30
0.0
 10
134.5409249046278
 20
414.7640460534472
 30
0.0
 10
132.6493398674685
 20
414.7640460534471
 30
0.0
 10
131.6704978607206
 20
414.7640460534471
 30
0.0
 10
129.6506118574704
 20
414.7640460534472
 30
0.0
 10
128.6095475558657
 20
414.7640460534473
 30
0.0
 10
127.0010856121699
 20
414.7640460534472
 30
0.0
 10
126.4551941209336
 20
414.7640460534472
 30
0.0
 10
125.3589561679174
 20
414.7640460534472
 30
0.0
 10
124.8085180203447
 20
414.7640460534472
 30
0.0
 10
123.1503880551059
 20
414.7640460534472
 30
0.0
 10
122.0359108966822
 20
414.7640460534472
 30
0.0
 10
120.9123624955445
 20
414.7640460534472
 30
0.0
  0
SPLINE
  5
D8
330
1F
100
AcDbEntity
  8
0
  6
Continuous
 62
     7
370
    25
100
AcDbSpline
210
0.0
220
0.0
230
1.0
 70
    24
 71
     3
 72
    26
 73
    22
 74
     0
 42
0.000000001
 43
0.00000001
 40
0.0
 40
0.0
 40
0.0
 40
0.0
 40
0.1249999999999999
 40
0.1249999999999999
 40
0.1874999999999998
 40
0.1874999999999998
 40
0.2499999999999997
 40
0.2499999999999997
 40
0.3749999999999996
 40
0.3749999999999996
 40
0.4999999999999994
 40
0.4999999999999994
 40
0.6249999999999992
 40
0.6249999999999992
 40
0.7499999999999992
 40
0.7499999999999992
 40
0.8124999999999993
 40
0.8124999999999993
 40
0.8749999999999996
 40
0.8749999999999996
 40
1.0
 40
1.0
 40
1.0
 40
1.0
 10
120.9123624955445
 20
414.7640460534472
 30
0.0
 10
119.7888140944068
 20
414.7640460534472
 30
0.0
 10
118.6743369359831
 20
414.7640460534472
 30
0.0
 10
117.0162069707443
 20
414.7640460534472
 30
0.0
 10
116.4657688231716
 20
414.7640460534472
 30
0.0
 10
115.3695308701554
 20
414.7640460534472
 30
0.0
 10
114.8236393789191
 20
414.7640460534472
 30
0.0
 10
113.2151774352233
 20
414.7640460534472
 30
0.0
 10
112.1741131336186
 20
414.7640460534472
 30
0.0
 10
110.1542271303684
 20
414.7640460534472
 30
0.0
 10
109.1753851236205
 20
414.7640460534471
 30
0.0
 10
107.2838000864612
 20
414.7640460534471
 30
0.0
 10
106.3933137380624
 20
414.7640460534471
 30
0.0
 10
104.7268189061906
 20
414.7640460534471
 30
0.0
 10
103.9496525692207
 20
414.7640460534472
 30
0.0
 10
102.8708455061879
 20
414.7640460534472
 30
0.0
 10
102.5245805765644
 20
414.7640460534473
 30
0.0
 10
101.8687597407328
 20
414.7640460534472
 30
0.0
 10
101.5596169651581
 20
414.7640460534472
 30
0.0
 10
100.6875288393771
 20
414.7640460534472
 30
0.0
 10
100.17971320709
 20
414.7640460534471
 30
0.0
 10
99.74568826381982
 20
414.7640460534472
 30
0.0
  0
SPLINE
  5
D9
330
1F
100
AcDbEntity
  8
0
  6
Continuous
 62
     7
370
    25
100
AcDbSpline
210
0.0
220
0.0
230
1.0
 70
    24
 71
     3
 72
    10
 73
     6
 74
     0
 42
0.000000001
 43
0.00000001
 40
0.0146611577316554
 40
0.0146611577316554
 40
0.0146611577316554
 40
0.0146611577316554
 40
0.3733767382841222
 40
0.4733767382841219
 40
1.0
 40
1.0
 40
1.0
 40
1.0
 10
96.91611534394539
 20
310.1640460534474
 30
0.0
 10
96.94904549434116
 20
310.1640460534474
 30
0.0
 10
97.07978131018048
 20
310.1640460534474
 30
0.0
 10
100.8182126399576
 20
310.1640460534474
 30
0.0
 10
110.6603931001365
 20
310.1640460534474
 30
0.0
 10
120.9123624955445
 20
310.1640460534474
 30
0.0
  0
LINE
  5
DA
330
1F
100
AcDbEntity
  8
0
  6
Continuous
 62
     7
370
    25
100
AcDbLine
 10
96.9281341069
 20
335.8417789648
 30
0.0
 11
96.9161159499
 21
310.1640460534
 31
0.0
  0
LINE
  5
DB
330
1F
100
AcDbEntity
  8
0
  6
Continuous
 62
     7
370
    25
100
AcDbLine
 10
144.8965908842
 20
335.8417789648
 30
0.0
 11
144.9086090412
 21
310.1640460534
 31
0.0
  0
SPLINE
  5
DC
330
1F
100
AcDbEntity
  8
0
  6
Continuous
 62
     7
370
    25
100
AcDbSpline
210
0.0
220
0.0
230
1.0
 70
    24
 71
     3
 72
    10
 73
     6
 74
     0
 42
0.000000001
 43
0.00000001
 40
0.0146611577316554
 40
0.0146611577316554
 40
0.0146611577316554
 40
0.0146611577316554
 40
0.3733767382841222
 40
0.4733767382841219
 40
1.0
 40
1.0
 40
1.0
 40
1.0
 10
144.9086096471436
 20
310.1640460534474
 30
0.0
 10
144.8756794967478
 20
310.1640460534474
 30
0.0
 10
144.7449436809085
 20
310.1640460534474
 30
0.0
 10
141.0065123511314
 20
310.1640460534474
 30
0.0
 10
131.1643318909526
 20
310.1640460534474
 30
0.0
 10
120.9123624955445
 20
310.1640460534474
 30
0.0
  0
SPLINE
  5
DD
330
1F
100
AcDbEntity
  8
0
  6
Continuous
 62
     7
370
    25
100
AcDbSpline
210
0.0
220
0.0
230
1.0
 70
     8
 71
     3
 72
    10
 73
     6
 74
     0
 42
0.000000001
 43
0.00000001
 40
0.0
 40
0.0
 40
0.0
 40
0.0
 40
0.5
 40
0.5
 40
1.0
 40
1.0
 40
1.0
 40
1.0
 10
97.10357086731555
 20
417.4927600827592
 30
0.0
 10
97.15394626569056
 20
417.1485740643544
 30
0.0
 10
97.21977655604503
 20
416.8242723803576
 30
0.0
 10
97.40369956042998
 20
416.215457400055
 30
0.0
 10
97.52086026975037
 20
415.9309425435977
 30
0.0
 10
97.68085756636033
 20
415.666785886296
 30
0.0
  0
SPLINE
  5
DE
330
1F
100
AcDbEntity
  8
0
  6
Continuous
 62
     7
370
    25
100
AcDbSpline
210
0.0
220
0.0
230
1.0
 70
     8
 71
     3
 72
    10
 73
     6
 74
     0
 42
0.000000001
 43
0.00000001
 40
0.0
 40
0.0
 40
0.0
 40
0.0
 40
0.5000000000000001
 40
0.5000000000000001
 40
1.0
 40
1.0
 40
1.0
 40
1.0
 10
144.1438674247287
 20
415.666785886296
 30
0.0
 10
144.3038858548585
 20
415.9309774351871
 30
0.0
 10
144.4209522262434
 20
416.2152646114472
 30
0.0
 10
144.6048945247772
 20
416.8240444329641
 30
0.0
 10
144.6707751882884
 20
417.1485498973233
 30
0.0
 10
144.7211541237735
 20
417.4927600827592
 30
0.0
  0
SPLINE
  5
DF
330
1F
100
AcDbEntity
  8
0
  6
Continuous
 62
     7
370
    25
100
AcDbSpline
210
0.0
220
0.0
230
1.0
 70
    24
 71
     3
 72
     8
 73
     4
 74
     0
 42
0.000000001
 43
0.00000001
 40
0.0
 40
0.0
 40
0.0
 40
0.0
 40
0.0003430621114162
 40
0.0003430621114162
 40
0.0003430621114162
 40
0.0003430621114162
 10
99.74568826381982
 20
414.7640460534472
 30
0.0
 10
99.70154845740106
 20
414.7640460534472
 30
0.0
 10
99.65821567761157
 20
414.7640460534472
 30
0.0
 10
99.61569492825187
 20
414.7640460534472
 30
0.0
  0
SPLINE
  5
E0
330
1F
100
AcDbEntity
  8
0
  6
Continuous
 62
     7
370
    25
100
AcDbSpline
210
0.0
220
0.0
230
1.0
 70
    24
 71
     3
 72
     8
 73
     4
 74
     0
 42
0.000000001
 43
0.00000001
 40
0.0
 40
0.0
 40
0.0
 40
0.0
 40
0.0003430621114162
 40
0.0003430621114162
 40
0.0003430621114162
 40
0.0003430621114162
 10
142.2090300628371
 20
414.7640460534472
 30
0.0
 10
142.1665093134775
 20
414.7640460534472
 30
0.0
 10
142.1231765336879
 20
414.7640460534472
 30
0.0
 10
142.0790367272692
 20
414.7640460534472
 30
0.0
  0
SPLINE
  5
E1
330
1F
100
AcDbEntity
  8
0
  6
Continuous
 62
     7
370
    25
100
AcDbSpline
210
0.0
220
0.0
230
1.0
 70
     8
 71
     3
 72
    15
 73
    11
 74
     0
 42
0.000000001
 43
0.00000001
 40
0.0
 40
0.0
 40
0.0
 40
0.0
 40
0.0534640211605497
 40
0.2619156163191066
 40
0.3662605590580443
 40
0.4713100440337564
 40
0.5766776058663168
 40
0.6821685042583434
 40
0.840977396513833
 40
0.9999999999999999
 40
0.9999999999999999
 40
0.9999999999999999
 40
0.9999999999999999
 10
143.815180445762
 20
415.2973885299467
 30
0.0
 10
143.8005437241338
 20
415.2767460539633
 30
0.0
 10
143.7288396906002
 20
415.1756203491962
 30
0.0
 10
143.59543817927
 20
415.0725650221077
 30
0.0
 10
143.4210464273681
 20
414.9696283396038
 30
0.0
 10
143.2714136275849
 20
414.9056334393014
 30
0.0
 10
143.1021381363884
 20
414.8532202156528
 30
0.0
 10
142.878958946472
 20
414.8064385058619
 30
0.0
 10
142.5916428706601
 20
414.7711533691603
 30
0.0
 10
142.3366248238462
 20
414.7664162204444
 30
0.0
 10
142.2090300628371
 20
414.7640460534472
 30
0.0
  0
ARC
  5
E2
330
1F
100
AcDbEntity
  8
0
  6
Continuous
 62
     7
370
    25
100
AcDbCircle
 10
143.9521799161
 20
415.6654740997
 30
0.0
 40
0.1916919971195731
100
AcDbArc
 50
286.8014011207
 51
0.3920895123
  0
SPLINE
  5
E3
330
1F
100
AcDbEntity
  8
0
  6
Continuous
 62
     7
370
    25
100
AcDbSpline
210
0.0
220
0.0
230
1.0
 70
     8
 71
     3
 72
    10
 73
     6
 74
     0
 42
0.000000001
 43
0.00000001
 40
0.0
 40
0.0
 40
0.0
 40
0.0
 40
0.4999999999999998
 40
0.4999999999999998
 40
1.0
 40
1.0
 40
1.0
 40
1.0
 10
99.61569492825187
 20
414.7640460534472
 30
0.0
 10
99.13406353823274
 20
414.7640460534472
 30
0.0
 10
98.76135434881566
 20
414.8187655426837
 30
0.0
 10
98.21066522018867
 20
415.0519635733062
 30
0.0
 10
98.02526433949375
 20
415.2313596746199
 30
0.0
 10
97.87957914620871
 20
415.4733426718838
 30
0.0
  0
ARC
  5
E4
330
1F
100
AcDbEntity
  8
0
  6
Continuous
 62
     7
370
    25
100
AcDbCircle
 10
97.8726906463
 20
415.6655877432
 30
0.0
 40
0.1918368215940549
100
AcDbArc
 50
179.6421490523
 51
252.5548234442
  0
SPLINE
  5
E5
330
1F
100
AcDbEntity
  8
0
  6
Continuous
 62
     7
370
    25
100
AcDbSpline
210
0.0
220
0.0
230
1.0
 70
     8
 71
     3
 72
    22
 73
    18
 74
     0
 42
0.000000001
 43
0.00000001
 40
0.0
 40
0.0
 40
0.0
 40
0.0
 40
0.0502544667615493
 40
0.0920361054864895
 40
0.1253619388885753
 40
0.191721318181686
 40
0.251563150592522
 40
0.3760830850682411
 40
0.5029554873154015
 40
0.5848817146136316
 40
0.6670327474011036
 40
0.7509942825137448
 40
0.79089143641377
 40
0.832234711397169
 40
0.8751977777490197
 40
0.9332217085027588
 40
1.0
 40
1.0
 40
1.0
 40
1.0
 10
97.12611584598153
 20
443.78576865939
 30
0.0
 10
97.12191502940898
 20
443.7822685326448
 30
0.0
 10
97.11422164766373
 20
443.7758583952958
 30
0.0
 10
97.10372805375683
 20
443.7545491057022
 30
0.0
 10
97.09183745070551
 20
443.7119775969037
 30
0.0
 10
97.07837872832077
 20
443.6139256434105
 30
0.0
 10
97.05741301029818
 20
443.3355574140143
 30
0.0
 10
97.03227096397049
 20
442.6965970379133
 30
0.0
 10
97.00831348738842
 20
441.6284896498549
 30
0.0
 10
96.99041252750563
 20
440.4865972887992
 30
0.0
 10
96.97741582751904
 20
439.3839465512889
 30
0.0
 10
96.9687190931863
 20
438.3836447764567
 30
0.0
 10
96.96313289526212
 20
437.5430425146735
 30
0.0
 10
96.95961062695504
 20
436.8934804598841
 30
0.0
 10
96.9563448478984
 20
436.1343793908646
 30
0.0
 10
96.95348938080437
 20
435.2251029482723
 30
0.0
 10
96.95208117279502
 20
434.541491154133
 30
0.0
 10
96.95132767880077
 20
434.1757089842596
 30
0.0
  0
SPLINE
  5
E6
330
1F
100
AcDbEntity
  8
0
  6
Continuous
 62
     7
370
    25
100
AcDbSpline
210
0.0
220
0.0
230
1.0
 70
     8
 71
     3
 72
    16
 73
    12
 74
     0
 42
0.000000001
 43
0.00000001
 40
0.0
 40
0.0
 40
0.0
 40
0.0
 40
0.125
 40
0.125
 40
0.25
 40
0.25
 40
0.5
 40
0.5
 40
0.75
 40
0.75
 40
1.0
 40
1.0
 40
1.0
 40
1.0
 10
144.8733973122882
 20
434.1757089842597
 30
0.0
 10
144.8720602470104
 20
434.8633853799063
 30
0.0
 10
144.8704651766462
 20
435.5445497400427
 30
0.0
 10
144.8653873912224
 20
436.8816955343726
 30
0.0
 10
144.8618993706798
 20
437.5382587289733
 30
0.0
 10
144.8483650866537
 20
439.3928016951223
 30
0.0
 10
144.8351651883172
 20
440.5233523384929
 30
0.0
 10
144.8025231468894
 20
442.3345207996286
 30
0.0
 10
144.782894972076
 20
443.0264707974218
 30
0.0
 10
144.7408016850666
 20
443.7516416113344
 30
0.0
 10
144.7194955454882
 20
443.772545510805
 30
0.0
 10
144.6986091451075
 20
443.78576865939
 30
0.0
  0
ARC
  5
E7
330
1F
100
AcDbEntity
  8
0
  6
Continuous
 62
     7
370
    25
100
AcDbCircle
 10
143.5428345351
 20
443.7857449428
 30
0.0
 40
1.155774610255352
100
AcDbArc
 50
0.0011757118
 51
60.158391713
  0
ARC
  5
E8
330
1F
100
AcDbEntity
  8
0
  6
Continuous
 62
     7
370
    25
100
AcDbCircle
 10
98.2818901135
 20
443.7857450289
 30
0.0
 40
1.155774267792334
100
AcDbArc
 50
119.6787389849
 51
179.998828552
  0
SPLINE
  5
E9
330
1F
100
AcDbEntity
  8
0
  6
Continuous
 62
     8
370
    25
100
AcDbSpline
210
0.0
220
0.0
230
1.0
 70
     8
 71
     3
 72
    13
 73
     9
 74
     0
 42
0.000000001
 43
0.00000001
 40
0.0
 40
0.0
 40
0.0
 40
0.0
 40
0.1808160287948911
 40
0.3511306247084855
 40
0.5379103748633774
 40
0.7218596383764164
 40
0.9102149354399038
 40
0.9999999999999999
 40
0.9999999999999999
 40
0.9999999999999999
 40
0.9999999999999999
 10
98.05010757423403
 20
409.1655683719036
 30
0.0
 10
98.15608615690927
 20
407.8638411704252
 30
0.0
 10
98.36188829839243
 20
405.335988476715
 30
0.0
 10
99.4462130773602
 20
401.5889571980446
 30
0.0
 10
101.210086845599
 20
398.0732021557796
 30
0.0
 10
103.8333254454443
 20
394.985774806761
 30
0.0
 10
106.4688340732796
 20
392.8644306152028
 30
0.0
 10
108.3160667749058
 20
392.0747122264698
 30
0.0
 10
108.9123624955445
 20
391.8197872810114
 30
0.0
  0
SPLINE
  5
EA
330
1F
100
AcDbEntity
  8
0
  6
Continuous
 62
     8
370
    25
100
AcDbSpline
210
0.0
220
0.0
230
1.0
 70
     8
 71
     3
 72
    13
 73
     9
 74
     0
 42
0.000000001
 43
0.00000001
 40
0.0
 40
0.0
 40
0.0
 40
0.0
 40
0.1808160287948911
 40
0.3511306247084855
 40
0.5379103748633774
 40
0.7218596383764164
 40
0.9102149354399038
 40
0.9999999999999999
 40
0.9999999999999999
 40
0.9999999999999999
 40
0.9999999999999999
 10
143.774617416855
 20
409.1655683719036
 30
0.0
 10
143.6686388341797
 20
407.8638411704252
 30
0.0
 10
143.4628366926966
 20
405.335988476715
 30
0.0
 10
142.3785119137288
 20
401.5889571980446
 30
0.0
 10
140.61463814549
 20
398.0732021557796
 30
0.0
 10
137.9913995456448
 20
394.985774806761
 30
0.0
 10
135.3558909178094
 20
392.8644306152028
 30
0.0
 10
133.5086582161832
 20
392.0747122264698
 30
0.0
 10
132.9123624955445
 20
391.8197872810114
 30
0.0
  0
SPLINE
  5
EB
330
1F
100
AcDbEntity
  8
0
  6
Continuous
 62
     8
370
    18
100
AcDbSpline
210
0.0
220
0.0
230
1.0
 70
     8
 71
     3
 72
    35
 73
    31
 74
     0
 42
0.000000001
 43
0.00000001
 40
0.0
 40
0.0
 40
0.0
 40
0.0
 40
0.096819436545353
 40
0.1703961771368463
 40
0.2207380534186157
 40
0.2479116749227523
 40
0.3087043658044432
 40
0.3616691754616851
 40
0.4068518199074378
 40
0.4443033495249589
 40
0.4740895224761122
 40
0.4962346416741859
 40
0.5309778708402615
 40
0.5589037814577901
 40
0.5934380802046022
 40
0.6225470940261234
 40
0.6438417881059347
 40
0.6652813381542548
 40
0.6867611701718528
 40
0.7055456120608204
 40
0.7266387930728253
 40
0.7500303412321747
 40
0.7698399264013011
 40
0.7922706834901285
 40
0.8172996654140494
 40
0.8449142614513193
 40
0.8751143708028937
 40
0.9183810778400859
 40
0.9599154751494414
 40
1.0
 40
1.0
 40
1.0
 40
1.0
 10
99.18483877759425
 20
410.5628285580514
 30
0.0
 10
99.20700144999195
 20
410.5630017526791
 30
0.0
 10
99.24600637283032
 20
410.5633065644353
 30
0.0
 10
99.29776884287139
 20
410.5635533377882
 30
0.0
 10
99.33376553862176
 20
410.5640045386837
 30
0.0
 10
99.3668085326702
 20
410.563960650087
 30
0.0
 10
99.4038937417929
 20
410.5625918448169
 30
0.0
 10
99.44942308639006
 20
410.5582702179562
 30
0.0
 10
99.47540850707372
 20
410.5527036334838
 30
0.0
 10
99.54641217992308
 20
410.546229204344
 30
0.0
 10
99.67062150824127
 20
410.5395995770277
 30
0.0
 10
99.87404224179926
 20
410.5327036895358
 30
0.0
 10
100.1989071622033
 20
410.5271928405555
 30
0.0
 10
100.7747707718506
 20
410.5231879597693
 30
0.0
 10
101.5776386281339
 20
410.5245753331491
 30
0.0
 10
102.5627404588296
 20
410.5290039850265
 30
0.0
 10
103.547012202999
 20
410.5393864233103
 30
0.0
 10
104.5057099784326
 20
410.5531041079888
 30
0.0
 10
105.4732756775103
 20
410.5701690159088
 30
0.0
 10
106.4605731785489
 20
410.59227925526
 30
0.0
 10
107.4897243236079
 20
410.6174977218341
 30
0.0
 10
108.5416219825679
 20
410.6451595518228
 30
0.0
 10
109.6173480905218
 20
410.6730622310836
 30
0.0
 10
110.7206450958582
 20
410.6987507722479
 30
0.0
 10
111.9526324908506
 20
410.7241150083294
 30
0.0
 10
113.312609281469
 20
410.7477189352637
 30
0.0
 10
114.9724191026046
 20
410.7706173438389
 30
0.0
 10
116.8612601882
 20
410.788314531305
 30
0.0
 10
118.9128610862829
 20
410.7995467807904
 30
0.0
 10
120.2538021515521
 20
410.8011594614326
 30
0.0
 10
120.9123624955445
 20
410.8019514779843
 30
0.0
  0
SPLINE
  5
EC
330
1F
100
AcDbEntity
  8
0
  6
Continuous
 62
     8
370
    25
100
AcDbSpline
210
0.0
220
0.0
230
1.0
 70
     8
 71
     3
 72
    14
 73
    10
 74
     0
 42
0.000000001
 43
0.00000001
 40
0.0
 40
0.0
 40
0.0
 40
0.0
 40
0.25
 40
0.25
 40
0.5
 40
0.5
 40
0.75
 40
0.75
 40
1.0
 40
1.0
 40
1.0
 40
1.0
 10
98.05010753560651
 20
409.1656067315936
 30
0.0
 10
98.04393471752746
 20
409.3154860227762
 30
0.0
 10
98.06282762431067
 20
409.476410180173
 30
0.0
 10
98.16327713849851
 20
409.7918982877788
 30
0.0
 10
98.24513259711638
 20
409.945783656505
 30
0.0
 10
98.46132103025873
 20
410.2119768141206
 30
0.0
 10
98.59513805606998
 20
410.3236495161805
 30
0.0
 10
98.88328928599256
 20
410.4866544687897
 30
0.0
 10
99.036895587572
 20
410.538127066705
 30
0.0
 10
99.18483608379066
 20
410.5628285375819
 30
0.0
  0
SPLINE
  5
ED
330
1F
100
AcDbEntity
  8
0
  6
Continuous
 62
     8
370
    18
100
AcDbSpline
210
0.0
220
0.0
230
1.0
 70
     8
 71
     3
 72
    30
 73
    26
 74
     0
 42
0.000000001
 43
0.00000001
 40
0.0
 40
0.0
 40
0.0
 40
0.0
 40
0.1250000000000014
 40
0.1250000000000014
 40
0.1875000000000023
 40
0.1875000000000023
 40
0.2500000000000031
 40
0.2500000000000031
 40
0.312500000000004
 40
0.312500000000004
 40
0.3437500000000042
 40
0.3437500000000042
 40
0.3750000000000046
 40
0.3750000000000046
 40
0.4375000000000043
 40
0.4375000000000043
 40
0.500000000000004
 40
0.500000000000004
 40
0.5625000000000037
 40
0.5625000000000037
 40
0.6250000000000033
 40
0.6250000000000033
 40
0.750000000000002
 40
0.750000000000002
 40
1.0
 40
1.0
 40
1.0
 40
1.0
 10
120.9123624955457
 20
410.8019514799423
 30
0.0
 10
122.9637596982105
 20
410.8012852761901
 30
0.0
 10
125.0152937023577
 20
410.7912856176826
 30
0.0
 10
128.0925779457836
 20
410.7544903476431
 30
0.0
 10
129.1184838031059
 20
410.7387798305865
 30
0.0
 10
131.1703829076312
 20
410.6990565578851
 30
0.0
 10
132.1958513248823
 20
410.6738893647071
 30
0.0
 10
134.2523974942136
 20
410.6193827782754
 30
0.0
 10
135.2912147910879
 20
410.5923503430852
 30
0.0
 10
136.8111186868636
 20
410.5616367184027
 30
0.0
 10
137.3081629220247
 20
410.5528444357417
 30
0.0
 10
138.2653740958931
 20
410.5390581518614
 30
0.0
 10
138.7269149889162
 20
410.5341732687616
 30
0.0
 10
139.9542059388929
 20
410.5245464817159
 30
0.0
 10
140.6002937267136
 20
410.5232467316341
 30
0.0
 10
141.5069074853143
 20
410.5250809176999
 30
0.0
 10
141.7849207154709
 20
410.5293498657769
 30
0.0
 10
142.1500044062037
 20
410.5383136067782
 30
0.0
 10
142.2395156188952
 20
410.5428705681043
 30
0.0
 10
142.3369877577535
 20
410.5515867043146
 30
0.0
 10
142.3516503526772
 20
410.5545876666942
 30
0.0
 10
142.4057284903391
 20
410.5599083892757
 30
0.0
 10
142.4356668366049
 20
410.563433415614
 30
0.0
 10
142.5259010218718
 20
410.5648105268037
 30
0.0
 10
142.5835169043117
 20
410.5632643692127
 30
0.0
 10
142.6398862134947
 20
410.5628285580513
 30
0.0
  0
SPLINE
  5
EE
330
1F
100
AcDbEntity
  8
0
  6
Continuous
 62
     8
370
    25
100
AcDbSpline
210
0.0
220
0.0
230
1.0
 70
     8
 71
     3
 72
    14
 73
    10
 74
     0
 42
0.000000001
 43
0.00000001
 40
0.0
 40
0.0
 40
0.0
 40
0.0
 40
0.25
 40
0.25
 40
0.5
 40
0.5
 40
0.75
 40
0.75
 40
1.0
 40
1.0
 40
1.0
 40
1.0
 10
142.6398862134947
 20
410.5628285580513
 30
0.0
 10
142.787823872889
 20
410.5381277311672
 30
0.0
 10
142.94142804113
 20
410.4866301465348
 30
0.0
 10
143.2295643109679
 20
410.3236106068398
 30
0.0
 10
143.3633713668119
 20
410.211935300318
 30
0.0
 10
143.5795440210068
 20
409.9457468991321
 30
0.0
 10
143.6613940042906
 20
409.791868717107
 30
0.0
 10
143.761842378661
 20
409.4763969991894
 30
0.0
 10
143.7807395382128
 20
409.3154817195832
 30
0.0
 10
143.7745741578199
 20
409.1656084939796
 30
0.0
  0
SPLINE
  5
EF
330
1F
100
AcDbEntity
  8
0
  6
Continuous
 62
     8
370
    18
100
AcDbSpline
210
0.0
220
0.0
230
1.0
 70
     8
 71
     3
 72
    14
 73
    10
 74
     0
 42
0.000000001
 43
0.00000001
 40
0.0
 40
0.0
 40
0.0
 40
0.0
 40
0.25
 40
0.25
 40
0.5
 40
0.5
 40
0.75
 40
0.75
 40
1.0
 40
1.0
 40
1.0
 40
1.0
 10
98.7193883781626
 20
410.5598521780454
 30
0.0
 10
98.75337727979246
 20
410.5600408771131
 30
0.0
 10
98.78852642945242
 20
410.5602303692248
 30
0.0
 10
98.86120929002156
 20
410.5606393828054
 30
0.0
 10
98.89877794088633
 20
410.5608588758148
 30
0.0
 10
98.97639479946082
 20
410.5613557890664
 30
0.0
 10
99.01645659836844
 20
410.5616347959209
 30
0.0
 10
99.09897539748405
 20
410.5622160098105
 30
0.0
 10
99.14133423201154
 20
410.5625117107539
 30
0.0
 10
99.18472146591137
 20
410.5628096398906
 30
0.0
  0
LINE
  5
F0
330
1F
100
AcDbEntity
  8
0
  6
Continuous
 62
     8
370
    18
100
AcDbLine
 10
98.1790039553
 20
410.5533557581
 30
0.0
 11
98.2395691455
 21
410.5546911087
 31
0.0
  0
SPLINE
  5
F1
330
1F
100
AcDbEntity
  8
0
  6
Continuous
 62
     8
370
    18
100
AcDbSpline
210
0.0
220
0.0
230
1.0
 70
     8
 71
     3
 72
     9
 73
     5
 74
     0
 42
0.000000001
 43
0.00000001
 40
0.0
 40
0.0
 40
0.0
 40
0.0
 40
0.2080874021855359
 40
0.9999999999999999
 40
0.9999999999999999
 40
0.9999999999999999
 40
0.9999999999999999
 10
98.34462426262358
 20
410.5570073800117
 30
0.0
 10
98.36345535170999
 20
410.5574716699152
 30
0.0
 10
98.45395140715898
 20
410.5597028953459
 30
0.0
 10
98.60221259345114
 20
410.5598059741296
 30
0.0
 10
98.71962249464283
 20
410.5598876035171
 30
0.0
  0
LINE
  5
F2
330
1F
100
AcDbEntity
  8
0
  6
Continuous
 62
     8
370
    18
100
AcDbLine
 10
143.4432930601
 20
410.5558015274
 30
0.0
 11
143.1051024964
 21
410.5598876035
 31
0.0
  0
SPLINE
  5
F3
330
1F
100
AcDbEntity
  8
0
  6
Continuous
 62
     8
370
    18
100
AcDbSpline
210
0.0
220
0.0
230
1.0
 70
     8
 71
     3
 72
     8
 73
     4
 74
     0
 42
0.000000001
 43
0.00000001
 40
0.0
 40
0.0
 40
0.0
 40
0.0
 40
1.0
 40
1.0
 40
1.0
 40
1.0
 10
142.6400035251777
 20
410.5628096398905
 30
0.0
 10
142.8141771262553
 20
410.5614831433159
 30
0.0
 10
142.9700258134359
 20
410.5604986318879
 30
0.0
 10
143.1053366129264
 20
410.5598521780454
 30
0.0
  0
SPLINE
  5
F4
330
1F
100
AcDbEntity
  8
0
  6
Continuous
 62
     8
370
    18
100
AcDbSpline
210
0.0
220
0.0
230
1.0
 70
     8
 71
     3
 72
     8
 73
     4
 74
     0
 42
0.000000001
 43
0.00000001
 40
0.0
 40
0.0
 40
0.0
 40
0.0
 40
1.0
 40
1.0
 40
1.0
 40
1.0
 10
144.2498431350888
 20
409.1706278617696
 30
0.0
 10
144.1116175962777
 20
409.1688841336287
 30
0.0
 10
143.9529608934986
 20
409.1675775320007
 30
0.0
 10
143.7746158377558
 20
409.1655300879924
 30
0.0
  0
SPLINE
  5
F5
330
1F
100
AcDbEntity
  8
0
  6
Continuous
 62
     8
370
    18
100
AcDbSpline
210
0.0
220
0.0
230
1.0
 70
     8
 71
     3
 72
    14
 73
    10
 74
     0
 42
0.000000001
 43
0.00000001
 40
0.0
 40
0.0
 40
0.0
 40
0.0
 40
0.25
 40
0.25
 40
0.5
 40
0.5
 40
0.75
 40
0.75
 40
1.0
 40
1.0
 40
1.0
 40
1.0
 10
143.1053366129264
 20
410.5598521780454
 30
0.0
 10
143.2533577970108
 20
410.5356222992672
 30
0.0
 10
143.407043641336
 20
410.4847461757528
 30
0.0
 10
143.6956842032538
 20
410.3233101658312
 30
0.0
 10
143.8299303674652
 20
410.2125996310201
 30
0.0
 10
144.0476585636643
 20
409.9483169042365
 30
0.0
 10
144.1306327851314
 20
409.7953611025683
 30
0.0
 10
144.233852982063
 20
409.4811488883456
 30
0.0
 10
144.254382377707
 20
409.320559159159
 30
0.0
 10
144.2498431350888
 20
409.1706278617696
 30
0.0
  0
SPLINE
  5
F6
330
1F
100
AcDbEntity
  8
0
  6
Continuous
 62
     8
370
    18
100
AcDbSpline
210
0.0
220
0.0
230
1.0
 70
     8
 71
     3
 72
    12
 73
     8
 74
     0
 42
0.000000001
 43
0.00000001
 40
0.0
 40
0.0
 40
0.0
 40
0.0
 40
0.5000000000000007
 40
0.5000000000000007
 40
0.7500000000000003
 40
0.7500000000000003
 40
1.0
 40
1.0
 40
1.0
 40
1.0
 10
98.05010915333324
 20
409.1655300879924
 30
0.0
 10
97.95950293126658
 20
409.1611242440952
 30
0.0
 10
97.87509633076658
 20
409.1618698651907
 30
0.0
 10
97.75661882071391
 20
409.1639382659384
 30
0.0
 10
97.71848835626093
 20
409.1650378588865
 30
0.0
 10
97.6447986651901
 20
409.1680020296917
 30
0.0
 10
97.60921845409085
 20
409.1695747723789
 30
0.0
 10
97.57488185599851
 20
409.1706278617691
 30
0.0
  0
SPLINE
  5
F7
330
1F
100
AcDbEntity
  8
0
  6
Continuous
 62
     8
370
    18
100
AcDbSpline
210
0.0
220
0.0
230
1.0
 70
     8
 71
     3
 72
    14
 73
    10
 74
     0
 42
0.000000001
 43
0.00000001
 40
0.0
 40
0.0
 40
0.0
 40
0.0
 40
0.25
 40
0.25
 40
0.5
 40
0.5
 40
0.75
 40
0.75
 40
1.0
 40
1.0
 40
1.0
 40
1.0
 10
97.57516626067249
 20
409.1706368216813
 30
0.0
 10
97.57061505568048
 20
409.3205478304523
 30
0.0
 10
97.59112675718403
 20
409.4811176621121
 30
0.0
 10
97.69430104763359
 20
409.7952997723357
 30
0.0
 10
97.77724709803205
 20
409.9482456747186
 30
0.0
 10
97.99491717930775
 20
410.212525036093
 30
0.0
 10
98.12913373750662
 20
410.3232421722808
 30
0.0
 10
98.41772409441973
 20
410.4847047299361
 30
0.0
 10
98.57138948732167
 20
410.5356005214058
 30
0.0
 10
98.71939654424217
 20
410.5598520700408
 30
0.0
  0
SPLINE
  5
F8
330
1F
100
AcDbEntity
  8
0
  6
Continuous
 62
     8
370
    18
100
AcDbSpline
210
0.0
220
0.0
230
1.0
 70
     8
 71
     3
 72
    15
 73
    11
 74
     0
 42
0.000000001
 43
0.00000001
 40
0.0
 40
0.0
 40
0.0
 40
0.0
 40
0.1805107360984557
 40
0.3514086095991041
 40
0.5348278395702157
 40
0.7121231285021288
 40
0.800400393996628
 40
0.8895170934622223
 40
0.9804628587099008
 40
1.0
 40
1.0
 40
1.0
 40
1.0
 10
144.2498425231183
 20
409.170608331564
 30
0.0
 10
144.1524305903254
 20
407.6823675504646
 30
0.0
 10
143.9627942695116
 20
404.7851402999501
 30
0.0
 10
142.9263017576486
 20
400.4732235336228
 30
0.0
 10
141.2195320195648
 20
396.4033119302202
 30
0.0
 10
139.079905429335
 20
393.3332340432538
 30
0.0
 10
137.0169056776208
 20
391.2384297994127
 30
0.0
 10
135.2721827478858
 20
389.862862161674
 30
0.0
 10
133.8887691141014
 20
388.9434138420369
 30
0.0
 10
133.0590798240029
 20
388.5570557755091
 30
0.0
 10
132.9123624955445
 20
388.4887345087099
 30
0.0
  0
SPLINE
  5
F9
330
1F
100
AcDbEntity
  8
0
  6
Continuous
 62
     8
370
    18
100
AcDbSpline
210
0.0
220
0.0
230
1.0
 70
     8
 71
     3
 72
    15
 73
    11
 74
     0
 42
0.000000001
 43
0.00000001
 40
0.0
 40
0.0
 40
0.0
 40
0.0
 40
0.1805107360984557
 40
0.3514086095991041
 40
0.5348278395702157
 40
0.7121231285021288
 40
0.800400393996628
 40
0.8895170934622223
 40
0.9804628587099008
 40
1.0
 40
1.0
 40
1.0
 40
1.0
 10
97.5748824679707
 20
409.170608331564
 30
0.0
 10
97.67229440076358
 20
407.6823675504646
 30
0.0
 10
97.86193072157745
 20
404.7851402999501
 30
0.0
 10
98.8984232334404
 20
400.4732235336228
 30
0.0
 10
100.6051929715243
 20
396.4033119302202
 30
0.0
 10
102.744819561754
 20
393.3332340432538
 30
0.0
 10
104.8078193134682
 20
391.2384297994127
 30
0.0
 10
106.5525422432032
 20
389.862862161674
 30
0.0
 10
107.9359558769877
 20
388.9434138420369
 30
0.0
 10
108.7656451670862
 20
388.5570557755091
 30
0.0
 10
108.9123624955445
 20
388.4887345087099
 30
0.0
  0
SPLINE
  5
FA
330
1F
100
AcDbEntity
  8
0
  6
Continuous
 62
     8
370
    18
100
AcDbSpline
210
0.0
220
0.0
230
1.0
 70
     8
 71
     3
 72
    30
 73
    26
 74
     0
 42
0.000000001
 43
0.00000001
 40
0.0
 40
0.0
 40
0.0
 40
0.0
 40
0.1250000000000003
 40
0.1250000000000003
 40
0.2500000000000006
 40
0.2500000000000006
 40
0.3750000000000007
 40
0.3750000000000007
 40
0.4375000000000009
 40
0.4375000000000009
 40
0.5000000000000011
 40
0.5000000000000011
 40
0.5625000000000011
 40
0.5625000000000011
 40
0.6250000000000012
 40
0.6250000000000012
 40
0.6875000000000012
 40
0.6875000000000012
 40
0.7500000000000013
 40
0.7500000000000013
 40
0.8125000000000013
 40
0.8125000000000013
 40
0.8750000000000013
 40
0.8750000000000013
 40
1.0
 40
1.0
 40
1.0
 40
1.0
 10
120.9123654058039
 20
445.0411196917913
 30
0.0
 10
122.1309076961518
 20
445.0403480279516
 30
0.0
 10
123.3503130307983
 20
445.0381712381919
 30
0.0
 10
125.7898526918665
 20
445.028224999801
 30
0.0
 10
127.0096169458209
 20
445.0205434992054
 30
0.0
 10
129.4495088246142
 20
444.9970173410172
 30
0.0
 10
130.6703518422037
 20
444.9802163388009
 30
0.0
 10
132.5003836601585
 20
444.9476308419019
 30
0.0
 10
133.1102566485184
 20
444.9350560291409
 30
0.0
 10
134.3281188562401
 20
444.9117341867952
 30
0.0
 10
134.9370227022374
 20
444.9011147166358
 30
0.0
 10
136.1492798169001
 20
444.8854241879969
 30
0.0
 10
136.7482109588861
 20
444.8798678402308
 30
0.0
 10
137.8863130172395
 20
444.8737346472927
 30
0.0
 10
138.4270950135954
 20
444.8734969875358
 30
0.0
 10
139.3733837476655
 20
444.8760545798646
 30
0.0
 10
139.7892291740701
 20
444.87887333811
 30
0.0
 10
140.5034341589
 20
444.8851030664088
 30
0.0
 10
140.7972298439035
 20
444.888396213389
 30
0.0
 10
141.2772928371464
 20
444.8950334273414
 30
0.0
 10
141.4644603353358
 20
444.8983671291285
 30
0.0
 10
141.7581424932426
 20
444.9046567351955
 30
0.0
 10
141.86515653321
 20
444.9074294308033
 30
0.0
 10
142.09777359874
 20
444.9164110801299
 30
0.0
 10
142.1359870082107
 20
444.9229547280677
 30
0.0
 10
142.164552873086
 20
444.9264968565481
 30
0.0
  0
SPLINE
  5
FB
330
1F
100
AcDbEntity
  8
0
  6
Continuous
 62
     8
370
    18
100
AcDbSpline
210
0.0
220
0.0
230
1.0
 70
     8
 71
     3
 72
    14
 73
    10
 74
     0
 42
0.000000001
 43
0.00000001
 40
0.0
 40
0.0
 40
0.0
 40
0.0
 40
0.25
 40
0.25
 40
0.5
 40
0.5
 40
0.75
 40
0.75
 40
1.0
 40
1.0
 40
1.0
 40
1.0
 10
142.164552873086
 20
444.9264968565481
 30
0.0
 10
142.2878109440181
 20
444.9058721363095
 30
0.0
 10
142.415669118733
 20
444.8630922393719
 30
0.0
 10
142.6556837034625
 20
444.7280508661727
 30
0.0
 10
142.7672572358235
 20
444.6356683476099
 30
0.0
 10
142.9482558062363
 20
444.4154036883563
 30
0.0
 10
143.0172643570547
 20
444.2880283882354
 30
0.0
 10
143.103243700391
 20
444.0263542441772
 30
0.0
 10
143.1204460854275
 20
443.8926039359763
 30
0.0
 10
143.1168082858855
 20
443.7676577919949
 30
0.0
  0
SPLINE
  5
FC
330
1F
100
AcDbEntity
  8
0
  6
Continuous
 62
     8
370
    18
100
AcDbSpline
210
0.0
220
0.0
230
1.0
 70
     8
 71
     3
 72
    31
 73
    27
 74
     0
 42
0.000000001
 43
0.00000001
 40
0.0
 40
0.0
 40
0.0
 40
0.0
 40
0.0328670821445932
 40
0.0608240725504226
 40
0.0838554416883681
 40
0.1019520784733158
 40
0.1151118443386605
 40
0.1233329164832166
 40
0.1574154214644924
 40
0.189549248346264
 40
0.2198323680708034
 40
0.2483488389357779
 40
0.2981518162263346
 40
0.340556463317731
 40
0.3752290146364619
 40
0.4389560596180566
 40
0.4702647543288793
 40
0.5022621470455401
 40
0.5320024215783781
 40
0.5648286015643506
 40
0.5909596571189658
 40
0.6270615145918991
 40
0.682838895564781
 40
0.7514800023521243
 40
0.8718960413785697
 40
1.0
 40
1.0
 40
1.0
 40
1.0
 10
99.66017211800305
 20
444.9264968565481
 30
0.0
 10
99.66862187122953
 20
444.9254726315472
 30
0.0
 10
99.68425904890842
 20
444.9235771929598
 30
0.0
 10
99.72067465081955
 20
444.9201488416091
 30
0.0
 10
99.76338216476361
 20
444.9169217205753
 30
0.0
 10
99.80780313269958
 20
444.9141135884821
 30
0.0
 10
99.84704370708347
 20
444.9119254501556
 30
0.0
 10
99.91150881063382
 20
444.9090083185563
 30
0.0
 10
100.0253192442945
 20
444.9056809398949
 30
0.0
 10
100.2279364079553
 20
444.9009773218602
 30
0.0
 10
100.4771324443119
 20
444.89645282296
 30
0.0
 10
100.8494736726324
 20
444.8906928802563
 30
0.0
 10
101.3907615740268
 20
444.8844295783776
 30
0.0
 10
102.1316011919686
 20
444.8783560859096
 30
0.0
 10
103.1076080338128
 20
444.8732030147949
 30
0.0
 10
104.2007013983376
 20
444.8739703318212
 30
0.0
 10
105.3710176838818
 20
444.8826539769415
 30
0.0
 10
106.2573721802744
 20
444.8923471694829
 30
0.0
 10
107.1735846595828
 20
444.9061238590035
 30
0.0
 10
108.039645634954
 20
444.9216978399994
 30
0.0
 10
108.9705430328194
 20
444.9406122329859
 30
0.0
 10
110.1271014560661
 20
444.9624729103044
 30
0.0
 10
111.7012146739461
 20
444.9878123407822
 30
0.0
 10
114.1029591333375
 20
445.0159418313708
 30
0.0
 10
117.2154617672166
 20
445.0369321453013
 30
0.0
 10
119.6549068298083
 20
445.038882650182
 30
0.0
 10
120.912361249232
 20
445.039888071874
 30
0.0
  0
SPLINE
  5
FD
330
1F
100
AcDbEntity
  8
0
  6
Continuous
 62
     8
370
    18
100
AcDbSpline
210
0.0
220
0.0
230
1.0
 70
     8
 71
     3
 72
    14
 73
    10
 74
     0
 42
0.000000001
 43
0.00000001
 40
0.0
 40
0.0
 40
0.0
 40
0.0
 40
0.25
 40
0.25
 40
0.5
 40
0.5
 40
0.75
 40
0.75
 40
1.0
 40
1.0
 40
1.0
 40
1.0
 10
98.70792374072849
 20
443.7676579944072
 30
0.0
 10
98.70426366660446
 20
443.8926112419259
 30
0.0
 10
98.7214493486469
 20
444.0263754176121
 30
0.0
 10
98.80741431574504
 20
444.2880774073806
 30
0.0
 10
98.8764253911979
 20
444.4154660367884
 30
0.0
 10
99.05743972289649
 20
444.6357405173327
 30
0.0
 10
99.16902583777942
 20
444.7281191492097
 30
0.0
 10
99.40905710697493
 20
444.8631353320641
 30
0.0
 10
99.53691454538145
 20
444.9058720383441
 30
0.0
 10
99.66017207483156
 20
444.9264968620529
 30
0.0
  0
SPLINE
  5
FE
330
1F
100
AcDbEntity
  8
0
  6
Continuous
 62
     8
370
    18
100
AcDbSpline
210
0.0
220
0.0
230
1.0
 70
     8
 71
     3
 72
    14
 73
    10
 74
     0
 42
0.000000001
 43
0.00000001
 40
0.0622261302120969
 40
0.0622261302120969
 40
0.0622261302120969
 40
0.0622261302120969
 40
0.06568173068945
 40
0.078273995730059
 40
0.0925423581089964
 40
0.1282136236232542
 40
0.1527953535513101
 40
0.2068112086501795
 40
0.2167924849131471
 40
0.2167924849131471
 40
0.2167924849131471
 40
0.2167924849131471
 10
143.1168053483657
 20
443.7675572111649
 30
0.0
 10
143.1162669780996
 20
443.7491275521142
 30
0.0
 10
143.1134556501923
 20
443.6635236632919
 30
0.0
 10
143.1053284528001
 20
443.5014541519687
 30
0.0
 10
143.0700458151118
 20
443.1733556538269
 30
0.0
 10
142.9823183491922
 20
442.8027869234238
 30
0.0
 10
142.7669858891525
 20
442.2704646378385
 30
0.0
 10
142.5206438392218
 20
441.8931487621479
 30
0.0
 10
142.2989130444142
 20
441.6400733781616
 30
0.0
 10
142.2632800189645
 20
441.6010720700264
 30
0.0
  0
SPLINE
  5
FF
330
1F
100
AcDbEntity
  8
0
  6
Continuous
 62
     8
370
    18
100
AcDbSpline
210
0.0
220
0.0
230
1.0
 70
     8
 71
     3
 72
    20
 73
    16
 74
     0
 42
0.000000001
 43
0.00000001
 40
0.2167924849131471
 40
0.2167924849131471
 40
0.2167924849131471
 40
0.2167924849131471
 40
0.266172872245441
 40
0.3070692811368286
 40
0.3822762262120815
 40
0.5201028327066662
 40
0.6750385335569682
 40
0.7501316763293785
 40
0.7501316763293785
 40
0.8087475145084295
 40
0.8087475145084295
 40
0.8796427203394956
 40
0.8796427203394956
 40
0.966070536463252
 40
1.0
 40
1.0
 40
1.0
 40
1.0
 10
142.2632800189645
 20
441.6010720700264
 30
0.0
 10
142.0869926833404
 20
441.4081208229675
 30
0.0
 10
141.7176813173875
 20
441.0763752615102
 30
0.0
 10
140.8930218932061
 20
440.5344808138174
 30
0.0
 10
139.3523401377197
 20
439.8268111968109
 30
0.0
 10
136.4669773160399
 20
439.0972515397233
 30
0.0
 10
132.8849666059928
 20
438.6904093021794
 30
0.0
 10
130.4123759530395
 20
438.5480251563407
 30
0.0
 10
128.9411018158598
 20
438.4822489930059
 30
0.0
 10
128.2844743928868
 20
438.4592267852838
 30
0.0
 10
126.8139074462302
 20
438.418683348938
 30
0.0
 10
125.9958292719161
 20
438.4033248578049
 30
0.0
 10
124.1620265847297
 20
438.3799331960582
 30
0.0
 10
122.7419358650088
 20
438.3720080247392
 30
0.0
 10
121.3147386722929
 20
438.3708772692156
 30
0.0
 10
120.9123624955445
 20
438.3708772692156
 30
0.0
  0
SPLINE
  5
100
330
1F
100
AcDbEntity
  8
0
  6
Continuous
 62
     8
370
    18
100
AcDbSpline
210
0.0
220
0.0
230
1.0
 70
     8
 71
     3
 72
     8
 73
     4
 74
     0
 42
0.000000001
 43
0.00000001
 40
0.2167924849138834
 40
0.2167924849138834
 40
0.2167924849138834
 40
0.2167924849138834
 40
1.0
 40
1.0
 40
1.0
 40
1.0
 10
120.9123624955445
 20
438.3708772692156
 30
0.0
 10
111.6241506386252
 20
438.3708772692156
 30
0.0
 10
102.3574855367153
 20
438.5407302034268
 30
0.0
 10
99.5614449721324
 20
441.6010720700178
 30
0.0
  0
SPLINE
  5
101
330
1F
100
AcDbEntity
  8
0
  6
Continuous
 62
     8
370
    18
100
AcDbSpline
210
0.0
220
0.0
230
1.0
 70
     8
 71
     3
 72
    10
 73
     6
 74
     0
 42
0.000000001
 43
0.00000001
 40
0.0622266704184448
 40
0.0622266704184448
 40
0.0622266704184448
 40
0.0622266704184448
 40
0.2007451596022692
 40
0.2007451596022692
 40
0.2167924849138834
 40
0.2167924849138834
 40
0.2167924849138834
 40
0.2167924849138834
 10
99.5614449721324
 20
441.6010720700178
 30
0.0
 10
99.06693578109109
 20
442.1423257270382
 30
0.0
 10
98.77482542135546
 20
442.7739928485457
 30
0.0
 10
98.71453119118688
 20
443.5965208214106
 30
0.0
 10
98.71045362491412
 20
443.6820076478431
 30
0.0
 10
98.70792665913305
 20
443.7675574161343
 30
0.0
  0
SPLINE
  5
102
330
1F
100
AcDbEntity
  8
0
  6
Continuous
 62
     8
370
    18
100
AcDbSpline
210
0.0
220
0.0
230
1.0
 70
     8
 71
     3
 72
    12
 73
     8
 74
     0
 42
0.000000001
 43
0.00000001
 40
0.0
 40
0.0
 40
0.0
 40
0.0
 40
0.5
 40
0.5
 40
0.75
 40
0.75
 40
1.0
 40
1.0
 40
1.0
 40
1.0
 10
98.63310364619288
 20
444.9289613074451
 30
0.0
 10
98.71651883068527
 20
444.9286576756454
 30
0.0
 10
98.80291537142713
 20
444.9285009824851
 30
0.0
 10
98.9368611398683
 20
444.9284722774208
 30
0.0
 10
98.98223435077502
 20
444.9284979671759
 30
0.0
 10
99.07441078048981
 20
444.9286159825953
 30
0.0
 10
99.12126529344529
 20
444.9287020281922
 30
0.0
 10
99.16855126706291
 20
444.9288263863688
 30
0.0
  0
SPLINE
  5
103
330
1F
100
AcDbEntity
  8
0
  6
Continuous
 62
     8
370
    18
100
AcDbSpline
210
0.0
220
0.0
230
1.0
 70
     8
 71
     3
 72
     9
 73
     5
 74
     0
 42
0.000000001
 43
0.00000001
 40
0.0
 40
0.0
 40
0.0
 40
0.0
 40
0.2095945421839654
 40
0.9999999999999999
 40
0.9999999999999999
 40
0.9999999999999999
 40
0.9999999999999999
 10
98.28768097086135
 20
444.9298634578452
 30
0.0
 10
98.31008961105611
 20
444.9302373888942
 30
0.0
 10
98.41700384632793
 20
444.9320214575304
 30
0.0
 10
98.53830085527713
 20
444.9304089601233
 30
0.0
 10
98.63417467316734
 20
444.929134433372
 30
0.0
  0
SPLINE
  5
104
330
1F
100
AcDbEntity
  8
0
  6
Continuous
 62
     8
370
    18
100
AcDbSpline
210
0.0
220
0.0
230
1.0
 70
     8
 71
     3
 72
     9
 73
     5
 74
     0
 42
0.000000001
 43
0.00000001
 40
0.0
 40
0.0
 40
0.0
 40
0.0
 40
0.8524539480472657
 40
0.9999999999999999
 40
0.9999999999999999
 40
0.9999999999999999
 40
0.9999999999999999
 10
119.812249930829
 20
446.7161863449683
 30
0.0
 10
116.1966557894073
 20
446.6812942379544
 30
0.0
 10
111.9552605214236
 20
446.6403628690591
 30
0.0
 10
107.7544767459788
 20
446.1049365009669
 30
0.0
 10
107.1346676848048
 20
446.0259364542436
 30
0.0
  0
SPLINE
  5
105
330
1F
100
AcDbEntity
  8
0
  6
Continuous
 62
     8
370
    18
100
AcDbSpline
210
0.0
220
0.0
230
1.0
 70
     8
 71
     3
 72
    13
 73
     9
 74
     0
 42
0.000000001
 43
0.00000001
 40
0.0
 40
0.0
 40
0.0
 40
0.0
 40
0.2056971635655149
 40
0.4999097349381507
 40
0.6259209157343903
 40
0.7511120165943076
 40
0.8758306052801009
 40
1.0
 40
1.0
 40
1.0
 40
1.0
 10
99.16982546169496
 20
444.9290423827353
 30
0.0
 10
99.2017700722624
 20
444.9292191595511
 30
0.0
 10
99.2794056678373
 20
444.9296487836141
 30
0.0
 10
99.3781618548901
 20
444.9297662693168
 30
0.0
 10
99.4675607585705
 20
444.930298629019
 30
0.0
 10
99.53283915697111
 20
444.9309683706293
 30
0.0
 10
99.60099940938896
 20
444.93190228823
 30
0.0
 10
99.64034854398432
 20
444.9282745461464
 30
0.0
 10
99.6599796975603
 20
444.9264646775759
 30
0.0
  0
SPLINE
  5
106
330
1F
100
AcDbEntity
  8
0
  6
Continuous
 62
     8
370
    18
100
AcDbSpline
210
0.0
220
0.0
230
1.0
 70
     8
 71
     3
 72
     9
 73
     5
 74
     0
 42
0.000000001
 43
0.00000001
 40
0.0
 40
0.0
 40
0.0
 40
0.0
 40
0.8486811700513986
 40
1.0
 40
1.0
 40
1.0
 40
1.0
 10
122.01247506026
 20
446.7161863449683
 30
0.0
 10
125.628025664544
 20
446.6807641196183
 30
0.0
 10
129.8882245847876
 20
446.6390261541727
 30
0.0
 10
134.1076314757362
 20
446.1005949319067
 30
0.0
 10
134.7461071895516
 20
446.0191201493456
 30
0.0
  0
LINE
  5
107
330
1F
100
AcDbEntity
  8
0
  6
Continuous
 62
     8
370
    18
100
AcDbLine
 10
143.5277477215
 20
444.927894401
 30
0.0
 11
143.1905503179
 21
444.9291344334
 31
0.0
  0
SPLINE
  5
108
330
1F
100
AcDbEntity
  8
0
  6
Continuous
 62
     8
370
    18
100
AcDbSpline
210
0.0
220
0.0
230
1.0
 70
     8
 71
     3
 72
     8
 73
     4
 74
     0
 42
0.000000001
 43
0.00000001
 40
0.0
 40
0.0
 40
0.0
 40
0.0
 40
1.0
 40
1.0
 40
1.0
 40
1.0
 10
142.6561737240261
 20
444.9288263863688
 30
0.0
 10
142.8530199150832
 20
444.9271637238606
 30
0.0
 10
143.0200024248817
 20
444.9291574863684
 30
0.0
 10
143.1916213448961
 20
444.928961307445
 30
0.0
  0
SPLINE
  5
109
330
1F
100
AcDbEntity
  8
0
  6
Continuous
 62
     8
370
    18
100
AcDbSpline
210
0.0
220
0.0
230
1.0
 70
     8
 71
     3
 72
     8
 73
     4
 74
     0
 42
0.000000001
 43
0.00000001
 40
0.0
 40
0.0
 40
0.0
 40
0.0
 40
1.0
 40
1.0
 40
1.0
 40
1.0
 10
142.1647452935287
 20
444.926464677576
 30
0.0
 10
142.3467870463267
 20
444.9490742504369
 30
0.0
 10
142.4997189126684
 20
444.9299271421544
 30
0.0
 10
142.6548995293941
 20
444.9290423827352
 30
0.0
  0
SPLINE
  5
10A
330
1F
100
AcDbEntity
  8
0
  6
Continuous
 62
     8
370
    18
100
AcDbSpline
210
0.0
220
0.0
230
1.0
 70
     8
 71
     3
 72
    14
 73
    10
 74
     0
 42
0.000000001
 43
0.00000001
 40
0.0
 40
0.0
 40
0.0
 40
0.0
 40
0.25
 40
0.25
 40
0.5
 40
0.5
 40
0.75
 40
0.75
 40
1.0
 40
1.0
 40
1.0
 40
1.0
 10
98.21963747682524
 20
443.7696778352051
 30
0.0
 10
98.21586172767246
 20
443.8946243270679
 30
0.0
 10
98.2329267743724
 20
444.0283759798957
 30
0.0
 10
98.31861040531544
 20
444.290053044473
 30
0.0
 10
98.38745887287416
 20
444.4174298335809
 30
0.0
 10
98.56809880655985
 20
444.6377335150314
 30
0.0
 10
98.6794733478254
 20
444.7301556692624
 30
0.0
 10
98.91908428144018
 20
444.8653569489164
 30
0.0
 10
99.04671124983759
 20
444.9081108289466
 30
0.0
 10
99.16982175961213
 20
444.9290423577481
 30
0.0
  0
SPLINE
  5
10B
330
1F
100
AcDbEntity
  8
0
  6
Continuous
 62
     8
370
    18
100
AcDbSpline
210
0.0
220
0.0
230
1.0
 70
     8
 71
     3
 72
    14
 73
    10
 74
     0
 42
0.000000001
 43
0.00000001
 40
0.0
 40
0.0
 40
0.0
 40
0.0
 40
0.25
 40
0.25
 40
0.5
 40
0.5
 40
0.75
 40
0.75
 40
1.0
 40
1.0
 40
1.0
 40
1.0
 10
142.6548995293941
 20
444.9290423827352
 30
0.0
 10
142.7781067756661
 20
444.9080957942602
 30
0.0
 10
142.9058172197247
 20
444.8650405328322
 30
0.0
 10
143.145469993089
 20
444.7296643512352
 30
0.0
 10
143.2568359900143
 20
444.6372259915644
 30
0.0
 10
143.4375593849809
 20
444.4170204594419
 30
0.0
 10
143.5065058505461
 20
444.2897539947407
 30
0.0
 10
143.5925598390739
 20
444.0282671645977
 30
0.0
 10
143.6098948334989
 20
443.8945893142494
 30
0.0
 10
143.6064269287917
 20
443.7696374404354
 30
0.0
  0
SPLINE
  5
10C
330
1F
100
AcDbEntity
  8
0
  6
Continuous
 62
     8
370
    18
100
AcDbSpline
210
0.0
220
0.0
230
1.0
 70
     8
 71
     3
 72
    15
 73
    11
 74
     0
 42
0.000000001
 43
0.00000001
 40
0.0
 40
0.0
 40
0.0
 40
0.0
 40
0.1149944731873797
 40
0.2313633298468923
 40
0.3485615894796659
 40
0.4679537627858566
 40
0.5910995969958595
 40
0.7196807484732936
 40
0.8554188856759741
 40
0.9999999999999999
 40
0.9999999999999999
 40
0.9999999999999999
 40
0.9999999999999999
 10
143.6063928597613
 20
443.768413481575
 30
0.0
 10
143.601742284238
 20
443.64574512582
 30
0.0
 10
143.5923855507452
 20
443.3989423146268
 30
0.0
 10
143.5389061734372
 20
443.0300243113574
 30
0.0
 10
143.4437332667356
 20
442.6648362396425
 30
0.0
 10
143.3042367122614
 20
442.306311322825
 30
0.0
 10
143.1182645117248
 20
441.9556563638476
 30
0.0
 10
142.8830953820546
 20
441.6147444734965
 30
0.0
 10
142.5989434624667
 20
441.2821676370849
 30
0.0
 10
142.3775189033467
 20
441.0807298959671
 30
0.0
 10
142.263314083942
 20
440.9768337385712
 30
0.0
  0
SPLINE
  5
10D
330
1F
100
AcDbEntity
  8
0
  6
Continuous
 62
     8
370
    18
100
AcDbSpline
210
0.0
220
0.0
230
1.0
 70
     8
 71
     3
 72
    12
 73
     8
 74
     0
 42
0.000000001
 43
0.00000001
 40
0.0
 40
0.0
 40
0.0
 40
0.0
 40
0.1900197195567575
 40
0.3889643460633271
 40
0.5968079994319326
 40
0.8136324235129327
 40
1.0
 40
1.0
 40
1.0
 40
1.0
 10
142.2632800189566
 20
441.6010720700178
 30
0.0
 10
142.2632844760961
 20
441.5578181211097
 30
0.0
 10
142.2632935997194
 20
441.4692786579899
 30
0.0
 10
142.2633035066288
 20
441.3409713387613
 30
0.0
 10
142.2632941826103
 20
441.2117428196414
 30
0.0
 10
142.2632668071874
 20
441.0897255066774
 30
0.0
 10
142.2632991391349
 20
441.0125203189375
 30
0.0
 10
142.263314083942
 20
440.9768337385711
 30
0.0
  0
SPLINE
  5
10E
330
1F
100
AcDbEntity
  8
0
  6
Continuous
 62
     8
370
    18
100
AcDbSpline
210
0.0
220
0.0
230
1.0
 70
     8
 71
     3
 72
    12
 73
     8
 74
     0
 42
0.000000001
 43
0.00000001
 40
0.0
 40
0.0
 40
0.0
 40
0.0
 40
0.1900197195567575
 40
0.3889643460633271
 40
0.5968079994319326
 40
0.8136324235129327
 40
1.0
 40
1.0
 40
1.0
 40
1.0
 10
99.56144497213239
 20
441.6010720700178
 30
0.0
 10
99.56144051499291
 20
441.5578181211097
 30
0.0
 10
99.56143139136961
 20
441.4692786579899
 30
0.0
 10
99.5614214844602
 20
441.3409713387613
 30
0.0
 10
99.56143080847878
 20
441.2117428196414
 30
0.0
 10
99.56145818390156
 20
441.0897255066774
 30
0.0
 10
99.56142585195414
 20
441.0125203189375
 30
0.0
 10
99.561410907147
 20
440.9768337385711
 30
0.0
  0
SPLINE
  5
10F
330
1F
100
AcDbEntity
  8
0
  6
Continuous
 62
     8
370
    18
100
AcDbSpline
210
0.0
220
0.0
230
1.0
 70
     8
 71
     3
 72
    11
 73
     7
 74
     0
 42
0.000000001
 43
0.00000001
 40
0.2369313370957416
 40
0.2369313370957416
 40
0.2369313370957416
 40
0.2369313370957416
 40
0.4869313370957415
 40
0.7369313370957415
 40
0.7369313370957415
 40
1.0
 40
1.0
 40
1.0
 40
1.0
 10
99.561410907147
 20
440.9768337385711
 30
0.0
 10
99.2962788300247
 20
441.2058396746721
 30
0.0
 10
98.81339017124583
 20
441.7243444764282
 30
0.0
 10
98.48912970022349
 20
442.3488131437229
 30
0.0
 10
98.27055446777952
 20
443.0362631766847
 30
0.0
 10
98.23152283873279
 20
443.4006830039541
 30
0.0
 10
98.21967438934412
 20
443.7684509207429
 30
0.0
  0
SPLINE
  5
110
330
1F
100
AcDbEntity
  8
0
  6
Continuous
 62
     8
370
    18
100
AcDbSpline
210
0.0
220
0.0
230
1.0
 70
     8
 71
     3
 72
    20
 73
    16
 74
     0
 42
0.000000001
 43
0.00000001
 40
0.0
 40
0.0
 40
0.0
 40
0.0
 40
0.0625000000000008
 40
0.0625000000000008
 40
0.1250000000000016
 40
0.1250000000000016
 40
0.2500000000000014
 40
0.2500000000000014
 40
0.3750000000000012
 40
0.3750000000000012
 40
0.5000000000000009
 40
0.5000000000000009
 40
0.7500000000000006
 40
0.7500000000000006
 40
1.0
 40
1.0
 40
1.0
 40
1.0
 10
99.56141090714698
 20
440.9768337385712
 30
0.0
 10
99.90684454761058
 20
440.6784679012356
 30
0.0
 10
100.2887349084441
 20
440.4267107530758
 30
0.0
 10
101.098754444739
 20
439.9823112239918
 30
0.0
 10
101.5156028583978
 20
439.795989027378
 30
0.0
 10
102.7878052261257
 20
439.3029060742503
 30
0.0
 10
103.6644358516431
 20
439.0607229731091
 30
0.0
 10
105.4460430990618
 20
438.6624409606902
 30
0.0
 10
106.3490880404916
 20
438.5091702275808
 30
0.0
 10
108.1554977598617
 20
438.2589018193246
 30
0.0
 10
109.0617672895776
 20
438.1619158000121
 30
0.0
 10
111.7865601395147
 20
437.9259215969041
 30
0.0
 10
113.6119344210596
 20
437.8407368258907
 30
0.0
 10
117.2612791401004
 20
437.7390915803099
 30
0.0
 10
119.0866690033487
 20
437.7239797149816
 30
0.0
 10
120.9123624955445
 20
437.7239797149816
 30
0.0
  0
SPLINE
  5
111
330
1F
100
AcDbEntity
  8
0
  6
Continuous
 62
     8
370
    18
100
AcDbSpline
210
0.0
220
0.0
230
1.0
 70
     8
 71
     3
 72
    20
 73
    16
 74
     0
 42
0.000000001
 43
0.00000001
 40
0.0
 40
0.0
 40
0.0
 40
0.0
 40
0.0625000000000008
 40
0.0625000000000008
 40
0.1250000000000016
 40
0.1250000000000016
 40
0.2500000000000014
 40
0.2500000000000014
 40
0.3750000000000012
 40
0.3750000000000012
 40
0.5000000000000009
 40
0.5000000000000009
 40
0.7500000000000006
 40
0.7500000000000006
 40
1.0
 40
1.0
 40
1.0
 40
1.0
 10
142.263314083942
 20
440.9768337385712
 30
0.0
 10
141.9178804434785
 20
440.6784679012356
 30
0.0
 10
141.5359900826449
 20
440.4267107530758
 30
0.0
 10
140.72597054635
 20
439.9823112239918
 30
0.0
 10
140.3091221326912
 20
439.795989027378
 30
0.0
 10
139.0369197649634
 20
439.3029060742503
 30
0.0
 10
138.160289139446
 20
439.0607229731091
 30
0.0
 10
136.3786818920272
 20
438.6624409606902
 30
0.0
 10
135.4756369505974
 20
438.5091702275808
 30
0.0
 10
133.6692272312273
 20
438.2589018193246
 30
0.0
 10
132.7629577015114
 20
438.1619158000121
 30
0.0
 10
130.0381648515744
 20
437.9259215969041
 30
0.0
 10
128.2127905700294
 20
437.8407368258907
 30
0.0
 10
124.5634458509886
 20
437.7390915803099
 30
0.0
 10
122.7380559877404
 20
437.7239797149816
 30
0.0
 10
120.9123624955445
 20
437.7239797149816
 30
0.0
  0
SPLINE
  5
112
330
1F
100
AcDbEntity
  8
0
  6
Continuous
 62
     8
370
    18
100
AcDbSpline
210
0.0
220
0.0
230
1.0
 70
     8
 71
     3
 72
    15
 73
    11
 74
     0
 42
0.000000001
 43
0.00000001
 40
0.0
 40
0.0
 40
0.0
 40
0.0
 40
0.1249624284153597
 40
0.2499787827366991
 40
0.3488608171509847
 40
0.4999911648283319
 40
0.6780128236950352
 40
0.8207329653843108
 40
0.9280838064668686
 40
1.0
 40
1.0
 40
1.0
 40
1.0
 10
97.57517577505797
 20
409.1705997722438
 30
0.0
 10
97.54557411225967
 20
409.1695049029608
 30
0.0
 10
97.48635801245162
 20
409.1673146919183
 30
0.0
 10
97.4048973361854
 20
409.173895731436
 30
0.0
 10
97.32504406886629
 20
409.17781868544
 30
0.0
 10
97.24119206071747
 20
409.1775052296488
 30
0.0
 10
97.15736240753127
 20
409.1825912150829
 30
0.0
 10
97.0898192877285
 20
409.1880078770907
 30
0.0
 10
97.04460982626789
 20
409.1935953047692
 30
0.0
 10
97.02046060272617
 20
409.1867460120727
 30
0.0
 10
97.01077270758346
 20
409.183998295181
 30
0.0
  0
SPLINE
  5
113
330
1F
100
AcDbEntity
  8
0
  6
Continuous
 62
     8
370
    18
100
AcDbSpline
210
0.0
220
0.0
230
1.0
 70
     8
 71
     3
 72
    14
 73
    10
 74
     0
 42
0.000000001
 43
0.00000001
 40
0.0
 40
0.0
 40
0.0
 40
0.0
 40
0.125
 40
0.125
 40
0.25
 40
0.25
 40
0.5
 40
0.5
 40
1.0
 40
1.0
 40
1.0
 40
1.0
 10
144.8139522835056
 20
409.183998295181
 30
0.0
 10
144.7977569513687
 20
409.192383849099
 30
0.0
 10
144.7801454759812
 20
409.1835336945645
 30
0.0
 10
144.7448620247964
 20
409.1821773843732
 30
0.0
 10
144.7263221857969
 20
409.1818478552942
 30
0.0
 10
144.6672484467302
 20
409.1808870269911
 30
0.0
 10
144.6238592864892
 20
409.1795768311486
 30
0.0
 10
144.4832776015842
 20
409.1758173277196
 30
0.0
 10
144.3605484424571
 20
409.1716509058732
 30
0.0
 10
144.249549216031
 20
409.1705997722438
 30
0.0
  0
SPLINE
  5
114
330
1F
100
AcDbEntity
  8
0
  6
Continuous
 62
     8
370
    18
100
AcDbSpline
210
0.0
220
0.0
230
1.0
 70
     8
 71
     3
 72
    12
 73
     8
 74
     0
 42
0.000000001
 43
0.00000001
 40
0.0
 40
0.0
 40
0.0
 40
0.0
 40
0.5
 40
0.5
 40
0.75
 40
0.75
 40
1.0
 40
1.0
 40
1.0
 40
1.0
 10
142.263314083942
 20
440.9768337385712
 30
0.0
 10
142.2669714197237
 20
440.9200753246649
 30
0.0
 10
142.2684822782845
 20
440.8630593170673
 30
0.0
 10
142.2677416224199
 20
440.7776061560116
 30
0.0
 10
142.2669977519594
 20
440.7491790357567
 30
0.0
 10
142.264578452966
 20
440.692844906021
 30
0.0
 10
142.262907213251
 20
440.6655782002299
 30
0.0
 10
142.2607695265296
 20
440.6338381439976
 30
0.0
  0
SPLINE
  5
115
330
1F
100
AcDbEntity
  8
0
  6
Continuous
 62
     8
370
    18
100
AcDbSpline
210
0.0
220
0.0
230
1.0
 70
     8
 71
     3
 72
    15
 73
    11
 74
     0
 42
0.000000001
 43
0.00000001
 40
0.4845559852039255
 40
0.4845559852039255
 40
0.4845559852039255
 40
0.4845559852039255
 40
0.5103262482260962
 40
0.6021400766837032
 40
0.6939539051413102
 40
0.7016050575127774
 40
0.816372343084786
 40
0.9311396286567948
 40
0.974177360746298
 40
1.0
 40
1.0
 40
1.0
 40
1.0
 10
99.56145518906685
 20
440.6306684002744
 30
0.0
 10
99.56145415685724
 20
440.63670969919
 30
0.0
 10
99.56144934207582
 20
440.6637340114044
 30
0.0
 10
99.56144167136355
 20
440.7114156881566
 30
0.0
 10
99.5614357117493
 20
440.754456660928
 30
0.0
 10
99.56142952574714
 20
440.8024222967606
 30
0.0
 10
99.56142332631872
 20
440.8552079136981
 30
0.0
 10
99.56141591207236
 20
440.9231932561195
 30
0.0
 10
99.56141288187548
 20
440.9567436497066
 30
0.0
 10
99.5614114756013
 20
440.9711434363724
 30
0.0
 10
99.561410907147
 20
440.9768337385711
 30
0.0
  0
SPLINE
  5
116
330
1F
100
AcDbEntity
  8
0
  6
Continuous
 62
     8
370
    18
100
AcDbSpline
210
0.0
220
0.0
230
1.0
 70
     8
 71
     3
 72
    14
 73
    10
 74
     0
 42
0.000000001
 43
0.00000001
 40
0.0
 40
0.0
 40
0.0
 40
0.0
 40
0.25
 40
0.25
 40
0.5
 40
0.5
 40
0.75
 40
0.75
 40
1.0
 40
1.0
 40
1.0
 40
1.0
 10
97.71294528961464
 20
443.746450071411
 30
0.0
 10
97.7026363316295
 20
443.8708949422706
 30
0.0
 10
97.71326780570696
 20
444.0059264678769
 30
0.0
 10
97.78880179124853
 20
444.2726462773383
 30
0.0
 10
97.8540186962964
 20
444.4037124854943
 30
0.0
 10
98.03072803548059
 20
444.6308027197375
 30
0.0
 10
98.14174536764001
 20
444.7262161614362
 30
0.0
 10
98.38170624719383
 20
444.8649396112332
 30
0.0
 10
98.50996967064619
 20
444.9084016847345
 30
0.0
 10
98.63311404860346
 20
444.9289607596549
 30
0.0
  0
SPLINE
  5
117
330
1F
100
AcDbEntity
  8
0
  6
Continuous
 62
     8
370
    18
100
AcDbSpline
210
0.0
220
0.0
230
1.0
 70
     8
 71
     3
 72
    14
 73
    10
 74
     0
 42
0.000000001
 43
0.00000001
 40
0.0
 40
0.0
 40
0.0
 40
0.0
 40
0.25
 40
0.25
 40
0.5
 40
0.5
 40
0.75
 40
0.75
 40
1.0
 40
1.0
 40
1.0
 40
1.0
 10
143.1916213448961
 20
444.928961307445
 30
0.0
 10
143.3149084707122
 20
444.9084982699146
 30
0.0
 10
143.4433383697755
 20
444.865118394265
 30
0.0
 10
143.6836705222365
 20
444.7265049817412
 30
0.0
 10
143.794892749006
 20
444.6311187681523
 30
0.0
 10
143.9720210206387
 20
444.4040069142858
 30
0.0
 10
144.037451264936
 20
444.2728913400784
 30
0.0
 10
144.1133785832854
 20
444.0060004586997
 30
0.0
 10
144.1241892091892
 20
443.8708477180305
 30
0.0
 10
144.1140284171439
 20
443.74626145797
 30
0.0
  0
SPLINE
  5
118
330
1F
100
AcDbEntity
  8
0
  6
Continuous
 62
     8
370
    18
100
AcDbSpline
210
0.0
220
0.0
230
1.0
 70
     8
 71
     3
 72
    24
 73
    20
 74
     0
 42
0.000000001
 43
0.00000001
 40
0.0
 40
0.0
 40
0.0
 40
0.0
 40
0.0548250815495503
 40
0.1096672160139454
 40
0.1645752845454981
 40
0.2196201127680072
 40
0.2748940923439851
 40
0.3305090094833322
 40
0.386589556289151
 40
0.4432676550712923
 40
0.5006774227837152
 40
0.5589503491842119
 40
0.6182110608598973
 40
0.67857399349717
 40
0.7401412153998265
 40
0.8030014130304725
 40
0.8672275146798633
 40
0.9328776467738316
 40
1.0
 40
1.0
 40
1.0
 40
1.0
 10
142.26325061803
 20
439.6086190650067
 30
0.0
 10
142.3250175638011
 20
439.6678115373078
 30
0.0
 10
142.448570667471
 20
439.7862148932675
 30
0.0
 10
142.6244969876367
 20
439.9731298780651
 30
0.0
 10
142.792678366211
 20
440.1672251775268
 30
0.0
 10
142.951878010328
 20
440.3694101759624
 30
0.0
 10
143.1017282534469
 20
440.5797350915996
 30
0.0
 10
143.2417883480934
 20
440.7983971896372
 30
0.0
 10
143.3717790233961
 20
441.0254924408753
 30
0.0
 10
143.4914980565611
 20
441.2610940869837
 30
0.0
 10
143.6008405620552
 20
441.5052316633106
 30
0.0
 10
143.6997893333354
 20
441.7579000229856
 30
0.0
 10
143.7884082858545
 20
442.0190619381243
 30
0.0
 10
143.8668361167279
 20
442.2886534283406
 30
0.0
 10
143.9352553679048
 20
442.5665906434209
 30
0.0
 10
143.9939398053301
 20
442.8527688251402
 30
0.0
 10
144.0429978281859
 20
443.1470762991498
 30
0.0
 10
144.0835607129099
 20
443.449312844215
 30
0.0
 10
144.1029179946687
 20
443.6538654640781
 30
0.0
 10
144.1127039552206
 20
443.7572758444041
 30
0.0
  0
SPLINE
  5
119
330
1F
100
AcDbEntity
  8
0
  6
Continuous
 62
     8
370
    18
100
AcDbSpline
210
0.0
220
0.0
230
1.0
 70
     8
 71
     3
 72
    12
 73
     8
 74
     0
 42
0.000000001
 43
0.00000001
 40
0.0
 40
0.0
 40
0.0
 40
0.0
 40
0.0515017344177432
 40
0.2132814270154839
 40
0.3750611196132245
 40
0.4596018249962693
 40
0.4845559852039255
 40
0.4845559852039255
 40
0.4845559852039255
 40
0.4845559852039255
 10
142.26325061803
 20
439.6086190650067
 30
0.0
 10
142.2632547936562
 20
439.6788145501164
 30
0.0
 10
142.2632707601155
 20
439.9521770803635
 30
0.0
 10
142.2632795704365
 20
440.3250717916524
 30
0.0
 10
142.2632569625723
 20
440.5239432085161
 30
0.0
 10
142.2632645114726
 20
440.5986619762588
 30
0.0
 10
142.263268802501
 20
440.6248184195865
 30
0.0
 10
142.2632698020222
 20
440.6306684002744
 30
0.0
  0
SPLINE
  5
11A
330
1F
100
AcDbEntity
  8
0
  6
Continuous
 62
     8
370
    18
100
AcDbSpline
210
0.0
220
0.0
230
1.0
 70
     8
 71
     3
 72
    15
 73
    11
 74
     0
 42
0.000000001
 43
0.00000001
 40
0.0
 40
0.0
 40
0.0
 40
0.0
 40
0.1134764431331737
 40
0.2259517996074448
 40
0.337277474969117
 40
0.4473160996262364
 40
0.667651296220567
 40
0.8937190438171432
 40
0.9455546678914274
 40
1.0
 40
1.0
 40
1.0
 40
1.0
 10
99.56144497688494
 20
440.6358180986568
 30
0.0
 10
99.56144737188447
 20
440.6220755966854
 30
0.0
 10
99.56145214075487
 20
440.5947118287895
 30
0.0
 10
99.56146143504935
 20
440.5391329468819
 30
0.0
 10
99.56145574087842
 20
440.4705781937373
 30
0.0
 10
99.56142851723487
 20
440.3577756743488
 30
0.0
 10
99.56154086588242
 20
440.1686905015405
 30
0.0
 10
99.56143110363165
 20
439.9224123884525
 30
0.0
 10
99.56145232140234
 20
439.717885531857
 30
0.0
 10
99.56145516345231
 20
439.6456137682931
 30
0.0
 10
99.56145661937029
 20
439.6085905770213
 30
0.0
  0
SPLINE
  5
11B
330
1F
100
AcDbEntity
  8
0
  6
Continuous
 62
     8
370
    18
100
AcDbSpline
210
0.0
220
0.0
230
1.0
 70
     8
 71
     3
 72
    11
 73
     7
 74
     0
 42
0.000000001
 43
0.00000001
 40
0.1785637259795748
 40
0.1785637259795748
 40
0.1785637259795748
 40
0.1785637259795748
 40
0.5
 40
0.5
 40
0.75
 40
1.0
 40
1.0
 40
1.0
 40
1.0
 10
97.70978102805702
 20
443.7570584503393
 30
0.0
 10
97.76045775559692
 20
443.1556781018245
 30
0.0
 10
97.86368845195868
 20
442.5606656733676
 30
0.0
 10
98.19707201220147
 20
441.5264275691786
 30
0.0
 10
98.60589783427893
 20
440.6658544367796
 30
0.0
 10
99.21517234392228
 20
439.9331867204216
 30
0.0
 10
99.56147437305904
 20
439.6086190650067
 30
0.0
  0
SPLINE
  5
11C
330
1F
100
AcDbEntity
  8
0
  6
Continuous
 62
     8
370
    18
100
AcDbSpline
210
0.0
220
0.0
230
1.0
 70
     8
 71
     3
 72
    22
 73
    18
 74
     0
 42
0.000000001
 43
0.00000001
 40
0.0
 40
0.0
 40
0.0
 40
0.0
 40
0.2500000000000002
 40
0.2500000000000002
 40
0.3750000000000002
 40
0.3750000000000002
 40
0.5000000000000002
 40
0.5000000000000002
 40
0.6250000000000003
 40
0.6250000000000003
 40
0.7500000000000003
 40
0.7500000000000003
 40
0.8750000000000004
 40
0.8750000000000004
 40
0.9375000000000003
 40
0.9375000000000003
 40
1.0
 40
1.0
 40
1.0
 40
1.0
 10
120.9123624955445
 20
434.6609796553298
 30
0.0
 10
122.7730969108195
 20
434.6609753144226
 30
0.0
 10
124.626122763599
 20
434.7523290203596
 30
0.0
 10
127.3946292456
 20
435.0201088750543
 30
0.0
 10
128.3156504753425
 20
435.13087058377
 30
0.0
 10
130.1541669388994
 20
435.3941823502991
 30
0.0
 10
131.0720737701315
 20
435.5467187318619
 30
0.0
 10
132.8959932515316
 20
435.8943844060806
 30
0.0
 10
133.8030271338038
 20
436.0893972662557
 30
0.0
 10
135.6046485480069
 20
436.532939341405
 30
0.0
 10
136.5013462170543
 20
436.7814969429215
 30
0.0
 10
138.2653341668649
 20
437.3599176524276
 30
0.0
 10
139.131562333938
 20
437.6871025896338
 30
0.0
 10
140.3823134728453
 20
438.2949198070064
 30
0.0
 10
140.7928143066301
 20
438.519024141672
 30
0.0
 10
141.5659995011843
 20
439.0184677056362
 30
0.0
 10
141.9292579437133
 20
439.2960612927818
 30
0.0
 10
142.2632683717188
 20
439.6085905770213
 30
0.0
  0
SPLINE
  5
11D
330
1F
100
AcDbEntity
  8
0
  6
Continuous
 62
     8
370
    18
100
AcDbSpline
210
0.0
220
0.0
230
1.0
 70
     8
 71
     3
 72
    22
 73
    18
 74
     0
 42
0.000000001
 43
0.00000001
 40
0.0
 40
0.0
 40
0.0
 40
0.0
 40
0.2500000000000002
 40
0.2500000000000002
 40
0.3750000000000002
 40
0.3750000000000002
 40
0.5000000000000002
 40
0.5000000000000002
 40
0.6250000000000003
 40
0.6250000000000003
 40
0.7500000000000003
 40
0.7500000000000003
 40
0.8750000000000004
 40
0.8750000000000004
 40
0.9375000000000003
 40
0.9375000000000003
 40
1.0
 40
1.0
 40
1.0
 40
1.0
 10
120.9123624955445
 20
434.6609796553298
 30
0.0
 10
119.0516280802695
 20
434.6609753144226
 30
0.0
 10
117.1986022274901
 20
434.7523290203596
 30
0.0
 10
114.430095745489
 20
435.0201088750543
 30
0.0
 10
113.5090745157465
 20
435.13087058377
 30
0.0
 10
111.6705580521896
 20
435.3941823502991
 30
0.0
 10
110.7526512209576
 20
435.5467187318619
 30
0.0
 10
108.9287317395574
 20
435.8943844060806
 30
0.0
 10
108.0216978572852
 20
436.0893972662557
 30
0.0
 10
106.2200764430821
 20
436.532939341405
 30
0.0
 10
105.3233787740347
 20
436.7814969429215
 30
0.0
 10
103.5593908242241
 20
437.3599176524276
 30
0.0
 10
102.693162657151
 20
437.6871025896338
 30
0.0
 10
101.4424115182437
 20
438.2949198070064
 30
0.0
 10
101.0319106844589
 20
438.519024141672
 30
0.0
 10
100.2587254899048
 20
439.0184677056362
 30
0.0
 10
99.89546704737577
 20
439.2960612927818
 30
0.0
 10
99.56145661937026
 20
439.6085905770213
 30
0.0
  0
SPLINE
  5
11E
330
1F
100
AcDbEntity
  8
0
  6
Continuous
 62
     8
370
    18
100
AcDbSpline
210
0.0
220
0.0
230
1.0
 70
     8
 71
     3
 72
    26
 73
    22
 74
     0
 42
0.000000001
 43
0.00000001
 40
0.0
 40
0.0
 40
0.0
 40
0.0
 40
0.0229783973521373
 40
0.0454440410219281
 40
0.0895281388663343
 40
0.1321733324382826
 40
0.2223995746300195
 40
0.3056118485998675
 40
0.3925859688439277
 40
0.4366487500192328
 40
0.4794980365292439
 40
0.565890887011988
 40
0.6529339794810229
 40
0.6955836006339728
 40
0.7397269924016772
 40
0.8265145651672838
 40
0.8698890896517983
 40
0.9132309910306464
 40
0.9565985523750363
 40
0.97595077223109
 40
1.0
 40
1.0
 40
1.0
 40
1.0
 10
142.26325061803
 20
439.6086190650072
 30
0.0
 10
142.2632642754718
 20
439.5663902922155
 30
0.0
 10
142.2632912855951
 20
439.4828750646896
 30
0.0
 10
142.2633550348351
 20
439.3001817002859
 30
0.0
 10
142.2632835663638
 20
439.0509215279574
 30
0.0
 10
142.2632762778977
 20
438.5821561046045
 30
0.0
 10
142.2630727444501
 20
437.8785673926943
 30
0.0
 10
142.2637509008217
 20
436.7728545641241
 30
0.0
 10
142.2617907183997
 20
435.6093133975819
 30
0.0
 10
142.2625813021831
 20
434.4893526035723
 30
0.0
 10
142.2636827457043
 20
433.2522128975706
 30
0.0
 10
142.2631617964937
 20
431.4770876604373
 30
0.0
 10
142.2635566219153
 20
429.4355047152864
 30
0.0
 10
142.2627990204543
 20
427.6729055434645
 30
0.0
 10
142.2624424886248
 20
425.8468102678732
 30
0.0
 10
142.2655150080059
 20
423.9340847897429
 30
0.0
 10
142.2645058731278
 20
421.9809328833986
 30
0.0
 10
142.2582574857866
 20
420.4953174603706
 30
0.0
 10
142.2556828632616
 20
419.2742328521481
 30
0.0
 10
142.2563099732546
 20
418.2725009532724
 30
0.0
 10
142.2607904681527
 20
417.7707733604124
 30
0.0
 10
142.2632731605102
 20
417.4927604871345
 30
0.0
  0
SPLINE
  5
11F
330
1F
100
AcDbEntity
  8
0
  6
Continuous
 62
     8
370
    18
100
AcDbSpline
210
0.0
220
0.0
230
1.0
 70
     8
 71
     3
 72
    32
 73
    28
 74
     0
 42
0.000000001
 43
0.00000001
 40
0.0
 40
0.0
 40
0.0
 40
0.0
 40
0.0229619548275955
 40
0.0456393398790453
 40
0.0680388448556608
 40
0.0901351540091373
 40
0.1118358549629038
 40
0.1331108087577718
 40
0.1539709876297664
 40
0.174421511132112
 40
0.1944680967463107
 40
0.2141179828274683
 40
0.233379642893813
 40
0.2522623284372483
 40
0.3172101860012173
 40
0.3796579863323871
 40
0.4402336575372052
 40
0.4997062811698749
 40
0.5835165096172876
 40
0.6660229296457808
 40
0.7497023535535443
 40
0.807168594903201
 40
0.8746626488871766
 40
0.9120464415211615
 40
0.9456832972309924
 40
0.9751955324708319
 40
1.0
 40
1.0
 40
1.0
 40
1.0
 10
99.56145149434047
 20
439.6085952790384
 30
0.0
 10
99.56142520161836
 20
439.5664359469457
 30
0.0
 10
99.56137294202239
 20
439.4826397675308
 30
0.0
 10
99.56099583446567
 20
439.3441022453596
 30
0.0
 10
99.56047942371721
 20
439.1966596391126
 30
0.0
 10
99.55986730495279
 20
439.0393858195569
 30
0.0
 10
99.55923480327266
 20
438.8731218681178
 30
0.0
 10
99.55865911837114
 20
438.698072446812
 30
0.0
 10
99.55822148793028
 20
438.5142065113236
 30
0.0
 10
99.55800824992212
 20
438.3214446668384
 30
0.0
 10
99.55810051466746
 20
438.119727052882
 30
0.0
 10
99.55861754540089
 20
437.9089534716159
 30
0.0
 10
99.55955913713402
 20
437.6891636281265
 30
0.0
 10
99.56286371120396
 20
437.2719799485964
 30
0.0
 10
99.56604588200148
 20
436.6058489039161
 30
0.0
 10
99.56512754267457
 20
435.5886084645979
 30
0.0
 10
99.56253226102871
 20
434.4294709709417
 30
0.0
 10
99.56083649188038
 20
432.9347493225534
 30
0.0
 10
99.56157141314878
 20
431.015897343089
 30
0.0
 10
99.56226817594614
 20
428.6071786570171
 30
0.0
 10
99.5626367228901
 20
426.2646038857699
 30
0.0
 10
99.55904649018076
 20
423.9860624431416
 30
0.0
 10
99.55978882687744
 20
422.1607593126011
 30
0.0
 10
99.56552649847256
 20
420.5789631994006
 30
0.0
 10
99.56870203146123
 20
419.4227661381126
 30
0.0
 10
99.56963310547187
 20
418.407133069179
 30
0.0
 10
99.56401195224949
 20
417.7794157977297
 30
0.0
 10
99.56144497550984
 20
417.4927600936201
 30
0.0
  0
SPLINE
  5
120
330
1F
100
AcDbEntity
  8
0
  6
Continuous
 62
     8
370
    18
100
AcDbSpline
210
0.0
220
0.0
230
1.0
 70
     8
 71
     3
 72
     8
 73
     4
 74
     0
 42
0.000000001
 43
0.00000001
 40
0.0
 40
0.0
 40
0.0
 40
0.0
 40
1.0
 40
1.0
 40
1.0
 40
1.0
 10
144.6986091451075
 20
443.78576865939
 30
0.0
 10
144.6991835771613
 20
440.5818209867633
 30
0.0
 10
144.7070127036008
 20
437.3778482910794
 30
0.0
 10
144.6813587306848
 20
434.1739885611849
 30
0.0
  0
SPLINE
  5
121
330
1F
100
AcDbEntity
  8
0
  6
Continuous
 62
     8
370
    18
100
AcDbSpline
210
0.0
220
0.0
230
1.0
 70
     8
 71
     3
 72
    10
 73
     6
 74
     0
 42
0.000000001
 43
0.00000001
 40
0.0
 40
0.0
 40
0.0
 40
0.0
 40
0.5
 40
0.5
 40
1.0
 40
1.0
 40
1.0
 40
1.0
 10
144.6813587306848
 20
434.1739885611849
 30
0.0
 10
144.7356434629383
 20
434.1742752448333
 30
0.0
 10
144.7795848540632
 20
434.174561953361
 30
0.0
 10
144.8476277298539
 20
434.1751354181382
 30
0.0
 10
144.8684892176259
 20
434.1754221821811
 30
0.0
 10
144.8733973122876
 20
434.1757089845973
 30
0.0
  0
SPLINE
  5
122
330
1F
100
AcDbEntity
  8
0
  6
Continuous
 62
     8
370
    18
100
AcDbSpline
210
0.0
220
0.0
230
1.0
 70
     8
 71
     3
 72
    10
 73
     6
 74
     0
 42
0.000000001
 43
0.00000001
 40
0.0
 40
0.0
 40
0.0
 40
0.0
 40
0.5
 40
0.5
 40
1.0
 40
1.0
 40
1.0
 40
1.0
 10
97.14336626040422
 20
434.1739885611849
 30
0.0
 10
97.0890815281507
 20
434.1742752448333
 30
0.0
 10
97.04514013702578
 20
434.174561953361
 30
0.0
 10
96.9770972612351
 20
434.1751354181382
 30
0.0
 10
96.95623577346306
 20
434.1754221821811
 30
0.0
 10
96.9513276788014
 20
434.1757089845973
 30
0.0
  0
SPLINE
  5
123
330
1F
100
AcDbEntity
  8
0
  6
Continuous
 62
     8
370
    18
100
AcDbSpline
210
0.0
220
0.0
230
1.0
 70
     8
 71
     3
 72
     8
 73
     4
 74
     0
 42
0.000000001
 43
0.00000001
 40
0.0
 40
0.0
 40
0.0
 40
0.0
 40
1.0
 40
1.0
 40
1.0
 40
1.0
 10
97.12611584598153
 20
443.78576865939
 30
0.0
 10
97.12554141392776
 20
440.5818209867633
 30
0.0
 10
97.11771228748825
 20
437.3778482910794
 30
0.0
 10
97.14336626040422
 20
434.1739885611849
 30
0.0
  0
SPLINE
  5
124
330
1F
100
AcDbEntity
  8
0
  6
Continuous
 62
     8
370
    18
100
AcDbSpline
210
0.0
220
0.0
230
1.0
 70
     8
 71
     3
 72
    11
 73
     7
 74
     0
 42
0.000000001
 43
0.00000001
 40
0.0
 40
0.0
 40
0.0
 40
0.0
 40
0.3009216488254936
 40
0.621620480534545
 40
0.9423193122435963
 40
1.0
 40
1.0
 40
1.0
 40
1.0
 10
144.698281773586
 20
443.785962601417
 30
0.0
 10
144.6853396928389
 20
443.9181441401867
 30
0.0
 10
144.6586049514716
 20
444.1911944573325
 30
0.0
 10
144.4368516569336
 20
444.5452569433542
 30
0.0
 10
144.2071863312244
 20
444.7671364536182
 30
0.0
 10
144.0496417191288
 20
444.8168394382986
 30
0.0
 10
144.025625404528
 20
444.824416228776
 30
0.0
  0
SPLINE
  5
125
330
1F
100
AcDbEntity
  8
0
  6
Continuous
 62
     8
370
    18
100
AcDbSpline
210
0.0
220
0.0
230
1.0
 70
     8
 71
     3
 72
    11
 73
     7
 74
     0
 42
0.000000001
 43
0.00000001
 40
0.0
 40
0.0
 40
0.0
 40
0.0
 40
0.2995867381604104
 40
0.6188637044883804
 40
0.9381412168672234
 40
1.0
 40
1.0
 40
1.0
 40
1.0
 10
97.12644492588261
 20
443.7859636600407
 30
0.0
 10
97.1393882958241
 20
443.9181301045991
 30
0.0
 10
97.16612573393552
 20
444.1911495846694
 30
0.0
 10
97.38776376910208
 20
444.5454276741114
 30
0.0
 10
97.6191752908611
 20
444.7681059184616
 30
0.0
 10
97.77868109087288
 20
444.8181652883051
 30
0.0
 10
97.80456903386742
 20
444.8262899716254
 30
0.0
  0
ARC
  5
126
330
1F
100
AcDbEntity
  8
0
  6
Continuous
 62
     8
370
    18
100
AcDbCircle
 10
120.9123624955
 20
424.7640460534
 30
0.0
 40
3.781418633081868
100
AcDbArc
 50
121.0503862818
 51
58.9496137182
  0
ARC
  5
127
330
1F
100
AcDbEntity
  8
0
  6
Continuous
 62
     8
370
    18
100
AcDbCircle
 10
142.0715367896
 20
414.9556509432
 30
0.0
 40
0.1917516175530047
100
AcDbArc
 50
272.2415686564
 51
359.3246910036
  0
LINE
  5
128
330
1F
100
AcDbEntity
  8
0
  6
Continuous
 62
     8
370
    18
100
AcDbLine
 10
120.9123624955
 20
414.9362328758
 30
0.0
 11
120.9123624955
 21
414.7640460534
 31
0.0
  0
ARC
  5
129
330
1F
100
AcDbEntity
  8
0
  6
Continuous
 62
     8
370
    18
100
AcDbCircle
 10
99.7531882015
 20
414.9556509432
 30
0.0
 40
0.1917516175530188
100
AcDbArc
 50
180.6753089964
 51
267.7584313436
  0
SPLINE
  5
12A
330
1F
100
AcDbEntity
  8
0
  6
Continuous
 62
     8
370
    18
100
AcDbSpline
210
0.0
220
0.0
230
1.0
 70
     8
 71
     3
 72
     9
 73
     5
 74
     0
 42
0.000000001
 43
0.00000001
 40
0.0
 40
0.0
 40
0.0
 40
0.0
 40
0.4627251795972675
 40
1.0
 40
1.0
 40
1.0
 40
1.0
 10
142.2632750883647
 20
414.9533909408637
 30
0.0
 10
142.2632771112999
 20
415.3452242169416
 30
0.0
 10
142.2632814830855
 20
416.1920190173003
 30
0.0
 10
142.2632805293249
 20
417.0381533897587
 30
0.0
 10
142.2632800168933
 20
417.4927600827579
 30
0.0
  0
SPLINE
  5
12B
330
1F
100
AcDbEntity
  8
0
  6
Continuous
 62
     8
370
    18
100
AcDbSpline
210
0.0
220
0.0
230
1.0
 70
     8
 71
     3
 72
     9
 73
     5
 74
     0
 42
0.000000001
 43
0.00000001
 40
0.0
 40
0.0
 40
0.0
 40
0.0
 40
0.4627251795972675
 40
1.0
 40
1.0
 40
1.0
 40
1.0
 10
99.56144990272436
 20
414.9533909408637
 30
0.0
 10
99.56144787978909
 20
415.3452242169416
 30
0.0
 10
99.5614435080035
 20
416.1920190173003
 30
0.0
 10
99.56144446176413
 20
417.0381533897587
 30
0.0
 10
99.5614449741957
 20
417.4927600827579
 30
0.0
  0
SPLINE
  5
12C
330
1F
100
AcDbEntity
  8
0
  6
Continuous
 62
     7
370
    25
100
AcDbSpline
210
0.0
220
0.0
230
1.0
 70
     8
 71
     3
 72
    12
 73
     8
 74
     0
 42
0.000000001
 43
0.00000001
 40
0.0
 40
0.0
 40
0.0
 40
0.0
 40
0.0027814889492414
 40
0.2162391665122553
 40
0.4900190520508871
 40
0.8143425600521514
 40
1.0
 40
1.0
 40
1.0
 40
1.0
 10
315.4826230602754
 20
384.1114144410358
 30
0.0
 10
315.4920424800632
 20
384.1138782997039
 30
0.0
 10
316.2243292232852
 20
384.3054241783748
 30
0.0
 10
317.8882732024846
 20
384.6732029220642
 30
0.0
 10
320.6402385541717
 20
385.2065391044522
 30
0.0
 10
323.3089331447954
 20
385.62235619458
 30
0.0
 10
325.0993175221073
 20
385.802528446825
 30
0.0
 10
325.7511030081163
 20
385.8681197581004
 30
0.0
  0
SPLINE
  5
12D
330
1F
100
AcDbEntity
  8
0
  6
Continuous
 62
     7
370
    25
100
AcDbSpline
210
0.0
220
0.0
230
1.0
 70
     8
 71
     3
 72
    15
 73
    11
 74
     0
 42
0.000000001
 43
0.00000001
 40
0.0
 40
0.0
 40
0.0
 40
0.0
 40
0.1204601468564232
 40
0.2761895579325039
 40
0.4331545983269641
 40
0.5953329802975695
 40
0.743770405075811
 40
0.8605888418167251
 40
0.9476910053980494
 40
1.0
 40
1.0
 40
1.0
 40
1.0
 10
275.3008503215224
 20
335.8394011053336
 30
0.0
 10
275.399577412797
 20
336.6084868679458
 30
0.0
 10
275.6259376855238
 20
338.3718373397094
 30
0.0
 10
276.1379243019626
 20
341.3376821095033
 30
0.0
 10
276.8787611281635
 20
344.5791544598567
 30
0.0
 10
277.7830530793095
 20
347.6843454595177
 30
0.0
 10
278.7191330183618
 20
350.4507784434907
 30
0.0
 10
279.5865269988802
 20
352.7222850968422
 30
0.0
 10
280.2673699773591
 20
354.3608755131897
 30
0.0
 10
280.6677835456442
 20
355.2395857654606
 30
0.0
 10
280.8180242541707
 20
355.5692900046455
 30
0.0
  0
LINE
  5
12E
330
1F
100
AcDbEntity
  8
0
  6
Continuous
 62
     7
370
    25
100
AcDbLine
 10
296.3753532325
 20
434.1861483997
 30
0.0
 11
297.2357757895
 21
434.5924513437
 31
0.0
  0
LINE
  5
12F
330
1F
100
AcDbEntity
  8
0
  6
Continuous
 62
     7
370
    25
100
AcDbLine
 10
296.027259645
 20
434.0217739906
 30
0.0
 11
296.3753532325
 21
434.1861483997
 31
0.0
  0
SPLINE
  5
130
330
1F
100
AcDbEntity
  8
0
  6
Continuous
 62
     7
370
    25
100
AcDbSpline
210
0.0
220
0.0
230
1.0
 70
     8
 71
     3
 72
     9
 73
     5
 74
     0
 42
0.000000001
 43
0.00000001
 40
0.0
 40
0.0
 40
0.0
 40
0.0
 40
0.3892929245248723
 40
1.0
 40
1.0
 40
1.0
 40
1.0
 10
359.9515903007045
 20
445.0302840995566
 30
0.0
 10
359.2065130266616
 20
445.2278998898017
 30
0.0
 10
357.2925885058079
 20
445.7355273800424
 30
0.0
 10
355.3855884444379
 20
446.0015042374469
 30
0.0
 10
354.2209700140277
 20
446.1639381861763
 30
0.0
  0
SPLINE
  5
131
330
1F
100
AcDbEntity
  8
0
  6
Continuous
 62
     7
370
    25
100
AcDbSpline
210
0.0
220
0.0
230
1.0
 70
     8
 71
     3
 72
    11
 73
     7
 74
     0
 42
0.000000001
 43
0.00000001
 40
0.0
 40
0.0
 40
0.0
 40
0.0
 40
0.2524667268745402
 40
0.5439675045133181
 40
0.8188794740097154
 40
1.0
 40
1.0
 40
1.0
 40
1.0
 10
380.7778092076956
 20
394.8434006405048
 30
0.0
 10
381.0974424523507
 20
395.0251515816828
 30
0.0
 10
381.7861276529987
 20
395.4167540995255
 30
0.0
 10
382.8608366166871
 20
396.103880134731
 30
0.0
 10
383.8293875993288
 20
396.7655500370159
 30
0.0
 10
384.3397691983738
 20
397.1541716097439
 30
0.0
 10
384.542475331357
 20
397.3085188204367
 30
0.0
  0
SPLINE
  5
132
330
1F
100
AcDbEntity
  8
0
  6
Continuous
 62
     7
370
    25
100
AcDbSpline
210
0.0
220
0.0
230
1.0
 70
     8
 71
     3
 72
    15
 73
    11
 74
     0
 42
0.000000001
 43
0.00000001
 40
0.0
 40
0.0
 40
0.0
 40
0.0
 40
0.1164652475375479
 40
0.2393261358847263
 40
0.3659429204191859
 40
0.4950713313054609
 40
0.6257338857298856
 40
0.7554410927925267
 40
0.8811517988596483
 40
1.0
 40
1.0
 40
1.0
 40
1.0
 10
393.9897074874771
 20
409.1419699667546
 30
0.0
 10
394.0247700321471
 20
409.2119666486056
 30
0.0
 10
394.096820566599
 20
409.3558038510874
 30
0.0
 10
394.1464926243003
 20
409.6073195060858
 30
0.0
 10
394.1394985940854
 20
409.8794167109179
 30
0.0
 10
394.063002313685
 20
410.1506508447797
 30
0.0
 10
393.9232823520098
 20
410.3931948709088
 30
0.0
 10
393.7352825172871
 20
410.5873258725831
 30
0.0
 10
393.52101912706
 20
410.7282089164284
 30
0.0
 10
393.3675137344955
 20
410.7776869938008
 30
0.0
 10
393.2929147759871
 20
410.8017318366517
 30
0.0
  0
SPLINE
  5
133
330
1F
100
AcDbEntity
  8
0
  6
Continuous
 62
     7
370
    25
100
AcDbSpline
210
0.0
220
0.0
230
1.0
 70
     8
 71
     3
 72
     9
 73
     5
 74
     0
 42
0.000000001
 43
0.00000001
 40
0.0
 40
0.0
 40
0.0
 40
0.0
 40
0.7218303541285568
 40
1.0
 40
1.0
 40
1.0
 40
1.0
 10
347.92752649153
 20
412.3640869484099
 30
0.0
 10
332.2888340373169
 20
412.3631054024014
 30
0.0
 10
310.6235045526719
 20
412.3617456008871
 30
0.0
 10
288.9589205556043
 20
412.35147175334
 30
0.0
 10
282.9324908971878
 20
412.3486138808061
 30
0.0
  0
ARC
  5
134
330
1F
100
AcDbEntity
  8
0
  6
Continuous
 62
     7
370
    25
100
AcDbCircle
 10
250.2621983645
 20
410.1951068284
 30
0.0
 40
10.0
100
AcDbArc
 50
170.9531540197
 51
180.0
  0
SPLINE
  5
135
330
1F
100
AcDbEntity
  8
0
  6
Continuous
 62
     7
370
    25
100
AcDbSpline
210
0.0
220
0.0
230
1.0
 70
     8
 71
     3
 72
    16
 73
    12
 74
     0
 42
0.000000001
 43
0.00000001
 40
0.0
 40
0.0
 40
0.0
 40
0.0
 40
0.238935313633886
 40
0.3537707949133537
 40
0.4600766892930024
 40
0.5111498552455802
 40
0.5624962332320608
 40
0.6162378505347019
 40
0.6748258965754017
 40
0.8154684970445677
 40
1.0
 40
1.0
 40
1.0
 40
1.0
 10
347.5894622878619
 20
438.3708772692156
 30
0.0
 10
348.2261288336998
 20
438.4052768228634
 30
0.0
 10
349.1687857670356
 20
438.4562092583145
 30
0.0
 10
350.6810287511432
 20
438.6391370136828
 30
0.0
 10
351.7070881107867
 20
438.8167655811762
 30
0.0
 10
352.5444763797093
 20
438.9914237207571
 30
0.0
 10
353.1739225729996
 20
439.1385596598672
 30
0.0
 10
353.8056205689552
 20
439.3034659309023
 30
0.0
 10
354.6955574364533
 20
439.5609027927266
 30
0.0
 10
355.8039520755534
 20
439.9325636776399
 30
0.0
 10
356.4648892098641
 20
440.1999421103832
 30
0.0
 10
356.8399612757786
 20
440.3516754234987
 30
0.0
  0
ARC
  5
136
330
1F
100
AcDbEntity
  8
0
  6
Continuous
 62
     7
370
    25
100
AcDbCircle
 10
261.7621983645
 20
408.3640460534
 30
0.0
 40
21.64486082191336
100
AcDbArc
 50
144.5604245715
 51
170.9531540197
  0
ARC
  5
137
330
1F
100
AcDbEntity
  8
0
  6
Continuous
 62
     7
370
    25
100
AcDbCircle
 10
261.7621983645
 20
408.3640460534
 30
0.0
 40
21.64486082191336
100
AcDbArc
 50
10.6530670832
 51
17.1984493857
  0
LINE
  5
138
330
1F
100
AcDbEntity
  8
0
  6
Continuous
 62
     7
370
    25
100
AcDbLine
 10
381.3275412793
 20
392.1090796112
 30
0.0
 11
380.7332042784
 21
394.8122793145
 31
0.0
  0
LINE
  5
139
330
1F
100
AcDbEntity
  8
0
  6
Continuous
 62
     7
370
    25
100
AcDbLine
 10
357.4594124285
 20
388.9020608833
 30
0.0
 11
357.8874065993
 21
386.9554317592
 31
0.0
  0
SPLINE
  5
13A
330
1F
100
AcDbEntity
  8
0
  6
Continuous
 62
     7
370
    25
100
AcDbSpline
210
0.0
220
0.0
230
1.0
 70
     8
 71
     3
 72
     9
 73
     5
 74
     0
 42
0.000000001
 43
0.00000001
 40
0.0
 40
0.0
 40
0.0
 40
0.0
 40
0.4537789464856486
 40
0.9999999999999999
 40
0.9999999999999999
 40
0.9999999999999999
 40
0.9999999999999999
 10
214.8924702852342
 20
368.8983821935583
 30
0.0
 10
214.9054322380161
 20
368.7635889407518
 30
0.0
 10
214.9339967028998
 20
368.4665428705221
 30
0.0
 10
215.0989449597633
 20
368.2298054337411
 30
0.0
 10
215.1890431704026
 20
368.1004944616163
 30
0.0
  0
SPLINE
  5
13B
330
1F
100
AcDbEntity
  8
0
  6
Continuous
 62
     7
370
    25
100
AcDbSpline
210
0.0
220
0.0
230
1.0
 70
     8
 71
     3
 72
     9
 73
     5
 74
     0
 42
0.000000001
 43
0.00000001
 40
0.0
 40
0.0
 40
0.0
 40
0.0
 40
0.4821439900047909
 40
1.0
 40
1.0
 40
1.0
 40
1.0
 10
226.0963315423012
 20
363.3336052597253
 30
0.0
 10
226.3807666159484
 20
363.2546428519877
 30
0.0
 10
226.9707046418155
 20
363.0908693540814
 30
0.0
 10
227.5139172939849
 20
362.808089143468
 30
0.0
 10
227.7952232306162
 20
362.6616497118942
 30
0.0
  0
LINE
  5
13C
330
1F
100
AcDbEntity
  8
0
  6
Continuous
 62
     7
370
    25
100
AcDbLine
 10
224.7618278025
 20
363.7526784996
 30
0.0
 11
226.0963315423
 21
363.3336052597
 31
0.0
  0
LINE
  5
13D
330
1F
100
AcDbEntity
  8
0
  6
Continuous
 62
     7
370
    25
100
AcDbLine
 10
380.7776004249
 20
394.8432795665
 30
0.0
 11
381.2242407641
 21
395.102287987
 31
0.0
  0
LINE
  5
13E
330
1F
100
AcDbEntity
  8
0
  6
Continuous
 62
     7
370
    25
100
AcDbLine
 10
384.4273726544
 20
397.2222284996
 30
0.0
 11
384.5417060569
 21
397.3079421098
 31
0.0
  0
LINE
  5
13F
330
1F
100
AcDbEntity
  8
0
  6
Continuous
 62
     7
370
    25
100
AcDbLine
 10
240.2621983645
 20
410.1951068284
 30
0.0
 11
240.2621983645
 21
409.2003460818
 31
0.0
  0
LINE
  5
140
330
1F
100
AcDbEntity
  8
0
  6
Continuous
 62
     7
370
    25
100
AcDbLine
 10
289.4057881659
 20
420.7640460534
 30
0.0
 11
290.0063355358
 21
420.9826274204
 31
0.0
  0
LINE
  5
141
330
1F
100
AcDbEntity
  8
0
  6
Continuous
 62
     7
370
    25
100
AcDbLine
 10
288.6557881659
 20
420.7640460534
 30
0.0
 11
289.4057881659
 21
420.7640460534
 31
0.0
  0
ARC
  5
142
330
1F
100
AcDbEntity
  8
0
  6
Continuous
 62
     7
370
    25
100
AcDbCircle
 10
289.9379315071
 20
421.1705659445
 30
0.0
 40
0.1999999999999886
100
AcDbArc
 50
290.0
 51
0.0
  0
LINE
  5
143
330
1F
100
AcDbEntity
  8
0
  6
Continuous
 62
     7
370
    25
100
AcDbLine
 10
290.1379315071
 20
421.1705659445
 30
0.0
 11
290.1379315071
 21
428.1476618448
 31
0.0
  0
LINE
  5
144
330
1F
100
AcDbEntity
  8
0
  6
Continuous
 62
     7
370
    25
100
AcDbLine
 10
227.918291672
 20
362.690218807
 30
0.0
 11
230.0378856405
 21
355.2983161863
 31
0.0
  0
LINE
  5
145
330
1F
100
AcDbEntity
  8
0
  6
Continuous
 62
     7
370
    25
100
AcDbLine
 10
288.3488845187
 20
421.7640460534
 30
0.0
 11
288.6557881659
 21
421.7640460534
 31
0.0
  0
LINE
  5
146
330
1F
100
AcDbEntity
  8
0
  6
Continuous
 62
     7
370
    25
100
AcDbLine
 10
214.8925578873
 20
368.89786937
 30
0.0
 11
214.9536838963
 21
368.5401083022
 31
0.0
  0
LINE
  5
147
330
1F
100
AcDbEntity
  8
0
  6
Continuous
 62
     7
370
    25
100
AcDbLine
 10
215.0784617039
 20
368.2959962831
 30
0.0
 11
215.1890429045
 21
368.1004946754
 31
0.0
  0
LINE
  5
148
330
1F
100
AcDbEntity
  8
0
  6
Continuous
 62
     7
370
    25
100
AcDbLine
 10
296.3753532325
 20
434.1861483997
 30
0.0
 11
297.2357757895
 21
434.5924513437
 31
0.0
  0
LINE
  5
149
330
1F
100
AcDbEntity
  8
0
  6
Continuous
 62
     7
370
    25
100
AcDbLine
 10
296.027259645
 20
434.0217739906
 30
0.0
 11
296.3753532325
 21
434.1861483997
 31
0.0
  0
SPLINE
  5
14A
330
1F
100
AcDbEntity
  8
0
  6
Continuous
 62
     7
370
    25
100
AcDbSpline
210
0.0
220
0.0
230
1.0
 70
     8
 71
     3
 72
     9
 73
     5
 74
     0
 42
0.000000001
 43
0.00000001
 40
0.0
 40
0.0
 40
0.0
 40
0.0
 40
0.4821561476580048
 40
0.9999999999999999
 40
0.9999999999999999
 40
0.9999999999999999
 40
0.9999999999999999
 10
226.0963315295364
 20
363.3336052644562
 30
0.0
 10
226.3807666893088
 20
363.2546430907792
 30
0.0
 10
226.9706900184088
 20
363.0908742078965
 30
0.0
 10
227.5138891533801
 20
362.8081016161882
 30
0.0
 10
227.7951814860226
 20
362.6616695679612
 30
0.0
  0
LINE
  5
14B
330
1F
100
AcDbEntity
  8
0
  6
Continuous
 62
     7
370
    25
100
AcDbLine
 10
224.7618278011
 20
363.7526784998
 30
0.0
 11
226.0963315295
 21
363.3336052645
 31
0.0
  0
SPLINE
  5
14C
330
1F
100
AcDbEntity
  8
0
  6
Continuous
 62
     7
370
    25
100
AcDbSpline
210
0.0
220
0.0
230
1.0
 70
     8
 71
     3
 72
    10
 73
     6
 74
     0
 42
0.000000001
 43
0.00000001
 40
0.0
 40
0.0
 40
0.0
 40
0.0
 40
0.5
 40
0.5
 40
1.0
 40
1.0
 40
1.0
 40
1.0
 10
256.3395379873205
 20
417.2997390263133
 30
0.0
 10
255.0265086056339
 20
417.6282889971554
 30
0.0
 10
253.7181088336857
 20
417.9745633337878
 30
0.0
 10
251.1108866180398
 20
418.7024726295284
 30
0.0
 10
249.8120606378934
 20
419.0841076001313
 30
0.0
 10
248.5180867865545
 20
419.4834339234486
 30
0.0
  0
SPLINE
  5
14D
330
1F
100
AcDbEntity
  8
0
  6
Continuous
 62
     7
370
    25
100
AcDbSpline
210
0.0
220
0.0
230
1.0
 70
     8
 71
     3
 72
    12
 73
     8
 74
     0
 42
0.000000001
 43
0.00000001
 40
0.0
 40
0.0
 40
0.0
 40
0.0
 40
0.25
 40
0.25
 40
0.5
 40
0.5
 40
1.0
 40
1.0
 40
1.0
 40
1.0
 10
248.5180831017915
 20
419.4834350605836
 30
0.0
 10
248.4067976221074
 20
419.517778278145
 30
0.0
 10
248.2974211153859
 20
419.5516742404885
 30
0.0
 10
248.0823608717054
 20
419.6185827430931
 30
0.0
 10
247.976127804472
 20
419.6517706996877
 30
0.0
 10
247.6783204863969
 20
419.7451376739085
 30
0.0
 10
247.5002607121153
 20
419.8014325723777
 30
0.0
 10
247.3615491055659
 20
419.8454701219103
 30
0.0
  0
SPLINE
  5
14E
330
1F
100
AcDbEntity
  8
0
  6
Continuous
 62
     7
370
    25
100
AcDbSpline
210
0.0
220
0.0
230
1.0
 70
     8
 71
     3
 72
     9
 73
     5
 74
     0
 42
0.000000001
 43
0.00000001
 40
0.0
 40
0.0
 40
0.0
 40
0.0
 40
0.5104304237169558
 40
1.0
 40
1.0
 40
1.0
 40
1.0
 10
325.7536577633938
 20
385.8369814110276
 30
0.0
 10
324.0691255036743
 20
385.6499888228387
 30
0.0
 10
320.7689063524472
 20
385.2836458708902
 30
0.0
 10
317.5266094965405
 20
384.5678998674725
 30
0.0
 10
315.9392795986104
 20
384.217492399853
 30
0.0
  0
SPLINE
  5
14F
330
1F
100
AcDbEntity
  8
0
  6
Continuous
 62
     7
370
    25
100
AcDbSpline
210
0.0
220
0.0
230
1.0
 70
     8
 71
     3
 72
    19
 73
    15
 74
     0
 42
0.000000001
 43
0.00000001
 40
0.0
 40
0.0
 40
0.0
 40
0.0
 40
0.1013655217912277
 40
0.1994712439964879
 40
0.2954412890513666
 40
0.369127786621991
 40
0.4421301674183753
 40
0.5148185700886162
 40
0.5824123167905059
 40
0.6501991532400448
 40
0.7184790264380907
 40
0.8141261740251612
 40
0.9116771143700586
 40
1.0
 40
1.0
 40
1.0
 40
1.0
 10
315.7112506764495
 20
384.1649607453668
 30
0.0
 10
314.1763149857681
 20
383.7561549984716
 30
0.0
 10
311.1558053858132
 20
382.9516902313089
 30
0.0
 10
306.8224144430541
 20
381.3073213732913
 30
0.0
 10
303.0280355425128
 20
379.5108805862957
 30
0.0
 10
299.7322661220894
 20
377.6118067554912
 30
0.0
 10
296.8810525549504
 20
375.6894874221061
 30
0.0
 10
294.2502794728549
 20
373.6262032757039
 30
0.0
 10
291.8301229584802
 20
371.4403352023708
 30
0.0
 10
289.6097850776994
 20
369.1470445087677
 30
0.0
 10
287.2610282228028
 20
366.3769838422547
 30
0.0
 10
284.8649655232772
 20
363.0501842704101
 30
0.0
 10
282.5830574397889
 20
359.2685667615555
 30
0.0
 10
281.33153353114
 20
356.6387451401238
 30
0.0
 10
280.7368387027154
 20
355.3891155428491
 30
0.0
  0
SPLINE
  5
150
330
1F
100
AcDbEntity
  8
0
  6
Continuous
 62
     7
370
    25
100
AcDbSpline
210
0.0
220
0.0
230
1.0
 70
     8
 71
     3
 72
    12
 73
     8
 74
     0
 42
0.000000001
 43
0.00000001
 40
0.0
 40
0.0
 40
0.0
 40
0.0
 40
0.2016125655204349
 40
0.4083267258147975
 40
0.6099827046699547
 40
0.8074955135731816
 40
1.0
 40
1.0
 40
1.0
 40
1.0
 10
279.0174842237871
 20
351.1942223592179
 30
0.0
 10
278.6650114160181
 20
350.190515525864
 30
0.0
 10
277.9511468453078
 20
348.1577041091581
 30
0.0
 10
277.072597352971
 20
345.0599435911457
 30
0.0
 10
276.3338530527626
 20
341.9496522939812
 30
0.0
 10
275.7344488832045
 20
338.8849049955937
 30
0.0
 10
275.4460453722953
 20
336.8474210019284
 30
0.0
 10
275.3036953523961
 20
335.8417609594128
 30
0.0
  0
SPLINE
  5
151
330
1F
100
AcDbEntity
  8
0
  6
Continuous
 62
     7
370
    25
100
AcDbSpline
210
0.0
220
0.0
230
1.0
 70
    24
 71
     3
 72
    12
 73
     8
 74
     0
 42
0.000000001
 43
0.00000001
 40
0.0
 40
0.0
 40
0.0
 40
0.0
 40
0.4999999999999989
 40
0.4999999999999989
 40
0.7499999999999994
 40
0.7499999999999994
 40
1.0
 40
1.0
 40
1.0
 40
1.0
 10
233.3743296219753
 20
310.1640460534474
 30
0.0
 10
233.0588298988299
 20
310.1640460534474
 30
0.0
 10
232.7462000392352
 20
310.1640460534474
 30
0.0
 10
232.3253115512285
 20
310.1640460534474
 30
0.0
 10
232.1905476346494
 20
310.1640460534474
 30
0.0
 10
231.9470062108801
 20
310.1640460534474
 30
0.0
 10
231.8370534229868
 20
310.1640460534474
 30
0.0
 10
231.7394093241891
 20
310.1640460534474
 30
0.0
  0
LINE
  5
152
330
1F
100
AcDbEntity
  8
0
  6
Continuous
 62
     7
370
    25
100
AcDbLine
 10
275.3035665935
 20
335.8417789648
 30
0.0
 11
271.6947965768
 21
310.1640460534
 31
0.0
  0
SPLINE
  5
153
330
1F
100
AcDbEntity
  8
0
  6
Continuous
 62
     7
370
    25
100
AcDbSpline
210
0.0
220
0.0
230
1.0
 70
    24
 71
     3
 72
    10
 73
     6
 74
     0
 42
0.000000001
 43
0.00000001
 40
0.0146611577316554
 40
0.0146611577316554
 40
0.0146611577316554
 40
0.0146611577316554
 40
0.3733767382841222
 40
0.4733767382841219
 40
1.0
 40
1.0
 40
1.0
 40
1.0
 10
233.3743296219962
 20
310.1640460534474
 30
0.0
 10
241.3578333470873
 20
310.1640460534474
 30
0.0
 10
247.5176227185206
 20
310.1640460534474
 30
0.0
 10
262.9811901159223
 20
310.1640460534474
 30
0.0
 10
271.6947965768302
 20
310.1640460534474
 30
0.0
 10
271.6947965768301
 20
310.1640460534474
 30
0.0
  0
SPLINE
  5
154
330
1F
100
AcDbEntity
  8
0
  6
Continuous
 62
     7
370
    25
100
AcDbSpline
210
0.0
220
0.0
230
1.0
 70
     8
 71
     3
 72
    10
 73
     6
 74
     0
 42
0.000000001
 43
0.00000001
 40
0.0
 40
0.0
 40
0.0
 40
0.0
 40
0.4999999999999998
 40
0.4999999999999998
 40
1.0
 40
1.0
 40
1.0
 40
1.0
 10
272.1271212320672
 20
414.7640460534472
 30
0.0
 10
270.9186669089291
 20
414.7640460534472
 30
0.0
 10
269.6847633642527
 20
414.8187655426837
 30
0.0
 10
267.1732286082266
 20
415.0519635733062
 30
0.0
 10
265.895542651243
 20
415.2313596746199
 30
0.0
 10
264.627746072629
 20
415.4733426718838
 30
0.0
  0
SPLINE
  5
155
330
1F
100
AcDbEntity
  8
0
  6
Continuous
 62
     7
370
    25
100
AcDbSpline
210
0.0
220
0.0
230
1.0
 70
     8
 71
     3
 72
    10
 73
     6
 74
     0
 42
0.000000001
 43
0.00000001
 40
0.0
 40
0.0
 40
0.0
 40
0.0
 40
0.5
 40
0.5
 40
1.0
 40
1.0
 40
1.0
 40
1.0
 10
264.627746072629
 20
415.4733426718837
 30
0.0
 10
263.243057051606
 20
415.7376368064773
 30
0.0
 10
261.8577882686474
 20
416.0223050535919
 30
0.0
 10
259.0936860292153
 20
416.6313056739069
 30
0.0
 10
257.7147583104723
 20
416.9556274655073
 30
0.0
 10
256.3395385300472
 20
417.2997388905108
 30
0.0
  0
SPLINE
  5
156
330
1F
100
AcDbEntity
  8
0
  6
Continuous
 62
     7
370
    25
100
AcDbSpline
210
0.0
220
0.0
230
1.0
 70
     8
 71
     3
 72
    15
 73
    11
 74
     0
 42
0.000000001
 43
0.00000001
 40
0.0536665386845898
 40
0.0536665386845898
 40
0.0536665386845898
 40
0.0536665386845898
 40
0.0625
 40
0.0746556163472797
 40
0.09375
 40
0.1072113196828973
 40
0.109375
 40
0.1253581594827354
 40
0.1334116082784285
 40
0.1335492570660403
 40
0.1335492570660403
 40
0.1335492570660403
 40
0.1335492570660403
 10
239.4943300933989
 20
422.7525167177643
 30
0.0
 10
239.5560719434056
 20
423.1910052962563
 30
0.0
 10
239.7029937594861
 20
424.2330709976337
 30
0.0
 10
239.9848497703015
 20
426.2241792672517
 30
0.0
 10
240.2974398393418
 20
428.4436658423596
 30
0.0
 10
240.533722684959
 20
430.1618118809727
 30
0.0
 10
240.756007171646
 20
431.7167752982539
 30
0.0
 10
240.9534500772789
 20
433.0302482689639
 30
0.0
 10
241.0953703926553
 20
434.194834095995
 30
0.0
 10
241.1543194364795
 20
434.6208103846307
 30
0.0
 10
241.1553131701638
 20
434.6279776531795
 30
0.0
  0
SPLINE
  5
157
330
1F
100
AcDbEntity
  8
0
  6
Continuous
 62
     7
370
    25
100
AcDbSpline
210
0.0
220
0.0
230
1.0
 70
     8
 71
     3
 72
    21
 73
    17
 74
     0
 42
0.000000001
 43
0.00000001
 40
0.0
 40
0.0
 40
0.0
 40
0.0
 40
0.1171875
 40
0.1875
 40
0.2265625
 40
0.25
 40
0.3125
 40
0.4375
 40
0.4701855173808662
 40
0.625
 40
0.75
 40
0.828125
 40
0.875
 40
0.953125
 40
0.9799107142857143
 40
1.0
 40
1.0
 40
1.0
 40
1.0
 10
261.9661674043288
 20
446.7633764858703
 30
0.0
 10
260.8574533195426
 20
446.7635807202046
 30
0.0
 10
259.0835107838846
 20
446.7628999754122
 30
0.0
 10
256.9400146599214
 20
446.7631243840263
 30
0.0
 10
255.6834967402212
 20
446.7648400524633
 30
0.0
 10
254.5007496853534
 20
446.7634865389306
 30
0.0
 10
252.5043269162521
 20
446.7491303925244
 30
0.0
 10
250.4340795336831
 20
446.4352913263098
 30
0.0
 10
247.6493551556209
 20
445.3930055112468
 30
0.0
 10
245.1043625149837
 20
443.6855644310695
 30
0.0
 10
243.0623350990501
 20
440.9536689827126
 30
0.0
 10
242.1438893874773
 20
438.9356144440205
 30
0.0
 10
241.6218046693269
 20
437.3006801049729
 30
0.0
 10
241.3860379313135
 20
436.1094730264496
 30
0.0
 10
241.238300382219
 20
435.1703991367783
 30
0.0
 10
241.1780824731998
 20
434.7899896637873
 30
0.0
 10
241.1553131696617
 20
434.6279776507925
 30
0.0
  0
ARC
  5
158
330
1F
100
AcDbEntity
  8
0
  6
Continuous
 62
     7
370
    25
100
AcDbCircle
 10
239.6923764613
 20
422.7246305886
 30
0.0
 40
0.2000000000932191
100
AcDbArc
 50
171.9850984238
 51
249.256041414
  0
SPLINE
  5
159
330
1F
100
AcDbEntity
  8
0
  6
Continuous
 62
     7
370
    25
100
AcDbSpline
210
0.0
220
0.0
230
1.0
 70
     8
 71
     3
 72
    16
 73
    12
 74
     0
 42
0.000000001
 43
0.00000001
 40
0.0
 40
0.0
 40
0.0
 40
0.0
 40
0.2500000000000001
 40
0.2500000000000001
 40
0.5000000000000002
 40
0.5000000000000002
 40
0.6250000000000001
 40
0.6250000000000001
 40
0.7500000000000001
 40
0.7500000000000001
 40
1.0
 40
1.0
 40
1.0
 40
1.0
 10
247.3614571571196
 20
419.8454993133304
 30
0.0
 10
246.1049483795368
 20
420.2444110720494
 30
0.0
 10
245.0018436228603
 20
420.6125631263308
 30
0.0
 10
243.0859930140572
 20
421.2702990839941
 30
0.0
 10
242.2732278722129
 20
421.5599794396768
 30
0.0
 10
241.279388706367
 20
421.920404312686
 30
0.0
 10
240.9900043553365
 20
422.0266524339499
 30
0.0
 10
240.4944762778529
 20
422.2098249743044
 30
0.0
 10
240.2879651970964
 20
422.2868851855869
 30
0.0
 10
239.7907830887341
 20
422.4731655750282
 30
0.0
 10
239.6215691580257
 20
422.5375842656493
 30
0.0
 10
239.6215379746751
 20
422.5375960762042
 30
0.0
  0
SPLINE
  5
15A
330
1F
100
AcDbEntity
  8
0
  6
Continuous
 62
     7
370
    25
100
AcDbSpline
210
0.0
220
0.0
230
1.0
 70
     8
 71
     3
 72
    11
 73
     7
 74
     0
 42
0.000000001
 43
0.00000001
 40
0.0
 40
0.0
 40
0.0
 40
0.0
 40
0.0751664193079906
 40
0.2499278898771095
 40
0.7502715047962021
 40
0.8923738069957347
 40
0.8923738069957347
 40
0.8923738069957347
 40
0.8923738069957347
 10
325.7536274499398
 20
385.8372768634391
 30
0.0
 10
326.6447799526313
 20
385.9297980655598
 30
0.0
 10
329.6106697809437
 20
386.2132116413013
 30
0.0
 10
338.493182682388
 20
387.0685003541836
 30
0.0
 10
348.1681538333499
 20
388.0000941176485
 30
0.0
 10
355.7741126240099
 20
388.7324646502308
 30
0.0
 10
357.4594124285234
 20
388.9020608832794
 30
0.0
  0
SPLINE
  5
15B
330
1F
100
AcDbEntity
  8
0
  6
Continuous
 62
     7
370
    25
100
AcDbSpline
210
0.0
220
0.0
230
1.0
 70
     8
 71
     3
 72
    18
 73
    14
 74
     0
 42
0.000000001
 43
0.00000001
 40
0.0
 40
0.0
 40
0.0
 40
0.0
 40
0.2500000000000018
 40
0.2500000000000018
 40
0.375000000000002
 40
0.375000000000002
 40
0.5000000000000022
 40
0.5000000000000022
 40
0.7500000000000011
 40
0.7500000000000011
 40
0.8750000000000006
 40
0.8750000000000006
 40
1.0
 40
1.0
 40
1.0
 40
1.0
 10
361.29479657683
 20
390.5550262839498
 30
0.0
 10
360.6869524301862
 20
390.317467921318
 30
0.0
 10
360.149432705237
 20
390.0926993704372
 30
0.0
 10
359.4406040722517
 20
389.7874441722464
 30
0.0
 10
359.2207280283585
 20
389.6910277439886
 30
0.0
 10
358.8143935201016
 20
389.5110922532211
 30
0.0
 10
358.6295868025015
 20
389.4283046394432
 30
0.0
 10
358.1373302489521
 20
389.2068802994428
 30
0.0
 10
357.8873550668702
 20
389.0933679092952
 30
0.0
 10
357.6319118150016
 20
388.9785207319038
 30
0.0
 10
357.5670919008793
 20
388.949589651842
 30
0.0
 10
357.4810865004432
 20
388.9114703461863
 30
0.0
 10
357.4594124285233
 20
388.9020608832793
 30
0.0
 10
357.4594124285234
 20
388.9020608832794
 30
0.0
  0
SPLINE
  5
15C
330
1F
100
AcDbEntity
  8
0
  6
Continuous
 62
     7
370
    25
100
AcDbSpline
210
0.0
220
0.0
230
1.0
 70
     8
 71
     3
 72
    22
 73
    18
 74
     0
 42
0.000000001
 43
0.00000001
 40
0.2433748697724397
 40
0.2433748697724397
 40
0.2433748697724397
 40
0.2433748697724397
 40
0.2470257059081989
 40
0.25
 40
0.2557889050917643
 40
0.28125
 40
0.2924736791591523
 40
0.296875
 40
0.3125
 40
0.3184437415641449
 40
0.328125
 40
0.3346750678861554
 40
0.3359375
 40
0.34375
 40
0.3476601753996159
 40
0.3515625
 40
0.3535683502731172
 40
0.3535683502731172
 40
0.3535683502731172
 40
0.3535683502731172
 10
232.5174025222072
 20
372.9397679010717
 30
0.0
 10
232.5615203071115
 20
373.2536425236281
 30
0.0
 10
232.6415804581178
 20
373.8232259962208
 30
0.0
 10
232.791595955023
 20
374.8904958953952
 30
0.0
 10
233.2051756534392
 20
377.8328404537626
 30
0.0
 10
233.7184287028132
 20
381.4845570616814
 30
0.0
 10
234.2147866171812
 20
385.0182481539466
 30
0.0
 10
234.59221811108
 20
387.7069481325587
 30
0.0
 10
234.9057524766573
 20
389.9426541673245
 30
0.0
 10
235.2823803286518
 20
392.6395123339391
 30
0.0
 10
235.5504353788825
 20
394.5450862027708
 30
0.0
 10
235.7640702361488
 20
396.0263434396339
 30
0.0
 10
235.9524696520446
 20
397.3752395975165
 30
0.0
 10
236.1060854684841
 20
398.5277883528619
 30
0.0
 10
236.2988504072126
 20
399.8080305846806
 30
0.0
 10
236.4177097080205
 20
400.644916548994
 30
0.0
 10
236.4856637430346
 20
401.1982616131633
 30
0.0
 10
236.5105573386228
 20
401.3923088167068
 30
0.0
  0
LINE
  5
15D
330
1F
100
AcDbEntity
  8
0
  6
Continuous
 62
     7
370
    25
100
AcDbLine
 10
230.0378856405
 20
355.2983161863
 30
0.0
 11
223.6947965768
 21
310.1640460534
 31
0.0
  0
SPLINE
  5
15E
330
1F
100
AcDbEntity
  8
0
  6
Continuous
 62
     7
370
    25
100
AcDbSpline
210
0.0
220
0.0
230
1.0
 70
     8
 71
     3
 72
    23
 73
    19
 74
     0
 42
0.000000001
 43
0.00000001
 40
0.0
 40
0.0
 40
0.0
 40
0.0
 40
0.0234720645779442
 40
0.0477020153345747
 40
0.0768401034097869
 40
0.1068116881224557
 40
0.1660574898981468
 40
0.2022971593237288
 40
0.2974424380033276
 40
0.3942143236827448
 40
0.4990833004339745
 40
0.604932223983607
 40
0.7388895923834432
 40
0.8197668042968497
 40
0.8793452593468181
 40
0.9389866761300387
 40
0.9988209667021754
 40
1.0
 40
1.0
 40
1.0
 40
1.0
 10
230.0378856404893
 20
355.2983161862942
 30
0.0
 10
230.0383272367418
 20
355.3010199449387
 30
0.0
 10
230.0392246878859
 20
355.3065147635089
 30
0.0
 10
230.0467907929598
 20
355.3527951318662
 30
0.0
 10
230.0595233724068
 20
355.4308178666272
 30
0.0
 10
230.0835246625016
 20
355.578340518696
 30
0.0
 10
230.1154042097516
 20
355.7753928423072
 30
0.0
 10
230.1688639768178
 20
356.1085092211018
 30
0.0
 10
230.2386244946024
 20
356.5480651816233
 30
0.0
 10
230.3328114489024
 20
357.152675801539
 30
0.0
 10
230.4315935934704
 20
357.7996850263383
 30
0.0
 10
230.5418819023383
 20
358.5378380823361
 30
0.0
 10
230.6431398088006
 20
359.2326103988754
 30
0.0
 10
230.7281553475825
 20
359.8292520599662
 30
0.0
 10
230.7893231619163
 20
360.2647201935779
 30
0.0
 10
230.843262668121
 20
360.6541120668882
 30
0.0
 10
230.8793521151787
 20
360.9164817699973
 30
0.0
 10
230.8972264313647
 20
361.0486451355543
 30
0.0
 10
230.8975718381156
 20
361.05119908605
 30
0.0
  0
SPLINE
  5
15F
330
1F
100
AcDbEntity
  8
0
  6
Continuous
 62
     7
370
    25
100
AcDbSpline
210
0.0
220
0.0
230
1.0
 70
     8
 71
     3
 72
    26
 73
    22
 74
     0
 42
0.000000001
 43
0.00000001
 40
0.0
 40
0.0
 40
0.0
 40
0.0
 40
0.1250000000000006
 40
0.1250000000000006
 40
0.2500000000000012
 40
0.2500000000000012
 40
0.3750000000000018
 40
0.3750000000000018
 40
0.4375000000000018
 40
0.4375000000000018
 40
0.5000000000000019
 40
0.5000000000000019
 40
0.6250000000000007
 40
0.6250000000000007
 40
0.6875000000000006
 40
0.6875000000000006
 40
0.7500000000000003
 40
0.7500000000000003
 40
0.8750000000000002
 40
0.8750000000000002
 40
1.0
 40
1.0
 40
1.0
 40
1.0
 10
230.9025435433047
 20
361.0478272467791
 30
0.0
 10
230.9396588233724
 20
361.1000717560727
 30
0.0
 10
230.9913677865696
 20
361.1740535829722
 30
0.0
 10
231.1241220401912
 20
361.3742846231876
 30
0.0
 10
231.2051579502659
 20
361.5003852686591
 30
0.0
 10
231.3975578566904
 20
361.8217890406563
 30
0.0
 10
231.5077273693164
 20
362.0152560162819
 30
0.0
 10
231.6894849360602
 20
362.3639236871779
 30
0.0
 10
231.7529149924212
 20
362.4901065842043
 30
0.0
 10
231.8849794563692
 20
362.7652869883358
 30
0.0
 10
231.9540563107379
 20
362.9153193324079
 30
0.0
 10
232.1643666636824
 20
363.3959267746298
 30
0.0
 10
232.3084380110872
 20
363.7561477115195
 30
0.0
 10
232.5238924876556
 20
364.3618974603468
 30
0.0
 10
232.5956089047527
 20
364.5747223339401
 30
0.0
 10
232.7378506283753
 20
365.0232586655601
 30
0.0
 10
232.8077940682132
 20
365.2573264844299
 30
0.0
 10
233.0092117394884
 20
365.9744677961377
 30
0.0
 10
233.1338850370645
 20
366.477533432563
 30
0.0
 10
233.3621635025773
 20
367.5284293845378
 30
0.0
 10
233.4639839563864
 20
368.0682192817147
 30
0.0
 10
233.5534767025619
 20
368.6143709281886
 30
0.0
  0
SPLINE
  5
160
330
1F
100
AcDbEntity
  8
0
  6
Continuous
 62
     7
370
    25
100
AcDbSpline
210
0.0
220
0.0
230
1.0
 70
     8
 71
     3
 72
    14
 73
    10
 74
     0
 42
0.000000001
 43
0.00000001
 40
0.0
 40
0.0
 40
0.0
 40
0.0
 40
0.25
 40
0.25
 40
0.5
 40
0.5
 40
0.75
 40
0.75
 40
1.0
 40
1.0
 40
1.0
 40
1.0
 10
233.5534900764886
 20
368.6144049229275
 30
0.0
 10
233.57365980777
 20
368.7375196397967
 30
0.0
 10
233.5887712310422
 20
368.8598378069879
 30
0.0
 10
233.608847898136
 20
369.1028601759344
 30
0.0
 10
233.6135203426275
 20
369.2219757039119
 30
0.0
 10
233.612032550889
 20
369.4439559316551
 30
0.0
 10
233.6057901951758
 20
369.5491856962884
 30
0.0
 10
233.5837668160927
 20
369.7340364126536
 30
0.0
 10
233.5678303914237
 20
369.8160519444386
 30
0.0
 10
233.5477962994177
 20
369.884288756558
 30
0.0
  0
SPLINE
  5
161
330
1F
100
AcDbEntity
  8
0
  6
Continuous
 62
     7
370
    25
100
AcDbSpline
210
0.0
220
0.0
230
1.0
 70
     8
 71
     3
 72
    10
 73
     6
 74
     0
 42
0.000000001
 43
0.00000001
 40
0.0
 40
0.0
 40
0.0
 40
0.0
 40
0.5
 40
0.5
 40
1.0
 40
1.0
 40
1.0
 40
1.0
 10
233.5477924515855
 20
369.8842976218404
 30
0.0
 10
233.4416960073576
 20
370.2456595696358
 30
0.0
 10
233.3398550288369
 20
370.5776263124853
 30
0.0
 10
233.148751558163
 20
371.1828206448397
 30
0.0
 10
233.0594926934957
 20
371.4559775758038
 30
0.0
 10
232.9792519052493
 20
371.6965516047
 30
0.0
  0
SPLINE
  5
162
330
1F
100
AcDbEntity
  8
0
  6
Continuous
 62
     7
370
    25
100
AcDbSpline
210
0.0
220
0.0
230
1.0
 70
     8
 71
     3
 72
    10
 73
     6
 74
     0
 42
0.000000001
 43
0.00000001
 40
0.0
 40
0.0
 40
0.0
 40
0.0
 40
0.5
 40
0.5
 40
1.0
 40
1.0
 40
1.0
 40
1.0
 10
232.9791612618215
 20
371.6968091119206
 30
0.0
 10
232.8364889259929
 20
372.1244923424509
 30
0.0
 10
232.7188189484016
 20
372.4340774848629
 30
0.0
 10
232.5593280365497
 20
372.841403065057
 30
0.0
 10
232.517395196199
 20
372.9397711218876
 30
0.0
 10
232.5174025222072
 20
372.9397679010716
 30
0.0
  0
SPLINE
  5
163
330
1F
100
AcDbEntity
  8
0
  6
Continuous
 62
     7
370
    25
100
AcDbSpline
210
0.0
220
0.0
230
1.0
 70
    24
 71
     3
 72
     8
 73
     4
 74
     0
 42
0.000000001
 43
0.00000001
 40
0.0
 40
0.0
 40
0.0
 40
0.0
 40
0.9613087036283728
 40
0.9613087036283728
 40
0.9613087036283728
 40
0.9613087036283728
 10
223.6947965768301
 20
310.1640460534474
 30
0.0
 10
223.6947965768301
 20
310.1640460534474
 30
0.0
 10
226.5347266420163
 20
310.1640460534474
 30
0.0
 10
231.7394093241031
 20
310.1640460534474
 30
0.0
  0
SPLINE
  5
164
330
1F
100
AcDbEntity
  8
0
  6
Continuous
 62
     7
370
    25
100
AcDbSpline
210
0.0
220
0.0
230
1.0
 70
     8
 71
     3
 72
    18
 73
    14
 74
     0
 42
0.000000001
 43
0.00000001
 40
0.0
 40
0.0
 40
0.0
 40
0.0
 40
0.25
 40
0.25
 40
0.375
 40
0.375
 40
0.5
 40
0.5
 40
0.75
 40
0.75
 40
0.875
 40
0.875
 40
1.0
 40
1.0
 40
1.0
 40
1.0
 10
242.7446475654154
 20
410.1951068284442
 30
0.0
 10
243.3914114970974
 20
410.3708319819475
 30
0.0
 10
244.1499357426759
 20
410.5257868704485
 30
0.0
 10
245.4470553098708
 20
410.7018466028808
 30
0.0
 10
245.9061490703288
 20
410.7518612596085
 30
0.0
 10
246.8786563025027
 20
410.838914853443
 30
0.0
 10
247.3932757328776
 20
410.876310101643
 30
0.0
 10
248.98590032135
 20
410.9753139058138
 30
0.0
 10
250.1223094499112
 20
411.0282673694809
 30
0.0
 10
251.9363553594386
 20
411.0310191189319
 30
0.0
 10
252.5615150778647
 20
411.0187229093302
 30
0.0
 10
253.8399251750761
 20
410.9701699604341
 30
0.0
 10
254.4907105628147
 20
410.9328011158509
 30
0.0
 10
255.1543728307404
 20
410.9006944122349
 30
0.0
  0
SPLINE
  5
165
330
1F
100
AcDbEntity
  8
0
  6
Continuous
 62
     7
370
    25
100
AcDbSpline
210
0.0
220
0.0
230
1.0
 70
     8
 71
     3
 72
    15
 73
    11
 74
     0
 42
0.000000001
 43
0.00000001
 40
0.6533465698196066
 40
0.6533465698196066
 40
0.6533465698196066
 40
0.6533465698196066
 40
0.67901195280979
 40
0.724867388122677
 40
0.7707228234355639
 40
0.8165782587484512
 40
0.8624336940613384
 40
0.9082891293742255
 40
0.954144564687113
 40
1.0
 40
1.0
 40
1.0
 40
1.0
 10
240.2621983644559
 20
409.2003460818025
 30
0.0
 10
240.10294625706
 20
409.0524175834726
 30
0.0
 10
239.6696890720984
 20
408.6282337149099
 30
0.0
 10
239.0104214665052
 20
407.8793900905834
 30
0.0
 10
238.3253240262388
 20
406.9278785515144
 30
0.0
 10
237.7414423400064
 20
405.9095575590238
 30
0.0
 10
237.2724204605018
 20
404.8314759430893
 30
0.0
 10
236.9188739321486
 20
403.708642122704
 30
0.0
 10
236.6814182993703
 20
402.5560645168601
 30
0.0
 10
236.5705427165947
 20
401.7797402894382
 30
0.0
 10
236.5159855559962
 20
401.3915459207767
 30
0.0
  0
SPLINE
  5
166
330
1F
100
AcDbEntity
  8
0
  6
Continuous
 62
     7
370
    25
100
AcDbSpline
210
0.0
220
0.0
230
1.0
 70
     8
 71
     3
 72
    16
 73
    12
 74
     0
 42
0.000000001
 43
0.00000001
 40
0.0
 40
0.0
 40
0.0
 40
0.0
 40
0.2499999999999999
 40
0.2499999999999999
 40
0.4999999999999998
 40
0.4999999999999998
 40
0.6249999999999998
 40
0.6249999999999998
 40
0.7499999999999999
 40
0.7499999999999999
 40
1.0
 40
1.0
 40
1.0
 40
1.0
 10
240.2621983644559
 20
409.2003460818025
 30
0.0
 10
240.2621983644559
 20
409.2003460868111
 30
0.0
 10
240.3159702609404
 20
409.2412487771967
 30
0.0
 10
240.5268374774457
 20
409.3706305929036
 30
0.0
 10
240.684019086291
 20
409.4530575944923
 30
0.0
 10
240.9984959975441
 20
409.5916735303329
 30
0.0
 10
241.1165357400017
 20
409.641228003658
 30
0.0
 10
241.3764654212454
 20
409.7455471637402
 30
0.0
 10
241.5186111809539
 20
409.800242984334
 30
0.0
 10
241.9813678435774
 20
409.9679973195837
 30
0.0
 10
242.3381258872468
 20
410.0846552698474
 30
0.0
 10
242.7446475654155
 20
410.1951068284444
 30
0.0
  0
SPLINE
  5
167
330
1F
100
AcDbEntity
  8
0
  6
Continuous
 62
     7
370
    25
100
AcDbSpline
210
0.0
220
0.0
230
1.0
 70
     8
 71
     3
 72
    11
 73
     7
 74
     0
 42
0.000000001
 43
0.00000001
 40
0.0
 40
0.0
 40
0.0
 40
0.0
 40
0.3185175696893295
 40
0.6253251144642373
 40
0.864905350115645
 40
1.0
 40
1.0
 40
1.0
 40
1.0
 10
290.1365106110458
 20
428.0929609603901
 30
0.0
 10
290.6493935314563
 20
428.8798870220385
 30
0.0
 10
291.6563036721598
 20
430.4248084844723
 30
0.0
 10
293.4721354039983
 20
432.227197185212
 30
0.0
 10
295.059149605953
 20
433.4648968308778
 30
0.0
 10
296.0265445109754
 20
433.9950086087336
 30
0.0
 10
296.3753532543397
 20
434.1861483616065
 30
0.0
  0
SPLINE
  5
168
330
1F
100
AcDbEntity
  8
0
  6
Continuous
 62
     7
370
    25
100
AcDbSpline
210
0.0
220
0.0
230
1.0
 70
     8
 71
     3
 72
    12
 73
     8
 74
     0
 42
0.000000001
 43
0.00000001
 40
0.0
 40
0.0
 40
0.0
 40
0.0
 40
0.5000000000000003
 40
0.5000000000000003
 40
0.7500000000000001
 40
0.7500000000000001
 40
1.0
 40
1.0
 40
1.0
 40
1.0
 10
290.0063355358134
 20
428.0036404931012
 30
0.0
 10
290.047798807842
 20
428.0580505469228
 30
0.0
 10
290.0798770411718
 20
428.0964223700987
 30
0.0
 10
290.1147892120782
 20
428.1335007613711
 30
0.0
 10
290.1240027311991
 20
428.142164389545
 30
0.0
 10
290.1364352407425
 20
428.1502881838824
 30
0.0
 10
290.1405400082417
 20
428.1511733990336
 30
0.0
 10
290.1365106118782
 20
428.139052486294
 30
0.0
  0
SPLINE
  5
169
330
1F
100
AcDbEntity
  8
0
  6
Continuous
 62
     7
370
    25
100
AcDbSpline
210
0.0
220
0.0
230
1.0
 70
     8
 71
     3
 72
     8
 73
     4
 74
     0
 42
0.000000001
 43
0.00000001
 40
0.0
 40
0.0
 40
0.0
 40
0.0
 40
1.0
 40
1.0
 40
1.0
 40
1.0
 10
289.4057881658922
 20
427.1598313242681
 30
0.0
 10
289.6340627550479
 20
427.5044009001512
 30
0.0
 10
289.8408671950444
 20
427.7865051613592
 30
0.0
 10
290.0063355358134
 20
428.0036404931012
 30
0.0
  0
SPLINE
  5
16A
330
1F
100
AcDbEntity
  8
0
  6
Continuous
 62
     7
370
    25
100
AcDbSpline
210
0.0
220
0.0
230
1.0
 70
     8
 71
     3
 72
     8
 73
     4
 74
     0
 42
0.000000001
 43
0.00000001
 40
0.0
 40
0.0
 40
0.0
 40
0.0
 40
1.0
 40
1.0
 40
1.0
 40
1.0
 10
288.6557881658922
 20
425.7968557845353
 30
0.0
 10
288.8966884564286
 20
426.298118224849
 30
0.0
 10
289.1506589695106
 20
426.7500818282417
 30
0.0
 10
289.4057881658922
 20
427.1598313242682
 30
0.0
  0
SPLINE
  5
16B
330
1F
100
AcDbEntity
  8
0
  6
Continuous
 62
     7
370
    25
100
AcDbSpline
210
0.0
220
0.0
230
1.0
 70
     8
 71
     3
 72
     8
 73
     4
 74
     0
 42
0.000000001
 43
0.00000001
 40
0.0
 40
0.0
 40
0.0
 40
0.0
 40
1.0
 40
1.0
 40
1.0
 40
1.0
 10
288.6557881658922
 20
425.4839535737622
 30
0.0
 10
288.5496204521094
 20
425.2477840290424
 30
0.0
 10
288.4494857444274
 20
425.0072149715039
 30
0.0
 10
288.3557841420026
 20
424.7620400939616
 30
0.0
  0
SPLINE
  5
16C
330
1F
100
AcDbEntity
  8
0
  6
Continuous
 62
     7
370
    25
100
AcDbSpline
210
0.0
220
0.0
230
1.0
 70
     8
 71
     3
 72
    12
 73
     8
 74
     0
 42
0.000000001
 43
0.00000001
 40
0.0
 40
0.0
 40
0.0
 40
0.0
 40
0.5000000000000104
 40
0.5000000000000104
 40
0.7500000000000052
 40
0.7500000000000052
 40
1.0
 40
1.0
 40
1.0
 40
1.0
 10
288.2379681301051
 20
424.4416511481613
 30
0.0
 10
288.1394311592819
 20
424.1628104330714
 30
0.0
 10
288.0538041120734
 20
423.8911713812575
 30
0.0
 10
287.9419837718541
 20
423.496044228994
 30
0.0
 10
287.9073195854095
 20
423.3656620501121
 30
0.0
 10
287.8447633455705
 20
423.1163077772179
 30
0.0
 10
287.816670190767
 20
422.9967136829468
 30
0.0
 10
287.7913354846556
 20
422.8825015633262
 30
0.0
  0
SPLINE
  5
16D
330
1F
100
AcDbEntity
  8
0
  6
Continuous
 62
     7
370
    25
100
AcDbSpline
210
0.0
220
0.0
230
1.0
 70
     8
 71
     3
 72
    10
 73
     6
 74
     0
 42
0.000000001
 43
0.00000001
 40
0.0
 40
0.0
 40
0.0
 40
0.0
 40
0.5
 40
0.5
 40
1.0
 40
1.0
 40
1.0
 40
1.0
 10
287.7913354846556
 20
422.8825015633263
 30
0.0
 10
287.7581035710015
 20
422.7684573466033
 30
0.0
 10
287.7309587031942
 20
422.659043641073
 30
0.0
 10
287.6975455148782
 20
422.4908083714929
 30
0.0
 10
287.6922677275766
 20
422.4376897341704
 30
0.0
 10
287.6985989760671
 20
422.4274266296436
 30
0.0
  0
SPLINE
  5
16E
330
1F
100
AcDbEntity
  8
0
  6
Continuous
 62
     7
370
    25
100
AcDbSpline
210
0.0
220
0.0
230
1.0
 70
     8
 71
     3
 72
     8
 73
     4
 74
     0
 42
0.000000001
 43
0.00000001
 40
0.0
 40
0.0
 40
0.0
 40
0.0
 40
1.0
 40
1.0
 40
1.0
 40
1.0
 10
287.6985989760671
 20
422.4274266296436
 30
0.0
 10
287.6819452183192
 20
422.337855479866
 30
0.0
 10
287.6678573286655
 20
422.2571218499844
 30
0.0
 10
287.6557881658905
 20
422.1849627258091
 30
0.0
  0
SPLINE
  5
16F
330
1F
100
AcDbEntity
  8
0
  6
Continuous
 62
     7
370
    25
100
AcDbSpline
210
0.0
220
0.0
230
1.0
 70
     8
 71
     3
 72
     8
 73
     4
 74
     0
 42
0.000000001
 43
0.00000001
 40
0.0
 40
0.0
 40
0.0
 40
0.0
 40
1.0
 40
1.0
 40
1.0
 40
1.0
 10
287.6557881658914
 20
422.1849627258092
 30
0.0
 10
287.6473746424216
 20
422.1367062571685
 30
0.0
 10
287.6398986191403
 20
422.0922149120287
 30
0.0
 10
287.6332300862204
 20
422.051453243008
 30
0.0
  0
SPLINE
  5
170
330
1F
100
AcDbEntity
  8
0
  6
Continuous
 62
     7
370
    25
100
AcDbSpline
210
0.0
220
0.0
230
1.0
 70
     8
 71
     3
 72
    10
 73
     6
 74
     0
 42
0.000000001
 43
0.00000001
 40
0.0
 40
0.0
 40
0.0
 40
0.0
 40
0.5
 40
0.5
 40
1.0
 40
1.0
 40
1.0
 40
1.0
 10
287.6349987455287
 20
422.0569392722606
 30
0.0
 10
287.6257039126895
 20
421.9979370889324
 30
0.0
 10
287.6180288510449
 20
421.9467257791179
 30
0.0
 10
287.6058208776032
 20
421.8631811783919
 30
0.0
 10
287.6012746489802
 20
421.8308076352083
 30
0.0
 10
287.5980497609117
 20
421.8075940890546
 30
0.0
  0
SPLINE
  5
171
330
1F
100
AcDbEntity
  8
0
  6
Continuous
 62
     7
370
    25
100
AcDbSpline
210
0.0
220
0.0
230
1.0
 70
     8
 71
     3
 72
     9
 73
     5
 74
     0
 42
0.000000001
 43
0.00000001
 40
0.0
 40
0.0
 40
0.0
 40
0.0
 40
0.5368223410119639
 40
1.0
 40
1.0
 40
1.0
 40
1.0
 10
286.7567853342201
 20
417.4927600827546
 30
0.0
 10
286.8751744148378
 20
418.2716691572115
 30
0.0
 10
287.0957112136503
 20
419.7226316357635
 30
0.0
 10
287.4466048659773
 20
421.1475416087304
 30
0.0
 10
287.6091309664159
 20
421.8075280742778
 30
0.0
  0
SPLINE
  5
172
330
1F
100
AcDbEntity
  8
0
  6
Continuous
 62
     7
370
    25
100
AcDbSpline
210
0.0
220
0.0
230
1.0
 70
     8
 71
     3
 72
     9
 73
     5
 74
     0
 42
0.000000001
 43
0.00000001
 40
0.0
 40
0.0
 40
0.0
 40
0.0
 40
0.6714672031821947
 40
1.0
 40
1.0
 40
1.0
 40
1.0
 10
359.9673498211452
 20
445.0398410390714
 30
0.0
 10
359.5183741611831
 20
445.163596162358
 30
0.0
 10
358.8497254798561
 20
445.3479016990992
 30
0.0
 10
358.1699372481154
 20
445.4845537396542
 30
0.0
 10
357.9466045190979
 20
445.5294484167287
 30
0.0
  0
SPLINE
  5
173
330
1F
100
AcDbEntity
  8
0
  6
Continuous
 62
     7
370
    25
100
AcDbSpline
210
0.0
220
0.0
230
1.0
 70
     8
 71
     3
 72
    16
 73
    12
 74
     0
 42
0.000000001
 43
0.00000001
 40
0.0
 40
0.0
 40
0.0
 40
0.0
 40
0.0173644360648657
 40
0.0400596138849509
 40
0.1085224297071257
 40
0.1765591663883916
 40
0.2444411557512065
 40
0.4472947670612525
 40
0.6505431871966239
 40
0.8252608621431285
 40
1.0
 40
1.0
 40
1.0
 40
1.0
 10
354.4089999773016
 20
446.1328854727699
 30
0.0
 10
353.8781527868753
 20
446.2015051336703
 30
0.0
 10
352.6534926020614
 20
446.3598101376633
 30
0.0
 10
349.3194685166688
 20
446.6421530794409
 30
0.0
 10
344.4119495956813
 20
446.796780962741
 30
0.0
 10
338.1126423152106
 20
446.755207297137
 30
0.0
 10
327.670714416774
 20
446.771852632027
 30
0.0
 10
313.0613795136645
 20
446.7615748153225
 30
0.0
 10
295.1590102747695
 20
446.765329598095
 30
0.0
 10
278.1232272657059
 20
446.7636395718075
 30
0.0
 10
267.352074538718
 20
446.7634641847734
 30
0.0
 10
261.9661674043289
 20
446.7633764858704
 30
0.0
  0
LINE
  5
174
330
1F
100
AcDbEntity
  8
0
  6
Continuous
 62
     7
370
    25
100
AcDbLine
 10
359.9533110233
 20
445.0372271902
 30
0.0
 11
359.9675357485
 21
445.0411196918
 31
0.0
  0
LINE
  5
175
330
1F
100
AcDbEntity
  8
0
  6
Continuous
 62
     7
370
    25
100
AcDbLine
 10
393.9895575931
 20
409.1423830145
 30
0.0
 11
393.9840138235
 21
409.1399416542
 31
0.0
  0
SPLINE
  5
176
330
1F
100
AcDbEntity
  8
0
  6
Continuous
 62
     7
370
    25
100
AcDbSpline
210
0.0
220
0.0
230
1.0
 70
     8
 71
     3
 72
    18
 73
    14
 74
     0
 42
0.000000001
 43
0.00000001
 40
0.0
 40
0.0
 40
0.0
 40
0.0
 40
0.066661219562232
 40
0.1355640704316051
 40
0.2056438197954945
 40
0.2873491233979183
 40
0.3824626147115563
 40
0.4973779418503413
 40
0.6112612352269601
 40
0.750313855730474
 40
0.8932894275206761
 40
0.9463636684210665
 40
1.0
 40
1.0
 40
1.0
 40
1.0
 10
393.9895575931481
 20
409.1423830144893
 30
0.0
 10
393.7690851325346
 20
408.7609406733681
 30
0.0
 10
393.320726335994
 20
407.9852291466822
 30
0.0
 10
392.642681795331
 20
406.8073359216208
 30
0.0
 10
391.910766032049
 20
405.5456065783928
 30
0.0
 10
391.0372192339367
 20
404.1665414537654
 30
0.0
 10
389.914669390934
 20
402.5974161773898
 30
0.0
 10
388.5487872579127
 20
400.9459855776477
 30
0.0
 10
386.8516470369244
 20
399.2016390348991
 30
0.0
 10
384.8641304903626
 20
397.4932684934352
 30
0.0
 10
383.0524400878859
 20
396.2138761122309
 30
0.0
 10
381.6527967919396
 20
395.3391893747988
 30
0.0
 10
381.0408096343446
 20
394.9885317506856
 30
0.0
 10
380.7332042551946
 20
394.8122794060431
 30
0.0
  0
SPLINE
  5
177
330
1F
100
AcDbEntity
  8
0
  6
Continuous
 62
     7
370
    25
100
AcDbSpline
210
0.0
220
0.0
230
1.0
 70
     8
 71
     3
 72
    44
 73
    40
 74
     0
 42
0.000000001
 43
0.00000001
 40
0.0
 40
0.0
 40
0.0
 40
0.0
 40
0.0625000000000004
 40
0.0625000000000004
 40
0.1250000000000007
 40
0.1250000000000007
 40
0.1875000000000011
 40
0.1875000000000011
 40
0.2187500000000009
 40
0.2187500000000009
 40
0.2500000000000007
 40
0.2500000000000007
 40
0.3750000000000002
 40
0.3750000000000002
 40
0.4062500000000003
 40
0.4062500000000003
 40
0.4375000000000004
 40
0.4375000000000004
 40
0.5000000000000009
 40
0.5000000000000009
 40
0.5625000000000013
 40
0.5625000000000013
 40
0.6250000000000019
 40
0.6250000000000019
 40
0.6562500000000019
 40
0.6562500000000019
 40
0.687500000000002
 40
0.687500000000002
 40
0.7500000000000024
 40
0.7500000000000024
 40
0.812500000000003
 40
0.812500000000003
 40
0.8437500000000026
 40
0.8437500000000026
 40
0.875000000000002
 40
0.875000000000002
 40
0.9375000000000011
 40
0.9375000000000011
 40
1.0
 40
1.0
 40
1.0
 40
1.0
 10
380.7332042579042
 20
394.8122794075649
 30
0.0
 10
380.7330266106886
 20
394.8130972390619
 30
0.0
 10
380.6943853784021
 20
394.7997952021288
 30
0.0
 10
380.5382781684027
 20
394.7501122202688
 30
0.0
 10
380.4193439297528
 20
394.7133750676941
 30
0.0
 10
380.1066233865831
 20
394.6254280897903
 30
0.0
 10
379.9128665293863
 20
394.5742322002841
 30
0.0
 10
379.5657454595705
 20
394.4912810192964
 30
0.0
 10
379.4405912267177
 20
394.46258636197
 30
0.0
 10
379.170915670912
 20
394.403687206544
 30
0.0
 10
379.0257465444417
 20
394.3733568474682
 30
0.0
 10
378.2584116387078
 20
394.2208735812569
 30
0.0
 10
377.5183054820903
 20
394.0989296861414
 30
0.0
 10
376.4363699560214
 20
393.9487892512327
 30
0.0
 10
376.2115736095668
 20
393.9186978044242
 30
0.0
 10
375.7532760616122
 20
393.8589756911381
 30
0.0
 10
375.5189514317371
 20
393.829226498324
 30
0.0
 10
374.8009201616051
 20
393.7393025837833
 30
0.0
 10
374.3022271197312
 20
393.6785171933177
 30
0.0
 10
373.2656189958581
 20
393.5481195837591
 30
0.0
 10
372.7238311200072
 20
393.477889065231
 30
0.0
 10
371.6329538253012
 20
393.3241900308886
 30
0.0
 10
371.0812264044011
 20
393.2403910175813
 30
0.0
 10
370.2451280449911
 20
393.0992347834139
 30
0.0
 10
369.9650015852791
 20
393.0496177775003
 30
0.0
 10
369.4019387551537
 20
392.9445452607953
 30
0.0
 10
369.1179257799631
 20
392.888863781696
 30
0.0
 10
368.2696069025642
 20
392.7138036462587
 30
0.0
 10
367.7131724784444
 20
392.5872910722342
 30
0.0
 10
366.6179474031063
 20
392.3150046478711
 30
0.0
 10
366.0791504737615
 20
392.1692581774166
 30
0.0
 10
365.2839993258477
 20
391.9378993969244
 30
0.0
 10
365.0206173091842
 20
391.8584894003898
 30
0.0
 10
364.5065261402268
 20
391.6985052366343
 30
0.0
 10
364.2547833223405
 20
391.6176426770899
 30
0.0
 10
363.5148348057487
 20
391.373378861625
 30
0.0
 10
363.0418300197749
 20
391.2083065888377
 30
0.0
 10
362.1350051096681
 20
390.8786363387011
 30
0.0
 10
361.6992300623572
 20
390.71319965104
 30
0.0
 10
361.2947780770872
 20
390.5550203189412
 30
0.0
  0
LINE
  5
178
330
1F
100
AcDbEntity
  8
0
  6
Continuous
 62
     7
370
    25
100
AcDbLine
 10
393.2873493384
 20
410.799678927
 30
0.0
 11
393.2925390512
 21
410.8019514799
 31
0.0
  0
SPLINE
  5
179
330
1F
100
AcDbEntity
  8
0
  6
Continuous
 62
     7
370
    25
100
AcDbSpline
210
0.0
220
0.0
230
1.0
 70
     8
 71
     3
 72
    13
 73
     9
 74
     0
 42
0.000000001
 43
0.00000001
 40
0.0
 40
0.0
 40
0.0
 40
0.0
 40
0.0003887987573296
 40
0.2115875163684485
 40
0.4227862224311646
 40
0.6277676617023936
 40
0.8213449647733214
 40
1.0
 40
1.0
 40
1.0
 40
1.0
 10
394.128245835301
 20
409.8767300947918
 30
0.0
 10
394.1282405874099
 20
409.8769007856396
 30
0.0
 10
394.1253846414242
 20
409.9697921642004
 30
0.0
 10
394.0583680526316
 20
410.1491879578858
 30
0.0
 10
393.9263203423185
 20
410.3913277664752
 30
0.0
 10
393.7372932298558
 20
410.5855081955465
 30
0.0
 10
393.5236820979685
 20
410.7272971147227
 30
0.0
 10
393.3674996900654
 20
410.7777407629038
 30
0.0
 10
393.2925390520044
 20
410.8019514797479
 30
0.0
  0
SPLINE
  5
17A
330
1F
100
AcDbEntity
  8
0
  6
Continuous
 62
     7
370
    25
100
AcDbSpline
210
0.0
220
0.0
230
1.0
 70
     8
 71
     3
 72
    46
 73
    42
 74
     0
 42
0.000000001
 43
0.00000001
 40
0.5374422410907671
 40
0.5374422410907671
 40
0.5374422410907671
 40
0.5374422410907671
 40
0.539441159828245
 40
0.5659422428653578
 40
0.5914902166768783
 40
0.6170382501905001
 40
0.6547694208319925
 40
0.6762660482118759
 40
0.6870110299418928
 40
0.7080107947918319
 40
0.7441532852175492
 40
0.7657684867855641
 40
0.7873837499715944
 40
0.8125
 40
0.8240267832909852
 40
0.8363052562468388
 40
0.8498698906206706
 40
0.859375
 40
0.8739541532059557
 40
0.875
 40
0.8806467682230179
 40
0.890625
 40
0.8980973861344554
 40
0.90625
 40
0.9102544268311267
 40
0.9150802993576028
 40
0.9203487392215168
 40
0.921875
 40
0.9263012902724653
 40
0.9328812936333513
 40
0.9375
 40
0.9398347293868624
 40
0.9468342469857686
 40
0.953125
 40
0.9535932957927217
 40
0.9535932957927217
 40
0.953598270425846
 40
0.95703125
 40
0.9588974647357232
 40
0.9628465288642429
 40
0.963415313326451
 40
0.963415313326451
 40
0.963415313326451
 40
0.963415313326451
 10
283.0342795247241
 20
412.3638664382831
 30
0.0
 10
283.207833967763
 20
412.3638623554726
 30
0.0
 10
285.6823219833139
 20
412.3638051622015
 30
0.0
 10
290.3749711228089
 20
412.363723915029
 30
0.0
 10
297.1122033290472
 20
412.363667611939
 30
0.0
 10
304.824435945043
 20
412.3636590402717
 30
0.0
 10
312.184895407012
 20
412.36370280296
 30
0.0
 10
318.2601138297991
 20
412.3637629607626
 30
0.0
 10
322.8826715650616
 20
412.3638148926948
 30
0.0
 10
328.776828862772
 20
412.3638864591184
 30
0.0
 10
335.6023349868709
 20
412.363970775376
 30
0.0
 10
342.4937809998435
 20
412.3640403648009
 30
0.0
 10
348.427923351085
 20
412.364083717366
 30
0.0
 10
353.4992680788656
 20
412.3641654576772
 30
0.0
 10
357.748298847379
 20
412.3643085854529
 30
0.0
 10
360.9936484905853
 20
412.3643854921939
 30
0.0
 10
364.062135339368
 20
412.3643489493197
 30
0.0
 10
367.3281577083112
 20
412.3641262962901
 30
0.0
 10
369.5061975807102
 20
412.3638106707613
 30
0.0
 10
371.3612869956974
 20
412.3641765248637
 30
0.0
 10
372.8192816796497
 20
412.3646931938436
 30
0.0
 10
374.8420732303698
 20
412.3584239447426
 30
0.0
 10
377.0643806943224
 20
412.3259189056037
 30
0.0
 10
378.7671685679526
 20
412.2845605850337
 30
0.0
 10
380.2490163771893
 20
412.2385255844758
 30
0.0
 10
381.4829376195385
 20
412.1920050443659
 30
0.0
 10
382.5018119923587
 20
412.1434292172834
 30
0.0
 10
383.4856605287218
 20
412.0881638681579
 30
0.0
 10
384.584177899292
 20
412.0177746524766
 30
0.0
 10
385.9482178136876
 20
411.9109757050871
 30
0.0
 10
387.1185184003112
 20
411.8029135775803
 30
0.0
 10
388.3151431575112
 20
411.682090002083
 30
0.0
 10
389.6330743427346
 20
411.5285234554699
 30
0.0
 10
390.7390869125038
 20
411.354931717468
 30
0.0
 10
391.2627978998119
 20
411.2565929022296
 30
0.0
 10
391.2989964369036
 20
411.2497189088573
 30
0.0
 10
391.564577125523
 20
411.1992855780295
 30
0.0
 10
391.9652419279616
 20
411.1167918534798
 30
0.0
 10
392.6151738293007
 20
410.9707270027825
 30
0.0
 10
393.0164235921491
 20
410.8726082036688
 30
0.0
 10
393.2622201360402
 20
410.8097507484086
 30
0.0
 10
393.2925390501614
 20
410.8019514781345
 30
0.0
  0
SPLINE
  5
17B
330
1F
100
AcDbEntity
  8
0
  6
Continuous
 62
     7
370
    25
100
AcDbSpline
210
0.0
220
0.0
230
1.0
 70
     8
 71
     3
 72
    28
 73
    24
 74
     0
 42
0.000000001
 43
0.00000001
 40
0.0
 40
0.0
 40
0.0
 40
0.0
 40
0.1250000000000001
 40
0.1250000000000001
 40
0.1875000000000001
 40
0.1875000000000001
 40
0.2500000000000002
 40
0.2500000000000002
 40
0.3750000000000002
 40
0.3750000000000002
 40
0.5000000000000003
 40
0.5000000000000003
 40
0.5625000000000002
 40
0.5625000000000002
 40
0.6250000000000002
 40
0.6250000000000002
 40
0.7500000000000001
 40
0.7500000000000001
 40
0.8125
 40
0.8125
 40
0.8749999999999999
 40
0.8749999999999999
 40
1.0
 40
1.0
 40
1.0
 40
1.0
 10
255.1542323398007
 20
410.9007296928824
 30
0.0
 10
256.2021094263591
 20
410.8500697697985
 30
0.0
 10
257.2667028752499
 20
410.8122015456829
 30
0.0
 10
258.8880587507084
 20
410.7746029554697
 30
0.0
 10
259.4325886025868
 20
410.7647824162678
 30
0.0
 10
260.5299405599814
 20
410.7508651386339
 30
0.0
 10
261.0849732167862
 20
410.7468081816301
 30
0.0
 10
262.7464726284033
 20
410.7439887683515
 30
0.0
 10
263.8413418460968
 20
410.7545229940911
 30
0.0
 10
266.006321380372
 20
410.8004953300434
 30
0.0
 10
267.0764284037168
 20
410.836065039888
 30
0.0
 10
268.6622919441506
 20
410.9070423749667
 30
0.0
 10
269.1835422814389
 20
410.9334646770935
 30
0.0
 10
270.203158872206
 20
410.9907812070527
 30
0.0
 10
270.702898638332
 20
411.0217368010387
 30
0.0
 10
272.1723717203176
 20
411.1205051544709
 30
0.0
 10
273.1125343642908
 20
411.1942243291969
 30
0.0
 10
274.4622179626956
 20
411.3125261708839
 30
0.0
 10
274.9026829170334
 20
411.3533430092585
 30
0.0
 10
275.7493251110387
 20
411.4356157029756
 30
0.0
 10
276.1572613801286
 20
411.4772173892977
 30
0.0
 10
277.3356450486934
 20
411.6023508848683
 30
0.0
 10
278.0609322679155
 20
411.686235205837
 30
0.0
 10
278.7246747792479
 20
411.7675264588715
 30
0.0
  0
SPLINE
  5
17C
330
1F
100
AcDbEntity
  8
0
  6
Continuous
 62
     7
370
    25
100
AcDbSpline
210
0.0
220
0.0
230
1.0
 70
     8
 71
     3
 72
    14
 73
    10
 74
     0
 42
0.000000001
 43
0.00000001
 40
0.0
 40
0.0
 40
0.0
 40
0.0
 40
0.1570068358781771
 40
0.3152239404865912
 40
0.4647779932041303
 40
0.6153707922388353
 40
0.7692350683555782
 40
0.9242283101596563
 40
1.0
 40
1.0
 40
1.0
 40
1.0
 10
278.7246747792479
 20
411.7675264588715
 30
0.0
 10
279.0862471294814
 20
411.8127056179659
 30
0.0
 10
279.8121789678892
 20
411.9034121943896
 30
0.0
 10
280.7105938856371
 20
412.0246288936715
 30
0.0
 10
281.4669555389916
 20
412.130611169085
 30
0.0
 10
282.0767956770329
 20
412.2192935172821
 30
0.0
 10
282.5429391169448
 20
412.2888704362069
 30
0.0
 10
282.82377359536
 20
412.331613198993
 30
0.0
 10
282.9056174468757
 20
412.3441660770744
 30
0.0
 10
282.9324908842225
 20
412.3482878159271
 30
0.0
  0
SPLINE
  5
17D
330
1F
100
AcDbEntity
  8
0
  6
Continuous
 62
     7
370
    25
100
AcDbSpline
210
0.0
220
0.0
230
1.0
 70
     8
 71
     3
 72
     8
 73
     4
 74
     0
 42
0.000000001
 43
0.00000001
 40
0.0
 40
0.0
 40
0.0
 40
0.0
 40
1.0
 40
1.0
 40
1.0
 40
1.0
 10
282.9860708246932
 20
412.3564929577295
 30
0.0
 10
283.0181710080324
 20
412.3614184418929
 30
0.0
 10
283.0342756185903
 20
412.3638872121167
 30
0.0
 10
283.0342795247244
 20
412.3638664382831
 30
0.0
  0
SPLINE
  5
17E
330
1F
100
AcDbEntity
  8
0
  6
Continuous
 62
     7
370
    25
100
AcDbSpline
210
0.0
220
0.0
230
1.0
 70
     8
 71
     3
 72
    20
 73
    16
 74
     0
 42
0.000000001
 43
0.00000001
 40
0.0
 40
0.0
 40
0.0
 40
0.0
 40
0.0393680632116066
 40
0.1049815018976176
 40
0.1679704030361882
 40
0.2073384662477948
 40
0.2309593041747587
 40
0.2536353085846441
 40
0.2687526448579011
 40
0.2687526448579011
 40
0.2771123144959892
 40
0.2938316537721656
 40
0.3356300019626065
 40
0.3774283501530473
 40
0.3920140775888328
 40
0.3920140775888328
 40
0.3920140775888328
 40
0.3920140775888328
 10
310.0097447941373
 20
437.3277821019806
 30
0.0
 10
309.5620835935581
 20
437.3103469815327
 30
0.0
 10
308.3675935931915
 20
437.2540203353723
 30
0.0
 10
306.4587286773041
 20
437.1083335813858
 30
0.0
 10
304.5639575840358
 20
436.8697545792353
 30
0.0
 10
303.1576392769299
 20
436.618822750517
 30
0.0
 10
302.2091027651502
 20
436.4143486021848
 30
0.0
 10
301.5339851730183
 20
436.2486990715087
 30
0.0
 10
301.1206602891779
 20
436.1364026948776
 30
0.0
 10
300.8651248589737
 20
436.0641708729972
 30
0.0
 10
300.5928728781311
 20
435.9855487442875
 30
0.0
 10
299.8778585416076
 20
435.7657540844915
 30
0.0
 10
298.8406206738238
 20
435.3991021588381
 30
0.0
 10
297.8754871999803
 20
434.987064609682
 30
0.0
 10
297.3405215309924
 20
434.7291415265096
 30
0.0
 10
297.2034243886953
 20
434.6609796555556
 30
0.0
  0
SPLINE
  5
17F
330
1F
100
AcDbEntity
  8
0
  6
Continuous
 62
     7
370
    25
100
AcDbSpline
210
0.0
220
0.0
230
1.0
 70
     8
 71
     3
 72
    14
 73
    10
 74
     0
 42
0.000000001
 43
0.00000001
 40
0.0
 40
0.0
 40
0.0
 40
0.0
 40
0.25
 40
0.25
 40
0.5
 40
0.5
 40
0.75
 40
0.75
 40
1.0
 40
1.0
 40
1.0
 40
1.0
 10
359.9675357484602
 20
445.0411196917913
 30
0.0
 10
360.0876885037235
 20
445.006798255422
 30
0.0
 10
360.2089323750095
 20
444.9521917951441
 30
0.0
 10
360.4332714817403
 20
444.8013320114505
 30
0.0
 10
360.5359882767817
 20
444.7050586451273
 30
0.0
 10
360.703724996973
 20
444.4834615397911
 30
0.0
 10
360.7684974074855
 20
444.3584647963646
 30
0.0
 10
360.8527897830915
 20
444.101591518032
 30
0.0
 10
360.8724317717445
 20
443.9700737810375
 30
0.0
 10
360.8728472578479
 20
443.8451127658014
 30
0.0
  0
LINE
  5
180
330
1F
100
AcDbEntity
  8
0
  6
Continuous
 62
     7
370
    25
100
AcDbLine
 10
347.5894622879
 20
438.3708772692
 30
0.0
 11
349.4775816427
 21
438.5796830252
 31
0.0
  0
SPLINE
  5
181
330
1F
100
AcDbEntity
  8
0
  6
Continuous
 62
     7
370
    25
100
AcDbSpline
210
0.0
220
0.0
230
1.0
 70
     8
 71
     3
 72
    12
 73
     8
 74
     0
 42
0.000000001
 43
0.00000001
 40
0.0
 40
0.0
 40
0.0
 40
0.0
 40
0.092487141700693
 40
0.4507843693373695
 40
0.6350038074848994
 40
0.8185175997152236
 40
1.0
 40
1.0
 40
1.0
 40
1.0
 10
356.8332681711109
 20
440.3685720860046
 30
0.0
 10
356.9942290763145
 20
440.430234124872
 30
0.0
 10
357.7787560798083
 20
440.7307762628579
 30
0.0
 10
358.8328478116808
 20
441.2980212720765
 30
0.0
 10
359.9270214782768
 20
442.0746151910678
 30
0.0
 10
360.7014618606466
 20
442.813422856304
 30
0.0
 10
360.8145570726637
 20
443.5025292497371
 30
0.0
 10
360.8707899620977
 20
443.8451648303169
 30
0.0
  0
SPLINE
  5
182
330
1F
100
AcDbEntity
  8
0
  6
Continuous
 62
     7
370
    25
100
AcDbSpline
210
0.0
220
0.0
230
1.0
 70
     8
 71
     3
 72
     9
 73
     5
 74
     0
 42
0.000000001
 43
0.00000001
 40
0.0
 40
0.0
 40
0.0
 40
0.0
 40
0.0080919606692745
 40
0.6163562711132031
 40
0.6163562711132031
 40
0.6163562711132031
 40
0.6163562711132031
 10
347.5894622878619
 20
438.3708772692156
 30
0.0
 10
347.4881537743252
 20
438.3677832815619
 30
0.0
 10
339.7715427692689
 20
438.1522388193645
 30
0.0
 10
332.0549317642127
 20
437.936694357167
 30
0.0
 10
324.4396298812981
 20
437.7239797149816
 30
0.0
  0
SPLINE
  5
183
330
1F
100
AcDbEntity
  8
0
  6
Continuous
 62
     7
370
    25
100
AcDbSpline
210
0.0
220
0.0
230
1.0
 70
     8
 71
     3
 72
    10
 73
     6
 74
     0
 42
0.000000001
 43
0.00000001
 40
0.6163562711132031
 40
0.6163562711132031
 40
0.6163562711132031
 40
0.6163562711132031
 40
0.7519807799717173
 40
0.9156583731344602
 40
1.0
 40
1.0
 40
1.0
 40
1.0
 10
324.4396298812981
 20
437.7239797149816
 30
0.0
 10
322.7416483296173
 20
437.676550795714
 30
0.0
 10
318.9944683258796
 20
437.5718825808548
 30
0.0
 10
314.1913543492799
 20
437.4377194594688
 30
0.0
 10
311.0703887461852
 20
437.3690911433548
 30
0.0
 10
310.0097447941373
 20
437.3277821019806
 30
0.0
  0
SPLINE
  5
184
330
1F
100
AcDbEntity
  8
0
  6
Continuous
 62
     7
370
    25
100
AcDbSpline
210
0.0
220
0.0
230
1.0
 70
    24
 71
     3
 72
     8
 73
     4
 74
     0
 42
0.000000001
 43
0.00000001
 40
0.0
 40
0.0
 40
0.0
 40
0.0
 40
0.0003430621114162
 40
0.0003430621114162
 40
0.0003430621114162
 40
0.0003430621114162
 10
272.4446009085778
 20
414.7640460534472
 30
0.0
 10
272.3391090923111
 20
414.7640460534472
 30
0.0
 10
272.233275985535
 20
414.7640460534472
 30
0.0
 10
272.1271212320672
 20
414.7640460534472
 30
0.0
  0
SPLINE
  5
185
330
1F
100
AcDbEntity
  8
0
  6
Continuous
 62
     7
370
    25
100
AcDbSpline
210
0.0
220
0.0
230
1.0
 70
     8
 71
     3
 72
     9
 73
     5
 74
     0
 42
0.000000001
 43
0.00000001
 40
0.0631150928828058
 40
0.0631150928828058
 40
0.0631150928828058
 40
0.0631150928828058
 40
0.5
 40
1.0
 40
1.0
 40
1.0
 40
1.0
 10
286.3973933967982
 20
414.9362328757639
 30
0.0
 10
286.453198878167
 20
415.3336216777335
 30
0.0
 10
286.5725861141092
 20
416.1858413913228
 30
0.0
 10
286.6923917554857
 20
417.0380174430743
 30
0.0
 10
286.7567853342201
 20
417.4927600827546
 30
0.0
  0
ARC
  5
186
330
1F
100
AcDbEntity
  8
0
  6
Continuous
 62
     7
370
    25
100
AcDbCircle
 10
286.1993367707
 20
414.9640460534
 30
0.0
 40
0.1999999999999886
100
AcDbArc
 50
270.0
 51
352.0062031482
  0
SPLINE
  5
187
330
1F
100
AcDbEntity
  8
0
  6
Continuous
 62
     7
370
    25
100
AcDbSpline
210
0.0
220
0.0
230
1.0
 70
    24
 71
     3
 72
    26
 73
    22
 74
     0
 42
0.000000001
 43
0.00000001
 40
0.0
 40
0.0
 40
0.0
 40
0.0
 40
0.1249999999999999
 40
0.1249999999999999
 40
0.1874999999999998
 40
0.1874999999999998
 40
0.2499999999999997
 40
0.2499999999999997
 40
0.3749999999999996
 40
0.3749999999999996
 40
0.4999999999999994
 40
0.4999999999999994
 40
0.6249999999999992
 40
0.6249999999999992
 40
0.7499999999999992
 40
0.7499999999999992
 40
0.8124999999999993
 40
0.8124999999999993
 40
0.8749999999999996
 40
0.8749999999999996
 40
1.0
 40
1.0
 40
1.0
 40
1.0
 10
286.1993367706855
 20
414.7640460534472
 30
0.0
 10
286.1993367706855
 20
414.7640460534472
 30
0.0
 10
286.12185540611
 20
414.7640460534472
 30
0.0
 10
285.8895914653942
 20
414.7640460534472
 30
0.0
 10
285.7927653873426
 20
414.7640460534472
 30
0.0
 10
285.5594951668946
 20
414.7640460534472
 30
0.0
 10
285.4228430407932
 20
414.7640460534472
 30
0.0
 10
284.9587363724144
 20
414.7640460534472
 30
0.0
 10
284.5760013616228
 20
414.7640460534472
 30
0.0
 10
283.6644445848589
 20
414.7640460534472
 30
0.0
 10
283.1356704760622
 20
414.7640460534471
 30
0.0
 10
281.9229843789444
 20
414.7640460534471
 30
0.0
 10
281.2530479518107
 20
414.7640460534471
 30
0.0
 10
279.7940346516201
 20
414.7640460534471
 30
0.0
 10
279.0041949762289
 20
414.7640460534472
 30
0.0
 10
277.7259012324417
 20
414.7640460534472
 30
0.0
 10
277.2824217617226
 20
414.7640460534473
 30
0.0
 10
276.3721554574485
 20
414.7640460534472
 30
0.0
 10
275.9062734013484
 20
414.7640460534472
 30
0.0
 10
274.4769319090203
 20
414.7640460534472
 30
0.0
 10
273.4818976999649
 20
414.7640460534471
 30
0.0
 10
272.4446009085778
 20
414.7640460534472
 30
0.0
  0
LINE
  5
188
330
1F
100
AcDbEntity
  8
0
  6
Continuous
 62
     7
370
    25
100
AcDbLine
 10
381.0858328107
 20
388.5515371735
 30
0.0
 11
380.3508690009
 21
391.894344284
 31
0.0
  0
LINE
  5
189
330
1F
100
AcDbEntity
  8
0
  6
Continuous
 62
     7
370
    25
100
AcDbLine
 10
381.0858328107
 20
388.5515371735
 30
0.0
 11
359.5990426873
 21
383.8273599758
 31
0.0
  0
LINE
  5
18A
330
1F
100
AcDbEntity
  8
0
  6
Continuous
 62
     7
370
    25
100
AcDbLine
 10
359.5990426873
 20
383.8273599758
 30
0.0
 11
358.8640788776
 21
387.1701670863
 31
0.0
  0
LINE
  5
18B
330
1F
100
AcDbEntity
  8
0
  6
Continuous
 62
     7
370
    25
100
AcDbLine
 10
357.8874065993
 20
386.9554317592
 30
0.0
 11
358.8640788776
 21
387.1701670863
 31
0.0
  0
LINE
  5
18C
330
1F
100
AcDbEntity
  8
0
  6
Continuous
 62
     7
370
    25
100
AcDbLine
 10
380.3508690009
 20
391.894344284
 30
0.0
 11
381.3275412793
 21
392.1090796112
 31
0.0
  0
SPLINE
  5
18D
330
1F
100
AcDbEntity
  8
0
  6
Continuous
 62
     7
370
    25
100
AcDbSpline
210
0.0
220
0.0
230
1.0
 70
    24
 71
     3
 72
    10
 73
     6
 74
     0
 42
0.000000001
 43
0.00000001
 40
0.0
 40
0.0
 40
0.0
 40
0.0
 40
0.5
 40
0.5
 40
1.0
 40
1.0
 40
1.0
 40
1.0
 10
381.2098103096094
 20
387.9876551706574
 30
0.0
 10
381.2098103096095
 20
387.9876551706574
 30
0.0
 10
381.1984371466415
 20
388.0393832823488
 30
0.0
 10
381.1556940092868
 20
388.2337902199218
 30
0.0
 10
381.1245168924688
 20
388.3755918792771
 30
0.0
 10
381.085832810665
 20
388.5515371734637
 30
0.0
  0
LINE
  5
18E
330
1F
100
AcDbEntity
  8
0
  6
Continuous
 62
     7
370
    25
100
AcDbLine
 10
381.2098103096
 20
387.9876551707
 30
0.0
 11
359.7230201863
 21
383.263477973
 31
0.0
  0
SPLINE
  5
18F
330
1F
100
AcDbEntity
  8
0
  6
Continuous
 62
     7
370
    25
100
AcDbSpline
210
0.0
220
0.0
230
1.0
 70
    24
 71
     3
 72
    10
 73
     6
 74
     0
 42
0.000000001
 43
0.00000001
 40
0.0
 40
0.0
 40
0.0
 40
0.0
 40
0.5000000000000001
 40
0.5000000000000001
 40
1.0
 40
1.0
 40
1.0
 40
1.0
 10
359.7230201862577
 20
383.2634779729822
 30
0.0
 10
359.7230201862577
 20
383.2634779729822
 30
0.0
 10
359.7116470232897
 20
383.3152060846735
 30
0.0
 10
359.6689038859351
 20
383.5096130222465
 30
0.0
 10
359.6377267691171
 20
383.6514146816019
 30
0.0
 10
359.5990426873132
 20
383.8273599757885
 30
0.0
  0
LINE
  5
190
330
1F
100
AcDbEntity
  8
0
  6
Continuous
 62
     7
370
    25
100
AcDbLine
 10
215.1707995934
 20
368.1153488664
 30
0.0
 11
215.0784617039
 21
368.2959962831
 31
0.0
  0
SPLINE
  5
191
330
1F
100
AcDbEntity
  8
0
  6
Continuous
 62
     7
370
    25
100
AcDbSpline
210
0.0
220
0.0
230
1.0
 70
     8
 71
     3
 72
    13
 73
     9
 74
     0
 42
0.000000001
 43
0.00000001
 40
0.0
 40
0.0
 40
0.0
 40
0.0
 40
0.0251484133554302
 40
0.1903193284968923
 40
0.3589136214218668
 40
0.5275079478481085
 40
0.6926789556626887
 40
1.0
 40
1.0
 40
1.0
 40
1.0
 10
214.9536838962781
 20
368.5401083021667
 30
0.0
 10
214.9469920239403
 20
368.5526352736698
 30
0.0
 10
214.8963489622209
 20
368.6474374693741
 30
0.0
 10
214.8791846939352
 20
368.8559731587358
 30
0.0
 10
214.8757265243684
 20
369.1380037108119
 30
0.0
 10
214.9407305702281
 20
369.4162350367487
 30
0.0
 10
215.0852983372715
 20
369.7517173625495
 30
0.0
 10
215.2769368575904
 20
369.9414914248648
 30
0.0
 10
215.4015835049391
 20
370.064925380533
 30
0.0
  0
SPLINE
  5
192
330
1F
100
AcDbEntity
  8
0
  6
Continuous
 62
     7
370
    25
100
AcDbSpline
210
0.0
220
0.0
230
1.0
 70
     8
 71
     3
 72
    14
 73
    10
 74
     0
 42
0.000000001
 43
0.00000001
 40
0.0
 40
0.0
 40
0.0
 40
0.0
 40
0.0556501558200231
 40
0.2519823115628738
 40
0.4475518533862275
 40
0.5654945479106395
 40
0.6911732648427938
 40
0.8321046311948456
 40
0.9999999999999999
 40
0.9999999999999999
 40
0.9999999999999999
 40
0.9999999999999999
 10
226.0963559514006
 20
363.333671125354
 30
0.0
 10
225.8842702711882
 20
363.4160499689742
 30
0.0
 10
224.9239523859669
 20
363.7890590133051
 30
0.0
 10
223.1060553716857
 20
364.0799876299511
 30
0.0
 10
221.0592986121227
 20
364.4451266231476
 30
0.0
 10
219.326054113488
 20
364.9245930829507
 30
0.0
 10
217.8900277059575
 20
365.5795097063553
 30
0.0
 10
216.4395254110719
 20
366.6309366197198
 30
0.0
 10
215.6176240480285
 20
367.5925631510143
 30
0.0
 10
215.170792809796
 20
368.1153567525537
 30
0.0
  0
SPLINE
  5
193
330
1F
100
AcDbEntity
  8
0
  6
Continuous
 62
     7
370
    25
100
AcDbSpline
210
0.0
220
0.0
230
1.0
 70
     8
 71
     3
 72
    22
 73
    18
 74
     0
 42
0.000000001
 43
0.00000001
 40
0.0
 40
0.0
 40
0.0
 40
0.0
 40
0.2500000000000004
 40
0.2500000000000004
 40
0.3750000000000006
 40
0.3750000000000006
 40
0.5000000000000008
 40
0.5000000000000008
 40
0.625000000000001
 40
0.625000000000001
 40
0.7500000000000011
 40
0.7500000000000011
 40
0.8125000000000013
 40
0.8125000000000013
 40
0.8750000000000016
 40
0.8750000000000016
 40
1.0
 40
1.0
 40
1.0
 40
1.0
 10
230.9025435433042
 20
361.0478272467783
 30
0.0
 10
230.5922923150163
 20
361.2707655365093
 30
0.0
 10
230.2750509488396
 20
361.4803539927195
 30
0.0
 10
229.7881396439474
 20
361.7728622989388
 30
0.0
 10
229.6225565428323
 20
361.8674831513127
 30
0.0
 10
229.2951584082359
 20
362.0451162694918
 30
0.0
 10
229.1343810962488
 20
362.1276450975957
 30
0.0
 10
228.8214379299901
 20
362.2801844515178
 30
0.0
 10
228.6688745407796
 20
362.3502581264078
 30
0.0
 10
228.3914118190124
 20
362.4717161828389
 30
0.0
 10
228.2629218521737
 20
362.5247017996805
 30
0.0
 10
228.1020535476933
 20
362.5886459994247
 30
0.0
 10
228.0537349685989
 20
362.6073996149787
 30
0.0
 10
227.9686211887789
 20
362.6399447588428
 30
0.0
 10
227.9315826493547
 20
362.6538252611952
 30
0.0
 10
227.8428923786152
 20
362.686752823587
 30
0.0
 10
227.8120884008014
 20
362.6977980888717
 30
0.0
 10
227.8120752813339
 20
362.6978438447326
 30
0.0
  0
SPLINE
  5
194
330
1F
100
AcDbEntity
  8
0
  6
Continuous
 62
     7
370
    25
100
AcDbSpline
210
0.0
220
0.0
230
1.0
 70
     8
 71
     3
 72
    19
 73
    15
 74
     0
 42
0.000000001
 43
0.00000001
 40
0.0102326600000002
 40
0.0102326600000002
 40
0.0102326600000002
 40
0.0102326600000002
 40
0.01689803
 40
0.0183246
 40
0.07468107
 40
0.1962853800000001
 40
0.22700065
 40
0.42428381
 40
0.65601259
 40
0.7063996400000001
 40
0.7705286100000001
 40
0.8209156500000001
 40
0.8599745700000001
 40
1.562694789999904
 40
1.562694789999904
 40
1.562694789999904
 40
1.562694789999904
 10
215.4016066382451
 20
370.0649523783068
 30
0.0
 10
215.4253346806448
 20
370.0839855154018
 30
0.0
 10
215.4539952860164
 20
370.1066533850458
 30
0.0
 10
215.6805685982003
 20
370.2832562706701
 30
0.0
 10
216.3337139644151
 20
370.7337036546301
 30
0.0
 10
217.0723251664173
 20
371.1077364248084
 30
0.0
 10
218.3431536763398
 20
371.6200608004393
 30
0.0
 10
220.0049522778687
 20
372.0643054562888
 30
0.0
 10
221.743496204229
 20
372.3130145517539
 30
0.0
 10
222.9994177836162
 20
372.4447822549418
 30
0.0
 10
223.5982509597856
 20
372.5029455236929
 30
0.0
 10
224.1549744399567
 20
372.550031379755
 30
0.0
 10
227.0294049707772
 20
372.8112465024031
 30
0.0
 10
229.7229497042986
 20
372.9461463104776
 30
0.0
 10
232.2760206474569
 20
372.9965115826713
 30
0.0
  0
ARC
  5
195
330
1F
100
AcDbEntity
  8
0
  6
Continuous
 62
     7
370
    25
100
AcDbCircle
 10
232.2858974147
 20
372.4965914352
 30
0.0
 40
0.4999999943743917
100
AcDbArc
 50
62.4184772684
 51
91.1318526314
  0
LINE
  5
196
330
1F
100
AcDbEntity
  8
0
  6
Continuous
 62
     7
370
    25
100
AcDbLine
 10
289.4057881659
 20
420.7640460534
 30
0.0
 11
289.4057881659
 21
427.1598313243
 31
0.0
  0
LINE
  5
197
330
1F
100
AcDbEntity
  8
0
  6
Continuous
 62
     7
370
    25
100
AcDbLine
 10
288.6557881659
 20
420.7640460534
 30
0.0
 11
288.6557881659
 21
425.7968557845
 31
0.0
  0
LINE
  5
198
330
1F
100
AcDbEntity
  8
0
  6
Continuous
 62
     7
370
    25
100
AcDbLine
 10
288.6557881659
 20
422.8825015633
 30
0.0
 11
287.7913354847
 21
422.8825015633
 31
0.0
  0
SPLINE
  5
199
330
1F
100
AcDbEntity
  8
0
  6
Continuous
 62
     7
370
    25
100
AcDbSpline
210
0.0
220
0.0
230
1.0
 70
     8
 71
     3
 72
     8
 73
     4
 74
     0
 42
0.000000001
 43
0.00000001
 40
0.0
 40
0.0
 40
0.0
 40
0.0
 40
1.0
 40
1.0
 40
1.0
 40
1.0
 10
288.2379681301052
 20
424.4416511481612
 30
0.0
 10
288.3123729476169
 20
424.5298536291177
 30
0.0
 10
288.3553196244363
 20
424.6462566418699
 30
0.0
 10
288.3557841420026
 20
424.7620400939616
 30
0.0
  0
SPLINE
  5
19A
330
1F
100
AcDbEntity
  8
0
  6
Continuous
 62
     7
370
    25
100
AcDbSpline
210
0.0
220
0.0
230
1.0
 70
     8
 71
     3
 72
     8
 73
     4
 74
     0
 42
0.000000001
 43
0.00000001
 40
0.0
 40
0.0
 40
0.0
 40
0.0
 40
1.0
 40
1.0
 40
1.0
 40
1.0
 10
227.8120752818567
 20
362.6978438429095
 30
0.0
 10
227.8120820112633
 20
362.6978203700874
 30
0.0
 10
227.8203140505399
 20
362.6948322718437
 30
0.0
 10
227.8362925449811
 20
362.6889966936123
 30
0.0
  0
LINE
  5
19B
330
1F
100
AcDbEntity
  8
0
  6
Continuous
 62
     7
370
    25
100
AcDbLine
 10
287.6985989761
 20
422.4274266296
 30
0.0
 11
288.6557881659
 21
422.4274266296
 31
0.0
  0
SPLINE
  5
19C
330
1F
100
AcDbEntity
  8
0
  6
Continuous
 62
     7
370
    25
100
AcDbSpline
210
0.0
220
0.0
230
1.0
 70
     8
 71
     3
 72
    13
 73
     9
 74
     0
 42
0.000000001
 43
0.00000001
 40
0.0
 40
0.0
 40
0.0
 40
0.0
 40
0.0942514892505705
 40
0.3106129541085166
 40
0.5283205210862133
 40
0.7485804157483379
 40
0.9686667058801424
 40
1.0
 40
1.0
 40
1.0
 40
1.0
 10
288.348884518726
 20
421.7651883421372
 30
0.0
 10
288.3505048721401
 20
421.764921199716
 30
0.0
 10
288.3558448701035
 20
421.7640408115411
 30
0.0
 10
288.3059322885247
 20
421.7722858815793
 30
0.0
 10
288.206620426473
 20
421.7860847010926
 30
0.0
 10
288.0642905329663
 20
421.8000381301565
 30
0.0
 10
287.9453281161109
 20
421.8053446891927
 30
0.0
 10
287.8812265986073
 20
421.805887095811
 30
0.0
 10
287.8732379142435
 20
421.8059546935129
 30
0.0
  0
ELLIPSE
  5
19D
330
1F
100
AcDbEntity
  8
0
  6
Continuous
 62
     7
370
    25
100
AcDbEllipse
 10
302.1826423398
 20
424.7640460534
 30
0.0
 11
85.90875984874657
 21
0.0
 31
0.0
210
0.0
220
0.0
230
1.0
 40
0.0349207695
 41
4.541794328940526
 42
4.545043869296459
  0
LINE
  5
19E
330
1F
100
AcDbEntity
  8
0
  6
Continuous
 62
     7
370
    25
100
AcDbLine
 10
287.6557881659
 20
422.0569392723
 30
0.0
 11
287.6557881659
 21
422.1849627258
 31
0.0
  0
SPLINE
  5
19F
330
1F
100
AcDbEntity
  8
0
  6
Continuous
 62
     7
370
    25
100
AcDbSpline
210
0.0
220
0.0
230
1.0
 70
     8
 71
     3
 72
     8
 73
     4
 74
     0
 42
0.000000001
 43
0.00000001
 40
0.0
 40
0.0
 40
0.0
 40
0.0
 40
1.0
 40
1.0
 40
1.0
 40
1.0
 10
287.6557881658922
 20
422.0569392722606
 30
0.0
 10
287.6482812190199
 20
422.055088711674
 30
0.0
 10
287.640756672707
 20
422.0532587802423
 30
0.0
 10
287.6332300862204
 20
422.051453243008
 30
0.0
  0
LINE
  5
1A0
330
1F
100
AcDbEntity
  8
0
  6
Continuous
 62
     7
370
    25
100
AcDbLine
 10
393.2873493384
 20
410.799678927
 30
0.0
 11
393.2925390512
 21
410.8019514799
 31
0.0
  0
SPLINE
  5
1A1
330
1F
100
AcDbEntity
  8
0
  6
Continuous
 62
     8
370
    18
100
AcDbSpline
210
0.0
220
0.0
230
1.0
 70
     8
 71
     3
 72
    10
 73
     6
 74
     0
 42
0.000000001
 43
0.00000001
 40
0.0
 40
0.0
 40
0.0
 40
0.0
 40
0.5
 40
0.5
 40
1.0
 40
1.0
 40
1.0
 40
1.0
 10
248.579832271779
 20
419.6743667747754
 30
0.0
 10
248.5643624421905
 20
419.6242312048688
 30
0.0
 10
248.5487220818612
 20
419.5744154779999
 30
0.0
 10
248.5259648424514
 20
419.5036579472851
 30
0.0
 10
248.518989245464
 20
419.4831554222051
 30
0.0
 10
248.5183934631689
 20
419.4833392819844
 30
0.0
  0
SPLINE
  5
1A2
330
1F
100
AcDbEntity
  8
0
  6
Continuous
 62
     8
370
    18
100
AcDbSpline
210
0.0
220
0.0
230
1.0
 70
     8
 71
     3
 72
    10
 73
     6
 74
     0
 42
0.000000001
 43
0.00000001
 40
0.0
 40
0.0
 40
0.0
 40
0.0
 40
0.5
 40
0.5
 40
1.0
 40
1.0
 40
1.0
 40
1.0
 10
247.266562667948
 20
420.0581580774853
 30
0.0
 10
247.256810996764
 20
420.011310815323
 30
0.0
 10
247.2610981283625
 20
419.9626819259866
 30
0.0
 10
247.2956870342594
 20
419.8852610593835
 30
0.0
 10
247.3258375439895
 20
419.856807659868
 30
0.0
 10
247.3615899149509
 20
419.845457165933
 30
0.0
  0
SPLINE
  5
1A3
330
1F
100
AcDbEntity
  8
0
  6
Continuous
 62
     8
370
    18
100
AcDbSpline
210
0.0
220
0.0
230
1.0
 70
     8
 71
     3
 72
    14
 73
    10
 74
     0
 42
0.000000001
 43
0.00000001
 40
0.0
 40
0.0
 40
0.0
 40
0.0
 40
0.4999999999999997
 40
0.4999999999999997
 40
0.7499999999999997
 40
0.7499999999999997
 40
0.8749999999999998
 40
0.8749999999999998
 40
1.0
 40
1.0
 40
1.0
 40
1.0
 10
246.0086691066328
 20
400.0574362510046
 30
0.0
 10
244.5021034399184
 20
389.3571004041444
 30
0.0
 10
242.9970859262851
 20
378.65519856818
 30
0.0
 10
240.7445161663084
 20
362.5973322006841
 30
0.0
 10
239.9940660637068
 20
357.2442989110907
 30
0.0
 10
238.8668178136175
 20
349.2163401962589
 30
0.0
 10
238.4910599920514
 20
346.5403624596826
 30
0.0
 10
237.7379404442684
 20
341.1900293694919
 30
0.0
 10
237.3599533872929
 20
338.5163065509647
 30
0.0
 10
236.982735439507
 20
335.841805762473
 30
0.0
  0
SPLINE
  5
1A4
330
1F
100
AcDbEntity
  8
0
  6
Continuous
 62
     8
370
    18
100
AcDbSpline
210
0.0
220
0.0
230
1.0
 70
     8
 71
     3
 72
    28
 73
    24
 74
     0
 42
0.000000001
 43
0.00000001
 40
0.0
 40
0.0
 40
0.0
 40
0.0
 40
0.0513216771187389
 40
0.093257531775875
 40
0.1258319034948216
 40
0.1723136392439172
 40
0.214449852208402
 40
0.252513646307161
 40
0.2843745575477161
 40
0.3158712835509977
 40
0.3471190613958665
 40
0.3782359005369118
 40
0.409341314684361
 40
0.4405549718978189
 40
0.4719953329210669
 40
0.5037783501784492
 40
0.586382149177805
 40
0.6676355934608452
 40
0.7494614584648527
 40
0.8073384707729968
 40
0.8738011899245371
 40
0.9124870719756809
 40
0.9999999999999999
 40
0.9999999999999999
 40
0.9999999999999999
 40
0.9999999999999999
 10
255.1543728309281
 20
409.1840507378469
 30
0.0
 10
254.903544399522
 20
409.1814567580678
 30
0.0
 10
254.4477595981402
 20
409.1767431913011
 30
0.0
 10
253.8329948511425
 20
409.157144480249
 30
0.0
 10
253.2426551368322
 20
409.120132375732
 30
0.0
 10
252.6542062954255
 20
409.0483921257485
 30
0.0
 10
252.0453779591107
 20
408.9321565126853
 30
0.0
 10
251.5185966951908
 20
408.7789770325783
 30
0.0
 10
251.0559063121317
 20
408.6001552521413
 30
0.0
 10
250.6341125840235
 20
408.4101084492938
 30
0.0
 10
250.2281855383925
 20
408.1957171289199
 30
0.0
 10
249.8378629152532
 20
407.957779827842
 30
0.0
 10
249.4632330976605
 20
407.6960949389464
 30
0.0
 10
249.1043190465297
 20
407.4107197821912
 30
0.0
 10
248.7610427644668
 20
407.1016917763145
 30
0.0
 10
248.2611127212494
 20
406.5932980708101
 30
0.0
 10
247.6600220065844
 20
405.844567421782
 30
0.0
 10
247.0575356201693
 20
404.8004374552755
 30
0.0
 10
246.6689090297445
 20
403.787962978637
 30
0.0
 10
246.4253670550677
 20
402.8091658132558
 30
0.0
 10
246.2848585057149
 20
402.0243452411875
 30
0.0
 10
246.1553112387412
 20
401.0916336285082
 30
0.0
 10
246.0687202654161
 20
400.4809298945529
 30
0.0
 10
246.0086735057705
 20
400.0574356327461
 30
0.0
  0
SPLINE
  5
1A5
330
1F
100
AcDbEntity
  8
0
  6
Continuous
 62
     8
370
    18
100
AcDbSpline
210
0.0
220
0.0
230
1.0
 70
     8
 71
     3
 72
    15
 73
    11
 74
     0
 42
0.000000001
 43
0.00000001
 40
0.0
 40
0.0
 40
0.0
 40
0.0
 40
0.1249624284153597
 40
0.2499787827366991
 40
0.3488608171509847
 40
0.4999911648283319
 40
0.6780128236950352
 40
0.8207329653843108
 40
0.9280838064668686
 40
1.0
 40
1.0
 40
1.0
 40
1.0
 10
323.5069036880986
 20
409.1705997722438
 30
0.0
 10
320.6601972515006
 20
409.1695049029608
 30
0.0
 10
314.9655559192744
 20
409.1673146919183
 30
0.0
 10
307.0183215315616
 20
409.173895731436
 30
0.0
 10
298.4748912651195
 20
409.17781868544
 30
0.0
 10
288.7238946400366
 20
409.1775052296488
 30
0.0
 10
277.9741564004948
 20
409.1825912150829
 30
0.0
 10
268.2217015396445
 20
409.1880078770907
 30
0.0
 10
260.8864128946465
 20
409.1935953047692
 30
0.0
 10
256.8024756462789
 20
409.1867460120727
 30
0.0
 10
255.1641308041254
 20
409.183998295181
 30
0.0
  0
LWPOLYLINE
  5
1A6
330
1F
100
AcDbEntity
  8
0
  6
Continuous
 62
     8
370
    18
100
AcDbPolyline
 90
        3
 70
   128
 43
0.0
 10
231.7393958505
 20
310.1640460534
 10
233.5593829443
 20
323.114505404
 10
235.3795001457
 20
336.0667577054
  0
LINE
  5
1A7
330
1F
100
AcDbEntity
  8
0
  6
Continuous
 62
     8
370
    18
100
AcDbLine
 10
236.9826566259
 20
335.8417789648
 30
0.0
 11
233.3744765295
 21
310.1640460534
 31
0.0
  0
LWPOLYLINE
  5
1A8
330
1F
100
AcDbEntity
  8
0
  6
Continuous
 62
     8
370
    18
100
AcDbPolyline
 90
        3
 70
   128
 43
0.0
 10
250.6191614077
 20
434.1757089843
 10
250.6059831025
 20
434.082013946
 10
250.5928045265
 20
433.9883198947
  0
SPLINE
  5
1A9
330
1F
100
AcDbEntity
  8
0
  6
Continuous
 62
     8
370
    18
100
AcDbSpline
210
0.0
220
0.0
230
1.0
 70
     8
 71
     3
 72
    18
 73
    14
 74
     0
 42
0.000000001
 43
0.00000001
 40
0.0
 40
0.0
 40
0.0
 40
0.0
 40
0.1439079125454568
 40
0.2772163699096656
 40
0.3999423611107167
 40
0.5120603659949294
 40
0.6135820066216746
 40
0.7045006235900902
 40
0.7848145048676537
 40
0.8545226200930811
 40
0.9136234060203638
 40
0.9621158735007973
 40
1.0
 40
1.0
 40
1.0
 40
1.0
 10
295.5612174685041
 20
443.7454152914637
 30
0.0
 10
293.9507959779663
 20
443.748692719224
 30
0.0
 10
290.8485676728314
 20
443.7550061776728
 30
0.0
 10
286.372973030512
 20
443.762256553027
 30
0.0
 10
282.252893411422
 20
443.773370909187
 30
0.0
 10
278.488636465746
 20
443.7799691621364
 30
0.0
 10
275.0802310041044
 20
443.787117280352
 30
0.0
 10
272.0277444384768
 20
443.7922324823741
 30
0.0
 10
269.3312725010643
 20
443.7955367435215
 30
0.0
 10
266.9908719179767
 20
443.7969394059897
 30
0.0
 10
265.0065946298157
 20
443.7959234624217
 30
0.0
 10
263.3784747602602
 20
443.7931992846727
 30
0.0
 10
262.411795823691
 20
443.7881688933396
 30
0.0
 10
261.9878176899186
 20
443.785962601417
 30
0.0
  0
SPLINE
  5
1AA
330
1F
100
AcDbEntity
  8
0
  6
Continuous
 62
     8
370
    18
100
AcDbSpline
210
0.0
220
0.0
230
1.0
 70
     8
 71
     3
 72
     8
 73
     4
 74
     0
 42
0.000000001
 43
0.00000001
 40
0.0
 40
0.0
 40
0.0
 40
0.0
 40
1.0
 40
1.0
 40
1.0
 40
1.0
 10
250.5913710219825
 20
433.9807945923206
 30
0.0
 10
249.9212670856419
 20
429.2108615228345
 30
0.0
 10
249.2505595024865
 20
424.4431276836164
 30
0.0
 10
248.5801456851558
 20
419.6743235846602
 30
0.0
  0
SPLINE
  5
1AB
330
1F
100
AcDbEntity
  8
0
  6
Continuous
 62
     8
370
    18
100
AcDbSpline
210
0.0
220
0.0
230
1.0
 70
     8
 71
     3
 72
    18
 73
    14
 74
     0
 42
0.000000001
 43
0.00000001
 40
0.0
 40
0.0
 40
0.0
 40
0.0
 40
0.25
 40
0.25
 40
0.5
 40
0.5
 40
0.75
 40
0.75
 40
0.8750000000000014
 40
0.8750000000000014
 40
0.9375000000000008
 40
0.9375000000000008
 40
1.0
 40
1.0
 40
1.0
 40
1.0
 10
247.2664277542029
 20
420.0581772103661
 30
0.0
 10
247.431439146926
 20
421.2332433625054
 30
0.0
 10
247.5967156786594
 20
422.4090489914435
 30
0.0
 10
247.9288321091005
 20
424.7648173604273
 30
0.0
 10
248.0959836769523
 20
425.9455941258855
 30
0.0
 10
248.427674520668
 20
428.2996709135867
 30
0.0
 10
248.5913774424226
 20
429.4732902393851
 30
0.0
 10
248.8348424173522
 20
431.215843062497
 30
0.0
 10
248.9165798120137
 20
431.7988108145711
 30
0.0
 10
249.0418005948787
 20
432.6856044044462
 30
0.0
 10
249.0839007220128
 20
432.9827387079079
 30
0.0
 10
249.16885993921
 20
433.5798867137496
 30
0.0
 10
249.2117013148562
 20
433.8808635391578
 30
0.0
 10
249.2550756195532
 20
434.1759100899019
 30
0.0
  0
LWPOLYLINE
  5
1AC
330
1F
100
AcDbEntity
  8
0
  6
Continuous
 62
     8
370
    18
100
AcDbPolyline
 90
        3
 70
   128
 43
0.0
 10
235.3797229208
 20
336.0675963304
 10
239.8896721222
 20
368.1581484989
 10
244.4053369197
 20
400.2827117017
  0
LWPOLYLINE
  5
1AD
330
1F
100
AcDbEntity
  8
0
  6
Continuous
 62
     8
370
    18
100
AcDbPolyline
 90
        9
 70
   128
 43
0.0
 10
272.2013902383
 20
414.953789874
 10
272.1993346049
 20
414.91626467
 10
272.1946816304
 20
414.8804580472
 10
272.187598671
 20
414.8476578838
 10
272.1783404837
 20
414.8190439226
 10
272.1672400632
 20
414.795645339
 10
272.154696665
 20
414.7783037236
 10
272.1411614449
 20
414.7676428127
 10
272.1271212321
 20
414.7640460534
  0
SPLINE
  5
1AE
330
1F
100
AcDbEntity
  8
0
  6
Continuous
 62
     8
370
    18
100
AcDbSpline
210
0.0
220
0.0
230
1.0
 70
     8
 71
     3
 72
    43
 73
    39
 74
     0
 42
0.000000001
 43
0.00000001
 40
0.0
 40
0.0
 40
0.0
 40
0.0
 40
0.0242015801703668
 40
0.0476570445075823
 40
0.0707865080944398
 40
0.0935173928421178
 40
0.1157949142565509
 40
0.1376001149698157
 40
0.1589264979188275
 40
0.1797724713890292
 40
0.2001404041304123
 40
0.2200356148952944
 40
0.2394636523578894
 40
0.2584274445079203
 40
0.2769271907921269
 40
0.2949605545972913
 40
0.3125228695269157
 40
0.3296053158578641
 40
0.3461925629092042
 40
0.3622695182645671
 40
0.3778222231520895
 40
0.3928374753699871
 40
0.4073025187951181
 40
0.4212047981795595
 40
0.4345317766728213
 40
0.4472708123694344
 40
0.4594090894828328
 40
0.4709339665140067
 40
0.4818334759088114
 40
0.4920951727286317
 40
0.50170523354343
 40
0.5830485543669325
 40
0.6689366806139746
 40
0.7589856599864696
 40
0.8021736506965294
 40
0.8567269206286063
 40
0.9228484115471588
 40
1.0
 40
1.0
 40
1.0
 40
1.0
 10
249.2825912047504
 20
434.3686686770261
 30
0.0
 10
249.3044351726865
 20
434.5156797748484
 30
0.0
 10
249.3474496760713
 20
434.8051697330536
 30
0.0
 10
249.4212009384939
 20
435.233600921567
 30
0.0
 10
249.5007781909251
 20
435.6517781529973
 30
0.0
 10
249.5880405554471
 20
436.0610348963423
 30
0.0
 10
249.6831242501887
 20
436.4601905202671
 30
0.0
 10
249.7865579870498
 20
436.8483501168726
 30
0.0
 10
249.8986391413653
 20
437.2249404173489
 30
0.0
 10
250.0195186469493
 20
437.5895130986601
 30
0.0
 10
250.1491823368234
 20
437.9417046886456
 30
0.0
 10
250.2874494745979
 20
438.28121715204
 30
0.0
 10
250.4332698540767
 20
438.6081207387172
 30
0.0
 10
250.5856280921487
 20
438.9225205371273
 30
0.0
 10
250.7435207455406
 20
439.224532726069
 30
0.0
 10
250.9059650173709
 20
439.5142812560332
 30
0.0
 10
251.0719812325561
 20
439.7918915889638
 30
0.0
 10
251.2406197085091
 20
440.0574453737806
 30
0.0
 10
251.4112198671792
 20
440.3108107279588
 30
0.0
 10
251.5830406921316
 20
440.551894495318
 30
0.0
 10
251.7553233913328
 20
440.7806650453355
 30
0.0
 10
251.927294050595
 20
440.9971550469955
 30
0.0
 10
252.0981713953679
 20
441.2014527966844
 30
0.0
 10
252.2671717811083
 20
441.3936950868487
 30
0.0
 10
252.4335145997798
 20
441.5740599948609
 30
0.0
 10
252.596427112008
 20
441.7427602975767
 30
0.0
 10
252.7551511827853
 20
441.9000379334918
 30
0.0
 10
252.9089502520018
 20
442.0461634977692
 30
0.0
 10
253.0570891956957
 20
442.1814504839382
 30
0.0
 10
253.1988778367665
 20
442.3062074013141
 30
0.0
 10
253.6720994778939
 20
442.7085172014956
 30
0.0
 10
254.5558124527284
 20
443.3456693513787
 30
0.0
 10
255.9633974093569
 20
444.0723558577563
 30
0.0
 10
257.2451845741182
 20
444.4988518122088
 30
0.0
 10
258.3760707600106
 20
444.7245401836043
 30
0.0
 10
259.3756416313363
 20
444.8445552985152
 30
0.0
 10
260.5887908471236
 20
444.9125309469334
 30
0.0
 10
261.4685007018897
 20
444.9219235295064
 30
0.0
 10
261.9422185347903
 20
444.9269813719731
 30
0.0
  0
SPLINE
  5
1AF
330
1F
100
AcDbEntity
  8
0
  6
Continuous
 62
     8
370
    18
100
AcDbSpline
210
0.0
220
0.0
230
1.0
 70
     8
 71
     3
 72
    22
 73
    18
 74
     0
 42
0.000000001
 43
0.00000001
 40
0.0
 40
0.0
 40
0.0
 40
0.0
 40
0.0502544667615493
 40
0.0920361054864895
 40
0.1253619388885753
 40
0.191721318181686
 40
0.251563150592522
 40
0.3760830850682411
 40
0.5029554873154015
 40
0.5848817146136316
 40
0.6670327474011036
 40
0.7509942825137448
 40
0.79089143641377
 40
0.832234711397169
 40
0.8751977777490197
 40
0.9332217085027588
 40
1.0
 40
1.0
 40
1.0
 40
1.0
 10
261.9661674043292
 20
443.78576865939
 30
0.0
 10
261.687786563663
 20
443.7822685326448
 30
0.0
 10
261.177959476281
 20
443.7758583952958
 30
0.0
 10
260.4837409747254
 20
443.7545491057022
 30
0.0
 10
259.7011459672225
 20
443.7119775969037
 30
0.0
 10
258.8216375793021
 20
443.6139256434105
 30
0.0
 10
257.4590182873731
 20
443.3355574140143
 30
0.0
 10
255.8385005293926
 20
442.6965970379133
 30
0.0
 10
254.3127464832234
 20
441.6284896498549
 30
0.0
 10
253.1685798760058
 20
440.4865972887992
 30
0.0
 10
252.3409541954795
 20
439.3839465512889
 30
0.0
 10
251.7835843966146
 20
438.3836447764567
 30
0.0
 10
251.4200590393774
 20
437.5430425146735
 30
0.0
 10
251.1912324270333
 20
436.8934804598841
 30
0.0
 10
250.976166984171
 20
436.1343793908646
 30
0.0
 10
250.7796777457978
 20
435.2251029482723
 30
0.0
 10
250.6751118099815
 20
434.541491154133
 30
0.0
 10
250.6191614076834
 20
434.1757089842596
 30
0.0
  0
SPLINE
  5
1B0
330
1F
100
AcDbEntity
  8
0
  6
Continuous
 62
     8
370
    18
100
AcDbSpline
210
0.0
220
0.0
230
1.0
 70
     8
 71
     3
 72
     8
 73
     4
 74
     0
 42
0.000000001
 43
0.00000001
 40
0.0
 40
0.0
 40
0.0
 40
0.0
 40
1.0
 40
1.0
 40
1.0
 40
1.0
 10
249.2552767374512
 20
434.175771955512
 30
0.0
 10
249.2642615114397
 20
434.2401711546524
 30
0.0
 10
249.2733582517979
 20
434.3046524985271
 30
0.0
 10
249.2825912047504
 20
434.3686686770264
 30
0.0
  0
SPLINE
  5
1B1
330
1F
100
AcDbEntity
  8
0
  6
Continuous
 62
     8
370
    18
100
AcDbSpline
210
0.0
220
0.0
230
1.0
 70
     8
 71
     3
 72
    26
 73
    22
 74
     0
 42
0.000000001
 43
0.00000001
 40
0.0
 40
0.0
 40
0.0
 40
0.0
 40
0.0665986072275981
 40
0.1278529435778614
 40
0.1837650746780917
 40
0.2526683705722902
 40
0.3182737903517076
 40
0.3805640607718708
 40
0.4394986417614714
 40
0.49505925242077
 40
0.5184577431161307
 40
0.5697701702483564
 40
0.6491427245042628
 40
0.7570996813593198
 40
0.7846337245848042
 40
0.8145599098111203
 40
0.8468932114050078
 40
0.8816381419706489
 40
0.918775108703544
 40
0.9582556665594923
 40
1.0
 40
1.0
 40
1.0
 40
1.0
 10
244.4053694208344
 20
400.2827653294106
 30
0.0
 10
244.4571953872368
 20
400.6527844916273
 30
0.0
 10
244.5566884942874
 20
401.3631302636935
 30
0.0
 10
244.7016417193635
 20
402.3840301723041
 30
0.0
 10
244.8998692858772
 20
403.4094799872922
 30
0.0
 10
245.1850250530857
 20
404.441104691161
 30
0.0
 10
245.6056799413145
 20
405.4651302005906
 30
0.0
 10
246.1245731264979
 20
406.3783589779166
 30
0.0
 10
246.7044286963411
 20
407.18469632314
 30
0.0
 10
247.2206891924059
 20
407.7622017616517
 30
0.0
 10
247.7441706704866
 20
408.2713240842075
 30
0.0
 10
248.4067636127421
 20
408.8272389199404
 30
0.0
 10
249.5311969777716
 20
409.5601007911363
 30
0.0
 10
250.6544528648015
 20
410.0224747501819
 30
0.0
 10
251.5503776462754
 20
410.2618275351256
 30
0.0
 10
252.0443191911066
 20
410.3611025576191
 30
0.0
 10
252.5826522415611
 20
410.4407800949456
 30
0.0
 10
253.1644911470832
 20
410.4989482109663
 30
0.0
 10
253.7882918882291
 20
410.5349806949386
 30
0.0
 10
254.4521890985101
 20
410.5503160284657
 30
0.0
 10
254.9078688704856
 20
410.552323922199
 30
0.0
 10
255.1420587603067
 20
410.5533558495329
 30
0.0
  0
SPLINE
  5
1B2
330
1F
100
AcDbEntity
  8
0
  6
Continuous
 62
     8
370
    18
100
AcDbSpline
210
0.0
220
0.0
230
1.0
 70
     8
 71
     3
 72
    18
 73
    14
 74
     0
 42
0.000000001
 43
0.00000001
 40
0.0
 40
0.0
 40
0.0
 40
0.0
 40
0.03125
 40
0.03125
 40
0.0625
 40
0.0625
 40
0.1250000000000001
 40
0.1250000000000001
 40
0.2500000000000001
 40
0.2500000000000001
 40
0.5000000000000001
 40
0.5000000000000001
 40
1.0
 40
1.0
 40
1.0
 40
1.0
 10
255.1543384303802
 20
410.5533557581155
 30
0.0
 10
255.8722152012167
 20
410.5549390589028
 30
0.0
 10
256.5895500549292
 20
410.5538135355267
 30
0.0
 10
258.0190063373093
 20
410.55347715547
 30
0.0
 10
258.7312985329863
 20
410.5540432322753
 30
0.0
 10
260.8666092927794
 20
410.5550783409566
 30
0.0
 10
262.2890444884834
 20
410.5552785239511
 30
0.0
 10
266.5607782270246
 20
410.5549530391328
 30
0.0
 10
269.4069185679956
 20
410.5555368711654
 30
0.0
 10
277.9449850869631
 20
410.5574973529366
 30
0.0
 10
283.6392869714425
 20
410.5578312275953
 30
0.0
 10
300.7209216395636
 20
410.5592618453844
 30
0.0
 10
312.1100110856506
 20
410.5595761368645
 30
0.0
 10
323.4959024196533
 20
410.5598876035171
 30
0.0
  0
SPLINE
  5
1B3
330
1F
100
AcDbEntity
  8
0
  6
Continuous
 62
     8
370
    18
100
AcDbSpline
210
0.0
220
0.0
230
1.0
 70
     8
 71
     3
 72
     8
 73
     4
 74
     0
 42
0.000000001
 43
0.00000001
 40
0.0
 40
0.0
 40
0.0
 40
0.0
 40
0.0003461179925759
 40
0.0003461179925759
 40
0.0003461179925759
 40
0.0003461179925759
 10
272.2013902383281
 20
414.953789874026
 30
0.0
 10
272.3084879678003
 20
414.9536566821449
 30
0.0
 10
272.4152610877843
 20
414.9535236899789
 30
0.0
 10
272.5216897850562
 20
414.9533909408637
 30
0.0
  0
SPLINE
  5
1B4
330
1F
100
AcDbEntity
  8
0
  6
Continuous
 62
     8
370
    18
100
AcDbSpline
210
0.0
220
0.0
230
1.0
 70
     8
 71
     3
 72
    18
 73
    14
 74
     0
 42
0.000000001
 43
0.00000001
 40
0.0
 40
0.0
 40
0.0
 40
0.0
 40
0.0625
 40
0.0625
 40
0.1250000000000001
 40
0.1250000000000001
 40
0.2500000000000002
 40
0.2500000000000002
 40
0.3750000000000003
 40
0.3750000000000003
 40
0.5000000000000003
 40
0.5000000000000003
 40
1.0
 40
1.0
 40
1.0
 40
1.0
 10
261.9661662018039
 20
444.9271688273312
 30
0.0
 10
262.6646669206881
 20
444.9313987348102
 30
0.0
 10
263.3588201775397
 20
444.9248754422233
 30
0.0
 10
264.7529558260458
 20
444.9211819046421
 30
0.0
 10
265.4526517534342
 20
444.9234282372708
 30
0.0
 10
267.5522134970073
 20
444.9292724541081
 30
0.0
 10
268.9515818833228
 20
444.9302905099349
 30
0.0
 10
271.7534069805492
 20
444.931341468841
 30
0.0
 10
273.1560145338287
 20
444.9315036574127
 30
0.0
 10
275.9557407335273
 20
444.9313103942633
 30
0.0
 10
277.3543660720107
 20
444.9310532479763
 30
0.0
 10
284.3500087258194
 20
444.9299672094966
 30
0.0
 10
289.9464247169341
 20
444.9294885215438
 30
0.0
 10
295.5427905943944
 20
444.929134433372
 30
0.0
  0
SPLINE
  5
1B5
330
1F
100
AcDbEntity
  8
0
  6
Continuous
 62
     8
370
    18
100
AcDbSpline
210
0.0
220
0.0
230
1.0
 70
     8
 71
     3
 72
     8
 73
     4
 74
     0
 42
0.000000001
 43
0.00000001
 40
0.0
 40
0.0
 40
0.0
 40
0.0
 40
0.000827418256155
 40
0.000827418256155
 40
0.000827418256155
 40
0.000827418256155
 10
241.1553131696617
 20
434.6279776507925
 30
0.0
 10
241.1554531973563
 20
434.627953241932
 30
0.0
 10
241.1585715619712
 20
434.6274096607547
 30
0.0
 10
241.164668308885
 20
434.6263469092368
 30
0.0
  0
SPLINE
  5
1B6
330
1F
100
AcDbEntity
  8
0
  6
Continuous
 62
     8
370
    18
100
AcDbSpline
210
0.0
220
0.0
230
1.0
 70
     8
 71
     3
 72
    14
 73
    10
 74
     0
 42
0.000000001
 43
0.00000001
 40
0.0
 40
0.0
 40
0.0
 40
0.0
 40
0.25
 40
0.25
 40
0.5
 40
0.5
 40
0.75
 40
0.75
 40
1.0
 40
1.0
 40
1.0
 40
1.0
 10
323.4942077046648
 20
410.5598521780454
 30
0.0
 10
326.6425524276336
 20
410.5600408771131
 30
0.0
 10
329.7880234792377
 20
410.5602303692248
 30
0.0
 10
336.0762204996191
 20
410.5606393828054
 30
0.0
 10
339.222271484047
 20
410.5608588758148
 30
0.0
 10
345.5170933061882
 20
410.5613557890664
 30
0.0
 10
348.6662672149083
 20
410.5616347959209
 30
0.0
 10
354.9748762333543
 20
410.5622160098105
 30
0.0
 10
358.1264325063113
 20
410.5625117107539
 30
0.0
 10
361.2785253140252
 20
410.5628096398906
 30
0.0
  0
SPLINE
  5
1B7
330
1F
100
AcDbEntity
  8
0
  6
Continuous
 62
     8
370
    18
100
AcDbSpline
210
0.0
220
0.0
230
1.0
 70
     8
 71
     3
 72
    12
 73
     8
 74
     0
 42
0.000000001
 43
0.00000001
 40
0.0
 40
0.0
 40
0.0
 40
0.0
 40
0.5000000000000007
 40
0.5000000000000007
 40
0.7500000000000003
 40
0.7500000000000003
 40
1.0
 40
1.0
 40
1.0
 40
1.0
 10
361.2947965768295
 20
409.1655300879924
 30
0.0
 10
354.8798314181687
 20
409.1611242440952
 30
0.0
 10
348.560480328325
 20
409.1618698651907
 30
0.0
 10
339.142376895372
 20
409.1639382659384
 30
0.0
 10
336.0128594063838
 20
409.1650378588865
 30
0.0
 10
329.7596666139413
 20
409.1680020296917
 30
0.0
 10
326.6342013300126
 20
409.1695747723789
 30
0.0
 10
323.5068812910413
 20
409.1706278617691
 30
0.0
  0
SPLINE
  5
1B8
330
1F
100
AcDbEntity
  8
0
  6
Continuous
 62
     8
370
    18
100
AcDbSpline
210
0.0
220
0.0
230
1.0
 70
    24
 71
     3
 72
    10
 73
     6
 74
     0
 42
0.000000001
 43
0.00000001
 40
0.853912469740824
 40
0.853912469740824
 40
0.853912469740824
 40
0.853912469740824
 40
0.8671968002238943
 40
0.9296968002238943
 40
0.9507843304830703
 40
0.9507843304830703
 40
0.9507843304830703
 40
0.9507843304830703
 10
255.1543728309054
 20
410.5534034822761
 30
0.0
 10
255.1543728309014
 20
410.5701139447127
 30
0.0
 10
255.1543728308748
 20
410.6647279214899
 30
0.0
 10
255.1543728308211
 20
410.7810857647115
 30
0.0
 10
255.1543728307575
 20
410.8768359228968
 30
0.0
 10
255.1543728307404
 20
410.9006981275065
 30
0.0
  0
SPLINE
  5
1B9
330
1F
100
AcDbEntity
  8
0
  6
Continuous
 62
     8
370
    18
100
AcDbSpline
210
0.0
220
0.0
230
1.0
 70
     8
 71
     3
 72
    12
 73
     8
 74
     0
 42
0.000000001
 43
0.00000001
 40
0.0
 40
0.0
 40
0.0
 40
0.0
 40
0.5
 40
0.5
 40
0.75
 40
0.75
 40
1.0
 40
1.0
 40
1.0
 40
1.0
 10
295.5412340906479
 20
444.9289613074451
 30
0.0
 10
300.3558535883985
 20
444.9286576756454
 30
0.0
 10
305.1704396283513
 20
444.9285009824851
 30
0.0
 10
312.3923333815836
 20
444.9284722774208
 30
0.0
 10
314.7996318603056
 20
444.9284979671759
 30
0.0
 10
319.6142437306288
 20
444.9286159825953
 30
0.0
 10
322.0243655966922
 20
444.9287020281922
 30
0.0
 10
324.4199372433152
 20
444.9288263863688
 30
0.0
  0
SPLINE
  5
1BA
330
1F
100
AcDbEntity
  8
0
  6
Continuous
 62
     8
370
    18
100
AcDbSpline
210
0.0
220
0.0
230
1.0
 70
     8
 71
     3
 72
    17
 73
    13
 74
     0
 42
0.000000001
 43
0.00000001
 40
0.0
 40
0.0
 40
0.0
 40
0.0
 40
0.0999792947953992
 40
0.2007233215108507
 40
0.3008111158905113
 40
0.4005647241589179
 40
0.5001682449796605
 40
0.5948548428955742
 40
0.6920957785065064
 40
0.7919645288958403
 40
0.8945472835860355
 40
1.0
 40
1.0
 40
1.0
 40
1.0
 10
324.4396298838848
 20
443.7672240124619
 30
0.0
 10
323.4772441696101
 20
443.7675183596816
 30
0.0
 10
321.5451115461589
 20
443.7681093055542
 30
0.0
 10
318.6494340847361
 20
443.7664603985408
 30
0.0
 10
315.7559141951036
 20
443.763489618006
 30
0.0
 10
312.8733444629052
 20
443.7581358809479
 30
0.0
 10
310.0427775122446
 20
443.746977539703
 30
0.0
 10
307.2363604766011
 20
443.740078150289
 30
0.0
 10
304.4274015204106
 20
443.7393222030033
 30
0.0
 10
301.5424551587768
 20
443.7396178741477
 30
0.0
 10
298.578451945738
 20
443.7410532224917
 30
0.0
 10
296.5759508876904
 20
443.744509485804
 30
0.0
 10
295.5608875666512
 20
443.74626145797
 30
0.0
  0
LINE
  5
1BB
330
1F
100
AcDbEntity
  8
0
  6
Continuous
 62
     8
370
    18
100
AcDbLine
 10
296.3753532543
 20
434.1861483616
 30
0.0
 11
297.2034243887
 21
434.6609796556
 31
0.0
  0
SPLINE
  5
1BC
330
1F
100
AcDbEntity
  8
0
  6
Continuous
 62
     8
370
    18
100
AcDbSpline
210
0.0
220
0.0
230
1.0
 70
     8
 71
     3
 72
    18
 73
    14
 74
     0
 42
0.000000001
 43
0.00000001
 40
0.0
 40
0.0
 40
0.0
 40
0.0
 40
0.08762380654653
 40
0.1753490010490205
 40
0.2644599454437463
 40
0.3318639107957883
 40
0.3995095175336691
 40
0.4674177537604692
 40
0.5347775559021762
 40
0.6676350438197368
 40
0.8002152354642434
 40
0.9326763662285096
 40
0.9999999999999999
 40
0.9999999999999999
 40
0.9999999999999999
 40
0.9999999999999999
 10
347.5720941774275
 20
444.9264968565481
 30
0.0
 10
348.3792110181719
 20
444.9232994945323
 30
0.0
 10
349.9943786002745
 20
444.9169010708899
 30
0.0
 10
352.4178266343982
 20
444.9045926116306
 30
0.0
 10
354.597343850966
 20
444.8928273479638
 30
0.0
 10
356.4305861498082
 20
444.8817338282125
 30
0.0
 10
357.8513800809264
 20
444.8731520876009
 30
0.0
 10
358.8684195263135
 20
444.8742654370415
 30
0.0
 10
359.576354912987
 20
444.8956565735254
 30
0.0
 10
359.7228997385664
 20
444.9638883364493
 30
0.0
 10
359.8650833041236
 20
445.0128417792087
 30
0.0
 10
359.9388793568963
 20
445.0333055114048
 30
0.0
 10
359.9496735778514
 20
445.0362387462651
 30
0.0
 10
359.9533110232799
 20
445.0372271901535
 30
0.0
  0
SPLINE
  5
1BD
330
1F
100
AcDbEntity
  8
0
  6
Continuous
 62
     8
370
    18
100
AcDbSpline
210
0.0
220
0.0
230
1.0
 70
     8
 71
     3
 72
    13
 73
     9
 74
     0
 42
0.000000001
 43
0.00000001
 40
0.0
 40
0.0
 40
0.0
 40
0.0
 40
0.2056971635655149
 40
0.4999097349381507
 40
0.6259209157343903
 40
0.7511120165943076
 40
0.8758306052801009
 40
1.0
 40
1.0
 40
1.0
 40
1.0
 10
324.4201044125977
 20
444.9290423827353
 30
0.0
 10
326.0075726751906
 20
444.9292191595511
 30
0.0
 10
329.86562703345
 20
444.9296487836141
 30
0.0
 10
334.696141730566
 20
444.9297662693168
 30
0.0
 10
338.9052856850648
 20
444.930298629019
 30
0.0
 10
341.8063086174757
 20
444.9309683706293
 30
0.0
 10
344.6930480926283
 20
444.93190228823
 30
0.0
 10
346.6138258810362
 20
444.9282745461464
 30
0.0
 10
347.5720955898203
 20
444.9264646775759
 30
0.0
  0
SPLINE
  5
1BE
330
1F
100
AcDbEntity
  8
0
  6
Continuous
 62
     8
370
    18
100
AcDbSpline
210
0.0
220
0.0
230
1.0
 70
     8
 71
     3
 72
    22
 73
    18
 74
     0
 42
0.000000001
 43
0.00000001
 40
0.0
 40
0.0
 40
0.0
 40
0.0
 40
0.1123934349579252
 40
0.2352961004959291
 40
0.2836105589423375
 40
0.3346629932654197
 40
0.370583717117848
 40
0.4063181900595469
 40
0.44158888104194
 40
0.4758810169875673
 40
0.5091855599461235
 40
0.5940084429758667
 40
0.6755587558417492
 40
0.7566532284872433
 40
0.8377683011596787
 40
0.9188826875609245
 40
1.0
 40
1.0
 40
1.0
 40
1.0
 10
393.9840138235037
 20
409.1399416541512
 30
0.0
 10
393.9678476885758
 20
409.1354090690209
 30
0.0
 10
393.9340038211824
 20
409.1259200841285
 30
0.0
 10
393.8237425351809
 20
409.0428970729107
 30
0.0
 10
393.5082504343708
 20
408.9680325844395
 30
0.0
 10
392.9269359827768
 20
408.9504160930932
 30
0.0
 10
391.9010744625727
 20
408.9677976309407
 30
0.0
 10
390.6461896161325
 20
408.998606240227
 30
0.0
 10
389.1664669346182
 20
409.0336293290973
 30
0.0
 10
387.5653808661964
 20
409.0676233256651
 30
0.0
 10
385.0844058390692
 20
409.1105785505187
 30
0.0
 10
381.7310527144944
 20
409.1472465414234
 30
0.0
 10
377.5936913077513
 20
409.1578783052406
 30
0.0
 10
373.5128386423664
 20
409.1621311237229
 30
0.0
 10
369.4407284688093
 20
409.1642476750665
 30
0.0
 10
365.3678180954658
 20
409.1653393652178
 30
0.0
 10
362.6525770776527
 20
409.1655187833136
 30
0.0
 10
361.2949320824775
 20
409.1656084939796
 30
0.0
  0
SPLINE
  5
1BF
330
1F
100
AcDbEntity
  8
0
  6
Continuous
 62
     8
370
    18
100
AcDbSpline
210
0.0
220
0.0
230
1.0
 70
     8
 71
     3
 72
    22
 73
    18
 74
     0
 42
0.000000001
 43
0.00000001
 40
0.0
 40
0.0
 40
0.0
 40
0.0
 40
0.0833246987794184
 40
0.1666419396143775
 40
0.2499780614533357
 40
0.3333319684086459
 40
0.4167210992957038
 40
0.5003038390058206
 40
0.5318303525509682
 40
0.5634986441415898
 40
0.5954901412864216
 40
0.627667500457949
 40
0.6601944979461128
 40
0.6923694366032744
 40
0.7560930939894268
 40
0.8822085159080526
 40
1.0
 40
1.0
 40
1.0
 40
1.0
 10
361.2788273763791
 20
410.5628285580513
 30
0.0
 10
362.6363301559172
 20
410.5630586176026
 30
0.0
 10
365.3512142122399
 20
410.5635187161136
 30
0.0
 10
369.4238589993047
 20
410.56410840951
 30
0.0
 10
373.4965971881753
 20
410.5647757835033
 30
0.0
 10
377.5718448778488
 20
410.5601415829235
 30
0.0
 10
381.6459031218542
 20
410.5533744778472
 30
0.0
 10
384.8906887659464
 20
410.5373300320124
 30
0.0
 10
387.226508293101
 20
410.5271816902783
 30
0.0
 10
388.6843432036461
 20
410.5234407112835
 30
0.0
 10
390.0252437162539
 20
410.5239959006065
 30
0.0
 10
391.1731150546084
 20
410.5295210243077
 30
0.0
 10
392.0101467938009
 20
410.5439158426258
 30
0.0
 10
392.6878367693052
 20
410.5785731973935
 30
0.0
 10
393.0738196573714
 20
410.6758194368077
 30
0.0
 10
393.2311098142164
 20
410.783894496125
 30
0.0
 10
393.2690342526674
 20
410.7945385348921
 30
0.0
 10
393.2873493383761
 20
410.7996789269525
 30
0.0
  0
SPLINE
  5
1C0
330
1F
100
AcDbEntity
  8
0
  6
Continuous
 62
     8
370
    18
100
AcDbSpline
210
0.0
220
0.0
230
1.0
 70
     8
 71
     3
 72
     8
 73
     4
 74
     0
 42
0.000000001
 43
0.00000001
 40
0.0
 40
0.0
 40
0.0
 40
0.0
 40
1.0
 40
1.0
 40
1.0
 40
1.0
 10
347.5894622878619
 20
443.7674568840562
 30
0.0
 10
339.6213310581746
 20
443.7668008636734
 30
0.0
 10
331.9615019250311
 20
443.7674894377581
 30
0.0
 10
324.4394896638531
 20
443.7696374404354
 30
0.0
  0
SPLINE
  5
1C1
330
1F
100
AcDbEntity
  8
0
  6
Continuous
 62
     8
370
    18
100
AcDbSpline
210
0.0
220
0.0
230
1.0
 70
     8
 71
     3
 72
    28
 73
    24
 74
     0
 42
0.000000001
 43
0.00000001
 40
0.0
 40
0.0
 40
0.0
 40
0.0
 40
0.0561194760392788
 40
0.1078394320177701
 40
0.1552475223523715
 40
0.1984020882569889
 40
0.2373421711869576
 40
0.2989165129562495
 40
0.3605937357569216
 40
0.4218311405542716
 40
0.4804127562649523
 40
0.5039785906144717
 40
0.5330386999241351
 40
0.5670765099324419
 40
0.6058531521378636
 40
0.6494865925273939
 40
0.6981590201132536
 40
0.7517274132582653
 40
0.8267725936610147
 40
0.8897480671397441
 40
0.9377899175081338
 40
0.972931148875435
 40
1.0
 40
1.0
 40
1.0
 40
1.0
 10
360.8707901372387
 20
443.8451065808614
 30
0.0
 10
360.8698869664511
 20
443.8448427197379
 30
0.0
 10
360.8681514294926
 20
443.8443356830421
 30
0.0
 10
360.8542604652524
 20
443.8417251238884
 30
0.0
 10
360.8340095123212
 20
443.8377350223287
 30
0.0
 10
360.8082294525305
 20
443.8322421576019
 30
0.0
 10
360.772159504953
 20
443.8237223155771
 30
0.0
 10
360.7202933529148
 20
443.809181277545
 30
0.0
 10
360.6462191580524
 20
443.784876422779
 30
0.0
 10
360.5522665058818
 20
443.7556856701694
 30
0.0
 10
360.3576453833225
 20
443.7209139355587
 30
0.0
 10
360.0822830249626
 20
443.6989008341889
 30
0.0
 10
359.8008021964567
 20
443.69127918276
 30
0.0
 10
359.3586910348083
 20
443.6868619115972
 30
0.0
 10
358.6912717547103
 20
443.686901292007
 30
0.0
 10
357.7635161716679
 20
443.6910757162771
 30
0.0
 10
356.559478139354
 20
443.6992938482969
 30
0.0
 10
354.9322263493212
 20
443.7134635571991
 30
0.0
 10
353.0350209318261
 20
443.7298021641259
 30
0.0
 10
351.142504251661
 20
443.7442543434578
 30
0.0
 10
349.642463415873
 20
443.7555209150406
 30
0.0
 10
348.5082931247973
 20
443.7640396402838
 30
0.0
 10
347.8680464300126
 20
443.7665607895326
 30
0.0
 10
347.5894622878619
 20
443.767657791995
 30
0.0
  0
LWPOLYLINE
  5
1C2
330
1F
100
AcDbEntity
  8
0
  6
Continuous
 62
     8
370
    18
100
AcDbPolyline
 90
        9
 70
   128
 43
0.0
 10
272.5216897851
 20
414.9533909409
 10
272.5195315925
 20
414.9159253205
 10
272.5146853832
 20
414.8801859534
 10
272.5073250071
 20
414.8474549313
 10
272.4977145056
 20
414.8189064267
 10
272.48619864
 20
414.7955645708
 10
272.4731905232
 20
414.7782667148
 10
272.4591568004
 20
414.7676333913
 10
272.4446009086
 20
414.7640460534
  0
SPLINE
  5
1C3
330
1F
100
AcDbEntity
  8
0
  6
Continuous
 62
     8
370
    18
100
AcDbSpline
210
0.0
220
0.0
230
1.0
 70
     8
 71
     3
 72
     9
 73
     5
 74
     0
 42
0.000000001
 43
0.00000001
 40
0.0
 40
0.0
 40
0.0
 40
0.0
 40
0.6668224639985049
 40
1.0
 40
1.0
 40
1.0
 40
1.0
 10
215.5113529830304
 20
367.8752098006212
 30
0.0
 10
215.3961973312094
 20
367.9532557061791
 30
0.0
 10
215.2235042111689
 20
368.0702972123844
 30
0.0
 10
215.2079979316059
 20
368.0850538501694
 30
0.0
 10
215.2028315875886
 20
368.0899704303862
 30
0.0
  0
SPLINE
  5
1C4
330
1F
100
AcDbEntity
  8
0
  6
Continuous
 62
     8
370
    18
100
AcDbSpline
210
0.0
220
0.0
230
1.0
 70
     8
 71
     3
 72
    42
 73
    38
 74
     0
 42
0.000000001
 43
0.00000001
 40
0.0
 40
0.0
 40
0.0
 40
0.0
 40
0.2499999999999981
 40
0.2499999999999981
 40
0.3749999999999969
 40
0.3749999999999969
 40
0.4374999999999962
 40
0.4374999999999962
 40
0.4999999999999956
 40
0.4999999999999956
 40
0.5624999999999949
 40
0.5624999999999949
 40
0.5937499999999947
 40
0.5937499999999947
 40
0.6093749999999949
 40
0.6093749999999949
 40
0.6249999999999951
 40
0.6249999999999951
 40
0.6406249999999953
 40
0.6406249999999953
 40
0.6562499999999956
 40
0.6562499999999956
 40
0.6874999999999959
 40
0.6874999999999959
 40
0.7187499999999962
 40
0.7187499999999962
 40
0.7499999999999964
 40
0.7499999999999964
 40
0.8124999999999973
 40
0.8124999999999973
 40
0.8749999999999982
 40
0.8749999999999982
 40
0.9374999999999991
 40
0.9374999999999991
 40
0.9687499999999996
 40
0.9687499999999996
 40
1.0
 40
1.0
 40
1.0
 40
1.0
 10
233.5477963003013
 20
369.8842887565699
 30
0.0
 10
231.4732015676665
 20
369.8563538738083
 30
0.0
 10
229.3979911206254
 20
369.8332594813919
 30
0.0
 10
226.2838703437569
 20
369.8139434810419
 30
0.0
 10
225.2453354765562
 20
369.8096920458875
 30
0.0
 10
223.6882052149
 20
369.8002937762864
 30
0.0
 10
223.1689618608848
 20
369.796852145223
 30
0.0
 10
222.127760597864
 20
369.7908147265879
 30
0.0
 10
221.6057606740391
 20
369.7881938787775
 30
0.0
 10
220.5574509294007
 20
369.7873848108475
 30
0.0
 10
220.0295915834198
 20
369.7889571802632
 30
0.0
 10
219.2383700930896
 20
369.8021042383595
 30
0.0
 10
218.974543003742
 20
369.808420506203
 30
0.0
 10
218.5805493938796
 20
369.8234896607784
 30
0.0
 10
218.4492260046476
 20
369.8294793073986
 30
0.0
 10
218.1874965200653
 20
369.8439673930771
 30
0.0
 10
218.0575789618975
 20
369.8525000227677
 30
0.0
 10
217.8078775281645
 20
369.8717191533938
 30
0.0
 10
217.6869962880801
 20
369.8823778050568
 30
0.0
 10
217.453824738887
 20
369.9053000649528
 30
0.0
 10
217.3427523862067
 20
369.9175334759684
 30
0.0
 10
217.0347457878484
 20
369.9540618272027
 30
0.0
 10
216.8640225297498
 20
369.9778166766691
 30
0.0
 10
216.56811335598
 20
370.0188616481263
 30
0.0
 10
216.4483600904827
 20
370.0354598399297
 30
0.0
 10
216.2419333377445
 20
370.0611366831056
 30
0.0
 10
216.1549865050174
 20
370.0703272272494
 30
0.0
 10
215.9265457059383
 20
370.0899912265318
 30
0.0
 10
215.8168538656216
 20
370.0927123846638
 30
0.0
 10
215.6437550228742
 20
370.0909780140105
 30
0.0
 10
215.5811290489612
 20
370.0863396196977
 30
0.0
 10
215.4857147004388
 20
370.0769872892484
 30
0.0
 10
215.4533017769746
 20
370.0724762075372
 30
0.0
 10
215.4218571724122
 20
370.0679765858529
 30
0.0
 10
215.4142700618703
 20
370.0667944047898
 30
0.0
 10
215.4040327996817
 20
370.0651960590708
 30
0.0
 10
215.4014838945888
 20
370.0648128935841
 30
0.0
 10
215.401583520254
 20
370.064925392816
 30
0.0
  0
SPLINE
  5
1C5
330
1F
100
AcDbEntity
  8
0
  6
Continuous
 62
     8
370
    18
100
AcDbSpline
210
0.0
220
0.0
230
1.0
 70
     8
 71
     3
 72
    27
 73
    23
 74
     0
 42
0.000000001
 43
0.00000001
 40
0.0
 40
0.0
 40
0.0
 40
0.0
 40
0.0654429097268387
 40
0.1252506749646984
 40
0.1814680241740704
 40
0.2347873861750615
 40
0.2943106783250661
 40
0.3622769131230553
 40
0.4005421519357595
 40
0.457842401392136
 40
0.5212407534846664
 40
0.553397932442535
 40
0.6236221859502006
 40
0.6811134808967712
 40
0.7455169651067883
 40
0.8088090258200393
 40
0.8488832090776228
 40
0.8897543174898125
 40
0.9364714828591572
 40
0.9570564461076735
 40
0.9790035864434339
 40
1.0
 40
1.0
 40
1.0
 40
1.0
 10
233.5534840638166
 20
368.614371181506
 30
0.0
 10
233.1002342006334
 20
368.5978742484209
 30
0.0
 10
232.2327628194201
 20
368.5663008967408
 30
0.0
 10
230.9765076304235
 20
368.5075727368965
 30
0.0
 10
229.8048566002008
 20
368.4413246172148
 30
0.0
 10
228.6361065790974
 20
368.3625842318527
 30
0.0
 10
227.3876038036291
 20
368.2626160667368
 30
0.0
 10
226.244965977971
 20
368.1563288407369
 30
0.0
 10
225.1184574758988
 20
368.0497183902486
 30
0.0
 10
224.023723221928
 20
367.9472872459768
 30
0.0
 10
222.9706694655716
 20
367.8558749161633
 30
0.0
 10
221.8303660852353
 20
367.7523863497398
 30
0.0
 10
220.7338149105416
 20
367.6403024687507
 30
0.0
 10
219.434507223401
 20
367.4833480493768
 30
0.0
 10
218.2222578590842
 20
367.3422334664526
 30
0.0
 10
217.2408342521839
 20
367.3416119242704
 30
0.0
 10
216.5667371320015
 20
367.4505782151091
 30
0.0
 10
216.1124456753469
 20
367.5857895990026
 30
0.0
 10
215.8496782826747
 20
367.6972026759914
 30
0.0
 10
215.6870220177589
 20
367.7767908335495
 30
0.0
 10
215.5892388429065
 20
367.8294934797825
 30
0.0
 10
215.5371468665403
 20
367.8600206318697
 30
0.0
 10
215.5116775101497
 20
367.8749462878023
 30
0.0
  0
LINE
  5
1C6
330
1F
100
AcDbEntity
  8
0
  6
Continuous
 62
     8
370
    18
100
AcDbLine
 10
227.8120752813
 20
362.6978438432
 30
0.0
 11
226.0963559514
 21
363.3336711254
 31
0.0
  0
SPLINE
  5
1C7
330
1F
100
AcDbEntity
  8
0
  6
Continuous
 62
     8
370
    18
100
AcDbSpline
210
0.0
220
0.0
230
1.0
 70
     8
 71
     3
 72
    12
 73
     8
 74
     0
 42
0.000000001
 43
0.00000001
 40
0.0
 40
0.0
 40
0.0
 40
0.0
 40
0.5000000000000007
 40
0.5000000000000007
 40
0.7500000000000003
 40
0.7500000000000003
 40
1.0
 40
1.0
 40
1.0
 40
1.0
 10
232.2760207796508
 20
372.9964938726187
 30
0.0
 10
232.2760207796508
 20
372.9964938726187
 30
0.0
 10
232.3379543330387
 20
372.8858736231826
 30
0.0
 10
232.5168764210093
 20
372.5596900116897
 30
0.0
 10
232.5911922660096
 20
372.42344875634
 30
0.0
 10
232.766630285099
 20
372.0979384360701
 30
0.0
 10
232.8672181767113
 20
371.9096142605114
 30
0.0
 10
232.9791122495236
 20
371.6968049923913
 30
0.0
  0
LINE
  5
1C8
330
1F
100
AcDbEntity
  8
0
  6
Continuous
 62
     8
370
    18
100
AcDbLine
 10
290.0063355358
 20
420.9826274204
 30
0.0
 11
290.0063355358
 21
428.0036404931
 31
0.0
  0
SPLINE
  5
1C9
330
1F
100
AcDbEntity
  8
0
  6
Continuous
 62
     7
370
    25
100
AcDbSpline
210
0.0
220
0.0
230
1.0
 70
     8
 71
     3
 72
    10
 73
     6
 74
     0
 42
0.000000001
 43
0.00000001
 40
0.0
 40
0.0
 40
0.0
 40
0.0
 40
0.2599604073003113
 40
0.8637780491643936
 40
0.9999999999999999
 40
0.9999999999999999
 40
0.9999999999999999
 40
0.9999999999999999
 10
96.96485808545647
 20
233.0844148575939
 30
0.0
 10
96.9651661185896
 20
232.9680514212753
 30
0.0
 10
96.96618962929097
 20
232.5814072277956
 30
0.0
 10
96.96876524445236
 20
231.8685527599777
 30
0.0
 10
96.97216105070046
 20
231.2528046147469
 30
0.0
 10
96.97278612989398
 20
231.139461471496
 30
0.0
  0
LINE
  5
1CA
330
1F
100
AcDbEntity
  8
0
  6
Continuous
 62
     7
370
    25
100
AcDbLine
 10
97.0204501646
 20
222.6190581734
 30
0.0
 11
97.0267873261
 21
221.4770332513
 31
0.0
  0
SPLINE
  5
1CB
330
1F
100
AcDbEntity
  8
0
  6
Continuous
 62
     7
370
    25
100
AcDbSpline
210
0.0
220
0.0
230
1.0
 70
     8
 71
     3
 72
    12
 73
     8
 74
     0
 42
0.000000001
 43
0.00000001
 40
0.0
 40
0.0
 40
0.0
 40
0.0
 40
0.100956711299294
 40
0.433980578904608
 40
0.7145532145330337
 40
0.953968443020397
 40
1.0
 40
1.0
 40
1.0
 40
1.0
 10
96.92765345000184
 20
242.0419082797422
 30
0.0
 10
96.92781129023848
 20
241.936291038502
 30
0.0
 10
96.9284897948806
 20
241.4822763335278
 30
0.0
 10
96.92812352696691
 20
240.4879196257423
 30
0.0
 10
96.93267863960796
 20
238.9843935762855
 30
0.0
 10
96.94155818312117
 20
237.8253972652019
 30
0.0
 10
96.94749352264925
 20
237.4070491452384
 30
0.0
 10
96.94845066399253
 20
237.3395857289316
 30
0.0
  0
LINE
  5
1CC
330
1F
100
AcDbEntity
  8
0
  6
Continuous
 62
     7
370
    25
100
AcDbLine
 10
96.9472868482
 20
237.7120124915
 30
0.0
 11
96.947414562
 21
237.6929327546
 31
0.0
  0
LINE
  5
1CD
330
1F
100
AcDbEntity
  8
0
  6
Continuous
 62
     7
370
    25
100
AcDbLine
 10
144.8772238521
 20
237.6783158687
 30
0.0
 11
144.8773431233
 21
237.6952976061
 31
0.0
  0
SPLINE
  5
1CE
330
1F
100
AcDbEntity
  8
0
  6
Continuous
 62
     7
370
    25
100
AcDbSpline
210
0.0
220
0.0
230
1.0
 70
     8
 71
     3
 72
    12
 73
     8
 74
     0
 42
0.000000001
 43
0.00000001
 40
0.0
 40
0.0
 40
0.0
 40
0.0
 40
0.0384233319401999
 40
0.2797517896180326
 40
0.5625665539528131
 40
0.8982517016640346
 40
1.0
 40
1.0
 40
1.0
 40
1.0
 10
144.8767614111988
 20
237.3751193859394
 30
0.0
 10
144.8775524977841
 20
237.431159306361
 30
0.0
 10
144.8833122244088
 20
237.8391735840503
 30
0.0
 10
144.8920359227306
 20
238.9855825353718
 30
0.0
 10
144.8966051729148
 20
240.4874965704698
 30
0.0
 10
144.8962349406961
 20
241.4822861406088
 30
0.0
 10
144.8969136158767
 20
241.9362633625713
 30
0.0
 10
144.8970714777077
 20
242.0418597915489
 30
0.0
  0
LINE
  5
1CF
330
1F
100
AcDbEntity
  8
0
  6
Continuous
 62
     7
370
    25
100
AcDbLine
 10
144.7979376649
 20
221.4770332513
 30
0.0
 11
144.8046334891
 21
222.683693048
 31
0.0
  0
SPLINE
  5
1D0
330
1F
100
AcDbEntity
  8
0
  6
Continuous
 62
     7
370
    25
100
AcDbSpline
210
0.0
220
0.0
230
1.0
 70
     8
 71
     3
 72
    10
 73
     6
 74
     0
 42
0.000000001
 43
0.00000001
 40
0.0
 40
0.0
 40
0.0
 40
0.0
 40
0.1302953741273716
 40
0.7317739518111028
 40
1.0
 40
1.0
 40
1.0
 40
1.0
 10
144.8520114631122
 20
231.1528713431319
 30
0.0
 10
144.8526108225541
 20
231.261570159755
 30
0.0
 10
144.8559769867811
 20
231.8720520216802
 30
0.0
 10
144.8585976455623
 20
232.6000216718415
 30
0.0
 10
144.8595450667168
 20
232.9654273436462
 30
0.0
 10
144.8598372613593
 20
233.0781222936537
 30
0.0
  0
SPLINE
  5
1D1
330
1F
100
AcDbEntity
  8
0
  6
Continuous
 62
     7
370
    25
100
AcDbSpline
210
0.0
220
0.0
230
1.0
 70
     8
 71
     3
 72
    13
 73
     9
 74
     0
 42
0.000000001
 43
0.00000001
 40
0.0
 40
0.0
 40
0.0
 40
0.0
 40
0.2271064373799735
 40
0.4230129107509382
 40
0.5877470869640865
 40
0.7248976465816579
 40
0.8863908444004875
 40
1.0
 40
1.0
 40
1.0
 40
1.0
 10
144.1066966902955
 20
183.8018608718977
 30
0.0
 10
144.1405086930789
 20
185.5781419809375
 30
0.0
 10
144.2034875935483
 20
188.8866780617077
 30
0.0
 10
144.2882995695863
 20
193.4837110479349
 30
0.0
 10
144.3585880018721
 20
197.3771831738835
 30
0.0
 10
144.4213749791202
 20
201.0015514435641
 30
0.0
 10
144.4801542067698
 20
204.2259414443375
 30
0.0
 10
144.5178455545439
 20
206.3774422269667
 30
0.0
 10
144.5334109691644
 20
207.2659485743278
 30
0.0
  0
SPLINE
  5
1D2
330
1F
100
AcDbEntity
  8
0
  6
Continuous
 62
     7
370
    25
100
AcDbSpline
210
0.0
220
0.0
230
1.0
 70
     8
 71
     3
 72
    14
 73
    10
 74
     0
 42
0.000000001
 43
0.00000001
 40
0.0
 40
0.0
 40
0.0
 40
0.0
 40
0.0447041338856081
 40
0.1867715974379091
 40
0.3038166138149235
 40
0.4088608318557597
 40
0.5735021039525539
 40
0.7705405093503128
 40
1.0
 40
1.0
 40
1.0
 40
1.0
 10
97.28530655219245
 20
207.6008797285982
 30
0.0
 10
97.29143120393779
 20
207.2462744498532
 30
0.0
 10
97.31701968739124
 20
205.764751632733
 30
0.0
 10
97.36072217423941
 20
203.3546540520295
 30
0.0
 10
97.41258405551243
 20
200.465771531085
 30
0.0
 10
97.46582828275479
 20
197.3977329389383
 30
0.0
 10
97.53255638349708
 20
193.6951423522799
 30
0.0
 10
97.61898787900599
 20
189.0055761637033
 30
0.0
 10
97.68338311621599
 20
185.6221648802967
 30
0.0
 10
97.71802830079349
 20
183.8018608718977
 30
0.0
  0
LWPOLYLINE
  5
1D3
330
1F
100
AcDbEntity
  8
0
  6
Continuous
 62
     7
370
    25
100
AcDbPolyline
 90
        3
 70
   128
 43
0.0
 10
97.7160427622
 20
183.8012678377
 10
97.9501078713
 20
170.7156128554
 10
98.2319565655
 20
154.9225787119
  0
SPLINE
  5
1D4
330
1F
100
AcDbEntity
  8
0
  6
Continuous
 62
     7
370
    25
100
AcDbSpline
210
0.0
220
0.0
230
1.0
 70
     8
 71
     3
 72
     9
 73
     5
 74
     0
 42
0.000000001
 43
0.00000001
 40
0.0
 40
0.0
 40
0.0
 40
0.0
 40
0.4518496086686845
 40
0.9999999999999999
 40
0.9999999999999999
 40
0.9999999999999999
 40
0.9999999999999999
 10
143.5927684255921
 20
154.922578711885
 30
0.0
 10
143.6718427702165
 20
159.2721623738329
 30
0.0
 10
143.8468442377568
 20
168.8983379386703
 30
0.0
 10
144.0159737956051
 20
178.5246184231227
 30
0.0
 10
144.1086822289254
 20
183.8012678377402
 30
0.0
  0
LINE
  5
1D5
330
1F
100
AcDbEntity
  8
0
  6
Continuous
 62
     7
370
    25
100
AcDbLine
 10
97.1254872822
 20
217.3957549019
 30
0.0
 11
97.1304497793
 21
217.1100453744
 31
0.0
  0
SPLINE
  5
1D6
330
1F
100
AcDbEntity
  8
0
  6
Continuous
 62
     7
370
    25
100
AcDbSpline
210
0.0
220
0.0
230
1.0
 70
     8
 71
     3
 72
    10
 73
     6
 74
     0
 42
0.000000001
 43
0.00000001
 40
0.0
 40
0.0
 40
0.0
 40
0.0
 40
0.2270070219493676
 40
0.6414501945323589
 40
1.0
 40
1.0
 40
1.0
 40
1.0
 10
96.97496334819425
 20
225.57018179589
 30
0.0
 10
96.97540843134652
 20
225.5145092940386
 30
0.0
 10
96.97666609585468
 20
225.3571963755395
 30
0.0
 10
96.98064371624065
 20
225.0019623454666
 30
0.0
 10
96.98778391363616
 20
224.5112781148038
 30
0.0
 10
96.99109586660322
 20
224.2836761307678
 30
0.0
  0
SPLINE
  5
1D7
330
1F
100
AcDbEntity
  8
0
  6
Continuous
 62
     7
370
    25
100
AcDbSpline
210
0.0
220
0.0
230
1.0
 70
     8
 71
     3
 72
    13
 73
     9
 74
     0
 42
0.000000001
 43
0.00000001
 40
0.0
 40
0.0
 40
0.0
 40
0.0
 40
0.1120254100234864
 40
0.2415085190461947
 40
0.4087212861215992
 40
0.6163554224699054
 40
0.8657940945969764
 40
1.0
 40
1.0
 40
1.0
 40
1.0
 10
144.8336287296913
 20
224.2836484065766
 30
0.0
 10
144.8369581011395
 20
224.5121891623556
 30
0.0
 10
144.8441356831508
 20
225.0048857698334
 30
0.0
 10
144.8489948404313
 20
225.451087957162
 30
0.0
 10
144.8524745008773
 20
225.8627048246194
 30
0.0
 10
144.8534243407511
 20
226.1982887765114
 30
0.0
 10
144.8528027527987
 20
226.4409258501983
 30
0.0
 10
144.8510203067568
 20
226.5292739708306
 30
0.0
 10
144.8503967744592
 20
226.5601797628437
 30
0.0
  0
LINE
  5
1D8
330
1F
100
AcDbEntity
  8
0
  6
Continuous
 62
     7
370
    25
100
AcDbLine
 10
144.6942752118
 20
217.1100453744
 30
0.0
 11
144.6992377089
 21
217.3957549019
 31
0.0
  0
SPLINE
  5
1D9
330
1F
100
AcDbEntity
  8
0
  6
Continuous
 62
     7
370
    25
100
AcDbSpline
210
0.0
220
0.0
230
1.0
 70
     8
 71
     3
 72
     9
 73
     5
 74
     0
 42
0.000000001
 43
0.00000001
 40
0.0
 40
0.0
 40
0.0
 40
0.0
 40
0.0449508875208606
 40
1.0
 40
1.0
 40
1.0
 40
1.0
 10
122.310875190248
 20
118.4968057234032
 30
0.0
 10
122.3246601714096
 20
118.4965635512127
 30
0.0
 10
122.6313277795912
 20
118.4911760671412
 30
0.0
 10
122.9379715597657
 20
118.4964175268062
 30
0.0
 10
123.2308314298685
 20
118.5014233782073
 30
0.0
  0
SPLINE
  5
1DA
330
1F
100
AcDbEntity
  8
0
  6
Continuous
 62
     7
370
    25
100
AcDbSpline
210
0.0
220
0.0
230
1.0
 70
     8
 71
     3
 72
     9
 73
     5
 74
     0
 42
0.000000001
 43
0.00000001
 40
0.0
 40
0.0
 40
0.0
 40
0.0
 40
0.9550491124791373
 40
1.0
 40
1.0
 40
1.0
 40
1.0
 10
118.5938935612205
 20
118.5014233782073
 30
0.0
 10
118.8867534313234
 20
118.4964175268062
 30
0.0
 10
119.1933972114978
 20
118.4911760671412
 30
0.0
 10
119.5000648196794
 20
118.4965635512127
 30
0.0
 10
119.5138498008411
 20
118.4968057234032
 30
0.0
  0
SPLINE
  5
1DB
330
1F
100
AcDbEntity
  8
0
  6
Continuous
 62
     7
370
    25
100
AcDbSpline
210
0.0
220
0.0
230
1.0
 70
     8
 71
     3
 72
     9
 73
     5
 74
     0
 42
0.000000001
 43
0.00000001
 40
0.0
 40
0.0
 40
0.0
 40
0.0
 40
0.4551746566422605
 40
1.0
 40
1.0
 40
1.0
 40
1.0
 10
96.98186125353448
 20
224.9265440200825
 30
0.0
 10
97.00330108441732
 20
223.6755567962598
 30
0.0
 10
97.05040351107924
 20
220.9271893167278
 30
0.0
 10
97.09804305872478
 20
218.6412095915534
 30
0.0
 10
97.12399829162817
 20
217.3957499028764
 30
0.0
  0
SPLINE
  5
1DC
330
1F
100
AcDbEntity
  8
0
  6
Continuous
 62
     7
370
    25
100
AcDbSpline
210
0.0
220
0.0
230
1.0
 70
     8
 71
     3
 72
     9
 73
     5
 74
     0
 42
0.000000001
 43
0.00000001
 40
0.0
 40
0.0
 40
0.0
 40
0.0
 40
0.4080482366936305
 40
1.0
 40
1.0
 40
1.0
 40
1.0
 10
144.7006759815756
 20
217.3957511204459
 30
0.0
 10
144.7193810881876
 20
218.3242330230522
 30
0.0
 10
144.7652215181415
 20
220.5996549440723
 30
0.0
 10
144.8139932342215
 20
223.3176324454908
 30
0.0
 10
144.8428637375545
 20
224.9265440200825
 30
0.0
  0
SPLINE
  5
1DD
330
1F
100
AcDbEntity
  8
0
  6
Continuous
 62
     7
370
    25
100
AcDbSpline
210
0.0
220
0.0
230
1.0
 70
     8
 71
     3
 72
    24
 73
    20
 74
     0
 42
0.000000001
 43
0.00000001
 40
0.0
 40
0.0
 40
0.0
 40
0.0
 40
0.1091754435216776
 40
0.2056417946189247
 40
0.2894112563979095
 40
0.3605705055256969
 40
0.4222804126251716
 40
0.4753816790217157
 40
0.5268772307200367
 40
0.5697844502885808
 40
0.6110651515135512
 40
0.6478165275264398
 40
0.6781424153496893
 40
0.703894387806381
 40
0.7416830163715069
 40
0.7901515918095152
 40
0.8499074012388728
 40
0.9217869722852774
 40
1.0
 40
1.0
 40
1.0
 40
1.0
 10
98.06353505280035
 20
118.067221647348
 30
0.0
 10
98.08983926623999
 20
116.217322199977
 30
0.0
 10
98.13938562468178
 20
112.7328697448204
 30
0.0
 10
98.21390248819394
 20
107.8291031310427
 30
0.0
 10
98.27772273440112
 20
103.5693835267718
 30
0.0
 10
98.34020515790674
 20
99.89896371460898
 30
0.0
 10
98.3936472672392
 20
96.7473832334821
 30
0.0
 10
98.64001082613935
 20
93.93598810154897
 30
0.0
 10
99.2128665521245
 20
91.48713356168196
 30
0.0
 10
100.2148514215442
 20
89.39554810469404
 30
0.0
 10
101.5457954130522
 20
87.8046563201327
 30
0.0
 10
103.0682108033376
 20
86.7425212333603
 30
0.0
 10
104.5332891433735
 20
86.14724360230367
 30
0.0
 10
106.080315059902
 20
85.76451816328475
 30
0.0
 10
107.9673923573131
 20
85.53011924355576
 30
0.0
 10
110.4386404463281
 20
85.41469695005964
 30
0.0
 10
113.4884780547388
 20
85.31222934185757
 30
0.0
 10
117.0437480372492
 20
85.23509706670464
 30
0.0
 10
119.5872337452703
 20
85.22756420901
 30
0.0
 10
120.9126403263773
 20
85.22363884818274
 30
0.0
  0
SPLINE
  5
1DE
330
1F
100
AcDbEntity
  8
0
  6
Continuous
 62
     7
370
    25
100
AcDbSpline
210
0.0
220
0.0
230
1.0
 70
     8
 71
     3
 72
    24
 73
    20
 74
     0
 42
0.000000001
 43
0.00000001
 40
0.0
 40
0.0
 40
0.0
 40
0.0
 40
0.0782013073700899
 40
0.1500810920141753
 40
0.2098370790141839
 40
0.2583057984816457
 40
0.2960945393396432
 40
0.321846588321021
 40
0.352172566260826
 40
0.3889240514842806
 40
0.4302048753791827
 40
0.4731122224510273
 40
0.5222514276077236
 40
0.5727107641312953
 40
0.6302717039600341
 40
0.6996577118313576
 40
0.7858320944305177
 40
0.8859424873567413
 40
1.0
 40
1.0
 40
1.0
 40
1.0
 10
120.9126922963541
 20
85.22364262461377
 30
0.0
 10
122.237896320769
 20
85.22756767532667
 30
0.0
 10
124.7811794679999
 20
85.23510048925289
 30
0.0
 10
128.3362469414859
 20
85.31222954666153
 30
0.0
 10
131.3860845234369
 20
85.41469691245403
 30
0.0
 10
133.8573326927072
 20
85.53011924307766
 30
0.0
 10
135.7444097851736
 20
85.76451818208545
 30
0.0
 10
137.2914362318039
 20
86.14724355008131
 30
0.0
 10
138.7565122838544
 20
86.74252149366536
 30
0.0
 10
140.2789387988538
 20
87.80465505894301
 30
0.0
 10
141.6098340295517
 20
89.3955535129748
 30
0.0
 10
142.5946192206779
 20
91.45078552786177
 30
0.0
 10
143.15963986387
 20
93.81255228932832
 30
0.0
 10
143.4163925470395
 20
96.4673657753587
 30
0.0
 10
143.4794113028156
 20
99.47378676014057
 30
0.0
 10
143.5389193698979
 20
103.0845680620939
 30
0.0
 10
143.6046741862821
 20
107.4167362864175
 30
0.0
 10
143.6820160722132
 20
112.5056935892714
 30
0.0
 10
143.7336772176709
 20
116.1346045445837
 30
0.0
 10
143.7611899382887
 20
118.067221647348
 30
0.0
  0
SPLINE
  5
1DF
330
1F
100
AcDbEntity
  8
0
  6
Continuous
 62
     7
370
    25
100
AcDbSpline
210
0.0
220
0.0
230
1.0
 70
     8
 71
     3
 72
    21
 73
    17
 74
     0
 42
0.000000001
 43
0.00000001
 40
0.0
 40
0.0
 40
0.0
 40
0.0
 40
0.1156703268704668
 40
0.2057563097391726
 40
0.2740139828597561
 40
0.3257598848200952
 40
0.353917139588222
 40
0.3825704161508685
 40
0.4327947391101249
 40
0.4852208469665562
 40
0.5611893583297863
 40
0.6119294033060443
 40
0.6587207248954731
 40
0.7387582310474957
 40
0.8526349423246498
 40
0.9999999999999999
 40
0.9999999999999999
 40
0.9999999999999999
 40
0.9999999999999999
 10
121.0610388204815
 20
264.4844259245813
 30
0.0
 10
120.006290784115
 20
264.4766061684258
 30
0.0
 10
118.1300873571943
 20
264.4626962555454
 30
0.0
 10
115.6344134979464
 20
264.3036482820885
 30
0.0
 10
113.743040128034
 20
263.9940193330973
 30
0.0
 10
112.4724609106629
 20
263.5005256875535
 30
0.0
 10
111.6719346100715
 20
262.9125626700126
 30
0.0
 10
111.022669271103
 20
262.1758912064556
 30
0.0
 10
110.5239653616694
 20
261.0607112209829
 30
0.0
 10
110.2608896479447
 20
259.4473043712266
 30
0.0
 10
110.1694105881881
 20
257.815941670419
 30
0.0
 10
110.1165757620033
 20
256.2345459804757
 30
0.0
 10
110.0694081004915
 20
254.6179748772484
 30
0.0
 10
110.0127620918904
 20
252.4264225049357
 30
0.0
 10
109.965830018398
 20
249.3172692953581
 30
0.0
 10
109.9512518220043
 20
246.9353318626287
 30
0.0
 10
109.9430283408934
 20
245.5916939422429
 30
0.0
  0
SPLINE
  5
1E0
330
1F
100
AcDbEntity
  8
0
  6
Continuous
 62
     7
370
    25
100
AcDbSpline
210
0.0
220
0.0
230
1.0
 70
     8
 71
     3
 72
    23
 73
    19
 74
     0
 42
0.000000001
 43
0.00000001
 40
0.0
 40
0.0
 40
0.0
 40
0.0
 40
0.1473496295314409
 40
0.2612144037464632
 40
0.3412434991600689
 40
0.388029880706453
 40
0.4387645454911419
 40
0.5147250074821194
 40
0.5671456920529877
 40
0.6173648846559622
 40
0.6460151105933747
 40
0.6741692912018069
 40
0.7199807586189063
 40
0.7421511439794946
 40
0.7703692995546222
 40
0.8105911999398486
 40
0.8922115947843299
 40
1.0
 40
1.0
 40
1.0
 40
1.0
 10
131.8816965761957
 20
245.5917114599495
 30
0.0
 10
131.8734730711781
 20
246.9353484651022
 30
0.0
 10
131.8588948332366
 20
249.3172841392447
 30
0.0
 10
131.8119626546622
 20
252.4264347350178
 30
0.0
 10
131.7553165740541
 20
254.6179849257491
 30
0.0
 10
131.7081490943266
 20
256.234553397641
 30
0.0
 10
131.6553136154249
 20
257.8159470965825
 30
0.0
 10
131.5638378205813
 20
259.4473029078843
 30
0.0
 10
131.3007524415291
 20
261.0607233100471
 30
0.0
 10
130.8020740000273
 20
262.1758650363484
 30
0.0
 10
130.1527494651219
 20
262.9126209307424
 30
0.0
 10
129.3961771606493
 20
263.4681396518575
 30
0.0
 10
128.5791236287068
 20
263.804869784529
 30
0.0
 10
127.7342053992844
 20
264.0278872748958
 30
0.0
 10
126.9237952239774
 20
264.1822692658055
 30
0.0
 10
125.5661022232568
 20
264.3469689077444
 30
0.0
 10
123.473921121834
 20
264.4655974448751
 30
0.0
 10
121.7466426642198
 20
264.4775971530985
 30
0.0
 10
120.7636862743874
 20
264.4844259245813
 30
0.0
  0
LINE
  5
1E1
330
1F
100
AcDbEntity
  8
0
  6
Continuous
 62
     7
370
    25
100
AcDbLine
 10
96.9640562931
 20
233.3532619168
 30
0.0
 11
96.9637764414
 21
233.4247476136
 31
0.0
  0
LINE
  5
1E2
330
1F
100
AcDbEntity
  8
0
  6
Continuous
 62
     7
370
    25
100
AcDbLine
 10
96.9628022031
 20
233.6736084246
 30
0.0
 11
96.9472575101
 21
237.6443666281
 31
0.0
  0
LINE
  5
1E3
330
1F
100
AcDbEntity
  8
0
  6
Continuous
 62
     7
370
    25
100
AcDbLine
 10
96.9299795406
 20
241.8804394824
 30
0.0
 11
96.9293194853
 21
242.0419071416
 31
0.0
  0
LINE
  5
1E4
330
1F
100
AcDbEntity
  8
0
  6
Continuous
 62
     7
370
    25
100
AcDbLine
 10
96.9283021809
 20
242.2907677802
 30
0.0
 11
96.9279407015
 21
242.379195584
 31
0.0
  0
LINE
  5
1E5
330
1F
100
AcDbEntity
  8
0
  6
Continuous
 62
     7
370
    25
100
AcDbLine
 10
96.9642970385
 20
233.2709540856
 30
0.0
 11
96.9640563048
 21
233.3532575177
 31
0.0
  0
LINE
  5
1E6
330
1F
100
AcDbEntity
  8
0
  6
Continuous
 62
     7
370
    25
100
AcDbLine
 10
97.5751757751
 20
155.8550273354
 30
0.0
 11
97.0332414937
 21
221.4770865399
 31
0.0
  0
LINE
  5
1E7
330
1F
100
AcDbEntity
  8
0
  6
Continuous
 62
     7
370
    25
100
AcDbLine
 10
144.249549216
 20
155.8550273354
 30
0.0
 11
144.7914834974
 21
221.4770865399
 31
0.0
  0
LINE
  5
1E8
330
1F
100
AcDbEntity
  8
0
  6
Continuous
 62
     7
370
    25
100
AcDbLine
 10
144.8604279525
 20
233.2709540856
 30
0.0
 11
144.8606686863
 21
233.3532575177
 31
0.0
  0
LINE
  5
1E9
330
1F
100
AcDbEntity
  8
0
  6
Continuous
 62
     7
370
    25
100
AcDbLine
 10
144.860668698
 20
233.3532619168
 30
0.0
 11
144.8610467547
 21
233.4477450661
 31
0.0
  0
LINE
  5
1EA
330
1F
100
AcDbEntity
  8
0
  6
Continuous
 62
     7
370
    25
100
AcDbLine
 10
144.8620425246
 20
233.6966057918
 30
0.0
 11
144.8778373564
 21
237.6440173819
 31
0.0
  0
LINE
  5
1EB
330
1F
100
AcDbEntity
  8
0
  6
Continuous
 62
     7
370
    25
100
AcDbLine
 10
144.8947884467
 20
241.880398685
 30
0.0
 11
144.8954344992
 21
242.0418587742
 31
0.0
  0
LINE
  5
1EC
330
1F
100
AcDbEntity
  8
0
  6
Continuous
 62
     7
370
    25
100
AcDbLine
 10
144.896430269
 20
242.2907194999
 30
0.0
 11
144.8967842896
 21
242.379195584
 31
0.0
  0
SPLINE
  5
1ED
330
1F
100
AcDbEntity
  8
0
  6
Continuous
 62
     7
370
    25
100
AcDbSpline
210
0.0
220
0.0
230
1.0
 70
     8
 71
     3
 72
    35
 73
    31
 74
     0
 42
0.000000001
 43
0.00000001
 40
0.0
 40
0.0
 40
0.0
 40
0.0
 40
0.1249999999999937
 40
0.1249999999999937
 40
0.1562499999999931
 40
0.1562499999999931
 40
0.1874999999999925
 40
0.2499999999999926
 40
0.2499999999999926
 40
0.3124999999999926
 40
0.3124999999999926
 40
0.3437499999999926
 40
0.3437499999999926
 40
0.3749999999999927
 40
0.3749999999999927
 40
0.4374999999999933
 40
0.4374999999999933
 40
0.4687499999999934
 40
0.4687499999999934
 40
0.4999999999999938
 40
0.4999999999999938
 40
0.5312499999999941
 40
0.5312499999999941
 40
0.5624999999999943
 40
0.5624999999999943
 40
0.6249999999999951
 40
0.6249999999999951
 40
0.7499999999999967
 40
0.7499999999999967
 40
1.0
 40
1.0
 40
1.0
 40
1.0
 10
143.1168082858855
 20
131.7724687356003
 30
0.0
 10
143.0900433429579
 20
130.55904419852
 30
0.0
 10
143.0455322051278
 20
129.3051874604681
 30
0.0
 10
142.8353194315736
 20
127.730351005335
 30
0.0
 10
142.7855162055876
 20
127.4157932360124
 30
0.0
 10
142.6673167378666
 20
126.7828582039065
 30
0.0
 10
142.4620905175715
 20
125.8269115312763
 30
0.0
 10
142.1557548125041
 20
124.8702106318612
 30
0.0
 10
141.6266260128273
 20
123.6275001583949
 30
0.0
 10
141.3007271703875
 20
123.021593983522
 30
0.0
 10
140.7017488628802
 20
122.1661370126436
 30
0.0
 10
140.4844695012429
 20
121.8905213723755
 30
0.0
 10
140.0160295188847
 20
121.3668970674504
 30
0.0
 10
139.7660663754781
 20
121.1193758830592
 30
0.0
 10
138.9592809166584
 20
120.4277317063952
 30
0.0
 10
138.3356832346549
 20
120.029892187058
 30
0.0
 10
137.369043947967
 20
119.5860137229071
 30
0.0
 10
137.0420765277757
 20
119.4636912296537
 30
0.0
 10
136.3836856525314
 20
119.2545665336004
 30
0.0
 10
136.0523995675054
 20
119.1688924777685
 30
0.0
 10
135.3917877761825
 20
119.0277966825385
 30
0.0
 10
135.0622815061727
 20
118.972550831872
 30
0.0
 10
134.4131273705714
 20
118.8836391382915
 30
0.0
 10
134.0927462082955
 20
118.8499759151596
 30
0.0
 10
133.1416127823036
 20
118.769210998135
 30
0.0
 10
132.5210700844715
 20
118.7395274491012
 30
0.0
 10
130.6740221640606
 20
118.653593289748
 30
0.0
 10
129.4634802110451
 20
118.6180656489699
 30
0.0
 10
125.7969252326283
 20
118.5192462342387
 30
0.0
 10
123.351545812297
 20
118.4939525134015
 30
0.0
 10
120.9123706976141
 20
118.4890837656156
 30
0.0
  0
SPLINE
  5
1EE
330
1F
100
AcDbEntity
  8
0
  6
Continuous
 62
     7
370
    25
100
AcDbSpline
210
0.0
220
0.0
230
1.0
 70
     8
 71
     3
 72
    28
 73
    24
 74
     0
 42
0.000000001
 43
0.00000001
 40
0.0
 40
0.0
 40
0.0
 40
0.0
 40
0.0561194760392788
 40
0.1078394320177701
 40
0.1552475223523715
 40
0.1984020882569889
 40
0.2373421711869576
 40
0.2989165129562495
 40
0.3605937357569216
 40
0.4218311405542716
 40
0.4804127562649523
 40
0.5039785906144717
 40
0.5330386999241351
 40
0.5670765099324419
 40
0.6058531521378636
 40
0.6494865925273939
 40
0.6981590201132536
 40
0.7517274132582653
 40
0.8267725936610147
 40
0.8897480671397441
 40
0.9377899175081338
 40
0.972931148875435
 40
1.0
 40
1.0
 40
1.0
 40
1.0
 10
120.9123584010876
 20
118.4911408862248
 30
0.0
 10
120.33464937682
 20
118.4920440570124
 30
0.0
 10
119.2245211745367
 20
118.4937795939709
 30
0.0
 10
117.6264133678367
 20
118.5076705582111
 30
0.0
 10
116.1618593202516
 20
118.5279215111423
 30
0.0
 10
114.8289786038201
 20
118.553701570933
 30
0.0
 10
113.3504714295351
 20
118.5897715185104
 30
0.0
 10
111.6816770368155
 20
118.6416376705487
 30
0.0
 10
109.7840661866872
 20
118.7157118654111
 30
0.0
 10
107.9182527482574
 20
118.8096645175817
 30
0.0
 10
106.451181842978
 20
119.004285640141
 30
0.0
 10
105.3393387226413
 20
119.2796479985008
 30
0.0
 10
104.4914687682825
 20
119.5611288270068
 30
0.0
 10
103.536946955023
 20
120.0032399886552
 30
0.0
 10
102.5347348934813
 20
120.6706592687532
 30
0.0
 10
101.5460502551777
 20
121.5984148517956
 30
0.0
 10
100.6365153003865
 20
122.8024528841094
 30
0.0
 10
99.79215826221238
 20
124.4297046741423
 30
0.0
 10
99.21272334459043
 20
126.3269100916374
 30
0.0
 10
98.90126896277017
 20
128.2194267718025
 30
0.0
 10
98.77339012266442
 20
129.7194676075904
 30
0.0
 10
98.7282348011197
 20
130.8536378986662
 30
0.0
 10
98.71407703319142
 20
131.4938845934509
 30
0.0
 10
98.70791670520349
 20
131.7724687356016
 30
0.0
  0
SPLINE
  5
1EF
330
1F
100
AcDbEntity
  8
0
  6
Continuous
 62
     7
370
    25
100
AcDbSpline
210
0.0
220
0.0
230
1.0
 70
     8
 71
     3
 72
     8
 73
     4
 74
     0
 42
0.000000001
 43
0.00000001
 40
0.0
 40
0.0
 40
0.0
 40
0.0
 40
1.0
 40
1.0
 40
1.0
 40
1.0
 10
143.6064269287917
 20
154.9224413596105
 30
0.0
 10
143.4504357808023
 20
147.2056023871717
 30
0.0
 10
143.2870156214969
 20
139.4886685703449
 30
0.0
 10
143.1167953617286
 20
131.7724687356017
 30
0.0
  0
LINE
  5
1F0
330
1F
100
AcDbEntity
  8
0
  6
Continuous
 62
     7
370
    25
100
AcDbLine
 10
143.6064269288
 20
154.9224413596
 30
0.0
 11
143.5767849213
 21
154.9230673275
 31
0.0
  0
SPLINE
  5
1F1
330
1F
100
AcDbEntity
  8
0
  6
Continuous
 62
     7
370
    25
100
AcDbSpline
210
0.0
220
0.0
230
1.0
 70
     8
 71
     3
 72
     8
 73
     4
 74
     0
 42
0.000000001
 43
0.00000001
 40
0.0
 40
0.0
 40
0.0
 40
0.0
 40
1.0
 40
1.0
 40
1.0
 40
1.0
 10
98.70792962936038
 20
131.7724687356016
 30
0.0
 10
98.53256714649287
 20
139.7405999652888
 30
0.0
 10
98.37041606435153
 20
147.4004290984324
 30
0.0
 10
98.21829806229731
 20
154.9224413596104
 30
0.0
  0
LINE
  5
1F2
330
1F
100
AcDbEntity
  8
0
  6
Continuous
 62
     7
370
    25
100
AcDbLine
 10
98.2196374768
 20
154.9222877094
 30
0.0
 11
98.248849691
 21
154.9229250242
 31
0.0
  0
LINE
  5
1F3
330
1F
100
AcDbEntity
  8
0
  6
Continuous
 62
     7
370
    25
100
AcDbLine
 10
144.5216745503
 20
207.2663232551
 30
0.0
 11
144.6982817736
 21
217.3741133335
 31
0.0
  0
LINE
  5
1F4
330
1F
100
AcDbEntity
  8
0
  6
Continuous
 62
     7
370
    25
100
AcDbLine
 10
97.2971983784
 20
207.6012552989
 30
0.0
 11
97.1264432175
 21
217.3741133335
 31
0.0
  0
LWPOLYLINE
  5
1F5
330
1F
100
AcDbEntity
  8
0
  6
Continuous
 62
     7
370
    25
100
AcDbPolyline
 90
        3
 70
   128
 43
0.0
 10
96.9513276788
 20
228.7427696158
 10
96.9511471053
 20
228.7559479209
 10
96.9509688466
 20
228.769126497
  0
SPLINE
  5
1F6
330
1F
100
AcDbEntity
  8
0
  6
Continuous
 62
     7
370
    25
100
AcDbSpline
210
0.0
220
0.0
230
1.0
 70
     8
 71
     3
 72
     9
 73
     5
 74
     0
 42
0.000000001
 43
0.00000001
 40
0.0
 40
0.0
 40
0.0
 40
0.0
 40
0.2796427045601751
 40
1.0
 40
1.0
 40
1.0
 40
1.0
 10
96.98603957379164
 20
224.8038828796886
 30
0.0
 10
96.98033089675017
 20
225.1710171313857
 30
0.0
 10
96.95991671483742
 20
226.4838861807482
 30
0.0
 10
96.95492412634503
 20
227.7969177474886
 30
0.0
 10
96.9513276788014
 20
228.7427696157329
 30
0.0
  0
LINE
  5
1F7
330
1F
100
AcDbEntity
  8
0
  6
Continuous
 62
     7
370
    25
100
AcDbLine
 10
96.9382288492
 20
230.0304113344
 30
0.0
 11
96.9317280415
 21
230.7817853383
 31
0.0
  0
LINE
  5
1F8
330
1F
100
AcDbEntity
  8
0
  6
Continuous
 62
     7
370
    25
100
AcDbLine
 10
144.831951754
 20
224.809876588
 30
0.0
 11
144.8733973123
 21
228.7427696157
 31
0.0
  0
SPLINE
  5
1F9
330
1F
100
AcDbEntity
  8
0
  6
Continuous
 62
     7
370
    25
100
AcDbSpline
210
0.0
220
0.0
230
1.0
 70
     8
 71
     3
 72
     8
 73
     4
 74
     0
 42
0.000000001
 43
0.00000001
 40
0.0
 40
0.0
 40
0.0
 40
0.0
 40
1.0
 40
1.0
 40
1.0
 40
1.0
 10
144.8737561444865
 20
228.7691264969615
 30
0.0
 10
144.8736379324651
 20
228.7603910592148
 30
0.0
 10
144.8735186498562
 20
228.7516357061006
 30
0.0
 10
144.8733973122882
 20
228.74276961578
 30
0.0
  0
LINE
  5
1FA
330
1F
100
AcDbEntity
  8
0
  6
Continuous
 62
     7
370
    25
100
AcDbLine
 10
144.8856161369
 20
230.0308602169
 30
0.0
 11
144.8926788628
 21
230.7823430643
 31
0.0
  0
LINE
  5
1FB
330
1F
100
AcDbEntity
  8
0
  6
Continuous
 62
     7
370
    25
100
AcDbLine
 10
144.892035338
 20
230.7138712192
 30
0.0
 11
144.8929970181
 21
230.7817925544
 31
0.0
  0
SPLINE
  5
1FC
330
1F
100
AcDbEntity
  8
0
  6
Continuous
 62
     7
370
    25
100
AcDbSpline
210
0.0
220
0.0
230
1.0
 70
     8
 71
     3
 72
    16
 73
    12
 74
     0
 42
0.000000001
 43
0.00000001
 40
0.0
 40
0.0
 40
0.0
 40
0.0
 40
0.2499999999999999
 40
0.2499999999999999
 40
0.4999999999999998
 40
0.4999999999999998
 40
0.6249999999999998
 40
0.6249999999999998
 40
0.7499999999999999
 40
0.7499999999999999
 40
1.0
 40
1.0
 40
1.0
 40
1.0
 10
144.2459942271514
 20
232.0955022417529
 30
0.0
 10
142.5885716041874
 20
233.3576490590388
 30
0.0
 10
140.844755968401
 20
234.4655342487664
 30
0.0
 10
137.1900734512427
 20
236.3894734746366
 30
0.0
 10
135.2792323551728
 20
237.2055442693792
 30
0.0
 10
132.2810833716568
 20
238.203320688961
 30
0.0
 10
131.2716617652225
 20
238.4938520438112
 30
0.0
 10
129.2401546868504
 20
238.9913209416212
 30
0.0
 10
128.2169275696543
 20
239.1986327568163
 30
0.0
 10
125.1249760777528
 20
239.6977288468397
 30
0.0
 10
123.0341305994487
 20
239.8675703585135
 30
0.0
 10
120.9123624955445
 20
239.8676009300645
 30
0.0
  0
SPLINE
  5
1FD
330
1F
100
AcDbEntity
  8
0
  6
Continuous
 62
     7
370
    25
100
AcDbSpline
210
0.0
220
0.0
230
1.0
 70
     8
 71
     3
 72
    23
 73
    19
 74
     0
 42
0.000000001
 43
0.00000001
 40
0.0
 40
0.0
 40
0.0
 40
0.0
 40
0.015625
 40
0.015625
 40
0.03125
 40
0.0624999999999999
 40
0.0624999999999999
 40
0.1249999999999999
 40
0.1249999999999999
 40
0.2499999999999999
 40
0.2499999999999999
 40
0.3749999999999999
 40
0.3749999999999999
 40
0.4999999999999999
 40
0.4999999999999999
 40
0.7499999999999999
 40
0.7499999999999999
 40
1.0
 40
1.0
 40
1.0
 40
1.0
 10
120.9123624955445
 20
239.8676009300645
 30
0.0
 10
120.7816342437191
 20
239.8675990497135
 30
0.0
 10
120.6472639160024
 20
239.8669290128449
 30
0.0
 10
120.382528107236
 20
239.864259594808
 30
0.0
 10
119.9857874269275
 20
239.8582612521095
 30
0.0
 10
119.5901304784401
 20
239.8463095301384
 30
0.0
 10
118.8002490022395
 20
239.8145357369721
 30
0.0
 10
118.2755706527943
 20
239.7828629763017
 30
0.0
 10
116.7071850109389
 20
239.6567819714154
 30
0.0
 10
115.6691180209419
 20
239.5313658563538
 30
0.0
 10
113.6078357949922
 20
239.1986397426964
 30
0.0
 10
112.5846203168458
 20
238.9913313736176
 30
0.0
 10
110.5531408427379
 20
238.4938728651956
 30
0.0
 10
109.5437681239751
 20
238.2033595500481
 30
0.0
 10
106.5455605738639
 20
237.205573357048
 30
0.0
 10
104.6346929503005
 20
236.3894935727278
 30
0.0
 10
100.979976370519
 20
234.4655398185394
 30
0.0
 10
99.23615327002122
 20
233.357648970033
 30
0.0
 10
97.5787307639376
 20
232.0955022417529
 30
0.0
  0
SPLINE
  5
1FE
330
1F
100
AcDbEntity
  8
0
  6
Continuous
 62
     7
370
    25
100
AcDbSpline
210
0.0
220
0.0
230
1.0
 70
     8
 71
     3
 72
    12
 73
     8
 74
     0
 42
0.000000001
 43
0.00000001
 40
0.0
 40
0.0
 40
0.0
 40
0.0
 40
0.5000000000000033
 40
0.5000000000000033
 40
0.7500000000000017
 40
0.7500000000000017
 40
1.0
 40
1.0
 40
1.0
 40
1.0
 10
97.57870202475546
 20
232.0953276005083
 30
0.0
 10
97.37439843671719
 20
231.939316568601
 30
0.0
 10
97.20765930047389
 20
231.7360900604922
 30
0.0
 10
97.04152477637969
 20
231.3979834775053
 30
0.0
 10
96.99885766595392
 20
231.2773212586355
 30
0.0
 10
96.9436549459824
 20
231.0330249078266
 30
0.0
 10
96.93043938698005
 20
230.9077950400032
 30
0.0
 10
96.93204619697829
 20
230.782335843355
 30
0.0
  0
SPLINE
  5
1FF
330
1F
100
AcDbEntity
  8
0
  6
Continuous
 62
     7
370
    25
100
AcDbSpline
210
0.0
220
0.0
230
1.0
 70
     8
 71
     3
 72
    12
 73
     8
 74
     0
 42
0.000000001
 43
0.00000001
 40
0.0
 40
0.0
 40
0.0
 40
0.0
 40
0.5000000000000014
 40
0.5000000000000014
 40
0.7500000000000007
 40
0.7500000000000007
 40
1.0
 40
1.0
 40
1.0
 40
1.0
 10
144.8926787941107
 20
230.782335843355
 30
0.0
 10
144.8958929033292
 20
231.0332924349363
 30
0.0
 10
144.8383207912533
 20
231.2860947649396
 30
0.0
 10
144.672026161821
 20
231.6240926186567
 30
0.0
 10
144.6021228139594
 20
231.7323747480836
 30
0.0
 10
144.4406201631868
 20
231.9282335851166
 30
0.0
 10
144.3481903113407
 20
232.0173102094525
 30
0.0
 10
144.2460229663336
 20
232.0953276005083
 30
0.0
  0
SPLINE
  5
200
330
1F
100
AcDbEntity
  8
0
  6
Continuous
 62
     7
370
    25
100
AcDbSpline
210
0.0
220
0.0
230
1.0
 70
     8
 71
     3
 72
    12
 73
     8
 74
     0
 42
0.000000001
 43
0.00000001
 40
0.0
 40
0.0
 40
0.0
 40
0.0
 40
0.5000000000000007
 40
0.5000000000000007
 40
0.7500000000000003
 40
0.7500000000000003
 40
1.0
 40
1.0
 40
1.0
 40
1.0
 10
98.05010915333324
 20
118.067134446634
 30
0.0
 10
97.95950293126658
 20
124.4820996052948
 30
0.0
 10
97.87509633076658
 20
130.8014506951384
 30
0.0
 10
97.75661882071391
 20
140.2195541280915
 30
0.0
 10
97.71848835626093
 20
143.3490716170797
 30
0.0
 10
97.6447986651901
 20
149.6022644095222
 30
0.0
 10
97.60921845409085
 20
152.7277296934508
 30
0.0
 10
97.57488185599851
 20
155.8550497324221
 30
0.0
  0
SPLINE
  5
201
330
1F
100
AcDbEntity
  8
0
  6
Continuous
 62
     7
370
    25
100
AcDbSpline
210
0.0
220
0.0
230
1.0
 70
     8
 71
     3
 72
     8
 73
     4
 74
     0
 42
0.000000001
 43
0.00000001
 40
0.0
 40
0.0
 40
0.0
 40
0.0
 40
1.0
 40
1.0
 40
1.0
 40
1.0
 10
144.2498431350888
 20
155.8550497322676
 30
0.0
 10
144.1116175962777
 20
143.2588099326378
 30
0.0
 10
143.9529608934986
 20
130.6628095159496
 30
0.0
 10
143.7746158377558
 20
118.067134446634
 30
0.0
  0
SPLINE
  5
202
330
1F
100
AcDbEntity
  8
0
  6
Continuous
 62
     7
370
    25
100
AcDbSpline
210
0.0
220
0.0
230
1.0
 70
     8
 71
     3
 72
    10
 73
     6
 74
     0
 42
0.000000001
 43
0.00000001
 40
0.0
 40
0.0
 40
0.0
 40
0.0
 40
0.5
 40
0.5
 40
1.0
 40
1.0
 40
1.0
 40
1.0
 10
127.7842814223851
 20
246.3827678197085
 30
0.0
 10
128.3947850053701
 20
246.3025104184117
 30
0.0
 10
128.9936664280505
 20
246.2131843453342
 30
0.0
 10
130.1540196526537
 20
246.0221151951947
 30
0.0
 10
130.7165990408706
 20
245.9202691983366
 30
0.0
 10
131.2618939388174
 20
245.8141385717854
 30
0.0
  0
SPLINE
  5
203
330
1F
100
AcDbEntity
  8
0
  6
Continuous
 62
     7
370
    25
100
AcDbSpline
210
0.0
220
0.0
230
1.0
 70
     8
 71
     3
 72
    14
 73
    10
 74
     0
 42
0.000000001
 43
0.00000001
 40
0.0
 40
0.0
 40
0.0
 40
0.0
 40
0.25
 40
0.25
 40
0.5
 40
0.5
 40
0.75
 40
0.75
 40
1.0
 40
1.0
 40
1.0
 40
1.0
 10
131.2619116367524
 20
245.8141347240457
 30
0.0
 10
131.3648415547934
 20
245.7941015712569
 30
0.0
 10
131.4570939218257
 20
245.7783942820641
 30
0.0
 10
131.6202404433794
 20
245.7561768343302
 30
0.0
 10
131.6897866074624
 20
245.7499607598299
 30
0.0
 10
131.7981842793337
 20
245.7483706062903
 30
0.0
 10
131.8380763607421
 20
245.7530600048565
 30
0.0
 10
131.8841613777037
 20
245.7729459903498
 30
0.0
 10
131.891225487383
 20
245.7882674123361
 30
0.0
 10
131.8819119378671
 20
245.8084409469749
 30
0.0
  0
SPLINE
  5
204
330
1F
100
AcDbEntity
  8
0
  6
Continuous
 62
     7
370
    25
100
AcDbSpline
210
0.0
220
0.0
230
1.0
 70
     8
 71
     3
 72
    10
 73
     6
 74
     0
 42
0.000000001
 43
0.00000001
 40
0.0
 40
0.0
 40
0.0
 40
0.0
 40
0.2130041157832169
 40
0.6052805625314918
 40
1.0
 40
1.0
 40
1.0
 40
1.0
 10
131.7692442818921
 20
253.9918816170613
 30
0.0
 10
132.7200092354828
 20
253.7053220824579
 30
0.0
 10
135.4217389360033
 20
252.8910236560369
 30
0.0
 10
139.643323185185
 20
250.8329558853538
 30
0.0
 10
142.6263005819424
 20
248.6948787659657
 30
0.0
 10
144.1224191559311
 20
247.6225216993604
 30
0.0
  0
SPLINE
  5
205
330
1F
100
AcDbEntity
  8
0
  6
Continuous
 62
     7
370
    25
100
AcDbSpline
210
0.0
220
0.0
230
1.0
 70
     8
 71
     3
 72
    10
 73
     6
 74
     0
 42
0.000000001
 43
0.00000001
 40
0.0
 40
0.0
 40
0.0
 40
0.0
 40
0.5
 40
0.5
 40
1.0
 40
1.0
 40
1.0
 40
1.0
 10
120.9123624955445
 20
246.8445285012562
 30
0.0
 10
122.0871964545528
 20
246.8445358264896
 30
0.0
 10
123.261260775957
 20
246.802557226702
 30
0.0
 10
125.5670996148427
 20
246.6430608150861
 30
0.0
 10
126.6999041168175
 20
246.5253412270314
 30
0.0
 10
127.7849529766665
 20
246.3826809384626
 30
0.0
  0
SPLINE
  5
206
330
1F
100
AcDbEntity
  8
0
  6
Continuous
 62
     7
370
    25
100
AcDbSpline
210
0.0
220
0.0
230
1.0
 70
     8
 71
     3
 72
    10
 73
     6
 74
     0
 42
0.000000001
 43
0.00000001
 40
0.0
 40
0.0
 40
0.0
 40
0.0
 40
0.213004116091537
 40
0.6052805626861303
 40
0.9999999999999999
 40
0.9999999999999999
 40
0.9999999999999999
 40
0.9999999999999999
 10
110.0554807144096
 20
253.9918816187407
 30
0.0
 10
109.1047157590634
 20
253.7053220836305
 30
0.0
 10
106.4029860567747
 20
252.8910236567399
 30
0.0
 10
102.181401805893
 20
250.8329558853859
 30
0.0
 10
99.19842440914292
 20
248.6948787659764
 30
0.0
 10
97.70230583515792
 20
247.6225216993604
 30
0.0
  0
SPLINE
  5
207
330
1F
100
AcDbEntity
  8
0
  6
Continuous
 62
     7
370
    25
100
AcDbSpline
210
0.0
220
0.0
230
1.0
 70
     8
 71
     3
 72
    14
 73
    10
 74
     0
 42
0.000000001
 43
0.00000001
 40
0.0
 40
0.0
 40
0.0
 40
0.0
 40
0.25
 40
0.25
 40
0.5
 40
0.5
 40
0.75
 40
0.75
 40
1.0
 40
1.0
 40
1.0
 40
1.0
 10
109.942813053222
 20
245.8084409469749
 30
0.0
 10
109.9335012596084
 20
245.7882712156935
 30
0.0
 10
109.9402938995115
 20
245.7731597924213
 30
0.0
 10
109.986371939328
 20
245.7530831253275
 30
0.0
 10
110.0258936282031
 20
245.748410680836
 30
0.0
 10
110.1340228553783
 20
245.7498984725744
 30
0.0
 10
110.2040320123312
 20
245.7561408282876
 30
0.0
 10
110.3661274729645
 20
245.7781642073708
 30
0.0
 10
110.4598786106177
 20
245.7941006320398
 30
0.0
 10
110.5628133543366
 20
245.8141347240457
 30
0.0
  0
SPLINE
  5
208
330
1F
100
AcDbEntity
  8
0
  6
Continuous
 62
     7
370
    25
100
AcDbSpline
210
0.0
220
0.0
230
1.0
 70
     8
 71
     3
 72
    10
 73
     6
 74
     0
 42
0.000000001
 43
0.00000001
 40
0.0
 40
0.0
 40
0.0
 40
0.0
 40
0.5
 40
0.5
 40
1.0
 40
1.0
 40
1.0
 40
1.0
 10
110.5628310527466
 20
245.814138571878
 30
0.0
 10
111.1079503233103
 20
245.9202350161059
 30
0.0
 10
111.6704758774303
 20
246.0220759946266
 30
0.0
 10
112.8310203267614
 20
246.2131794653005
 30
0.0
 10
113.4294505552501
 20
246.3024383299678
 30
0.0
 10
114.0397688649619
 20
246.3826791182142
 30
0.0
  0
SPLINE
  5
209
330
1F
100
AcDbEntity
  8
0
  6
Continuous
 62
     7
370
    25
100
AcDbSpline
210
0.0
220
0.0
230
1.0
 70
     8
 71
     3
 72
    10
 73
     6
 74
     0
 42
0.000000001
 43
0.00000001
 40
0.0
 40
0.0
 40
0.0
 40
0.0
 40
0.5
 40
0.5
 40
1.0
 40
1.0
 40
1.0
 40
1.0
 10
114.0404476175797
 20
246.382769761642
 30
0.0
 10
115.1256838565397
 20
246.5254420974706
 30
0.0
 10
116.2581403073739
 20
246.6431120750619
 30
0.0
 10
118.5643520419684
 20
246.8026029869138
 30
0.0
 10
119.7374042639684
 20
246.8445358272645
 30
0.0
 10
120.9123624955445
 20
246.8445285012562
 30
0.0
  0
SPLINE
  5
20A
330
1F
100
AcDbEntity
  8
0
  6
Continuous
 62
     7
370
    25
100
AcDbSpline
210
0.0
220
0.0
230
1.0
 70
     8
 71
     3
 72
    12
 73
     8
 74
     0
 42
0.000000001
 43
0.00000001
 40
0.0
 40
0.0
 40
0.0
 40
0.0
 40
0.4999999999999989
 40
0.4999999999999989
 40
0.7499999999999994
 40
0.7499999999999994
 40
1.0
 40
1.0
 40
1.0
 40
1.0
 10
144.9086096419734
 20
245.9876014014882
 30
0.0
 10
144.9098887993762
 20
246.3031011246336
 30
0.0
 10
144.838607368681
 20
246.6157309842283
 30
0.0
 10
144.6364602663714
 20
247.036619472235
 30
0.0
 10
144.5518064286937
 20
247.1713833888141
 30
0.0
 10
144.3568001554858
 20
247.4149248125834
 30
0.0
 10
144.2463513096929
 20
247.5248776004767
 30
0.0
 10
144.1224191558633
 20
247.6225216992744
 30
0.0
  0
LINE
  5
20B
330
1F
100
AcDbEntity
  8
0
  6
Continuous
 62
     7
370
    25
100
AcDbLine
 10
144.8973104664
 20
242.5953126921
 30
0.0
 11
144.9086090412
 21
245.9874544939
 31
0.0
  0
SPLINE
  5
20C
330
1F
100
AcDbEntity
  8
0
  6
Continuous
 62
     7
370
    25
100
AcDbSpline
210
0.0
220
0.0
230
1.0
 70
     8
 71
     3
 72
    12
 73
     8
 74
     0
 42
0.000000001
 43
0.00000001
 40
0.0
 40
0.0
 40
0.0
 40
0.0
 40
0.4999999999999989
 40
0.4999999999999989
 40
0.7499999999999994
 40
0.7499999999999994
 40
1.0
 40
1.0
 40
1.0
 40
1.0
 10
96.91611534911567
 20
245.9876014014882
 30
0.0
 10
96.91483619171282
 20
246.3031011246336
 30
0.0
 10
96.98611762240807
 20
246.6157309842283
 30
0.0
 10
97.18826472471756
 20
247.036619472235
 30
0.0
 10
97.27291856239539
 20
247.1713833888141
 30
0.0
 10
97.46792483560326
 20
247.4149248125833
 30
0.0
 10
97.57837368139609
 20
247.5248776004767
 30
0.0
 10
97.70230583522572
 20
247.6225216992744
 30
0.0
  0
LINE
  5
20D
330
1F
100
AcDbEntity
  8
0
  6
Continuous
 62
     7
370
    25
100
AcDbLine
 10
96.9274145247
 20
242.5953126921
 30
0.0
 11
96.9161159499
 21
245.9874544939
 31
0.0
  0
LWPOLYLINE
  5
20E
330
1F
100
AcDbEntity
  8
0
  6
Continuous
 62
     8
370
    18
100
AcDbPolyline
 90
        3
 70
   128
 43
0.0
 10
96.9470673884
 20
237.6929315878
 10
96.946387676
 20
237.8665582705
 10
96.9299795406
 20
241.8804394824
  0
SPLINE
  5
20F
330
1F
100
AcDbEntity
  8
0
  6
Continuous
 62
     8
370
    18
100
AcDbSpline
210
0.0
220
0.0
230
1.0
 70
     8
 71
     3
 72
    11
 73
     7
 74
     0
 42
0.000000001
 43
0.00000001
 40
0.0
 40
0.0
 40
0.0
 40
0.0
 40
0.2272191662511436
 40
0.5107948315834813
 40
0.7995241966199413
 40
1.0
 40
1.0
 40
1.0
 40
1.0
 10
96.97429157609956
 20
231.1456130790594
 30
0.0
 10
96.97281076133174
 20
231.4470436921274
 30
0.0
 10
96.9694818496804
 20
232.1246678634354
 30
0.0
 10
96.96635270533355
 20
232.7683513377973
 30
0.0
 10
96.96476380290834
 20
233.0784584015021
 30
0.0
 10
96.96443271716352
 20
233.2149996247988
 30
0.0
 10
96.96429703854652
 20
233.2709540856306
 30
0.0
  0
SPLINE
  5
210
330
1F
100
AcDbEntity
  8
0
  6
Continuous
 62
     8
370
    18
100
AcDbSpline
210
0.0
220
0.0
230
1.0
 70
     8
 71
     3
 72
    11
 73
     7
 74
     0
 42
0.000000001
 43
0.00000001
 40
0.0
 40
0.0
 40
0.0
 40
0.0
 40
0.2239989148072175
 40
0.5087562669851248
 40
0.7986887948253939
 40
1.0
 40
1.0
 40
1.0
 40
1.0
 10
144.8505097435442
 20
231.161165834606
 30
0.0
 10
144.8519626893789
 20
231.4569261858789
 30
0.0
 10
144.8552626843794
 20
232.1286702091272
 30
0.0
 10
144.8583712865449
 20
232.7681511688127
 30
0.0
 10
144.859961352464
 20
233.0784913119081
 30
0.0
 10
144.8602923216792
 20
233.2150091911641
 30
0.0
 10
144.8604279525425
 20
233.2709540856306
 30
0.0
  0
LINE
  5
211
330
1F
100
AcDbEntity
  8
0
  6
Continuous
 62
     8
370
    18
100
AcDbLine
 10
144.8789703545
 20
237.9271739068
 30
0.0
 11
144.8947884467
 21
241.880398685
 31
0.0
  0
SPLINE
  5
212
330
1F
100
AcDbEntity
  8
0
  6
Continuous
 62
     8
370
    18
100
AcDbSpline
210
0.0
220
0.0
230
1.0
 70
     8
 71
     3
 72
    11
 73
     7
 74
     0
 42
0.000000001
 43
0.00000001
 40
0.0334089901200645
 40
0.0334089901200645
 40
0.0334089901200645
 40
0.0334089901200645
 40
0.2750567448041669
 40
0.5167044965361111
 40
0.7583522482680556
 40
0.9676977261233779
 40
0.9676977261233779
 40
0.9676977261233779
 40
0.9676977261233779
 10
120.0849986580314
 20
238.1972627128822
 30
0.0
 10
117.9916522214439
 20
238.1509772310874
 30
0.0
 10
113.810285813934
 20
237.7151429135281
 30
0.0
 10
107.7295964382239
 20
236.0307413822925
 30
0.0
 10
102.2686803615853
 20
233.4607417587004
 30
0.0
 10
99.02734579180776
 20
231.241751057666
 30
0.0
 10
97.60544510057986
 20
230.1081536450713
 30
0.0
  0
SPLINE
  5
213
330
1F
100
AcDbEntity
  8
0
  6
Continuous
 62
     8
370
    18
100
AcDbSpline
210
0.0
220
0.0
230
1.0
 70
     8
 71
     3
 72
     8
 73
     4
 74
     0
 42
0.000000001
 43
0.00000001
 40
0.0
 40
0.0
 40
0.0
 40
0.0
 40
0.000827418256155
 40
0.000827418256155
 40
0.000827418256155
 40
0.000827418256155
 10
120.9123624955445
 20
238.2066178538018
 30
0.0
 10
120.6365564467859
 20
238.2064778261071
 30
0.0
 10
120.3607353789841
 20
238.2033594614923
 30
0.0
 10
120.0849987347533
 20
238.1972627145785
 30
0.0
  0
SPLINE
  5
214
330
1F
100
AcDbEntity
  8
0
  6
Continuous
 62
     8
370
    18
100
AcDbSpline
210
0.0
220
0.0
230
1.0
 70
     8
 71
     3
 72
    43
 73
    39
 74
     0
 42
0.000000001
 43
0.00000001
 40
0.0
 40
0.0
 40
0.0
 40
0.0
 40
0.0242015801703668
 40
0.0476570445075823
 40
0.0707865080944398
 40
0.0935173928421178
 40
0.1157949142565509
 40
0.1376001149698157
 40
0.1589264979188275
 40
0.1797724713890292
 40
0.2001404041304123
 40
0.2200356148952944
 40
0.2394636523578894
 40
0.2584274445079203
 40
0.2769271907921269
 40
0.2949605545972913
 40
0.3125228695269157
 40
0.3296053158578641
 40
0.3461925629092042
 40
0.3622695182645671
 40
0.3778222231520895
 40
0.3928374753699871
 40
0.4073025187951181
 40
0.4212047981795595
 40
0.4345317766728213
 40
0.4472708123694344
 40
0.4594090894828328
 40
0.4709339665140067
 40
0.4818334759088114
 40
0.4920951727286317
 40
0.50170523354343
 40
0.5830485543669325
 40
0.6689366806139746
 40
0.7589856599864696
 40
0.8021736506965294
 40
0.8567269206286063
 40
0.9228484115471588
 40
1.0
 40
1.0
 40
1.0
 40
1.0
 10
97.60427993555437
 20
230.0793398187131
 30
0.0
 10
97.6046737176605
 20
230.057495850777
 30
0.0
 10
97.60544914187768
 20
230.0144813473922
 30
0.0
 10
97.60687438411729
 20
229.9407300849696
 30
0.0
 10
97.60981265492966
 20
229.8611528325384
 30
0.0
 10
97.61340375380924
 20
229.7738904680164
 30
0.0
 10
97.61740616992506
 20
229.6788067732749
 30
0.0
 10
97.621776896735
 20
229.5753730364137
 30
0.0
 10
97.62650740780275
 20
229.4632918820982
 30
0.0
 10
97.63157846930105
 20
229.3424123765141
 30
0.0
 10
97.63697152733015
 20
229.2127486866401
 30
0.0
 10
97.64266553550782
 20
229.0744815488655
 30
0.0
 10
97.64863535637181
 20
228.9286611693868
 30
0.0
 10
97.65485561946
 20
228.7763029313148
 30
0.0
 10
97.66130041390575
 20
228.6184102779229
 30
0.0
 10
97.6679434716359
 20
228.4559660060926
 30
0.0
 10
97.67475780980872
 20
228.2899497909073
 30
0.0
 10
97.68171586388027
 20
228.1213113149544
 30
0.0
 10
97.68879400172983
 20
227.9507111562843
 30
0.0
 10
97.6959666056404
 20
227.778890331332
 30
0.0
 10
97.70320778945818
 20
227.6066076321307
 30
0.0
 10
97.71049158049459
 20
227.4346369728686
 30
0.0
 10
97.71779208733273
 20
227.2637596280956
 30
0.0
 10
97.72508359305137
 20
227.0947592423551
 30
0.0
 10
97.73234074747896
 20
226.9284164236837
 30
0.0
 10
97.73953842148056
 20
226.7655039114555
 30
0.0
 10
97.74665277635471
 20
226.6067798406781
 30
0.0
 10
97.75365844602398
 20
226.4529807714617
 30
0.0
 10
97.76053047397532
 20
226.3048418277679
 30
0.0
 10
97.76722733068571
 20
226.1630531866969
 30
0.0
 10
97.79023683633439
 20
225.6898315455696
 30
0.0
 10
97.83403830854799
 20
224.8061185707351
 30
0.0
 10
97.90130315872646
 20
223.3985336141066
 30
0.0
 10
97.96432040974409
 20
222.1167464493453
 30
0.0
 10
98.01154479001275
 20
220.9858602634529
 30
0.0
 10
98.04292592804794
 20
219.9862893921272
 30
0.0
 10
98.07454629520292
 20
218.7731401763399
 30
0.0
 10
98.09062672080435
 20
217.8934303215738
 30
0.0
 10
98.0992859217065
 20
217.4197124886732
 30
0.0
  0
SPLINE
  5
215
330
1F
100
AcDbEntity
  8
0
  6
Continuous
 62
     8
370
    18
100
AcDbSpline
210
0.0
220
0.0
230
1.0
 70
     8
 71
     3
 72
     8
 73
     4
 74
     0
 42
0.000000001
 43
0.00000001
 40
0.0
 40
0.0
 40
0.0
 40
0.0
 40
1.0
 40
1.0
 40
1.0
 40
1.0
 10
97.60356453951427
 20
230.1066542860122
 30
0.0
 10
97.60381196531775
 20
230.0976695120239
 30
0.0
 10
97.60406698650091
 20
230.0885727716656
 30
0.0
 10
97.60427993555437
 20
230.0793398187131
 30
0.0
  0
SPLINE
  5
216
330
1F
100
AcDbEntity
  8
0
  6
Continuous
 62
     8
370
    18
100
AcDbSpline
210
0.0
220
0.0
230
1.0
 70
     8
 71
     3
 72
    16
 73
    12
 74
     0
 42
0.000000001
 43
0.00000001
 40
0.0
 40
0.0
 40
0.0
 40
0.0
 40
0.25
 40
0.25
 40
0.5
 40
0.5
 40
0.75
 40
0.75
 40
0.875
 40
0.875
 40
1.0
 40
1.0
 40
1.0
 40
1.0
 10
143.7254390693825
 20
217.4197124886732
 30
0.0
 10
143.7484222408994
 20
218.806586047893
 30
0.0
 10
143.785287708905
 20
220.2823562584515
 30
0.0
 10
143.9129638680575
 20
223.3819064363388
 30
0.0
 10
143.9916125928692
 20
224.8190273943144
 30
0.0
 10
144.1099370236865
 20
227.2307465054085
 30
0.0
 10
144.1444510226783
 20
228.1924972069026
 30
0.0
 10
144.1821008165442
 20
229.2049676194082
 30
0.0
 10
144.1928749153093
 20
229.4665939728613
 30
0.0
 10
144.2101162588195
 20
229.8463957666652
 30
0.0
 10
144.2172735161005
 20
229.9757419640702
 30
0.0
 10
144.2204450555349
 20
230.0793398187129
 30
0.0
  0
SPLINE
  5
217
330
1F
100
AcDbEntity
  8
0
  6
Continuous
 62
     8
370
    18
100
AcDbSpline
210
0.0
220
0.0
230
1.0
 70
     8
 71
     3
 72
     8
 73
     4
 74
     0
 42
0.000000001
 43
0.00000001
 40
0.0
 40
0.0
 40
0.0
 40
0.0
 40
0.000827418256155
 40
0.000827418256155
 40
0.000827418256155
 40
0.000827418256155
 10
120.9123624955445
 20
238.2066178538018
 30
0.0
 10
121.1881685443031
 20
238.2064778261071
 30
0.0
 10
121.4639896121049
 20
238.2033594614923
 30
0.0
 10
121.7397262563358
 20
238.1972627145785
 30
0.0
  0
SPLINE
  5
218
330
1F
100
AcDbEntity
  8
0
  6
Continuous
 62
     8
370
    18
100
AcDbSpline
210
0.0
220
0.0
230
1.0
 70
     8
 71
     3
 72
    24
 73
    20
 74
     0
 42
0.000000001
 43
0.00000001
 40
0.0
 40
0.0
 40
0.0
 40
0.0
 40
0.023721315477605
 40
0.0474138258151056
 40
0.0710791930813104
 40
0.0947190431279766
 40
0.1558702830923262
 40
0.2240185484492439
 40
0.3456397422033033
 40
0.4826273585029761
 40
0.5250953232822249
 40
0.6119761882140188
 40
0.6834264613186344
 40
0.7413126571181917
 40
0.7966699073540423
 40
0.8502130463198047
 40
0.9019474418687495
 40
0.951876130292397
 40
1.0
 40
1.0
 40
1.0
 40
1.0
 10
144.219275636946
 20
230.1081482915871
 30
0.0
 10
144.0683589491437
 20
230.2273676929611
 30
0.0
 10
143.7667088338791
 20
230.4656617258474
 30
0.0
 10
143.3075888591168
 20
230.8140071984644
 30
0.0
 10
142.8440758550612
 20
231.1553477217009
 30
0.0
 10
142.1279680042143
 20
231.6656745684724
 30
0.0
 10
141.0981596544663
 20
232.3570055251198
 30
0.0
 10
139.3617044666568
 20
233.4179127971813
 30
0.0
 10
137.016632064943
 20
234.6558090191623
 30
0.0
 10
134.7658671008296
 20
235.6082202417718
 30
0.0
 10
132.7319231507813
 20
236.3306284498863
 30
0.0
 10
131.1760341458172
 20
236.8104445870763
 30
0.0
 10
129.4767693769957
 20
237.2400781045258
 30
0.0
 10
128.0112459906875
 20
237.546111949224
 30
0.0
 10
126.678535377317
 20
237.7741407776001
 30
0.0
 10
125.3880003837742
 20
237.9490861758527
 30
0.0
 10
124.1359960297969
 20
238.075306428917
 30
0.0
 10
122.9243680459363
 20
238.1606025251475
 30
0.0
 10
122.1297313205978
 20
238.1851935307456
 30
0.0
 10
121.7397262563355
 20
238.1972627145786
 30
0.0
  0
SPLINE
  5
219
330
1F
100
AcDbEntity
  8
0
  6
Continuous
 62
     8
370
    18
100
AcDbSpline
210
0.0
220
0.0
230
1.0
 70
     8
 71
     3
 72
     8
 73
     4
 74
     0
 42
0.000000001
 43
0.00000001
 40
0.0
 40
0.0
 40
0.0
 40
0.0
 40
1.0
 40
1.0
 40
1.0
 40
1.0
 10
144.2204450555349
 20
230.0793398187129
 30
0.0
 10
144.2207290979155
 20
230.0886180201049
 30
0.0
 10
144.2209647608716
 20
230.0976846195591
 30
0.0
 10
144.2211604515747
 20
230.1066542860122
 30
0.0
  0
SPLINE
  5
21A
330
1F
100
AcDbEntity
  8
0
  6
Continuous
 62
     8
370
    18
100
AcDbSpline
210
0.0
220
0.0
230
1.0
 70
     8
 71
     3
 72
    30
 73
    26
 74
     0
 42
0.000000001
 43
0.00000001
 40
0.0
 40
0.0
 40
0.0
 40
0.0
 40
0.1250000000000003
 40
0.1250000000000003
 40
0.2500000000000006
 40
0.2500000000000006
 40
0.3750000000000007
 40
0.3750000000000007
 40
0.4375000000000009
 40
0.4375000000000009
 40
0.5000000000000011
 40
0.5000000000000011
 40
0.5625000000000011
 40
0.5625000000000011
 40
0.6250000000000012
 40
0.6250000000000012
 40
0.6875000000000012
 40
0.6875000000000012
 40
0.7500000000000013
 40
0.7500000000000013
 40
0.8125000000000013
 40
0.8125000000000013
 40
0.8750000000000013
 40
0.8750000000000013
 40
1.0
 40
1.0
 40
1.0
 40
1.0
 10
120.9123654058039
 20
119.3943952750034
 30
0.0
 10
122.1309076961518
 20
119.3974644604156
 30
0.0
 10
123.3503130307983
 20
119.4054533599961
 30
0.0
 10
125.7898526918665
 20
119.4412342477326
 30
0.0
 10
127.0096169458209
 20
119.4685503706309
 30
0.0
 10
129.4495088246142
 20
119.5430065075425
 30
0.0
 10
130.6703518422037
 20
119.5847621496174
 30
0.0
 10
132.5003836601585
 20
119.6742623475366
 30
0.0
 10
133.1102566485184
 20
119.704584893869
 30
0.0
 10
134.3281188562401
 20
119.8073775752411
 30
0.0
 10
134.9370227022374
 20
119.881119960931
 30
0.0
 10
136.1492798169001
 20
120.1356129721362
 30
0.0
 10
136.7482109588861
 20
120.3132844429833
 30
0.0
 10
137.8863130172395
 20
120.8299630909901
 30
0.0
 10
138.4270950135954
 20
121.1735569565875
 30
0.0
 10
139.3733837476655
 20
121.9854585242087
 30
0.0
 10
139.7892291740701
 20
122.4591345123914
 30
0.0
 10
140.5034341589
 20
123.4867551370054
 30
0.0
 10
140.7972298439035
 20
124.0377507223976
 30
0.0
 10
141.2772928371464
 20
125.1796484187503
 30
0.0
 10
141.4644603353358
 20
125.7712455235917
 30
0.0
 10
141.7581424932426
 20
126.9658951445515
 30
0.0
 10
141.86515653321
 20
127.5655933181199
 30
0.0
 10
142.09777359874
 20
129.3676328909516
 30
0.0
 10
142.1359870082107
 20
130.5789247507073
 30
0.0
 10
142.164552873086
 20
131.789836846036
 30
0.0
  0
SPLINE
  5
21B
330
1F
100
AcDbEntity
  8
0
  6
Continuous
 62
     8
370
    18
100
AcDbSpline
210
0.0
220
0.0
230
1.0
 70
     8
 71
     3
 72
    14
 73
    10
 74
     0
 42
0.000000001
 43
0.00000001
 40
0.0
 40
0.0
 40
0.0
 40
0.0
 40
0.5000000000000002
 40
0.5000000000000002
 40
0.7500000000000003
 40
0.7500000000000003
 40
0.8750000000000002
 40
0.8750000000000002
 40
1.0
 40
1.0
 40
1.0
 40
1.0
 10
143.1905503179217
 20
183.8191404290691
 30
0.0
 10
143.2866597511771
 20
189.4138695392917
 30
0.0
 10
143.3777052387511
 20
195.008392589638
 30
0.0
 10
143.512040947029
 20
203.400992448539
 30
0.0
 10
143.555419941186
 20
206.1985768977123
 30
0.0
 10
143.6207373141895
 20
210.3953906570858
 30
0.0
 10
143.6425479188665
 20
211.7961481477976
 30
0.0
 10
143.6839371415226
 20
214.59519317459
 30
0.0
 10
143.7028096603034
 20
215.9709658109232
 30
0.0
 10
143.7250502682406
 20
217.3957648216596
 30
0.0
  0
SPLINE
  5
21C
330
1F
100
AcDbEntity
  8
0
  6
Continuous
 62
     8
370
    18
100
AcDbSpline
210
0.0
220
0.0
230
1.0
 70
     8
 71
     3
 72
     8
 73
     4
 74
     0
 42
0.000000001
 43
0.00000001
 40
0.0
 40
0.0
 40
0.0
 40
0.0
 40
1.0
 40
1.0
 40
1.0
 40
1.0
 10
142.6561737240261
 20
154.9419937801482
 30
0.0
 10
142.8530199150832
 20
164.5678219273468
 30
0.0
 10
143.0200024248817
 20
174.1945001633809
 30
0.0
 10
143.1916213448961
 20
183.8206969328156
 30
0.0
  0
SPLINE
  5
21D
330
1F
100
AcDbEntity
  8
0
  6
Continuous
 62
     8
370
    18
100
AcDbSpline
210
0.0
220
0.0
230
1.0
 70
     8
 71
     3
 72
     8
 73
     4
 74
     0
 42
0.000000001
 43
0.00000001
 40
0.0
 40
0.0
 40
0.0
 40
0.0
 40
1.0
 40
1.0
 40
1.0
 40
1.0
 10
142.1647452935287
 20
131.7898354336432
 30
0.0
 10
142.3467870463267
 20
139.5126111875382
 30
0.0
 10
142.4997189126684
 20
147.2240505490035
 30
0.0
 10
142.6548995293941
 20
154.9418266108658
 30
0.0
  0
SPLINE
  5
21E
330
1F
100
AcDbEntity
  8
0
  6
Continuous
 62
     8
370
    18
100
AcDbSpline
210
0.0
220
0.0
230
1.0
 70
     8
 71
     3
 72
    12
 73
     8
 74
     0
 42
0.000000001
 43
0.00000001
 40
0.0
 40
0.0
 40
0.0
 40
0.0
 40
0.5
 40
0.5
 40
0.75
 40
0.75
 40
1.0
 40
1.0
 40
1.0
 40
1.0
 10
98.63310364619288
 20
183.8206969328156
 30
0.0
 10
98.71651883068527
 20
179.006077435065
 30
0.0
 10
98.80291537142713
 20
174.1914913951122
 30
0.0
 10
98.9368611398683
 20
166.9695976418799
 30
0.0
 10
98.98223435077502
 20
164.5622991631579
 30
0.0
 10
99.07441078048981
 20
159.7476872928347
 30
0.0
 10
99.12126529344529
 20
157.3375654267713
 30
0.0
 10
99.16855126706291
 20
154.9419937801482
 30
0.0
  0
SPLINE
  5
21F
330
1F
100
AcDbEntity
  8
0
  6
Continuous
 62
     8
370
    18
100
AcDbSpline
210
0.0
220
0.0
230
1.0
 70
     8
 71
     3
 72
    18
 73
    14
 74
     0
 42
0.000000001
 43
0.00000001
 40
0.0
 40
0.0
 40
0.0
 40
0.0
 40
0.0625
 40
0.0625
 40
0.1250000000000001
 40
0.1250000000000001
 40
0.2500000000000002
 40
0.2500000000000002
 40
0.3750000000000003
 40
0.3750000000000003
 40
0.5000000000000003
 40
0.5000000000000003
 40
1.0
 40
1.0
 40
1.0
 40
1.0
 10
98.09967472284848
 20
217.3957648216596
 30
0.0
 10
98.11014752371938
 20
216.6972641027754
 30
0.0
 10
98.12051454875034
 20
216.0031108459239
 30
0.0
 10
98.14122478032836
 20
214.6089751974177
 30
0.0
 10
98.15156772977134
 20
213.9092792700293
 30
0.0
 10
98.18281628974403
 20
211.8097175264562
 30
0.0
 10
98.20398064263253
 20
210.4103491401406
 30
0.0
 10
98.24661136574464
 20
207.6085240429143
 30
0.0
 10
98.26807138151896
 20
206.2059164896348
 30
0.0
 10
98.3114222192875
 20
203.4061902899363
 30
0.0
 10
98.3333442307855
 20
202.0075649514528
 30
0.0
 10
98.44431670112738
 20
195.0119222976441
 30
0.0
 10
98.53722649171893
 20
189.4155063065294
 30
0.0
 10
98.63417467316734
 20
183.8191404290691
 30
0.0
  0
SPLINE
  5
220
330
1F
100
AcDbEntity
  8
0
  6
Continuous
 62
     8
370
    18
100
AcDbSpline
210
0.0
220
0.0
230
1.0
 70
     8
 71
     3
 72
    31
 73
    27
 74
     0
 42
0.000000001
 43
0.00000001
 40
0.0
 40
0.0
 40
0.0
 40
0.0
 40
0.0328670821445932
 40
0.0608240725504226
 40
0.0838554416883681
 40
0.1019520784733158
 40
0.1151118443386605
 40
0.1233329164832166
 40
0.1574154214644924
 40
0.189549248346264
 40
0.2198323680708034
 40
0.2483488389357779
 40
0.2981518162263346
 40
0.340556463317731
 40
0.3752290146364619
 40
0.4389560596180566
 40
0.4702647543288793
 40
0.5022621470455401
 40
0.5320024215783781
 40
0.5648286015643506
 40
0.5909596571189658
 40
0.6270615145918991
 40
0.682838895564781
 40
0.7514800023521243
 40
0.8718960413785697
 40
1.0
 40
1.0
 40
1.0
 40
1.0
 10
99.66017211800305
 20
131.789836846036
 30
0.0
 10
99.66862187122953
 20
131.4673255305456
 30
0.0
 10
99.68425904890842
 20
130.8704836336769
 30
0.0
 10
99.72067465081955
 20
130.0481307589602
 30
0.0
 10
99.76338216476361
 20
129.3713107831277
 30
0.0
 10
99.80780313269958
 20
128.8402594886196
 30
0.0
 10
99.84704370708347
 20
128.454727907311
 30
0.0
 10
99.91150881063382
 20
127.9141369817599
 30
0.0
 10
100.0253192442945
 20
127.1918905737329
 30
0.0
 10
100.2279364079553
 20
126.2660162341204
 30
0.0
 10
100.4771324443119
 20
125.4080833209913
 30
0.0
 10
100.8494736726324
 20
124.4083669110019
 30
0.0
 10
101.3907615740268
 20
123.3479656451233
 30
0.0
 10
102.1316011919686
 20
122.3403740850224
 30
0.0
 10
103.1076080338128
 20
121.3563585078115
 30
0.0
 10
104.2007013983376
 20
120.6632778175966
 30
0.0
 10
105.3710176838818
 20
120.226965379879
 30
0.0
 10
106.2573721802744
 20
120.0001727374522
 30
0.0
 10
107.1735846595828
 20
119.8477731895888
 30
0.0
 10
108.039645634954
 20
119.7559108699104
 30
0.0
 10
108.9705430328194
 20
119.693972595428
 30
0.0
 10
110.1271014560661
 20
119.6326349654692
 30
0.0
 10
111.7012146739461
 20
119.5670554990693
 30
0.0
 10
114.1029591333375
 20
119.4860452889265
 30
0.0
 10
117.2154617672166
 20
119.4142205607043
 30
0.0
 10
119.6549068298083
 20
119.4013701917304
 30
0.0
 10
120.912361249232
 20
119.3947462453644
 30
0.0
  0
SPLINE
  5
221
330
1F
100
AcDbEntity
  8
0
  6
Continuous
 62
     8
370
    18
100
AcDbSpline
210
0.0
220
0.0
230
1.0
 70
     8
 71
     3
 72
    13
 73
     9
 74
     0
 42
0.000000001
 43
0.00000001
 40
0.0
 40
0.0
 40
0.0
 40
0.0
 40
0.2056971635655149
 40
0.4999097349381507
 40
0.6259209157343903
 40
0.7511120165943076
 40
0.8758306052801009
 40
1.0
 40
1.0
 40
1.0
 40
1.0
 10
99.16982546169496
 20
154.9418266108657
 30
0.0
 10
99.2017700722624
 20
153.3543583482729
 30
0.0
 10
99.2794056678373
 20
149.4963039900135
 30
0.0
 10
99.3781618548901
 20
144.6657892928976
 30
0.0
 10
99.4675607585705
 20
140.4566453383987
 30
0.0
 10
99.53283915697111
 20
137.5556224059878
 30
0.0
 10
99.60099940938896
 20
134.6688829308352
 30
0.0
 10
99.64034854398432
 20
132.7481051424273
 30
0.0
 10
99.6599796975603
 20
131.7898354336432
 30
0.0
  0
SPLINE
  5
222
330
1F
100
AcDbEntity
  8
0
  6
Continuous
 62
     8
370
    18
100
AcDbSpline
210
0.0
220
0.0
230
1.0
 70
     8
 71
     3
 72
    11
 73
     7
 74
     0
 42
0.000000001
 43
0.00000001
 40
0.0
 40
0.0
 40
0.0
 40
0.0
 40
0.1325385494864973
 40
0.4279190948589177
 40
0.7232996402313446
 40
1.0
 40
1.0
 40
1.0
 40
1.0
 10
143.5767849212858
 20
154.9230673274604
 30
0.0
 10
143.5706316869565
 20
154.9232000271755
 30
0.0
 10
143.5507651162503
 20
154.9236284666158
 30
0.0
 10
143.3622673036469
 20
154.9274783432072
 30
0.0
 10
143.0476880828907
 20
154.9338735018727
 30
0.0
 10
142.7829475183858
 20
154.9392339191905
 30
0.0
 10
142.6548995293941
 20
154.9418266108658
 30
0.0
  0
SPLINE
  5
223
330
1F
100
AcDbEntity
  8
0
  6
Continuous
 62
     8
370
    18
100
AcDbSpline
210
0.0
220
0.0
230
1.0
 70
     8
 71
     3
 72
    11
 73
     7
 74
     0
 42
0.000000001
 43
0.00000001
 40
0.0
 40
0.0
 40
0.0
 40
0.0
 40
0.1327226245454126
 40
0.4281668426758905
 40
0.7235110482310918
 40
1.0
 40
1.0
 40
1.0
 40
1.0
 10
98.24884969096563
 20
154.9229250241774
 30
0.0
 10
98.2548761015001
 20
154.9230604446387
 30
0.0
 10
98.27431746788393
 20
154.923497314777
 30
0.0
 10
98.46262407026792
 20
154.9274189731916
 30
0.0
 10
98.77715429789235
 20
154.9339273390859
 30
0.0
 10
99.04184181694538
 20
154.9393740390624
 30
0.0
 10
99.16982175961213
 20
154.9420075910833
 30
0.0
  0
SPLINE
  5
224
330
1F
100
AcDbEntity
  8
0
  6
Continuous
 62
     8
370
    18
100
AcDbSpline
210
0.0
220
0.0
230
1.0
 70
     8
 71
     3
 72
    11
 73
     7
 74
     0
 42
0.000000001
 43
0.00000001
 40
0.0
 40
0.0
 40
0.0
 40
0.0
 40
0.1166586013512551
 40
0.4179730615103976
 40
0.7192875216695283
 40
1.0
 40
1.0
 40
1.0
 40
1.0
 10
144.0914619346224
 20
183.801623232467
 30
0.0
 10
144.0885400242752
 20
183.8017107394691
 30
0.0
 10
144.0780711878661
 20
183.8020242660257
 30
0.0
 10
143.8992039723774
 20
183.8058721101708
 30
0.0
 10
143.5872118736708
 20
183.8124645935705
 30
0.0
 10
143.3203359898647
 20
183.8180183484054
 30
0.0
 10
143.1916213448961
 20
183.8206969328156
 30
0.0
  0
SPLINE
  5
225
330
1F
100
AcDbEntity
  8
0
  6
Continuous
 62
     8
370
    18
100
AcDbSpline
210
0.0
220
0.0
230
1.0
 70
     8
 71
     3
 72
    11
 73
     7
 74
     0
 42
0.000000001
 43
0.00000001
 40
0.0
 40
0.0
 40
0.0
 40
0.0
 40
0.11675313437177
 40
0.4180377316906674
 40
0.719322981768803
 40
1.0
 40
1.0
 40
1.0
 40
1.0
 10
97.73519062081716
 20
183.8021967378503
 30
0.0
 10
97.73804233925168
 20
183.8022699307491
 30
0.0
 10
97.74825299365686
 20
183.8025319998883
 30
0.0
 10
97.92661725329855
 20
183.8061236179033
 30
0.0
 10
98.23801067857674
 20
183.8123177717447
 30
0.0
 10
98.50455923140191
 20
183.8175653507908
 30
0.0
 10
98.63311404860363
 20
183.8200962276531
 30
0.0
  0
SPLINE
  5
226
330
1F
100
AcDbEntity
  8
0
  6
Continuous
 62
     8
370
    18
100
AcDbSpline
210
0.0
220
0.0
230
1.0
 70
     8
 71
     3
 72
    22
 73
    18
 74
     0
 42
0.000000001
 43
0.00000001
 40
0.0
 40
0.0
 40
0.0
 40
0.0
 40
0.0502544667615493
 40
0.0920361054864895
 40
0.1253619388885753
 40
0.191721318181686
 40
0.251563150592522
 40
0.3760830850682411
 40
0.5029554873154015
 40
0.5848817146136316
 40
0.6670327474011036
 40
0.7509942825137448
 40
0.79089143641377
 40
0.832234711397169
 40
0.8751977777490197
 40
0.9332217085027588
 40
1.0
 40
1.0
 40
1.0
 40
1.0
 10
97.12611584598153
 20
217.3957636191343
 30
0.0
 10
97.12191502940898
 20
217.6741444598005
 30
0.0
 10
97.11422164766373
 20
218.1839715471825
 30
0.0
 10
97.10372805375683
 20
218.8781900487381
 30
0.0
 10
97.09183745070551
 20
219.6607850562409
 30
0.0
 10
97.07837872832077
 20
220.5402934441613
 30
0.0
 10
97.05741301029818
 20
221.9029127360904
 30
0.0
 10
97.03227096397049
 20
223.5234304940709
 30
0.0
 10
97.00831348738842
 20
225.04918454024
 30
0.0
 10
96.99041252750563
 20
226.1933511474577
 30
0.0
 10
96.97741582751904
 20
227.020976827984
 30
0.0
 10
96.9687190931863
 20
227.5783466268488
 30
0.0
 10
96.96313289526212
 20
227.9418719840861
 30
0.0
 10
96.95961062695504
 20
228.1706985964301
 30
0.0
 10
96.9563448478984
 20
228.3857640392925
 30
0.0
 10
96.95348938080437
 20
228.5822532776656
 30
0.0
 10
96.95208117279502
 20
228.686819213482
 30
0.0
 10
96.95132767880077
 20
228.74276961578
 30
0.0
  0
ARC
  5
227
330
1F
100
AcDbEntity
  8
0
  6
Continuous
 62
     8
370
    18
100
AcDbCircle
 10
98.6423789574
 20
228.7444212536
 30
0.0
 40
1.691052085179947
100
AcDbArc
 50
127.8704110354
 51
180.055960363
  0
SPLINE
  5
228
330
1F
100
AcDbEntity
  8
0
  6
Continuous
 62
     8
370
    18
100
AcDbSpline
210
0.0
220
0.0
230
1.0
 70
     8
 71
     3
 72
    16
 73
    12
 74
     0
 42
0.000000001
 43
0.00000001
 40
0.0
 40
0.0
 40
0.0
 40
0.0
 40
0.125
 40
0.125
 40
0.25
 40
0.25
 40
0.5
 40
0.5
 40
0.75
 40
0.75
 40
1.0
 40
1.0
 40
1.0
 40
1.0
 10
144.8733973122882
 20
228.74276961578
 30
0.0
 10
144.8720602470104
 20
228.6450707602375
 30
0.0
 10
144.8704651766462
 20
228.526264727514
 30
0.0
 10
144.8653873912224
 20
228.1873262824765
 30
0.0
 10
144.8618993706798
 20
227.9620953658133
 30
0.0
 10
144.8483650866537
 20
227.0822663991352
 30
0.0
 10
144.8351651883172
 20
226.2467180689635
 30
0.0
 10
144.8025231468894
 20
224.1636911598575
 30
0.0
 10
144.782894972076
 20
222.911155119957
 30
0.0
 10
144.7408016850666
 20
220.1827858644447
 30
0.0
 10
144.7194955454882
 20
218.7771917143968
 30
0.0
 10
144.6986091451075
 20
217.3957636191343
 30
0.0
  0
ARC
  5
229
330
1F
100
AcDbEntity
  8
0
  6
Continuous
 62
     8
370
    18
100
AcDbCircle
 10
143.1823460337
 20
228.7444212536
 30
0.0
 40
1.691052085144618
100
AcDbArc
 50
359.9440396364
 51
52.1295889652
  0
LINE
  5
22A
330
1F
100
AcDbEntity
  8
0
  6
Continuous
 62
     8
370
    18
100
AcDbLine
 10
96.995256741
 20
224.1662012811
 30
0.0
 11
96.9860395738
 21
224.8038828797
 31
0.0
  0
LINE
  5
22B
330
1F
100
AcDbEntity
  8
0
  6
Continuous
 62
     8
370
    18
100
AcDbLine
 10
97.126115846
 20
217.3957636191
 30
0.0
 11
97.124695578
 21
217.3957636191
 31
0.0
  0
LWPOLYLINE
  5
22C
330
1F
100
AcDbEntity
  8
0
  6
Continuous
 62
     8
370
    18
100
AcDbPolyline
 90
        3
 70
   128
 43
0.0
 10
96.9509536422
 20
228.7705600015
 10
96.9391025608
 20
229.9294263219
 10
96.9382288492
 20
230.0304113344
  0
LINE
  5
22D
330
1F
100
AcDbEntity
  8
0
  6
Continuous
 62
     8
370
    18
100
AcDbLine
 10
144.6986091451
 20
217.3957636191
 30
0.0
 11
144.7000316073
 21
217.3957636191
 31
0.0
  0
LINE
  5
22E
330
1F
100
AcDbEntity
  8
0
  6
Continuous
 62
     8
370
    18
100
AcDbLine
 10
144.82006892
 20
223.6822789107
 30
0.0
 11
144.831951754
 21
224.809876588
 31
0.0
  0
LINE
  5
22F
330
1F
100
AcDbEntity
  8
0
  6
Continuous
 62
     8
370
    18
100
AcDbLine
 10
144.8737713488
 20
228.7705600015
 30
0.0
 11
144.8856161369
 21
230.0308602169
 31
0.0
  0
SPLINE
  5
230
330
1F
100
AcDbEntity
  8
0
  6
Continuous
 62
     8
370
    18
100
AcDbSpline
210
0.0
220
0.0
230
1.0
 70
     8
 71
     3
 72
    10
 73
     6
 74
     0
 42
0.000000001
 43
0.00000001
 40
0.0
 40
0.0
 40
0.0
 40
0.0
 40
0.5
 40
0.5
 40
1.0
 40
1.0
 40
1.0
 40
1.0
 10
144.2208972874441
 20
230.1068554039103
 30
0.0
 10
144.2256912805882
 20
230.4537221892417
 30
0.0
 10
144.2297936831287
 20
230.7736722522188
 30
0.0
 10
144.2379493197494
 20
231.4302218693036
 30
0.0
 10
144.2419549289917
 20
231.7647118609543
 30
0.0
 10
144.2460229537135
 20
232.0953265748546
 30
0.0
  0
SPLINE
  5
231
330
1F
100
AcDbEntity
  8
0
  6
Continuous
 62
     8
370
    18
100
AcDbSpline
210
0.0
220
0.0
230
1.0
 70
     8
 71
     3
 72
    18
 73
    14
 74
     0
 42
0.000000001
 43
0.00000001
 40
0.0
 40
0.0
 40
0.0
 40
0.0
 40
0.25
 40
0.25
 40
0.5
 40
0.5
 40
0.75
 40
0.75
 40
0.8750000000000014
 40
0.8750000000000014
 40
0.9375000000000008
 40
0.9375000000000008
 40
1.0
 40
1.0
 40
1.0
 40
1.0
 10
97.57873075103817
 20
232.0955032692605
 30
0.0
 10
97.58080232056672
 20
231.9304918765375
 30
0.0
 10
97.58287667689976
 20
231.7652153448041
 30
0.0
 10
97.58704406387777
 20
231.433098914363
 30
0.0
 10
97.58914065968389
 20
231.2659473465112
 30
0.0
 10
97.59331430383577
 20
230.9342565027955
 30
0.0
 10
97.59538216568633
 20
230.7705535810409
 30
0.0
 10
97.59846900009347
 20
230.5270886061112
 30
0.0
 10
97.59950677558305
 20
230.4453512114498
 30
0.0
 10
97.60110486641781
 20
230.3201304285848
 30
0.0
 10
97.60164350157132
 20
230.2780303014507
 30
0.0
 10
97.60273414959181
 20
230.1930710842535
 30
0.0
 10
97.60328938787072
 20
230.1502297086074
 30
0.0
 10
97.6038277036449
 20
230.1068554039103
 30
0.0
  0
SPLINE
  5
232
330
1F
100
AcDbEntity
  8
0
  6
Continuous
 62
     8
370
    18
100
AcDbSpline
210
0.0
220
0.0
230
1.0
 70
     8
 71
     3
 72
    10
 73
     6
 74
     0
 42
0.000000001
 43
0.00000001
 40
0.0
 40
0.0
 40
0.0
 40
0.0
 40
0.5
 40
0.5
 40
1.0
 40
1.0
 40
1.0
 40
1.0
 10
144.2211604515747
 20
230.1066542860122
 30
0.0
 10
144.4173939036026
 20
229.9532271118808
 30
0.0
 10
144.5883707158438
 20
229.7469536287514
 30
0.0
 10
144.8174282202905
 20
229.2774887199022
 30
0.0
 10
144.8743490324682
 20
229.0166745268033
 30
0.0
 10
144.8737561444865
 20
228.7691264969615
 30
0.0
  0
SPLINE
  5
233
330
1F
100
AcDbEntity
  8
0
  6
Continuous
 62
     8
370
    18
100
AcDbSpline
210
0.0
220
0.0
230
1.0
 70
     8
 71
     3
 72
    10
 73
     6
 74
     0
 42
0.000000001
 43
0.00000001
 40
0.0
 40
0.0
 40
0.0
 40
0.0
 40
0.5
 40
0.5
 40
1.0
 40
1.0
 40
1.0
 40
1.0
 10
96.95096839725615
 20
228.7691605931967
 30
0.0
 10
96.95037846240334
 20
229.0164997640106
 30
0.0
 10
97.0072241600812
 20
229.2770995967412
 30
0.0
 10
97.23629029025894
 20
229.7461919400536
 30
0.0
 10
97.40730243292883
 20
229.9522937998704
 30
0.0
 10
97.60357408190036
 20
230.1055617957966
 30
0.0
  0
LINE
  5
234
330
1F
100
AcDbEntity
  8
0
  6
Continuous
 62
     8
370
    18
100
AcDbLine
 10
142.7553600005
 20
127.4501707536
 30
0.0
 11
142.6400035252
 21
118.0834057094
 31
0.0
  0
SPLINE
  5
235
330
1F
100
AcDbEntity
  8
0
  6
Continuous
 62
     8
370
    18
100
AcDbSpline
210
0.0
220
0.0
230
1.0
 70
     8
 71
     3
 72
    30
 73
    26
 74
     0
 42
0.000000001
 43
0.00000001
 40
0.0
 40
0.0
 40
0.0
 40
0.0
 40
0.1250000000000014
 40
0.1250000000000014
 40
0.1875000000000023
 40
0.1875000000000023
 40
0.2500000000000031
 40
0.2500000000000031
 40
0.312500000000004
 40
0.312500000000004
 40
0.3437500000000042
 40
0.3437500000000042
 40
0.3750000000000046
 40
0.3750000000000046
 40
0.4375000000000043
 40
0.4375000000000043
 40
0.500000000000004
 40
0.500000000000004
 40
0.5625000000000037
 40
0.5625000000000037
 40
0.6250000000000033
 40
0.6250000000000033
 40
0.750000000000002
 40
0.750000000000002
 40
1.0
 40
1.0
 40
1.0
 40
1.0
 10
120.9123624955457
 20
86.06939197221467
 30
0.0
 10
122.9637596982105
 20
86.06530762943147
 30
0.0
 10
125.0152937023577
 20
86.09462501685913
 30
0.0
 10
128.0925779457836
 20
86.17733854866582
 30
0.0
 10
129.1184838031059
 20
86.21245180107616
 30
0.0
 10
131.1703829076312
 20
86.30057178483715
 30
0.0
 10
132.1958513248823
 20
86.34646303254169
 30
0.0
 10
134.2523974942136
 20
86.49920496426407
 30
0.0
 10
135.2912147910879
 20
86.61473836662275
 30
0.0
 10
136.8111186868636
 20
87.01078659974269
 30
0.0
 10
137.3081629220247
 20
87.17938146637756
 30
0.0
 10
138.2653740958931
 20
87.62808816812499
 30
0.0
 10
138.7269149889162
 20
87.91369568591429
 30
0.0
 10
139.9542059388929
 20
88.90661314601232
 30
0.0
 10
140.6002937267136
 20
89.77233174808168
 30
0.0
 10
141.5069074853143
 20
91.63446464131268
 30
0.0
 10
141.7849207154709
 20
92.64113107429027
 30
0.0
 10
142.1500044062037
 20
94.6519781727622
 30
0.0
 10
142.2395156188952
 20
95.67587463890851
 30
0.0
 10
142.3369877577535
 20
97.71622588636886
 30
0.0
 10
142.3516503526772
 20
98.73655847005705
 30
0.0
 10
142.4057284903391
 20
101.791379288913
 30
0.0
 10
142.4356668366049
 20
103.8284397215848
 30
0.0
 10
142.5259010218718
 20
109.9393223190016
 30
0.0
 10
142.5835169043117
 20
114.0099654564098
 30
0.0
 10
142.6398862134947
 20
118.0831036470845
 30
0.0
  0
SPLINE
  5
236
330
1F
100
AcDbEntity
  8
0
  6
Continuous
 62
     8
370
    18
100
AcDbSpline
210
0.0
220
0.0
230
1.0
 70
     8
 71
     3
 72
    35
 73
    31
 74
     0
 42
0.000000001
 43
0.00000001
 40
0.0
 40
0.0
 40
0.0
 40
0.0
 40
0.096819436545353
 40
0.1703961771368463
 40
0.2207380534186157
 40
0.2479116749227523
 40
0.3087043658044432
 40
0.3616691754616851
 40
0.4068518199074378
 40
0.4443033495249589
 40
0.4740895224761122
 40
0.4962346416741859
 40
0.5309778708402615
 40
0.5589037814577901
 40
0.5934380802046022
 40
0.6225470940261234
 40
0.6438417881059347
 40
0.6652813381542548
 40
0.6867611701718528
 40
0.7055456120608204
 40
0.7266387930728253
 40
0.7500303412321747
 40
0.7698399264013011
 40
0.7922706834901285
 40
0.8172996654140494
 40
0.8449142614513193
 40
0.8751143708028937
 40
0.9183810778400859
 40
0.9599154751494414
 40
1.0
 40
1.0
 40
1.0
 40
1.0
 10
99.18483877759425
 20
118.0831036470844
 30
0.0
 10
99.20700144999195
 20
116.4925956778106
 30
0.0
 10
99.24600637283032
 20
113.6934007295628
 30
0.0
 10
99.29776884287139
 20
110.0672285231445
 30
0.0
 10
99.33376553862176
 20
107.5851703830227
 30
0.0
 10
99.3668085326702
 20
105.313122944287
 30
0.0
 10
99.4038937417929
 20
102.9980360176124
 30
0.0
 10
99.44942308639006
 20
100.3871889095563
 30
0.0
 10
99.47540850707372
 20
98.15952264096941
 30
0.0
 10
99.54641217992308
 20
96.31354354850305
 30
0.0
 10
99.67062150824127
 20
94.84953073336274
 30
0.0
 10
99.87404224179926
 20
93.43952335154309
 30
0.0
 10
100.1989071622033
 20
92.08031382899885
 30
0.0
 10
100.7747707718506
 20
90.58532492382538
 30
0.0
 10
101.5776386281339
 20
89.29753305364972
 30
0.0
 10
102.5627404588296
 20
88.29298736378279
 30
0.0
 10
103.547012202999
 20
87.63177333811599
 30
0.0
 10
104.5057099784326
 20
87.18353756377999
 30
0.0
 10
105.4732756775103
 20
86.8734264770862
 30
0.0
 10
106.4605731785489
 20
86.66620707223869
 30
0.0
 10
107.4897243236079
 20
86.51849529055862
 30
0.0
 10
108.5416219825679
 20
86.42258923639145
 30
0.0
 10
109.6173480905218
 20
86.35364398483429
 30
0.0
 10
110.7206450958582
 20
86.29411304690305
 30
0.0
 10
111.9526324908506
 20
86.24019955564707
 30
0.0
 10
113.312609281469
 20
86.19116557143198
 30
0.0
 10
114.9724191026046
 20
86.14192639881279
 30
0.0
 10
116.8612601882
 20
86.09957879491252
 30
0.0
 10
118.9128610862829
 20
86.07151675933868
 30
0.0
 10
120.2538021515521
 20
86.07009179728516
 30
0.0
 10
120.9123624955445
 20
86.06939197271834
 30
0.0
  0
LINE
  5
237
330
1F
100
AcDbEntity
  8
0
  6
Continuous
 62
     8
370
    18
100
AcDbLine
 10
99.0615517955
 20
127.5073846986
 30
0.0
 11
99.1847214659
 21
118.0834057094
 31
0.0
  0
SPLINE
  5
238
330
1F
100
AcDbEntity
  8
0
  6
Continuous
 62
     8
370
    18
100
AcDbSpline
210
0.0
220
0.0
230
1.0
 70
     8
 71
     3
 72
    11
 73
     7
 74
     0
 42
0.000000001
 43
0.00000001
 40
0.0
 40
0.0
 40
0.0
 40
0.0
 40
0.2386863549780587
 40
0.5007286538566089
 40
0.7791558806775345
 40
1.0
 40
1.0
 40
1.0
 40
1.0
 10
97.75059461559223
 20
234.9565616028092
 30
0.0
 10
97.7512573552472
 20
234.8744177174448
 30
0.0
 10
97.75264768497644
 20
234.7020920009418
 30
0.0
 10
97.76440683494637
 20
234.303137784218
 30
0.0
 10
97.79061484485885
 20
233.5171237672698
 30
0.0
 10
97.83829974250104
 20
232.665259136326
 30
0.0
 10
97.85939233935466
 20
232.2884514231337
 30
0.0
  0
SPLINE
  5
239
330
1F
100
AcDbEntity
  8
0
  6
Continuous
 62
     8
370
    18
100
AcDbSpline
210
0.0
220
0.0
230
1.0
 70
     8
 71
     3
 72
    11
 73
     7
 74
     0
 42
0.000000001
 43
0.00000001
 40
0.0
 40
0.0
 40
0.0
 40
0.0
 40
0.2391792034179307
 40
0.5017625769557117
 40
0.7807647106428851
 40
1.0
 40
1.0
 40
1.0
 40
1.0
 10
144.0741303754968
 20
234.9565616028092
 30
0.0
 10
144.0734683865763
 20
234.8744259981927
 30
0.0
 10
144.0720796317769
 20
234.7021176534737
 30
0.0
 10
144.0603075090992
 20
234.3030203452468
 30
0.0
 10
144.0342197899058
 20
233.5196781685455
 30
0.0
 10
143.9867535602086
 20
232.6715704978865
 30
0.0
 10
143.9658673880323
 20
232.2983846993433
 30
0.0
  0
SPLINE
  5
23A
330
1F
100
AcDbEntity
  8
0
  6
Continuous
 62
     8
370
    18
100
AcDbSpline
210
0.0
220
0.0
230
1.0
 70
     8
 71
     3
 72
    10
 73
     6
 74
     0
 42
0.000000001
 43
0.00000001
 40
0.0
 40
0.0
 40
0.0
 40
0.0
 40
0.3360052416072556
 40
0.694986926643149
 40
0.9999999999999999
 40
0.9999999999999999
 40
0.9999999999999999
 40
0.9999999999999999
 10
97.57516626067248
 20
155.8558882000352
 30
0.0
 10
97.5869564406317
 20
155.8559855249907
 30
0.0
 10
97.61134302726718
 20
155.8561868300995
 30
0.0
 10
97.84450811812087
 20
155.8584116032563
 30
0.0
 10
98.09851198444917
 20
155.860867212577
 30
0.0
 10
98.21519136923958
 20
155.861995222906
 30
0.0
  0
SPLINE
  5
23B
330
1F
100
AcDbEntity
  8
0
  6
Continuous
 62
     8
370
    18
100
AcDbSpline
210
0.0
220
0.0
230
1.0
 70
     8
 71
     3
 72
    10
 73
     6
 74
     0
 42
0.000000001
 43
0.00000001
 40
0.0
 40
0.0
 40
0.0
 40
0.0
 40
0.3360544922614944
 40
0.6950868010145963
 40
1.0
 40
1.0
 40
1.0
 40
1.0
 10
144.2498431350888
 20
155.8550497322676
 30
0.0
 10
144.2380367805426
 20
155.8551930922674
 30
0.0
 10
144.2136168087755
 20
155.8554896145455
 30
0.0
 10
143.980413178262
 20
155.8580850690455
 30
0.0
 10
143.7264121825269
 20
155.8608867674791
 30
0.0
 10
143.6097636695806
 20
155.8621734315532
 30
0.0
  0
SPLINE
  5
23C
330
1F
100
AcDbEntity
  8
0
  6
Continuous
 62
     8
370
    18
100
AcDbSpline
210
0.0
220
0.0
230
1.0
 70
     8
 71
     3
 72
    10
 73
     6
 74
     0
 42
0.000000001
 43
0.00000001
 40
0.0
 40
0.0
 40
0.0
 40
0.0
 40
0.5
 40
0.5
 40
1.0
 40
1.0
 40
1.0
 40
1.0
 10
96.9640563695534
 20
233.353227676246
 30
0.0
 10
96.96326068283435
 20
233.6503230611194
 30
0.0
 10
97.0318520608759
 20
233.963516121159
 30
0.0
 10
97.30806422230312
 20
234.5266227582513
 30
0.0
 10
97.51425837230042
 20
234.7736234051513
 30
0.0
 10
97.75056685398582
 20
234.9566673121033
 30
0.0
  0
SPLINE
  5
23D
330
1F
100
AcDbEntity
  8
0
  6
Continuous
 62
     8
370
    18
100
AcDbSpline
210
0.0
220
0.0
230
1.0
 70
     8
 71
     3
 72
    10
 73
     6
 74
     0
 42
0.000000001
 43
0.00000001
 40
0.0
 40
0.0
 40
0.0
 40
0.0
 40
0.5
 40
0.5
 40
1.0
 40
1.0
 40
1.0
 40
1.0
 10
144.074130434312
 20
234.9565981789826
 30
0.0
 10
144.3104460905545
 20
234.7735757661674
 30
0.0
 10
144.5166471988514
 20
234.5265903933175
 30
0.0
 10
144.7928703462493
 20
233.9635156760743
 30
0.0
 10
144.8614643634301
 20
233.6503373224741
 30
0.0
 10
144.8606686862525
 20
233.353257517693
 30
0.0
  0
LINE
  5
23E
330
1F
100
AcDbEntity
  8
0
  6
Continuous
 62
     8
370
    18
100
AcDbLine
 10
144.1224020545
 20
247.622535173
 30
0.0
 11
144.1096513272
 21
243.9824308778
 31
0.0
  0
SPLINE
  5
23F
330
1F
100
AcDbEntity
  8
0
  6
Continuous
 62
     8
370
    18
100
AcDbSpline
210
0.0
220
0.0
230
1.0
 70
     8
 71
     3
 72
    10
 73
     6
 74
     0
 42
0.000000001
 43
0.00000001
 40
0.0
 40
0.0
 40
0.0
 40
0.0
 40
0.4999999999999998
 40
0.4999999999999998
 40
1.0
 40
1.0
 40
1.0
 40
1.0
 10
144.0741714734809
 20
234.9565941036549
 30
0.0
 10
144.0795043320885
 20
236.4556318516019
 30
0.0
 10
144.0867339580894
 20
237.9651910895094
 30
0.0
 10
144.1006642052884
 20
240.9724966002609
 30
0.0
 10
144.105009058516
 20
242.4776017938082
 30
0.0
 10
144.1097839818481
 20
243.982208102656
 30
0.0
  0
LWPOLYLINE
  5
240
330
1F
100
AcDbEntity
  8
0
  6
Continuous
 62
     8
370
    18
100
AcDbPolyline
 90
        3
 70
   128
 43
0.0
 10
97.7149410092
 20
243.9822081027
 10
97.7322469175
 20
239.4722589013
 10
97.7505535175
 20
234.9565941038
  0
LWPOLYLINE
  5
241
330
1F
100
AcDbEntity
  8
0
  6
Continuous
 62
     8
370
    18
100
AcDbPolyline
 90
        3
 70
   128
 43
0.0
 10
97.7023229366
 20
247.622535173
 10
97.7085413532
 20
245.8025480791
 10
97.7150736639
 20
243.9824308778
  0
SPLINE
  5
242
330
1F
100
AcDbEntity
  8
0
  6
Continuous
 62
     8
370
    18
100
AcDbSpline
210
0.0
220
0.0
230
1.0
 70
     8
 71
     3
 72
    42
 73
    38
 74
     0
 42
0.000000001
 43
0.00000001
 40
0.0
 40
0.0
 40
0.0
 40
0.0
 40
0.0312500000000006
 40
0.0312500000000006
 40
0.0625000000000012
 40
0.0625000000000012
 40
0.1250000000000025
 40
0.1250000000000025
 40
0.1875000000000037
 40
0.1875000000000037
 40
0.2500000000000049
 40
0.2500000000000049
 40
0.2812500000000057
 40
0.2812500000000057
 40
0.3125000000000064
 40
0.3125000000000064
 40
0.3437500000000071
 40
0.3437500000000071
 40
0.3593750000000073
 40
0.3593750000000073
 40
0.3750000000000075
 40
0.3750000000000075
 40
0.3906250000000077
 40
0.3906250000000077
 40
0.4062500000000079
 40
0.4062500000000079
 40
0.4375000000000075
 40
0.4375000000000075
 40
0.5000000000000067
 40
0.5000000000000067
 40
0.5625000000000058
 40
0.5625000000000058
 40
0.6250000000000049
 40
0.6250000000000049
 40
0.7500000000000032
 40
0.7500000000000032
 40
1.0
 40
1.0
 40
1.0
 40
1.0
 10
120.9128257035629
 20
263.9603475185243
 30
0.0
 10
121.1726116155804
 20
263.9604471441874
 30
0.0
 10
121.4359783477592
 20
263.957898239125
 30
0.0
 10
121.9600540540702
 20
263.9476609770551
 30
0.0
 10
122.2220337823955
 20
263.9400738666005
 30
0.0
 10
123.0084579496739
 20
263.9086292623937
 30
0.0
 10
123.5334854239274
 20
263.8762163392942
 30
0.0
 10
124.5878741880208
 20
263.7808019917597
 30
0.0
 10
125.1169940875056
 20
263.7181760184689
 30
0.0
 10
126.1826258543195
 20
263.5450771771718
 30
0.0
 10
126.7196969227144
 20
263.4353853376983
 30
0.0
 10
127.5211977746066
 20
263.2069445396453
 30
0.0
 10
127.7879529789373
 20
263.1199977072247
 30
0.0
 10
128.3185805214679
 20
262.9135709547896
 30
0.0
 10
128.5834159698351
 20
262.7938176892962
 30
0.0
 10
129.1012951922673
 20
262.4979085145288
 30
0.0
 10
129.3443299237946
 20
262.3271852553727
 30
0.0
 10
129.672524456641
 20
262.0191786541132
 30
0.0
 10
129.7755352081625
 20
261.9081063002753
 30
0.0
 10
129.9613823525395
 20
261.6749347486673
 30
0.0
 10
130.0440124723205
 20
261.5540535073718
 30
0.0
 10
130.1914130620173
 20
261.3043520712293
 30
0.0
 10
130.2564492852196
 20
261.174434511882
 30
0.0
 10
130.369589610449
 20
260.9127050253182
 30
0.0
 10
130.4178487108658
 20
260.7813816352574
 30
0.0
 10
130.5449058043903
 20
260.3873880232867
 30
0.0
 10
130.6071578834244
 20
260.1235609330246
 30
0.0
 10
130.7600842951092
 20
259.3323394407257
 30
0.0
 10
130.819811535658
 20
258.8044800942213
 30
0.0
 10
130.9136223014408
 20
257.7561703488674
 30
0.0
 10
130.946237779791
 20
257.2341704248742
 30
0.0
 10
131.0023211373201
 20
256.1929691615999
 30
0.0
 10
131.0258760954881
 20
255.6737258075097
 30
0.0
 10
131.0928895426313
 20
254.1165955456547
 30
0.0
 10
131.1336013315306
 20
253.0780606782696
 30
0.0
 10
131.2269677605533
 20
249.9639399009269
 30
0.0
 10
131.252898019318
 20
247.8887294535773
 30
0.0
 10
131.2619116485254
 20
245.8141347208709
 30
0.0
  0
SPLINE
  5
243
330
1F
100
AcDbEntity
  8
0
  6
Continuous
 62
     8
370
    18
100
AcDbSpline
210
0.0
220
0.0
230
1.0
 70
     8
 71
     3
 72
    12
 73
     8
 74
     0
 42
0.000000001
 43
0.00000001
 40
0.0
 40
0.0
 40
0.0
 40
0.0
 40
0.2499999999999999
 40
0.2499999999999999
 40
0.4999999999999999
 40
0.4999999999999999
 40
1.0
 40
1.0
 40
1.0
 40
1.0
 10
127.7846199034269
 20
246.3827497599326
 30
0.0
 10
127.2430253384196
 20
246.4946542681725
 30
0.0
 10
126.6897908816976
 20
246.5952516418273
 30
0.0
 10
125.5608311857451
 20
246.7707066988609
 30
0.0
 10
124.9886984236519
 20
246.8450301926591
 30
0.0
 10
123.2640417417705
 20
247.0239703320368
 30
0.0
 10
122.0969322778264
 20
247.0859102438127
 30
0.0
 10
120.9123624955445
 20
247.0859102438127
 30
0.0
  0
SPLINE
  5
244
330
1F
100
AcDbEntity
  8
0
  6
Continuous
 62
     8
370
    18
100
AcDbSpline
210
0.0
220
0.0
230
1.0
 70
     8
 71
     3
 72
    12
 73
     8
 74
     0
 42
0.000000001
 43
0.00000001
 40
0.0
 40
0.0
 40
0.0
 40
0.0
 40
0.5000000000000007
 40
0.5000000000000007
 40
0.7500000000000003
 40
0.7500000000000003
 40
1.0
 40
1.0
 40
1.0
 40
1.0
 10
120.9123624955445
 20
247.0859102438127
 30
0.0
 10
119.727853593755
 20
247.0859102438127
 30
0.0
 10
118.5608032936274
 20
247.0239766904248
 30
0.0
 10
116.8362324596282
 20
246.8450546024542
 30
0.0
 10
116.2641289367582
 20
246.7707387574539
 30
0.0
 10
115.1352211812905
 20
246.5953007383644
 30
0.0
 10
114.582010477393
 20
246.4947128467522
 30
0.0
 10
114.0404391095367
 20
246.3828187739398
 30
0.0
  0
SPLINE
  5
245
330
1F
100
AcDbEntity
  8
0
  6
Continuous
 62
     8
370
    18
100
AcDbSpline
210
0.0
220
0.0
230
1.0
 70
     8
 71
     3
 72
    42
 73
    38
 74
     0
 42
0.000000001
 43
0.00000001
 40
0.0
 40
0.0
 40
0.0
 40
0.0
 40
0.2499999999999981
 40
0.2499999999999981
 40
0.3749999999999969
 40
0.3749999999999969
 40
0.4374999999999962
 40
0.4374999999999962
 40
0.4999999999999956
 40
0.4999999999999956
 40
0.5624999999999949
 40
0.5624999999999949
 40
0.5937499999999947
 40
0.5937499999999947
 40
0.6093749999999949
 40
0.6093749999999949
 40
0.6249999999999951
 40
0.6249999999999951
 40
0.6406249999999953
 40
0.6406249999999953
 40
0.6562499999999956
 40
0.6562499999999956
 40
0.6874999999999959
 40
0.6874999999999959
 40
0.7187499999999962
 40
0.7187499999999962
 40
0.7499999999999964
 40
0.7499999999999964
 40
0.8124999999999973
 40
0.8124999999999973
 40
0.8749999999999982
 40
0.8749999999999982
 40
0.9374999999999991
 40
0.9374999999999991
 40
0.9687499999999996
 40
0.9687499999999996
 40
1.0
 40
1.0
 40
1.0
 40
1.0
 10
110.5628133543329
 20
245.8141347231622
 30
0.0
 10
110.5718269838398
 20
247.888729455797
 30
0.0
 10
110.5977572433118
 20
249.9639399028381
 30
0.0
 10
110.6911236744741
 20
253.0780606797066
 30
0.0
 10
110.7318354642433
 20
254.1165955469073
 30
0.0
 10
110.7988489125833
 20
255.6737258085635
 30
0.0
 10
110.8224038711453
 20
256.1929691625787
 30
0.0
 10
110.8784872295311
 20
257.2341704255995
 30
0.0
 10
110.9111027083534
 20
257.7561703494244
 30
0.0
 10
111.0049134752753
 20
258.8044800940627
 30
0.0
 10
111.0646407165335
 20
259.3323394400437
 30
0.0
 10
111.2175671292248
 20
260.1235609303739
 30
0.0
 10
111.2798192085919
 20
260.3873880197214
 30
0.0
 10
111.4068763022956
 20
260.7813816295838
 30
0.0
 10
111.4551354027123
 20
260.9127050188159
 30
0.0
 10
111.5682757276831
 20
261.1744345033982
 30
0.0
 10
111.6333119506054
 20
261.304352061566
 30
0.0
 10
111.7807125394
 20
261.5540534952989
 30
0.0
 10
111.8633426585816
 20
261.6749347353834
 30
0.0
 10
112.0491898013456
 20
261.9081062845765
 30
0.0
 10
112.1522005518557
 20
262.0191786372567
 30
0.0
 10
112.4803950814911
 20
262.3271852356151
 30
0.0
 10
112.7234298107809
 20
262.4979084937137
 30
0.0
 10
113.2413090296816
 20
262.7938176674836
 30
0.0
 10
113.5061444766968
 20
262.9135709329807
 30
0.0
 10
114.0367720172152
 20
263.1199976857189
 30
0.0
 10
114.3035272208215
 20
263.2069445184461
 30
0.0
 10
115.1050280709871
 20
263.4353853175252
 30
0.0
 10
115.6420991387899
 20
263.5450771578419
 30
0.0
 10
116.7077309046916
 20
263.7181760005892
 30
0.0
 10
117.2368508039435
 20
263.7808019745023
 30
0.0
 10
118.2912395676938
 20
263.8762163230247
 30
0.0
 10
118.8162670418112
 20
263.9086292464888
 30
0.0
 10
119.6026912089105
 20
263.9400738510513
 30
0.0
 10
119.8646709371807
 20
263.9476609615932
 30
0.0
 10
120.3887466433998
 20
263.9578982237817
 30
0.0
 10
120.6521133755378
 20
263.9604471288746
 30
0.0
 10
120.9118992875149
 20
263.9603475032095
 30
0.0
  0
SPLINE
  5
246
330
1F
100
AcDbEntity
  8
0
  6
Continuous
 62
     8
370
    18
100
AcDbSpline
210
0.0
220
0.0
230
1.0
 70
     8
 71
     3
 72
    11
 73
     7
 74
     0
 42
0.000000001
 43
0.00000001
 40
0.0
 40
0.0
 40
0.0
 40
0.0
 40
0.134073892681174
 40
0.361797072702729
 40
0.5848963189478671
 40
1.0
 40
1.0
 40
1.0
 40
1.0
 10
120.9128134359756
 20
264.4773775350563
 30
0.0
 10
120.9128248317948
 20
264.4783308697062
 30
0.0
 10
120.9128555833001
 20
264.4809034338253
 30
0.0
 10
120.912879379009
 20
264.4200664384509
 30
0.0
 10
120.9128902797809
 20
264.2772084062784
 30
0.0
 10
120.9128511527774
 20
264.0852210547251
 30
0.0
 10
120.9128257035629
 20
263.9603475185244
 30
0.0
  0
LINE
  5
247
330
1F
100
AcDbEntity
  8
0
  6
Continuous
 62
     8
370
    18
100
AcDbLine
 10
144.8965908842
 20
242.3792743976
 30
0.0
 11
144.8973104664
 21
242.5953126921
 31
0.0
  0
LINE
  5
248
330
1F
100
AcDbEntity
  8
0
  6
Continuous
 62
     8
370
    18
100
AcDbLine
 10
96.9281341069
 20
242.3792743976
 30
0.0
 11
96.9274145247
 21
242.5953126921
 31
0.0
  0
ENDSEC
  0
SECTION
  2
OBJECTS
  0
DICTIONARY
  5
C
330
0
100
AcDbDictionary
281
     1
  3
ACAD_GROUP
350
D
  3
ACAD_LAYOUT
350
1A
  3
ACAD_MLINESTYLE
350
17
  3
ACAD_PLOTSETTINGS
350
19
  3
ACAD_PLOTSTYLENAME
350
E
  3
ACAD_SCALELIST
350
47
  0
DICTIONARY
  5
D
102
{ACAD_REACTORS
330
C
102
}
330
C
100
AcDbDictionary
281
     1
  0
DICTIONARY
  5
1A
102
{ACAD_REACTORS
330
C
102
}
330
C
100
AcDbDictionary
281
     1
  3
Layout1
350
1E
  3
Layout2
350
26
  3
Model
350
22
  0
DICTIONARY
  5
17
102
{ACAD_REACTORS
330
C
102
}
330
C
100
AcDbDictionary
281
     1
  3
Standard
350
18
  0
DICTIONARY
  5
19
102
{ACAD_REACTORS
330
C
102
}
330
C
100
AcDbDictionary
281
     1
  0
ACDBDICTIONARYWDFLT
  5
E
102
{ACAD_REACTORS
330
C
102
}
330
C
100
AcDbDictionary
281
     1
  3
Normal
350
F
100
AcDbDictionaryWithDefault
340
F
  0
DICTIONARY
  5
47
102
{ACAD_REACTORS
330
C
102
}
330
C
100
AcDbDictionary
281
     1
  3
A0
350
48
  3
A1
350
49
  3
A2
350
4A
  3
A3
350
4B
  3
A4
350
4C
  3
A5
350
4D
  3
A6
350
4E
  3
A7
350
4F
  3
A8
350
50
  3
A9
350
51
  3
B0
350
52
  3
B1
350
53
  3
B2
350
54
  3
B3
350
55
  3
B4
350
56
  3
B5
350
57
  3
B6
350
58
  3
B7
350
59
  3
B8
350
5A
  3
B9
350
5B
  3
C0
350
5C
  3
C1
350
5D
  3
C2
350
5E
  3
C3
350
5F
  3
C4
350
60
  3
C5
350
61
  3
C6
350
62
  3
C7
350
63
  3
C8
350
64
  3
C9
350
65
  3
D0
350
66
  3
D1
350
67
  3
D2
350
68
  0
LAYOUT
  5
1E
102
{ACAD_REACTORS
330
1A
102
}
330
1A
100
AcDbPlotSettings
  1

  2
none_device
  4

  6

 40
0.0
 41
0.0
 42
0.0
 43
0.0
 44
0.0
 45
0.0
 46
0.0
 47
0.0
 48
0.0
 49
0.0
140
0.0
141
0.0
142
1.0
143
1.0
 70
   688
 72
     1
 73
     0
 74
     5
  7

 75
    16
147
1.0
148
0.0
149
0.0
100
AcDbLayout
  1
Layout1
 70
     1
 71
     1
 10
0.0
 20
0.0
 11
420.0
 21
297.0
 12
0.0
 22
0.0
 32
0.0
 14
1.0000000000E+20
 24
1.0000000000E+20
 34
1.0000000000E+20
 15
-1.0000000000E+20
 25
-1.0000000000E+20
 35
-1.0000000000E+20
146
0.0
 13
0.0
 23
0.0
 33
0.0
 16
1.0
 26
0.0
 36
0.0
 17
0.0
 27
1.0
 37
0.0
 76
     0
330
1B
  0
LAYOUT
  5
26
102
{ACAD_REACTORS
330
1A
102
}
330
1A
100
AcDbPlotSettings
  1

  2
none_device
  4

  6

 40
0.0
 41
0.0
 42
0.0
 43
0.0
 44
0.0
 45
0.0
 46
0.0
 47
0.0
 48
0.0
 49
0.0
140
0.0
141
0.0
142
1.0
143
1.0
 70
   688
 72
     1
 73
     0
 74
     5
  7

 75
    16
147
1.0
148
0.0
149
0.0
100
AcDbLayout
  1
Layout2
 70
     1
 71
     2
 10
0.0
 20
0.0
 11
0.0
 21
0.0
 12
0.0
 22
0.0
 32
0.0
 14
0.0
 24
0.0
 34
0.0
 15
0.0
 25
0.0
 35
0.0
146
0.0
 13
0.0
 23
0.0
 33
0.0
 16
1.0
 26
0.0
 36
0.0
 17
0.0
 27
1.0
 37
0.0
 76
     0
330
23
  0
LAYOUT
  5
22
102
{ACAD_REACTORS
330
1A
102
}
330
1A
100
AcDbPlotSettings
  1

  2
none_device
  4
Letter_(8.50_x_11.00_Inches)
  6

 40
6.35
 41
6.35
 42
6.35000508
 43
6.35000508
 44
215.9
 45
279.4
 46
0.0
 47
0.0
 48
0.0
 49
0.0
140
0.0
141
0.0
142
1.0
143
1.0
 70
  1712
 72
     1
 73
     0
 74
     0
  7

 75
     0
147
1.0
148
0.0
149
0.0
100
AcDbLayout
  1
Model
 70
     1
 71
     0
 10
0.0
 20
0.0
 11
594.0
 21
841.0
 12
0.0
 22
0.0
 32
0.0
 14
0.0
 24
0.0
 34
0.0
 15
594.0
 25
841.0
 35
0.0
146
0.0
 13
0.0
 23
0.0
 33
0.0
 16
1.0
 26
0.0
 36
0.0
 17
0.0
 27
1.0
 37
0.0
 76
     0
330
1F
331
29
  0
MLINESTYLE
  5
18
102
{ACAD_REACTORS
330
17
102
}
330
17
100
AcDbMlineStyle
  2
Standard
 70
     0
  3

 62
   256
 51
90.0
 52
90.0
 71
     2
 49
0.5
 62
   256
  6
BYLAYER
 49
-0.5
 62
   256
  6
BYLAYER
  0
ACDBPLACEHOLDER
  5
F
102
{ACAD_REACTORS
330
E
102
}
330
E
  0
SCALE
  5
48
102
{ACAD_REACTORS
330
47
102
}
330
47
100
AcDbScale
 70
     0
300
1:1
140
1.0
141
1.0
290
     1
  0
SCALE
  5
49
102
{ACAD_REACTORS
330
47
102
}
330
47
100
AcDbScale
 70
     0
300
1:2
140
1.0
141
2.0
290
     0
  0
SCALE
  5
4A
102
{ACAD_REACTORS
330
47
102
}
330
47
100
AcDbScale
 70
     0
300
1:4
140
1.0
141
4.0
290
     0
  0
SCALE
  5
4B
102
{ACAD_REACTORS
330
47
102
}
330
47
100
AcDbScale
 70
     0
300
1:5
140
1.0
141
5.0
290
     0
  0
SCALE
  5
4C
102
{ACAD_REACTORS
330
47
102
}
330
47
100
AcDbScale
 70
     0
300
1:8
140
1.0
141
8.0
290
     0
  0
SCALE
  5
4D
102
{ACAD_REACTORS
330
47
102
}
330
47
100
AcDbScale
 70
     0
300
1:10
140
1.0
141
10.0
290
     0
  0
SCALE
  5
4E
102
{ACAD_REACTORS
330
47
102
}
330
47
100
AcDbScale
 70
     0
300
1:16
140
1.0
141
16.0
290
     0
  0
SCALE
  5
4F
102
{ACAD_REACTORS
330
47
102
}
330
47
100
AcDbScale
 70
     0
300
1:20
140
1.0
141
20.0
290
     0
  0
SCALE
  5
50
102
{ACAD_REACTORS
330
47
102
}
330
47
100
AcDbScale
 70
     0
300
1:30
140
1.0
141
30.0
290
     0
  0
SCALE
  5
51
102
{ACAD_REACTORS
330
47
102
}
330
47
100
AcDbScale
 70
     0
300
1:40
140
1.0
141
40.0
290
     0
  0
SCALE
  5
52
102
{ACAD_REACTORS
330
47
102
}
330
47
100
AcDbScale
 70
     0
300
1:50
140
1.0
141
50.0
290
     0
  0
SCALE
  5
53
102
{ACAD_REACTORS
330
47
102
}
330
47
100
AcDbScale
 70
     0
300
1:100
140
1.0
141
100.0
290
     0
  0
SCALE
  5
54
102
{ACAD_REACTORS
330
47
102
}
330
47
100
AcDbScale
 70
     0
300
2:1
140
2.0
141
1.0
290
     0
  0
SCALE
  5
55
102
{ACAD_REACTORS
330
47
102
}
330
47
100
AcDbScale
 70
     0
300
4:1
140
4.0
141
1.0
290
     0
  0
SCALE
  5
56
102
{ACAD_REACTORS
330
47
102
}
330
47
100
AcDbScale
 70
     0
300
8:1
140
8.0
141
1.0
290
     0
  0
SCALE
  5
57
102
{ACAD_REACTORS
330
47
102
}
330
47
100
AcDbScale
 70
     0
300
10:1
140
10.0
141
1.0
290
     0
  0
SCALE
  5
58
102
{ACAD_REACTORS
330
47
102
}
330
47
100
AcDbScale
 70
     0
300
100:1
140
100.0
141
1.0
290
     0
  0
SCALE
  5
59
102
{ACAD_REACTORS
330
47
102
}
330
47
100
AcDbScale
 70
     0
300
1/128" = 1'-0"
140
0.0078125
141
12.0
290
     0
  0
SCALE
  5
5A
102
{ACAD_REACTORS
330
47
102
}
330
47
100
AcDbScale
 70
     0
300
1/64" = 1'-0"
140
0.015625
141
12.0
290
     0
  0
SCALE
  5
5B
102
{ACAD_REACTORS
330
47
102
}
330
47
100
AcDbScale
 70
     0
300
1/32" = 1'-0"
140
0.03125
141
12.0
290
     0
  0
SCALE
  5
5C
102
{ACAD_REACTORS
330
47
102
}
330
47
100
AcDbScale
 70
     0
300
1/16" = 1'-0"
140
0.0625
141
12.0
290
     0
  0
SCALE
  5
5D
102
{ACAD_REACTORS
330
47
102
}
330
47
100
AcDbScale
 70
     0
300
3/32" = 1'-0"
140
0.09375
141
12.0
290
     0
  0
SCALE
  5
5E
102
{ACAD_REACTORS
330
47
102
}
330
47
100
AcDbScale
 70
     0
300
1/8" = 1'-0"
140
0.125
141
12.0
290
     0
  0
SCALE
  5
5F
102
{ACAD_REACTORS
330
47
102
}
330
47
100
AcDbScale
 70
     0
300
3/16" = 1'-0"
140
0.1875
141
12.0
290
     0
  0
SCALE
  5
60
102
{ACAD_REACTORS
330
47
102
}
330
47
100
AcDbScale
 70
     0
300
1/4" = 1'-0"
140
0.25
141
12.0
290
     0
  0
SCALE
  5
61
102
{ACAD_REACTORS
330
47
102
}
330
47
100
AcDbScale
 70
     0
300
3/8" = 1'-0"
140
0.375
141
12.0
290
     0
  0
SCALE
  5
62
102
{ACAD_REACTORS
330
47
102
}
330
47
100
AcDbScale
 70
     0
300
1/2" = 1'-0"
140
0.5
141
12.0
290
     0
  0
SCALE
  5
63
102
{ACAD_REACTORS
330
47
102
}
330
47
100
AcDbScale
 70
     0
300
3/4" = 1'-0"
140
0.75
141
12.0
290
     0
  0
SCALE
  5
64
102
{ACAD_REACTORS
330
47
102
}
330
47
100
AcDbScale
 70
     0
300
1" = 1'-0"
140
1.0
141
12.0
290
     0
  0
SCALE
  5
65
102
{ACAD_REACTORS
330
47
102
}
330
47
100
AcDbScale
 70
     0
300
1-1/2" = 1'-0"
140
1.5
141
12.0
290
     0
  0
SCALE
  5
66
102
{ACAD_REACTORS
330
47
102
}
330
47
100
AcDbScale
 70
     0
300
3" = 1'-0"
140
3.0
141
12.0
290
     0
  0
SCALE
  5
67
102
{ACAD_REACTORS
330
47
102
}
330
47
100
AcDbScale
 70
     0
300
6" = 1'-0"
140
6.0
141
12.0
290
     0
  0
SCALE
  5
68
102
{ACAD_REACTORS
330
47
102
}
330
47
100
AcDbScale
 70
     0
300
1'-0" = 1'-0"
140
12.0
141
12.0
290
     0
  0
ENDSEC
  0
EOF
