  0
SECTION
  2
HEADER
  9
$ACADVER
  1
AC1024
  9
$ACADMAINTVER
 70
     6
  9
$DWGCODEPAGE
  3
ANSI_1252
  9
$INSBASE
 10
0.0
 20
0.0
 30
0.0
  9
$EXTMIN
 10
0.0
 20
0.0
 30
0.0
  9
$EXTMAX
 10
594.0
 20
841.0
 30
0.0
  9
$LIMMIN
 10
0.0
 20
0.0
  9
$LIMMAX
 10
594.0
 20
841.0
  9
$ORTHOMODE
 70
     0
  9
$REGENMODE
 70
     1
  9
$FILLMODE
 70
     1
  9
$QTEXTMODE
 70
     0
  9
$MIRRTEXT
 70
     1
  9
$LTSCALE
 40
1.0
  9
$ATTMODE
 70
     1
  9
$TEXTSIZE
 40
10.0
  9
$TRACEWID
 40
1.0
  9
$TEXTSTYLE
  7
Standard
  9
$CLAYER
  8
0
  9
$CELTYPE
  6
ByLayer
  9
$CECOLOR
 62
   256
  9
$CELTSCALE
 40
1.0
  9
$DISPSILH
 70
     0
  9
$DIMSCALE
 40
1.0
  9
$DIMASZ
 40
2.5
  9
$DIMEXO
 40
0.0
  9
$DIMDLI
 40
3.75
  9
$DIMRND
 40
0.0
  9
$DIMDLE
 40
0.0
  9
$DIMEXE
 40
1.0
  9
$DIMTP
 40
0.0
  9
$DIMTM
 40
0.0
  9
$DIMTXT
 40
3.5
  9
$DIMCEN
 40
2.5
  9
$DIMTSZ
 40
0.0
  9
$DIMTOL
 70
     0
  9
$DIMLIM
 70
     0
  9
$DIMTIH
 70
     1
  9
$DIMTOH
 70
     1
  9
$DIMSE1
 70
     0
  9
$DIMSE2
 70
     0
  9
$DIMTAD
 70
     1
  9
$DIMZIN
 70
     0
  9
$DIMBLK
  1

  9
$DIMASO
 70
     1
  9
$DIMSHO
 70
     1
  9
$DIMPOST
  1

  9
$DIMAPOST
  1

  9
$DIMALT
 70
     0
  9
$DIMALTD
 70
     3
  9
$DIMALTF
 40
0.0393700787
  9
$DIMLFAC
 40
1.0
  9
$DIMTOFL
 70
     1
  9
$DIMTVP
 40
0.0
  9
$DIMTIX
 70
     0
  9
$DIMSOXD
 70
     0
  9
$DIMSAH
 70
     0
  9
$DIMBLK1
  1

  9
$DIMBLK2
  1

  9
$DIMSTYLE
  2
ISO-25
  9
$DIMCLRD
 70
     0
  9
$DIMCLRE
 70
     0
  9
$DIMCLRT
 70
     0
  9
$DIMTFAC
 40
1.0
  9
$DIMGAP
 40
1.5
  9
$DIMJUST
 70
     0
  9
$DIMSD1
 70
     0
  9
$DIMSD2
 70
     0
  9
$DIMTOLJ
 70
     0
  9
$DIMTZIN
 70
     0
  9
$DIMALTZ
 70
     0
  9
$DIMALTTZ
 70
     0
  9
$DIMUPT
 70
     0
  9
$DIMDEC
 70
     2
  9
$DIMTDEC
 70
     2
  9
$DIMALTU
 70
     2
  9
$DIMALTTD
 70
     3
  9
$DIMTXSTY
  7
Standard
  9
$DIMAUNIT
 70
     0
  9
$DIMADEC
 70
     2
  9
$DIMALTRND
 40
0.0
  9
$DIMAZIN
 70
     0
  9
$DIMDSEP
 70
    44
  9
$DIMATFIT
 70
     3
  9
$DIMFRAC
 70
     0
  9
$DIMLDRBLK
  1

  9
$DIMLUNIT
 70
     2
  9
$DIMLWD
 70
    -2
  9
$DIMLWE
 70
    -2
  9
$DIMTMOVE
 70
     0
  9
$DIMFXL
 40
1.0
  9
$DIMFXLON
 70
     0
  9
$DIMJOGANG
 40
0.7853981634
  9
$DIMTFILL
 70
     0
  9
$DIMTFILLCLR
 70
     0
  9
$DIMARCSYM
 70
     0
  9
$DIMLTYPE
  6

  9
$DIMLTEX1
  6

  9
$DIMLTEX2
  6

  9
$DIMTXTDIRECTION
 70
     0
  9
$LUNITS
 70
     2
  9
$LUPREC
 70
     2
  9
$SKETCHINC
 40
1.0
  9
$FILLETRAD
 40
10.0
  9
$AUNITS
 70
     0
  9
$AUPREC
 70
     2
  9
$MENU
  1
.
  9
$ELEVATION
 40
0.0
  9
$PELEVATION
 40
0.0
  9
$THICKNESS
 40
0.0
  9
$LIMCHECK
 70
     0
  9
$CHAMFERA
 40
10.0
  9
$CHAMFERB
 40
10.0
  9
$CHAMFERC
 40
20.0
  9
$CHAMFERD
 40
0.0
  9
$SKPOLY
 70
     0
  9
$TDCREATE
 40
2456135.592999433
  9
$TDUCREATE
 40
2456135.5096661
  9
$TDUPDATE
 40
2456135.592999444
  9
$TDUUPDATE
 40
2456135.509666111
  9
$TDINDWG
 40
0.0000000116
  9
$TDUSRTIMER
 40
0.0000000116
  9
$USRTIMER
 70
     1
  9
$ANGBASE
 50
0.0
  9
$ANGDIR
 70
     0
  9
$PDMODE
 70
     0
  9
$PDSIZE
 40
-1.0
  9
$PLINEWID
 40
0.0
  9
$SPLFRAME
 70
     0
  9
$SPLINETYPE
 70
     6
  9
$SPLINESEGS
 70
     8
  9
$HANDSEED
  5
126
  9
$SURFTAB1
 70
     6
  9
$SURFTAB2
 70
     6
  9
$SURFTYPE
 70
     6
  9
$SURFU
 70
     6
  9
$SURFV
 70
     6
  9
$UCSBASE
  2

  9
$UCSNAME
  2

  9
$UCSORG
 10
0.0
 20
0.0
 30
0.0
  9
$UCSXDIR
 10
1.0
 20
0.0
 30
0.0
  9
$UCSYDIR
 10
0.0
 20
1.0
 30
0.0
  9
$UCSORTHOREF
  2

  9
$UCSORTHOVIEW
 70
     0
  9
$UCSORGTOP
 10
0.0
 20
0.0
 30
0.0
  9
$UCSORGBOTTOM
 10
0.0
 20
0.0
 30
0.0
  9
$UCSORGLEFT
 10
0.0
 20
0.0
 30
0.0
  9
$UCSORGRIGHT
 10
0.0
 20
0.0
 30
0.0
  9
$UCSORGFRONT
 10
0.0
 20
0.0
 30
0.0
  9
$UCSORGBACK
 10
0.0
 20
0.0
 30
0.0
  9
$PUCSBASE
  2

  9
$PUCSNAME
  2

  9
$PUCSORG
 10
0.0
 20
0.0
 30
0.0
  9
$PUCSXDIR
 10
1.0
 20
0.0
 30
0.0
  9
$PUCSYDIR
 10
0.0
 20
1.0
 30
0.0
  9
$PUCSORTHOREF
  2

  9
$PUCSORTHOVIEW
 70
     0
  9
$PUCSORGTOP
 10
0.0
 20
0.0
 30
0.0
  9
$PUCSORGBOTTOM
 10
0.0
 20
0.0
 30
0.0
  9
$PUCSORGLEFT
 10
0.0
 20
0.0
 30
0.0
  9
$PUCSORGRIGHT
 10
0.0
 20
0.0
 30
0.0
  9
$PUCSORGFRONT
 10
0.0
 20
0.0
 30
0.0
  9
$PUCSORGBACK
 10
0.0
 20
0.0
 30
0.0
  9
$USERI1
 70
     0
  9
$USERI2
 70
     0
  9
$USERI3
 70
     0
  9
$USERI4
 70
     0
  9
$USERI5
 70
     0
  9
$USERR1
 40
0.0
  9
$USERR2
 40
0.0
  9
$USERR3
 40
0.0
  9
$USERR4
 40
0.0
  9
$USERR5
 40
0.0
  9
$WORLDVIEW
 70
     1
  9
$SHADEDGE
 70
     3
  9
$SHADEDIF
 70
    70
  9
$TILEMODE
 70
     1
  9
$MAXACTVP
 70
    64
  9
$PINSBASE
 10
0.0
 20
0.0
 30
0.0
  9
$PLIMCHECK
 70
     0
  9
$PEXTMIN
 10
1.0000000000E+20
 20
1.0000000000E+20
 30
1.0000000000E+20
  9
$PEXTMAX
 10
-1.0000000000E+20
 20
-1.0000000000E+20
 30
-1.0000000000E+20
  9
$PLIMMIN
 10
0.0
 20
0.0
  9
$PLIMMAX
 10
420.0
 20
297.0
  9
$UNITMODE
 70
     0
  9
$VISRETAIN
 70
     1
  9
$PLINEGEN
 70
     0
  9
$PSLTSCALE
 70
     1
  9
$TREEDEPTH
 70
  3020
  9
$CMLSTYLE
  2
Standard
  9
$CMLJUST
 70
     0
  9
$CMLSCALE
 40
20.0
  9
$PROXYGRAPHICS
 70
     1
  9
$MEASUREMENT
 70
     1
  9
$CELWEIGHT
370
    -1
  9
$ENDCAPS
280
     0
  9
$JOINSTYLE
280
     0
  9
$LWDISPLAY
290
     1
  9
$INSUNITS
 70
     4
  9
$HYPERLINKBASE
  1

  9
$STYLESHEET
  1

  9
$XEDIT
290
     1
  9
$CEPSNTYPE
380
     0
  9
$PSTYLEMODE
290
     1
  9
$FINGERPRINTGUID
  2
{0E4C9EBE-65C2-4033-BA39-37D64E45EE00}
  9
$VERSIONGUID
  2
{FAEB1C32-E019-11D5-929B-00C0DF256EC4}
  9
$EXTNAMES
290
     1
  9
$PSVPSCALE
 40
0.0
  9
$OLESTARTUP
290
     0
  9
$SORTENTS
280
   127
  9
$INDEXCTL
280
     0
  9
$HIDETEXT
280
     1
  9
$XCLIPFRAME
280
     2
  9
$HALOGAP
280
     0
  9
$OBSCOLOR
 70
   257
  9
$OBSLTYPE
280
     0
  9
$INTERSECTIONDISPLAY
280
     0
  9
$INTERSECTIONCOLOR
 70
   257
  9
$DIMASSOC
280
     2
  9
$PROJECTNAME
  1

  9
$CAMERADISPLAY
290
     0
  9
$LENSLENGTH
 40
50.0
  9
$CAMERAHEIGHT
 40
0.0
  9
$STEPSPERSEC
 40
2.0
  9
$STEPSIZE
 40
6.0
  9
$3DDWFPREC
 40
2.0
  9
$PSOLWIDTH
 40
5.0
  9
$PSOLHEIGHT
 40
80.0
  9
$LOFTANG1
 40
1.5707963268
  9
$LOFTANG2
 40
1.5707963268
  9
$LOFTMAG1
 40
0.0
  9
$LOFTMAG2
 40
0.0
  9
$LOFTPARAM
 70
     7
  9
$LOFTNORMALS
280
     1
  9
$LATITUDE
 40
37.795
  9
$LONGITUDE
 40
-122.394
  9
$NORTHDIRECTION
 40
0.0
  9
$TIMEZONE
 70
 -8000
  9
$LIGHTGLYPHDISPLAY
280
     1
  9
$TILEMODELIGHTSYNCH
280
     1
  9
$SOLIDHIST
280
     1
  9
$SHOWHIST
280
     1
  9
$DWFFRAME
280
     2
  9
$DGNFRAME
280
     2
  9
$REALWORLDSCALE
290
     1
  9
$INTERFERECOLOR
 62
   256
  9
$CSHADOW
280
     0
  9
$SHADOWPLANELOCATION
 40
0.0
  0
ENDSEC
  0
SECTION
  2
CLASSES
  0
CLASS
  1
ACDBDICTIONARYWDFLT
  2
AcDbDictionaryWithDefault
  3
ObjectDBX Classes
 90
        0
 91
        4
280
     0
281
     0
  0
CLASS
  1
VISUALSTYLE
  2
AcDbVisualStyle
  3
ObjectDBX Classes
 90
     4095
 91
        4
280
     0
281
     0
  0
CLASS
  1
MATERIAL
  2
AcDbMaterial
  3
ObjectDBX Classes
 90
     1153
 91
        4
280
     0
281
     0
  0
ENDSEC
  0
SECTION
  2
TABLES
  0
TABLE
  2
VPORT
  5
8
330
0
100
AcDbSymbolTable
 70
     1
  0
VPORT
  5
29
330
8
100
AcDbSymbolTableRecord
100
AcDbViewportTableRecord
  2
*Active
 70
     0
 10
0.0
 20
0.0
 11
1.0
 21
1.0
 12
297.0
 22
420.5
 13
0.0
 23
0.0
 14
10.0
 24
10.0
 15
10.0
 25
10.0
 16
0.0
 26
0.0
 36
1.0
 17
0.0
 27
0.0
 37
0.0
 40
841.0
 41
0.7063020214
 42
50.0
 43
0.0
 44
0.0
 50
0.0
 51
0.0
 71
     0
 72
  2000
 73
     1
 74
     3
 75
     0
 76
     0
 77
     0
 78
     0
281
     0
 65
     1
110
0.0
120
0.0
130
0.0
111
1.0
121
0.0
131
0.0
112
0.0
122
1.0
132
0.0
 79
     0
146
0.0
 60
     3
 61
     5
292
     1
282
     1
141
0.0
142
0.0
 63
   250
  0
ENDTAB
  0
TABLE
  2
LTYPE
  5
5
330
0
100
AcDbSymbolTable
 70
     6
  0
LTYPE
  5
14
330
5
100
AcDbSymbolTableRecord
100
AcDbLinetypeTableRecord
  2
ByBlock
 70
     0
  3

 72
    65
 73
     0
 40
0.0
  0
LTYPE
  5
15
330
5
100
AcDbSymbolTableRecord
100
AcDbLinetypeTableRecord
  2
ByLayer
 70
     0
  3

 72
    65
 73
     0
 40
0.0
  0
LTYPE
  5
16
330
5
100
AcDbSymbolTableRecord
100
AcDbLinetypeTableRecord
  2
Continuous
 70
     0
  3
Solid line
 72
    65
 73
     0
 40
0.0
  0
LTYPE
  5
3F
330
5
100
AcDbSymbolTableRecord
100
AcDbLinetypeTableRecord
  2
HIDDEN
 70
     0
  3
Hidden __ __ __ __ __ __ __ __ __ __ __ __ __ __
 72
    65
 73
     2
 40
1.905
 49
1.27
 74
     0
 49
-0.635
 74
     0
  0
LTYPE
  5
40
330
5
100
AcDbSymbolTableRecord
100
AcDbLinetypeTableRecord
  2
PHANTOM
 70
     0
  3
Phantom ______  __  __  ______  __  __  ______
 72
    65
 73
     6
 40
12.7
 49
6.35
 74
     0
 49
-1.27
 74
     0
 49
1.27
 74
     0
 49
-1.27
 74
     0
 49
1.27
 74
     0
 49
-1.27
 74
     0
  0
LTYPE
  5
41
330
5
100
AcDbSymbolTableRecord
100
AcDbLinetypeTableRecord
  2
CENTER
 70
     0
  3
Center ____ _ ____ _ ____ _ ____ _ ____ _ ____
 72
    65
 73
     4
 40
10.16
 49
6.35
 74
     0
 49
-1.27
 74
     0
 49
1.27
 74
     0
 49
-1.27
 74
     0
  0
LTYPE
  5
42
330
5
100
AcDbSymbolTableRecord
100
AcDbLinetypeTableRecord
  2
CENTERX2
 70
     0
  3
Center (2x) ________  __  ________  __  _____
 72
    65
 73
     4
 40
20.32
 49
12.7
 74
     0
 49
-2.54
 74
     0
 49
2.54
 74
     0
 49
-2.54
 74
     0
  0
LTYPE
  5
43
330
5
100
AcDbSymbolTableRecord
100
AcDbLinetypeTableRecord
  2
DOT2
 70
     0
  3
Dot (.5x) ........................................
 72
    65
 73
     2
 40
0.635
 49
0.0
 74
     0
 49
-0.635
 74
     0
  0
ENDTAB
  0
TABLE
  2
LAYER
  5
2
330
0
100
AcDbSymbolTable
 70
     1
  0
LAYER
  5
10
330
2
100
AcDbSymbolTableRecord
100
AcDbLayerTableRecord
  2
0
 70
     0
 62
     7
  6
Continuous
370
    -3
390
F
347
3E
  0
ENDTAB
  0
TABLE
  2
STYLE
  5
3
330
0
100
AcDbSymbolTable
 70
     3
  0
STYLE
  5
11
330
3
100
AcDbSymbolTableRecord
100
AcDbTextStyleTableRecord
  2
Standard
 70
     0
 40
0.0
 41
1.0
 50
0.0
 71
     0
 42
2.5
  3
txt
  4

  0
STYLE
  5
47
330
3
100
AcDbSymbolTableRecord
100
AcDbTextStyleTableRecord
  2
SLDTEXTSTYLE0
 70
     0
 40
0.0
 41
0.96
 50
0.0
 71
     0
 42
0.2
  3
ISOCP3
  4

  0
STYLE
  5
5E
330
3
100
AcDbSymbolTableRecord
100
AcDbTextStyleTableRecord
  2
SLDTEXTSTYLE1
 70
     0
 40
0.0
 41
0.605
 50
0.0
 71
     0
 42
0.2
  3
TXT
  4

  0
ENDTAB
  0
TABLE
  2
VIEW
  5
6
330
0
100
AcDbSymbolTable
 70
     0
  0
ENDTAB
  0
TABLE
  2
UCS
  5
7
330
0
100
AcDbSymbolTable
 70
     0
  0
ENDTAB
  0
TABLE
  2
APPID
  5
9
330
0
100
AcDbSymbolTable
 70
     1
  0
APPID
  5
12
330
9
100
AcDbSymbolTableRecord
100
AcDbRegAppTableRecord
  2
ACAD
 70
     0
  0
ENDTAB
  0
TABLE
  2
DIMSTYLE
  5
A
330
0
100
AcDbSymbolTable
 70
     2
100
AcDbDimStyleTable
  0
DIMSTYLE
105
27
330
A
100
AcDbSymbolTableRecord
100
AcDbDimStyleTableRecord
  2
ISO-25
 70
     0
 41
2.5
 42
0.625
 43
3.75
 44
1.25
 73
     0
 74
     0
 77
     1
 78
     8
140
2.5
141
2.5
143
0.0393700787
147
0.625
171
     3
172
     1
178
     0
271
     2
272
     2
274
     3
278
    44
283
     0
284
     8
340
11
  0
DIMSTYLE
105
48
102
{ACAD_REACTORS
330
46
330
53
102
}
330
A
100
AcDbSymbolTableRecord
100
AcDbDimStyleTableRecord
  2
SLDDIMSTYLE0
 70
     0
 41
2.5
 44
0.0
 45
0.000000001
 73
     0
 74
     0
 77
     1
 78
    12
 79
     3
140
6.0
147
1.5
173
     1
178
     0
271
     2
272
     2
276
     2
284
    12
340
47
  0
ENDTAB
  0
TABLE
  2
BLOCK_RECORD
  5
1
330
0
100
AcDbSymbolTable
 70
     3
  0
BLOCK_RECORD
  5
1F
330
1
100
AcDbSymbolTableRecord
100
AcDbBlockTableRecord
  2
*Model_Space
340
22
 70
     0
280
     1
281
     0
  0
BLOCK_RECORD
  5
1B
330
1
100
AcDbSymbolTableRecord
100
AcDbBlockTableRecord
  2
*Paper_Space
340
1E
 70
     0
280
     1
281
     0
  0
BLOCK_RECORD
  5
23
330
1
100
AcDbSymbolTableRecord
100
AcDbBlockTableRecord
  2
*Paper_Space0
340
26
 70
     0
280
     1
281
     0
  0
BLOCK_RECORD
  5
49
330
1
100
AcDbSymbolTableRecord
100
AcDbBlockTableRecord
  2
*D1
340
0
 70
     0
280
     1
281
     0
  0
BLOCK_RECORD
  5
54
330
1
100
AcDbSymbolTableRecord
100
AcDbBlockTableRecord
  2
*D2
340
0
 70
     0
280
     1
281
     0
  0
ENDTAB
  0
ENDSEC
  0
SECTION
  2
BLOCKS
  0
BLOCK
  5
20
330
1F
100
AcDbEntity
  8
0
100
AcDbBlockBegin
  2
*Model_Space
 70
     0
 10
0.0
 20
0.0
 30
0.0
  3
*Model_Space
  1

  0
ENDBLK
  5
21
330
1F
100
AcDbEntity
  8
0
100
AcDbBlockEnd
  0
BLOCK
  5
1C
330
1B
100
AcDbEntity
 67
     1
  8
0
100
AcDbBlockBegin
  2
*Paper_Space
 70
     0
 10
0.0
 20
0.0
 30
0.0
  3
*Paper_Space
  1

  0
ENDBLK
  5
1D
330
1B
100
AcDbEntity
 67
     1
  8
0
100
AcDbBlockEnd
  0
BLOCK
  5
24
330
23
100
AcDbEntity
  8
0
100
AcDbBlockBegin
  2
*Paper_Space0
 70
     0
 10
0.0
 20
0.0
 30
0.0
  3
*Paper_Space0
  1

  0
ENDBLK
  5
25
330
23
100
AcDbEntity
  8
0
100
AcDbBlockEnd
  0
BLOCK
  5
4A
330
49
100
AcDbEntity
  8
0
100
AcDbBlockBegin
  2
*D1
 70
     1
 10
0.0
 20
0.0
 30
0.0
  3
*D1
  1

  0
SOLID
  5
4C
330
49
100
AcDbEntity
  8
0
  6
Continuous
 62
     7
370
     0
100
AcDbTrace
 10
42.7614395004
 20
152.0299240879
 30
0.0
 11
42.4614395004
 21
149.5299240879
 31
0.0
 12
43.0614395004
 22
149.5299240879
 32
0.0
 13
43.0614395004
 23
149.5299240879
 33
0.0
  0
SOLID
  5
4D
330
49
100
AcDbEntity
  8
0
  6
Continuous
 62
     7
370
     0
100
AcDbTrace
 10
42.7614395004
 20
52.0299240879
 30
0.0
 11
43.0614395004
 21
54.5299240879
 31
0.0
 12
42.4614395004
 22
54.5299240879
 32
0.0
 13
42.4614395004
 23
54.5299240879
 33
0.0
  0
LINE
  5
4E
330
49
100
AcDbEntity
  8
0
  6
Continuous
 62
     7
370
     0
100
AcDbLine
 10
56.6850079902
 20
152.0299240879
 30
0.0
 11
41.7614395004
 21
152.0299240879
 31
0.0
  0
LINE
  5
4F
330
49
100
AcDbEntity
  8
0
  6
Continuous
 62
     7
370
     0
100
AcDbLine
 10
56.6850079902
 20
52.0299240879
 30
0.0
 11
41.7614395004
 21
52.0299240879
 31
0.0
  0
LINE
  5
50
330
49
100
AcDbEntity
  8
0
  6
Continuous
 62
     7
370
     0
100
AcDbLine
 10
42.7614395004
 20
152.0299240879
 30
0.0
 11
42.7614395004
 21
52.0299240879
 31
0.0
  0
MTEXT
  5
51
330
49
100
AcDbEntity
  8
0
  6
Continuous
 62
     7
370
     0
100
AcDbMText
 10
35.0270332946
 20
91.6722208134
 30
0.1
 40
6.0
 41
0.0
 46
0.0
 71
     1
 72
     1
  1
100
  7
SLDTEXTSTYLE0
 11
-7.044195017643634E-15
 21
1.0
 31
0.0
 73
     1
 44
1.0
  0
MTEXT
  5
52
330
49
100
AcDbEntity
  8
0
  6
Continuous
 62
     7
370
     0
100
AcDbMText
 10
35.0270332946
 20
108.4388881795
 30
0.1
 40
6.0
 41
0.0
 46
0.0
 71
     1
 72
     1
  1
mm
  7
SLDTEXTSTYLE0
 11
-7.044195017643634E-15
 21
1.0
 31
0.0
 73
     1
 44
1.0
  0
ENDBLK
  5
4B
330
49
100
AcDbEntity
  8
0
100
AcDbBlockEnd
  0
BLOCK
  5
55
330
54
100
AcDbEntity
  8
0
100
AcDbBlockBegin
  2
*D2
 70
     1
 10
0.0
 20
0.0
 30
0.0
  3
*D2
  1

  0
SOLID
  5
57
330
54
100
AcDbEntity
  8
0
  6
Continuous
 62
     7
370
     0
100
AcDbTrace
 10
56.6850079902
 20
38.4602342313
 30
0.0
 11
59.1850079902
 21
38.1602342313
 31
0.0
 12
59.1850079902
 22
38.7602342313
 32
0.0
 13
59.1850079902
 23
38.7602342313
 33
0.0
  0
SOLID
  5
58
330
54
100
AcDbEntity
  8
0
  6
Continuous
 62
     7
370
     0
100
AcDbTrace
 10
156.6850079902
 20
38.4602342313
 30
0.0
 11
154.1850079902
 21
38.7602342313
 31
0.0
 12
154.1850079902
 22
38.1602342313
 32
0.0
 13
154.1850079902
 23
38.1602342313
 33
0.0
  0
LINE
  5
59
330
54
100
AcDbEntity
  8
0
  6
Continuous
 62
     7
370
     0
100
AcDbLine
 10
56.6850079902
 20
52.0299240879
 30
0.0
 11
56.6850079902
 21
37.4602342313
 31
0.0
  0
LINE
  5
5A
330
54
100
AcDbEntity
  8
0
  6
Continuous
 62
     7
370
     0
100
AcDbLine
 10
156.6850079902
 20
52.0299240879
 30
0.0
 11
156.6850079902
 21
37.4602342313
 31
0.0
  0
LINE
  5
5B
330
54
100
AcDbEntity
  8
0
  6
Continuous
 62
     7
370
     0
100
AcDbLine
 10
56.6850079902
 20
38.4602342313
 30
0.0
 11
156.6850079902
 21
38.4602342313
 31
0.0
  0
MTEXT
  5
5C
330
54
100
AcDbEntity
  8
0
  6
Continuous
 62
     7
370
     0
100
AcDbMText
 10
91.2668151533
 20
46.1946404371
 30
0.1
 40
6.0
 41
0.0
 46
0.0
 71
     1
 72
     1
  1
100
  7
SLDTEXTSTYLE0
 73
     1
 44
1.0
  0
MTEXT
  5
5D
330
54
100
AcDbEntity
  8
0
  6
Continuous
 62
     7
370
     0
100
AcDbMText
 10
108.0334825193
 20
46.1946404371
 30
0.1
 40
6.0
 41
0.0
 46
0.0
 71
     1
 72
     1
  1
mm
  7
SLDTEXTSTYLE0
 73
     1
 44
1.0
  0
ENDBLK
  5
56
330
54
100
AcDbEntity
  8
0
100
AcDbBlockEnd
  0
ENDSEC
  0
SECTION
  2
ENTITIES
  0
LINE
  5
44
330
1F
100
AcDbEntity
  8
0
  6
Continuous
 62
     7
370
     0
100
AcDbLine
 10
56.6850079902
 20
152.0299240879
 30
0.0
 11
56.6850079902
 21
52.0299240879
 31
0.0
  0
LINE
  5
45
330
1F
100
AcDbEntity
  8
0
  6
Continuous
 62
     7
370
     0
100
AcDbLine
 10
56.6850079902
 20
52.0299240879
 30
0.0
 11
156.6850079902
 21
52.0299240879
 31
0.0
  0
DIMENSION
  5
46
330
1F
100
AcDbEntity
  8
0
  6
Continuous
 62
     7
370
     0
100
AcDbDimension
280
     0
  2
*D1
 10
42.7614395004
 20
52.0299240879
 30
0.0
 11
42.7614395004
 21
105.4472211621
 31
0.0
 70
   160
  1
<>mm
 71
     2
 42
-1.0
 73
     0
 74
     0
 75
     0
  3
SLDDIMSTYLE0
100
AcDbAlignedDimension
 13
56.6850079902
 23
152.0299240879
 33
0.0
 14
56.6850079902
 24
52.0299240879
 34
0.0
 50
90.0
100
AcDbRotatedDimension
  0
DIMENSION
  5
53
330
1F
100
AcDbEntity
  8
0
  6
Continuous
 62
     7
370
     0
100
AcDbDimension
280
     0
  2
*D2
 10
156.6850079902
 20
38.4602342313
 30
0.0
 11
105.0418155019
 21
38.4602342313
 31
0.0
 70
   160
  1
<>mm
 71
     2
 42
-1.0
 73
     0
 74
     0
 75
     0
  3
SLDDIMSTYLE0
100
AcDbAlignedDimension
 13
56.6850079902
 23
52.0299240879
 33
0.0
 14
156.6850079902
 24
52.0299240879
 34
0.0
100
AcDbRotatedDimension
  0
MTEXT
  5
5F
330
1F
100
AcDbEntity
  8
0
  6
Continuous
 62
     7
370
     0
100
AcDbMText
 10
261.3532417177
 20
49.3034557666
 30
0.0
 40
10.0
 41
0.0
 46
0.0
 71
     1
 72
     1
  1
53 830 05 75
  7
SLDTEXTSTYLE1
 73
     1
 44
1.0
  0
MTEXT
  5
60
330
1F
100
AcDbEntity
  8
0
  6
Continuous
 62
     7
370
     0
100
AcDbMText
 10
412.8252631579
 20
48.4342449499
 30
0.0
 40
10.0
 41
0.0
 46
0.0
 71
     1
 72
     1
  1
KLUDI GmbH & Co KG
  7
SLDTEXTSTYLE1
 73
     1
 44
1.0
  0
LINE
  5
61
330
1F
100
AcDbEntity
  8
0
  6
Continuous
 62
     7
370
    15
100
AcDbLine
 10
226.8493071004
 20
506.1255348242
 30
0.0
 11
226.8493071004
 21
513.965328263
 31
0.0
  0
LINE
  5
62
330
1F
100
AcDbEntity
  8
0
  6
Continuous
 62
     7
370
    15
100
AcDbLine
 10
214.7130071004
 20
513.965328263
 30
0.0
 11
214.7130071004
 21
506.1255348242
 31
0.0
  0
ARC
  5
63
330
1F
100
AcDbEntity
  8
0
  6
Continuous
 62
     7
370
    15
100
AcDbCircle
 10
226.3478071004
 20
513.965328263
 30
0.0
 40
0.501499999999985
100
AcDbArc
 50
0.0
 51
86.8024452128
  0
ARC
  5
64
330
1F
100
AcDbEntity
  8
0
  6
Continuous
 62
     7
370
    15
100
AcDbCircle
 10
215.2145071004
 20
513.965328263
 30
0.0
 40
0.501499999999993
100
AcDbArc
 50
93.1975547872
 51
180.0
  0
ARC
  5
65
330
1F
100
AcDbEntity
  8
0
  6
Continuous
 62
     7
370
    15
100
AcDbCircle
 10
220.7811571004
 20
414.3222
 30
0.0
 40
100.3000000000001
100
AcDbArc
 50
86.8024452128
 51
93.1975547872
  0
LINE
  5
66
330
1F
100
AcDbEntity
  8
0
  6
Continuous
 62
     7
370
    15
100
AcDbLine
 10
212.7571571032
 20
557.4503
 30
0.0
 11
212.7571571032
 21
553.828592669
 31
0.0
  0
LINE
  5
67
330
1F
100
AcDbEntity
  8
0
  6
Continuous
 62
     7
370
    15
100
AcDbLine
 10
228.8051571032
 20
553.8315327751
 30
0.0
 11
228.8051571032
 21
557.4503
 31
0.0
  0
ARC
  5
68
330
1F
100
AcDbEntity
  8
0
  6
Continuous
 62
     7
370
    15
100
AcDbCircle
 10
8.1451571032
 20
557.4503
 30
0.0
 40
220.6599999999999
100
AcDbArc
 50
0.0
 51
5.3331635089
  0
ARC
  5
69
330
1F
100
AcDbEntity
  8
0
  6
Continuous
 62
     7
370
    15
100
AcDbCircle
 10
433.4171571032
 20
557.4503
 30
0.0
 40
220.6599999999999
100
AcDbArc
 50
174.6668364911
 51
180.0
  0
ARC
  5
6A
330
1F
100
AcDbEntity
  8
0
  6
Continuous
 62
     7
370
    15
100
AcDbCircle
 10
215.7096958056
 20
577.7735136078
 30
0.0
 40
2.005999999999992
100
AcDbArc
 50
106.5986769674
 51
174.6668364911
  0
ARC
  5
6B
330
1F
100
AcDbEntity
  8
0
  6
Continuous
 62
     7
370
    15
100
AcDbCircle
 10
225.8526184008
 20
577.7735136078
 30
0.0
 40
2.005999999999964
100
AcDbArc
 50
5.3331635089
 51
73.4013230326
  0
ARC
  5
6C
330
1F
100
AcDbEntity
  8
0
  6
Continuous
 62
     7
370
    15
100
AcDbCircle
 10
220.7811571032
 20
560.7602
 30
0.0
 40
19.75909999999993
100
AcDbArc
 50
73.4013230326
 51
106.5986769674
  0
CIRCLE
  5
6D
330
1F
100
AcDbEntity
  8
0
  6
Continuous
 62
     7
370
    15
100
AcDbCircle
 10
220.7811571004
 20
479.116
 30
0.0
 40
27.68280000000001
  0
CIRCLE
  5
6E
330
1F
100
AcDbEntity
  8
0
  6
Continuous
 62
     7
370
    15
100
AcDbCircle
 10
220.7811571032
 20
542.305
 30
0.0
 40
14.042
  0
SPLINE
  5
6F
330
1F
100
AcDbEntity
  8
0
  6
Continuous
 62
     7
370
    15
100
AcDbSpline
210
0.0
220
0.0
230
1.0
 70
     8
 71
     3
 72
    54
 73
    50
 74
     0
 42
0.00000001
 43
0.00000001
 40
0.0
 40
0.0
 40
0.0
 40
0.0
 40
0.0625000000000002
 40
0.0625000000000002
 40
0.1250000000000003
 40
0.1250000000000003
 40
0.1875000000000004
 40
0.1875000000000004
 40
0.2500000000000006
 40
0.2500000000000006
 40
0.3125000000000008
 40
0.3125000000000008
 40
0.3437500000000008
 40
0.3437500000000008
 40
0.3750000000000008
 40
0.3750000000000008
 40
0.4062500000000008
 40
0.4062500000000008
 40
0.4218750000000007
 40
0.4218750000000007
 40
0.4375000000000006
 40
0.4375000000000006
 40
0.4687500000000006
 40
0.4687500000000006
 40
0.4843750000000005
 40
0.4843750000000005
 40
0.5000000000000003
 40
0.5000000000000003
 40
0.5625000000000001
 40
0.5625000000000001
 40
0.5781250000000001
 40
0.5781250000000001
 40
0.59375
 40
0.59375
 40
0.625
 40
0.625
 40
0.6562499999999999
 40
0.6562499999999999
 40
0.6874999999999999
 40
0.6874999999999999
 40
0.7499999999999999
 40
0.7499999999999999
 40
0.8125
 40
0.8125
 40
0.875
 40
0.875
 40
0.9375000000000001
 40
0.9375000000000001
 40
1.0
 40
1.0
 40
1.0
 40
1.0
 10
135.5227159428277
 20
511.2120000001735
 30
0.0
 10
135.5227159426325
 20
508.0865420914583
 30
0.0
 10
135.5320965207245
 20
504.9612153534627
 30
0.0
 10
135.5857256695854
 20
498.7110494443943
 30
0.0
 10
135.6298202474184
 20
495.586208120004
 30
0.0
 10
135.7775343336265
 20
489.3373578216111
 30
0.0
 10
135.880928805913
 20
486.2122531256823
 30
0.0
 10
136.1865638748205
 20
479.971705351647
 30
0.0
 10
136.3882258863307
 20
476.8558341743735
 30
0.0
 10
136.9563634987159
 20
470.6389476733355
 30
0.0
 10
137.3215667297719
 20
467.537817661579
 30
0.0
 10
138.0816805310446
 20
462.9052596018955
 30
0.0
 10
138.3709189385302
 20
461.3658135626198
 30
0.0
 10
139.0395929184681
 20
458.3180687963795
 30
0.0
 10
139.4193021372551
 20
456.8075563029357
 30
0.0
 10
140.2971485564354
 20
453.821402531549
 30
0.0
 10
140.7951937380545
 20
452.345734158603
 30
0.0
 10
141.65857979345
 20
450.1664816122045
 30
0.0
 10
141.9658413114901
 20
449.4457959252199
 30
0.0
 10
142.6250165451865
 20
448.0175724271541
 30
0.0
 10
142.9749010723099
 20
447.3146603585908
 30
0.0
 10
144.086505831916
 20
445.2510776646925
 30
0.0
 10
144.9118538344271
 20
443.9320710971509
 30
0.0
 10
146.2951661522739
 20
442.051334774292
 30
0.0
 10
146.7804738897902
 20
441.4407105691023
 30
0.0
 10
147.8024148854462
 20
440.2540018132265
 30
0.0
 10
148.3417500830354
 20
439.6753827569497
 30
0.0
 10
151.1336012549441
 20
436.9112136876504
 30
0.0
 10
153.6678708558223
 20
435.1118196656828
 30
0.0
 10
157.1381875572993
 20
433.2768343096411
 30
0.0
 10
157.846474505004
 20
432.931036454895
 30
0.0
 10
159.271680804074
 20
432.285334245485
 30
0.0
 10
159.9909912438703
 20
431.984122133635
 30
0.0
 10
162.1665200596624
 20
431.1372586652339
 30
0.0
 10
163.6402444465384
 20
430.6480850261507
 30
0.0
 10
166.6235086473451
 20
429.7852851210565
 30
0.0
 10
168.1330735651233
 20
429.4117398448279
 30
0.0
 10
171.1797878305894
 20
428.7536419046578
 30
0.0
 10
172.7199867740694
 20
428.4687123680291
 30
0.0
 10
177.3445109177029
 20
427.7213750369957
 30
0.0
 10
180.4348856207524
 20
427.3627849988184
 30
0.0
 10
186.6240265677767
 20
426.8048404278607
 30
0.0
 10
189.7228619439302
 20
426.6067977277389
 30
0.0
 10
195.9255805025918
 20
426.3064980721126
 30
0.0
 10
199.0294939578711
 20
426.2048155641484
 30
0.0
 10
205.2403710884694
 20
426.0593306603364
 30
0.0
 10
208.3473494203653
 20
426.0158063835449
 30
0.0
 10
214.5631025821703
 20
425.9628476677663
 30
0.0
 10
217.6718850857561
 20
425.9535588422982
 30
0.0
 10
220.781157100522
 20
425.9535588424276
 30
0.0
  0
SPLINE
  5
70
330
1F
100
AcDbEntity
  8
0
  6
Continuous
 62
     7
370
    15
100
AcDbSpline
210
0.0
220
0.0
230
1.0
 70
     8
 71
     3
 72
    54
 73
    50
 74
     0
 42
0.00000001
 43
0.00000001
 40
0.0
 40
0.0
 40
0.0
 40
0.0
 40
0.0624999999999998
 40
0.0624999999999998
 40
0.1249999999999995
 40
0.1249999999999995
 40
0.1874999999999993
 40
0.1874999999999993
 40
0.249999999999999
 40
0.249999999999999
 40
0.3124999999999988
 40
0.3124999999999988
 40
0.3437499999999987
 40
0.3437499999999987
 40
0.3749999999999986
 40
0.3749999999999986
 40
0.4062499999999986
 40
0.4062499999999986
 40
0.4218749999999986
 40
0.4218749999999986
 40
0.4374999999999985
 40
0.4374999999999985
 40
0.4687499999999981
 40
0.4687499999999981
 40
0.484374999999998
 40
0.484374999999998
 40
0.4999999999999979
 40
0.4999999999999979
 40
0.5624999999999973
 40
0.5624999999999973
 40
0.5781249999999972
 40
0.5781249999999972
 40
0.5937499999999972
 40
0.5937499999999972
 40
0.6249999999999976
 40
0.6249999999999976
 40
0.6562499999999977
 40
0.6562499999999977
 40
0.6874999999999979
 40
0.6874999999999979
 40
0.7499999999999983
 40
0.7499999999999983
 40
0.8124999999999988
 40
0.8124999999999988
 40
0.8749999999999991
 40
0.8749999999999991
 40
0.9374999999999996
 40
0.9374999999999996
 40
1.0
 40
1.0
 40
1.0
 40
1.0
 10
220.7811571005737
 20
596.4704411576072
 30
0.0
 10
217.6556991918584
 20
596.4704411578024
 30
0.0
 10
214.5303724538629
 20
596.4610605797083
 30
0.0
 10
208.2802065447947
 20
596.4074314308403
 30
0.0
 10
205.1553652204045
 20
596.3633368530024
 30
0.0
 10
198.906514922012
 20
596.2156227667841
 30
0.0
 10
195.7814102260834
 20
596.1122282944924
 30
0.0
 10
189.540862452048
 20
595.8065932255786
 30
0.0
 10
186.4249912747742
 20
595.6049312140672
 30
0.0
 10
180.2081047737342
 20
595.0367936016913
 30
0.0
 10
177.1069747619754
 20
594.6715903706521
 30
0.0
 10
172.4744167022883
 20
593.9114765694034
 30
0.0
 10
170.9349706630127
 20
593.6222381619204
 30
0.0
 10
167.8872258967745
 20
592.9535641819817
 30
0.0
 10
166.3767134033327
 20
592.5738549631913
 30
0.0
 10
163.3905596319496
 20
591.6960085440032
 30
0.0
 10
161.9148912590054
 20
591.1979633623802
 30
0.0
 10
159.7356387126073
 20
590.3345773069857
 30
0.0
 10
159.0149530256224
 20
590.0273157889471
 30
0.0
 10
157.5867295275559
 20
589.368140555254
 30
0.0
 10
156.8838174589934
 20
589.0182560281332
 30
0.0
 10
154.8202347650957
 20
587.9066512685331
 30
0.0
 10
153.5012281975543
 20
587.0813032660252
 30
0.0
 10
151.6204918746974
 20
585.6979909481795
 30
0.0
 10
151.0098676695086
 20
585.212683210663
 30
0.0
 10
149.8231589136354
 20
584.1907422150048
 30
0.0
 10
149.2445398573604
 20
583.6514070174134
 30
0.0
 10
146.4803707880752
 20
580.8595558454986
 30
0.0
 10
144.6809767661017
 20
578.3252862446244
 30
0.0
 10
142.8459914100526
 20
574.8549695431491
 30
0.0
 10
142.5001935553056
 20
574.1466825954461
 30
0.0
 10
141.8544913458936
 20
572.7214762963789
 30
0.0
 10
141.5532792340429
 20
572.0021658565837
 30
0.0
 10
140.7064157656364
 20
569.8266370407954
 30
0.0
 10
140.2172421265464
 20
568.3529126539225
 30
0.0
 10
139.354442221442
 20
565.3696484531205
 30
0.0
 10
138.98089694521
 20
563.8600835353435
 30
0.0
 10
138.3227990050411
 20
560.8133692698773
 30
0.0
 10
138.0378694684171
 20
559.2731703263951
 30
0.0
 10
137.2905321374152
 20
554.6486461827574
 30
0.0
 10
136.9319420992528
 20
551.5582714797051
 30
0.0
 10
136.3739975283019
 20
545.3691305326769
 30
0.0
 10
136.1759548281772
 20
542.2702951565217
 30
0.0
 10
135.8756551725426
 20
536.0675765978567
 30
0.0
 10
135.7739726645727
 20
532.9636631425759
 30
0.0
 10
135.6284877607501
 20
526.7527860119743
 30
0.0
 10
135.5849634839538
 20
523.6458076800767
 30
0.0
 10
135.5320047681683
 20
517.4300545182683
 30
0.0
 10
135.5227159426982
 20
514.3212720146809
 30
0.0
 10
135.5227159428277
 20
511.211999999913
 30
0.0
  0
SPLINE
  5
71
330
1F
100
AcDbEntity
  8
0
  6
Continuous
 62
     7
370
    15
100
AcDbSpline
210
0.0
220
0.0
230
1.0
 70
     8
 71
     3
 72
    54
 73
    50
 74
     0
 42
0.00000001
 43
0.00000001
 40
0.0
 40
0.0
 40
0.0
 40
0.0
 40
0.0625000000000003
 40
0.0625000000000003
 40
0.1250000000000007
 40
0.1250000000000007
 40
0.187500000000001
 40
0.187500000000001
 40
0.2500000000000014
 40
0.2500000000000014
 40
0.3125000000000017
 40
0.3125000000000017
 40
0.3437500000000019
 40
0.3437500000000019
 40
0.3750000000000021
 40
0.3750000000000021
 40
0.4062500000000023
 40
0.4062500000000023
 40
0.4218750000000024
 40
0.4218750000000024
 40
0.4375000000000026
 40
0.4375000000000026
 40
0.4687500000000032
 40
0.4687500000000032
 40
0.4843750000000035
 40
0.4843750000000035
 40
0.5000000000000037
 40
0.5000000000000037
 40
0.5625000000000044
 40
0.5625000000000044
 40
0.5781250000000044
 40
0.5781250000000044
 40
0.5937500000000043
 40
0.5937500000000043
 40
0.6250000000000041
 40
0.6250000000000041
 40
0.6562500000000038
 40
0.6562500000000038
 40
0.6875000000000036
 40
0.6875000000000036
 40
0.7500000000000028
 40
0.7500000000000028
 40
0.8125000000000021
 40
0.8125000000000021
 40
0.8750000000000014
 40
0.8750000000000014
 40
0.9375000000000008
 40
0.9375000000000008
 40
1.0
 40
1.0
 40
1.0
 40
1.0
 10
306.0395982580072
 20
511.2119999998612
 30
0.0
 10
306.0395982582024
 20
514.3374579085757
 30
0.0
 10
306.0302176801085
 20
517.4627846465706
 30
0.0
 10
305.9765885312406
 20
523.7129505556371
 30
0.0
 10
305.9324939534028
 20
526.8377918800267
 30
0.0
 10
305.7847798671846
 20
533.0866421784177
 30
0.0
 10
305.6813853948926
 20
536.2117468743455
 30
0.0
 10
305.375750325978
 20
542.4522946483794
 30
0.0
 10
305.1740883144659
 20
545.5681658256524
 30
0.0
 10
304.6059507020898
 20
551.7850523266908
 30
0.0
 10
304.2407474710514
 20
554.886182338449
 30
0.0
 10
303.4806336698082
 20
559.5187403981356
 30
0.0
 10
303.1913952623271
 20
561.0581864374111
 30
0.0
 10
302.5227212823914
 20
564.1059312036488
 30
0.0
 10
302.1430120636019
 20
565.6164436970902
 30
0.0
 10
301.2651656444144
 20
568.602597468472
 30
0.0
 10
300.7671204627906
 20
570.0782658414151
 30
0.0
 10
299.9037344073926
 20
572.257518387811
 30
0.0
 10
299.5964728893525
 20
572.978204074795
 30
0.0
 10
298.9372976556576
 20
574.4064275728603
 30
0.0
 10
298.5874131285363
 20
575.1093396414224
 30
0.0
 10
297.4758083689362
 20
577.1729223353198
 30
0.0
 10
296.65046036643
 20
578.4919289028622
 30
0.0
 10
295.2671480485879
 20
580.3726652257213
 30
0.0
 10
294.7818403110726
 20
580.9832894309109
 30
0.0
 10
293.7598993154168
 20
582.1699981867854
 30
0.0
 10
293.2205641178265
 20
582.7486172430608
 30
0.0
 10
290.4287129459124
 20
585.5127863123492
 30
0.0
 10
287.8944433450444
 20
587.3121803343305
 30
0.0
 10
284.4241266435699
 20
589.1471656903783
 30
0.0
 10
283.7158396958656
 20
589.492963545125
 30
0.0
 10
282.2906333967965
 20
590.1386657545354
 30
0.0
 10
281.5713229570004
 20
590.4398778663844
 30
0.0
 10
279.3957941412097
 20
591.2867413347878
 30
0.0
 10
277.9220697543359
 20
591.7759149738773
 30
0.0
 10
274.9388055535332
 20
592.6387148789822
 30
0.0
 10
273.4292406357566
 20
593.0122601552152
 30
0.0
 10
270.3825263702913
 20
593.6703580953869
 30
0.0
 10
268.84232742681
 20
593.9552876320126
 30
0.0
 10
264.2178032831706
 20
594.7026249630203
 30
0.0
 10
261.1274285801174
 20
595.0612150011833
 30
0.0
 10
254.938287633087
 20
595.6191595721341
 30
0.0
 10
251.8394522569307
 20
595.8172022722581
 30
0.0
 10
245.6367336982638
 20
596.117501927892
 30
0.0
 10
242.5328202429819
 20
596.2191844358617
 30
0.0
 10
236.3219431123785
 20
596.3646693396844
 30
0.0
 10
233.21496478048
 20
596.4081936164807
 30
0.0
 10
226.9992116186697
 20
596.4611523322664
 30
0.0
 10
223.8904291150816
 20
596.4704411577367
 30
0.0
 10
220.781157100313
 20
596.4704411576072
 30
0.0
  0
SPLINE
  5
72
330
1F
100
AcDbEntity
  8
0
  6
Continuous
 62
     7
370
    15
100
AcDbSpline
210
0.0
220
0.0
230
1.0
 70
     8
 71
     3
 72
    54
 73
    50
 74
     0
 42
0.00000001
 43
0.00000001
 40
0.0
 40
0.0
 40
0.0
 40
0.0
 40
0.0624999999999994
 40
0.0624999999999994
 40
0.1249999999999989
 40
0.1249999999999989
 40
0.1874999999999983
 40
0.1874999999999983
 40
0.2499999999999978
 40
0.2499999999999978
 40
0.3124999999999973
 40
0.3124999999999973
 40
0.3437499999999969
 40
0.3437499999999969
 40
0.3749999999999966
 40
0.3749999999999966
 40
0.4062499999999962
 40
0.4062499999999962
 40
0.4218749999999959
 40
0.4218749999999959
 40
0.4374999999999956
 40
0.4374999999999956
 40
0.4687499999999953
 40
0.4687499999999953
 40
0.4843749999999951
 40
0.4843749999999951
 40
0.4999999999999949
 40
0.4999999999999949
 40
0.5624999999999952
 40
0.5624999999999952
 40
0.5781249999999953
 40
0.5781249999999953
 40
0.5937499999999953
 40
0.5937499999999953
 40
0.6249999999999957
 40
0.6249999999999957
 40
0.6562499999999959
 40
0.6562499999999959
 40
0.6874999999999962
 40
0.6874999999999962
 40
0.7499999999999969
 40
0.7499999999999969
 40
0.8124999999999977
 40
0.8124999999999977
 40
0.8749999999999984
 40
0.8749999999999984
 40
0.9374999999999992
 40
0.9374999999999992
 40
1.0
 40
1.0
 40
1.0
 40
1.0
 10
220.7811571002613
 20
425.9535588424276
 30
0.0
 10
223.9066150089749
 20
425.9535588422324
 30
0.0
 10
227.0319417469689
 20
425.9629394203265
 30
0.0
 10
233.2821076560338
 20
426.0165685691945
 30
0.0
 10
236.4069489804224
 20
426.0606631470323
 30
0.0
 10
242.6557992788118
 20
426.2083772332504
 30
0.0
 10
245.7809039747386
 20
426.311771705542
 30
0.0
 10
252.0214517487709
 20
426.6174067744558
 30
0.0
 10
255.1373229260431
 20
426.8190687859674
 30
0.0
 10
261.35420942708
 20
427.3872063983425
 30
0.0
 10
264.4553394388372
 20
427.7524096293824
 30
0.0
 10
269.0878974985226
 20
428.5125234306246
 30
0.0
 10
270.627343537798
 20
428.8017618381033
 30
0.0
 10
273.6750883040357
 20
429.4704358180339
 30
0.0
 10
275.1856007974773
 20
429.8501450368203
 30
0.0
 10
278.1717545688583
 20
430.7279914560054
 30
0.0
 10
279.6474229418006
 20
431.2260366376297
 30
0.0
 10
281.8266754881931
 20
432.0894226930352
 30
0.0
 10
282.5473611751757
 20
432.3966842110785
 30
0.0
 10
283.9755846732393
 20
433.055859444776
 30
0.0
 10
284.6784967418014
 20
433.4057439718977
 30
0.0
 10
286.7420794357001
 20
434.5173487314972
 30
0.0
 10
288.0610860032448
 20
435.3426967340005
 30
0.0
 10
289.9418223261067
 20
436.7260090518391
 30
0.0
 10
290.5524465312972
 20
437.2113167893532
 30
0.0
 10
291.7391552871731
 20
438.2332577850074
 30
0.0
 10
292.3177743434492
 20
438.7725929825972
 30
0.0
 10
295.0819434127406
 20
441.5644441545115
 30
0.0
 10
296.8813374347198
 20
444.0987137553818
 30
0.0
 10
298.7163227907697
 20
447.569030456854
 30
0.0
 10
299.0621206455174
 20
448.2773174045583
 30
0.0
 10
299.7078228549299
 20
449.7025237036273
 30
0.0
 10
300.0090349667803
 20
450.4218341434232
 30
0.0
 10
300.8558984351865
 20
452.5973629592136
 30
0.0
 10
301.3450720742761
 20
454.0710873460876
 30
0.0
 10
302.2078719793811
 20
457.0543515468905
 30
0.0
 10
302.5814172556139
 20
458.5639164646673
 30
0.0
 10
303.2395151957853
 20
461.6106307301328
 30
0.0
 10
303.524444732411
 20
463.150829673614
 30
0.0
 10
304.2717820634192
 20
467.7753538172545
 30
0.0
 10
304.6303721015826
 20
470.8657285203084
 30
0.0
 10
305.1883166725337
 20
477.0548694673402
 30
0.0
 10
305.3863593726578
 20
480.1537048434972
 30
0.0
 10
305.686659028292
 20
486.3564234021654
 30
0.0
 10
305.7883415362618
 20
489.4603368574479
 30
0.0
 10
305.9338264400844
 20
495.6712139880526
 30
0.0
 10
305.9773507168808
 20
498.7781923199518
 30
0.0
 10
306.0303094326665
 20
504.9939454817633
 30
0.0
 10
306.0395982581367
 20
508.1027279853525
 30
0.0
 10
306.0395982580072
 20
511.2120000001219
 30
0.0
  0
CIRCLE
  5
73
330
1F
100
AcDbEntity
  8
0
  6
Continuous
 62
     8
370
     0
100
AcDbCircle
 10
220.7811571004
 20
479.116
 30
0.0
 40
25.82767794398151
  0
LINE
  5
74
330
1F
100
AcDbEntity
  8
0
  6
Continuous
 62
     8
370
     0
100
AcDbLine
 10
226.375780216
 20
514.4660475005
 30
0.0
 11
215.1865339848
 21
514.4660475005
 31
0.0
  0
CIRCLE
  5
75
330
1F
100
AcDbEntity
  8
0
  6
Continuous
 62
     8
370
     0
100
AcDbCircle
 10
220.7811571032
 20
542.305
 30
0.0
 40
13.28046296296299
  0
LINE
  5
76
330
1F
100
AcDbEntity
  8
0
  6
Continuous
 62
     8
370
     0
100
AcDbLine
 10
213.7123796469
 20
577.9599651088
 30
0.0
 11
227.8499345595
 21
577.9599651088
 31
0.0
  0
LINE
  5
77
330
1F
100
AcDbEntity
  8
0
  6
Continuous
 62
     8
370
     0
100
AcDbLine
 10
215.1366493313
 20
579.6959219251
 30
0.0
 11
226.4256648752
 21
579.6959219251
 31
0.0
  0
SPLINE
  5
78
330
1F
100
AcDbEntity
  8
0
  6
Continuous
 62
     8
370
     0
100
AcDbSpline
210
0.0
220
0.0
230
1.0
 70
     8
 71
     3
 72
    52
 73
    48
 74
     0
 42
0.00000001
 43
0.00000001
 40
0.0
 40
0.0
 40
0.0
 40
0.0
 40
0.1249999999999998
 40
0.1249999999999998
 40
0.1874999999999996
 40
0.1874999999999996
 40
0.2499999999999995
 40
0.2499999999999995
 40
0.3124999999999994
 40
0.3124999999999994
 40
0.3437499999999993
 40
0.3437499999999993
 40
0.3749999999999992
 40
0.3749999999999992
 40
0.4062499999999992
 40
0.4062499999999992
 40
0.4374999999999991
 40
0.4374999999999991
 40
0.453124999999999
 40
0.453124999999999
 40
0.4687499999999988
 40
0.4687499999999988
 40
0.4999999999999986
 40
0.4999999999999986
 40
0.5156249999999986
 40
0.5156249999999986
 40
0.5312499999999984
 40
0.5312499999999984
 40
0.5624999999999986
 40
0.5624999999999986
 40
0.5781249999999987
 40
0.5781249999999987
 40
0.5937499999999987
 40
0.5937499999999987
 40
0.6249999999999989
 40
0.6249999999999989
 40
0.656249999999999
 40
0.656249999999999
 40
0.6874999999999992
 40
0.6874999999999992
 40
0.7499999999999992
 40
0.7499999999999992
 40
0.8124999999999994
 40
0.8124999999999994
 40
0.8749999999999997
 40
0.8749999999999997
 40
1.0
 40
1.0
 40
1.0
 40
1.0
 10
139.9590480964038
 20
511.2120000000822
 30
0.0
 10
139.959048072049
 20
517.1101653564231
 30
0.0
 10
139.989436684063
 20
523.0076438393728
 30
0.0
 10
140.1815156666754
 20
531.8493810538255
 30
0.0
 10
140.2706374184988
 20
534.7958581702281
 30
0.0
 10
140.5317876918512
 20
540.6862662841926
 30
0.0
 10
140.7033139863149
 20
543.6302069878533
 30
0.0
 10
141.1837326742213
 20
549.5140159829863
 30
0.0
 10
141.491379801002
 20
552.4539102756306
 30
0.0
 10
142.1311740466018
 20
556.8588062030707
 30
0.0
 10
142.3746181793734
 20
558.3262637856976
 30
0.0
 10
142.9435400444338
 20
561.2589585217145
 30
0.0
 10
143.2673286344654
 20
562.7152586461954
 30
0.0
 10
144.0185862276907
 20
565.5959106376785
 30
0.0
 10
144.446041675682
 20
567.0210318332785
 30
0.0
 10
145.441442361993
 20
569.8300110108044
 30
0.0
 10
146.0092310592016
 20
571.2139245441738
 30
0.0
 10
147.0054139336241
 20
573.246742000428
 30
0.0
 10
147.3625709122573
 20
573.9180729804477
 30
0.0
 10
148.1206098763868
 20
575.2223585206367
 30
0.0
 10
148.5226329666066
 20
575.8578274889546
 30
0.0
 10
149.8032776237458
 20
577.709530015164
 30
0.0
 10
150.7569883896659
 20
578.8707588733101
 30
0.0
 10
152.3531023515302
 20
580.4870563927341
 30
0.0
 10
152.9156286238839
 20
581.0072633015116
 30
0.0
 10
154.0746473832827
 20
581.9865941398737
 30
0.0
 10
154.6722701300099
 20
582.4474144723393
 30
0.0
 10
156.5144711599594
 20
583.7499090901381
 30
0.0
 10
157.8082745082712
 20
584.5116151131222
 30
0.0
 10
159.8275690796443
 20
585.5235318671176
 30
0.0
 10
160.51590016929
 20
585.8399411181816
 30
0.0
 10
161.9042747163933
 20
586.4292226131121
 30
0.0
 10
162.6036629828372
 20
586.7020143530036
 30
0.0
 10
164.7148169544985
 20
587.4648346671107
 30
0.0
 10
166.1394855658805
 20
587.899859555457
 30
0.0
 10
169.0137511067919
 20
588.6631868643695
 30
0.0
 10
170.4634061925946
 20
588.9912935501583
 30
0.0
 10
173.3814020174437
 20
589.5679428050345
 30
0.0
 10
174.8503652403134
 20
589.8164562764897
 30
0.0
 10
179.2749575525287
 20
590.4708484578877
 30
0.0
 10
182.2310113559906
 20
590.7853070536873
 30
0.0
 10
188.1505979203003
 20
591.2760740631312
 30
0.0
 10
191.1141871798563
 20
591.4511145032706
 30
0.0
 10
197.04599444153
 20
591.7174274442472
 30
0.0
 10
200.0143039474091
 20
591.8081727572244
 30
0.0
 10
208.9156532415957
 20
592.0034804123767
 30
0.0
 10
214.8487097162715
 20
592.034109558881
 30
0.0
 10
220.78115710032
 20
592.0341095826167
 30
0.0
  0
SPLINE
  5
79
330
1F
100
AcDbEntity
  8
0
  6
Continuous
 62
     8
370
     0
100
AcDbSpline
210
0.0
220
0.0
230
1.0
 70
     8
 71
     3
 72
    52
 73
    48
 74
     0
 42
0.00000001
 43
0.00000001
 40
0.0
 40
0.0
 40
0.0
 40
0.0
 40
0.1250000000000005
 40
0.1250000000000005
 40
0.1875000000000007
 40
0.1875000000000007
 40
0.2500000000000009
 40
0.2500000000000009
 40
0.3125000000000011
 40
0.3125000000000011
 40
0.3437500000000011
 40
0.3437500000000011
 40
0.3750000000000011
 40
0.3750000000000011
 40
0.4062500000000011
 40
0.4062500000000011
 40
0.4375000000000011
 40
0.4375000000000011
 40
0.4531250000000011
 40
0.4531250000000011
 40
0.468750000000001
 40
0.468750000000001
 40
0.5000000000000007
 40
0.5000000000000007
 40
0.5156250000000007
 40
0.5156250000000007
 40
0.5312500000000004
 40
0.5312500000000004
 40
0.5625000000000001
 40
0.5625000000000001
 40
0.5781250000000001
 40
0.5781250000000001
 40
0.59375
 40
0.59375
 40
0.625
 40
0.625
 40
0.65625
 40
0.65625
 40
0.6875
 40
0.6875
 40
0.75
 40
0.75
 40
0.8125000000000001
 40
0.8125000000000001
 40
0.8750000000000001
 40
0.8750000000000001
 40
1.0
 40
1.0
 40
1.0
 40
1.0
 10
220.7811587646809
 20
592.0341095826169
 30
0.0
 10
226.6793240541587
 20
592.034109600555
 30
0.0
 10
232.5768024706893
 20
592.003720978981
 30
0.0
 10
241.4185395905298
 20
591.8116419731447
 30
0.0
 10
244.3650166761601
 20
591.7225202120717
 30
0.0
 10
250.2554247311269
 20
591.461369915625
 30
0.0
 10
253.19936540654
 20
591.2898436073634
 30
0.0
 10
259.083174349604
 20
590.8094248841775
 30
0.0
 10
262.0230686183761
 20
590.5017777360647
 30
0.0
 10
266.4279645161632
 20
589.8619834473153
 30
0.0
 10
267.8954220899321
 20
589.6185392982835
 30
0.0
 10
270.8281168111173
 20
589.049617395056
 30
0.0
 10
272.2844169192903
 20
588.7258287855083
 30
0.0
 10
275.1650688898598
 20
587.9745711447712
 30
0.0
 10
276.5901900762391
 20
587.5471156696799
 30
0.0
 10
279.3991692381925
 20
586.5517149190742
 30
0.0
 10
280.7830827652159
 20
585.9839261847418
 30
0.0
 10
282.8159002136903
 20
584.9877432434251
 30
0.0
 10
283.4872311860528
 20
584.6305862432405
 30
0.0
 10
284.7915167085133
 20
583.8725472356698
 30
0.0
 10
285.4269856680856
 20
583.4705241226077
 30
0.0
 10
287.2786881679594
 20
582.1898793939183
 30
0.0
 10
288.4399170083733
 20
581.2361685760957
 30
0.0
 10
290.0562144990301
 20
579.6400545343752
 30
0.0
 10
290.576421395889
 20
579.0775282366757
 30
0.0
 10
291.5557522029138
 20
577.9185094383008
 30
0.0
 10
292.0165725202514
 20
577.3208866729481
 30
0.0
 10
293.3190670942236
 20
575.4786855905643
 30
0.0
 10
294.0807730900636
 20
574.1848822120062
 30
0.0
 10
295.0926898066891
 20
572.1655876035478
 30
0.0
 10
295.4090990459908
 20
571.4772565022793
 30
0.0
 10
295.9983805151033
 20
570.0888819440038
 30
0.0
 10
296.2711722431125
 20
569.3894936729785
 30
0.0
 10
297.0339925242311
 20
567.2783396905616
 30
0.0
 10
297.4690173940878
 20
565.8536710758027
 30
0.0
 10
298.2323446710056
 20
562.9794055337026
 30
0.0
 10
298.5604513433009
 20
561.5297504500855
 30
0.0
 10
299.1371005748235
 20
558.6117546336206
 30
0.0
 10
299.385614036577
 20
557.1427914158724
 30
0.0
 10
300.0400061918537
 20
552.7181991305547
 30
0.0
 10
300.3544647759654
 20
549.7621453497267
 30
0.0
 10
300.8452317677762
 20
543.8425588356321
 30
0.0
 10
301.020272202054
 20
540.8789696037176
 30
0.0
 10
301.2865851344237
 20
534.9471624002003
 30
0.0
 10
301.3773304446839
 20
531.9788529249881
 30
0.0
 10
301.572638094227
 20
523.0775037252296
 30
0.0
 10
301.603267240243
 20
517.1444473167069
 30
0.0
 10
301.603267264082
 20
511.212000000115
 30
0.0
  0
SPLINE
  5
7A
330
1F
100
AcDbEntity
  8
0
  6
Continuous
 62
     8
370
     0
100
AcDbSpline
210
0.0
220
0.0
230
1.0
 70
     8
 71
     3
 72
    52
 73
    48
 74
     0
 42
0.00000001
 43
0.00000001
 40
0.0
 40
0.0
 40
0.0
 40
0.0
 40
0.1249999999999993
 40
0.1249999999999993
 40
0.187499999999999
 40
0.187499999999999
 40
0.2499999999999987
 40
0.2499999999999987
 40
0.3124999999999984
 40
0.3124999999999984
 40
0.3437499999999983
 40
0.3437499999999983
 40
0.3749999999999982
 40
0.3749999999999982
 40
0.4062499999999981
 40
0.4062499999999981
 40
0.4374999999999979
 40
0.4374999999999979
 40
0.4531249999999979
 40
0.4531249999999979
 40
0.468749999999998
 40
0.468749999999998
 40
0.499999999999998
 40
0.499999999999998
 40
0.5156249999999979
 40
0.5156249999999979
 40
0.5312499999999978
 40
0.5312499999999978
 40
0.5624999999999979
 40
0.5624999999999979
 40
0.5781249999999979
 40
0.5781249999999979
 40
0.5937499999999979
 40
0.5937499999999979
 40
0.6249999999999981
 40
0.6249999999999981
 40
0.6562499999999982
 40
0.6562499999999982
 40
0.6874999999999984
 40
0.6874999999999984
 40
0.7499999999999988
 40
0.7499999999999988
 40
0.8124999999999991
 40
0.8124999999999991
 40
0.8749999999999994
 40
0.8749999999999994
 40
1.0
 40
1.0
 40
1.0
 40
1.0
 10
301.603267264082
 20
511.2119999999526
 30
0.0
 10
301.6032672402122
 20
505.3138346390646
 30
0.0
 10
301.5728785799593
 20
499.4163561493742
 30
0.0
 10
301.380799524624
 20
490.5746189187665
 30
0.0
 10
301.2916777484961
 20
487.6281417959526
 30
0.0
 10
301.0305274261715
 20
481.7377336661524
 30
0.0
 10
300.8590011070543
 20
478.7937929530854
 30
0.0
 10
300.3785823688604
 20
472.9099839344328
 30
0.0
 10
300.0709352164949
 20
469.9700896277137
 30
0.0
 10
299.4311409304142
 20
465.5651936732011
 30
0.0
 10
299.187696783787
 20
464.0977360805544
 30
0.0
 10
298.6187748897567
 20
461.1650413218587
 30
0.0
 10
298.2949862846307
 20
459.7087411847946
 30
0.0
 10
297.5437286591246
 20
456.8280891650891
 30
0.0
 10
297.116273193953
 20
455.4029679538311
 30
0.0
 10
296.1208724697292
 20
452.5939887414912
 30
0.0
 10
295.5530837517892
 20
451.2100751889617
 30
0.0
 10
294.5569008420657
 20
449.1772577017527
 30
0.0
 10
294.1997438509359
 20
448.5059267110285
 30
0.0
 10
293.4417048604454
 20
447.2016411494743
 30
0.0
 10
293.0396817563379
 20
446.5661721704506
 30
0.0
 10
291.7590370555074
 20
444.7144696128765
 30
0.0
 10
290.8053262576279
 20
443.5532407348582
 30
0.0
 10
289.2092122460723
 20
441.9369431908609
 30
0.0
 10
288.6466859568117
 20
441.4167362746929
 30
0.0
 10
287.4876671641704
 20
440.4374054240284
 30
0.0
 10
286.8900444010859
 20
439.9765850866097
 30
0.0
 10
285.0478433237427
 20
438.6740904574598
 30
0.0
 10
283.7540399461885
 20
437.9123844316206
 30
0.0
 10
281.7347453360964
 20
436.9004676784564
 30
0.0
 10
281.0464142343471
 20
436.584058428498
 30
0.0
 10
279.658039664833
 20
435.9947769371446
 30
0.0
 10
278.9586513880374
 20
435.7219851997067
 30
0.0
 10
276.8474973877503
 20
434.959164894481
 30
0.0
 10
275.4228287604591
 20
434.5241400140146
 30
0.0
 10
272.5485631924021
 20
433.7608127228482
 30
0.0
 10
271.0989080953552
 20
433.4327060469444
 30
0.0
 10
268.1809122513175
 20
432.8560568128607
 30
0.0
 10
266.7119490205029
 20
432.6075433523234
 30
0.0
 10
262.2873566879538
 20
431.9531512044854
 30
0.0
 10
259.3313028755787
 20
431.6386926320987
 30
0.0
 10
253.4117162979151
 20
431.1479256699427
 30
0.0
 10
250.448127033989
 20
430.9728852537301
 30
0.0
 10
244.5163197659091
 20
430.7065723607371
 30
0.0
 10
241.5480102580229
 20
430.6158270718294
 30
0.0
 10
232.6466609596603
 20
430.4205194889348
 30
0.0
 10
226.7136044845664
 20
430.3898903906683
 30
0.0
 10
220.781157100515
 20
430.3898904151572
 30
0.0
  0
SPLINE
  5
7B
330
1F
100
AcDbEntity
  8
0
  6
Continuous
 62
     8
370
     0
100
AcDbSpline
210
0.0
220
0.0
230
1.0
 70
     8
 71
     3
 72
    52
 73
    48
 74
     0
 42
0.00000001
 43
0.00000001
 40
0.0
 40
0.0
 40
0.0
 40
0.0
 40
0.1249999999999984
 40
0.1249999999999984
 40
0.1874999999999976
 40
0.1874999999999976
 40
0.2499999999999968
 40
0.2499999999999968
 40
0.3124999999999959
 40
0.3124999999999959
 40
0.3437499999999956
 40
0.3437499999999956
 40
0.3749999999999952
 40
0.3749999999999952
 40
0.4062499999999949
 40
0.4062499999999949
 40
0.4374999999999946
 40
0.4374999999999946
 40
0.4531249999999944
 40
0.4531249999999944
 40
0.4687499999999943
 40
0.4687499999999943
 40
0.4999999999999944
 40
0.4999999999999944
 40
0.5156249999999946
 40
0.5156249999999946
 40
0.5312499999999947
 40
0.5312499999999947
 40
0.5624999999999951
 40
0.5624999999999951
 40
0.5781249999999953
 40
0.5781249999999953
 40
0.5937499999999956
 40
0.5937499999999956
 40
0.624999999999996
 40
0.624999999999996
 40
0.6562499999999963
 40
0.6562499999999963
 40
0.6874999999999968
 40
0.6874999999999968
 40
0.7499999999999973
 40
0.7499999999999973
 40
0.812499999999998
 40
0.812499999999998
 40
0.8749999999999987
 40
0.8749999999999987
 40
1.0
 40
1.0
 40
1.0
 40
1.0
 10
220.7811571003527
 20
430.3898904151573
 30
0.0
 10
214.8829917417389
 20
430.3898904391121
 30
0.0
 10
208.9855132556232
 20
430.4202790994415
 30
0.0
 10
200.1437760351365
 20
430.6123581546582
 30
0.0
 10
197.1972989165102
 20
430.7014799307066
 30
0.0
 10
191.3068907977592
 20
430.9626302526183
 30
0.0
 10
188.3629500915309
 20
431.1341565714152
 30
0.0
 10
182.4791410911561
 20
431.6145753082168
 30
0.0
 10
179.5392467958226
 20
431.9222224595591
 30
0.0
 10
175.1343508647552
 20
432.5620167423285
 30
0.0
 10
173.6668932809976
 20
432.805460887542
 30
0.0
 10
170.734198543059
 20
433.3743827775892
 30
0.0
 10
169.2778984178041
 20
433.6981713801667
 30
0.0
 10
166.3972464255088
 20
434.4494289985582
 30
0.0
 10
164.9721252298661
 20
434.8768844591746
 30
0.0
 10
162.1631460535745
 20
435.8722851706635
 30
0.0
 10
160.7792325214884
 20
436.4400738804355
 30
0.0
 10
158.7464150688203
 20
437.4362567732711
 30
0.0
 10
158.0750840902749
 20
437.7934137579676
 30
0.0
 10
156.7707985537587
 20
438.551452733929
 30
0.0
 10
156.1353295876343
 20
438.9534758299195
 30
0.0
 10
154.2836270692065
 20
440.2341205037016
 30
0.0
 10
153.1223982178915
 20
441.1878312798104
 30
0.0
 10
151.5061007111281
 20
442.7839452546477
 30
0.0
 10
150.985893806966
 20
443.3464715309363
 30
0.0
 10
150.0065629784818
 20
444.5054902973634
 30
0.0
 10
149.5457426512748
 20
445.103113047187
 30
0.0
 10
148.2432480499512
 20
446.9453140852152
 30
0.0
 10
147.4815420388605
 20
448.239117437287
 30
0.0
 10
146.4696253032071
 20
450.2584120124841
 30
0.0
 10
146.1532160583472
 20
450.9467431031011
 30
0.0
 10
145.5639345759033
 20
452.3351176516949
 30
0.0
 10
145.2911428422969
 20
453.0345059186543
 30
0.0
 10
144.5283225470811
 20
455.1456598913561
 30
0.0
 10
144.093297671374
 20
456.570328502758
 30
0.0
 10
143.3299703876488
 20
459.4445940429649
 30
0.0
 10
143.0018637144129
 20
460.8942491280394
 30
0.0
 10
142.4252144845204
 20
463.8122449510392
 30
0.0
 10
142.1767010254962
 20
465.2812081727827
 30
0.0
 10
141.5223088812327
 20
469.7058004813554
 30
0.0
 10
141.2078503099928
 20
472.6618542821024
 30
0.0
 10
140.717083349451
 20
478.5814408411189
 30
0.0
 10
140.5420429336548
 20
481.5450300980801
 30
0.0
 10
140.2757300412592
 20
487.4768373549195
 30
0.0
 10
140.184984752519
 20
490.4451468585538
 30
0.0
 10
139.9896771700031
 20
499.3464961466591
 30
0.0
 10
139.9590480718298
 20
505.279552618153
 30
0.0
 10
139.9590480964038
 20
511.2119999999198
 30
0.0
  0
LINE
  5
7C
330
1F
100
AcDbEntity
  8
0
  6
Continuous
 62
     8
370
     0
100
AcDbLine
 10
135.9030506397
 20
511.2120000002
 30
0.0
 11
135.5227159428
 21
511.2120000002
 31
0.0
  0
SPLINE
  5
7D
330
1F
100
AcDbEntity
  8
0
  6
Continuous
 62
     8
370
     0
100
AcDbSpline
210
0.0
220
0.0
230
1.0
 70
     8
 71
     3
 72
    54
 73
    50
 74
     0
 42
0.00000001
 43
0.00000001
 40
0.0
 40
0.0
 40
0.0
 40
0.0
 40
0.0624999999999992
 40
0.0624999999999992
 40
0.1249999999999984
 40
0.1249999999999984
 40
0.1874999999999975
 40
0.1874999999999975
 40
0.2499999999999966
 40
0.2499999999999966
 40
0.3124999999999958
 40
0.3124999999999958
 40
0.3281249999999956
 40
0.3281249999999956
 40
0.3437499999999955
 40
0.3437499999999955
 40
0.3749999999999952
 40
0.3749999999999952
 40
0.4062499999999951
 40
0.4062499999999951
 40
0.4374999999999949
 40
0.4374999999999949
 40
0.4999999999999943
 40
0.4999999999999943
 40
0.5156249999999943
 40
0.5156249999999943
 40
0.5312499999999944
 40
0.5312499999999944
 40
0.562499999999995
 40
0.562499999999995
 40
0.5781249999999951
 40
0.5781249999999951
 40
0.5937499999999953
 40
0.5937499999999953
 40
0.6249999999999958
 40
0.6249999999999958
 40
0.6874999999999964
 40
0.6874999999999964
 40
0.7187499999999968
 40
0.7187499999999968
 40
0.7499999999999971
 40
0.7499999999999971
 40
0.8124999999999979
 40
0.8124999999999979
 40
0.8749999999999987
 40
0.8749999999999987
 40
0.9374999999999993
 40
0.9374999999999993
 40
1.0
 40
1.0
 40
1.0
 40
1.0
 10
220.7811571005226
 20
426.3338935393207
 30
0.0
 10
217.68536953252
 20
426.333893539191
 30
0.0
 10
214.5901072223962
 20
426.3431613629788
 30
0.0
 10
208.4015132967057
 20
426.395762825717
 30
0.0
 10
205.3081735703062
 20
426.4389533544436
 30
0.0
 10
199.1247637180961
 20
426.583024330034
 30
0.0
 10
196.034678044958
 20
426.6836304547057
 30
0.0
 10
189.8599193486466
 20
426.980345297147
 30
0.0
 10
186.7752140204427
 20
427.1758840142831
 30
0.0
 10
180.6148350568847
 20
427.7263196350636
 30
0.0
 10
177.5390876333157
 20
428.079914595045
 30
0.0
 10
173.7041511606131
 20
428.6939018304693
 30
0.0
 10
172.9376619406777
 20
428.825487471112
 30
0.0
 10
171.4058357872738
 20
429.108990077171
 30
0.0
 10
170.6401354193838
 20
429.2610130314947
 30
0.0
 10
168.3565397956313
 20
429.7498645463082
 30
0.0
 10
166.8486425837227
 20
430.1198313831019
 30
0.0
 10
163.8705021027977
 20
430.9741972589376
 30
0.0
 10
162.4002322212826
 20
431.4585154211865
 30
0.0
 10
159.5087304834206
 20
432.5761807417223
 30
0.0
 10
158.0869563818888
 20
433.2096349406229
 30
0.0
 10
153.920474192823
 20
435.3997816955748
 30
0.0
 10
151.3941973263421
 20
437.1900916141298
 30
0.0
 10
148.6211924411328
 20
439.9335095377724
 30
0.0
 10
148.0833581345136
 20
440.5101283618126
 30
0.0
 10
147.0620618562066
 20
441.696786599363
 30
0.0
 10
146.5778421959814
 20
442.3070551812277
 30
0.0
 10
145.1995371441479
 20
444.1855184418553
 30
0.0
 10
144.3798379500004
 20
445.5013913183697
 30
0.0
 10
143.2780528455244
 20
447.5570913942287
 30
0.0
 10
142.9320730092531
 20
448.2559654686503
 30
0.0
 10
142.2791310379255
 20
449.6787222043218
 30
0.0
 10
141.9731525272742
 20
450.4006486043986
 30
0.0
 10
141.1166592715439
 20
452.5767082210817
 30
0.0
 10
140.6237879445415
 20
454.0483564133353
 30
0.0
 10
139.3219243501528
 20
458.5106802786914
 30
0.0
 10
138.6864390037756
 20
461.5478658047129
 30
0.0
 10
137.9352151471047
 20
466.1577928494542
 30
0.0
 10
137.7196571964445
 20
467.7027799067384
 30
0.0
 10
137.3432349465477
 20
470.7930597492844
 30
0.0
 10
137.1820728964499
 20
472.3403822695357
 30
0.0
 10
136.7605086294085
 20
476.9873463284349
 30
0.0
 10
136.5610049533511
 20
480.0919017914255
 30
0.0
 10
136.2584798831536
 20
486.3087979068086
 30
0.0
 10
136.1560394300305
 20
489.4216600395426
 30
0.0
 10
136.0095560290425
 20
495.6464673001955
 30
0.0
 10
135.9657473300034
 20
498.7592692455341
 30
0.0
 10
135.9124185472799
 20
504.9853371624509
 30
0.0
 10
135.9030506395255
 20
508.0986051934195
 30
0.0
 10
135.9030506397207
 20
511.2120000001742
 30
0.0
  0
LINE
  5
7E
330
1F
100
AcDbEntity
  8
0
  6
Continuous
 62
     8
370
     0
100
AcDbLine
 10
220.7811571003
 20
426.3338935393
 30
0.0
 11
220.7811571003
 21
425.9535588424
 31
0.0
  0
LINE
  5
7F
330
1F
100
AcDbEntity
  8
0
  6
Continuous
 62
     8
370
     0
100
AcDbLine
 10
220.7811571006
 20
596.0901064607
 30
0.0
 11
220.7811571006
 21
596.4704411576
 31
0.0
  0
SPLINE
  5
80
330
1F
100
AcDbEntity
  8
0
  6
Continuous
 62
     8
370
     0
100
AcDbSpline
210
0.0
220
0.0
230
1.0
 70
     8
 71
     3
 72
    54
 73
    50
 74
     0
 42
0.00000001
 43
0.00000001
 40
0.0
 40
0.0
 40
0.0
 40
0.0
 40
0.0625000000000002
 40
0.0625000000000002
 40
0.1250000000000004
 40
0.1250000000000004
 40
0.1875000000000006
 40
0.1875000000000006
 40
0.2500000000000008
 40
0.2500000000000008
 40
0.312500000000001
 40
0.312500000000001
 40
0.3281250000000011
 40
0.3281250000000011
 40
0.3437500000000013
 40
0.3437500000000013
 40
0.3750000000000016
 40
0.3750000000000016
 40
0.4062500000000019
 40
0.4062500000000019
 40
0.4375000000000023
 40
0.4375000000000023
 40
0.5000000000000029
 40
0.5000000000000029
 40
0.5156250000000029
 40
0.5156250000000029
 40
0.531250000000003
 40
0.531250000000003
 40
0.562500000000003
 40
0.562500000000003
 40
0.578125000000003
 40
0.578125000000003
 40
0.5937500000000029
 40
0.5937500000000029
 40
0.6250000000000027
 40
0.6250000000000027
 40
0.6875000000000022
 40
0.6875000000000022
 40
0.718750000000002
 40
0.718750000000002
 40
0.7500000000000017
 40
0.7500000000000017
 40
0.8125000000000013
 40
0.8125000000000013
 40
0.8750000000000009
 40
0.8750000000000009
 40
0.9375000000000006
 40
0.9375000000000006
 40
1.0
 40
1.0
 40
1.0
 40
1.0
 10
135.9030506397207
 20
511.2119999999123
 30
0.0
 10
135.9030506395911
 20
514.3077875679159
 30
0.0
 10
135.9123184633808
 20
517.4030498780404
 30
0.0
 10
135.9649199261258
 20
523.5916438037323
 30
0.0
 10
136.0081104548573
 20
526.6849835301323
 30
0.0
 10
136.152181430458
 20
532.8683933823436
 30
0.0
 10
136.2527875551352
 20
535.9584790554823
 30
0.0
 10
136.5495023975842
 20
542.1332377517949
 30
0.0
 10
136.7450411147227
 20
545.2179430799995
 30
0.0
 10
137.2954767354961
 20
551.3783220435597
 30
0.0
 10
137.6490716954636
 20
554.4540694671305
 30
0.0
 10
138.2630589308614
 20
558.2890059398358
 30
0.0
 10
138.3946445715001
 20
559.0554951597715
 30
0.0
 10
138.6781471775538
 20
560.5873213131763
 30
0.0
 10
138.8301701318761
 20
561.3530216810668
 30
0.0
 10
139.3190216466885
 20
563.6366173048195
 30
0.0
 10
139.6889884834854
 20
565.1445145167266
 30
0.0
 10
140.5433543593302
 20
568.1226549976476
 30
0.0
 10
141.027672521585
 20
569.5929248791598
 30
0.0
 10
142.1453378421256
 20
572.4844266170179
 30
0.0
 10
142.7787920410242
 20
573.9062007185465
 30
0.0
 10
144.968938795982
 20
578.0726829076119
 30
0.0
 10
146.7592487145439
 20
580.598959774088
 30
0.0
 10
149.5026666381718
 20
583.3719646593051
 30
0.0
 10
150.0792854622094
 20
583.9097989659259
 30
0.0
 10
151.2659436997576
 20
584.9310952442357
 30
0.0
 10
151.8762122816216
 20
585.4153149044614
 30
0.0
 10
153.7546755422477
 20
586.7936199562945
 30
0.0
 10
155.070548418762
 20
587.613319150439
 30
0.0
 10
157.12624849462
 20
588.7151042549103
 30
0.0
 10
157.8251225690411
 20
589.0610840911799
 30
0.0
 10
159.247879304711
 20
589.714026062505
 30
0.0
 10
159.9698057047881
 20
590.0200045731558
 30
0.0
 10
162.1458653214702
 20
590.8764978288879
 30
0.0
 10
163.6175135137218
 20
591.3693691558954
 30
0.0
 10
168.0798373790722
 20
592.671232750297
 30
0.0
 10
171.1170229050902
 20
593.3067180966788
 30
0.0
 10
175.7269499498344
 20
594.057941953324
 30
0.0
 10
177.2719370071206
 20
594.2734999039735
 30
0.0
 10
180.3622168496692
 20
594.6499221538584
 30
0.0
 10
181.9095393699217
 20
594.8110842039525
 30
0.0
 10
186.5565034288236
 20
595.2326484709878
 30
0.0
 10
189.6610588918155
 20
595.432152147047
 30
0.0
 10
195.8779550072007
 20
595.7346772172515
 30
0.0
 10
198.9908171399355
 20
595.83711767038
 30
0.0
 10
205.2156244005902
 20
595.9836010713784
 30
0.0
 10
208.3284263459299
 20
596.0274097704223
 30
0.0
 10
214.5544942628485
 20
596.0807385531529
 30
0.0
 10
217.6677622938185
 20
596.0901064609094
 30
0.0
 10
220.7811571005743
 20
596.0901064607142
 30
0.0
  0
LINE
  5
81
330
1F
100
AcDbEntity
  8
0
  6
Continuous
 62
     8
370
     0
100
AcDbLine
 10
305.6592635611
 20
511.2119999999
 30
0.0
 11
306.039598258
 21
511.2119999999
 31
0.0
  0
SPLINE
  5
82
330
1F
100
AcDbEntity
  8
0
  6
Continuous
 62
     8
370
     0
100
AcDbSpline
210
0.0
220
0.0
230
1.0
 70
     8
 71
     3
 72
    54
 73
    50
 74
     0
 42
0.00000001
 43
0.00000001
 40
0.0
 40
0.0
 40
0.0
 40
0.0
 40
0.0625000000000014
 40
0.0625000000000014
 40
0.1250000000000027
 40
0.1250000000000027
 40
0.1875000000000041
 40
0.1875000000000041
 40
0.2500000000000054
 40
0.2500000000000054
 40
0.3125000000000068
 40
0.3125000000000068
 40
0.3281250000000071
 40
0.3281250000000071
 40
0.3437500000000074
 40
0.3437500000000074
 40
0.3750000000000077
 40
0.3750000000000077
 40
0.406250000000008
 40
0.406250000000008
 40
0.4375000000000085
 40
0.4375000000000085
 40
0.5000000000000095
 40
0.5000000000000095
 40
0.5156250000000095
 40
0.5156250000000095
 40
0.5312500000000095
 40
0.5312500000000095
 40
0.5625000000000093
 40
0.5625000000000093
 40
0.5781250000000091
 40
0.5781250000000091
 40
0.5937500000000089
 40
0.5937500000000089
 40
0.6250000000000082
 40
0.6250000000000082
 40
0.6875000000000069
 40
0.6875000000000069
 40
0.7187500000000061
 40
0.7187500000000061
 40
0.7500000000000053
 40
0.7500000000000053
 40
0.812500000000004
 40
0.812500000000004
 40
0.8750000000000027
 40
0.8750000000000027
 40
0.9375000000000014
 40
0.9375000000000014
 40
1.0
 40
1.0
 40
1.0
 40
1.0
 10
220.7811571003123
 20
596.0901064607142
 30
0.0
 10
223.8769446683162
 20
596.0901064608438
 30
0.0
 10
226.9722069784412
 20
596.0808386370541
 30
0.0
 10
233.1608009041339
 20
596.0282371743089
 30
0.0
 10
236.2541406305344
 20
595.9850466455774
 30
0.0
 10
242.4375504827466
 20
595.8409756699766
 30
0.0
 10
245.5276361558857
 20
595.7403695452996
 30
0.0
 10
251.7023948521993
 20
595.443654702851
 30
0.0
 10
254.7871001804045
 20
595.248115985713
 30
0.0
 10
260.9474791439658
 20
594.6976803649399
 30
0.0
 10
264.023226567537
 20
594.3440854049721
 30
0.0
 10
267.8581630402428
 20
593.7300981695712
 30
0.0
 10
268.6246522601787
 20
593.5985125289319
 30
0.0
 10
270.1564784135837
 20
593.3150099228772
 30
0.0
 10
270.922178781474
 20
593.1629869685542
 30
0.0
 10
273.2057744052262
 20
592.6741354537405
 30
0.0
 10
274.7136716171332
 20
592.3041686169429
 30
0.0
 10
277.6918120980543
 20
591.449802741098
 30
0.0
 10
279.1620819795672
 20
590.9654845788434
 30
0.0
 10
282.0535837174273
 20
589.8478192583059
 30
0.0
 10
283.4753578189581
 20
589.2143650594086
 30
0.0
 10
287.6418400080233
 20
587.024218304452
 30
0.0
 10
290.1681168744954
 20
585.2339083858851
 30
0.0
 10
292.9411217597122
 20
582.4904904622557
 30
0.0
 10
293.4789560663327
 20
581.9138716382178
 30
0.0
 10
294.5002523446413
 20
580.7272134006686
 30
0.0
 10
294.9844720048661
 20
580.1169448188041
 30
0.0
 10
296.362777056697
 20
578.2384815581762
 30
0.0
 10
297.1824762508405
 20
576.9226086816612
 30
0.0
 10
298.2842613553121
 20
574.866908605803
 30
0.0
 10
298.6302411915822
 20
574.168034531382
 30
0.0
 10
299.2831831629086
 20
572.7452777957127
 30
0.0
 10
299.5891616735604
 20
572.0233513956362
 30
0.0
 10
300.4456549292948
 20
569.8472917789554
 30
0.0
 10
300.9385262563027
 20
568.3756435867043
 30
0.0
 10
302.2403898507038
 20
563.9133197213553
 30
0.0
 10
302.8758751970831
 20
560.8761341953374
 30
0.0
 10
303.6270990537246
 20
556.2662071505935
 30
0.0
 10
303.8426570043733
 20
554.7212200933074
 30
0.0
 10
304.2190792542575
 20
551.6309402507592
 30
0.0
 10
304.3802413043517
 20
550.083617730507
 30
0.0
 10
304.801805571387
 20
545.4366536716058
 30
0.0
 10
305.0013092474466
 20
542.3320982086144
 30
0.0
 10
305.3038343176516
 20
536.1152020932302
 30
0.0
 10
305.4062747707803
 20
533.0023399604959
 30
0.0
 10
305.5527581717786
 20
526.777532699842
 30
0.0
 10
305.5965668708225
 20
523.6647307545029
 30
0.0
 10
305.649895653553
 20
517.4386628375852
 30
0.0
 10
305.6592635613094
 20
514.3253948066159
 30
0.0
 10
305.6592635611142
 20
511.2119999998606
 30
0.0
  0
SPLINE
  5
83
330
1F
100
AcDbEntity
  8
0
  6
Continuous
 62
     8
370
     0
100
AcDbSpline
210
0.0
220
0.0
230
1.0
 70
     8
 71
     3
 72
    54
 73
    50
 74
     0
 42
0.00000001
 43
0.00000001
 40
0.0
 40
0.0
 40
0.0
 40
0.0
 40
0.0625
 40
0.0625
 40
0.1250000000000001
 40
0.1250000000000001
 40
0.1875000000000001
 40
0.1875000000000001
 40
0.2500000000000001
 40
0.2500000000000001
 40
0.3125000000000001
 40
0.3125000000000001
 40
0.3281250000000002
 40
0.3281250000000002
 40
0.3437500000000002
 40
0.3437500000000002
 40
0.3750000000000003
 40
0.3750000000000003
 40
0.4062500000000005
 40
0.4062500000000005
 40
0.4375000000000007
 40
0.4375000000000007
 40
0.500000000000001
 40
0.500000000000001
 40
0.5156250000000011
 40
0.5156250000000011
 40
0.5312500000000012
 40
0.5312500000000012
 40
0.5625000000000012
 40
0.5625000000000012
 40
0.5781250000000012
 40
0.5781250000000012
 40
0.5937500000000012
 40
0.5937500000000012
 40
0.6250000000000012
 40
0.6250000000000012
 40
0.6875000000000009
 40
0.6875000000000009
 40
0.7187500000000008
 40
0.7187500000000008
 40
0.7500000000000007
 40
0.7500000000000007
 40
0.8125000000000006
 40
0.8125000000000006
 40
0.8750000000000004
 40
0.8750000000000004
 40
0.9375000000000002
 40
0.9375000000000002
 40
1.0
 40
1.0
 40
1.0
 40
1.0
 10
305.6592635611142
 20
511.2120000001224
 30
0.0
 10
305.6592635612438
 20
508.1162124321167
 30
0.0
 10
305.649995737454
 20
505.0209501219896
 30
0.0
 10
305.5973942747088
 20
498.8323561962929
 30
0.0
 10
305.5542037459772
 20
495.7390164698904
 30
0.0
 10
305.4101327703763
 20
489.5556066176742
 30
0.0
 10
305.3095266456992
 20
486.465520944533
 30
0.0
 10
305.0128118032503
 20
480.2907622482151
 30
0.0
 10
304.8172730861121
 20
477.2060569200077
 30
0.0
 10
304.2668374653381
 20
471.0456779564419
 30
0.0
 10
303.9132425053693
 20
467.9699305328684
 30
0.0
 10
303.2992552699655
 20
464.1349940601596
 30
0.0
 10
303.1676696293256
 20
463.3685048402231
 30
0.0
 10
302.8841670232696
 20
461.8366786868169
 30
0.0
 10
302.7321440689464
 20
461.0709783189267
 30
0.0
 10
302.2432925541318
 20
458.7873826951756
 30
0.0
 10
301.8733257173338
 20
457.2794854832689
 30
0.0
 10
301.0189598414876
 20
454.3013450023477
 30
0.0
 10
300.5346416792326
 20
452.8310751208346
 30
0.0
 10
299.4169763586915
 20
449.9395733829734
 30
0.0
 10
298.7835221597896
 20
448.5177992814383
 30
0.0
 10
296.5933754048303
 20
444.3513170923803
 30
0.0
 10
294.8030654862619
 20
441.8250402259092
 30
0.0
 10
292.0596475626247
 20
439.0520353406928
 30
0.0
 10
291.4830287385844
 20
438.5142010340729
 30
0.0
 10
290.296370501033
 20
437.4929047557683
 30
0.0
 10
289.6861019191672
 20
437.0086850955456
 30
0.0
 10
287.807638658535
 20
435.6303800437208
 30
0.0
 10
286.4917657820166
 20
434.8106808495812
 30
0.0
 10
284.4360657061557
 20
433.7088957451106
 30
0.0
 10
283.7371916317341
 20
433.3629159088402
 30
0.0
 10
282.314434896065
 20
432.7099739375105
 30
0.0
 10
281.5925084959908
 20
432.4039954268554
 30
0.0
 10
279.4164488793144
 20
431.5475021711142
 30
0.0
 10
277.9448006870649
 20
431.0546308441066
 30
0.0
 10
273.4824768217186
 20
429.7527672497118
 30
0.0
 10
270.4452912957005
 20
429.1172819033436
 30
0.0
 10
265.8353642509595
 20
428.3660580467057
 30
0.0
 10
264.2903771936746
 20
428.150500096057
 30
0.0
 10
261.2000973511286
 20
427.7740778461737
 30
0.0
 10
259.6527748308775
 20
427.61291579608
 30
0.0
 10
255.0058107719798
 20
427.1913515290457
 30
0.0
 10
251.9012553089908
 20
426.9918478529868
 30
0.0
 10
245.6843591936112
 20
426.6893227827826
 30
0.0
 10
242.5714970608793
 20
426.5868823296542
 30
0.0
 10
236.3466898002303
 20
426.4403989286561
 30
0.0
 10
233.2338878548935
 20
426.3965902296122
 30
0.0
 10
227.0078199379805
 20
426.3432614468819
 30
0.0
 10
223.8945519070136
 20
426.3338935391254
 30
0.0
 10
220.7811571002606
 20
426.3338935393207
 30
0.0
  0
SPLINE
  5
84
330
1F
100
AcDbEntity
  8
0
  6
Continuous
 62
     7
370
    15
100
AcDbSpline
210
0.0
220
0.0
230
1.0
 70
     8
 71
     3
 72
    13
 73
     9
 74
     0
 42
0.00000001
 43
0.00000001
 40
0.0
 40
0.0
 40
0.0
 40
0.0
 40
0.106412698703348
 40
0.2486097457861865
 40
0.4147603103275424
 40
0.6049580443424822
 40
0.8103090178049442
 40
1.0
 40
1.0
 40
1.0
 40
1.0
 10
401.7382866586746
 20
556.3030500624664
 30
0.0
 10
401.6948395497997
 20
557.5724481465353
 30
0.0
 10
401.5933349847983
 20
560.5381161431866
 30
0.0
 10
401.3793345982428
 20
565.4841208869753
 30
0.0
 10
401.0723837691627
 20
571.4269272659934
 30
0.0
 10
400.6451368230823
 20
578.1178437872991
 30
0.0
 10
400.1147161963748
 20
585.0835133941367
 30
0.0
 10
399.6621053723707
 20
589.7770486643487
 30
0.0
 10
399.4447710094558
 20
592.030787292925
 30
0.0
  0
SPLINE
  5
85
330
1F
100
AcDbEntity
  8
0
  6
Continuous
 62
     7
370
    15
100
AcDbSpline
210
0.0
220
0.0
230
1.0
 70
     8
 71
     3
 72
    11
 73
     7
 74
     0
 42
0.00000001
 43
0.00000001
 40
0.0
 40
0.0
 40
0.0
 40
0.0
 40
0.4300039972494741
 40
0.7088638538466703
 40
0.9883055226966547
 40
1.0
 40
1.0
 40
1.0
 40
1.0
 10
402.297209623337
 20
502.0101921812865
 30
0.0
 10
402.3087782093266
 20
505.77336275123
 30
0.0
 10
402.3278490842502
 20
511.9769692524617
 30
0.0
 10
402.3024615380974
 20
520.6260872656119
 30
0.0
 10
402.2822509533001
 20
525.6143947749642
 30
0.0
 10
402.2580164994826
 20
528.1621549987269
 30
0.0
 10
402.2570430399041
 20
528.2644944866428
 30
0.0
  0
SPLINE
  5
86
330
1F
100
AcDbEntity
  8
0
  6
Continuous
 62
     7
370
    15
100
AcDbSpline
210
0.0
220
0.0
230
1.0
 70
     8
 71
     3
 72
    12
 73
     8
 74
     0
 42
0.00000001
 43
0.00000001
 40
0.0
 40
0.0
 40
0.0
 40
0.0
 40
0.231560562669524
 40
0.4779862998807078
 40
0.7058008783827103
 40
0.939220514439568
 40
1.0
 40
1.0
 40
1.0
 40
1.0
 10
399.4456286638935
 20
430.3934961104425
 30
0.0
 10
399.6379341014134
 20
432.3779081100263
 30
0.0
 10
400.0348901437869
 20
436.4741226734434
 30
0.0
 10
400.5143041596142
 20
442.5322787481544
 30
0.0
 10
400.9246743594296
 20
448.611211376219
 30
0.0
 10
401.1895448844351
 20
453.0980257446309
 30
0.0
 10
401.3039786620409
 20
455.6284256696803
 30
0.0
 10
401.3276198819582
 20
456.1511886366845
 30
0.0
  0
ARC
  5
87
330
1F
100
AcDbEntity
  8
0
  6
Continuous
 62
     7
370
    15
100
AcDbCircle
 10
465.3710308388
 20
611.0115429884
 30
0.0
 40
159.578342988425
100
AcDbArc
 50
264.8071373335
 51
269.711901212
  0
ARC
  5
88
330
1F
100
AcDbEntity
  8
0
  6
Continuous
 62
     7
370
    15
100
AcDbCircle
 10
465.3710308388
 20
347.2204570116
 30
0.0
 40
159.5783429884249
100
AcDbArc
 50
90.0
 51
93.7317493588
  0
LINE
  5
89
330
1F
100
AcDbEntity
  8
0
  6
Continuous
 62
     7
370
    15
100
AcDbLine
 10
465.7612610359
 20
506.7988
 30
0.0
 11
465.4713308388
 21
506.7988
 31
0.0
  0
LINE
  5
8A
330
1F
100
AcDbEntity
  8
0
  6
Continuous
 62
     7
370
    15
100
AcDbLine
 10
465.4713308388
 20
451.4332
 30
0.0
 11
465.7612610359
 21
451.4332
 31
0.0
  0
ARC
  5
8B
330
1F
100
AcDbEntity
  8
0
  6
Continuous
 62
     7
370
    15
100
AcDbCircle
 10
465.4713308388
 20
506.6985
 30
0.0
 40
0.1003000000000611
100
AcDbArc
 50
90.0
 51
180.0
  0
ARC
  5
8C
330
1F
100
AcDbEntity
  8
0
  6
Continuous
 62
     7
370
    15
100
AcDbCircle
 10
465.4713308388
 20
451.5335
 30
0.0
 40
0.1003000000000611
100
AcDbArc
 50
180.0
 51
270.0
  0
ARC
  5
8D
330
1F
100
AcDbEntity
  8
0
  6
Continuous
 62
     7
370
    15
100
AcDbCircle
 10
465.7612610359
 20
504.84295
 30
0.0
 40
1.955850000000005
100
AcDbArc
 50
2.952087508
 51
90.0
  0
ARC
  5
8E
330
1F
100
AcDbEntity
  8
0
  6
Continuous
 62
     7
370
    15
100
AcDbCircle
 10
465.7612610359
 20
453.38905
 30
0.0
 40
1.955850000000005
100
AcDbArc
 50
270.0
 51
357.047912492
  0
ARC
  5
8F
330
1F
100
AcDbEntity
  8
0
  6
Continuous
 62
     7
370
    15
100
AcDbCircle
 10
405.5378069524
 20
1005.5855235876
 30
0.0
 40
501.4999999999999
100
AcDbArc
 50
271.1751341531
 51
274.2689273276
  0
ARC
  5
90
330
1F
100
AcDbEntity
  8
0
  6
Continuous
 62
     7
370
    15
100
AcDbCircle
 10
405.5378069524
 20
-47.3535235876
 30
0.0
 40
501.5
100
AcDbArc
 50
84.8071373335
 51
88.8248658469
  0
ARC
  5
91
330
1F
100
AcDbEntity
  8
0
  6
Continuous
 62
     7
370
    15
100
AcDbCircle
 10
-33.1199691612
 20
479.116
 30
0.0
 40
501.4999999999999
100
AcDbArc
 50
357.047912492
 51
2.952087508
  0
LINE
  5
92
330
1F
100
AcDbEntity
  8
0
  6
Continuous
 62
     7
370
    15
100
AcDbLine
 10
410.9081308388
 20
456.1472999984
 30
0.0
 11
415.8228308388
 21
456.1472999984
 31
0.0
  0
LINE
  5
93
330
1F
100
AcDbEntity
  8
0
  6
Continuous
 62
     7
370
    15
100
AcDbLine
 10
415.8228308388
 20
502.0847000016
 30
0.0
 11
410.9081308388
 21
502.0847000016
 31
0.0
  0
LINE
  5
94
330
1F
100
AcDbEntity
  8
0
  6
Continuous
 62
     7
370
    15
100
AcDbLine
 10
409.9051308388
 20
502.0847
 30
0.0
 11
402.3012734576
 21
502.0847
 31
0.0
  0
LINE
  5
95
330
1F
100
AcDbEntity
  8
0
  6
Continuous
 62
     7
370
    15
100
AcDbLine
 10
401.3335556091
 20
456.1473
 30
0.0
 11
409.9051308388
 21
456.1473
 31
0.0
  0
ARC
  5
96
330
1F
100
AcDbEntity
  8
0
  6
Continuous
 62
     7
370
    15
100
AcDbCircle
 10
409.9051308388
 20
457.1503
 30
0.0
 40
1.003000000000043
100
AcDbArc
 50
270.0
 51
0.0
  0
ARC
  5
97
330
1F
100
AcDbEntity
  8
0
  6
Continuous
 62
     7
370
    15
100
AcDbCircle
 10
409.9051308388
 20
501.0817
 30
0.0
 40
1.002999999999986
100
AcDbArc
 50
0.0
 51
90.0
  0
LINE
  5
98
330
1F
100
AcDbEntity
  8
0
  6
Continuous
 62
     7
370
    15
100
AcDbLine
 10
415.8228308388
 20
495.0326655993
 30
0.0
 11
410.9081308388
 21
495.0326655993
 31
0.0
  0
LINE
  5
99
330
1F
100
AcDbEntity
  8
0
  6
Continuous
 62
     7
370
    15
100
AcDbLine
 10
403.7868308388
 20
556.347
 30
0.0
 11
401.7403423536
 21
556.347
 31
0.0
  0
LINE
  5
9A
330
1F
100
AcDbEntity
  8
0
  6
Continuous
 62
     7
370
    15
100
AcDbLine
 10
402.2576374812
 20
528.263
 30
0.0
 11
403.7868308388
 21
528.263
 31
0.0
  0
LINE
  5
9B
330
1F
100
AcDbEntity
  8
0
  6
Continuous
 62
     7
370
    15
100
AcDbLine
 10
409.3345225769
 20
556.347
 30
0.0
 11
405.2158273308
 21
556.347
 31
0.0
  0
LINE
  5
9C
330
1F
100
AcDbEntity
  8
0
  6
Continuous
 62
     7
370
    15
100
AcDbLine
 10
426.1903935485
 20
556.347
 30
0.0
 11
425.3687085833
 21
556.347
 31
0.0
  0
LINE
  5
9D
330
1F
100
AcDbEntity
  8
0
  6
Continuous
 62
     7
370
    15
100
AcDbLine
 10
405.2158273308
 20
528.263
 30
0.0
 11
426.1903935485
 21
528.263
 31
0.0
  0
ARC
  5
9E
330
1F
100
AcDbEntity
  8
0
  6
Continuous
 62
     7
370
    15
100
AcDbCircle
 10
403.7868308388
 20
528.7645
 30
0.0
 40
0.5015000000000214
100
AcDbArc
 50
270.0
 51
0.0
  0
ARC
  5
9F
330
1F
100
AcDbEntity
  8
0
  6
Continuous
 62
     7
370
    15
100
AcDbCircle
 10
403.7868308388
 20
555.8455
 30
0.0
 40
0.5015000000000782
100
AcDbArc
 50
0.0
 51
90.0
  0
ARC
  5
A0
330
1F
100
AcDbEntity
  8
0
  6
Continuous
 62
     7
370
    15
100
AcDbCircle
 10
426.1903935485
 20
555.344
 30
0.0
 40
1.003000000000043
100
AcDbArc
 50
13.9302635925
 51
90.0
  0
ARC
  5
A1
330
1F
100
AcDbEntity
  8
0
  6
Continuous
 62
     7
370
    15
100
AcDbCircle
 10
426.1903935485
 20
529.266
 30
0.0
 40
1.003000000000043
100
AcDbArc
 50
270.0
 51
346.0697364075
  0
ARC
  5
A2
330
1F
100
AcDbEntity
  8
0
  6
Continuous
 62
     7
370
    15
100
AcDbCircle
 10
373.6213273308
 20
542.305
 30
0.0
 40
55.16499999999995
100
AcDbArc
 50
346.0697364075
 51
13.9302635925
  0
LINE
  5
A3
330
1F
100
AcDbEntity
  8
0
  6
Continuous
 62
     7
370
    15
100
AcDbLine
 10
405.2158273308
 20
554.341
 30
0.0
 11
404.2883308388
 21
554.341
 31
0.0
  0
LINE
  5
A4
330
1F
100
AcDbEntity
  8
0
  6
Continuous
 62
     7
370
    15
100
AcDbLine
 10
404.2883308388
 20
530.269
 30
0.0
 11
405.2158273308
 21
530.269
 31
0.0
  0
LINE
  5
A5
330
1F
100
AcDbEntity
  8
0
  6
Continuous
 62
     7
370
    15
100
AcDbLine
 10
409.3281273308
 20
557.4503
 30
0.0
 11
409.3281273308
 21
556.3433479545
 31
0.0
  0
LINE
  5
A6
330
1F
100
AcDbEntity
  8
0
  6
Continuous
 62
     7
370
    15
100
AcDbLine
 10
425.3761273308
 20
556.3427620361
 30
0.0
 11
425.3761273308
 21
557.4503
 31
0.0
  0
ARC
  5
A7
330
1F
100
AcDbEntity
  8
0
  6
Continuous
 62
     7
370
    15
100
AcDbCircle
 10
204.7161273308
 20
557.4503
 30
0.0
 40
220.66
100
AcDbArc
 50
0.0
 51
5.3331635089
  0
ARC
  5
A8
330
1F
100
AcDbEntity
  8
0
  6
Continuous
 62
     7
370
    15
100
AcDbCircle
 10
629.9881273308
 20
557.4503
 30
0.0
 40
220.66
100
AcDbArc
 50
174.6668364911
 51
180.0
  0
ARC
  5
A9
330
1F
100
AcDbEntity
  8
0
  6
Continuous
 62
     7
370
    15
100
AcDbCircle
 10
412.2806660332
 20
577.7735136078
 30
0.0
 40
2.006000000000049
100
AcDbArc
 50
106.5986769674
 51
174.6668364911
  0
ARC
  5
AA
330
1F
100
AcDbEntity
  8
0
  6
Continuous
 62
     7
370
    15
100
AcDbCircle
 10
422.4235886284
 20
577.7735136078
 30
0.0
 40
2.005999999999936
100
AcDbArc
 50
5.3331635089
 51
73.4013230326
  0
ARC
  5
AB
330
1F
100
AcDbEntity
  8
0
  6
Continuous
 62
     7
370
    15
100
AcDbCircle
 10
454.4884808388
 20
513.965328263
 30
0.0
 40
0.501499999999985
100
AcDbArc
 50
0.0
 51
86.8024452128
  0
ARC
  5
AC
330
1F
100
AcDbEntity
  8
0
  6
Continuous
 62
     7
370
    15
100
AcDbCircle
 10
443.3551808388
 20
513.965328263
 30
0.0
 40
0.5015000000000214
100
AcDbArc
 50
93.1975547872
 51
180.0
  0
LINE
  5
AD
330
1F
100
AcDbEntity
  8
0
  6
Continuous
 62
     7
370
    15
100
AcDbLine
 10
454.9899808388
 20
506.4592682352
 30
0.0
 11
454.9899808388
 21
513.965328263
 31
0.0
  0
LINE
  5
AE
330
1F
100
AcDbEntity
  8
0
  6
Continuous
 62
     7
370
    15
100
AcDbLine
 10
442.8536808388
 20
513.965328263
 30
0.0
 11
442.8536808388
 21
505.4735002383
 31
0.0
  0
ARC
  5
AF
330
1F
100
AcDbEntity
  8
0
  6
Continuous
 62
     7
370
    15
100
AcDbCircle
 10
417.3521273308
 20
560.7602
 30
0.0
 40
19.75909999999991
100
AcDbArc
 50
73.4013230326
 51
106.5986769674
  0
ARC
  5
B0
330
1F
100
AcDbEntity
  8
0
  6
Continuous
 62
     7
370
    15
100
AcDbCircle
 10
448.9218308388
 20
414.3222
 30
0.0
 40
100.3
100
AcDbArc
 50
86.8024452128
 51
93.1975547872
  0
SPLINE
  5
B1
330
1F
100
AcDbEntity
  8
0
  6
Continuous
 62
     7
370
    15
100
AcDbSpline
210
0.0
220
0.0
230
1.0
 70
    24
 71
     3
 72
    54
 73
    50
 74
     0
 42
0.00000001
 43
0.00000001
 40
0.0
 40
0.0
 40
0.0
 40
0.0
 40
0.0625000000000002
 40
0.0625000000000002
 40
0.1250000000000003
 40
0.1250000000000003
 40
0.1875000000000004
 40
0.1875000000000004
 40
0.2500000000000006
 40
0.2500000000000006
 40
0.3125000000000008
 40
0.3125000000000008
 40
0.3437500000000008
 40
0.3437500000000008
 40
0.3750000000000008
 40
0.3750000000000008
 40
0.4062500000000008
 40
0.4062500000000008
 40
0.4218750000000007
 40
0.4218750000000007
 40
0.4375000000000006
 40
0.4375000000000006
 40
0.4687500000000006
 40
0.4687500000000006
 40
0.4843750000000005
 40
0.4843750000000005
 40
0.5000000000000003
 40
0.5000000000000003
 40
0.5625000000000001
 40
0.5625000000000001
 40
0.5781250000000001
 40
0.5781250000000001
 40
0.59375
 40
0.59375
 40
0.625
 40
0.625
 40
0.6562499999999999
 40
0.6562499999999999
 40
0.6874999999999999
 40
0.6874999999999999
 40
0.7499999999999999
 40
0.7499999999999999
 40
0.8125
 40
0.8125
 40
0.875
 40
0.875
 40
0.9375000000000001
 40
0.9375000000000001
 40
1.0
 40
1.0
 40
1.0
 40
1.0
 10
387.9394308369522
 20
511.2120000001735
 30
0.0
 10
387.9394308369522
 20
508.0865420914583
 30
0.0
 10
387.9394308369531
 20
504.9612153534627
 30
0.0
 10
387.9394308369531
 20
498.7110494443943
 30
0.0
 10
387.9394308369529
 20
495.586208120004
 30
0.0
 10
387.9394308369529
 20
489.3373578216111
 30
0.0
 10
387.9394308369539
 20
486.2122531256823
 30
0.0
 10
387.9394308369539
 20
479.971705351647
 30
0.0
 10
387.9394308369522
 20
476.8558341743735
 30
0.0
 10
387.9394308369522
 20
470.6389476733355
 30
0.0
 10
387.9394308369518
 20
467.537817661579
 30
0.0
 10
387.9394308369518
 20
462.9052596018955
 30
0.0
 10
387.9394308369523
 20
461.3658135626198
 30
0.0
 10
387.9394308369523
 20
458.3180687963795
 30
0.0
 10
387.9394308369523
 20
456.8075563029357
 30
0.0
 10
387.9394308369523
 20
453.821402531549
 30
0.0
 10
387.939430836952
 20
452.345734158603
 30
0.0
 10
387.939430836952
 20
450.1664816122045
 30
0.0
 10
387.9394308369514
 20
449.4457959252199
 30
0.0
 10
387.9394308369514
 20
448.0175724271541
 30
0.0
 10
387.9394308369526
 20
447.3146603585908
 30
0.0
 10
387.9394308369526
 20
445.2510776646925
 30
0.0
 10
387.9394308369525
 20
443.9320710971509
 30
0.0
 10
387.9394308369525
 20
442.051334774292
 30
0.0
 10
387.9394308369525
 20
441.4407105691023
 30
0.0
 10
387.9394308369525
 20
440.2540018132265
 30
0.0
 10
387.9394308369532
 20
439.6753827569497
 30
0.0
 10
387.9394308369531
 20
436.9112136876504
 30
0.0
 10
387.9394308369523
 20
435.1118196656828
 30
0.0
 10
387.9394308369523
 20
433.2768343096411
 30
0.0
 10
387.9394308369523
 20
432.931036454895
 30
0.0
 10
387.9394308369523
 20
432.285334245485
 30
0.0
 10
387.9394308369519
 20
431.984122133635
 30
0.0
 10
387.9394308369519
 20
431.1372586652339
 30
0.0
 10
387.9394308369529
 20
430.6480850261507
 30
0.0
 10
387.9394308369529
 20
429.7852851210565
 30
0.0
 10
387.9394308369519
 20
429.4117398448279
 30
0.0
 10
387.9394308369519
 20
428.7536419046578
 30
0.0
 10
387.9394308369527
 20
428.4687123680291
 30
0.0
 10
387.9394308369528
 20
427.7213750369957
 30
0.0
 10
387.9394308369523
 20
427.3627849988184
 30
0.0
 10
387.9394308369523
 20
426.8048404278607
 30
0.0
 10
387.9394308369525
 20
426.6067977277389
 30
0.0
 10
387.9394308369525
 20
426.3064980721126
 30
0.0
 10
387.9394308369522
 20
426.2048155641484
 30
0.0
 10
387.9394308369522
 20
426.0593306603364
 30
0.0
 10
387.9394308369519
 20
426.0158063835449
 30
0.0
 10
387.9394308369519
 20
425.9628476677663
 30
0.0
 10
387.9394308369521
 20
425.9535588422982
 30
0.0
 10
387.9394308369521
 20
425.9535588424276
 30
0.0
  0
LINE
  5
B2
330
1F
100
AcDbEntity
  8
0
  6
Continuous
 62
     7
370
    15
100
AcDbLine
 10
395.1966491755
 20
426.3338935393
 30
0.0
 11
387.939430837
 21
425.9535588424
 31
0.0
  0
SPLINE
  5
B3
330
1F
100
AcDbEntity
  8
0
  6
Continuous
 62
     7
370
    15
100
AcDbSpline
210
0.0
220
0.0
230
1.0
 70
     8
 71
     3
 72
    14
 73
    10
 74
     0
 42
0.00000001
 43
0.00000001
 40
0.0
 40
0.0
 40
0.0
 40
0.0
 40
0.25
 40
0.25
 40
0.5
 40
0.5
 40
0.75
 40
0.75
 40
1.0
 40
1.0
 40
1.0
 40
1.0
 10
399.451306634333
 20
430.3898579444354
 30
0.0
 10
399.3979619905146
 20
429.859085440073
 30
0.0
 10
399.2495605766568
 20
429.3380068839005
 30
0.0
 10
398.780955651838
 20
428.3795342269713
 30
0.0
 10
398.4608748421875
 20
427.9423910963707
 30
0.0
 10
397.6886517147445
 20
427.2062308888835
 30
0.0
 10
397.2367115988172
 20
426.9074065710086
 30
0.0
 10
396.2569397397521
 20
426.4851418272407
 30
0.0
 10
395.7293645438351
 20
426.3618119687675
 30
0.0
 10
395.1966491754548
 20
426.3338935393207
 30
0.0
  0
SPLINE
  5
B4
330
1F
100
AcDbEntity
  8
0
  6
Continuous
 62
     7
370
    15
100
AcDbSpline
210
0.0
220
0.0
230
1.0
 70
    24
 71
     3
 72
    54
 73
    50
 74
     0
 42
0.00000001
 43
0.00000001
 40
0.0
 40
0.0
 40
0.0
 40
0.0
 40
0.0624999999999998
 40
0.0624999999999998
 40
0.1249999999999995
 40
0.1249999999999995
 40
0.1874999999999993
 40
0.1874999999999993
 40
0.249999999999999
 40
0.249999999999999
 40
0.3124999999999988
 40
0.3124999999999988
 40
0.3437499999999987
 40
0.3437499999999987
 40
0.3749999999999986
 40
0.3749999999999986
 40
0.4062499999999986
 40
0.4062499999999986
 40
0.4218749999999986
 40
0.4218749999999986
 40
0.4374999999999985
 40
0.4374999999999985
 40
0.4687499999999981
 40
0.4687499999999981
 40
0.484374999999998
 40
0.484374999999998
 40
0.4999999999999979
 40
0.4999999999999979
 40
0.5624999999999973
 40
0.5624999999999973
 40
0.5781249999999972
 40
0.5781249999999972
 40
0.5937499999999972
 40
0.5937499999999972
 40
0.6249999999999976
 40
0.6249999999999976
 40
0.6562499999999977
 40
0.6562499999999977
 40
0.6874999999999979
 40
0.6874999999999979
 40
0.7499999999999983
 40
0.7499999999999983
 40
0.8124999999999988
 40
0.8124999999999988
 40
0.8749999999999991
 40
0.8749999999999991
 40
0.9374999999999996
 40
0.9374999999999996
 40
1.0
 40
1.0
 40
1.0
 40
1.0
 10
387.9394308369522
 20
596.4704411576072
 30
0.0
 10
387.9394308369522
 20
596.4704411578024
 30
0.0
 10
387.9394308369531
 20
596.4610605797083
 30
0.0
 10
387.9394308369531
 20
596.4074314308403
 30
0.0
 10
387.9394308369525
 20
596.3633368530024
 30
0.0
 10
387.9394308369525
 20
596.2156227667841
 30
0.0
 10
387.9394308369523
 20
596.1122282944924
 30
0.0
 10
387.9394308369523
 20
595.8065932255786
 30
0.0
 10
387.9394308369518
 20
595.6049312140672
 30
0.0
 10
387.9394308369518
 20
595.0367936016913
 30
0.0
 10
387.9394308369536
 20
594.6715903706521
 30
0.0
 10
387.9394308369536
 20
593.9114765694034
 30
0.0
 10
387.939430836954
 20
593.6222381619204
 30
0.0
 10
387.939430836954
 20
592.9535641819817
 30
0.0
 10
387.9394308369522
 20
592.5738549631913
 30
0.0
 10
387.9394308369522
 20
591.6960085440032
 30
0.0
 10
387.939430836952
 20
591.1979633623802
 30
0.0
 10
387.939430836952
 20
590.3345773069857
 30
0.0
 10
387.9394308369525
 20
590.0273157889471
 30
0.0
 10
387.9394308369525
 20
589.368140555254
 30
0.0
 10
387.9394308369525
 20
589.0182560281332
 30
0.0
 10
387.9394308369525
 20
587.9066512685331
 30
0.0
 10
387.9394308369524
 20
587.0813032660252
 30
0.0
 10
387.9394308369524
 20
585.6979909481795
 30
0.0
 10
387.9394308369518
 20
585.212683210663
 30
0.0
 10
387.9394308369518
 20
584.1907422150048
 30
0.0
 10
387.9394308369524
 20
583.6514070174134
 30
0.0
 10
387.9394308369524
 20
580.8595558454986
 30
0.0
 10
387.9394308369521
 20
578.3252862446244
 30
0.0
 10
387.9394308369521
 20
574.8549695431491
 30
0.0
 10
387.9394308369525
 20
574.1466825954461
 30
0.0
 10
387.9394308369525
 20
572.7214762963789
 30
0.0
 10
387.9394308369522
 20
572.0021658565837
 30
0.0
 10
387.9394308369522
 20
569.8266370407954
 30
0.0
 10
387.9394308369526
 20
568.3529126539225
 30
0.0
 10
387.9394308369526
 20
565.3696484531205
 30
0.0
 10
387.9394308369525
 20
563.8600835353435
 30
0.0
 10
387.9394308369525
 20
560.8133692698773
 30
0.0
 10
387.939430836953
 20
559.2731703263951
 30
0.0
 10
387.939430836953
 20
554.6486461827574
 30
0.0
 10
387.9394308369527
 20
551.5582714797051
 30
0.0
 10
387.9394308369527
 20
545.3691305326769
 30
0.0
 10
387.939430836952
 20
542.2702951565217
 30
0.0
 10
387.939430836952
 20
536.0675765978567
 30
0.0
 10
387.939430836952
 20
532.9636631425759
 30
0.0
 10
387.939430836952
 20
526.7527860119743
 30
0.0
 10
387.939430836952
 20
523.6458076800767
 30
0.0
 10
387.939430836952
 20
517.4300545182683
 30
0.0
 10
387.9394308369521
 20
514.3212720146809
 30
0.0
 10
387.9394308369521
 20
511.211999999913
 30
0.0
  0
LINE
  5
B5
330
1F
100
AcDbEntity
  8
0
  6
Continuous
 62
     7
370
    15
100
AcDbLine
 10
395.1966491755
 20
596.0901064607
 30
0.0
 11
387.939430837
 21
596.4704411576
 31
0.0
  0
SPLINE
  5
B6
330
1F
100
AcDbEntity
  8
0
  6
Continuous
 62
     7
370
    15
100
AcDbSpline
210
0.0
220
0.0
230
1.0
 70
     8
 71
     3
 72
    14
 73
    10
 74
     0
 42
0.00000001
 43
0.00000001
 40
0.0
 40
0.0
 40
0.0
 40
0.0
 40
0.25
 40
0.25
 40
0.5
 40
0.5
 40
0.75
 40
0.75
 40
1.0
 40
1.0
 40
1.0
 40
1.0
 10
395.1966491754549
 20
596.0901064607142
 30
0.0
 10
395.7293645438352
 20
596.0621880312673
 30
0.0
 10
396.2569397397521
 20
595.9388581727941
 30
0.0
 10
397.2367115988173
 20
595.5165934290262
 30
0.0
 10
397.6886517147447
 20
595.2177691111515
 30
0.0
 10
398.4608748421875
 20
594.4816089036642
 30
0.0
 10
398.7809556518381
 20
594.0444657730636
 30
0.0
 10
399.2495605766569
 20
593.0859931161343
 30
0.0
 10
399.3979619905147
 20
592.5649145599618
 30
0.0
 10
399.4513066343331
 20
592.0341420555993
 30
0.0
  0
SPLINE
  5
B7
330
1F
100
AcDbEntity
  8
0
  6
Continuous
 62
     7
370
    15
100
AcDbSpline
210
0.0
220
0.0
230
1.0
 70
     8
 71
     3
 72
    37
 73
    33
 74
     0
 42
0.00000001
 43
0.00000001
 40
0.0
 40
0.0
 40
0.0
 40
0.0
 40
0.0263324482822549
 40
0.0528477331702545
 40
0.0799396708072567
 40
0.1072308645037499
 40
0.1602253295216647
 40
0.1871243192364972
 40
0.2144154313959027
 40
0.2674115574036056
 40
0.2943113623638529
 40
0.3216032718516144
 40
0.3746029215628019
 40
0.4015045079724598
 40
0.4287982165206146
 40
0.4818019008005208
 40
0.5087055250124154
 40
0.5360012870176426
 40
0.589009822948808
 40
0.6159158891150394
 40
0.6432141069823762
 40
0.6962288439144151
 40
0.723138095317327
 40
0.750439610371412
 40
0.7767833396446531
 40
0.8033100246003024
 40
0.830413849030258
 40
0.857717152749769
 40
0.9107216660657097
 40
0.9376261220849079
 40
0.9649232126753635
 40
1.0
 40
1.0
 40
1.0
 40
1.0
 10
402.2576374812098
 20
528.263000000017
 30
0.0
 10
402.2575269011154
 20
528.2722847584455
 30
0.0
 10
402.2573049731251
 20
528.2909187430531
 30
0.0
 10
402.2554640079888
 20
528.442793286424
 30
0.0
 10
402.2524770243849
 20
528.6885756876214
 30
0.0
 10
402.2468783817392
 20
529.14809789678
 30
0.0
 10
402.2389560316897
 20
529.7959407008825
 30
0.0
 10
402.2288428965683
 20
530.6169379419409
 30
0.0
 10
402.2172843942919
 20
531.549590614771
 30
0.0
 10
402.203620540534
 20
532.6404226953742
 30
0.0
 10
402.1880301755562
 20
533.8616934580517
 30
0.0
 10
402.1711459480019
 20
535.163710262469
 30
0.0
 10
402.1523388528288
 20
536.5743863049212
 30
0.0
 10
402.1317071914308
 20
538.0583430011748
 30
0.0
 10
402.1098092658971
 20
539.5829798167109
 30
0.0
 10
402.0859718250293
 20
541.1545053288728
 30
0.0
 10
402.0603059162033
 20
542.7338696830167
 30
0.0
 10
402.0334087440404
 20
544.309262357244
 30
0.0
 10
402.0047085438137
 20
545.8644803170812
 30
0.0
 10
401.9747079423385
 20
547.3612143891701
 30
0.0
 10
401.9440178003557
 20
548.8097751404656
 30
0.0
 10
401.9126358160617
 20
550.1734130741996
 30
0.0
 10
401.8817529600112
 20
551.4187420496945
 30
0.0
 10
401.8591072037894
 20
552.2891818949787
 30
0.0
 10
401.8374848036663
 20
553.084530133081
 30
0.0
 10
401.8171736023854
 20
553.8028342436498
 30
0.0
 10
401.7982790666898
 20
554.4476818394339
 30
0.0
 10
401.7759586536782
 20
555.1859536530382
 30
0.0
 10
401.7582970319195
 20
555.745975760332
 30
0.0
 10
401.7467127255379
 20
556.1058773721229
 30
0.0
 10
401.7397974344229
 20
556.318124683513
 30
0.0
 10
401.7401129677223
 20
556.3085216326928
 30
0.0
 10
401.7402904121078
 20
556.3031212281877
 30
0.0
  0
SPLINE
  5
B8
330
1F
100
AcDbEntity
  8
0
  6
Continuous
 62
     7
370
    15
100
AcDbSpline
210
0.0
220
0.0
230
1.0
 70
     8
 71
     3
 72
    37
 73
    33
 74
     0
 42
0.00000001
 43
0.00000001
 40
0.0
 40
0.0
 40
0.0
 40
0.0
 40
0.0263638849880206
 40
0.0529109917250952
 40
0.0800358404001303
 40
0.1073602472387015
 40
0.1604175455052583
 40
0.1873479344572191
 40
0.2146702658868702
 40
0.2677666637813524
 40
0.2947169311674597
 40
0.3220596167818305
 40
0.3484578362551001
 40
0.3750393978267609
 40
0.4021993189614801
 40
0.429559132819198
 40
0.4826726888556014
 40
0.5096323135210422
 40
0.5369851473432729
 40
0.5900877932603766
 40
0.6170417464154095
 40
0.644388688299418
 40
0.6974890949337524
 40
0.7244419101907777
 40
0.7517877011279064
 40
0.8048857507010415
 40
0.8318373883427157
 40
0.8591820057619957
 40
0.912276404282259
 40
0.9392261862274403
 40
0.966568913117431
 40
1.0
 40
1.0
 40
1.0
 40
1.0
 10
401.3335556091174
 20
456.1473000000174
 30
0.0
 10
401.3343126810705
 20
456.1624681726051
 30
0.0
 10
401.3358320864183
 20
456.1929099324078
 30
0.0
 10
401.3479604771518
 20
456.4410203408464
 30
0.0
 10
401.3672912789793
 20
456.8425343024826
 30
0.0
 10
401.4026572646258
 20
457.5931796101808
 30
0.0
 10
401.4506393581061
 20
458.6513558342747
 30
0.0
 10
401.5074321225931
 20
459.9922401432065
 30
0.0
 10
401.5687542011886
 20
461.5159515229518
 30
0.0
 10
401.6346169098028
 20
463.2985843832128
 30
0.0
 10
401.7004422223742
 20
465.2947047145979
 30
0.0
 10
401.7490021251646
 20
466.8945033256862
 30
0.0
 10
401.7956000615097
 20
468.5733277863287
 30
0.0
 10
401.8397786341493
 20
470.3218906497125
 30
0.0
 10
401.8816867717954
 20
472.1547261079656
 30
0.0
 10
401.9333033861879
 20
474.6534084544554
 30
0.0
 10
401.9790247750445
 20
477.2246598439095
 30
0.0
 10
402.019578062936
 20
479.8087072264858
 30
0.0
 10
402.0571232077999
 20
482.3860531856781
 30
0.0
 10
402.0909063981015
 20
484.9304143045129
 30
0.0
 10
402.1218401870285
 20
487.3790860360246
 30
0.0
 10
402.1510999437972
 20
489.7488805919799
 30
0.0
 10
402.178157792257
 20
491.9797670709414
 30
0.0
 10
402.2029089112355
 20
494.0173123296836
 30
0.0
 10
402.2260069770133
 20
495.9125476345787
 30
0.0
 10
402.2464657198393
 20
497.5784524294473
 30
0.0
 10
402.2637145319694
 20
498.975311337019
 30
0.0
 10
402.2786468022053
 20
500.1816280308842
 30
0.0
 10
402.2900164048518
 20
501.0987870753636
 30
0.0
 10
402.2973069804687
 20
501.6879389861809
 30
0.0
 10
402.3015500071119
 20
502.0314108131265
 30
0.0
 10
402.3013692235053
 20
502.0177173024751
 30
0.0
 10
402.3012697761927
 20
502.0101846347701
 30
0.0
  0
SPLINE
  5
B9
330
1F
100
AcDbEntity
  8
0
  6
Continuous
 62
     7
370
    15
100
AcDbSpline
210
0.0
220
0.0
230
1.0
 70
     8
 71
     3
 72
    22
 73
    18
 74
     0
 42
0.00000001
 43
0.00000001
 40
0.0
 40
0.0
 40
0.0
 40
0.0
 40
0.0683527058164816
 40
0.1371830351016454
 40
0.2075102632515968
 40
0.2783518087371521
 40
0.3467104110924942
 40
0.4155441694643257
 40
0.4858916588811337
 40
0.5567706515972973
 40
0.6246012885772045
 40
0.6929259422659919
 40
0.7628390515699985
 40
0.8333141477003518
 40
0.8991143966582111
 40
0.9653948132461444
 40
1.0
 40
1.0
 40
1.0
 40
1.0
 10
450.9278308388177
 20
505.5301193975822
 30
0.0
 10
451.0868355680765
 20
505.5576649643123
 30
0.0
 10
451.4059560929291
 20
505.6129485760216
 30
0.0
 10
451.8663873369604
 20
505.7011276675868
 30
0.0
 10
452.3116059625293
 20
505.7919239689274
 30
0.0
 10
452.7303796918582
 20
505.8828975735369
 30
0.0
 10
453.1187450309707
 20
505.9718206693166
 30
0.0
 10
453.4765509863733
 20
506.0576011440179
 30
0.0
 10
453.8057306403165
 20
506.139775370549
 30
0.0
 10
454.0975256055515
 20
506.21522991494
 30
0.0
 10
454.3493294486607
 20
506.2822672157595
 30
0.0
 10
454.5617396857947
 20
506.340185287879
 30
0.0
 10
454.7355371569093
 20
506.3885123378707
 30
0.0
 10
454.8649426010572
 20
506.4250499385413
 30
0.0
 10
454.9478038069512
 20
506.448679997645
 30
0.0
 10
454.9884454247953
 20
506.4603417235493
 30
0.0
 10
454.9856597487964
 20
506.4595424073995
 30
0.0
 10
454.9847042225866
 20
506.4592682306713
 30
0.0
  0
SPLINE
  5
BA
330
1F
100
AcDbEntity
  8
0
  6
Continuous
 62
     7
370
    15
100
AcDbSpline
210
0.0
220
0.0
230
1.0
 70
     8
 71
     3
 72
    10
 73
     6
 74
     0
 42
0.00000001
 43
0.00000001
 40
0.0
 40
0.0
 40
0.0
 40
0.0
 40
0.5
 40
0.5
 40
1.0
 40
1.0
 40
1.0
 40
1.0
 10
464.5686308388176
 20
451.5079994879462
 30
0.0
 10
464.7027620337843
 20
451.5073232560309
 30
0.0
 10
464.8377140900664
 20
451.5068144926848
 30
0.0
 10
465.1044146504436
 20
451.5061442714092
 30
0.0
 10
465.2377367946798
 20
451.5059768229174
 30
0.0
 10
465.3710308388176
 20
451.5059768229174
 30
0.0
  0
LINE
  5
BB
330
1F
100
AcDbEntity
  8
0
  6
Continuous
 62
     7
370
    15
100
AcDbLine
 10
464.5686308388
 20
451.5079994879
 30
0.0
 11
464.5686308388
 21
451.4352173472
 31
0.0
  0
LINE
  5
BC
330
1F
100
AcDbEntity
  8
0
  6
Continuous
 62
     7
370
    15
100
AcDbLine
 10
465.3710308388
 20
506.7988
 30
0.0
 11
465.3710308388
 21
451.5059768229
 31
0.0
  0
SPLINE
  5
BD
330
1F
100
AcDbEntity
  8
0
  6
Continuous
 62
     7
370
    15
100
AcDbSpline
210
0.0
220
0.0
230
1.0
 70
     8
 71
     3
 72
    26
 73
    22
 74
     0
 42
0.00000001
 43
0.00000001
 40
0.0
 40
0.0
 40
0.0
 40
0.0
 40
0.0476007820796705
 40
0.0906355410098429
 40
0.1339706894727881
 40
0.1777686653197202
 40
0.2221985249176031
 40
0.2654175816427788
 40
0.3089338965779271
 40
0.3529088107571522
 40
0.3975113835568364
 40
0.4847007210715089
 40
0.5294512876744313
 40
0.5745399129930191
 40
0.6613144125291402
 40
0.7053842321360928
 40
0.7501237298855328
 40
0.792635716961199
 40
0.8784927693804805
 40
0.9223312911656856
 40
1.0
 40
1.0
 40
1.0
 40
1.0
 10
442.8682395818392
 20
505.4735003168431
 30
0.0
 10
442.8668365939864
 20
505.473713813954
 30
0.0
 10
442.8641651974773
 20
505.4741203288326
 30
0.0
 10
442.9393867364843
 20
505.4625174921767
 30
0.0
 10
443.0448515678577
 20
505.4466309540883
 30
0.0
 10
443.1946638555477
 20
505.4248017879697
 30
0.0
 10
443.3839964768489
 20
505.3984960169242
 30
0.0
 10
443.6116284935063
 20
505.3687591278778
 30
0.0
 10
443.8748649787483
 20
505.336926088992
 30
0.0
 10
444.176274997824
 20
505.3038709956462
 30
0.0
 10
444.6219651531423
 20
505.2607013987742
 30
0.0
 10
445.1331421598576
 20
505.2216057427614
 30
0.0
 10
445.6971009984953
 20
505.192947336164
 30
0.0
 10
446.2910491350015
 20
505.1733880240051
 30
0.0
 10
446.9235070615555
 20
505.1698744011056
 30
0.0
 10
447.5789289954685
 20
505.185929445877
 30
0.0
 10
448.0785350680791
 20
505.2083883704268
 30
0.0
 10
448.7437854891332
 20
505.2517551682594
 30
0.0
 10
449.4094564538105
 20
505.3155684236356
 30
0.0
 10
450.198359253088
 20
505.4135234216863
 30
0.0
 10
450.6433732062828
 20
505.4846527667835
 30
0.0
 10
450.9278308388177
 20
505.5301193975822
 30
0.0
  0
LINE
  5
BE
330
1F
100
AcDbEntity
  8
0
  6
Continuous
 62
     7
370
    15
100
AcDbLine
 10
415.8228308388
 20
504.191
 30
0.0
 11
415.8228308388
 21
454.041
 31
0.0
  0
LINE
  5
BF
330
1F
100
AcDbEntity
  8
0
  6
Continuous
 62
     7
370
    15
100
AcDbLine
 10
410.9081308388
 20
493.1996489535
 30
0.0
 11
410.9081308388
 21
456.1472999984
 31
0.0
  0
LINE
  5
C0
330
1F
100
AcDbEntity
  8
0
  6
Continuous
 62
     7
370
    15
100
AcDbLine
 10
410.9081308388
 20
502.0847000016
 30
0.0
 11
410.9081308388
 21
495.1235572898
 31
0.0
  0
LINE
  5
C1
330
1F
100
AcDbEntity
  8
0
  6
Continuous
 62
     7
370
    15
100
AcDbLine
 10
410.9081308388
 20
493.1996489535
 30
0.0
 11
410.9081308388
 21
493.435450747
 31
0.0
  0
LINE
  5
C2
330
1F
100
AcDbEntity
  8
0
  6
Continuous
 62
     7
370
    15
100
AcDbLine
 10
410.9081308388
 20
493.435450747
 30
0.0
 11
410.9081308388
 21
493.6758394127
 31
0.0
  0
LINE
  5
C3
330
1F
100
AcDbEntity
  8
0
  6
Continuous
 62
     7
370
    15
100
AcDbLine
 10
410.9081308388
 20
493.6758394127
 30
0.0
 11
410.9081308388
 21
494.9372361992
 31
0.0
  0
LINE
  5
C4
330
1F
100
AcDbEntity
  8
0
  6
Continuous
 62
     7
370
    15
100
AcDbLine
 10
410.9081308388
 20
494.9372361992
 30
0.0
 11
410.9081308388
 21
495.0326655993
 31
0.0
  0
LINE
  5
C5
330
1F
100
AcDbEntity
  8
0
  6
Continuous
 62
     7
370
    15
100
AcDbLine
 10
410.9081308388
 20
495.0326655993
 30
0.0
 11
410.9081308388
 21
495.1235572898
 31
0.0
  0
SPLINE
  5
C6
330
1F
100
AcDbEntity
  8
0
  6
Continuous
 62
     7
370
    15
100
AcDbSpline
210
0.0
220
0.0
230
1.0
 70
     8
 71
     3
 72
    25
 73
    21
 74
     0
 42
0.00000001
 43
0.00000001
 40
0.0
 40
0.0
 40
0.0
 40
0.0
 40
0.0584256527941236
 40
0.1058552012401106
 40
0.1898163886319238
 40
0.2481442967747052
 40
0.2953082241615455
 40
0.378510709457805
 40
0.4302825446426505
 40
0.4823588694656215
 40
0.5348996107490609
 40
0.5880791255666353
 40
0.6442587726300406
 40
0.7008710735315615
 40
0.7589491615308555
 40
0.8175847432951082
 40
0.8689168111169049
 40
0.9206870230040268
 40
0.973166858466181
 40
1.0
 40
1.0
 40
1.0
 40
1.0
 10
417.3521273308194
 20
553.8285926689715
 30
0.0
 10
417.6035815832267
 20
553.8333185231356
 30
0.0
 10
418.0591646913017
 20
553.8418807936393
 30
0.0
 10
418.8660937917624
 20
553.9183119881536
 30
0.0
 10
419.6529139548955
 20
554.0456930924101
 30
0.0
 10
420.4018236588129
 20
554.2204752364515
 30
0.0
 10
421.1165962055267
 20
554.4210340991636
 30
0.0
 10
421.7665361652796
 20
554.6395992609312
 30
0.0
 10
422.3849250514018
 20
554.8768991935574
 30
0.0
 10
422.8691369119883
 20
555.0788452977404
 30
0.0
 10
423.3222627055483
 20
555.2813504823015
 30
0.0
 10
423.7482515234555
 20
555.4830336459196
 30
0.0
 10
424.1410521553113
 20
555.6783989730656
 30
0.0
 10
424.4954900225586
 20
555.862088121166
 30
0.0
 10
424.7998981868827
 20
556.0252237827644
 30
0.0
 10
425.0365022649357
 20
556.1553989343339
 30
0.0
 10
425.2088421014979
 20
556.2519354706693
 30
0.0
 10
425.3187847480405
 20
556.3142526888001
 30
0.0
 10
425.3743456028707
 20
556.3459810931328
 30
0.0
 10
425.3701335901637
 20
556.3435757955701
 30
0.0
 10
425.368708583344
 20
556.3427620360521
 30
0.0
  0
SPLINE
  5
C7
330
1F
100
AcDbEntity
  8
0
  6
Continuous
 62
     7
370
    15
100
AcDbSpline
210
0.0
220
0.0
230
1.0
 70
     8
 71
     3
 72
    22
 73
    18
 74
     0
 42
0.00000001
 43
0.00000001
 40
0.0
 40
0.0
 40
0.0
 40
0.0
 40
0.0164708776703526
 40
0.1317392729995117
 40
0.2023420642176171
 40
0.2948556065242531
 40
0.3885917294213094
 40
0.4397388550250594
 40
0.4911894119615119
 40
0.5430930328400791
 40
0.595611681007556
 40
0.6516501928853542
 40
0.7085593823151592
 40
0.7659325689125078
 40
0.8243093202706806
 40
0.9114774729556749
 40
1.0
 40
1.0
 40
1.0
 40
1.0
 10
409.3345225768631
 20
556.3433472548751
 30
0.0
 10
409.3328344623072
 20
556.3443122057453
 30
0.0
 10
409.3193323898142
 20
556.3520301870609
 30
0.0
 10
409.4442275462516
 20
556.2804262897139
 30
0.0
 10
409.7536817222079
 20
556.1073869036137
 30
0.0
 10
410.1754896064204
 20
555.8781508148209
 30
0.0
 10
410.6871190968333
 20
555.6145439133887
 30
0.0
 10
411.1808912691847
 20
555.3753771636493
 30
0.0
 10
411.606560552049
 20
555.1794710246872
 30
0.0
 10
412.0715578880749
 20
554.9783207743669
 30
0.0
 10
412.5851789634596
 20
554.7723520116751
 30
0.0
 10
413.1502451456665
 20
554.5664934570336
 30
0.0
 10
413.7673766432766
 20
554.3682141809683
 30
0.0
 10
414.4265647989537
 20
554.1879174487584
 30
0.0
 10
415.2365748694524
 20
554.0111248896544
 30
0.0
 10
416.2147639570103
 20
553.8614720196257
 30
0.0
 10
416.9710628062762
 20
553.8396086330977
 30
0.0
 10
417.3521273308194
 20
553.8285926689715
 30
0.0
  0
LINE
  5
C8
330
1F
100
AcDbEntity
  8
0
  6
Continuous
 62
     7
370
    15
100
AcDbLine
 10
405.2158273308
 20
556.347
 30
0.0
 11
405.2158273308
 21
528.263
 31
0.0
  0
LINE
  5
C9
330
1F
100
AcDbEntity
  8
0
  6
Continuous
 62
     7
370
    15
100
AcDbLine
 10
404.2883308388
 20
555.8455
 30
0.0
 11
404.2883308388
 21
528.7645001014
 31
0.0
  0
SPLINE
  5
CA
330
1F
100
AcDbEntity
  8
0
  6
Continuous
 62
     8
370
     0
100
AcDbSpline
210
0.0
220
0.0
230
1.0
 70
     8
 71
     3
 72
    54
 73
    50
 74
     0
 42
0.00000001
 43
0.00000001
 40
0.0
 40
0.0
 40
0.0
 40
0.0
 40
0.0624999999999992
 40
0.0624999999999992
 40
0.1249999999999984
 40
0.1249999999999984
 40
0.1874999999999975
 40
0.1874999999999975
 40
0.2499999999999966
 40
0.2499999999999966
 40
0.3124999999999958
 40
0.3124999999999958
 40
0.3281249999999956
 40
0.3281249999999956
 40
0.3437499999999955
 40
0.3437499999999955
 40
0.3749999999999952
 40
0.3749999999999952
 40
0.4062499999999951
 40
0.4062499999999951
 40
0.4374999999999949
 40
0.4374999999999949
 40
0.4999999999999943
 40
0.4999999999999943
 40
0.5156249999999943
 40
0.5156249999999943
 40
0.5312499999999944
 40
0.5312499999999944
 40
0.562499999999995
 40
0.562499999999995
 40
0.5781249999999951
 40
0.5781249999999951
 40
0.5937499999999953
 40
0.5937499999999953
 40
0.6249999999999958
 40
0.6249999999999958
 40
0.6874999999999964
 40
0.6874999999999964
 40
0.7187499999999968
 40
0.7187499999999968
 40
0.7499999999999971
 40
0.7499999999999971
 40
0.8124999999999979
 40
0.8124999999999979
 40
0.8749999999999987
 40
0.8749999999999987
 40
0.9374999999999993
 40
0.9374999999999993
 40
1.0
 40
1.0
 40
1.0
 40
1.0
 10
395.1966491754548
 20
426.3338935393207
 30
0.0
 10
395.1966491754544
 20
426.333893539191
 30
0.0
 10
395.1966822158864
 20
426.3431613629788
 30
0.0
 10
395.1967739145062
 20
426.395762825717
 30
0.0
 10
395.1968323900902
 20
426.4389533544436
 30
0.0
 10
395.1969231941379
 20
426.583024330034
 30
0.0
 10
395.1969544915192
 20
426.6836304547057
 30
0.0
 10
395.1969427218706
 20
426.980345297147
 30
0.0
 10
395.1968956248339
 20
427.1758840142831
 30
0.0
 10
395.1967469511965
 20
427.7263196350636
 30
0.0
 10
395.1966381986767
 20
428.079914595045
 30
0.0
 10
395.1966535001993
 20
428.6939018304693
 30
0.0
 10
395.1966617556874
 20
428.825487471112
 30
0.0
 10
395.1966811892167
 20
429.108990077171
 30
0.0
 10
395.1966923378508
 20
429.2610130314947
 30
0.0
 10
395.196720005845
 20
429.7498645463082
 30
0.0
 10
395.1967287500242
 20
430.1198313831019
 30
0.0
 10
395.196706040676
 20
430.9741972589376
 30
0.0
 10
395.1966714001825
 20
431.4585154211865
 30
0.0
 10
395.1966389266216
 20
432.5761807417223
 30
0.0
 10
395.1966071751409
 20
433.2096349406229
 30
0.0
 10
395.1964380583019
 20
435.3997816955748
 30
0.0
 10
395.1966333532258
 20
437.1900916141298
 30
0.0
 10
395.1966526402777
 20
439.9335095377724
 30
0.0
 10
395.1966256398637
 20
440.5101283618126
 30
0.0
 10
395.1965647533626
 20
441.696786599363
 30
0.0
 10
395.1965314568445
 20
442.3070551812277
 30
0.0
 10
395.1964687812055
 20
444.1855184418553
 30
0.0
 10
395.1964869770774
 20
445.5013913183697
 30
0.0
 10
395.1965673312804
 20
447.5570913942287
 30
0.0
 10
395.1966001236291
 20
448.2559654686503
 30
0.0
 10
395.1966458643112
 20
449.6787222043218
 30
0.0
 10
395.1966460824218
 20
450.4006486043986
 30
0.0
 10
395.1966654620293
 20
452.5767082210817
 30
0.0
 10
395.1967019889804
 20
454.0483564133353
 30
0.0
 10
395.1967418792147
 20
458.5106802786914
 30
0.0
 10
395.1966689209921
 20
461.5478658047129
 30
0.0
 10
395.196643219192
 20
466.1577928494542
 30
0.0
 10
395.1966646595446
 20
467.7027799067384
 30
0.0
 10
395.1967340652366
 20
470.7930597492844
 30
0.0
 10
395.1967776602414
 20
472.3403822695357
 30
0.0
 10
395.1968913049852
 20
476.9873463284349
 30
0.0
 10
395.1969409104232
 20
480.0919017914255
 30
0.0
 10
395.196955545634
 20
486.3087979068086
 30
0.0
 10
395.1969248245745
 20
489.4216600395426
 30
0.0
 10
395.196834073788
 20
495.6464673001955
 30
0.0
 10
395.1967751427405
 20
498.7592692455341
 30
0.0
 10
395.196682600817
 20
504.9853371624509
 30
0.0
 10
395.1966491754544
 20
508.0986051934195
 30
0.0
 10
395.1966491754548
 20
511.2120000001742
 30
0.0
  0
SPLINE
  5
CB
330
1F
100
AcDbEntity
  8
0
  6
Continuous
 62
     8
370
     0
100
AcDbSpline
210
0.0
220
0.0
230
1.0
 70
     8
 71
     3
 72
    52
 73
    48
 74
     0
 42
0.00000001
 43
0.00000001
 40
0.0
 40
0.0
 40
0.0
 40
0.0
 40
0.1249999999999984
 40
0.1249999999999984
 40
0.1874999999999976
 40
0.1874999999999976
 40
0.2499999999999968
 40
0.2499999999999968
 40
0.3124999999999959
 40
0.3124999999999959
 40
0.3437499999999956
 40
0.3437499999999956
 40
0.3749999999999952
 40
0.3749999999999952
 40
0.4062499999999949
 40
0.4062499999999949
 40
0.4374999999999946
 40
0.4374999999999946
 40
0.4531249999999944
 40
0.4531249999999944
 40
0.4687499999999943
 40
0.4687499999999943
 40
0.4999999999999944
 40
0.4999999999999944
 40
0.5156249999999946
 40
0.5156249999999946
 40
0.5312499999999947
 40
0.5312499999999947
 40
0.5624999999999951
 40
0.5624999999999951
 40
0.5781249999999953
 40
0.5781249999999953
 40
0.5937499999999956
 40
0.5937499999999956
 40
0.624999999999996
 40
0.624999999999996
 40
0.6562499999999963
 40
0.6562499999999963
 40
0.6874999999999968
 40
0.6874999999999968
 40
0.7499999999999973
 40
0.7499999999999973
 40
0.812499999999998
 40
0.812499999999998
 40
0.8749999999999987
 40
0.8749999999999987
 40
1.0
 40
1.0
 40
1.0
 40
1.0
 10
399.4513098976448
 20
430.3898904151573
 30
0.0
 10
399.451309900077
 20
430.3898904391121
 30
0.0
 10
399.4513107319569
 20
430.4202790994415
 30
0.0
 10
399.4513116392696
 20
430.6123581546582
 30
0.0
 10
399.4513118721671
 20
430.7014799307066
 30
0.0
 10
399.451311908009
 20
430.9626302526183
 30
0.0
 10
399.4513116913288
 20
431.1341565714152
 30
0.0
 10
399.4513108307775
 20
431.6145753082168
 30
0.0
 10
399.4513101072806
 20
431.9222224595591
 30
0.0
 10
399.4513098599642
 20
432.5620167423285
 30
0.0
 10
399.4513099921563
 20
432.805460887542
 30
0.0
 10
399.451310267012
 20
433.3743827775892
 30
0.0
 10
399.4513104040761
 20
433.6981713801667
 30
0.0
 10
399.4513104080561
 20
434.4494289985582
 30
0.0
 10
399.4513102525215
 20
434.8768844591746
 30
0.0
 10
399.4513099140344
 20
435.8722851706635
 30
0.0
 10
399.4513099365952
 20
436.4400738804355
 30
0.0
 10
399.4513093272917
 20
437.4362567732711
 30
0.0
 10
399.4513091023721
 20
437.7934137579676
 30
0.0
 10
399.4513088396002
 20
438.551452733929
 30
0.0
 10
399.4513088039279
 20
438.9534758299195
 30
0.0
 10
399.4513090577445
 20
440.2341205037016
 30
0.0
 10
399.4513098558438
 20
441.1878312798104
 30
0.0
 10
399.4513099570098
 20
442.7839452546477
 30
0.0
 10
399.4513097316371
 20
443.3464715309363
 30
0.0
 10
399.4513092708347
 20
444.5054902973634
 30
0.0
 10
399.4513090406521
 20
445.103113047187
 30
0.0
 10
399.4513087060909
 20
446.9453140852152
 30
0.0
 10
399.4513090406053
 20
448.239117437287
 30
0.0
 10
399.4513096630862
 20
450.2584120124841
 30
0.0
 10
399.4513098663347
 20
450.9467431031011
 30
0.0
 10
399.4513099709729
 20
452.3351176516949
 30
0.0
 10
399.4513099804233
 20
453.0345059186543
 30
0.0
 10
399.4513102287018
 20
455.1456598913561
 30
0.0
 10
399.4513104054454
 20
456.570328502758
 30
0.0
 10
399.4513104336802
 20
459.4445940429649
 30
0.0
 10
399.4513103099484
 20
460.8942491280394
 30
0.0
 10
399.4513100377617
 20
463.8122449510392
 30
0.0
 10
399.4513098902039
 20
465.2812081727827
 30
0.0
 10
399.4513100719234
 20
469.7058004813554
 30
0.0
 10
399.4513108115162
 20
472.6618542821024
 30
0.0
 10
399.4513117006955
 20
478.5814408411189
 30
0.0
 10
399.4513119346444
 20
481.5450300980801
 30
0.0
 10
399.4513119199641
 20
487.4768373549195
 30
0.0
 10
399.451311692129
 20
490.4451468585538
 30
0.0
 10
399.4513107910814
 20
499.3464961466591
 30
0.0
 10
399.4513099535856
 20
505.279552618153
 30
0.0
 10
399.4513099560178
 20
511.2119999999198
 30
0.0
  0
SPLINE
  5
CC
330
1F
100
AcDbEntity
  8
0
  6
Continuous
 62
     8
370
     0
100
AcDbSpline
210
0.0
220
0.0
230
1.0
 70
     8
 71
     3
 72
    54
 73
    50
 74
     0
 42
0.00000001
 43
0.00000001
 40
0.0
 40
0.0
 40
0.0
 40
0.0
 40
0.0625000000000002
 40
0.0625000000000002
 40
0.1250000000000004
 40
0.1250000000000004
 40
0.1875000000000006
 40
0.1875000000000006
 40
0.2500000000000008
 40
0.2500000000000008
 40
0.312500000000001
 40
0.312500000000001
 40
0.3281250000000011
 40
0.3281250000000011
 40
0.3437500000000013
 40
0.3437500000000013
 40
0.3750000000000016
 40
0.3750000000000016
 40
0.4062500000000019
 40
0.4062500000000019
 40
0.4375000000000023
 40
0.4375000000000023
 40
0.5000000000000029
 40
0.5000000000000029
 40
0.5156250000000029
 40
0.5156250000000029
 40
0.531250000000003
 40
0.531250000000003
 40
0.562500000000003
 40
0.562500000000003
 40
0.578125000000003
 40
0.578125000000003
 40
0.5937500000000029
 40
0.5937500000000029
 40
0.6250000000000027
 40
0.6250000000000027
 40
0.6875000000000022
 40
0.6875000000000022
 40
0.718750000000002
 40
0.718750000000002
 40
0.7500000000000017
 40
0.7500000000000017
 40
0.8125000000000013
 40
0.8125000000000013
 40
0.8750000000000009
 40
0.8750000000000009
 40
0.9375000000000006
 40
0.9375000000000006
 40
1.0
 40
1.0
 40
1.0
 40
1.0
 10
395.1966491754548
 20
511.2119999999123
 30
0.0
 10
395.1966491754544
 20
514.3077875679159
 30
0.0
 10
395.1966822158864
 20
517.4030498780404
 30
0.0
 10
395.1967739145063
 20
523.5916438037323
 30
0.0
 10
395.1968323900903
 20
526.6849835301323
 30
0.0
 10
395.1969231941379
 20
532.8683933823436
 30
0.0
 10
395.1969544915192
 20
535.9584790554823
 30
0.0
 10
395.1969427218705
 20
542.1332377517949
 30
0.0
 10
395.1968956248336
 20
545.2179430799995
 30
0.0
 10
395.196746951196
 20
551.3783220435597
 30
0.0
 10
395.1966381986762
 20
554.4540694671305
 30
0.0
 10
395.1966535001997
 20
558.2890059398358
 30
0.0
 10
395.196661755688
 20
559.0554951597715
 30
0.0
 10
395.1966811892177
 20
560.5873213131763
 30
0.0
 10
395.1966923378518
 20
561.3530216810668
 30
0.0
 10
395.1967200058464
 20
563.6366173048195
 30
0.0
 10
395.1967287500257
 20
565.1445145167266
 30
0.0
 10
395.1967060406774
 20
568.1226549976476
 30
0.0
 10
395.1966714001837
 20
569.5929248791598
 30
0.0
 10
395.1966389266216
 20
572.4844266170179
 30
0.0
 10
395.1966071751399
 20
573.9062007185465
 30
0.0
 10
395.1964380583
 20
578.0726829076119
 30
0.0
 10
395.1966333532256
 20
580.598959774088
 30
0.0
 10
395.1966526402778
 20
583.3719646593051
 30
0.0
 10
395.196625639864
 20
583.9097989659259
 30
0.0
 10
395.1965647533633
 20
584.9310952442357
 30
0.0
 10
395.1965314568455
 20
585.4153149044614
 30
0.0
 10
395.1964687812069
 20
586.7936199562945
 30
0.0
 10
395.196486977079
 20
587.613319150439
 30
0.0
 10
395.1965673312817
 20
588.7151042549103
 30
0.0
 10
395.1966001236302
 20
589.0610840911799
 30
0.0
 10
395.1966458643117
 20
589.714026062505
 30
0.0
 10
395.1966460824219
 20
590.0200045731558
 30
0.0
 10
395.1966654620283
 20
590.8764978288879
 30
0.0
 10
395.1967019889792
 20
591.3693691558954
 30
0.0
 10
395.1967418792132
 20
592.671232750297
 30
0.0
 10
395.1966689209913
 20
593.3067180966788
 30
0.0
 10
395.1966432191922
 20
594.057941953324
 30
0.0
 10
395.196664659545
 20
594.2734999039735
 30
0.0
 10
395.1967340652372
 20
594.6499221538584
 30
0.0
 10
395.196777660242
 20
594.8110842039525
 30
0.0
 10
395.1968913049856
 20
595.2326484709878
 30
0.0
 10
395.1969409104235
 20
595.432152147047
 30
0.0
 10
395.196955545634
 20
595.7346772172515
 30
0.0
 10
395.1969248245746
 20
595.83711767038
 30
0.0
 10
395.196834073788
 20
595.9836010713784
 30
0.0
 10
395.1967751427405
 20
596.0274097704223
 30
0.0
 10
395.196682600817
 20
596.0807385531529
 30
0.0
 10
395.1966491754545
 20
596.0901064609094
 30
0.0
 10
395.1966491754549
 20
596.0901064607142
 30
0.0
  0
SPLINE
  5
CD
330
1F
100
AcDbEntity
  8
0
  6
Continuous
 62
     8
370
     0
100
AcDbSpline
210
0.0
220
0.0
230
1.0
 70
     8
 71
     3
 72
    52
 73
    48
 74
     0
 42
0.00000001
 43
0.00000001
 40
0.0
 40
0.0
 40
0.0
 40
0.0
 40
0.1249999999999998
 40
0.1249999999999998
 40
0.1874999999999996
 40
0.1874999999999996
 40
0.2499999999999995
 40
0.2499999999999995
 40
0.3124999999999994
 40
0.3124999999999994
 40
0.3437499999999993
 40
0.3437499999999993
 40
0.3749999999999992
 40
0.3749999999999992
 40
0.4062499999999992
 40
0.4062499999999992
 40
0.4374999999999991
 40
0.4374999999999991
 40
0.453124999999999
 40
0.453124999999999
 40
0.4687499999999988
 40
0.4687499999999988
 40
0.4999999999999986
 40
0.4999999999999986
 40
0.5156249999999986
 40
0.5156249999999986
 40
0.5312499999999984
 40
0.5312499999999984
 40
0.5624999999999986
 40
0.5624999999999986
 40
0.5781249999999987
 40
0.5781249999999987
 40
0.5937499999999987
 40
0.5937499999999987
 40
0.6249999999999989
 40
0.6249999999999989
 40
0.656249999999999
 40
0.656249999999999
 40
0.6874999999999992
 40
0.6874999999999992
 40
0.7499999999999992
 40
0.7499999999999992
 40
0.8124999999999994
 40
0.8124999999999994
 40
0.8749999999999997
 40
0.8749999999999997
 40
1.0
 40
1.0
 40
1.0
 40
1.0
 10
399.4513099560178
 20
511.2120000000822
 30
0.0
 10
399.451309953595
 20
517.1101653564231
 30
0.0
 10
399.4513107806181
 20
523.0076438393728
 30
0.0
 10
399.4513116806471
 20
531.8493810538255
 30
0.0
 10
399.4513119111169
 20
534.7958581702281
 30
0.0
 10
399.4513119421042
 20
540.6862662841926
 30
0.0
 10
399.4513117229972
 20
543.6302069878533
 30
0.0
 10
399.4513108575923
 20
549.5140159829863
 30
0.0
 10
399.4513101316688
 20
552.4539102756306
 30
0.0
 10
399.4513098807116
 20
556.8588062030707
 30
0.0
 10
399.4513100116897
 20
558.3262637856976
 30
0.0
 10
399.4513102841177
 20
561.2589585217145
 30
0.0
 10
399.451310419968
 20
562.7152586461954
 30
0.0
 10
399.4513104215206
 20
565.5959106376785
 30
0.0
 10
399.4513102647723
 20
567.0210318332785
 30
0.0
 10
399.451309923858
 20
569.8300110108044
 30
0.0
 10
399.451309945205
 20
571.2139245441738
 30
0.0
 10
399.4513093340811
 20
573.246742000428
 30
0.0
 10
399.4513091085548
 20
573.9180729804477
 30
0.0
 10
399.451308844569
 20
575.2223585206367
 30
0.0
 10
399.4513088082898
 20
575.8578274889546
 30
0.0
 10
399.4513090602857
 20
577.709530015164
 30
0.0
 10
399.4513098571713
 20
578.8707588733101
 30
0.0
 10
399.4513099565167
 20
580.4870563927341
 30
0.0
 10
399.451309730537
 20
581.0072633015116
 30
0.0
 10
399.4513092685208
 20
581.9865941398737
 30
0.0
 10
399.4513090377313
 20
582.4474144723393
 30
0.0
 10
399.4513087013493
 20
583.7499090901381
 30
0.0
 10
399.4513090346501
 20
584.5116151131222
 30
0.0
 10
399.4513096553105
 20
585.5235318671176
 30
0.0
 10
399.4513098579522
 20
585.8399411181816
 30
0.0
 10
399.4513099613767
 20
586.4292226131121
 30
0.0
 10
399.4513099702203
 20
586.7020143530036
 30
0.0
 10
399.4513102166782
 20
587.4648346671107
 30
0.0
 10
399.4513103922082
 20
587.899859555457
 30
0.0
 10
399.4513104180156
 20
588.6631868643695
 30
0.0
 10
399.45131029307
 20
588.9912935501583
 30
0.0
 10
399.4513100184557
 20
589.5679428050345
 30
0.0
 10
399.451309869684
 20
589.8164562764897
 30
0.0
 10
399.4513100477625
 20
590.4708484578877
 30
0.0
 10
399.4513107849286
 20
590.7853070536873
 30
0.0
 10
399.4513116692543
 20
591.2760740631312
 30
0.0
 10
399.4513119007764
 20
591.4511145032706
 30
0.0
 10
399.4513118812415
 20
591.7174274442472
 30
0.0
 10
399.4513116509787
 20
591.8081727572244
 30
0.0
 10
399.4513107426475
 20
592.0034804123767
 30
0.0
 10
399.4513099002948
 20
592.034109558881
 30
0.0
 10
399.451309897872
 20
592.0341095826167
 30
0.0
  0
LINE
  5
CE
330
1F
100
AcDbEntity
  8
0
  6
Continuous
 62
     8
370
     0
100
AcDbLine
 10
467.7145155261
 20
504.943677944
 30
0.0
 11
467.7145155261
 21
453.288322056
 31
0.0
  0
LINE
  5
CF
330
1F
100
AcDbEntity
  8
0
  6
Continuous
 62
     8
370
     0
100
AcDbLine
 10
410.9081308388
 20
495.1235572898
 30
0.0
 11
415.8228308388
 21
495.1235572898
 31
0.0
  0
LINE
  5
D0
330
1F
100
AcDbEntity
  8
0
  6
Continuous
 62
     8
370
     0
100
AcDbLine
 10
415.8228308388
 20
493.1996489535
 30
0.0
 11
410.9081308388
 21
493.1996489535
 31
0.0
  0
LINE
  5
D1
330
1F
100
AcDbEntity
  8
0
  6
Continuous
 62
     8
370
     0
100
AcDbLine
 10
415.8228308388
 20
493.435450747
 30
0.0
 11
410.9081308388
 21
493.435450747
 31
0.0
  0
LINE
  5
D2
330
1F
100
AcDbEntity
  8
0
  6
Continuous
 62
     8
370
     0
100
AcDbLine
 10
410.9081308388
 20
493.6758394127
 30
0.0
 11
415.8228308388
 21
493.6758394127
 31
0.0
  0
LINE
  5
D3
330
1F
100
AcDbEntity
  8
0
  6
Continuous
 62
     8
370
     0
100
AcDbLine
 10
415.8228308388
 20
494.9372361992
 30
0.0
 11
410.9081308388
 21
494.9372361992
 31
0.0
  0
LINE
  5
D4
330
1F
100
AcDbEntity
  8
0
  6
Continuous
 62
     8
370
     0
100
AcDbLine
 10
426.1903935485
 20
556.347
 30
0.0
 11
426.1903935485
 21
528.263
 31
0.0
  0
LINE
  5
D5
330
1F
100
AcDbEntity
  8
0
  6
Continuous
 62
     8
370
     0
100
AcDbLine
 10
427.1638947748
 20
555.585462963
 30
0.0
 11
427.1638947748
 21
529.0245370371
 31
0.0
  0
LINE
  5
D6
330
1F
100
AcDbEntity
  8
0
  6
Continuous
 62
     8
370
     0
100
AcDbLine
 10
417.3521273308
 20
577.9599651088
 30
0.0
 11
424.4209047871
 21
577.9599651088
 31
0.0
  0
LINE
  5
D7
330
1F
100
AcDbEntity
  8
0
  6
Continuous
 62
     8
370
     0
100
AcDbLine
 10
410.2833498745
 20
577.9599651088
 30
0.0
 11
417.3521273308
 21
577.9599651088
 31
0.0
  0
LINE
  5
D8
330
1F
100
AcDbEntity
  8
0
  6
Continuous
 62
     8
370
     0
100
AcDbLine
 10
417.3521273308
 20
579.6959219251
 30
0.0
 11
422.9966351027
 21
579.6959219251
 31
0.0
  0
LINE
  5
D9
330
1F
100
AcDbEntity
  8
0
  6
Continuous
 62
     8
370
     0
100
AcDbLine
 10
411.7076195589
 20
579.6959219251
 30
0.0
 11
417.3521273308
 21
579.6959219251
 31
0.0
  0
LINE
  5
DA
330
1F
100
AcDbEntity
  8
0
  6
Continuous
 62
     8
370
     0
100
AcDbLine
 10
448.9218308388
 20
514.4660475005
 30
0.0
 11
443.3272077232
 21
514.4660475005
 31
0.0
  0
LINE
  5
DB
330
1F
100
AcDbEntity
  8
0
  6
Continuous
 62
     8
370
     0
100
AcDbLine
 10
454.5164539544
 20
514.4660475005
 30
0.0
 11
448.9218308388
 21
514.4660475005
 31
0.0
  0
SPLINE
  5
DC
330
1F
100
AcDbEntity
  8
0
  6
Continuous
 62
     7
370
    15
100
AcDbSpline
210
0.0
220
0.0
230
1.0
 70
     8
 71
     3
 72
    20
 73
    16
 74
     0
 42
0.00000001
 43
0.00000001
 40
0.0
 40
0.0
 40
0.0
 40
0.0
 40
0.0942776724918259
 40
0.2081423086842339
 40
0.3250878769798713
 40
0.4323442146263017
 40
0.5275083954862919
 40
0.6109989758429816
 40
0.6850363997036457
 40
0.7261275496411262
 40
0.7694065086973311
 40
0.8199540237036662
 40
0.8777660568405805
 40
0.9428395521069692
 40
1.0
 40
1.0
 40
1.0
 40
1.0
 10
139.962681528884
 20
337.733795378647
 30
0.0
 10
142.051077842008
 20
337.5318599037882
 30
0.0
 10
146.6617520193852
 20
337.0860351943801
 30
0.0
 10
153.8755554881869
 20
336.5310592641731
 30
0.0
 10
161.3841899314721
 20
336.0556064335232
 30
0.0
 10
168.4830471786303
 20
335.7048083782105
 30
0.0
 10
174.8411789336238
 20
335.4590289042688
 30
0.0
 10
180.4621863563732
 20
335.2891965020865
 30
0.0
 10
184.8811097053619
 20
335.1838092462345
 30
0.0
 10
188.4056841584852
 20
335.1135723136703
 30
0.0
 10
191.4077544941088
 20
335.0616168938291
 30
0.0
 10
194.7820254299691
 20
335.0120254959905
 30
0.0
 10
198.6414103815573
 20
334.9659313389942
 30
0.0
 10
202.6480593161689
 20
334.9277068507414
 30
0.0
 10
205.368254917918
 20
334.9104166975036
 30
0.0
 10
206.6403041943603
 20
334.9023312764032
 30
0.0
  0
SPLINE
  5
DD
330
1F
100
AcDbEntity
  8
0
  6
Continuous
 62
     7
370
    15
100
AcDbSpline
210
0.0
220
0.0
230
1.0
 70
     8
 71
     3
 72
    23
 73
    19
 74
     0
 42
0.00000001
 43
0.00000001
 40
0.0
 40
0.0
 40
0.0
 40
0.0
 40
0.0186609039690056
 40
0.0847513887498558
 40
0.1336260442095236
 40
0.1862935179283909
 40
0.2337235843324596
 40
0.273002314640306
 40
0.3041248844182287
 40
0.3270867429440993
 40
0.3521059688486041
 40
0.3858888633261567
 40
0.4284618495061168
 40
0.4798341084035094
 40
0.5400178149151021
 40
0.6069836979837652
 40
0.810672095999683
 40
1.0
 40
1.0
 40
1.0
 40
1.0
 10
234.7479845864349
 20
334.9013239843708
 30
0.0
 10
235.1634543773203
 20
334.9036233088621
 30
0.0
 10
237.0503748512498
 20
334.9140660475496
 30
0.0
 10
240.0254002894957
 20
334.9384592201669
 30
0.0
 10
243.757475166345
 20
334.9756673295692
 30
0.0
 10
247.0740210975701
 20
335.0165585563082
 30
0.0
 10
250.1768295633519
 20
335.0624881747535
 30
0.0
 10
252.7999004468388
 20
335.1077119201302
 30
0.0
 10
254.8781960233058
 20
335.1480399437713
 30
0.0
 10
256.6390055310694
 20
335.1853595662881
 30
0.0
 10
258.4589655781736
 20
335.2269802917589
 30
0.0
 10
260.7153277053094
 20
335.2834847351646
 30
0.0
 10
263.5580183224558
 20
335.3633237497984
 30
0.0
 10
266.987854417165
 20
335.473751930999
 30
0.0
 10
270.9598239948531
 20
335.6223020981609
 30
0.0
 10
278.3184770296809
 20
335.94825330141
 30
0.0
 10
288.5452338084182
 20
336.5311297017333
 30
0.0
 10
297.2587528867757
 20
337.3388252133677
 30
0.0
 10
301.456319998137
 20
337.7279167027123
 30
0.0
  0
LINE
  5
DE
330
1F
100
AcDbEntity
  8
0
  6
Continuous
 62
     7
370
    15
100
AcDbLine
 10
234.8231571032
 20
310.9887124142
 30
0.0
 11
234.8231571032
 21
331.9632786319
 31
0.0
  0
LINE
  5
DF
330
1F
100
AcDbEntity
  8
0
  6
Continuous
 62
     7
370
    15
100
AcDbLine
 10
206.7391571032
 20
331.9632786319
 30
0.0
 11
206.7391571032
 21
310.9887124142
 31
0.0
  0
LINE
  5
E0
330
1F
100
AcDbEntity
  8
0
  6
Continuous
 62
     7
370
    15
100
AcDbLine
 10
234.8231571032
 20
333.3922751239
 30
0.0
 11
234.8231571032
 21
335.1119960699
 31
0.0
  0
LINE
  5
E1
330
1F
100
AcDbEntity
  8
0
  6
Continuous
 62
     7
370
    15
100
AcDbLine
 10
206.7391571032
 20
335.1119876851
 30
0.0
 11
206.7391571032
 21
333.3922751239
 31
0.0
  0
ARC
  5
E2
330
1F
100
AcDbEntity
  8
0
  6
Continuous
 62
     7
370
    15
100
AcDbCircle
 10
207.2406571032
 20
333.3922751239
 30
0.0
 40
0.5015000000000214
100
AcDbArc
 50
180.0
 51
270.0
  0
ARC
  5
E3
330
1F
100
AcDbEntity
  8
0
  6
Continuous
 62
     7
370
    15
100
AcDbCircle
 10
234.3216571032
 20
333.3922751239
 30
0.0
 40
0.5015000000000214
100
AcDbArc
 50
270.0
 51
0.0
  0
ARC
  5
E4
330
1F
100
AcDbEntity
  8
0
  6
Continuous
 62
     7
370
    15
100
AcDbCircle
 10
233.8201571032
 20
310.9887124142
 30
0.0
 40
1.003000000000014
100
AcDbArc
 50
283.9302635925
 51
0.0
  0
ARC
  5
E5
330
1F
100
AcDbEntity
  8
0
  6
Continuous
 62
     7
370
    15
100
AcDbCircle
 10
207.7421571032
 20
310.9887124142
 30
0.0
 40
1.002999999999986
100
AcDbArc
 50
180.0
 51
256.0697364075
  0
ARC
  5
E6
330
1F
100
AcDbEntity
  8
0
  6
Continuous
 62
     7
370
    15
100
AcDbCircle
 10
220.7811571032
 20
363.5577786319
 30
0.0
 40
55.16499999999996
100
AcDbArc
 50
256.0697364075
 51
283.9302635925
  0
LINE
  5
E7
330
1F
100
AcDbEntity
  8
0
  6
Continuous
 62
     7
370
    15
100
AcDbLine
 10
232.8171571032
 20
331.9632786319
 30
0.0
 11
232.8171571032
 21
332.8907751239
 31
0.0
  0
LINE
  5
E8
330
1F
100
AcDbEntity
  8
0
  6
Continuous
 62
     7
370
    15
100
AcDbLine
 10
208.7451571032
 20
332.8907751239
 30
0.0
 11
208.7451571032
 21
331.9632786319
 31
0.0
  0
ARC
  5
E9
330
1F
100
AcDbEntity
  8
0
  6
Continuous
 62
     7
370
    15
100
AcDbCircle
 10
352.6767000888
 20
271.8080751239
 30
0.0
 40
159.5783429884249
100
AcDbArc
 50
174.8071373335
 51
180.0
  0
ARC
  5
EA
330
1F
100
AcDbEntity
  8
0
  6
Continuous
 62
     7
370
    15
100
AcDbCircle
 10
88.885614112
 20
271.8080751239
 30
0.0
 40
159.5783429884249
100
AcDbArc
 50
0.0
 51
5.1928626665
  0
ARC
  5
EB
330
1F
100
AcDbEntity
  8
0
  6
Continuous
 62
     7
370
    15
100
AcDbCircle
 10
248.3636571004
 20
271.7077751239
 30
0.0
 40
0.1003000000000327
100
AcDbArc
 50
0.0
 51
90.0
  0
ARC
  5
EC
330
1F
100
AcDbEntity
  8
0
  6
Continuous
 62
     7
370
    15
100
AcDbCircle
 10
193.1986571004
 20
271.7077751239
 30
0.0
 40
0.1003000000000043
100
AcDbArc
 50
90.0
 51
180.0
  0
LINE
  5
ED
330
1F
100
AcDbEntity
  8
0
  6
Continuous
 62
     7
370
    15
100
AcDbLine
 10
248.4639571004
 20
271.4178449269
 30
0.0
 11
248.4639571004
 21
271.7077751239
 31
0.0
  0
LINE
  5
EE
330
1F
100
AcDbEntity
  8
0
  6
Continuous
 62
     7
370
    15
100
AcDbLine
 10
193.0983571004
 20
271.7077751239
 30
0.0
 11
193.0983571004
 21
271.4178449269
 31
0.0
  0
ARC
  5
EF
330
1F
100
AcDbEntity
  8
0
  6
Continuous
 62
     7
370
    15
100
AcDbCircle
 10
246.5081071004
 20
271.4178449269
 30
0.0
 40
1.955850000000027
100
AcDbArc
 50
272.952087508
 51
0.0
  0
ARC
  5
F0
330
1F
100
AcDbEntity
  8
0
  6
Continuous
 62
     7
370
    15
100
AcDbCircle
 10
195.0542071004
 20
271.4178449269
 30
0.0
 40
1.955850000000027
100
AcDbArc
 50
180.0
 51
267.047912492
  0
ARC
  5
F1
330
1F
100
AcDbEntity
  8
0
  6
Continuous
 62
     7
370
    15
100
AcDbCircle
 10
747.250680688
 20
331.6412990104
 30
0.0
 40
501.5000000000001
100
AcDbArc
 50
181.1751341531
 51
185.1928626665
  0
ARC
  5
F2
330
1F
100
AcDbEntity
  8
0
  6
Continuous
 62
     7
370
    15
100
AcDbCircle
 10
-305.6883664872
 20
331.6412990104
 30
0.0
 40
501.5000000000001
100
AcDbArc
 50
354.8071373335
 51
358.8248658469
  0
ARC
  5
F3
330
1F
100
AcDbEntity
  8
0
  6
Continuous
 62
     7
370
    15
100
AcDbCircle
 10
220.7811571004
 20
770.2990751239
 30
0.0
 40
501.4999999999998
100
AcDbArc
 50
267.047912492
 51
272.952087508
  0
LINE
  5
F4
330
1F
100
AcDbEntity
  8
0
  6
Continuous
 62
     7
370
    15
100
AcDbLine
 10
197.8124570988
 20
326.2709751239
 30
0.0
 11
197.8124570988
 21
321.3562751239
 31
0.0
  0
LINE
  5
F5
330
1F
100
AcDbEntity
  8
0
  6
Continuous
 62
     7
370
    15
100
AcDbLine
 10
243.749857102
 20
321.3562751239
 30
0.0
 11
243.749857102
 21
326.2709751239
 31
0.0
  0
LINE
  5
F6
330
1F
100
AcDbEntity
  8
0
  6
Continuous
 62
     7
370
    15
100
AcDbLine
 10
243.7498571004
 20
327.2739751239
 30
0.0
 11
243.7498571004
 21
334.9770104654
 31
0.0
  0
LINE
  5
F7
330
1F
100
AcDbEntity
  8
0
  6
Continuous
 62
     7
370
    15
100
AcDbLine
 10
197.8124571004
 20
334.9773616303
 30
0.0
 11
197.8124571004
 21
327.2739751239
 31
0.0
  0
ARC
  5
F8
330
1F
100
AcDbEntity
  8
0
  6
Continuous
 62
     7
370
    15
100
AcDbCircle
 10
198.8154571004
 20
327.2739751239
 30
0.0
 40
1.003000000000043
100
AcDbArc
 50
180.0
 51
270.0
  0
ARC
  5
F9
330
1F
100
AcDbEntity
  8
0
  6
Continuous
 62
     7
370
    15
100
AcDbCircle
 10
242.7468571004
 20
327.2739751239
 30
0.0
 40
1.003000000000043
100
AcDbArc
 50
270.0
 51
0.0
  0
LINE
  5
FA
330
1F
100
AcDbEntity
  8
0
  6
Continuous
 62
     7
370
    15
100
AcDbLine
 10
202.6913491449
 20
326.2709751239
 30
0.0
 11
202.6913491449
 21
321.3562751239
 31
0.0
  0
SPLINE
  5
FB
330
1F
100
AcDbEntity
  8
0
  6
Continuous
 62
     7
370
    15
100
AcDbSpline
210
0.0
220
0.0
230
1.0
 70
    24
 71
     3
 72
    54
 73
    50
 74
     0
 42
0.00000001
 43
0.00000001
 40
0.0
 40
0.0
 40
0.0
 40
0.0
 40
0.0624999999999998
 40
0.0624999999999998
 40
0.1249999999999995
 40
0.1249999999999995
 40
0.1874999999999993
 40
0.1874999999999993
 40
0.249999999999999
 40
0.249999999999999
 40
0.3124999999999988
 40
0.3124999999999988
 40
0.3437499999999987
 40
0.3437499999999987
 40
0.3749999999999986
 40
0.3749999999999986
 40
0.4062499999999986
 40
0.4062499999999986
 40
0.4218749999999986
 40
0.4218749999999986
 40
0.4374999999999985
 40
0.4374999999999985
 40
0.4687499999999981
 40
0.4687499999999981
 40
0.484374999999998
 40
0.484374999999998
 40
0.4999999999999979
 40
0.4999999999999979
 40
0.5624999999999973
 40
0.5624999999999973
 40
0.5781249999999972
 40
0.5781249999999972
 40
0.5937499999999972
 40
0.5937499999999972
 40
0.6249999999999976
 40
0.6249999999999976
 40
0.6562499999999977
 40
0.6562499999999977
 40
0.6874999999999979
 40
0.6874999999999979
 40
0.7499999999999983
 40
0.7499999999999983
 40
0.8124999999999988
 40
0.8124999999999988
 40
0.8749999999999991
 40
0.8749999999999991
 40
0.9374999999999996
 40
0.9374999999999996
 40
1.0
 40
1.0
 40
1.0
 40
1.0
 10
220.7811571005737
 20
349.2396751258077
 30
0.0
 10
217.6556991918584
 20
349.2396751258077
 30
0.0
 10
214.5303724538629
 20
349.2396751258067
 30
0.0
 10
208.2802065447947
 20
349.2396751258067
 30
0.0
 10
205.1553652204045
 20
349.2396751258074
 30
0.0
 10
198.906514922012
 20
349.2396751258074
 30
0.0
 10
195.7814102260834
 20
349.2396751258076
 30
0.0
 10
189.540862452048
 20
349.2396751258076
 30
0.0
 10
186.4249912747742
 20
349.239675125808
 30
0.0
 10
180.2081047737342
 20
349.239675125808
 30
0.0
 10
177.1069747619754
 20
349.2396751258063
 30
0.0
 10
172.4744167022883
 20
349.2396751258063
 30
0.0
 10
170.9349706630127
 20
349.2396751258059
 30
0.0
 10
167.8872258967745
 20
349.2396751258059
 30
0.0
 10
166.3767134033327
 20
349.2396751258078
 30
0.0
 10
163.3905596319496
 20
349.2396751258077
 30
0.0
 10
161.9148912590054
 20
349.2396751258079
 30
0.0
 10
159.7356387126073
 20
349.2396751258079
 30
0.0
 10
159.0149530256224
 20
349.2396751258074
 30
0.0
 10
157.5867295275559
 20
349.2396751258074
 30
0.0
 10
156.8838174589934
 20
349.2396751258074
 30
0.0
 10
154.8202347650957
 20
349.2396751258074
 30
0.0
 10
153.5012281975543
 20
349.2396751258075
 30
0.0
 10
151.6204918746974
 20
349.2396751258075
 30
0.0
 10
151.0098676695086
 20
349.239675125808
 30
0.0
 10
149.8231589136354
 20
349.2396751258081
 30
0.0
 10
149.2445398573604
 20
349.2396751258075
 30
0.0
 10
146.4803707880752
 20
349.2396751258075
 30
0.0
 10
144.6809767661017
 20
349.2396751258078
 30
0.0
 10
142.8459914100526
 20
349.2396751258078
 30
0.0
 10
142.5001935553056
 20
349.2396751258073
 30
0.0
 10
141.8544913458936
 20
349.2396751258074
 30
0.0
 10
141.5532792340429
 20
349.2396751258077
 30
0.0
 10
140.7064157656364
 20
349.2396751258077
 30
0.0
 10
140.2172421265464
 20
349.2396751258073
 30
0.0
 10
139.354442221442
 20
349.2396751258073
 30
0.0
 10
138.98089694521
 20
349.2396751258074
 30
0.0
 10
138.3227990050411
 20
349.2396751258074
 30
0.0
 10
138.0378694684171
 20
349.2396751258069
 30
0.0
 10
137.2905321374152
 20
349.2396751258069
 30
0.0
 10
136.9319420992528
 20
349.2396751258073
 30
0.0
 10
136.3739975283019
 20
349.2396751258073
 30
0.0
 10
136.1759548281772
 20
349.2396751258079
 30
0.0
 10
135.8756551725426
 20
349.2396751258079
 30
0.0
 10
135.7739726645727
 20
349.2396751258079
 30
0.0
 10
135.6284877607501
 20
349.2396751258079
 30
0.0
 10
135.5849634839538
 20
349.2396751258079
 30
0.0
 10
135.5320047681683
 20
349.2396751258079
 30
0.0
 10
135.5227159426982
 20
349.2396751258078
 30
0.0
 10
135.5227159428277
 20
349.2396751258078
 30
0.0
  0
LINE
  5
FC
330
1F
100
AcDbEntity
  8
0
  6
Continuous
 62
     7
370
    15
100
AcDbLine
 10
135.9030506397
 20
341.9824567873
 30
0.0
 11
135.5227159428
 21
349.2396751258
 31
0.0
  0
SPLINE
  5
FD
330
1F
100
AcDbEntity
  8
0
  6
Continuous
 62
     7
370
    15
100
AcDbSpline
210
0.0
220
0.0
230
1.0
 70
     8
 71
     3
 72
    14
 73
    10
 74
     0
 42
0.00000001
 43
0.00000001
 40
0.0
 40
0.0
 40
0.0
 40
0.0
 40
0.25
 40
0.25
 40
0.5
 40
0.5
 40
0.75
 40
0.75
 40
1.0
 40
1.0
 40
1.0
 40
1.0
 10
135.9030506397207
 20
341.9824567873051
 30
0.0
 10
135.9309690691675
 20
341.4497414189247
 30
0.0
 10
136.0542989276408
 20
340.9221662230078
 30
0.0
 10
136.4765636714087
 20
339.9423943639427
 30
0.0
 10
136.7753879892835
 20
339.4904542480153
 30
0.0
 10
137.5115481967707
 20
338.7182311205723
 30
0.0
 10
137.9486913273713
 20
338.3981503109219
 30
0.0
 10
138.9071639843005
 20
337.929545386103
 30
0.0
 10
139.428242540473
 20
337.7811439722452
 30
0.0
 10
139.9590150448355
 20
337.7277993284268
 30
0.0
  0
SPLINE
  5
FE
330
1F
100
AcDbEntity
  8
0
  6
Continuous
 62
     7
370
    15
100
AcDbSpline
210
0.0
220
0.0
230
1.0
 70
     8
 71
     3
 72
    14
 73
    10
 74
     0
 42
0.00000001
 43
0.00000001
 40
0.0
 40
0.0
 40
0.0
 40
0.0
 40
0.25
 40
0.25
 40
0.5
 40
0.5
 40
0.75
 40
0.75
 40
1.0
 40
1.0
 40
1.0
 40
1.0
 10
301.6032991559994
 20
337.7277993284268
 30
0.0
 10
302.1340716603619
 20
337.7811439722452
 30
0.0
 10
302.6551502165344
 20
337.929545386103
 30
0.0
 10
303.6136228734636
 20
338.3981503109219
 30
0.0
 10
304.0507660040642
 20
338.7182311205723
 30
0.0
 10
304.7869262115515
 20
339.4904542480153
 30
0.0
 10
305.0857505294263
 20
339.9423943639426
 30
0.0
 10
305.5080152731941
 20
340.9221662230078
 30
0.0
 10
305.6313451316674
 20
341.4497414189247
 30
0.0
 10
305.6592635611142
 20
341.9824567873051
 30
0.0
  0
SPLINE
  5
FF
330
1F
100
AcDbEntity
  8
0
  6
Continuous
 62
     7
370
    15
100
AcDbSpline
210
0.0
220
0.0
230
1.0
 70
    24
 71
     3
 72
    54
 73
    50
 74
     0
 42
0.00000001
 43
0.00000001
 40
0.0
 40
0.0
 40
0.0
 40
0.0
 40
0.0625000000000003
 40
0.0625000000000003
 40
0.1250000000000007
 40
0.1250000000000007
 40
0.187500000000001
 40
0.187500000000001
 40
0.2500000000000014
 40
0.2500000000000014
 40
0.3125000000000017
 40
0.3125000000000017
 40
0.3437500000000019
 40
0.3437500000000019
 40
0.3750000000000021
 40
0.3750000000000021
 40
0.4062500000000023
 40
0.4062500000000023
 40
0.4218750000000024
 40
0.4218750000000024
 40
0.4375000000000026
 40
0.4375000000000026
 40
0.4687500000000032
 40
0.4687500000000032
 40
0.4843750000000035
 40
0.4843750000000035
 40
0.5000000000000037
 40
0.5000000000000037
 40
0.5625000000000044
 40
0.5625000000000044
 40
0.5781250000000044
 40
0.5781250000000044
 40
0.5937500000000043
 40
0.5937500000000043
 40
0.6250000000000041
 40
0.6250000000000041
 40
0.6562500000000038
 40
0.6562500000000038
 40
0.6875000000000036
 40
0.6875000000000036
 40
0.7500000000000028
 40
0.7500000000000028
 40
0.8125000000000021
 40
0.8125000000000021
 40
0.8750000000000014
 40
0.8750000000000014
 40
0.9375000000000008
 40
0.9375000000000008
 40
1.0
 40
1.0
 40
1.0
 40
1.0
 10
306.0395982580072
 20
349.2396751258077
 30
0.0
 10
306.0395982582024
 20
349.2396751258077
 30
0.0
 10
306.0302176801085
 20
349.2396751258071
 30
0.0
 10
305.9765885312406
 20
349.2396751258071
 30
0.0
 10
305.9324939534028
 20
349.2396751258082
 30
0.0
 10
305.7847798671846
 20
349.2396751258082
 30
0.0
 10
305.6813853948926
 20
349.2396751258076
 30
0.0
 10
305.375750325978
 20
349.2396751258076
 30
0.0
 10
305.1740883144659
 20
349.2396751258075
 30
0.0
 10
304.6059507020898
 20
349.2396751258075
 30
0.0
 10
304.2407474710514
 20
349.2396751258078
 30
0.0
 10
303.4806336698082
 20
349.2396751258078
 30
0.0
 10
303.1913952623271
 20
349.2396751258075
 30
0.0
 10
302.5227212823914
 20
349.2396751258075
 30
0.0
 10
302.1430120636019
 20
349.2396751258077
 30
0.0
 10
301.2651656444144
 20
349.2396751258077
 30
0.0
 10
300.7671204627906
 20
349.239675125808
 30
0.0
 10
299.9037344073926
 20
349.239675125808
 30
0.0
 10
299.5964728893525
 20
349.2396751258086
 30
0.0
 10
298.9372976556576
 20
349.2396751258086
 30
0.0
 10
298.5874131285363
 20
349.2396751258079
 30
0.0
 10
297.4758083689362
 20
349.2396751258079
 30
0.0
 10
296.65046036643
 20
349.2396751258077
 30
0.0
 10
295.2671480485879
 20
349.2396751258077
 30
0.0
 10
294.7818403110726
 20
349.2396751258076
 30
0.0
 10
293.7598993154168
 20
349.2396751258076
 30
0.0
 10
293.2205641178265
 20
349.2396751258077
 30
0.0
 10
290.4287129459124
 20
349.2396751258077
 30
0.0
 10
287.8944433450444
 20
349.2396751258075
 30
0.0
 10
284.4241266435699
 20
349.2396751258075
 30
0.0
 10
283.7158396958656
 20
349.239675125808
 30
0.0
 10
282.2906333967965
 20
349.239675125808
 30
0.0
 10
281.5713229570004
 20
349.2396751258076
 30
0.0
 10
279.3957941412097
 20
349.2396751258076
 30
0.0
 10
277.9220697543359
 20
349.2396751258081
 30
0.0
 10
274.9388055535332
 20
349.2396751258081
 30
0.0
 10
273.4292406357566
 20
349.2396751258074
 30
0.0
 10
270.3825263702913
 20
349.2396751258074
 30
0.0
 10
268.84232742681
 20
349.2396751258083
 30
0.0
 10
264.2178032831706
 20
349.2396751258083
 30
0.0
 10
261.1274285801174
 20
349.2396751258071
 30
0.0
 10
254.938287633087
 20
349.2396751258071
 30
0.0
 10
251.8394522569307
 20
349.2396751258072
 30
0.0
 10
245.6367336982638
 20
349.2396751258073
 30
0.0
 10
242.5328202429819
 20
349.2396751258067
 30
0.0
 10
236.3219431123785
 20
349.2396751258067
 30
0.0
 10
233.21496478048
 20
349.2396751258071
 30
0.0
 10
226.9992116186697
 20
349.239675125807
 30
0.0
 10
223.8904291150816
 20
349.2396751258078
 30
0.0
 10
220.781157100313
 20
349.2396751258078
 30
0.0
  0
LINE
  5
100
330
1F
100
AcDbEntity
  8
0
  6
Continuous
 62
     7
370
    15
100
AcDbLine
 10
305.6592635611
 20
341.9824567873
 30
0.0
 11
306.039598258
 21
349.2396751258
 31
0.0
  0
SPLINE
  5
101
330
1F
100
AcDbEntity
  8
0
  6
Continuous
 62
     7
370
    15
100
AcDbSpline
210
0.0
220
0.0
230
1.0
 70
     8
 71
     3
 72
    37
 73
    33
 74
     0
 42
0.00000001
 43
0.00000001
 40
0.0
 40
0.0
 40
0.0
 40
0.0
 40
0.0095832620334323
 40
0.0369237010436759
 40
0.0900189999904791
 40
0.1169691053175461
 40
0.1443120042095916
 40
0.1707932815973143
 40
0.1974597518757125
 40
0.2244130476529738
 40
0.2517592491285184
 40
0.2914796493515099
 40
0.3318350532511031
 40
0.3591830463197155
 40
0.4123225534031617
 40
0.4392226832211332
 40
0.4665644529911994
 40
0.5196794351931722
 40
0.5465670024745569
 40
0.573895716047179
 40
0.6270012904719184
 40
0.6538837787326557
 40
0.6812068394824456
 40
0.7343300690329561
 40
0.7612214099905215
 40
0.788553387269724
 40
0.8416512135433841
 40
0.86860258149801
 40
0.8959467651338529
 40
0.9223337547992632
 40
0.9760043848719572
 40
1.0
 40
1.0
 40
1.0
 40
1.0
 10
206.7506457425829
 20
335.1119876850919
 30
0.0
 10
206.7475973629551
 20
335.1142659821296
 30
0.0
 10
206.7358521495142
 20
335.1230441161739
 30
0.0
 10
206.8525925889901
 20
335.1457774270696
 30
0.0
 10
207.1567395571314
 20
335.1743855155638
 30
0.0
 10
207.6630943937863
 20
335.2043986804779
 30
0.0
 10
208.1369056011952
 20
335.2274872975414
 30
0.0
 10
208.6993953751731
 20
335.250803858235
 30
0.0
 10
209.3435446190514
 20
335.274067265536
 30
0.0
 10
210.0762904704133
 20
335.2973545908272
 30
0.0
 10
211.0168680787525
 20
335.3237383569951
 30
0.0
 10
212.2091768851586
 20
335.3523740926346
 30
0.0
 10
213.5231074642758
 20
335.3780854124458
 30
0.0
 10
215.095034788122
 20
335.403166717629
 30
0.0
 10
216.5807779342252
 20
335.4207533965422
 30
0.0
 10
218.1176824007222
 20
335.432506598428
 30
0.0
 10
219.6797833950908
 20
335.4401039352088
 30
0.0
 10
221.2657361381059
 20
335.4412323468949
 30
0.0
 10
222.8361656121465
 20
335.4358540945448
 30
0.0
 10
224.3869192771344
 20
335.4262264858892
 30
0.0
 10
225.8944596147453
 20
335.4105364585023
 30
0.0
 10
227.3217748654172
 20
335.3898534473567
 30
0.0
 10
228.6869963842676
 20
335.3662150860722
 30
0.0
 10
229.9469425939264
 20
335.3388333431225
 30
0.0
 10
231.0710601712713
 20
335.3093022197398
 30
0.0
 10
232.0968154146248
 20
335.2787824994911
 30
0.0
 10
232.9674904909942
 20
335.2474155353719
 30
0.0
 10
233.6614994549891
 20
335.2164911321892
 30
0.0
 10
234.0911406411264
 20
335.1936573840852
 30
0.0
 10
234.5336541274508
 20
335.1640999914915
 30
0.0
 10
234.7926757085685
 20
335.1366737881518
 30
0.0
 10
234.8117089142125
 20
335.1178208406081
 30
0.0
 10
234.8175893771615
 20
335.1119960698584
 30
0.0
  0
CIRCLE
  5
102
330
1F
100
AcDbEntity
  8
0
  6
Continuous
 62
     7
370
    15
100
AcDbCircle
 10
220.7811571032
 20
319.8269786319
 30
0.0
 40
8.02400000000003
  0
LINE
  5
103
330
1F
100
AcDbEntity
  8
0
  6
Continuous
 62
     7
370
    15
100
AcDbLine
 10
234.8231571032
 20
331.9632786319
 30
0.0
 11
206.7391571032
 21
331.9632786319
 31
0.0
  0
LINE
  5
104
330
1F
100
AcDbEntity
  8
0
  6
Continuous
 62
     7
370
    15
100
AcDbLine
 10
220.7811571032
 20
332.8907751239
 30
0.0
 11
207.2406571032
 21
332.8907751239
 31
0.0
  0
LINE
  5
105
330
1F
100
AcDbEntity
  8
0
  6
Continuous
 62
     7
370
    15
100
AcDbLine
 10
234.3216571032
 20
332.8907751239
 30
0.0
 11
220.7811571032
 21
332.8907751239
 31
0.0
  0
CIRCLE
  5
106
330
1F
100
AcDbEntity
  8
0
  6
Continuous
 62
     7
370
    15
100
AcDbCircle
 10
220.7811571004
 20
288.2572751239
 30
0.0
 40
6.068150000000003
  0
LINE
  5
107
330
1F
100
AcDbEntity
  8
0
  6
Continuous
 62
     7
370
    15
100
AcDbLine
 10
248.4639571004
 20
271.8080751239
 30
0.0
 11
193.0983571004
 21
271.8080751239
 31
0.0
  0
LINE
  5
108
330
1F
100
AcDbEntity
  8
0
  6
Continuous
 62
     7
370
    15
100
AcDbLine
 10
245.8561571004
 20
321.3562751239
 30
0.0
 11
234.8231571032
 21
321.3562751239
 31
0.0
  0
LINE
  5
109
330
1F
100
AcDbEntity
  8
0
  6
Continuous
 62
     7
370
    15
100
AcDbLine
 10
206.7391571032
 20
321.3562751239
 30
0.0
 11
195.7061571004
 21
321.3562751239
 31
0.0
  0
SPLINE
  5
10A
330
1F
100
AcDbEntity
  8
0
  6
Continuous
 62
     7
370
    15
100
AcDbSpline
210
0.0
220
0.0
230
1.0
 70
     8
 71
     3
 72
    10
 73
     6
 74
     0
 42
0.00000001
 43
0.00000001
 40
0.0
 40
0.0
 40
0.0
 40
0.0
 40
0.3024834046461444
 40
0.9134068050323758
 40
0.9999999999999999
 40
0.9999999999999999
 40
0.9999999999999999
 40
0.9999999999999999
 10
226.5081465732995
 20
286.2512751239422
 30
0.0
 10
226.5582095337873
 20
286.4077378666402
 30
0.0
 10
226.7093842696148
 20
286.8802072045249
 30
0.0
 10
226.8130402146454
 20
287.4207764048482
 30
0.0
 10
226.8292330098839
 20
287.8020713857608
 30
0.0
 10
226.8312432643847
 20
287.8494072496559
 30
0.0
  0
SPLINE
  5
10B
330
1F
100
AcDbEntity
  8
0
  6
Continuous
 62
     7
370
    15
100
AcDbSpline
210
0.0
220
0.0
230
1.0
 70
     8
 71
     3
 72
    10
 73
     6
 74
     0
 42
0.00000001
 43
0.00000001
 40
0.0
 40
0.0
 40
0.0
 40
0.0
 40
0.4506312301296611
 40
0.7641609922282862
 40
1.0
 40
1.0
 40
1.0
 40
1.0
 10
214.729374560311
 20
288.3378797129923
 30
0.0
 10
214.7285577220543
 20
288.0950162360258
 30
0.0
 10
214.7271725629906
 20
287.6831788330093
 30
0.0
 10
214.8029868054519
 20
287.1495398154314
 30
0.0
 10
214.8853034439935
 20
286.867476885657
 30
0.0
 10
214.9206412269572
 20
286.7463898396953
 30
0.0
  0
LINE
  5
10C
330
1F
100
AcDbEntity
  8
0
  6
Continuous
 62
     7
370
    15
100
AcDbLine
 10
214.9731587303
 20
286.5516554006
 30
0.0
 11
215.0541676275
 21
286.2512751239
 31
0.0
  0
LINE
  5
10D
330
1F
100
AcDbEntity
  8
0
  6
Continuous
 62
     7
370
    15
100
AcDbLine
 10
202.6369565967
 20
326.2709751239
 30
0.0
 11
197.8124570988
 21
326.2709751239
 31
0.0
  0
LINE
  5
10E
330
1F
100
AcDbEntity
  8
0
  6
Continuous
 62
     7
370
    15
100
AcDbLine
 10
243.749857102
 20
326.2709751239
 30
0.0
 11
234.8231571032
 21
326.2709751239
 31
0.0
  0
LINE
  5
10F
330
1F
100
AcDbEntity
  8
0
  6
Continuous
 62
     7
370
    15
100
AcDbLine
 10
206.7391571032
 20
326.2709751239
 30
0.0
 11
204.3093845978
 21
326.2709751239
 31
0.0
  0
LINE
  5
110
330
1F
100
AcDbEntity
  8
0
  6
Continuous
 62
     7
370
    15
100
AcDbLine
 10
204.0840606833
 20
326.2709751239
 30
0.0
 11
204.3093845978
 21
326.2709751239
 31
0.0
  0
LINE
  5
111
330
1F
100
AcDbEntity
  8
0
  6
Continuous
 62
     7
370
    15
100
AcDbLine
 10
203.8547000641
 20
326.2709751239
 30
0.0
 11
204.0840606833
 21
326.2709751239
 31
0.0
  0
LINE
  5
112
330
1F
100
AcDbEntity
  8
0
  6
Continuous
 62
     7
370
    15
100
AcDbLine
 10
202.7581845666
 20
326.2709751239
 30
0.0
 11
203.8547000641
 21
326.2709751239
 31
0.0
  0
LINE
  5
113
330
1F
100
AcDbEntity
  8
0
  6
Continuous
 62
     7
370
    15
100
AcDbLine
 10
202.6913491449
 20
326.2709751239
 30
0.0
 11
202.7581845666
 21
326.2709751239
 31
0.0
  0
LINE
  5
114
330
1F
100
AcDbEntity
  8
0
  6
Continuous
 62
     7
370
    15
100
AcDbLine
 10
202.6369565967
 20
326.2709751239
 30
0.0
 11
202.6913491449
 21
326.2709751239
 31
0.0
  0
SPLINE
  5
115
330
1F
100
AcDbEntity
  8
0
  6
Continuous
 62
     8
370
     0
100
AcDbSpline
210
0.0
220
0.0
230
1.0
 70
     8
 71
     3
 72
    54
 73
    50
 74
     0
 42
0.00000001
 43
0.00000001
 40
0.0
 40
0.0
 40
0.0
 40
0.0
 40
0.0625000000000002
 40
0.0625000000000002
 40
0.1250000000000004
 40
0.1250000000000004
 40
0.1875000000000006
 40
0.1875000000000006
 40
0.2500000000000008
 40
0.2500000000000008
 40
0.312500000000001
 40
0.312500000000001
 40
0.3281250000000011
 40
0.3281250000000011
 40
0.3437500000000013
 40
0.3437500000000013
 40
0.3750000000000016
 40
0.3750000000000016
 40
0.4062500000000019
 40
0.4062500000000019
 40
0.4375000000000023
 40
0.4375000000000023
 40
0.5000000000000029
 40
0.5000000000000029
 40
0.5156250000000029
 40
0.5156250000000029
 40
0.531250000000003
 40
0.531250000000003
 40
0.562500000000003
 40
0.562500000000003
 40
0.578125000000003
 40
0.578125000000003
 40
0.5937500000000029
 40
0.5937500000000029
 40
0.6250000000000027
 40
0.6250000000000027
 40
0.6875000000000022
 40
0.6875000000000022
 40
0.718750000000002
 40
0.718750000000002
 40
0.7500000000000017
 40
0.7500000000000017
 40
0.8125000000000013
 40
0.8125000000000013
 40
0.8750000000000009
 40
0.8750000000000009
 40
0.9375000000000006
 40
0.9375000000000006
 40
1.0
 40
1.0
 40
1.0
 40
1.0
 10
135.9030506397207
 20
341.9824567873051
 30
0.0
 10
135.9030506395911
 20
341.9824567873055
 30
0.0
 10
135.9123184633808
 20
341.9824237468735
 30
0.0
 10
135.9649199261258
 20
341.9823320482536
 30
0.0
 10
136.0081104548573
 20
341.9822735726696
 30
0.0
 10
136.152181430458
 20
341.982182768622
 30
0.0
 10
136.2527875551352
 20
341.9821514712407
 30
0.0
 10
136.5495023975842
 20
341.9821632408895
 30
0.0
 10
136.7450411147227
 20
341.9822103379262
 30
0.0
 10
137.2954767354961
 20
341.9823590115639
 30
0.0
 10
137.6490716954636
 20
341.9824677640837
 30
0.0
 10
138.2630589308614
 20
341.9824524625602
 30
0.0
 10
138.3946445715001
 20
341.9824442070719
 30
0.0
 10
138.6781471775538
 20
341.9824247735423
 30
0.0
 10
138.8301701318761
 20
341.9824136249081
 30
0.0
 10
139.3190216466885
 20
341.9823859569136
 30
0.0
 10
139.6889884834854
 20
341.9823772127341
 30
0.0
 10
140.5433543593302
 20
341.9823999220825
 30
0.0
 10
141.027672521585
 20
341.9824345625762
 30
0.0
 10
142.1453378421256
 20
341.9824670361383
 30
0.0
 10
142.7787920410242
 20
341.9824987876199
 30
0.0
 10
144.968938795982
 20
341.98266790446
 30
0.0
 10
146.7592487145439
 20
341.9824726095343
 30
0.0
 10
149.5026666381718
 20
341.9824533224821
 30
0.0
 10
150.0792854622094
 20
341.9824803228959
 30
0.0
 10
151.2659436997576
 20
341.9825412093966
 30
0.0
 10
151.8762122816216
 20
341.9825745059144
 30
0.0
 10
153.7546755422477
 20
341.9826371815529
 30
0.0
 10
155.070548418762
 20
341.9826189856809
 30
0.0
 10
157.12624849462
 20
341.9825386314782
 30
0.0
 10
157.8251225690411
 20
341.9825058391297
 30
0.0
 10
159.247879304711
 20
341.9824600984481
 30
0.0
 10
159.9698057047881
 20
341.9824598803381
 30
0.0
 10
162.1458653214702
 20
341.9824405007316
 30
0.0
 10
163.6175135137218
 20
341.9824039737808
 30
0.0
 10
168.0798373790722
 20
341.9823640835467
 30
0.0
 10
171.1170229050902
 20
341.9824370417686
 30
0.0
 10
175.7269499498344
 20
341.9824627435677
 30
0.0
 10
177.2719370071206
 20
341.9824413032148
 30
0.0
 10
180.3622168496692
 20
341.9823718975227
 30
0.0
 10
181.9095393699217
 20
341.9823283025179
 30
0.0
 10
186.5565034288236
 20
341.9822146577743
 30
0.0
 10
189.6610588918155
 20
341.9821650523364
 30
0.0
 10
195.8779550072007
 20
341.9821504171259
 30
0.0
 10
198.9908171399355
 20
341.9821811381854
 30
0.0
 10
205.2156244005902
 20
341.9822718889719
 30
0.0
 10
208.3284263459299
 20
341.9823308200194
 30
0.0
 10
214.5544942628485
 20
341.9824233619429
 30
0.0
 10
217.6677622938185
 20
341.9824567873054
 30
0.0
 10
220.7811571005743
 20
341.982456787305
 30
0.0
  0
SPLINE
  5
116
330
1F
100
AcDbEntity
  8
0
  6
Continuous
 62
     8
370
     0
100
AcDbSpline
210
0.0
220
0.0
230
1.0
 70
     8
 71
     3
 72
    52
 73
    48
 74
     0
 42
0.00000001
 43
0.00000001
 40
0.0
 40
0.0
 40
0.0
 40
0.0
 40
0.1249999999999998
 40
0.1249999999999998
 40
0.1874999999999996
 40
0.1874999999999996
 40
0.2499999999999995
 40
0.2499999999999995
 40
0.3124999999999994
 40
0.3124999999999994
 40
0.3437499999999993
 40
0.3437499999999993
 40
0.3749999999999992
 40
0.3749999999999992
 40
0.4062499999999992
 40
0.4062499999999992
 40
0.4374999999999991
 40
0.4374999999999991
 40
0.453124999999999
 40
0.453124999999999
 40
0.4687499999999988
 40
0.4687499999999988
 40
0.4999999999999986
 40
0.4999999999999986
 40
0.5156249999999986
 40
0.5156249999999986
 40
0.5312499999999984
 40
0.5312499999999984
 40
0.5624999999999986
 40
0.5624999999999986
 40
0.5781249999999987
 40
0.5781249999999987
 40
0.5937499999999987
 40
0.5937499999999987
 40
0.6249999999999989
 40
0.6249999999999989
 40
0.656249999999999
 40
0.656249999999999
 40
0.6874999999999992
 40
0.6874999999999992
 40
0.7499999999999992
 40
0.7499999999999992
 40
0.8124999999999994
 40
0.8124999999999994
 40
0.8749999999999997
 40
0.8749999999999997
 40
1.0
 40
1.0
 40
1.0
 40
1.0
 10
139.9590480964038
 20
337.7277960067421
 30
0.0
 10
139.959048072049
 20
337.7277960091649
 30
0.0
 10
139.989436684063
 20
337.7277951821418
 30
0.0
 10
140.1815156666754
 20
337.7277942821128
 30
0.0
 10
140.2706374184988
 20
337.727794051643
 30
0.0
 10
140.5317876918512
 20
337.7277940206557
 30
0.0
 10
140.7033139863149
 20
337.7277942397627
 30
0.0
 10
141.1837326742213
 20
337.7277951051676
 30
0.0
 10
141.491379801002
 20
337.727795831091
 30
0.0
 10
142.1311740466018
 20
337.7277960820484
 30
0.0
 10
142.3746181793734
 20
337.7277959510702
 30
0.0
 10
142.9435400444338
 20
337.7277956786422
 30
0.0
 10
143.2673286344654
 20
337.7277955427919
 30
0.0
 10
144.0185862276907
 20
337.7277955412393
 30
0.0
 10
144.446041675682
 20
337.7277956979876
 30
0.0
 10
145.441442361993
 20
337.7277960389019
 30
0.0
 10
146.0092310592016
 20
337.7277960175549
 30
0.0
 10
147.0054139336241
 20
337.7277966286788
 30
0.0
 10
147.3625709122573
 20
337.7277968542052
 30
0.0
 10
148.1206098763868
 20
337.7277971181908
 30
0.0
 10
148.5226329666066
 20
337.7277971544701
 30
0.0
 10
149.8032776237458
 20
337.7277969024742
 30
0.0
 10
150.7569883896659
 20
337.7277961055887
 30
0.0
 10
152.3531023515302
 20
337.7277960062432
 30
0.0
 10
152.9156286238839
 20
337.7277962322228
 30
0.0
 10
154.0746473832827
 20
337.7277966942391
 30
0.0
 10
154.6722701300099
 20
337.7277969250286
 30
0.0
 10
156.5144711599594
 20
337.7277972614106
 30
0.0
 10
157.8082745082712
 20
337.7277969281099
 30
0.0
 10
159.8275690796443
 20
337.7277963074494
 30
0.0
 10
160.51590016929
 20
337.7277961048077
 30
0.0
 10
161.9042747163933
 20
337.7277960013832
 30
0.0
 10
162.6036629828372
 20
337.7277959925397
 30
0.0
 10
164.7148169544985
 20
337.7277957460817
 30
0.0
 10
166.1394855658805
 20
337.7277955705517
 30
0.0
 10
169.0137511067919
 20
337.7277955447443
 30
0.0
 10
170.4634061925946
 20
337.7277956696898
 30
0.0
 10
173.3814020174437
 20
337.7277959443042
 30
0.0
 10
174.8503652403134
 20
337.7277960930759
 30
0.0
 10
179.2749575525287
 20
337.7277959149974
 30
0.0
 10
182.2310113559906
 20
337.7277951778313
 30
0.0
 10
188.1505979203003
 20
337.7277942935056
 30
0.0
 10
191.1141871798563
 20
337.7277940619835
 30
0.0
 10
197.04599444153
 20
337.7277940815184
 30
0.0
 10
200.0143039474091
 20
337.7277943117812
 30
0.0
 10
208.9156532415957
 20
337.7277952201124
 30
0.0
 10
214.8487097162715
 20
337.7277960624651
 30
0.0
 10
220.78115710032
 20
337.7277960648879
 30
0.0
  0
SPLINE
  5
117
330
1F
100
AcDbEntity
  8
0
  6
Continuous
 62
     8
370
     0
100
AcDbSpline
210
0.0
220
0.0
230
1.0
 70
     8
 71
     3
 72
    54
 73
    50
 74
     0
 42
0.00000001
 43
0.00000001
 40
0.0
 40
0.0
 40
0.0
 40
0.0
 40
0.0625000000000014
 40
0.0625000000000014
 40
0.1250000000000027
 40
0.1250000000000027
 40
0.1875000000000041
 40
0.1875000000000041
 40
0.2500000000000054
 40
0.2500000000000054
 40
0.3125000000000068
 40
0.3125000000000068
 40
0.3281250000000071
 40
0.3281250000000071
 40
0.3437500000000074
 40
0.3437500000000074
 40
0.3750000000000077
 40
0.3750000000000077
 40
0.406250000000008
 40
0.406250000000008
 40
0.4375000000000085
 40
0.4375000000000085
 40
0.5000000000000095
 40
0.5000000000000095
 40
0.5156250000000095
 40
0.5156250000000095
 40
0.5312500000000095
 40
0.5312500000000095
 40
0.5625000000000093
 40
0.5625000000000093
 40
0.5781250000000091
 40
0.5781250000000091
 40
0.5937500000000089
 40
0.5937500000000089
 40
0.6250000000000082
 40
0.6250000000000082
 40
0.6875000000000069
 40
0.6875000000000069
 40
0.7187500000000061
 40
0.7187500000000061
 40
0.7500000000000053
 40
0.7500000000000053
 40
0.812500000000004
 40
0.812500000000004
 40
0.8750000000000027
 40
0.8750000000000027
 40
0.9375000000000014
 40
0.9375000000000014
 40
1.0
 40
1.0
 40
1.0
 40
1.0
 10
220.7811571003123
 20
341.982456787305
 30
0.0
 10
223.8769446683162
 20
341.9824567873054
 30
0.0
 10
226.9722069784412
 20
341.9824237468735
 30
0.0
 10
233.1608009041339
 20
341.9823320482536
 30
0.0
 10
236.2541406305344
 20
341.9822735726696
 30
0.0
 10
242.4375504827466
 20
341.982182768622
 30
0.0
 10
245.5276361558857
 20
341.9821514712406
 30
0.0
 10
251.7023948521993
 20
341.9821632408892
 30
0.0
 10
254.7871001804045
 20
341.9822103379258
 30
0.0
 10
260.9474791439658
 20
341.9823590115633
 30
0.0
 10
264.023226567537
 20
341.9824677640831
 30
0.0
 10
267.8581630402428
 20
341.9824524625605
 30
0.0
 10
268.6246522601787
 20
341.9824442070724
 30
0.0
 10
270.1564784135837
 20
341.982424773543
 30
0.0
 10
270.922178781474
 20
341.9824136249089
 30
0.0
 10
273.2057744052262
 20
341.9823859569148
 30
0.0
 10
274.7136716171332
 20
341.9823772127356
 30
0.0
 10
277.6918120980543
 20
341.9823999220839
 30
0.0
 10
279.1620819795672
 20
341.9824345625773
 30
0.0
 10
282.0535837174273
 20
341.9824670361381
 30
0.0
 10
283.4753578189581
 20
341.9824987876189
 30
0.0
 10
287.6418400080233
 20
341.982667904458
 30
0.0
 10
290.1681168744954
 20
341.9824726095339
 30
0.0
 10
292.9411217597122
 20
341.9824533224821
 30
0.0
 10
293.4789560663327
 20
341.9824803228962
 30
0.0
 10
294.5002523446413
 20
341.9825412093973
 30
0.0
 10
294.9844720048661
 20
341.9825745059153
 30
0.0
 10
296.362777056697
 20
341.9826371815544
 30
0.0
 10
297.1824762508405
 20
341.9826189856825
 30
0.0
 10
298.2842613553121
 20
341.9825386314795
 30
0.0
 10
298.6302411915822
 20
341.9825058391307
 30
0.0
 10
299.2831831629086
 20
341.9824600984486
 30
0.0
 10
299.5891616735604
 20
341.9824598803381
 30
0.0
 10
300.4456549292948
 20
341.9824405007305
 30
0.0
 10
300.9385262563027
 20
341.9824039737794
 30
0.0
 10
302.2403898507038
 20
341.9823640835451
 30
0.0
 10
302.8758751970831
 20
341.9824370417678
 30
0.0
 10
303.6270990537246
 20
341.9824627435679
 30
0.0
 10
303.8426570043733
 20
341.9824413032153
 30
0.0
 10
304.2190792542575
 20
341.9823718975233
 30
0.0
 10
304.3802413043517
 20
341.9823283025185
 30
0.0
 10
304.801805571387
 20
341.9822146577747
 30
0.0
 10
305.0013092474466
 20
341.9821650523367
 30
0.0
 10
305.3038343176516
 20
341.9821504171259
 30
0.0
 10
305.4062747707803
 20
341.9821811381854
 30
0.0
 10
305.5527581717786
 20
341.9822718889719
 30
0.0
 10
305.5965668708225
 20
341.9823308200193
 30
0.0
 10
305.649895653553
 20
341.9824233619429
 30
0.0
 10
305.6592635613094
 20
341.9824567873055
 30
0.0
 10
305.6592635611142
 20
341.9824567873051
 30
0.0
  0
SPLINE
  5
118
330
1F
100
AcDbEntity
  8
0
  6
Continuous
 62
     8
370
     0
100
AcDbSpline
210
0.0
220
0.0
230
1.0
 70
     8
 71
     3
 72
    52
 73
    48
 74
     0
 42
0.00000001
 43
0.00000001
 40
0.0
 40
0.0
 40
0.0
 40
0.0
 40
0.1250000000000005
 40
0.1250000000000005
 40
0.1875000000000007
 40
0.1875000000000007
 40
0.2500000000000009
 40
0.2500000000000009
 40
0.3125000000000011
 40
0.3125000000000011
 40
0.3437500000000011
 40
0.3437500000000011
 40
0.3750000000000011
 40
0.3750000000000011
 40
0.4062500000000011
 40
0.4062500000000011
 40
0.4375000000000011
 40
0.4375000000000011
 40
0.4531250000000011
 40
0.4531250000000011
 40
0.468750000000001
 40
0.468750000000001
 40
0.5000000000000007
 40
0.5000000000000007
 40
0.5156250000000007
 40
0.5156250000000007
 40
0.5312500000000004
 40
0.5312500000000004
 40
0.5625000000000001
 40
0.5625000000000001
 40
0.5781250000000001
 40
0.5781250000000001
 40
0.59375
 40
0.59375
 40
0.625
 40
0.625
 40
0.65625
 40
0.65625
 40
0.6875
 40
0.6875
 40
0.75
 40
0.75
 40
0.8125000000000001
 40
0.8125000000000001
 40
0.8750000000000001
 40
0.8750000000000001
 40
1.0
 40
1.0
 40
1.0
 40
1.0
 10
220.7811587646809
 20
337.7277960648879
 30
0.0
 10
226.6793240541587
 20
337.7277960673209
 30
0.0
 10
232.5768024706893
 20
337.727795240306
 30
0.0
 10
241.4185395905298
 20
337.7277943402903
 30
0.0
 10
244.3650166761601
 20
337.7277941098251
 30
0.0
 10
250.2554247311269
 20
337.7277940788483
 30
0.0
 10
253.19936540654
 20
337.7277942979611
 30
0.0
 10
259.083174349604
 20
337.7277951633787
 30
0.0
 10
262.0230686183761
 20
337.7277958893092
 30
0.0
 10
266.4279645161632
 20
337.7277961402747
 30
0.0
 10
267.8954220899321
 20
337.7277960092988
 30
0.0
 10
270.8281168111173
 20
337.7277957368753
 30
0.0
 10
272.2844169192903
 20
337.7277956010273
 30
0.0
 10
275.1650688898598
 20
337.7277955994799
 30
0.0
 10
276.5901900762391
 20
337.7277957562313
 30
0.0
 10
279.3991692381925
 20
337.7277960971517
 30
0.0
 10
280.7830827652159
 20
337.7277960758072
 30
0.0
 10
282.8159002136903
 20
337.7277966869367
 30
0.0
 10
283.4872311860528
 20
337.7277969124649
 30
0.0
 10
284.7915167085133
 20
337.7277971764537
 30
0.0
 10
285.4269856680856
 20
337.7277972127342
 30
0.0
 10
287.2786881679594
 20
337.7277969607413
 30
0.0
 10
288.4399170083733
 20
337.7277961638563
 30
0.0
 10
290.0562144990301
 20
337.727796064515
 30
0.0
 10
290.576421395889
 20
337.7277962904966
 30
0.0
 10
291.5557522029138
 20
337.7277967525166
 30
0.0
 10
292.0165725202514
 20
337.7277969833079
 30
0.0
 10
293.3190670942236
 20
337.7277973196945
 30
0.0
 10
294.0807730900636
 20
337.7277969863953
 30
0.0
 10
295.0926898066891
 20
337.7277963657371
 30
0.0
 10
295.4090990459908
 20
337.7277961630963
 30
0.0
 10
295.9983805151033
 20
337.7277960596743
 30
0.0
 10
296.2711722431125
 20
337.727796050832
 30
0.0
 10
297.0339925242311
 20
337.7277958043773
 30
0.0
 10
297.4690173940878
 20
337.7277956288494
 30
0.0
 10
298.2323446710056
 20
337.7277956030472
 30
0.0
 10
298.5604513433009
 20
337.7277957279957
 30
0.0
 10
299.1371005748235
 20
337.7277960026159
 30
0.0
 10
299.385614036577
 20
337.7277961513906
 30
0.0
 10
300.0400061918537
 20
337.7277959733193
 30
0.0
 10
300.3544647759654
 20
337.7277952361565
 30
0.0
 10
300.8452317677762
 20
337.7277943518389
 30
0.0
 10
301.020272202054
 20
337.7277941203215
 30
0.0
 10
301.2865851344237
 20
337.7277941398668
 30
0.0
 10
301.3773304446839
 20
337.7277943701354
 30
0.0
 10
301.572638094227
 20
337.7277952784846
 30
0.0
 10
301.603267240243
 20
337.7277961208498
 30
0.0
 10
301.603267264082
 20
337.7277961232829
 30
0.0
  0
CIRCLE
  5
119
330
1F
100
AcDbEntity
  8
0
  6
Continuous
 62
     8
370
     0
100
AcDbCircle
 10
220.7811571032
 20
319.8269786319
 30
0.0
 40
5.64450777192144
  0
CIRCLE
  5
11A
330
1F
100
AcDbEntity
  8
0
  6
Continuous
 62
     8
370
     0
100
AcDbCircle
 10
220.7811571032
 20
319.8269786319
 30
0.0
 40
7.068777456308396
  0
LINE
  5
11B
330
1F
100
AcDbEntity
  8
0
  6
Continuous
 62
     8
370
     0
100
AcDbLine
 10
234.8231571032
 20
310.9887124142
 30
0.0
 11
206.7391571032
 21
310.9887124142
 31
0.0
  0
LINE
  5
11C
330
1F
100
AcDbEntity
  8
0
  6
Continuous
 62
     8
370
     0
100
AcDbLine
 10
234.0616200662
 20
310.015211188
 30
0.0
 11
207.5006941403
 21
310.015211188
 31
0.0
  0
CIRCLE
  5
11D
330
1F
100
AcDbEntity
  8
0
  6
Continuous
 62
     8
370
     0
100
AcDbCircle
 10
220.7811571004
 20
288.2572751239
 30
0.0
 40
5.594623115577917
  0
LINE
  5
11E
330
1F
100
AcDbEntity
  8
0
  6
Continuous
 62
     8
370
     0
100
AcDbLine
 10
246.6088350444
 20
269.4645904366
 30
0.0
 11
194.9534791564
 21
269.4645904366
 31
0.0
  0
LINE
  5
11F
330
1F
100
AcDbEntity
  8
0
  6
Continuous
 62
     8
370
     0
100
AcDbLine
 10
204.3093845978
 20
326.2709751239
 30
0.0
 11
204.3093845978
 21
321.3562751239
 31
0.0
  0
LINE
  5
120
330
1F
100
AcDbEntity
  8
0
  6
Continuous
 62
     8
370
     0
100
AcDbLine
 10
202.6369565967
 20
321.3562751239
 30
0.0
 11
202.6369565967
 21
326.2709751239
 31
0.0
  0
LINE
  5
121
330
1F
100
AcDbEntity
  8
0
  6
Continuous
 62
     8
370
     0
100
AcDbLine
 10
204.0840606833
 20
326.2709751239
 30
0.0
 11
204.0840606833
 21
321.3562751239
 31
0.0
  0
LINE
  5
122
330
1F
100
AcDbEntity
  8
0
  6
Continuous
 62
     8
370
     0
100
AcDbLine
 10
203.8547000641
 20
321.3562751239
 30
0.0
 11
203.8547000641
 21
326.2709751239
 31
0.0
  0
LINE
  5
123
330
1F
100
AcDbEntity
  8
0
  6
Continuous
 62
     8
370
     0
100
AcDbLine
 10
202.7581845666
 20
326.2709751239
 30
0.0
 11
202.7581845666
 21
321.3562751239
 31
0.0
  0
ENDSEC
  0
SECTION
  2
OBJECTS
  0
DICTIONARY
  5
C
330
0
100
AcDbDictionary
281
     1
  3
ACAD_GROUP
350
D
  3
ACAD_LAYOUT
350
1A
  3
ACAD_MATERIAL
350
3B
  3
ACAD_MLEADERSTYLE
350
125
  3
ACAD_MLINESTYLE
350
17
  3
ACAD_PLOTSETTINGS
350
19
  3
ACAD_PLOTSTYLENAME
350
E
  3
ACAD_TABLESTYLE
350
124
  3
ACAD_VISUALSTYLE
350
2A
  0
DICTIONARY
  5
D
102
{ACAD_REACTORS
330
C
102
}
330
C
100
AcDbDictionary
281
     1
  0
DICTIONARY
  5
1A
102
{ACAD_REACTORS
330
C
102
}
330
C
100
AcDbDictionary
281
     1
  3
Layout1
350
1E
  3
Layout2
350
26
  3
Model
350
22
  0
DICTIONARY
  5
3B
102
{ACAD_REACTORS
330
C
102
}
330
C
100
AcDbDictionary
281
     1
  3
ByBlock
350
3D
  3
ByLayer
350
3C
  3
Global
350
3E
  0
DICTIONARY
  5
125
102
{ACAD_REACTORS
330
C
102
}
330
C
100
AcDbDictionary
281
     1
  0
DICTIONARY
  5
17
102
{ACAD_REACTORS
330
C
102
}
330
C
100
AcDbDictionary
281
     1
  3
Standard
350
18
  0
DICTIONARY
  5
19
102
{ACAD_REACTORS
330
C
102
}
330
C
100
AcDbDictionary
281
     1
  0
ACDBDICTIONARYWDFLT
  5
E
102
{ACAD_REACTORS
330
C
102
}
330
C
100
AcDbDictionary
281
     1
  3
Normal
350
F
100
AcDbDictionaryWithDefault
340
F
  0
DICTIONARY
  5
124
102
{ACAD_REACTORS
330
C
102
}
330
C
100
AcDbDictionary
281
     1
  0
DICTIONARY
  5
2A
102
{ACAD_REACTORS
330
C
102
}
330
C
100
AcDbDictionary
281
     1
  3
2dWireframe
350
2F
  3
3D Hidden
350
31
  3
3dWireframe
350
30
  3
Basic
350
32
  3
Brighten
350
36
  3
ColorChange
350
3A
  3
Conceptual
350
34
  3
Dim
350
35
  3
Facepattern
350
39
  3
Flat
350
2B
  3
FlatWithEdges
350
2C
  3
Gouraud
350
2D
  3
GouraudWithEdges
350
2E
  3
Linepattern
350
38
  3
Realistic
350
33
  3
Thicken
350
37
  0
LAYOUT
  5
1E
102
{ACAD_REACTORS
330
1A
102
}
330
1A
100
AcDbPlotSettings
  1

  2
none_device
  4

  6

 40
0.0
 41
0.0
 42
0.0
 43
0.0
 44
0.0
 45
0.0
 46
0.0
 47
0.0
 48
0.0
 49
0.0
140
0.0
141
0.0
142
1.0
143
1.0
 70
   688
 72
     0
 73
     0
 74
     5
  7

 75
    16
 76
     0
 77
     2
 78
   300
147
1.0
148
0.0
149
0.0
100
AcDbLayout
  1
Layout1
 70
     1
 71
     1
 10
0.0
 20
0.0
 11
420.0
 21
297.0
 12
0.0
 22
0.0
 32
0.0
 14
1.0000000000E+20
 24
1.0000000000E+20
 34
1.0000000000E+20
 15
-1.0000000000E+20
 25
-1.0000000000E+20
 35
-1.0000000000E+20
146
0.0
 13
0.0
 23
0.0
 33
0.0
 16
1.0
 26
0.0
 36
0.0
 17
0.0
 27
1.0
 37
0.0
 76
     0
330
1B
  0
LAYOUT
  5
26
102
{ACAD_REACTORS
330
1A
102
}
330
1A
100
AcDbPlotSettings
  1

  2
none_device
  4

  6

 40
0.0
 41
0.0
 42
0.0
 43
0.0
 44
0.0
 45
0.0
 46
0.0
 47
0.0
 48
0.0
 49
0.0
140
0.0
141
0.0
142
1.0
143
1.0
 70
   688
 72
     0
 73
     0
 74
     5
  7

 75
    16
 76
     0
 77
     2
 78
   300
147
1.0
148
0.0
149
0.0
100
AcDbLayout
  1
Layout2
 70
     1
 71
     2
 10
0.0
 20
0.0
 11
0.0
 21
0.0
 12
0.0
 22
0.0
 32
0.0
 14
0.0
 24
0.0
 34
0.0
 15
0.0
 25
0.0
 35
0.0
146
0.0
 13
0.0
 23
0.0
 33
0.0
 16
1.0
 26
0.0
 36
0.0
 17
0.0
 27
1.0
 37
0.0
 76
     0
330
23
  0
LAYOUT
  5
22
102
{ACAD_REACTORS
330
1A
102
}
330
1A
100
AcDbPlotSettings
  1

  2
none_device
  4

  6

 40
0.0
 41
0.0
 42
0.0
 43
0.0
 44
0.0
 45
0.0
 46
0.0
 47
0.0
 48
0.0
 49
0.0
140
0.0
141
0.0
142
1.0
143
1.0
 70
  1712
 72
     0
 73
     0
 74
     0
  7

 75
     0
 76
     0
 77
     2
 78
   300
147
1.0
148
0.0
149
0.0
100
AcDbLayout
  1
Model
 70
     1
 71
     0
 10
0.0
 20
0.0
 11
594.0
 21
841.0
 12
0.0
 22
0.0
 32
0.0
 14
0.0
 24
0.0
 34
0.0
 15
594.0
 25
841.0
 35
0.0
146
0.0
 13
0.0
 23
0.0
 33
0.0
 16
1.0
 26
0.0
 36
0.0
 17
0.0
 27
1.0
 37
0.0
 76
     0
330
1F
331
29
  0
MATERIAL
  5
3D
102
{ACAD_REACTORS
330
3B
102
}
330
3B
100
AcDbMaterial
  1
ByBlock
 72
     1
 94
      127
  0
MATERIAL
  5
3C
102
{ACAD_REACTORS
330
3B
102
}
330
3B
100
AcDbMaterial
  1
ByLayer
 72
     1
 94
      127
  0
MATERIAL
  5
3E
102
{ACAD_REACTORS
330
3B
102
}
330
3B
100
AcDbMaterial
  1
Global
 72
     1
 94
      127
  0
MLINESTYLE
  5
18
102
{ACAD_REACTORS
330
17
102
}
330
17
100
AcDbMlineStyle
  2
Standard
 70
     0
  3

 62
   256
 51
90.0
 52
90.0
 71
     2
 49
0.5
 62
   256
  6
BYLAYER
 49
-0.5
 62
   256
  6
BYLAYER
  0
ACDBPLACEHOLDER
  5
F
102
{ACAD_REACTORS
330
E
102
}
330
E
  0
VISUALSTYLE
  5
2F
102
{ACAD_REACTORS
330
2A
102
}
330
2A
100
AcDbVisualStyle
  2
2dWireframe
 70
     4
177
     2
291
     0
 71
     0
176
     1
 72
     2
176
     1
 73
     0
176
     1
 90
        0
176
     1
 40
-0.6
176
     1
 41
-30.0
176
     1
 62
     5
 63
     7
421
 16777215
176
     1
 74
     1
176
     1
 91
        4
176
     1
 64
     7
176
     1
 65
   257
176
     1
 75
     1
176
     1
175
     1
176
     1
 42
1.0
176
     1
 92
        0
176
     1
 66
   257
176
     1
 43
1.0
176
     1
 76
     1
176
     1
 77
     6
176
     1
 78
     2
176
     1
 67
     7
176
     1
 79
     5
176
     1
170
     0
176
     1
171
     0
176
     1
290
     0
176
     1
 93
        1
176
     1
 44
0.0
176
     1
173
     0
176
     1
  0
VISUALSTYLE
  5
31
102
{ACAD_REACTORS
330
2A
102
}
330
2A
100
AcDbVisualStyle
  2
3D Hidden
 70
     6
177
     2
291
     0
 71
     1
176
     1
 72
     2
176
     1
 73
     2
176
     1
 90
        0
176
     1
 40
-0.6
176
     1
 41
-30.0
176
     1
 62
     5
 63
     7
421
 16777215
176
     1
 74
     2
176
     1
 91
        2
176
     1
 64
     7
176
     1
 65
   257
176
     1
 75
     2
176
     1
175
     1
176
     1
 42
40.0
176
     1
 92
        0
176
     1
 66
   257
176
     1
 43
1.0
176
     1
 76
     1
176
     1
 77
     6
176
     1
 78
     2
176
     1
 67
     7
176
     1
 79
     3
176
     1
170
     0
176
     1
171
     0
176
     1
290
     0
176
     1
 93
        1
176
     1
 44
0.0
176
     1
173
     0
176
     1
  0
VISUALSTYLE
  5
30
102
{ACAD_REACTORS
330
2A
102
}
330
2A
100
AcDbVisualStyle
  2
3dWireframe
 70
     5
177
     2
291
     0
 71
     0
176
     1
 72
     2
176
     1
 73
     0
176
     1
 90
        0
176
     1
 40
-0.6
176
     1
 41
-30.0
176
     1
 62
     5
 63
     7
421
 16777215
176
     1
 74
     1
176
     1
 91
        4
176
     1
 64
     7
176
     1
 65
   257
176
     1
 75
     1
176
     1
175
     1
176
     1
 42
1.0
176
     1
 92
        0
176
     1
 66
   257
176
     1
 43
1.0
176
     1
 76
     1
176
     1
 77
     6
176
     1
 78
     2
176
     1
 67
     7
176
     1
 79
     5
176
     1
170
     0
176
     1
171
     0
176
     1
290
     0
176
     1
 93
        1
176
     1
 44
0.0
176
     1
173
     0
176
     1
  0
VISUALSTYLE
  5
32
102
{ACAD_REACTORS
330
2A
102
}
330
2A
100
AcDbVisualStyle
  2
Basic
 70
     7
177
     2
291
     1
 71
     1
176
     1
 72
     0
176
     1
 73
     1
176
     1
 90
        0
176
     1
 40
-0.6
176
     1
 41
-30.0
176
     1
 62
     5
 63
     7
421
 16777215
176
     1
 74
     0
176
     1
 91
        4
176
     1
 64
     7
176
     1
 65
   257
176
     1
 75
     1
176
     1
175
     1
176
     1
 42
1.0
176
     1
 92
        8
176
     1
 66
     7
176
     1
 43
1.0
176
     1
 76
     1
176
     1
 77
     6
176
     1
 78
     2
176
     1
 67
     7
176
     1
 79
     5
176
     1
170
     0
176
     1
171
     0
176
     1
290
     0
176
     1
 93
        1
176
     1
 44
0.0
176
     1
173
     0
176
     1
  0
VISUALSTYLE
  5
36
102
{ACAD_REACTORS
330
2A
102
}
330
2A
100
AcDbVisualStyle
  2
Brighten
 70
    12
177
     2
291
     1
 71
     2
176
     1
 72
     2
176
     1
 73
     0
176
     1
 90
        0
176
     1
 40
-0.6
176
     1
 41
-30.0
176
     1
 62
     5
 63
     7
421
 16777215
176
     1
 74
     1
176
     1
 91
        4
176
     1
 64
     7
176
     1
 65
   257
176
     1
 75
     1
176
     1
175
     1
176
     1
 42
1.0
176
     1
 92
        8
176
     1
 66
     7
176
     1
 43
1.0
176
     1
 76
     1
176
     1
 77
     6
176
     1
 78
     2
176
     1
 67
     7
176
     1
 79
     5
176
     1
170
     0
176
     1
171
     0
176
     1
290
     0
176
     1
 93
        1
176
     1
 44
50.0
176
     1
173
     0
176
     1
  0
VISUALSTYLE
  5
3A
102
{ACAD_REACTORS
330
2A
102
}
330
2A
100
AcDbVisualStyle
  2
ColorChange
 70
    16
177
     2
291
     1
 71
     2
176
     1
 72
     2
176
     1
 73
     3
176
     1
 90
        0
176
     1
 40
-0.6
176
     1
 41
-30.0
176
     1
 62
     5
 63
     8
421
  8421504
176
     1
 74
     1
176
     1
 91
        4
176
     1
 64
     7
176
     1
 65
   257
176
     1
 75
     1
176
     1
175
     1
176
     1
 42
1.0
176
     1
 92
        8
176
     1
 66
     8
424
  8421504
176
     1
 43
1.0
176
     1
 76
     1
176
     1
 77
     6
176
     1
 78
     2
176
     1
 67
     7
176
     1
 79
     5
176
     1
170
     0
176
     1
171
     0
176
     1
290
     0
176
     1
 93
        1
176
     1
 44
0.0
176
     1
173
     0
176
     1
  0
VISUALSTYLE
  5
34
102
{ACAD_REACTORS
330
2A
102
}
330
2A
100
AcDbVisualStyle
  2
Conceptual
 70
     9
177
     2
291
     0
 71
     3
176
     1
 72
     2
176
     1
 73
     0
176
     1
 90
        0
176
     1
 40
-0.6
176
     1
 41
-30.0
176
     1
 62
     5
 63
     7
421
 16777215
176
     1
 74
     2
176
     1
 91
        2
176
     1
 64
     7
176
     1
 65
   257
176
     1
 75
     1
176
     1
175
     1
176
     1
 42
40.0
176
     1
 92
        8
176
     1
 66
     7
176
     1
 43
1.0
176
     1
 76
     1
176
     1
 77
     6
176
     1
 78
     2
176
     1
 67
     7
176
     1
 79
     3
176
     1
170
     0
176
     1
171
     0
176
     1
290
     0
176
     1
 93
        1
176
     1
 44
0.0
176
     1
173
     0
176
     1
  0
VISUALSTYLE
  5
35
102
{ACAD_REACTORS
330
2A
102
}
330
2A
100
AcDbVisualStyle
  2
Dim
 70
    11
177
     2
291
     1
 71
     2
176
     1
 72
     2
176
     1
 73
     0
176
     1
 90
        0
176
     1
 40
-0.6
176
     1
 41
-30.0
176
     1
 62
     5
 63
     7
421
 16777215
176
     1
 74
     1
176
     1
 91
        4
176
     1
 64
     7
176
     1
 65
   257
176
     1
 75
     1
176
     1
175
     1
176
     1
 42
1.0
176
     1
 92
        8
176
     1
 66
     7
176
     1
 43
1.0
176
     1
 76
     1
176
     1
 77
     6
176
     1
 78
     2
176
     1
 67
     7
176
     1
 79
     5
176
     1
170
     0
176
     1
171
     0
176
     1
290
     0
176
     1
 93
        1
176
     1
 44
-50.0
176
     1
173
     0
176
     1
  0
VISUALSTYLE
  5
39
102
{ACAD_REACTORS
330
2A
102
}
330
2A
100
AcDbVisualStyle
  2
Facepattern
 70
    15
177
     2
291
     1
 71
     2
176
     1
 72
     2
176
     1
 73
     0
176
     1
 90
        0
176
     1
 40
-0.6
176
     1
 41
-30.0
176
     1
 62
     5
 63
     7
421
 16777215
176
     1
 74
     1
176
     1
 91
        4
176
     1
 64
     7
176
     1
 65
   257
176
     1
 75
     1
176
     1
175
     1
176
     1
 42
1.0
176
     1
 92
        8
176
     1
 66
     7
176
     1
 43
1.0
176
     1
 76
     1
176
     1
 77
     6
176
     1
 78
     2
176
     1
 67
     7
176
     1
 79
     5
176
     1
170
     0
176
     1
171
     0
176
     1
290
     0
176
     1
 93
        1
176
     1
 44
0.0
176
     1
173
     0
176
     1
  0
VISUALSTYLE
  5
2B
102
{ACAD_REACTORS
330
2A
102
}
330
2A
100
AcDbVisualStyle
  2
Flat
 70
     0
177
     2
291
     1
 71
     2
176
     1
 72
     1
176
     1
 73
     1
176
     1
 90
        2
176
     1
 40
-0.6
176
     1
 41
30.0
176
     1
 62
     5
 63
     7
421
 16777215
176
     1
 74
     0
176
     1
 91
        4
176
     1
 64
     7
176
     1
 65
   257
176
     1
 75
     1
176
     1
175
     1
176
     1
 42
1.0
176
     1
 92
        8
176
     1
 66
     7
176
     1
 43
1.0
176
     1
 76
     1
176
     1
 77
     6
176
     1
 78
     2
176
     1
 67
     7
176
     1
 79
     5
176
     1
170
     0
176
     1
171
     0
176
     1
290
     0
176
     1
 93
       13
176
     1
 44
0.0
176
     1
173
     0
176
     1
  0
VISUALSTYLE
  5
2C
102
{ACAD_REACTORS
330
2A
102
}
330
2A
100
AcDbVisualStyle
  2
FlatWithEdges
 70
     1
177
     2
291
     1
 71
     2
176
     1
 72
     1
176
     1
 73
     1
176
     1
 90
        2
176
     1
 40
-0.6
176
     1
 41
30.0
176
     1
 62
     5
 63
     7
421
 16777215
176
     1
 74
     1
176
     1
 91
        4
176
     1
 64
     7
176
     1
 65
   257
176
     1
 75
     1
176
     1
175
     1
176
     1
 42
1.0
176
     1
 92
        0
176
     1
 66
   257
176
     1
 43
1.0
176
     1
 76
     1
176
     1
 77
     6
176
     1
 78
     2
176
     1
 67
     7
176
     1
 79
     5
176
     1
170
     0
176
     1
171
     0
176
     1
290
     0
176
     1
 93
       13
176
     1
 44
0.0
176
     1
173
     0
176
     1
  0
VISUALSTYLE
  5
2D
102
{ACAD_REACTORS
330
2A
102
}
330
2A
100
AcDbVisualStyle
  2
Gouraud
 70
     2
177
     2
291
     1
 71
     2
176
     1
 72
     2
176
     1
 73
     1
176
     1
 90
        2
176
     1
 40
-0.6
176
     1
 41
30.0
176
     1
 62
     5
 63
     7
421
 16777215
176
     1
 74
     0
176
     1
 91
        4
176
     1
 64
     7
176
     1
 65
   257
176
     1
 75
     1
176
     1
175
     1
176
     1
 42
1.0
176
     1
 92
        0
176
     1
 66
     7
176
     1
 43
1.0
176
     1
 76
     1
176
     1
 77
     6
176
     1
 78
     2
176
     1
 67
     7
176
     1
 79
     5
176
     1
170
     0
176
     1
171
     0
176
     1
290
     0
176
     1
 93
       13
176
     1
 44
0.0
176
     1
173
     0
176
     1
  0
VISUALSTYLE
  5
2E
102
{ACAD_REACTORS
330
2A
102
}
330
2A
100
AcDbVisualStyle
  2
GouraudWithEdges
 70
     3
177
     2
291
     1
 71
     2
176
     1
 72
     2
176
     1
 73
     1
176
     1
 90
        2
176
     1
 40
-0.6
176
     1
 41
30.0
176
     1
 62
     5
 63
     7
421
 16777215
176
     1
 74
     1
176
     1
 91
        4
176
     1
 64
     7
176
     1
 65
   257
176
     1
 75
     1
176
     1
175
     1
176
     1
 42
1.0
176
     1
 92
        0
176
     1
 66
   257
176
     1
 43
1.0
176
     1
 76
     1
176
     1
 77
     6
176
     1
 78
     2
176
     1
 67
     7
176
     1
 79
     5
176
     1
170
     0
176
     1
171
     0
176
     1
290
     0
176
     1
 93
       13
176
     1
 44
0.0
176
     1
173
     0
176
     1
  0
VISUALSTYLE
  5
38
102
{ACAD_REACTORS
330
2A
102
}
330
2A
100
AcDbVisualStyle
  2
Linepattern
 70
    14
177
     2
291
     1
 71
     2
176
     1
 72
     2
176
     1
 73
     0
176
     1
 90
        0
176
     1
 40
-0.6
176
     1
 41
-30.0
176
     1
 62
     5
 63
     7
421
 16777215
176
     1
 74
     1
176
     1
 91
        4
176
     1
 64
     7
176
     1
 65
   257
176
     1
 75
     7
176
     1
175
     7
176
     1
 42
1.0
176
     1
 92
        8
176
     1
 66
     7
176
     1
 43
1.0
176
     1
 76
     1
176
     1
 77
     6
176
     1
 78
     2
176
     1
 67
     7
176
     1
 79
     5
176
     1
170
     0
176
     1
171
     0
176
     1
290
     0
176
     1
 93
        1
176
     1
 44
0.0
176
     1
173
     0
176
     1
  0
VISUALSTYLE
  5
33
102
{ACAD_REACTORS
330
2A
102
}
330
2A
100
AcDbVisualStyle
  2
Realistic
 70
     8
177
     2
291
     0
 71
     2
176
     1
 72
     2
176
     1
 73
     0
176
     1
 90
        0
176
     1
 40
-0.6
176
     1
 41
-30.0
176
     1
 62
     5
 63
     7
421
 16777215
176
     1
 74
     1
176
     1
 91
        0
176
     1
 64
     7
176
     1
 65
   257
176
     1
 75
     1
176
     1
175
     1
176
     1
 42
1.0
176
     1
 92
        8
176
     1
 66
     8
424
  7895160
176
     1
 43
1.0
176
     1
 76
     1
176
     1
 77
     6
176
     1
 78
     2
176
     1
 67
     7
176
     1
 79
     5
176
     1
170
     0
176
     1
171
     0
176
     1
290
     0
176
     1
 93
       13
176
     1
 44
0.0
176
     1
173
     0
176
     1
  0
VISUALSTYLE
  5
37
102
{ACAD_REACTORS
330
2A
102
}
330
2A
100
AcDbVisualStyle
  2
Thicken
 70
    13
177
     2
291
     1
 71
     2
176
     1
 72
     2
176
     1
 73
     0
176
     1
 90
        0
176
     1
 40
-0.6
176
     1
 41
-30.0
176
     1
 62
     5
 63
     7
421
 16777215
176
     1
 74
     1
176
     1
 91
        4
176
     1
 64
     7
176
     1
 65
   257
176
     1
 75
     1
176
     1
175
     1
176
     1
 42
1.0
176
     1
 92
       12
176
     1
 66
     7
176
     1
 43
1.0
176
     1
 76
     1
176
     1
 77
     6
176
     1
 78
     2
176
     1
 67
     7
176
     1
 79
     5
176
     1
170
     0
176
     1
171
     0
176
     1
290
     0
176
     1
 93
        1
176
     1
 44
0.0
176
     1
173
     0
176
     1
  0
ENDSEC
  0
EOF
