  0
SECTION
  2
HEADER
  9
$ACADVER
  1
AC1009
  9
$DWGCODEPAGE
  3
ansi_1252
  9
$INSBASE
 10
0.0
 20
0.0
 30
0.0
  9
$EXTMIN
 10
0.0
 20
0.0
 30
0.0
  9
$EXTMAX
 10
594.0
 20
841.0
 30
0.0
  9
$LIMMIN
 10
0.0
 20
0.0
  9
$LIMMAX
 10
594.0
 20
841.0
  9
$ORTHOMODE
 70
     0
  9
$REGENMODE
 70
     1
  9
$FILLMODE
 70
     1
  9
$QTEXTMODE
 70
     0
  9
$MIRRTEXT
 70
     1
  9
$DRAGMODE
 70
     2
  9
$LTSCALE
 40
1.0
  9
$OSMODE
 70
    37
  9
$ATTMODE
 70
     1
  9
$TEXTSIZE
 40
10.0
  9
$TRACEWID
 40
1.0
  9
$TEXTSTYLE
  7
STANDARD
  9
$CLAYER
  8
0
  9
$CELTYPE
  6
BYLAYER
  9
$CECOLOR
 62
   256
  9
$DIMSCALE
 40
1.0
  9
$DIMASZ
 40
2.5
  9
$DIMEXO
 40
0.0
  9
$DIMDLI
 40
3.75
  9
$DIMRND
 40
0.0
  9
$DIMDLE
 40
0.0
  9
$DIMEXE
 40
1.0
  9
$DIMTP
 40
0.0
  9
$DIMTM
 40
0.0
  9
$DIMTXT
 40
3.5
  9
$DIMCEN
 40
2.5
  9
$DIMTSZ
 40
0.0
  9
$DIMTOL
 70
     0
  9
$DIMLIM
 70
     0
  9
$DIMTIH
 70
     1
  9
$DIMTOH
 70
     1
  9
$DIMSE1
 70
     0
  9
$DIMSE2
 70
     0
  9
$DIMTAD
 70
     1
  9
$DIMZIN
 70
     0
  9
$DIMBLK
  1

  9
$DIMASO
 70
     1
  9
$DIMSHO
 70
     1
  9
$DIMPOST
  1

  9
$DIMAPOST
  1

  9
$DIMALT
 70
     0
  9
$DIMALTD
 70
     3
  9
$DIMALTF
 40
0.0393700787
  9
$DIMLFAC
 40
1.0
  9
$DIMTOFL
 70
     1
  9
$DIMTVP
 40
0.0
  9
$DIMTIX
 70
     0
  9
$DIMSOXD
 70
     0
  9
$DIMSAH
 70
     0
  9
$DIMBLK1
  1

  9
$DIMBLK2
  1

  9
$DIMSTYLE
  2
ISO-25
  9
$DIMCLRD
 70
     0
  9
$DIMCLRE
 70
     0
  9
$DIMCLRT
 70
     0
  9
$DIMTFAC
 40
1.0
  9
$DIMGAP
 40
1.5
  9
$LUNITS
 70
     2
  9
$LUPREC
 70
     2
  9
$SKETCHINC
 40
1.0
  9
$FILLETRAD
 40
10.0
  9
$AUNITS
 70
     0
  9
$AUPREC
 70
     2
  9
$MENU
  1
.
  9
$ELEVATION
 40
0.0
  9
$PELEVATION
 40
0.0
  9
$THICKNESS
 40
0.0
  9
$LIMCHECK
 70
     0
  9
$CHAMFERA
 40
0.0
  9
$CHAMFERB
 40
0.0
  9
$SKPOLY
 70
     0
  9
$TDCREATE
 40
2458589.559305208
  9
$TDUPDATE
 40
2458589.559305914
  9
$TDINDWG
 40
0.0000000116
  9
$TDUSRTIMER
 40
0.0000000116
  9
$USRTIMER
 70
     1
  9
$ANGBASE
 50
0.0
  9
$ANGDIR
 70
     0
  9
$PDMODE
 70
     0
  9
$PDSIZE
 40
-1.0
  9
$PLINEWID
 40
0.0
  9
$COORDS
 70
     1
  9
$SPLFRAME
 70
     0
  9
$SPLINETYPE
 70
     6
  9
$SPLINESEGS
 70
     8
  9
$ATTDIA
 70
     0
  9
$ATTREQ
 70
     1
  9
$HANDLING
 70
     1
  9
$HANDSEED
  5
3D4
  9
$SURFTAB1
 70
     6
  9
$SURFTAB2
 70
     6
  9
$SURFTYPE
 70
     6
  9
$SURFU
 70
     6
  9
$SURFV
 70
     6
  9
$UCSNAME
  2

  9
$UCSORG
 10
0.0
 20
0.0
 30
0.0
  9
$UCSXDIR
 10
1.0
 20
0.0
 30
0.0
  9
$UCSYDIR
 10
0.0
 20
1.0
 30
0.0
  9
$PUCSNAME
  2

  9
$PUCSORG
 10
0.0
 20
0.0
 30
0.0
  9
$PUCSXDIR
 10
1.0
 20
0.0
 30
0.0
  9
$PUCSYDIR
 10
0.0
 20
1.0
 30
0.0
  9
$USERI1
 70
     0
  9
$USERI2
 70
     0
  9
$USERI3
 70
     0
  9
$USERI4
 70
     0
  9
$USERI5
 70
     0
  9
$USERR1
 40
0.0
  9
$USERR2
 40
0.0
  9
$USERR3
 40
0.0
  9
$USERR4
 40
0.0
  9
$USERR5
 40
0.0
  9
$WORLDVIEW
 70
     1
  9
$SHADEDGE
 70
     3
  9
$SHADEDIF
 70
    70
  9
$TILEMODE
 70
     1
  9
$MAXACTVP
 70
    64
  9
$PLIMCHECK
 70
     0
  9
$PEXTMIN
 10
1.0000000000E+20
 20
1.0000000000E+20
 30
1.0000000000E+20
  9
$PEXTMAX
 10
-1.0000000000E+20
 20
-1.0000000000E+20
 30
-1.0000000000E+20
  9
$PLIMMIN
 10
0.0
 20
0.0
  9
$PLIMMAX
 10
420.0
 20
297.0
  9
$UNITMODE
 70
     0
  9
$VISRETAIN
 70
     1
  9
$PLINEGEN
 70
     0
  9
$PSLTSCALE
 70
     1
  0
ENDSEC
  0
SECTION
  2
TABLES
  0
TABLE
  2
VPORT
 70
     1
  0
VPORT
  2
*ACTIVE
 70
     0
 10
0.0
 20
0.0
 11
1.0
 21
1.0
 12
297.0
 22
420.5
 13
0.0
 23
0.0
 14
10.0
 24
10.0
 15
10.0
 25
10.0
 16
0.0
 26
0.0
 36
1.0
 17
0.0
 27
0.0
 37
0.0
 40
841.0
 41
0.7063020214
 42
50.0
 43
0.0
 44
0.0
 50
0.0
 51
0.0
 71
     0
 72
  2000
 73
     1
 74
     3
 75
     0
 76
     0
 77
     0
 78
     0
  0
ENDTAB
  0
TABLE
  2
LTYPE
 70
     6
  0
LTYPE
  2
CONTINUOUS
 70
     0
  3
Solid line
 72
    65
 73
     0
 40
0.0
  0
LTYPE
  2
HIDDEN
 70
     0
  3
Hidden __ __ __ __ __ __ __ __ __ __ __ __ __ __
 72
    65
 73
     2
 40
1.905
 49
1.27
 49
-0.635
  0
LTYPE
  2
PHANTOM
 70
     0
  3
Phantom ______  __  __  ______  __  __  ______
 72
    65
 73
     6
 40
12.7
 49
6.35
 49
-1.27
 49
1.27
 49
-1.27
 49
1.27
 49
-1.27
  0
LTYPE
  2
CENTER
 70
     0
  3
Center ____ _ ____ _ ____ _ ____ _ ____ _ ____
 72
    65
 73
     4
 40
10.16
 49
6.35
 49
-1.27
 49
1.27
 49
-1.27
  0
LTYPE
  2
CENTERX2
 70
     0
  3
Center (2x) ________  __  ________  __  _____
 72
    65
 73
     4
 40
20.32
 49
12.7
 49
-2.54
 49
2.54
 49
-2.54
  0
LTYPE
  2
DOT2
 70
     0
  3
Dot (.5x) ........................................
 72
    65
 73
     2
 40
0.635
 49
0.0
 49
-0.635
  0
ENDTAB
  0
TABLE
  2
LAYER
 70
     1
  0
LAYER
  2
0
 70
     0
 62
     7
  6
CONTINUOUS
  0
ENDTAB
  0
TABLE
  2
STYLE
 70
     1
  0
STYLE
  2
STANDARD
 70
     0
 40
0.0
 41
1.0
 50
0.0
 71
     0
 42
10.0
  3
txt
  4

  0
ENDTAB
  0
TABLE
  2
VIEW
 70
     0
  0
ENDTAB
  0
TABLE
  2
UCS
 70
     0
  0
ENDTAB
  0
TABLE
  2
APPID
 70
     1
  0
APPID
  2
ACAD
 70
     0
  0
ENDTAB
  0
TABLE
  2
DIMSTYLE
 70
     2
  0
DIMSTYLE
  2
ISO-25
 70
     0
  3

  4

  5

  6

  7

 40
1.0
 41
2.5
 42
0.625
 43
3.75
 44
1.25
 45
0.0
 46
0.0
 47
0.0
 48
0.0
140
2.5
141
2.5
142
0.0
143
0.0393700787
144
1.0
145
0.0
146
1.0
147
0.625
 71
     0
 72
     0
 73
     0
 74
     0
 75
     0
 76
     0
 77
     1
 78
     8
170
     0
171
     3
172
     1
173
     0
174
     0
175
     0
176
     0
177
     0
178
     0
  0
DIMSTYLE
  2
SLDDIMSTYLE0
 70
     0
  3

  4

  5

  6

  7

 40
1.0
 41
2.5
 42
0.0625
 43
0.38
 44
0.0
 45
0.000000001
 46
0.0
 47
0.0
 48
0.0
140
6.0
141
0.09
142
0.0
143
25.4
144
1.0
145
0.0
146
1.0
147
1.5
 71
     0
 72
     0
 73
     0
 74
     0
 75
     0
 76
     0
 77
     1
 78
    12
170
     0
171
     2
172
     0
173
     1
174
     0
175
     0
176
     0
177
     0
178
     0
  0
ENDTAB
  0
ENDSEC
  0
SECTION
  2
BLOCKS
  0
BLOCK
  8
0
  2
$MODEL_SPACE
 70
     0
 10
0.0
 20
0.0
 30
0.0
  3
$MODEL_SPACE
  1

  0
ENDBLK
  5
21
  8
0
  0
BLOCK
 67
     1
  8
0
  2
$PAPER_SPACE
 70
     0
 10
0.0
 20
0.0
 30
0.0
  3
$PAPER_SPACE
  1

  0
ENDBLK
  5
1D
 67
     1
  8
0
  0
BLOCK
  8
0
  2
_D
 70
     0
 10
0.0
 20
0.0
 30
0.0
  3
_D
  1

  0
SOLID
  5
7A
  8
0
  6
CONTINUOUS
 62
     7
 10
42.7614395004
 20
152.0299240879
 30
0.0
 11
42.4614395004
 21
149.5299240879
 31
0.0
 12
43.0614395004
 22
149.5299240879
 32
0.0
 13
43.0614395004
 23
149.5299240879
 33
0.0
  0
SOLID
  5
7B
  8
0
  6
CONTINUOUS
 62
     7
 10
42.7614395004
 20
52.0299240879
 30
0.0
 11
43.0614395004
 21
54.5299240879
 31
0.0
 12
42.4614395004
 22
54.5299240879
 32
0.0
 13
42.4614395004
 23
54.5299240879
 33
0.0
  0
LINE
  5
7C
  8
0
  6
CONTINUOUS
 62
     7
 10
56.6850079902
 20
152.0299240879
 30
0.0
 11
41.7614395004
 21
152.0299240879
 31
0.0
  0
LINE
  5
7D
  8
0
  6
CONTINUOUS
 62
     7
 10
56.6850079902
 20
52.0299240879
 30
0.0
 11
41.7614395004
 21
52.0299240879
 31
0.0
  0
LINE
  5
7E
  8
0
  6
CONTINUOUS
 62
     7
 10
42.7614395004
 20
152.0299240879
 30
0.0
 11
42.7614395004
 21
52.0299240879
 31
0.0
  0
TEXT
  5
7F
  8
0
  6
CONTINUOUS
 62
     7
 10
40.6418793617
 20
94.3680541463
 30
0.0
 40
6.0
  1
100
 50
90.0
 41
0.7
 11
42.7614397332
 21
94.3680541463
 31
0.0
 73
     1
  0
TEXT
  5
80
  8
0
  6
CONTINUOUS
 62
     7
 10
40.6418793617
 20
105.7430548466
 30
0.0
 40
6.0
  1
mm
 50
90.0
 41
0.7
 11
42.7614397332
 21
105.7430548466
 31
0.0
 73
     1
  0
ENDBLK
  5
79
  8
0
  0
BLOCK
  8
0
  2
_D_1
 70
     0
 10
0.0
 20
0.0
 30
0.0
  3
_D_1
  1

  0
SOLID
  5
85
  8
0
  6
CONTINUOUS
 62
     7
 10
56.6850079902
 20
38.4602342313
 30
0.0
 11
59.1850079902
 21
38.1602342313
 31
0.0
 12
59.1850079902
 22
38.7602342313
 32
0.0
 13
59.1850079902
 23
38.7602342313
 33
0.0
  0
SOLID
  5
86
  8
0
  6
CONTINUOUS
 62
     7
 10
156.6850079902
 20
38.4602342313
 30
0.0
 11
154.1850079902
 21
38.7602342313
 31
0.0
 12
154.1850079902
 22
38.1602342313
 32
0.0
 13
154.1850079902
 23
38.1602342313
 33
0.0
  0
LINE
  5
87
  8
0
  6
CONTINUOUS
 62
     7
 10
56.6850079902
 20
52.0299240879
 30
0.0
 11
56.6850079902
 21
37.4602342313
 31
0.0
  0
LINE
  5
88
  8
0
  6
CONTINUOUS
 62
     7
 10
156.6850079902
 20
52.0299240879
 30
0.0
 11
156.6850079902
 21
37.4602342313
 31
0.0
  0
LINE
  5
89
  8
0
  6
CONTINUOUS
 62
     7
 10
56.6850079902
 20
38.4602342313
 30
0.0
 11
156.6850079902
 21
38.4602342313
 31
0.0
  0
TEXT
  5
8A
  8
0
  6
CONTINUOUS
 62
     7
 10
93.9626484861
 20
40.57979437
 30
0.0
 40
6.0
  1
100
 41
0.7
 11
93.9626484861
 21
38.4602339984
 31
0.0
 73
     1
  0
TEXT
  5
8B
  8
0
  6
CONTINUOUS
 62
     7
 10
105.3376491864
 20
40.57979437
 30
0.0
 40
6.0
  1
mm
 41
0.7
 11
105.3376491864
 21
38.4602339984
 31
0.0
 73
     1
  0
ENDBLK
  5
84
  8
0
  0
ENDSEC
  0
SECTION
  2
ENTITIES
  0
LINE
  5
73
  8
0
  6
CONTINUOUS
 62
     7
 10
56.6850079902
 20
152.0299240879
 30
0.0
 11
56.6850079902
 21
52.0299240879
 31
0.0
  0
LINE
  5
74
  8
0
  6
CONTINUOUS
 62
     7
 10
56.6850079902
 20
52.0299240879
 30
0.0
 11
156.6850079902
 21
52.0299240879
 31
0.0
  0
DIMENSION
  5
75
  8
0
  6
CONTINUOUS
 62
     7
  2
_D
 10
42.7614395004
 20
52.0299240879
 30
0.0
 11
42.7614395004
 21
105.4472211621
 31
0.0
 70
   160
  1
<>mm
  3
SLDDIMSTYLE0
 13
56.6850079902
 23
152.0299240879
 33
0.0
 14
56.6850079902
 24
52.0299240879
 34
0.0
 50
90.0
  0
DIMENSION
  5
81
  8
0
  6
CONTINUOUS
 62
     7
  2
_D_1
 10
156.6850079902
 20
38.4602342313
 30
0.0
 11
105.0418155019
 21
38.4602342313
 31
0.0
 70
   160
  1
<>mm
  3
SLDDIMSTYLE0
 13
56.6850079902
 23
52.0299240879
 33
0.0
 14
156.6850079902
 24
52.0299240879
 34
0.0
  0
TEXT
  5
8C
  8
0
  6
CONTINUOUS
 62
     7
 10
412.8252631579
 20
39.0761681714
 30
0.0
 40
10.0
  1
KLUDI GmbH & Co KG
 41
0.6222222222
 11
412.8252631579
 21
35.5435675522
 31
0.0
 73
     1
  0
TEXT
  5
8D
  8
0
  6
CONTINUOUS
 62
     7
 10
210.0873490389
 20
39.0761681714
 30
0.0
 40
10.0
  1
38 998 05 76
 41
0.6125
 11
210.0873490389
 21
35.5435675522
 31
0.0
 73
     1
  0
ARC
  5
8E
  8
0
  6
CONTINUOUS
 62
     7
 10
364.644955998
 20
374.5007272604
 30
0.0
 40
0.5
 50
270.0
 51
0.0
  0
ARC
  5
8F
  8
0
  6
CONTINUOUS
 62
     7
 10
364.644955998
 20
428.5007272604
 30
0.0
 40
0.5
 50
0.0
 51
90.0
  0
LINE
  5
90
  8
0
  6
CONTINUOUS
 62
     7
 10
361.1449562141
 20
374.0007274094
 30
0.0
 11
364.6449558565
 21
374.0007274094
 31
0.0
  0
LINE
  5
91
  8
0
  6
CONTINUOUS
 62
     7
 10
364.6449558565
 20
429.0007271113
 30
0.0
 11
361.1449562141
 21
429.0007271113
 31
0.0
  0
LINE
  5
92
  8
0
  6
CONTINUOUS
 62
     7
 10
425.2042425924
 20
532.9412326458
 30
0.0
 11
389.5042417699
 21
532.9412326458
 31
0.0
  0
LINE
  5
93
  8
0
  6
CONTINUOUS
 62
     7
 10
418.5001282149
 20
498.9412382486
 30
0.0
 11
425.2042425924
 21
498.9412382486
 31
0.0
  0
LINE
  5
94
  8
0
  6
CONTINUOUS
 62
     7
 10
389.5042417699
 20
498.9412382486
 30
0.0
 11
389.9342743808
 21
498.9412382486
 31
0.0
  0
ARC
  5
95
  8
0
  6
CONTINUOUS
 62
     7
 10
425.2042406193
 20
499.9412397477
 30
0.0
 40
1.0
 50
270.0
 51
360.0
  0
ARC
  5
96
  8
0
  6
CONTINUOUS
 62
     7
 10
425.2042406193
 20
531.9412397477
 30
0.0
 40
1.0
 50
0.0
 51
90.0
  0
ARC
  5
97
  8
0
  6
CONTINUOUS
 62
     7
 10
389.5042406193
 20
532.6412397477
 30
0.0
 40
0.2999999999999545
 50
90.0
 51
180.0
  0
ARC
  5
98
  8
0
  6
CONTINUOUS
 62
     7
 10
389.5042406193
 20
499.2412397477
 30
0.0
 40
0.2999999999999545
 50
180.0
 51
270.0
  0
LINE
  5
99
  8
0
  6
CONTINUOUS
 62
     7
 10
385.2042397612
 20
532.9412326458
 30
0.0
 11
380.2042408043
 21
532.9412326458
 31
0.0
  0
LINE
  5
9A
  8
0
  6
CONTINUOUS
 62
     7
 10
380.2042408043
 20
498.9412382486
 30
0.0
 11
385.2042397612
 21
498.9412382486
 31
0.0
  0
ARC
  5
9B
  8
0
  6
CONTINUOUS
 62
     7
 10
380.2042406193
 20
531.9412397477
 30
0.0
 40
1.000000000000114
 50
90.0
 51
180.0
  0
ARC
  5
9C
  8
0
  6
CONTINUOUS
 62
     7
 10
380.2042406193
 20
499.9412397477
 30
0.0
 40
1.0
 50
180.0
 51
270.0
  0
LINE
  5
9D
  8
0
  6
CONTINUOUS
 62
     7
 10
389.2042404169
 20
530.9412434938
 30
0.0
 11
385.2042397612
 21
530.9412434938
 31
0.0
  0
LINE
  5
9E
  8
0
  6
CONTINUOUS
 62
     7
 10
385.2042397612
 20
500.9412423017
 30
0.0
 11
389.2042404169
 21
500.9412423017
 31
0.0
  0
ARC
  5
9F
  8
0
  6
CONTINUOUS
 62
     7
 10
389.9042417523
 20
498.6412375575
 30
0.0
 40
0.3000006911097357
 50
0.00058506
 51
90.0001264193
  0
ARC
  5
A0
  8
0
  6
CONTINUOUS
 62
     7
 10
418.5042365867
 20
498.6412449696
 30
0.0
 40
0.299993279034169
 50
89.9991694347
 51
180.0008305653
  0
LINE
  5
A1
  8
0
  6
CONTINUOUS
 62
     7
 10
390.2042424434
 20
498.6683160307
 30
0.0
 11
390.2042424434
 21
423.2590768727
 31
0.0
  0
LINE
  5
A2
  8
0
  6
CONTINUOUS
 62
     7
 10
418.2042433077
 20
424.0007281544
 30
0.0
 11
418.2042433077
 21
498.6444965246
 31
0.0
  0
POLYLINE
  5
A3
  8
0
  6
CONTINUOUS
 62
     7
 66
     1
 10
0.0
 20
0.0
 30
0.0
 70
   128
  0
VERTEX
  5
255
  8
0
  6
CONTINUOUS
 62
     7
 10
403.6569027358
 20
269.1777304056
 30
0.0
  0
VERTEX
  5
256
  8
0
  6
CONTINUOUS
 62
     7
 10
406.1920223885
 20
296.7803210261
 30
0.0
  0
VERTEX
  5
257
  8
0
  6
CONTINUOUS
 62
     7
 10
407.6236961537
 20
316.5007263663
 30
0.0
  0
SEQEND
  5
3AC
  8
0
  6
CONTINUOUS
 62
     7
  0
POLYLINE
  5
A4
  8
0
  6
CONTINUOUS
 62
     7
 66
     1
 10
0.0
 20
0.0
 30
0.0
 70
   128
  0
VERTEX
  5
258
  8
0
  6
CONTINUOUS
 62
     7
 10
396.6052970046
 20
377.8685845676
 30
0.0
  0
VERTEX
  5
259
  8
0
  6
CONTINUOUS
 62
     7
 10
395.9413347894
 20
357.0537038388
 30
0.0
  0
VERTEX
  5
25A
  8
0
  6
CONTINUOUS
 62
     7
 10
394.374172216
 20
327.3119509461
 30
0.0
  0
VERTEX
  5
25B
  8
0
  6
CONTINUOUS
 62
     7
 10
392.2232939058
 20
297.7319985869
 30
0.0
  0
VERTEX
  5
25C
  8
0
  6
CONTINUOUS
 62
     7
 10
389.596997773
 20
269.1811427715
 30
0.0
  0
SEQEND
  5
3AD
  8
0
  6
CONTINUOUS
 62
     7
  0
ARC
  5
A5
  8
0
  6
CONTINUOUS
 62
     7
 10
379.869955998
 20
379.1007272604
 30
0.0
 40
14.8749999999838
 50
188.0554373938
 51
208.0724869359
  0
ARC
  5
A6
  8
0
  6
CONTINUOUS
 62
     7
 10
376.4199559981
 20
379.1007272604
 30
0.0
 40
14.87499999998374
 50
331.9275130641
 51
359.9433067043
  0
LINE
  5
A7
  8
0
  6
CONTINUOUS
 62
     7
 10
419.1449536138
 20
388.5007269921
 30
0.0
 11
419.9019922071
 21
388.5007269921
 31
0.0
  0
LINE
  5
A8
  8
0
  6
CONTINUOUS
 62
     7
 10
419.9019922071
 20
414.5007275286
 30
0.0
 11
419.1449536138
 21
414.5007275286
 31
0.0
  0
ARC
  5
A9
  8
0
  6
CONTINUOUS
 62
     7
 10
419.9019946545
 20
389.0007272604
 30
0.0
 40
0.5
 50
270.0
 51
353.1970356227
  0
ARC
  5
AA
  8
0
  6
CONTINUOUS
 62
     7
 10
419.9019946545
 20
414.0007272604
 30
0.0
 40
0.5
 50
6.8029643773
 51
90.0
  0
ARC
  5
AB
  8
0
  6
CONTINUOUS
 62
     7
 10
315.119955998
 20
401.5007272604
 30
0.0
 40
106.0250000000002
 50
353.197035623
 51
0.0
  0
ARC
  5
AC
  8
0
  6
CONTINUOUS
 62
     7
 10
315.119955998
 20
401.5007272604
 30
0.0
 40
106.0250000000002
 50
0.0
 51
6.802964377
  0
LINE
  5
AD
  8
0
  6
CONTINUOUS
 62
     7
 10
385.6449565047
 20
359.1007285061
 30
0.0
 11
385.6449565047
 21
372.1007269117
 31
0.0
  0
LINE
  5
AE
  8
0
  6
CONTINUOUS
 62
     7
 10
370.6449559086
 20
372.1007269117
 30
0.0
 11
370.6449559086
 21
359.1007285061
 31
0.0
  0
POLYLINE
  5
AF
  8
0
  6
CONTINUOUS
 62
     7
 66
     1
 10
0.0
 20
0.0
 30
0.0
 70
   128
  0
VERTEX
  5
25D
  8
0
  6
CONTINUOUS
 62
     7
 10
371.5074779594
 20
359.098482156
 30
0.0
  0
VERTEX
  5
25E
  8
0
  6
CONTINUOUS
 62
     7
 10
371.9933340454
 20
340.5638851466
 30
0.0
  0
VERTEX
  5
25F
  8
0
  6
CONTINUOUS
 62
     7
 10
372.7636309468
 20
321.9753310325
 30
0.0
  0
VERTEX
  5
260
  8
0
  6
CONTINUOUS
 62
     7
 10
373.7915763759
 20
304.0252954009
 30
0.0
  0
VERTEX
  5
261
  8
0
  6
CONTINUOUS
 62
     7
 10
375.0687735283
 20
286.7054075244
 30
0.0
  0
VERTEX
  5
262
  8
0
  6
CONTINUOUS
 62
     7
 10
376.5868460887
 20
270.0072929504
 30
0.0
  0
VERTEX
  5
263
  8
0
  6
CONTINUOUS
 62
     7
 10
378.1011933589
 20
256.0933038833
 30
0.0
  0
SEQEND
  5
3AE
  8
0
  6
CONTINUOUS
 62
     7
  0
LINE
  5
B0
  8
0
  6
CONTINUOUS
 62
     7
 10
360.1449560502
 20
441.5007263663
 30
0.0
 11
354.144955998
 21
441.5007263663
 31
0.0
  0
LINE
  5
B1
  8
0
  6
CONTINUOUS
 62
     7
 10
354.144955998
 20
361.5007281544
 30
0.0
 11
360.1449560502
 21
361.5007281544
 31
0.0
  0
ARC
  5
B2
  8
0
  6
CONTINUOUS
 62
     7
 10
360.144955998
 20
440.5007272604
 30
0.0
 40
1.0
 50
0.0
 51
90.0
  0
ARC
  5
B3
  8
0
  6
CONTINUOUS
 62
     7
 10
360.144955998
 20
362.5007272604
 30
0.0
 40
1.0
 50
270.0
 51
0.0
  0
ARC
  5
B4
  8
0
  6
CONTINUOUS
 62
     7
 10
386.8665383214
 20
401.4877158979
 30
0.0
 40
22.00000000000002
 50
272.7443153111
 51
278.5700796111
  0
ARC
  5
B5
  8
0
  6
CONTINUOUS
 62
     7
 10
386.8665383214
 20
401.5137386229
 30
0.0
 40
21.99999999999998
 50
71.5586679859
 51
87.2556846889
  0
LINE
  5
B6
  8
0
  6
CONTINUOUS
 62
     7
 10
361.1449562141
 20
378.9507273825
 30
0.0
 11
386.8259480351
 21
378.9507273825
 31
0.0
  0
LINE
  5
B7
  8
0
  6
CONTINUOUS
 62
     7
 10
386.8259480351
 20
424.0507271382
 30
0.0
 11
361.1449562141
 21
424.0507271382
 31
0.0
  0
ARC
  5
B8
  8
0
  6
CONTINUOUS
 62
     7
 10
386.8259476192
 20
379.6507272604
 30
0.0
 40
0.7000000000000247
 50
270.0
 51
319.0
  0
ARC
  5
B9
  8
0
  6
CONTINUOUS
 62
     7
 10
386.8259476192
 20
423.3507272604
 30
0.0
 40
0.7000000000000247
 50
41.0
 51
90.0
  0
LINE
  5
BA
  8
0
  6
CONTINUOUS
 62
     7
 10
416.0762196535
 20
379.0007263663
 30
0.0
 11
418.6049578839
 21
379.0007263663
 31
0.0
  0
LINE
  5
BB
  8
0
  6
CONTINUOUS
 62
     7
 10
402.4079842621
 20
379.0007263663
 30
0.0
 11
403.2213082665
 21
379.0007263663
 31
0.0
  0
LINE
  5
BC
  8
0
  6
CONTINUOUS
 62
     7
 10
390.1449544483
 20
379.0007263663
 30
0.0
 11
394.4819262379
 21
379.0007263663
 31
0.0
  0
LINE
  5
BD
  8
0
  6
CONTINUOUS
 62
     7
 10
418.6049578839
 20
424.0007281544
 30
0.0
 11
394.1087862605
 21
424.0007281544
 31
0.0
  0
ARC
  5
BE
  8
0
  6
CONTINUOUS
 62
     7
 10
418.604955998
 20
423.4607272604
 30
0.0
 40
0.5400000000000205
 50
0.0
 51
90.0
  0
ARC
  5
BF
  8
0
  6
CONTINUOUS
 62
     7
 10
418.604955998
 20
379.5407272604
 30
0.0
 40
0.5400000000000205
 50
270.0
 51
0.0
  0
LINE
  5
C0
  8
0
  6
CONTINUOUS
 62
     7
 10
387.3542426282
 20
379.191485444
 30
0.0
 11
387.4250939244
 21
379.2729910704
 31
0.0
  0
LINE
  5
C1
  8
0
  6
CONTINUOUS
 62
     7
 10
387.4250939244
 20
423.7284634503
 30
0.0
 11
387.3542426282
 21
423.8099690768
 31
0.0
  0
ARC
  5
C2
  8
0
  6
CONTINUOUS
 62
     7
 10
387.9533922117
 20
378.8137495792
 30
0.0
 40
0.700000000000062
 50
92.7443153111
 51
139.0
  0
ARC
  5
C3
  8
0
  6
CONTINUOUS
 62
     7
 10
387.9533922117
 20
424.1877049415
 30
0.0
 40
0.700000000000062
 50
221.0
 51
267.2556846889
  0
ARC
  5
C4
  8
0
  6
CONTINUOUS
 62
     7
 10
403.3005869632
 20
377.6202454757
 30
0.0
 40
1.329475260728102
 50
355.8861418844
 51
79.5385511248
  0
ARC
  5
C5
  8
0
  6
CONTINUOUS
 62
     7
 10
416.0839770695
 20
377.5467506793
 30
0.0
 40
1.433318226709556
 50
103.4219782811
 51
181.4955612098
  0
ARC
  5
C6
  8
0
  6
CONTINUOUS
 62
     7
 10
414.144955998
 20
317.0007272604
 30
0.0
 40
0.5
 50
270.0
 51
0.0
  0
ARC
  5
C7
  8
0
  6
CONTINUOUS
 62
     7
 10
405.144955998
 20
317.0007272604
 30
0.0
 40
0.5
 50
180.0
 51
270.0
  0
LINE
  5
C8
  8
0
  6
CONTINUOUS
 62
     7
 10
404.6449577564
 20
377.5211472305
 30
0.0
 11
404.6449577564
 21
317.0007273796
 31
0.0
  0
LINE
  5
C9
  8
0
  6
CONTINUOUS
 62
     7
 10
414.6449556702
 20
317.0007273796
 30
0.0
 11
414.6449556702
 21
377.5190126392
 31
0.0
  0
LINE
  5
CA
  8
0
  6
CONTINUOUS
 62
     7
 10
394.444956457
 20
378.6007270458
 30
0.0
 11
394.6635378653
 21
378.0001804473
 31
0.0
  0
LINE
  5
CB
  8
0
  6
CONTINUOUS
 62
     7
 10
402.22637636
 20
378.0001804473
 30
0.0
 11
402.4449577683
 21
378.6007270458
 31
0.0
  0
LINE
  5
CC
  8
0
  6
CONTINUOUS
 62
     7
 10
394.444956457
 20
379.0071524921
 30
0.0
 11
394.444956457
 21
378.6007270458
 31
0.0
  0
LINE
  5
CD
  8
0
  6
CONTINUOUS
 62
     7
 10
402.4449577683
 20
378.6007270458
 30
0.0
 11
402.4449577683
 21
379.0071524921
 31
0.0
  0
ARC
  5
CE
  8
0
  6
CONTINUOUS
 62
     7
 10
402.038436107
 20
378.0685839191
 30
0.0
 40
0.2000000000000019
 50
270.0
 51
340.0
  0
ARC
  5
CF
  8
0
  6
CONTINUOUS
 62
     7
 10
394.8514758891
 20
378.0685839191
 30
0.0
 40
0.2000000000000019
 50
200.0
 51
270.0
  0
LINE
  5
D0
  8
0
  6
CONTINUOUS
 62
     7
 10
394.8514750355
 20
377.8685845676
 30
0.0
 11
402.0384354645
 21
377.8685845676
 31
0.0
  0
LINE
  5
D1
  8
0
  6
CONTINUOUS
 62
     7
 10
365.1449559384
 20
374.50072656
 30
0.0
 11
365.1449559384
 21
378.9507273825
 31
0.0
  0
LINE
  5
D2
  8
0
  6
CONTINUOUS
 62
     7
 10
365.1449559384
 20
424.0507271382
 30
0.0
 11
365.1449559384
 21
428.5007279607
 31
0.0
  0
LINE
  5
D3
  8
0
  6
CONTINUOUS
 62
     7
 10
426.2042371684
 20
531.9412455204
 30
0.0
 11
426.2042371684
 21
499.9412402751
 31
0.0
  0
LINE
  5
D4
  8
0
  6
CONTINUOUS
 62
     7
 10
389.2042404169
 20
532.6412424686
 30
0.0
 11
389.2042404169
 21
499.2412433269
 31
0.0
  0
LINE
  5
D5
  8
0
  6
CONTINUOUS
 62
     7
 10
385.2042397612
 20
532.9412326458
 30
0.0
 11
385.2042397612
 21
498.9412382486
 31
0.0
  0
LINE
  5
D6
  8
0
  6
CONTINUOUS
 62
     7
 10
379.2042406404
 20
499.9412402751
 30
0.0
 11
379.2042406404
 21
531.9412455204
 31
0.0
  0
LINE
  5
D7
  8
0
  6
CONTINUOUS
 62
     7
 10
403.6474963778
 20
269.178505266
 30
0.0
 11
395.2075233811
 21
269.178505266
 31
0.0
  0
LINE
  5
D8
  8
0
  6
CONTINUOUS
 62
     7
 10
395.2075233811
 20
269.178505266
 30
0.0
 11
389.6063333505
 21
269.178505266
 31
0.0
  0
POLYLINE
  5
D9
  8
0
  6
CONTINUOUS
 62
     7
 66
     1
 10
0.0
 20
0.0
 30
0.0
 70
   128
  0
VERTEX
  5
264
  8
0
  6
CONTINUOUS
 62
     7
 10
371.3405029976
 20
378.9507273825
 30
0.0
  0
VERTEX
  5
265
  8
0
  6
CONTINUOUS
 62
     7
 10
371.2268667423
 20
377.0606957617
 30
0.0
  0
VERTEX
  5
266
  8
0
  6
CONTINUOUS
 62
     7
 10
370.6902461254
 20
374.8968143257
 30
0.0
  0
VERTEX
  5
267
  8
0
  6
CONTINUOUS
 62
     7
 10
369.837396791
 20
373.2828565183
 30
0.0
  0
VERTEX
  5
268
  8
0
  6
CONTINUOUS
 62
     7
 10
368.8168898353
 20
372.4274330082
 30
0.0
  0
VERTEX
  5
269
  8
0
  6
CONTINUOUS
 62
     7
 10
367.7845709154
 20
372.3460931572
 30
0.0
  0
VERTEX
  5
26A
  8
0
  6
CONTINUOUS
 62
     7
 10
366.8331513309
 20
372.9391500595
 30
0.0
  0
VERTEX
  5
26B
  8
0
  6
CONTINUOUS
 62
     7
 10
366.0106286534
 20
374.1309914979
 30
0.0
  0
VERTEX
  5
26C
  8
0
  6
CONTINUOUS
 62
     7
 10
365.3809009248
 20
375.8712012562
 30
0.0
  0
VERTEX
  5
26D
  8
0
  6
CONTINUOUS
 62
     7
 10
365.2150165418
 20
376.6341537478
 30
0.0
  0
VERTEX
  5
26E
  8
0
  6
CONTINUOUS
 62
     7
 10
365.1449559384
 20
377.0573485884
 30
0.0
  0
SEQEND
  5
3AF
  8
0
  6
CONTINUOUS
 62
     7
  0
LINE
  5
DA
  8
0
  6
CONTINUOUS
 62
     7
 10
389.5449554676
 20
372.1007269117
 30
0.0
 11
366.7449560144
 21
372.1007269117
 31
0.0
  0
POLYLINE
  5
DB
  8
0
  6
CONTINUOUS
 62
     7
 66
     1
 10
0.0
 20
0.0
 30
0.0
 70
   128
  0
VERTEX
  5
26F
  8
0
  6
CONTINUOUS
 62
     7
 10
391.280445283
 20
379.096576223
 30
0.0
  0
VERTEX
  5
270
  8
0
  6
CONTINUOUS
 62
     7
 10
391.2920160347
 20
378.9323766025
 30
0.0
  0
VERTEX
  5
271
  8
0
  6
CONTINUOUS
 62
     7
 10
391.0620091611
 20
376.564917365
 30
0.0
  0
VERTEX
  5
272
  8
0
  6
CONTINUOUS
 62
     7
 10
390.4479844624
 20
374.4938515368
 30
0.0
  0
VERTEX
  5
273
  8
0
  6
CONTINUOUS
 62
     7
 10
389.5449815446
 20
373.0314869674
 30
0.0
  0
VERTEX
  5
274
  8
0
  6
CONTINUOUS
 62
     7
 10
388.510267263
 20
372.3474473002
 30
0.0
  0
VERTEX
  5
275
  8
0
  6
CONTINUOUS
 62
     7
 10
387.4900145584
 20
372.420148203
 30
0.0
  0
VERTEX
  5
276
  8
0
  6
CONTINUOUS
 62
     7
 10
386.5624433511
 20
373.1463339421
 30
0.0
  0
VERTEX
  5
277
  8
0
  6
CONTINUOUS
 62
     7
 10
385.7747679704
 20
374.461022416
 30
0.0
  0
VERTEX
  5
278
  8
0
  6
CONTINUOUS
 62
     7
 10
385.1979700976
 20
376.3080138954
 30
0.0
  0
VERTEX
  5
279
  8
0
  6
CONTINUOUS
 62
     7
 10
385.1336008066
 20
376.6341537478
 30
0.0
  0
VERTEX
  5
27A
  8
0
  6
CONTINUOUS
 62
     7
 10
384.9197672808
 20
378.9507273825
 30
0.0
  0
SEQEND
  5
3B0
  8
0
  6
CONTINUOUS
 62
     7
  0
POLYLINE
  5
DC
  8
0
  6
CONTINUOUS
 62
     7
 66
     1
 10
0.0
 20
0.0
 30
0.0
 70
   128
  0
VERTEX
  5
27B
  8
0
  6
CONTINUOUS
 62
     7
 10
384.4872927421
 20
378.9507273825
 30
0.0
  0
VERTEX
  5
27C
  8
0
  6
CONTINUOUS
 62
     7
 10
384.1417199129
 20
376.7912660035
 30
0.0
  0
VERTEX
  5
27D
  8
0
  6
CONTINUOUS
 62
     7
 10
382.9838158691
 20
374.6756512913
 30
0.0
  0
VERTEX
  5
27E
  8
0
  6
CONTINUOUS
 62
     7
 10
381.2220776581
 20
373.1424913051
 30
0.0
  0
VERTEX
  5
27F
  8
0
  6
CONTINUOUS
 62
     7
 10
379.1638938838
 20
372.3797641935
 30
0.0
  0
VERTEX
  5
280
  8
0
  6
CONTINUOUS
 62
     7
 10
377.1113632375
 20
372.3823383691
 30
0.0
  0
VERTEX
  5
281
  8
0
  6
CONTINUOUS
 62
     7
 10
375.233822515
 20
373.0477255079
 30
0.0
  0
VERTEX
  5
282
  8
0
  6
CONTINUOUS
 62
     7
 10
373.6256705725
 20
374.3062086644
 30
0.0
  0
VERTEX
  5
283
  8
0
  6
CONTINUOUS
 62
     7
 10
372.4223142618
 20
376.1048123481
 30
0.0
  0
VERTEX
  5
284
  8
0
  6
CONTINUOUS
 62
     7
 10
372.203662073
 20
376.6341537478
 30
0.0
  0
VERTEX
  5
285
  8
0
  6
CONTINUOUS
 62
     7
 10
371.7759950214
 20
378.9507273825
 30
0.0
  0
SEQEND
  5
3B1
  8
0
  6
CONTINUOUS
 62
     7
  0
LINE
  5
DD
  8
0
  6
CONTINUOUS
 62
     7
 10
427.204239195
 20
517.7636027577
 30
0.0
 11
427.204239195
 21
514.1188830378
 31
0.0
  0
ARC
  5
DE
  8
0
  6
CONTINUOUS
 62
     7
 10
427.1279879047
 20
514.2250659582
 30
0.0
 40
0.1307251768587351
 50
259.5322571637
 51
305.6826027677
  0
LINE
  5
DF
  8
0
  6
CONTINUOUS
 62
     7
 10
427.1042375022
 20
514.0965163949
 30
0.0
 11
427.1042375022
 21
517.7859619501
 31
0.0
  0
ARC
  5
E0
  8
0
  6
CONTINUOUS
 62
     7
 10
427.1279825926
 20
517.6573532447
 30
0.0
 40
0.1307823703959496
 50
54.3325240831
 51
100.460746961
  0
LINE
  5
E1
  8
0
  6
CONTINUOUS
 62
     7
 10
427.1042375022
 20
517.7859619501
 30
0.0
 11
427.1042375022
 21
517.9412395003
 31
0.0
  0
ARC
  5
E2
  8
0
  6
CONTINUOUS
 62
     7
 10
427.1042406193
 20
517.8412397477
 30
0.0
 40
0.1000000000000796
 50
0.0
 51
90.0
  0
LINE
  5
E3
  8
0
  6
CONTINUOUS
 62
     7
 10
427.204239195
 20
517.8412378075
 30
0.0
 11
427.204239195
 21
517.7636027577
 31
0.0
  0
ARC
  5
E4
  8
0
  6
CONTINUOUS
 62
     7
 10
427.1042406193
 20
514.0412397477
 30
0.0
 40
0.1000000000000227
 50
270.0
 51
0.0
  0
LINE
  5
E5
  8
0
  6
CONTINUOUS
 62
     7
 10
427.1042375022
 20
513.9412388446
 30
0.0
 11
427.1042375022
 21
514.0965163949
 31
0.0
  0
LINE
  5
E6
  8
0
  6
CONTINUOUS
 62
     7
 10
427.204239195
 20
514.1188830378
 30
0.0
 11
427.204239195
 21
514.0412405374
 31
0.0
  0
LINE
  5
E7
  8
0
  6
CONTINUOUS
 62
     7
 10
426.2042371684
 20
517.9412395003
 30
0.0
 11
427.1042375022
 21
517.9412395003
 31
0.0
  0
LINE
  5
E8
  8
0
  6
CONTINUOUS
 62
     7
 10
427.1042375022
 20
513.9412388446
 30
0.0
 11
426.2042371684
 21
513.9412388446
 31
0.0
  0
LINE
  5
E9
  8
0
  6
CONTINUOUS
 62
     7
 10
385.6449565047
 20
359.1007285061
 30
0.0
 11
370.6449559086
 21
359.1007285061
 31
0.0
  0
POLYLINE
  5
EA
  8
0
  6
CONTINUOUS
 62
     7
 66
     1
 10
0.0
 20
0.0
 30
0.0
 70
   128
  0
VERTEX
  5
286
  8
0
  6
CONTINUOUS
 62
     7
 10
377.9890900606
 20
256.1007246616
 30
0.0
  0
VERTEX
  5
287
  8
0
  6
CONTINUOUS
 62
     7
 10
376.0083438956
 20
275.0021174791
 30
0.0
  0
VERTEX
  5
288
  8
0
  6
CONTINUOUS
 62
     7
 10
374.3467731529
 20
294.7395473959
 30
0.0
  0
VERTEX
  5
289
  8
0
  6
CONTINUOUS
 62
     7
 10
373.0175895744
 20
315.326306248
 30
0.0
  0
VERTEX
  5
28A
  8
0
  6
CONTINUOUS
 62
     7
 10
372.034053331
 20
336.7756262662
 30
0.0
  0
VERTEX
  5
28B
  8
0
  6
CONTINUOUS
 62
     7
 10
371.4094692969
 20
359.1007285061
 30
0.0
  0
SEQEND
  5
3B2
  8
0
  6
CONTINUOUS
 62
     7
  0
POLYLINE
  5
EB
  8
0
  6
CONTINUOUS
 62
     7
 66
     1
 10
0.0
 20
0.0
 30
0.0
 70
   128
  0
VERTEX
  5
28C
  8
0
  6
CONTINUOUS
 62
     7
 10
385.3975264483
 20
359.1007285061
 30
0.0
  0
VERTEX
  5
28D
  8
0
  6
CONTINUOUS
 62
     7
 10
386.0318912321
 20
336.700166786
 30
0.0
  0
VERTEX
  5
28E
  8
0
  6
CONTINUOUS
 62
     7
 10
387.0308688038
 20
315.2130574229
 30
0.0
  0
VERTEX
  5
28F
  8
0
  6
CONTINUOUS
 62
     7
 10
388.3798672014
 20
294.6262240651
 30
0.0
  0
VERTEX
  5
290
  8
0
  6
CONTINUOUS
 62
     7
 10
390.0642311328
 20
274.926494086
 30
0.0
  0
VERTEX
  5
291
  8
0
  6
CONTINUOUS
 62
     7
 10
390.0971030944
 20
274.6178612354
 30
0.0
  0
SEQEND
  5
3B3
  8
0
  6
CONTINUOUS
 62
     7
  0
LINE
  5
EC
  8
0
  6
CONTINUOUS
 62
     7
 10
390.6764192635
 20
269.178505266
 30
0.0
 11
392.0692606026
 21
256.1007246616
 31
0.0
  0
LINE
  5
ED
  8
0
  6
CONTINUOUS
 62
     7
 10
392.0692606026
 20
256.1007246616
 30
0.0
 11
378.1700702512
 21
256.1007246616
 31
0.0
  0
LINE
  5
EE
  8
0
  6
CONTINUOUS
 62
     7
 10
354.144955998
 20
401.5007272604
 30
0.0
 11
354.144955998
 21
361.5007281544
 31
0.0
  0
LINE
  5
EF
  8
0
  6
CONTINUOUS
 62
     7
 10
354.144955998
 20
441.5007263663
 30
0.0
 11
354.144955998
 21
401.5007272604
 31
0.0
  0
LINE
  5
F0
  8
0
  6
CONTINUOUS
 62
     7
 10
361.1449562141
 20
401.5007272604
 30
0.0
 11
361.1449562141
 21
362.5007264557
 31
0.0
  0
LINE
  5
F1
  8
0
  6
CONTINUOUS
 62
     7
 10
361.1449562141
 20
440.500728065
 30
0.0
 11
361.1449562141
 21
401.5007272604
 31
0.0
  0
ARC
  5
F2
  8
0
  6
CONTINUOUS
 62
     7
 10
440.1453919714
 20
397.1462533988
 30
0.0
 40
50.00043752306593
 50
170.000041095
 51
179.9999533559
  0
POLYLINE
  5
F3
  8
0
  6
CONTINUOUS
 62
     7
 66
     1
 10
0.0
 20
0.0
 30
0.0
 70
   128
  0
VERTEX
  5
292
  8
0
  6
CONTINUOUS
 62
     7
 10
394.1087862605
 20
424.0007281544
 30
0.0
  0
VERTEX
  5
293
  8
0
  6
CONTINUOUS
 62
     7
 10
394.0777322405
 20
423.8246038797
 30
0.0
  0
VERTEX
  5
294
  8
0
  6
CONTINUOUS
 62
     7
 10
393.9850507432
 20
423.2989914956
 30
0.0
  0
VERTEX
  5
295
  8
0
  6
CONTINUOUS
 62
     7
 10
393.832198357
 20
422.4321201685
 30
0.0
  0
VERTEX
  5
296
  8
0
  6
CONTINUOUS
 62
     7
 10
393.6215667182
 20
421.2375592681
 30
0.0
  0
VERTEX
  5
297
  8
0
  6
CONTINUOUS
 62
     7
 10
393.3564489835
 20
419.7340116146
 30
0.0
  0
VERTEX
  5
298
  8
0
  6
CONTINUOUS
 62
     7
 10
393.0410025769
 20
417.9450135919
 30
0.0
  0
VERTEX
  5
299
  8
0
  6
CONTINUOUS
 62
     7
 10
392.6801597827
 20
415.8985747265
 30
0.0
  0
VERTEX
  5
29A
  8
0
  6
CONTINUOUS
 62
     7
 10
392.2795718664
 20
413.6267315837
 30
0.0
  0
VERTEX
  5
29B
  8
0
  6
CONTINUOUS
 62
     7
 10
391.8455122167
 20
411.1650523039
 30
0.0
  0
VERTEX
  5
29C
  8
0
  6
CONTINUOUS
 62
     7
 10
391.3847720378
 20
408.5520731526
 30
0.0
  0
VERTEX
  5
29D
  8
0
  6
CONTINUOUS
 62
     7
 10
390.9045672172
 20
405.8287029395
 30
0.0
  0
SEQEND
  5
3B4
  8
0
  6
CONTINUOUS
 62
     7
  0
LINE
  5
F4
  8
0
  6
CONTINUOUS
 62
     7
 10
390.1449544483
 20
397.1462941038
 30
0.0
 11
390.1449544483
 21
379.0007263663
 31
0.0
  0
ARC
  5
F5
  8
0
  6
CONTINUOUS
 62
     7
 10
409.7529643671
 20
356.4550448668
 30
0.0
 40
23.38684068620279
 50
78.8150868248
 51
90.2646105474
  0
ARC
  5
F6
  8
0
  6
CONTINUOUS
 62
     7
 10
398.4875416167
 20
356.445475822
 30
0.0
 40
22.9145546377143
 50
91.6327729086
 51
100.067403603
  0
POLYLINE
  5
F7
  8
0
  6
CONTINUOUS
 62
     7
 66
     1
 10
0.0
 20
0.0
 30
0.0
 70
   128
  0
VERTEX
  5
29E
  8
0
  6
CONTINUOUS
 62
     7
 10
399.0552825981
 20
379.3507267031
 30
0.0
  0
VERTEX
  5
29F
  8
0
  6
CONTINUOUS
 62
     7
 10
400.3243027383
 20
379.2795233669
 30
0.0
  0
VERTEX
  5
2A0
  8
0
  6
CONTINUOUS
 62
     7
 10
401.3807838911
 20
379.1653488072
 30
0.0
  0
VERTEX
  5
2A1
  8
0
  6
CONTINUOUS
 62
     7
 10
402.1160295361
 20
379.0568683537
 30
0.0
  0
VERTEX
  5
2A2
  8
0
  6
CONTINUOUS
 62
     7
 10
402.4351826066
 20
379.0024623516
 30
0.0
  0
VERTEX
  5
2A3
  8
0
  6
CONTINUOUS
 62
     7
 10
402.4079842621
 20
379.0072102341
 30
0.0
  0
SEQEND
  5
3B5
  8
0
  6
CONTINUOUS
 62
     7
  0
LINE
  5
F8
  8
0
  6
CONTINUOUS
 62
     7
 10
419.1449536138
 20
401.5007272604
 30
0.0
 11
419.1449536138
 21
379.5407276841
 31
0.0
  0
LINE
  5
F9
  8
0
  6
CONTINUOUS
 62
     7
 10
419.1449536138
 20
423.4607268366
 30
0.0
 11
419.1449536138
 21
401.5007272604
 31
0.0
  0
LINE
  5
FA
  8
0
  6
CONTINUOUS
 62
     7
 10
414.1449546569
 20
316.5007263663
 30
0.0
 11
405.1449550444
 21
316.5007263663
 31
0.0
  0
LINE
  5
FB
  8
0
  6
CONTINUOUS
 62
     7
 10
398.4449571126
 20
378.6007270458
 30
0.0
 11
402.4449577683
 21
378.6007270458
 31
0.0
  0
LINE
  5
FC
  8
0
  6
CONTINUOUS
 62
     7
 10
394.444956457
 20
378.6007270458
 30
0.0
 11
398.4449571126
 21
378.6007270458
 31
0.0
  0
LINE
  5
FD
  8
0
  6
CONTINUOUS
 62
     7
 10
397.8346279019
 20
379.3507267031
 30
0.0
 11
399.0552825981
 21
379.3507267031
 31
0.0
  0
LINE
  5
FE
  8
0
  6
CONTINUOUS
 62
     8
 10
364.6449558565
 20
429.0007271113
 30
0.0
 11
364.6449558565
 21
424.0507271382
 31
0.0
  0
LINE
  5
FF
  8
0
  6
CONTINUOUS
 62
     8
 10
364.6449558565
 20
378.9507273825
 30
0.0
 11
364.6449558565
 21
374.0007274094
 31
0.0
  0
POLYLINE
  5
100
  8
0
  6
CONTINUOUS
 62
     8
 66
     1
 10
0.0
 20
0.0
 30
0.0
 70
   128
  0
VERTEX
  5
2A4
  8
0
  6
CONTINUOUS
 62
     8
 10
389.9342743808
 20
498.9656239989
 30
0.0
  0
VERTEX
  5
2A5
  8
0
  6
CONTINUOUS
 62
     8
 10
389.9209899956
 20
498.9548430088
 30
0.0
  0
VERTEX
  5
2A6
  8
0
  6
CONTINUOUS
 62
     8
 10
390.1546364778
 20
499.144050503
 30
0.0
  0
VERTEX
  5
2A7
  8
0
  6
CONTINUOUS
 62
     8
 10
391.2735646718
 20
500.0354454162
 30
0.0
  0
VERTEX
  5
2A8
  8
0
  6
CONTINUOUS
 62
     8
 10
392.4356615299
 20
500.9319663289
 30
0.0
  0
VERTEX
  5
2A9
  8
0
  6
CONTINUOUS
 62
     8
 10
393.9042268449
 20
502.0134479048
 30
0.0
  0
VERTEX
  5
2AA
  8
0
  6
CONTINUOUS
 62
     8
 10
395.5982690805
 20
503.171864176
 30
0.0
  0
VERTEX
  5
2AB
  8
0
  6
CONTINUOUS
 62
     8
 10
397.5452808791
 20
504.3499574306
 30
0.0
  0
VERTEX
  5
2AC
  8
0
  6
CONTINUOUS
 62
     8
 10
399.1754604631
 20
505.1727772
 30
0.0
  0
VERTEX
  5
2AD
  8
0
  6
CONTINUOUS
 62
     8
 10
400.9754760319
 20
505.8612033966
 30
0.0
  0
VERTEX
  5
2AE
  8
0
  6
CONTINUOUS
 62
     8
 10
403.8278265053
 20
506.3664049151
 30
0.0
  0
VERTEX
  5
2AF
  8
0
  6
CONTINUOUS
 62
     8
 10
405.1993591839
 20
506.3237130883
 30
0.0
  0
VERTEX
  5
2B0
  8
0
  6
CONTINUOUS
 62
     8
 10
406.8775428587
 20
506.0194686296
 30
0.0
  0
VERTEX
  5
2B1
  8
0
  6
CONTINUOUS
 62
     8
 10
408.5186002904
 20
505.4763287547
 30
0.0
  0
VERTEX
  5
2B2
  8
0
  6
CONTINUOUS
 62
     8
 10
410.6581797951
 20
504.4624835494
 30
0.0
  0
VERTEX
  5
2B3
  8
0
  6
CONTINUOUS
 62
     8
 10
412.6313468569
 20
503.2875791433
 30
0.0
  0
VERTEX
  5
2B4
  8
0
  6
CONTINUOUS
 62
     8
 10
414.4236100965
 20
502.0709291341
 30
0.0
  0
VERTEX
  5
2B5
  8
0
  6
CONTINUOUS
 62
     8
 10
415.997254675
 20
500.9134590867
 30
0.0
  0
VERTEX
  5
2B6
  8
0
  6
CONTINUOUS
 62
     8
 10
417.0279232913
 20
500.1193091514
 30
0.0
  0
VERTEX
  5
2B7
  8
0
  6
CONTINUOUS
 62
     8
 10
417.8345305973
 20
499.481047714
 30
0.0
  0
VERTEX
  5
2B8
  8
0
  6
CONTINUOUS
 62
     8
 10
418.3304114395
 20
499.08215853
 30
0.0
  0
VERTEX
  5
2B9
  8
0
  6
CONTINUOUS
 62
     8
 10
418.5001282149
 20
498.9445761087
 30
0.0
  0
SEQEND
  5
3B6
  8
0
  6
CONTINUOUS
 62
     8
  0
POLYLINE
  5
101
  8
0
  6
CONTINUOUS
 62
     8
 66
     1
 10
0.0
 20
0.0
 30
0.0
 70
   128
  0
VERTEX
  5
2BA
  8
0
  6
CONTINUOUS
 62
     8
 10
418.2003615552
 20
498.6445114257
 30
0.0
  0
VERTEX
  5
2BB
  8
0
  6
CONTINUOUS
 62
     8
 10
418.0473340803
 20
498.7734809759
 30
0.0
  0
VERTEX
  5
2BC
  8
0
  6
CONTINUOUS
 62
     8
 10
417.548577314
 20
499.1905719283
 30
0.0
  0
VERTEX
  5
2BD
  8
0
  6
CONTINUOUS
 62
     8
 10
416.783521896
 20
499.8200565817
 30
0.0
  0
VERTEX
  5
2BE
  8
0
  6
CONTINUOUS
 62
     8
 10
415.7498506957
 20
500.6482631209
 30
0.0
  0
VERTEX
  5
2BF
  8
0
  6
CONTINUOUS
 62
     8
 10
414.2512334639
 20
501.7950564864
 30
0.0
  0
VERTEX
  5
2C0
  8
0
  6
CONTINUOUS
 62
     8
 10
412.4545557552
 20
503.0642777922
 30
0.0
  0
VERTEX
  5
2C1
  8
0
  6
CONTINUOUS
 62
     8
 10
410.5758657807
 20
504.2298689725
 30
0.0
  0
VERTEX
  5
2C2
  8
0
  6
CONTINUOUS
 62
     8
 10
408.4280906373
 20
505.2916512134
 30
0.0
  0
VERTEX
  5
2C3
  8
0
  6
CONTINUOUS
 62
     8
 10
406.8748047703
 20
505.8298215511
 30
0.0
  0
VERTEX
  5
2C4
  8
0
  6
CONTINUOUS
 62
     8
 10
405.178482657
 20
506.1539888623
 30
0.0
  0
VERTEX
  5
2C5
  8
0
  6
CONTINUOUS
 62
     8
 10
403.8357241207
 20
506.1974406483
 30
0.0
  0
VERTEX
  5
2C6
  8
0
  6
CONTINUOUS
 62
     8
 10
401.0432129854
 20
505.6833207848
 30
0.0
  0
VERTEX
  5
2C7
  8
0
  6
CONTINUOUS
 62
     8
 10
399.3131956213
 20
504.9978152158
 30
0.0
  0
VERTEX
  5
2C8
  8
0
  6
CONTINUOUS
 62
     8
 10
397.6849792653
 20
504.1454017403
 30
0.0
  0
VERTEX
  5
2C9
  8
0
  6
CONTINUOUS
 62
     8
 10
395.8129948133
 20
502.9696181657
 30
0.0
  0
VERTEX
  5
2CA
  8
0
  6
CONTINUOUS
 62
     8
 10
394.1203123086
 20
501.7676607015
 30
0.0
  0
VERTEX
  5
2CB
  8
0
  6
CONTINUOUS
 62
     8
 10
392.7174797409
 20
500.6945684793
 30
0.0
  0
VERTEX
  5
2CC
  8
0
  6
CONTINUOUS
 62
     8
 10
391.5448365861
 20
499.7547522428
 30
0.0
  0
VERTEX
  5
2CD
  8
0
  6
CONTINUOUS
 62
     8
 10
390.4493814462
 20
498.8476366046
 30
0.0
  0
VERTEX
  5
2CE
  8
0
  6
CONTINUOUS
 62
     8
 10
390.2237666899
 20
498.6577213051
 30
0.0
  0
VERTEX
  5
2CF
  8
0
  6
CONTINUOUS
 62
     8
 10
390.2363209182
 20
498.6683085802
 30
0.0
  0
SEQEND
  5
3B7
  8
0
  6
CONTINUOUS
 62
     8
  0
LINE
  5
102
  8
0
  6
CONTINUOUS
 62
     8
 10
420.3984765464
 20
388.941499615
 30
0.0
 11
420.3984765464
 21
414.0599549058
 31
0.0
  0
LINE
  5
103
  8
0
  6
CONTINUOUS
 62
     8
 10
426.2042371684
 20
514.0965163949
 30
0.0
 11
427.1042375022
 21
514.0965163949
 31
0.0
  0
LINE
  5
104
  8
0
  6
CONTINUOUS
 62
     8
 10
427.1042375022
 20
517.7859619501
 30
0.0
 11
426.2042371684
 21
517.7859619501
 31
0.0
  0
LINE
  5
105
  8
0
  6
CONTINUOUS
 62
     8
 10
387.3542426282
 20
379.191485444
 30
0.0
 11
387.3542426282
 21
423.8099690768
 31
0.0
  0
ARC
  5
106
  8
0
  6
CONTINUOUS
 62
     8
 10
410.6327415963
 20
357.7962979664
 30
0.0
 40
21.90870427022014
 50
75.6134866223
 51
80.3919832647
  0
ARC
  5
107
  8
0
  6
CONTINUOUS
 62
     8
 10
409.7708869258
 20
353.3377490728
 30
0.0
 40
26.50418624245401
 50
90.2722323475
 51
104.3068507629
  0
LINE
  5
108
  8
0
  6
CONTINUOUS
 62
     8
 10
387.4250939244
 20
379.2729910704
 30
0.0
 11
387.4250939244
 21
423.7284634503
 31
0.0
  0
ARC
  5
109
  8
0
  6
CONTINUOUS
 62
     8
 10
409.785250242
 20
363.2398688478
 30
0.0
 40
15.15847724471879
 50
90.5302868961
 51
109.5889085529
  0
ARC
  5
10A
  8
0
  6
CONTINUOUS
 62
     8
 10
409.510223199
 20
363.271166988
 30
0.0
 40
15.12712990441435
 50
70.3662641863
 51
89.4896742576
  0
POLYLINE
  5
10B
  8
0
  6
CONTINUOUS
 62
     7
 66
     1
 10
0.0
 20
0.0
 30
0.0
 70
   128
  0
VERTEX
  5
2D0
  8
0
  6
CONTINUOUS
 62
     7
 10
253.6104837074
 20
506.3385620954
 30
0.0
  0
VERTEX
  5
2D1
  8
0
  6
CONTINUOUS
 62
     7
 10
253.611582668
 20
506.3409090283
 30
0.0
  0
VERTEX
  5
2D2
  8
0
  6
CONTINUOUS
 62
     7
 10
253.616747783
 20
506.3503265622
 30
0.0
  0
VERTEX
  5
2D3
  8
0
  6
CONTINUOUS
 62
     7
 10
253.6199357002
 20
506.355765486
 30
0.0
  0
VERTEX
  5
2D4
  8
0
  6
CONTINUOUS
 62
     7
 10
253.6227436377
 20
506.3603475931
 30
0.0
  0
VERTEX
  5
2D5
  8
0
  6
CONTINUOUS
 62
     7
 10
253.625319676
 20
506.3643858078
 30
0.0
  0
VERTEX
  5
2D6
  8
0
  6
CONTINUOUS
 62
     7
 10
253.6267585694
 20
506.3665762785
 30
0.0
  0
VERTEX
  5
2D7
  8
0
  6
CONTINUOUS
 62
     7
 10
253.6121498435
 20
506.3452974203
 30
0.0
  0
VERTEX
  5
2D8
  8
0
  6
CONTINUOUS
 62
     7
 10
253.4944474338
 20
506.1765641215
 30
0.0
  0
SEQEND
  5
3B8
  8
0
  6
CONTINUOUS
 62
     7
  0
LINE
  5
10C
  8
0
  6
CONTINUOUS
 62
     7
 10
253.6004608138
 20
506.3171491268
 30
0.0
 11
253.6104837074
 21
506.3385620954
 31
0.0
  0
ARC
  5
10D
  8
0
  6
CONTINUOUS
 62
     7
 10
253.839092438
 20
506.2020799255
 30
0.0
 40
0.2649263541872264
 50
154.256434137
 51
213.1124682455
  0
LINE
  5
10E
  8
0
  6
CONTINUOUS
 62
     7
 10
225.5785906329
 20
506.1855197194
 30
0.0
 11
225.5785906329
 21
421.7412390056
 31
0.0
  0
LINE
  5
10F
  8
0
  6
CONTINUOUS
 62
     7
 10
253.5785896345
 20
421.7412390056
 30
0.0
 11
253.5785896345
 21
506.204712415
 31
0.0
  0
ARC
  5
110
  8
0
  6
CONTINUOUS
 62
     7
 10
225.8785900826
 20
421.7412397477
 30
0.0
 40
0.3000000000000114
 50
180.0
 51
270.0
  0
ARC
  5
111
  8
0
  6
CONTINUOUS
 62
     7
 10
253.2785900826
 20
421.7412397477
 30
0.0
 40
0.3000000000000114
 50
270.0
 51
0.0
  0
LINE
  5
112
  8
0
  6
CONTINUOUS
 62
     7
 10
228.0785901113
 20
415.941239545
 30
0.0
 11
229.0079308315
 21
398.2083641233
 31
0.0
  0
LINE
  5
113
  8
0
  6
CONTINUOUS
 62
     7
 10
250.8764596297
 20
412.0843608173
 30
0.0
 11
251.078590156
 21
415.941239545
 31
0.0
  0
LINE
  5
114
  8
0
  6
CONTINUOUS
 62
     7
 10
249.5063565313
 20
385.9412392842
 30
0.0
 11
249.7278157263
 21
390.1669329273
 31
0.0
  0
POLYLINE
  5
115
  8
0
  6
CONTINUOUS
 62
     7
 66
     1
 10
0.0
 20
0.0
 30
0.0
 70
   128
  0
VERTEX
  5
2D9
  8
0
  6
CONTINUOUS
 62
     7
 10
250.0024739294
 20
415.9322988483
 30
0.0
  0
VERTEX
  5
2DA
  8
0
  6
CONTINUOUS
 62
     7
 10
250.0526941023
 20
416.0418791937
 30
0.0
  0
VERTEX
  5
2DB
  8
0
  6
CONTINUOUS
 62
     7
 10
250.0240950486
 20
416.2035307156
 30
0.0
  0
VERTEX
  5
2DC
  8
0
  6
CONTINUOUS
 62
     7
 10
249.9062892622
 20
416.317617731
 30
0.0
  0
SEQEND
  5
3B9
  8
0
  6
CONTINUOUS
 62
     7
  0
LINE
  5
116
  8
0
  6
CONTINUOUS
 62
     7
 10
229.1010900973
 20
421.4412395152
 30
0.0
 11
229.1010900973
 21
415.941239545
 31
0.0
  0
LINE
  5
117
  8
0
  6
CONTINUOUS
 62
     7
 10
250.05609017
 20
416.9877089801
 30
0.0
 11
250.05609017
 21
421.4412395152
 31
0.0
  0
POLYLINE
  5
118
  8
0
  6
CONTINUOUS
 62
     7
 66
     1
 10
0.0
 20
0.0
 30
0.0
 70
   128
  0
VERTEX
  5
2DD
  8
0
  6
CONTINUOUS
 62
     7
 10
249.9053020603
 20
416.3181243705
 30
0.0
  0
VERTEX
  5
2DE
  8
0
  6
CONTINUOUS
 62
     7
 10
249.4578262432
 20
416.5514253321
 30
0.0
  0
VERTEX
  5
2DF
  8
0
  6
CONTINUOUS
 62
     7
 10
249.0104198097
 20
416.7847253623
 30
0.0
  0
SEQEND
  5
3BA
  8
0
  6
CONTINUOUS
 62
     7
  0
LINE
  5
119
  8
0
  6
CONTINUOUS
 62
     7
 10
229.0906956061
 20
396.6291204336
 30
0.0
 11
229.6508237361
 21
385.9412392842
 31
0.0
  0
POLYLINE
  5
11A
  8
0
  6
CONTINUOUS
 62
     7
 66
     1
 10
0.0
 20
0.0
 30
0.0
 70
   128
  0
VERTEX
  5
2E0
  8
0
  6
CONTINUOUS
 62
     7
 10
249.0114908307
 20
416.7841749507
 30
0.0
  0
VERTEX
  5
2E1
  8
0
  6
CONTINUOUS
 62
     7
 10
248.9261029861
 20
416.8671967703
 30
0.0
  0
VERTEX
  5
2E2
  8
0
  6
CONTINUOUS
 62
     7
 10
248.8940901696
 20
416.9877089801
 30
0.0
  0
SEQEND
  5
3BB
  8
0
  6
CONTINUOUS
 62
     7
  0
ARC
  5
11B
  8
0
  6
CONTINUOUS
 62
     7
 10
229.4785900826
 20
397.4412397478
 30
0.0
 40
0.9000000000158562
 50
121.5306666459
 51
244.4693333585
  0
POLYLINE
  5
11C
  8
0
  6
CONTINUOUS
 62
     7
 66
     1
 10
0.0
 20
0.0
 30
0.0
 70
   128
  0
VERTEX
  5
2E3
  8
0
  6
CONTINUOUS
 62
     7
 10
232.3612331985
 20
385.9433571118
 30
0.0
  0
VERTEX
  5
2E4
  8
0
  6
CONTINUOUS
 62
     7
 10
231.7129479362
 20
357.0397041979
 30
0.0
  0
VERTEX
  5
2E5
  8
0
  6
CONTINUOUS
 62
     7
 10
230.6192213311
 20
327.2902921083
 30
0.0
  0
VERTEX
  5
2E6
  8
0
  6
CONTINUOUS
 62
     7
 10
229.1303848489
 20
297.7026805522
 30
0.0
  0
VERTEX
  5
2E7
  8
0
  6
CONTINUOUS
 62
     7
 10
227.3307567104
 20
269.1843763235
 30
0.0
  0
SEQEND
  5
3BC
  8
0
  6
CONTINUOUS
 62
     7
  0
POLYLINE
  5
11D
  8
0
  6
CONTINUOUS
 62
     7
 66
     1
 10
0.0
 20
0.0
 30
0.0
 70
   128
  0
VERTEX
  5
2E8
  8
0
  6
CONTINUOUS
 62
     7
 10
241.3067117906
 20
269.1734388711
 30
0.0
  0
VERTEX
  5
2E9
  8
0
  6
CONTINUOUS
 62
     7
 10
243.0526671398
 20
296.8082234504
 30
0.0
  0
VERTEX
  5
2EA
  8
0
  6
CONTINUOUS
 62
     7
 10
244.5537993791
 20
326.6045779231
 30
0.0
  0
VERTEX
  5
2EB
  8
0
  6
CONTINUOUS
 62
     7
 10
245.6568902
 20
356.5739013495
 30
0.0
  0
VERTEX
  5
2EC
  8
0
  6
CONTINUOUS
 62
     7
 10
246.316174149
 20
385.9393449741
 30
0.0
  0
SEQEND
  5
3BD
  8
0
  6
CONTINUOUS
 62
     7
  0
POLYLINE
  5
11E
  8
0
  6
CONTINUOUS
 62
     7
 66
     1
 10
0.0
 20
0.0
 30
0.0
 70
   128
  0
VERTEX
  5
2ED
  8
0
  6
CONTINUOUS
 62
     7
 10
249.9969390793
 20
256.1001286151
 30
0.0
  0
VERTEX
  5
2EE
  8
0
  6
CONTINUOUS
 62
     7
 10
250.0646816208
 20
270.6570878866
 30
0.0
  0
VERTEX
  5
2EF
  8
0
  6
CONTINUOUS
 62
     7
 10
250.1301196045
 20
287.2414395454
 30
0.0
  0
VERTEX
  5
2F0
  8
0
  6
CONTINUOUS
 62
     7
 10
250.1859910427
 20
304.4519603493
 30
0.0
  0
VERTEX
  5
2F1
  8
0
  6
CONTINUOUS
 62
     7
 10
250.2315941839
 20
322.2968086841
 30
0.0
  0
VERTEX
  5
2F2
  8
0
  6
CONTINUOUS
 62
     7
 10
250.2662258795
 20
340.7841392102
 30
0.0
  0
VERTEX
  5
2F3
  8
0
  6
CONTINUOUS
 62
     7
 10
250.2881981074
 20
359.1005906704
 30
0.0
  0
SEQEND
  5
3BE
  8
0
  6
CONTINUOUS
 62
     7
  0
LINE
  5
11F
  8
0
  6
CONTINUOUS
 62
     7
 10
236.0577419041
 20
269.178505266
 30
0.0
 11
235.9968855618
 21
256.1013356092
 31
0.0
  0
ARC
  5
120
  8
0
  6
CONTINUOUS
 62
     7
 10
245.0254689975
 20
379.1007272604
 30
0.0
 40
14.87499999998381
 50
206.9340976726
 51
208.0724869359
  0
ARC
  5
121
  8
0
  6
CONTINUOUS
 62
     7
 10
241.5754689976
 20
379.1007272604
 30
0.0
 40
14.87499999998382
 50
26.9337258646
 51
28.0724869359
  0
ARC
  5
122
  8
0
  6
CONTINUOUS
 62
     7
 10
241.5754689976
 20
379.1007272604
 30
0.0
 40
14.87499999998382
 50
331.9275130641
 51
333.0635301374
  0
POLYLINE
  5
123
  8
0
  6
CONTINUOUS
 62
     7
 66
     1
 10
0.0
 20
0.0
 30
0.0
 70
   128
  0
VERTEX
  5
2F4
  8
0
  6
CONTINUOUS
 62
     7
 10
252.4582765638
 20
386.8957340958
 30
0.0
  0
VERTEX
  5
2F5
  8
0
  6
CONTINUOUS
 62
     7
 10
252.99945973
 20
387.177948119
 30
0.0
  0
VERTEX
  5
2F6
  8
0
  6
CONTINUOUS
 62
     7
 10
253.5407481356
 20
387.4601621422
 30
0.0
  0
SEQEND
  5
3BF
  8
0
  6
CONTINUOUS
 62
     7
  0
LINE
  5
124
  8
0
  6
CONTINUOUS
 62
     7
 10
253.5504692807
 20
388.6404356229
 30
0.0
 11
253.5504692807
 21
393.4391059222
 31
0.0
  0
LINE
  5
125
  8
0
  6
CONTINUOUS
 62
     7
 10
253.5504692807
 20
387.4726418647
 30
0.0
 11
253.5504692807
 21
388.2508447635
 31
0.0
  0
POLYLINE
  5
126
  8
0
  6
CONTINUOUS
 62
     7
 66
     1
 10
0.0
 20
0.0
 30
0.0
 70
   128
  0
VERTEX
  5
2F7
  8
0
  6
CONTINUOUS
 62
     7
 10
253.5272616534
 20
388.3084908369
 30
0.0
  0
VERTEX
  5
2F8
  8
0
  6
CONTINUOUS
 62
     7
 10
253.5062798871
 20
388.3383853602
 30
0.0
  0
VERTEX
  5
2F9
  8
0
  6
CONTINUOUS
 62
     7
 10
253.4802494212
 20
388.5042911636
 30
0.0
  0
VERTEX
  5
2FA
  8
0
  6
CONTINUOUS
 62
     7
 10
253.52530867
 20
388.6147422957
 30
0.0
  0
SEQEND
  5
3C0
  8
0
  6
CONTINUOUS
 62
     7
  0
LINE
  5
127
  8
0
  6
CONTINUOUS
 62
     7
 10
252.3933158829
 20
386.8295459318
 30
0.0
 11
252.4654617174
 21
386.8994686993
 31
0.0
  0
ARC
  5
128
  8
0
  6
CONTINUOUS
 62
     7
 10
252.5811488332
 20
386.6414657938
 30
0.0
 40
0.2658107513192501
 50
134.9623242456
 51
244.3691471347
  0
LINE
  5
129
  8
0
  6
CONTINUOUS
 62
     7
 10
252.9389563589
 20
386.1552516239
 30
0.0
 11
252.4584218501
 21
386.4058351385
 31
0.0
  0
LINE
  5
12A
  8
0
  6
CONTINUOUS
 62
     7
 10
250.8004688299
 20
359.1007285061
 30
0.0
 11
250.8004688299
 21
372.1007269117
 31
0.0
  0
ARC
  5
12B
  8
0
  6
CONTINUOUS
 62
     7
 10
136.9772375901
 20
378.4796142876
 30
0.0
 40
1.341211623875499
 50
343.7417861413
 51
66.286382208
  0
ARC
  5
12C
  8
0
  6
CONTINUOUS
 62
     7
 10
149.7154885828
 20
378.4626777976
 30
0.0
 40
1.398140607806496
 50
119.1773108676
 51
183.4934276361
  0
LINE
  5
12D
  8
0
  6
CONTINUOUS
 62
     7
 10
138.3004722758
 20
378.3976968619
 30
0.0
 11
138.3004722758
 21
317.0007273796
 31
0.0
  0
LINE
  5
12E
  8
0
  6
CONTINUOUS
 62
     7
 10
148.3004701896
 20
317.0007273796
 30
0.0
 11
148.3004701896
 21
378.3802662286
 31
0.0
  0
ARC
  5
12F
  8
0
  6
CONTINUOUS
 62
     7
 10
147.8004689975
 20
317.0007272604
 30
0.0
 40
0.5
 50
270.0
 51
0.0
  0
ARC
  5
130
  8
0
  6
CONTINUOUS
 62
     7
 10
138.8004689975
 20
317.0007272604
 30
0.0
 40
0.5
 50
180.0
 51
270.0
  0
LINE
  5
131
  8
0
  6
CONTINUOUS
 62
     7
 10
247.4247676893
 20
517.8412378075
 30
0.0
 11
231.732412578
 21
517.8412378075
 31
0.0
  0
LINE
  5
132
  8
0
  6
CONTINUOUS
 62
     7
 10
231.732412578
 20
517.8412378075
 30
0.0
 11
231.732412578
 21
517.9412395003
 31
0.0
  0
LINE
  5
133
  8
0
  6
CONTINUOUS
 62
     7
 10
231.732412578
 20
517.9412395003
 30
0.0
 11
247.4247676893
 21
517.9412395003
 31
0.0
  0
LINE
  5
134
  8
0
  6
CONTINUOUS
 62
     7
 10
247.4247676893
 20
517.8412378075
 30
0.0
 11
247.4247676893
 21
517.9412395003
 31
0.0
  0
ARC
  5
135
  8
0
  6
CONTINUOUS
 62
     7
 10
231.7324126694
 20
517.7412397477
 30
0.0
 40
0.0999999999999899
 50
90.0
 51
167.079287171
  0
ARC
  5
136
  8
0
  6
CONTINUOUS
 62
     7
 10
247.4247674959
 20
517.7412397477
 30
0.0
 40
0.1000000000000408
 50
12.9207128291
 51
90.0
  0
ARC
  5
137
  8
0
  6
CONTINUOUS
 62
     7
 10
239.5785900826
 20
515.9412397477
 30
0.0
 40
8.150000000000048
 50
347.079287171
 51
12.920712829
  0
ARC
  5
138
  8
0
  6
CONTINUOUS
 62
     7
 10
247.4247674959
 20
514.1412397477
 30
0.0
 40
0.0999999999999391
 50
270.0
 51
347.0792871712
  0
LINE
  5
139
  8
0
  6
CONTINUOUS
 62
     7
 10
231.732412578
 20
514.0412405374
 30
0.0
 11
247.4247676893
 21
514.0412405374
 31
0.0
  0
ARC
  5
13A
  8
0
  6
CONTINUOUS
 62
     7
 10
231.7324126694
 20
514.1412397477
 30
0.0
 40
0.0999999999999391
 50
192.9207128288
 51
270.0
  0
ARC
  5
13B
  8
0
  6
CONTINUOUS
 62
     7
 10
239.5785900826
 20
515.9412397477
 30
0.0
 40
8.14999999999997
 50
167.079287171
 51
192.920712829
  0
ARC
  5
13C
  8
0
  6
CONTINUOUS
 62
     7
 10
239.5785900826
 20
515.9412397477
 30
0.0
 40
8.250000000000037
 50
347.079287171
 51
12.920712829
  0
POLYLINE
  5
13D
  8
0
  6
CONTINUOUS
 62
     7
 66
     1
 10
0.0
 20
0.0
 30
0.0
 70
   128
  0
VERTEX
  5
2FB
  8
0
  6
CONTINUOUS
 62
     7
 10
247.6197037487
 20
514.0965163949
 30
0.0
  0
VERTEX
  5
2FC
  8
0
  6
CONTINUOUS
 62
     7
 10
247.617830859
 20
514.0969485285
 30
0.0
  0
VERTEX
  5
2FD
  8
0
  6
CONTINUOUS
 62
     7
 10
247.6122843674
 20
514.0982225778
 30
0.0
  0
VERTEX
  5
2FE
  8
0
  6
CONTINUOUS
 62
     7
 10
247.6032770811
 20
514.1002863886
 30
0.0
  0
VERTEX
  5
2FF
  8
0
  6
CONTINUOUS
 62
     7
 10
247.5911559178
 20
514.1030654552
 30
0.0
  0
VERTEX
  5
300
  8
0
  6
CONTINUOUS
 62
     7
 10
247.5763860731
 20
514.1064554694
 30
0.0
  0
VERTEX
  5
301
  8
0
  6
CONTINUOUS
 62
     7
 10
247.5595347225
 20
514.1103223207
 30
0.0
  0
VERTEX
  5
302
  8
0
  6
CONTINUOUS
 62
     7
 10
247.541250532
 20
514.1145169976
 30
0.0
  0
VERTEX
  5
303
  8
0
  6
CONTINUOUS
 62
     7
 10
247.522235719
 20
514.1188830378
 30
0.0
  0
SEQEND
  5
3C1
  8
0
  6
CONTINUOUS
 62
     7
  0
POLYLINE
  5
13E
  8
0
  6
CONTINUOUS
 62
     7
 66
     1
 10
0.0
 20
0.0
 30
0.0
 70
   128
  0
VERTEX
  5
304
  8
0
  6
CONTINUOUS
 62
     7
 10
247.6197037487
 20
517.7859619501
 30
0.0
  0
VERTEX
  5
305
  8
0
  6
CONTINUOUS
 62
     7
 10
247.617830859
 20
517.7855298164
 30
0.0
  0
VERTEX
  5
306
  8
0
  6
CONTINUOUS
 62
     7
 10
247.6122843674
 20
517.7842557671
 30
0.0
  0
VERTEX
  5
307
  8
0
  6
CONTINUOUS
 62
     7
 10
247.6032770811
 20
517.7821919563
 30
0.0
  0
VERTEX
  5
308
  8
0
  6
CONTINUOUS
 62
     7
 10
247.5911559178
 20
517.7794128897
 30
0.0
  0
VERTEX
  5
309
  8
0
  6
CONTINUOUS
 62
     7
 10
247.5763860731
 20
517.7760228756
 30
0.0
  0
VERTEX
  5
30A
  8
0
  6
CONTINUOUS
 62
     7
 10
247.5595347225
 20
517.7721560242
 30
0.0
  0
VERTEX
  5
30B
  8
0
  6
CONTINUOUS
 62
     7
 10
247.541250532
 20
517.7679613473
 30
0.0
  0
VERTEX
  5
30C
  8
0
  6
CONTINUOUS
 62
     7
 10
247.522235719
 20
517.7636027577
 30
0.0
  0
SEQEND
  5
3C2
  8
0
  6
CONTINUOUS
 62
     7
  0
ARC
  5
13F
  8
0
  6
CONTINUOUS
 62
     7
 10
247.4247674959
 20
517.7412397477
 30
0.0
 40
0.2000000000000455
 50
12.920712829
 51
90.0
  0
ARC
  5
140
  8
0
  6
CONTINUOUS
 62
     7
 10
247.4247674959
 20
514.1412397477
 30
0.0
 40
0.1999999999999798
 50
270.0
 51
347.079287171
  0
LINE
  5
141
  8
0
  6
CONTINUOUS
 62
     7
 10
247.4247676893
 20
513.9412388446
 30
0.0
 11
247.4247676893
 21
514.0412405374
 31
0.0
  0
LINE
  5
142
  8
0
  6
CONTINUOUS
 62
     7
 10
247.4247676893
 20
513.9412388446
 30
0.0
 11
231.732412578
 21
513.9412388446
 31
0.0
  0
LINE
  5
143
  8
0
  6
CONTINUOUS
 62
     7
 10
231.732412578
 20
513.9412388446
 30
0.0
 11
231.732412578
 21
514.0412405374
 31
0.0
  0
POLYLINE
  5
144
  8
0
  6
CONTINUOUS
 62
     7
 66
     1
 10
0.0
 20
0.0
 30
0.0
 70
   128
  0
VERTEX
  5
30D
  8
0
  6
CONTINUOUS
 62
     7
 10
231.634945014
 20
517.7636027577
 30
0.0
  0
VERTEX
  5
30E
  8
0
  6
CONTINUOUS
 62
     7
 10
231.6159292697
 20
517.7679613473
 30
0.0
  0
VERTEX
  5
30F
  8
0
  6
CONTINUOUS
 62
     7
 10
231.5976455449
 20
517.7721560242
 30
0.0
  0
VERTEX
  5
310
  8
0
  6
CONTINUOUS
 62
     7
 10
231.5807941942
 20
517.7760228756
 30
0.0
  0
VERTEX
  5
311
  8
0
  6
CONTINUOUS
 62
     7
 10
231.5660243495
 20
517.7794128897
 30
0.0
  0
VERTEX
  5
312
  8
0
  6
CONTINUOUS
 62
     7
 10
231.5539031862
 20
517.7821919563
 30
0.0
  0
VERTEX
  5
313
  8
0
  6
CONTINUOUS
 62
     7
 10
231.5448954343
 20
517.7842557671
 30
0.0
  0
VERTEX
  5
314
  8
0
  6
CONTINUOUS
 62
     7
 10
231.5393494083
 20
517.7855298164
 30
0.0
  0
VERTEX
  5
315
  8
0
  6
CONTINUOUS
 62
     7
 10
231.5374765186
 20
517.7859619501
 30
0.0
  0
SEQEND
  5
3C3
  8
0
  6
CONTINUOUS
 62
     7
  0
ARC
  5
145
  8
0
  6
CONTINUOUS
 62
     7
 10
231.7324126694
 20
517.7412397477
 30
0.0
 40
0.2000000000000455
 50
90.0
 51
167.079287171
  0
POLYLINE
  5
146
  8
0
  6
CONTINUOUS
 62
     7
 66
     1
 10
0.0
 20
0.0
 30
0.0
 70
   128
  0
VERTEX
  5
316
  8
0
  6
CONTINUOUS
 62
     7
 10
231.634945014
 20
514.1188830378
 30
0.0
  0
VERTEX
  5
317
  8
0
  6
CONTINUOUS
 62
     7
 10
231.6159292697
 20
514.1145169976
 30
0.0
  0
VERTEX
  5
318
  8
0
  6
CONTINUOUS
 62
     7
 10
231.5976455449
 20
514.1103223207
 30
0.0
  0
VERTEX
  5
319
  8
0
  6
CONTINUOUS
 62
     7
 10
231.5807941942
 20
514.1064554694
 30
0.0
  0
VERTEX
  5
31A
  8
0
  6
CONTINUOUS
 62
     7
 10
231.5660243495
 20
514.1030654552
 30
0.0
  0
VERTEX
  5
31B
  8
0
  6
CONTINUOUS
 62
     7
 10
231.5539031862
 20
514.1002863886
 30
0.0
  0
VERTEX
  5
31C
  8
0
  6
CONTINUOUS
 62
     7
 10
231.5448954343
 20
514.0982225778
 30
0.0
  0
VERTEX
  5
31D
  8
0
  6
CONTINUOUS
 62
     7
 10
231.5393494083
 20
514.0969485285
 30
0.0
  0
VERTEX
  5
31E
  8
0
  6
CONTINUOUS
 62
     7
 10
231.5374765186
 20
514.0965163949
 30
0.0
  0
SEQEND
  5
3C4
  8
0
  6
CONTINUOUS
 62
     7
  0
ARC
  5
147
  8
0
  6
CONTINUOUS
 62
     7
 10
239.5785900826
 20
515.9412397477
 30
0.0
 40
8.250000000000012
 50
167.079287171
 51
192.920712829
  0
ARC
  5
148
  8
0
  6
CONTINUOUS
 62
     7
 10
231.7324126694
 20
514.1412397477
 30
0.0
 40
0.2000000000000076
 50
192.920712829
 51
270.0
  0
CIRCLE
  5
149
  8
0
  6
CONTINUOUS
 62
     7
 10
239.5785900826
 20
515.9412397477
 30
0.0
 40
15.99999999999994
  0
CIRCLE
  5
14A
  8
0
  6
CONTINUOUS
 62
     7
 10
239.5785900826
 20
515.9412397477
 30
0.0
 40
15.0
  0
CIRCLE
  5
14B
  8
0
  6
CONTINUOUS
 62
     7
 10
239.5785900826
 20
515.9412397477
 30
0.0
 40
16.99999999999994
  0
CIRCLE
  5
14C
  8
0
  6
CONTINUOUS
 62
     7
 10
239.5785900826
 20
515.9412397477
 30
0.0
 40
9.0
  0
LINE
  5
14D
  8
0
  6
CONTINUOUS
 62
     7
 10
243.4696743604
 20
526.6417071464
 30
0.0
 11
243.0869909314
 21
525.7178351524
 31
0.0
  0
LINE
  5
14E
  8
0
  6
CONTINUOUS
 62
     7
 10
243.0869909314
 20
525.7178351524
 30
0.0
 11
244.0108704488
 21
525.3351509812
 31
0.0
  0
LINE
  5
14F
  8
0
  6
CONTINUOUS
 62
     7
 10
244.0108704488
 20
525.3351509812
 30
0.0
 11
244.3935539215
 21
526.2590304258
 31
0.0
  0
LINE
  5
150
  8
0
  6
CONTINUOUS
 62
     7
 10
244.3935539215
 20
526.2590304258
 30
0.0
 11
243.4696743604
 21
526.6417071464
 31
0.0
  0
LINE
  5
151
  8
0
  6
CONTINUOUS
 62
     7
 10
245.4978133193
 20
524.4766578319
 30
0.0
 11
246.2911665081
 21
523.8679006937
 31
0.0
  0
LINE
  5
152
  8
0
  6
CONTINUOUS
 62
     7
 10
246.2911665081
 20
523.8679006937
 30
0.0
 11
246.8999280701
 21
524.6612534168
 31
0.0
  0
LINE
  5
153
  8
0
  6
CONTINUOUS
 62
     7
 10
246.8999280701
 20
524.6612534168
 30
0.0
 11
246.1065746485
 21
525.2700180056
 31
0.0
  0
LINE
  5
154
  8
0
  6
CONTINUOUS
 62
     7
 10
246.1065746485
 20
525.2700180056
 30
0.0
 11
245.4978133193
 21
524.4766578319
 31
0.0
  0
LINE
  5
155
  8
0
  6
CONTINUOUS
 62
     7
 10
247.5052502579
 20
522.6538136842
 30
0.0
 11
248.1140115871
 21
521.8604609611
 31
0.0
  0
LINE
  5
156
  8
0
  6
CONTINUOUS
 62
     7
 10
248.1140115871
 20
521.8604609611
 30
0.0
 11
248.9073652415
 21
522.4692255499
 31
0.0
  0
LINE
  5
157
  8
0
  6
CONTINUOUS
 62
     7
 10
248.9073652415
 20
522.4692255499
 30
0.0
 11
248.2986034467
 21
523.2625782731
 31
0.0
  0
LINE
  5
158
  8
0
  6
CONTINUOUS
 62
     7
 10
248.2986034467
 20
523.2625782731
 30
0.0
 11
247.5052502579
 21
522.6538136842
 31
0.0
  0
LINE
  5
159
  8
0
  6
CONTINUOUS
 62
     7
 10
248.9724986828
 20
520.3735187891
 30
0.0
 11
249.3551819226
 21
519.4496393445
 31
0.0
  0
LINE
  5
15A
  8
0
  6
CONTINUOUS
 62
     7
 10
249.3551819226
 20
519.4496393445
 30
0.0
 11
250.2790613672
 21
519.8323235157
 31
0.0
  0
LINE
  5
15B
  8
0
  6
CONTINUOUS
 62
     7
 10
250.2790613672
 20
519.8323235157
 30
0.0
 11
249.8963781274
 21
520.7562029603
 31
0.0
  0
LINE
  5
15C
  8
0
  6
CONTINUOUS
 62
     7
 10
249.8963781274
 20
520.7562029603
 30
0.0
 11
248.9724986828
 21
520.3735187891
 31
0.0
  0
LINE
  5
15D
  8
0
  6
CONTINUOUS
 62
     7
 10
249.7995676114
 20
517.7911699059
 30
0.0
 11
249.9300934016
 21
516.7997285965
 31
0.0
  0
LINE
  5
15E
  8
0
  6
CONTINUOUS
 62
     7
 10
249.9300934016
 20
516.7997285965
 30
0.0
 11
250.9215384363
 21
516.9302553179
 31
0.0
  0
LINE
  5
15F
  8
0
  6
CONTINUOUS
 62
     7
 10
250.9215384363
 20
516.9302553179
 30
0.0
 11
250.7910121805
 21
517.9216966274
 31
0.0
  0
LINE
  5
160
  8
0
  6
CONTINUOUS
 62
     7
 10
250.7910121805
 20
517.9216966274
 30
0.0
 11
249.7995676114
 21
517.7911699059
 31
0.0
  0
LINE
  5
161
  8
0
  6
CONTINUOUS
 62
     7
 10
249.9300934016
 20
515.0827497485
 30
0.0
 11
249.7995676114
 21
514.091308439
 31
0.0
  0
LINE
  5
162
  8
0
  6
CONTINUOUS
 62
     7
 10
249.7995676114
 20
514.091308439
 30
0.0
 11
250.7910121805
 21
513.9607817175
 31
0.0
  0
LINE
  5
163
  8
0
  6
CONTINUOUS
 62
     7
 10
250.7910121805
 20
513.9607817175
 30
0.0
 11
250.9215384363
 21
514.952223027
 31
0.0
  0
LINE
  5
164
  8
0
  6
CONTINUOUS
 62
     7
 10
250.9215384363
 20
514.952223027
 30
0.0
 11
249.9300934016
 21
515.0827497485
 31
0.0
  0
LINE
  5
165
  8
0
  6
CONTINUOUS
 62
     7
 10
249.3551819226
 20
512.4328390005
 30
0.0
 11
248.9724986828
 21
511.5089595559
 31
0.0
  0
LINE
  5
166
  8
0
  6
CONTINUOUS
 62
     7
 10
248.9724986828
 20
511.5089595559
 30
0.0
 11
249.8963781274
 21
511.1262753847
 31
0.0
  0
LINE
  5
167
  8
0
  6
CONTINUOUS
 62
     7
 10
249.8963781274
 20
511.1262753847
 30
0.0
 11
250.2790613672
 21
512.0501548293
 31
0.0
  0
LINE
  5
168
  8
0
  6
CONTINUOUS
 62
     7
 10
250.2790613672
 20
512.0501548293
 30
0.0
 11
249.3551819226
 21
512.4328390005
 31
0.0
  0
LINE
  5
169
  8
0
  6
CONTINUOUS
 62
     7
 10
248.1140115871
 20
510.0220173838
 30
0.0
 11
247.5052502579
 21
509.2286646607
 31
0.0
  0
LINE
  5
16A
  8
0
  6
CONTINUOUS
 62
     7
 10
247.5052502579
 20
509.2286646607
 30
0.0
 11
248.2986034467
 21
508.6199000719
 31
0.0
  0
LINE
  5
16B
  8
0
  6
CONTINUOUS
 62
     7
 10
248.2986034467
 20
508.6199000719
 30
0.0
 11
248.9073652415
 21
509.413252795
 31
0.0
  0
LINE
  5
16C
  8
0
  6
CONTINUOUS
 62
     7
 10
248.9073652415
 20
509.413252795
 30
0.0
 11
248.1140115871
 21
510.0220173838
 31
0.0
  0
LINE
  5
16D
  8
0
  6
CONTINUOUS
 62
     7
 10
246.2911665081
 20
508.0145776513
 30
0.0
 11
245.4978133193
 21
507.405820513
 31
0.0
  0
LINE
  5
16E
  8
0
  6
CONTINUOUS
 62
     7
 10
245.4978133193
 20
507.405820513
 30
0.0
 11
246.1065746485
 21
506.6124677899
 31
0.0
  0
LINE
  5
16F
  8
0
  6
CONTINUOUS
 62
     7
 10
246.1065746485
 20
506.6124677899
 30
0.0
 11
246.8999280701
 21
507.2212249281
 31
0.0
  0
LINE
  5
170
  8
0
  6
CONTINUOUS
 62
     7
 10
246.8999280701
 20
507.2212249281
 30
0.0
 11
246.2911665081
 21
508.0145776513
 31
0.0
  0
LINE
  5
171
  8
0
  6
CONTINUOUS
 62
     7
 10
244.0108704488
 20
506.5473348143
 30
0.0
 11
243.0869909314
 21
506.1646506431
 31
0.0
  0
LINE
  5
172
  8
0
  6
CONTINUOUS
 62
     7
 10
243.0869909314
 20
506.1646506431
 30
0.0
 11
243.4696743604
 21
505.2407711985
 31
0.0
  0
LINE
  5
173
  8
0
  6
CONTINUOUS
 62
     7
 10
243.4696743604
 20
505.2407711985
 30
0.0
 11
244.3935539215
 21
505.6234553697
 31
0.0
  0
LINE
  5
174
  8
0
  6
CONTINUOUS
 62
     7
 10
244.3935539215
 20
505.6234553697
 30
0.0
 11
244.0108704488
 21
506.5473348143
 31
0.0
  0
LINE
  5
175
  8
0
  6
CONTINUOUS
 62
     7
 10
241.4285217984
 20
505.7202607634
 30
0.0
 11
240.4370769965
 21
505.5897340419
 31
0.0
  0
LINE
  5
176
  8
0
  6
CONTINUOUS
 62
     7
 10
240.4370769965
 20
505.5897340419
 30
0.0
 11
240.5676030195
 21
504.5982927325
 31
0.0
  0
LINE
  5
177
  8
0
  6
CONTINUOUS
 62
     7
 10
240.5676030195
 20
504.5982927325
 30
0.0
 11
241.5590479378
 21
504.728819454
 31
0.0
  0
LINE
  5
178
  8
0
  6
CONTINUOUS
 62
     7
 10
241.5590479378
 20
504.728819454
 30
0.0
 11
241.4285217984
 21
505.7202607634
 31
0.0
  0
LINE
  5
179
  8
0
  6
CONTINUOUS
 62
     7
 10
238.720103038
 20
505.5897340419
 30
0.0
 11
237.7286584689
 21
505.7202607634
 31
0.0
  0
LINE
  5
17A
  8
0
  6
CONTINUOUS
 62
     7
 10
237.7286584689
 20
505.7202607634
 30
0.0
 11
237.5981322131
 21
504.728819454
 31
0.0
  0
LINE
  5
17B
  8
0
  6
CONTINUOUS
 62
     7
 10
237.5981322131
 20
504.728819454
 30
0.0
 11
238.5895772478
 21
504.5982927325
 31
0.0
  0
LINE
  5
17C
  8
0
  6
CONTINUOUS
 62
     7
 10
238.5895772478
 20
504.5982927325
 30
0.0
 11
238.720103038
 21
505.5897340419
 31
0.0
  0
LINE
  5
17D
  8
0
  6
CONTINUOUS
 62
     7
 10
236.0701890304
 20
506.1646506431
 30
0.0
 11
235.1463095858
 21
506.5473348143
 31
0.0
  0
LINE
  5
17E
  8
0
  6
CONTINUOUS
 62
     7
 10
235.1463095858
 20
506.5473348143
 30
0.0
 11
234.7636263459
 21
505.6234553697
 31
0.0
  0
LINE
  5
17F
  8
0
  6
CONTINUOUS
 62
     7
 10
234.7636263459
 20
505.6234553697
 30
0.0
 11
235.6875057905
 21
505.2407711985
 31
0.0
  0
LINE
  5
180
  8
0
  6
CONTINUOUS
 62
     7
 10
235.6875057905
 20
505.2407711985
 30
0.0
 11
236.0701890304
 21
506.1646506431
 31
0.0
  0
LINE
  5
181
  8
0
  6
CONTINUOUS
 62
     7
 10
233.6593664824
 20
507.405820513
 30
0.0
 11
232.8660137593
 21
508.0145776513
 31
0.0
  0
LINE
  5
182
  8
0
  6
CONTINUOUS
 62
     7
 10
232.8660137593
 20
508.0145776513
 30
0.0
 11
232.2572519644
 21
507.2212249281
 31
0.0
  0
LINE
  5
183
  8
0
  6
CONTINUOUS
 62
     7
 10
232.2572519644
 20
507.2212249281
 30
0.0
 11
233.0506056188
 21
506.6124677899
 31
0.0
  0
LINE
  5
184
  8
0
  6
CONTINUOUS
 62
     7
 10
233.0506056188
 20
506.6124677899
 30
0.0
 11
233.6593664824
 21
507.405820513
 31
0.0
  0
LINE
  5
185
  8
0
  6
CONTINUOUS
 62
     7
 10
231.6519295438
 20
509.2286646607
 30
0.0
 11
231.0431686803
 21
510.0220173838
 31
0.0
  0
LINE
  5
186
  8
0
  6
CONTINUOUS
 62
     7
 10
231.0431686803
 20
510.0220173838
 30
0.0
 11
230.2498150258
 21
509.413252795
 31
0.0
  0
LINE
  5
187
  8
0
  6
CONTINUOUS
 62
     7
 10
230.2498150258
 20
509.413252795
 30
0.0
 11
230.8585768207
 21
508.6199000719
 31
0.0
  0
LINE
  5
188
  8
0
  6
CONTINUOUS
 62
     7
 10
230.8585768207
 20
508.6199000719
 30
0.0
 11
231.6519295438
 21
509.2286646607
 31
0.0
  0
LINE
  5
189
  8
0
  6
CONTINUOUS
 62
     7
 10
230.1846820502
 20
511.5089595559
 30
0.0
 11
229.801997879
 21
512.4328390005
 31
0.0
  0
LINE
  5
18A
  8
0
  6
CONTINUOUS
 62
     7
 10
229.801997879
 20
512.4328390005
 30
0.0
 11
228.8781184344
 21
512.0501548293
 31
0.0
  0
LINE
  5
18B
  8
0
  6
CONTINUOUS
 62
     7
 10
228.8781184344
 20
512.0501548293
 30
0.0
 11
229.2608016743
 21
511.1262753847
 31
0.0
  0
LINE
  5
18C
  8
0
  6
CONTINUOUS
 62
     7
 10
229.2608016743
 20
511.1262753847
 30
0.0
 11
230.1846820502
 21
511.5089595559
 31
0.0
  0
LINE
  5
18D
  8
0
  6
CONTINUOUS
 62
     7
 10
229.3576126559
 20
514.091308439
 30
0.0
 11
229.2270868658
 21
515.0827497485
 31
0.0
  0
LINE
  5
18E
  8
0
  6
CONTINUOUS
 62
     7
 10
229.2270868658
 20
515.0827497485
 30
0.0
 11
228.235641831
 21
514.952223027
 31
0.0
  0
LINE
  5
18F
  8
0
  6
CONTINUOUS
 62
     7
 10
228.235641831
 20
514.952223027
 30
0.0
 11
228.3661676212
 21
513.9607817175
 31
0.0
  0
LINE
  5
190
  8
0
  6
CONTINUOUS
 62
     7
 10
228.3661676212
 20
513.9607817175
 30
0.0
 11
229.3576126559
 21
514.091308439
 31
0.0
  0
LINE
  5
191
  8
0
  6
CONTINUOUS
 62
     7
 10
229.2270868658
 20
516.7997285965
 30
0.0
 11
229.3576126559
 21
517.7911699059
 31
0.0
  0
LINE
  5
192
  8
0
  6
CONTINUOUS
 62
     7
 10
229.3576126559
 20
517.7911699059
 30
0.0
 11
228.3661676212
 21
517.9216966274
 31
0.0
  0
LINE
  5
193
  8
0
  6
CONTINUOUS
 62
     7
 10
228.3661676212
 20
517.9216966274
 30
0.0
 11
228.235641831
 21
516.9302553179
 31
0.0
  0
LINE
  5
194
  8
0
  6
CONTINUOUS
 62
     7
 10
228.235641831
 20
516.9302553179
 30
0.0
 11
229.2270868658
 21
516.7997285965
 31
0.0
  0
LINE
  5
195
  8
0
  6
CONTINUOUS
 62
     7
 10
229.801997879
 20
519.4496393445
 30
0.0
 11
230.1846820502
 21
520.3735187891
 31
0.0
  0
LINE
  5
196
  8
0
  6
CONTINUOUS
 62
     7
 10
230.1846820502
 20
520.3735187891
 30
0.0
 11
229.2608016743
 21
520.7562029603
 31
0.0
  0
LINE
  5
197
  8
0
  6
CONTINUOUS
 62
     7
 10
229.2608016743
 20
520.7562029603
 30
0.0
 11
228.8781184344
 21
519.8323235157
 31
0.0
  0
LINE
  5
198
  8
0
  6
CONTINUOUS
 62
     7
 10
228.8781184344
 20
519.8323235157
 30
0.0
 11
229.801997879
 21
519.4496393445
 31
0.0
  0
LINE
  5
199
  8
0
  6
CONTINUOUS
 62
     7
 10
231.0431686803
 20
521.8604609611
 30
0.0
 11
231.6519295438
 21
522.6538136842
 31
0.0
  0
LINE
  5
19A
  8
0
  6
CONTINUOUS
 62
     7
 10
231.6519295438
 20
522.6538136842
 30
0.0
 11
230.8585768207
 21
523.2625782731
 31
0.0
  0
LINE
  5
19B
  8
0
  6
CONTINUOUS
 62
     7
 10
230.8585768207
 20
523.2625782731
 30
0.0
 11
230.2498150258
 21
522.4692255499
 31
0.0
  0
LINE
  5
19C
  8
0
  6
CONTINUOUS
 62
     7
 10
230.2498150258
 20
522.4692255499
 30
0.0
 11
231.0431686803
 21
521.8604609611
 31
0.0
  0
LINE
  5
19D
  8
0
  6
CONTINUOUS
 62
     7
 10
232.8660137593
 20
523.8679006937
 30
0.0
 11
233.6593664824
 21
524.4766578319
 31
0.0
  0
LINE
  5
19E
  8
0
  6
CONTINUOUS
 62
     7
 10
233.6593664824
 20
524.4766578319
 30
0.0
 11
233.0506056188
 21
525.2700180056
 31
0.0
  0
LINE
  5
19F
  8
0
  6
CONTINUOUS
 62
     7
 10
233.0506056188
 20
525.2700180056
 30
0.0
 11
232.2572519644
 21
524.6612534168
 31
0.0
  0
LINE
  5
1A0
  8
0
  6
CONTINUOUS
 62
     7
 10
232.2572519644
 20
524.6612534168
 30
0.0
 11
232.8660137593
 21
523.8679006937
 31
0.0
  0
LINE
  5
1A1
  8
0
  6
CONTINUOUS
 62
     7
 10
235.1463095858
 20
525.3351509812
 30
0.0
 11
236.0701890304
 21
525.7178351524
 31
0.0
  0
LINE
  5
1A2
  8
0
  6
CONTINUOUS
 62
     7
 10
236.0701890304
 20
525.7178351524
 30
0.0
 11
235.6875057905
 21
526.6417071464
 31
0.0
  0
LINE
  5
1A3
  8
0
  6
CONTINUOUS
 62
     7
 10
235.6875057905
 20
526.6417071464
 30
0.0
 11
234.7636263459
 21
526.2590304258
 31
0.0
  0
LINE
  5
1A4
  8
0
  6
CONTINUOUS
 62
     7
 10
234.7636263459
 20
526.2590304258
 30
0.0
 11
235.1463095858
 21
525.3351509812
 31
0.0
  0
LINE
  5
1A5
  8
0
  6
CONTINUOUS
 62
     7
 10
237.7286584689
 20
526.1622175815
 30
0.0
 11
238.720103038
 21
526.292744303
 31
0.0
  0
LINE
  5
1A6
  8
0
  6
CONTINUOUS
 62
     7
 10
238.720103038
 20
526.292744303
 30
0.0
 11
238.5895772478
 21
527.2841856124
 31
0.0
  0
LINE
  5
1A7
  8
0
  6
CONTINUOUS
 62
     7
 10
238.5895772478
 20
527.2841856124
 30
0.0
 11
237.5981322131
 21
527.1536663415
 31
0.0
  0
LINE
  5
1A8
  8
0
  6
CONTINUOUS
 62
     7
 10
237.5981322131
 20
527.1536663415
 30
0.0
 11
237.7286584689
 21
526.1622175815
 31
0.0
  0
LINE
  5
1A9
  8
0
  6
CONTINUOUS
 62
     7
 10
240.4370769965
 20
526.292744303
 30
0.0
 11
241.4285217984
 21
526.1622175815
 31
0.0
  0
LINE
  5
1AA
  8
0
  6
CONTINUOUS
 62
     7
 10
241.4285217984
 20
526.1622175815
 30
0.0
 11
241.5590479378
 21
527.1536663415
 31
0.0
  0
LINE
  5
1AB
  8
0
  6
CONTINUOUS
 62
     7
 10
241.5590479378
 20
527.1536663415
 30
0.0
 11
240.5676030195
 21
527.2841856124
 31
0.0
  0
LINE
  5
1AC
  8
0
  6
CONTINUOUS
 62
     7
 10
240.5676030195
 20
527.2841856124
 30
0.0
 11
240.4370769965
 21
526.292744303
 31
0.0
  0
LINE
  5
1AD
  8
0
  6
CONTINUOUS
 62
     7
 10
231.732412578
 20
517.9412395003
 30
0.0
 11
231.732412578
 21
518.0412411931
 31
0.0
  0
LINE
  5
1AE
  8
0
  6
CONTINUOUS
 62
     7
 10
231.732412578
 20
518.0412411931
 30
0.0
 11
247.4247676893
 21
518.0412411931
 31
0.0
  0
LINE
  5
1AF
  8
0
  6
CONTINUOUS
 62
     7
 10
247.4247676893
 20
517.9412395003
 30
0.0
 11
247.4247676893
 21
518.0412411931
 31
0.0
  0
ARC
  5
1B0
  8
0
  6
CONTINUOUS
 62
     7
 10
239.5785900826
 20
515.9412397477
 30
0.0
 40
8.350000000000001
 50
347.079287171
 51
12.920712829
  0
POLYLINE
  5
1B1
  8
0
  6
CONTINUOUS
 62
     7
 66
     1
 10
0.0
 20
0.0
 30
0.0
 70
   128
  0
VERTEX
  5
31F
  8
0
  6
CONTINUOUS
 62
     7
 10
247.7171717784
 20
514.0741572025
 30
0.0
  0
VERTEX
  5
320
  8
0
  6
CONTINUOUS
 62
     7
 10
247.6981564997
 20
514.0785232427
 30
0.0
  0
VERTEX
  5
321
  8
0
  6
CONTINUOUS
 62
     7
 10
247.6798723093
 20
514.0827179196
 30
0.0
  0
VERTEX
  5
322
  8
0
  6
CONTINUOUS
 62
     7
 10
247.6630214243
 20
514.0865847709
 30
0.0
  0
VERTEX
  5
323
  8
0
  6
CONTINUOUS
 62
     7
 10
247.6482511139
 20
514.0899673345
 30
0.0
  0
VERTEX
  5
324
  8
0
  6
CONTINUOUS
 62
     7
 10
247.6361299506
 20
514.0927538517
 30
0.0
  0
VERTEX
  5
325
  8
0
  6
CONTINUOUS
 62
     7
 10
247.6271226643
 20
514.0948176625
 30
0.0
  0
VERTEX
  5
326
  8
0
  6
CONTINUOUS
 62
     7
 10
247.6215761727
 20
514.0960917118
 30
0.0
  0
VERTEX
  5
327
  8
0
  6
CONTINUOUS
 62
     7
 10
247.6197037487
 20
514.0965163949
 30
0.0
  0
SEQEND
  5
3C5
  8
0
  6
CONTINUOUS
 62
     7
  0
POLYLINE
  5
1B2
  8
0
  6
CONTINUOUS
 62
     7
 66
     1
 10
0.0
 20
0.0
 30
0.0
 70
   128
  0
VERTEX
  5
328
  8
0
  6
CONTINUOUS
 62
     7
 10
247.7171717784
 20
517.8083211424
 30
0.0
  0
VERTEX
  5
329
  8
0
  6
CONTINUOUS
 62
     7
 10
247.6981564997
 20
517.8039551022
 30
0.0
  0
VERTEX
  5
32A
  8
0
  6
CONTINUOUS
 62
     7
 10
247.6798723093
 20
517.7997604253
 30
0.0
  0
VERTEX
  5
32B
  8
0
  6
CONTINUOUS
 62
     7
 10
247.6630214243
 20
517.7959010246
 30
0.0
  0
VERTEX
  5
32C
  8
0
  6
CONTINUOUS
 62
     7
 10
247.6482511139
 20
517.7925110104
 30
0.0
  0
VERTEX
  5
32D
  8
0
  6
CONTINUOUS
 62
     7
 10
247.6361299506
 20
517.7897319439
 30
0.0
  0
VERTEX
  5
32E
  8
0
  6
CONTINUOUS
 62
     7
 10
247.6271226643
 20
517.7876606824
 30
0.0
  0
VERTEX
  5
32F
  8
0
  6
CONTINUOUS
 62
     7
 10
247.6215761727
 20
517.7863866332
 30
0.0
  0
VERTEX
  5
330
  8
0
  6
CONTINUOUS
 62
     7
 10
247.6197037487
 20
517.7859619501
 30
0.0
  0
SEQEND
  5
3C6
  8
0
  6
CONTINUOUS
 62
     7
  0
ARC
  5
1B3
  8
0
  6
CONTINUOUS
 62
     7
 10
247.4247674959
 20
517.7412397477
 30
0.0
 40
0.3000000000000682
 50
12.920712829
 51
90.0
  0
LINE
  5
1B4
  8
0
  6
CONTINUOUS
 62
     7
 10
247.4247676893
 20
513.8412371519
 30
0.0
 11
231.732412578
 21
513.8412371519
 31
0.0
  0
LINE
  5
1B5
  8
0
  6
CONTINUOUS
 62
     7
 10
231.732412578
 20
513.8412371519
 30
0.0
 11
231.732412578
 21
513.9412388446
 31
0.0
  0
LINE
  5
1B6
  8
0
  6
CONTINUOUS
 62
     7
 10
247.4247676893
 20
513.8412371519
 30
0.0
 11
247.4247676893
 21
513.9412388446
 31
0.0
  0
ARC
  5
1B7
  8
0
  6
CONTINUOUS
 62
     7
 10
247.4247674959
 20
514.1412397477
 30
0.0
 40
0.3000000000000682
 50
270.0
 51
347.079287171
  0
POLYLINE
  5
1B8
  8
0
  6
CONTINUOUS
 62
     7
 66
     1
 10
0.0
 20
0.0
 30
0.0
 70
   128
  0
VERTEX
  5
331
  8
0
  6
CONTINUOUS
 62
     7
 10
231.5374765186
 20
517.7859619501
 30
0.0
  0
VERTEX
  5
332
  8
0
  6
CONTINUOUS
 62
     7
 10
231.5356036289
 20
517.7863866332
 30
0.0
  0
VERTEX
  5
333
  8
0
  6
CONTINUOUS
 62
     7
 10
231.530057603
 20
517.7876606824
 30
0.0
  0
VERTEX
  5
334
  8
0
  6
CONTINUOUS
 62
     7
 10
231.5210498511
 20
517.7897319439
 30
0.0
  0
VERTEX
  5
335
  8
0
  6
CONTINUOUS
 62
     7
 10
231.5089286878
 20
517.7925110104
 30
0.0
  0
VERTEX
  5
336
  8
0
  6
CONTINUOUS
 62
     7
 10
231.494158843
 20
517.7959010246
 30
0.0
  0
VERTEX
  5
337
  8
0
  6
CONTINUOUS
 62
     7
 10
231.4773074924
 20
517.7997604253
 30
0.0
  0
VERTEX
  5
338
  8
0
  6
CONTINUOUS
 62
     7
 10
231.4590237676
 20
517.8039551022
 30
0.0
  0
VERTEX
  5
339
  8
0
  6
CONTINUOUS
 62
     7
 10
231.4400089546
 20
517.8083211424
 30
0.0
  0
SEQEND
  5
3C7
  8
0
  6
CONTINUOUS
 62
     7
  0
ARC
  5
1B9
  8
0
  6
CONTINUOUS
 62
     7
 10
231.7324126694
 20
517.7412397477
 30
0.0
 40
0.3000000000000682
 50
90.0
 51
167.079287171
  0
POLYLINE
  5
1BA
  8
0
  6
CONTINUOUS
 62
     7
 66
     1
 10
0.0
 20
0.0
 30
0.0
 70
   128
  0
VERTEX
  5
33A
  8
0
  6
CONTINUOUS
 62
     7
 10
231.5374765186
 20
514.0965163949
 30
0.0
  0
VERTEX
  5
33B
  8
0
  6
CONTINUOUS
 62
     7
 10
231.5356036289
 20
514.0960917118
 30
0.0
  0
VERTEX
  5
33C
  8
0
  6
CONTINUOUS
 62
     7
 10
231.530057603
 20
514.0948176625
 30
0.0
  0
VERTEX
  5
33D
  8
0
  6
CONTINUOUS
 62
     7
 10
231.5210498511
 20
514.0927538517
 30
0.0
  0
VERTEX
  5
33E
  8
0
  6
CONTINUOUS
 62
     7
 10
231.5089286878
 20
514.0899673345
 30
0.0
  0
VERTEX
  5
33F
  8
0
  6
CONTINUOUS
 62
     7
 10
231.494158843
 20
514.0865847709
 30
0.0
  0
VERTEX
  5
340
  8
0
  6
CONTINUOUS
 62
     7
 10
231.4773074924
 20
514.0827179196
 30
0.0
  0
VERTEX
  5
341
  8
0
  6
CONTINUOUS
 62
     7
 10
231.4590237676
 20
514.0785232427
 30
0.0
  0
VERTEX
  5
342
  8
0
  6
CONTINUOUS
 62
     7
 10
231.4400089546
 20
514.0741572025
 30
0.0
  0
SEQEND
  5
3C8
  8
0
  6
CONTINUOUS
 62
     7
  0
ARC
  5
1BB
  8
0
  6
CONTINUOUS
 62
     7
 10
239.5785900826
 20
515.9412397477
 30
0.0
 40
8.350000000000056
 50
167.079287171
 51
192.920712829
  0
ARC
  5
1BC
  8
0
  6
CONTINUOUS
 62
     7
 10
231.7324126694
 20
514.1412397477
 30
0.0
 40
0.3000000000000682
 50
192.920712829
 51
270.0
  0
CIRCLE
  5
1BD
  8
0
  6
CONTINUOUS
 62
     7
 10
243.3004689975
 20
401.5007272604
 30
0.0
 40
12.55922767117003
  0
CIRCLE
  5
1BE
  8
0
  6
CONTINUOUS
 62
     7
 10
243.3004689975
 20
401.5007272604
 30
0.0
 40
12.99999999999994
  0
ARC
  5
1BF
  8
0
  6
CONTINUOUS
 62
     7
 10
239.5778649171
 20
515.4280515925
 30
0.0
 40
16.76448866714401
 50
213.4085270164
 51
325.7968425822
  0
LINE
  5
1C0
  8
0
  6
CONTINUOUS
 62
     7
 10
253.5708522065
 20
506.1931789162
 30
0.0
 11
253.5785896345
 21
506.204712415
 31
0.0
  0
LINE
  5
1C1
  8
0
  6
CONTINUOUS
 62
     7
 10
253.2785901441
 20
421.4412395152
 30
0.0
 11
225.8785901232
 21
421.4412395152
 31
0.0
  0
LINE
  5
1C2
  8
0
  6
CONTINUOUS
 62
     7
 10
251.078590156
 20
415.941239545
 30
0.0
 11
228.0785901113
 21
415.941239545
 31
0.0
  0
LINE
  5
1C3
  8
0
  6
CONTINUOUS
 62
     7
 10
230.724287556
 20
398.2083641233
 30
0.0
 11
229.0079308315
 21
398.2083641233
 31
0.0
  0
LINE
  5
1C4
  8
0
  6
CONTINUOUS
 62
     7
 10
249.5063565313
 20
385.9412392842
 30
0.0
 11
238.8699654131
 21
385.9412392842
 31
0.0
  0
LINE
  5
1C5
  8
0
  6
CONTINUOUS
 62
     7
 10
239.363422954
 20
389.1112284976
 30
0.0
 11
238.8699654131
 21
385.9412392842
 31
0.0
  0
LINE
  5
1C6
  8
0
  6
CONTINUOUS
 62
     7
 10
249.8451768062
 20
416.3180992248
 30
0.0
 11
249.8698154106
 21
416.312801862
 31
0.0
  0
ARC
  5
1C7
  8
0
  6
CONTINUOUS
 62
     7
 10
235.4362266089
 20
172.7835387557
 30
0.0
 40
243.5649284295462
 50
86.6863288563
 51
89.0255108082
  0
POLYLINE
  5
1C8
  8
0
  6
CONTINUOUS
 62
     7
 66
     1
 10
0.0
 20
0.0
 30
0.0
 70
   128
  0
VERTEX
  5
343
  8
0
  6
CONTINUOUS
 62
     7
 10
239.5785901337
 20
417.4412090572
 30
0.0
  0
VERTEX
  5
344
  8
0
  6
CONTINUOUS
 62
     7
 10
242.286088631
 20
417.3659935834
 30
0.0
  0
VERTEX
  5
345
  8
0
  6
CONTINUOUS
 62
     7
 10
244.8260496477
 20
417.2892078998
 30
0.0
  0
VERTEX
  5
346
  8
0
  6
CONTINUOUS
 62
     7
 10
246.9800746641
 20
417.2153074535
 30
0.0
  0
VERTEX
  5
347
  8
0
  6
CONTINUOUS
 62
     7
 10
248.6564124576
 20
417.1382032576
 30
0.0
  0
VERTEX
  5
348
  8
0
  6
CONTINUOUS
 62
     7
 10
249.6972925602
 20
417.0638613644
 30
0.0
  0
VERTEX
  5
349
  8
0
  6
CONTINUOUS
 62
     7
 10
250.05609017
 20
416.9877089801
 30
0.0
  0
VERTEX
  5
34A
  8
0
  6
CONTINUOUS
 62
     7
 10
249.6972925602
 20
416.9115556645
 30
0.0
  0
VERTEX
  5
34B
  8
0
  6
CONTINUOUS
 62
     7
 10
248.9363745427
 20
416.8572101983
 30
0.0
  0
SEQEND
  5
3C9
  8
0
  6
CONTINUOUS
 62
     7
  0
LINE
  5
1C9
  8
0
  6
CONTINUOUS
 62
     7
 10
239.5785901337
 20
415.941239545
 30
0.0
 11
239.5785901337
 21
417.4412090572
 31
0.0
  0
ARC
  5
1CA
  8
0
  6
CONTINUOUS
 62
     7
 10
239.0779537961
 20
311.2542823765
 30
0.0
 40
106.1881068417237
 50
84.6959474615
 51
89.7298712979
  0
ARC
  5
1CB
  8
0
  6
CONTINUOUS
 62
     7
 10
235.6999242802
 20
354.9097106425
 30
0.0
 40
36.15315143434897
 50
90.2350295634
 51
94.701023234
  0
LINE
  5
1CC
  8
0
  6
CONTINUOUS
 62
     7
 10
233.4863621383
 20
385.9412392842
 30
0.0
 11
232.7369454889
 21
390.9412401038
 31
0.0
  0
LINE
  5
1CD
  8
0
  6
CONTINUOUS
 62
     7
 10
233.4863621383
 20
385.9412392842
 30
0.0
 11
229.6508237361
 21
385.9412392842
 31
0.0
  0
LINE
  5
1CE
  8
0
  6
CONTINUOUS
 62
     7
 10
231.247774662
 20
396.6291204336
 30
0.0
 11
229.0906956061
 21
396.6291204336
 31
0.0
  0
LINE
  5
1CF
  8
0
  6
CONTINUOUS
 62
     7
 10
238.8699654131
 20
385.9412392842
 30
0.0
 11
233.4863621383
 21
385.9412392842
 31
0.0
  0
LINE
  5
1D0
  8
0
  6
CONTINUOUS
 62
     7
 10
232.7369454889
 20
390.9412401038
 30
0.0
 11
235.7177765681
 21
390.9412401038
 31
0.0
  0
POLYLINE
  5
1D1
  8
0
  6
CONTINUOUS
 62
     7
 66
     1
 10
0.0
 20
0.0
 30
0.0
 70
   128
  0
VERTEX
  5
34C
  8
0
  6
CONTINUOUS
 62
     7
 10
241.2062125387
 20
269.178505266
 30
0.0
  0
VERTEX
  5
34D
  8
0
  6
CONTINUOUS
 62
     7
 10
243.0125988777
 20
298.112179363
 30
0.0
  0
VERTEX
  5
34E
  8
0
  6
CONTINUOUS
 62
     7
 10
244.4656039462
 20
327.2280872109
 30
0.0
  0
VERTEX
  5
34F
  8
0
  6
CONTINUOUS
 62
     7
 10
245.5384918595
 20
356.5098934116
 30
0.0
  0
VERTEX
  5
350
  8
0
  6
CONTINUOUS
 62
     7
 10
246.2045434969
 20
385.9412392842
 30
0.0
  0
SEQEND
  5
3CA
  8
0
  6
CONTINUOUS
 62
     7
  0
LINE
  5
1D2
  8
0
  6
CONTINUOUS
 62
     7
 10
241.2062125387
 20
269.178505266
 30
0.0
 11
227.4360799803
 21
269.178505266
 31
0.0
  0
LINE
  5
1D3
  8
0
  6
CONTINUOUS
 62
     7
 10
242.6758912499
 20
256.1007246616
 30
0.0
 11
249.9113826654
 21
256.1007246616
 31
0.0
  0
LINE
  5
1D4
  8
0
  6
CONTINUOUS
 62
     7
 10
242.6758912499
 20
256.1007246616
 30
0.0
 11
236.0971210166
 21
256.1007246616
 31
0.0
  0
LINE
  5
1D5
  8
0
  6
CONTINUOUS
 62
     7
 10
254.8004690199
 20
372.3810419681
 30
0.0
 11
254.8004690199
 21
385.8203023913
 31
0.0
  0
POLYLINE
  5
1D6
  8
0
  6
CONTINUOUS
 62
     7
 66
     1
 10
0.0
 20
0.0
 30
0.0
 70
   128
  0
VERTEX
  5
351
  8
0
  6
CONTINUOUS
 62
     7
 10
251.6675473763
 20
385.0912127885
 30
0.0
  0
VERTEX
  5
352
  8
0
  6
CONTINUOUS
 62
     7
 10
253.1574790939
 20
383.6431756856
 30
0.0
  0
VERTEX
  5
353
  8
0
  6
CONTINUOUS
 62
     7
 10
254.1482116668
 20
381.712299982
 30
0.0
  0
VERTEX
  5
354
  8
0
  6
CONTINUOUS
 62
     7
 10
254.5663857474
 20
379.4459879639
 30
0.0
  0
VERTEX
  5
355
  8
0
  6
CONTINUOUS
 62
     7
 10
254.3179880469
 20
377.0606957617
 30
0.0
  0
VERTEX
  5
356
  8
0
  6
CONTINUOUS
 62
     7
 10
253.388532774
 20
374.8968143257
 30
0.0
  0
VERTEX
  5
357
  8
0
  6
CONTINUOUS
 62
     7
 10
251.9113536565
 20
373.2828565183
 30
0.0
  0
VERTEX
  5
358
  8
0
  6
CONTINUOUS
 62
     7
 10
250.1437849006
 20
372.4274330082
 30
0.0
  0
VERTEX
  5
359
  8
0
  6
CONTINUOUS
 62
     7
 10
248.3557549878
 20
372.3460931572
 30
0.0
  0
VERTEX
  5
35A
  8
0
  6
CONTINUOUS
 62
     7
 10
246.7078479114
 20
372.9391500595
 30
0.0
  0
VERTEX
  5
35B
  8
0
  6
CONTINUOUS
 62
     7
 10
245.9251162237
 20
373.5939704123
 30
0.0
  0
SEQEND
  5
3CB
  8
0
  6
CONTINUOUS
 62
     7
  0
ARC
  5
1D7
  8
0
  6
CONTINUOUS
 62
     7
 10
249.0521132984
 20
381.6698874153
 30
0.0
 40
4.306502377215351
 50
52.6038756079
 51
129.8154826286
  0
LINE
  5
1D8
  8
0
  6
CONTINUOUS
 62
     7
 10
254.7004691898
 20
372.1007269117
 30
0.0
 11
245.9083824525
 21
372.1007269117
 31
0.0
  0
LINE
  5
1D9
  8
0
  6
CONTINUOUS
 62
     7
 10
231.8004689752
 20
383.5672673079
 30
0.0
 11
231.8004689752
 21
372.3797641935
 31
0.0
  0
LINE
  5
1DA
  8
0
  6
CONTINUOUS
 62
     7
 10
231.8004689752
 20
383.5672673079
 30
0.0
 11
231.8004689752
 21
385.8262107017
 31
0.0
  0
LINE
  5
1DB
  8
0
  6
CONTINUOUS
 62
     7
 10
254.7004691898
 20
386.1007273438
 30
0.0
 11
249.5147151514
 21
386.1007273438
 31
0.0
  0
POLYLINE
  5
1DC
  8
0
  6
CONTINUOUS
 62
     7
 66
     1
 10
0.0
 20
0.0
 30
0.0
 70
   128
  0
VERTEX
  5
35C
  8
0
  6
CONTINUOUS
 62
     7
 10
249.648370651
 20
388.6510284858
 30
0.0
  0
VERTEX
  5
35D
  8
0
  6
CONTINUOUS
 62
     7
 10
249.9588689408
 20
388.6520231383
 30
0.0
  0
VERTEX
  5
35E
  8
0
  6
CONTINUOUS
 62
     7
 10
252.2450539856
 20
388.6619845646
 30
0.0
  0
VERTEX
  5
35F
  8
0
  6
CONTINUOUS
 62
     7
 10
253.4249148904
 20
388.6719450595
 30
0.0
  0
SEQEND
  5
3CC
  8
0
  6
CONTINUOUS
 62
     7
  0
ARC
  5
1DD
  8
0
  6
CONTINUOUS
 62
     7
 10
248.1699004543
 20
419.3167737619
 30
0.0
 40
31.61681006648583
 50
272.5929081912
 51
279.5675044328
  0
ARC
  5
1DE
  8
0
  6
CONTINUOUS
 62
     7
 10
249.8024046456
 20
414.2233821525
 30
0.0
 40
27.01203610350459
 50
269.5133382846
 51
277.9758303607
  0
LINE
  5
1DF
  8
0
  6
CONTINUOUS
 62
     7
 10
253.4249148904
 20
388.6719450595
 30
0.0
 11
253.4815514101
 21
388.6358069497
 31
0.0
  0
LINE
  5
1E0
  8
0
  6
CONTINUOUS
 62
     7
 10
253.524644637
 20
388.3066747578
 30
0.0
 11
253.5385874673
 21
388.2849274444
 31
0.0
  0
LINE
  5
1E1
  8
0
  6
CONTINUOUS
 62
     7
 10
253.5119032128
 20
388.2508447635
 30
0.0
 11
253.4249148904
 21
388.1397389116
 31
0.0
  0
LINE
  5
1E2
  8
0
  6
CONTINUOUS
 62
     7
 10
250.8004688299
 20
359.1007285061
 30
0.0
 11
245.6124975453
 21
359.1007285061
 31
0.0
  0
ARC
  5
1E3
  8
0
  6
CONTINUOUS
 62
     7
 10
239.5785900826
 20
515.9412397477
 30
0.0
 40
17.00000000000002
 50
90.0
 51
214.8770673906
  0
ARC
  5
1E4
  8
0
  6
CONTINUOUS
 62
     7
 10
239.5785900826
 20
515.9412397477
 30
0.0
 40
17.00000000000003
 50
0.0
 51
90.0
  0
ARC
  5
1E5
  8
0
  6
CONTINUOUS
 62
     7
 10
243.3004689975
 20
401.5007272604
 30
0.0
 40
27.50000000000005
 50
0.0
 51
68.0529325348
  0
ARC
  5
1E6
  8
0
  6
CONTINUOUS
 62
     7
 10
243.3004689975
 20
401.5007272604
 30
0.0
 40
27.50000000000002
 50
130.1230991735
 51
245.1282581708
  0
ARC
  5
1E7
  8
0
  6
CONTINUOUS
 62
     7
 10
243.3004689975
 20
401.5007272604
 30
0.0
 40
27.5
 50
294.8737977576
 51
0.0
  0
CIRCLE
  5
1E8
  8
0
  6
CONTINUOUS
 62
     7
 10
143.3004689975
 20
401.5007272604
 30
0.0
 40
21.96000000000002
  0
CIRCLE
  5
1E9
  8
0
  6
CONTINUOUS
 62
     7
 10
143.3004689975
 20
401.5007272604
 30
0.0
 40
22.50000000000001
  0
LINE
  5
1EA
  8
0
  6
CONTINUOUS
 62
     7
 10
147.8004691764
 20
316.5007263663
 30
0.0
 11
138.8004658385
 21
316.5007263663
 31
0.0
  0
LINE
  5
1EB
  8
0
  6
CONTINUOUS
 62
     7
 10
147.2536338134
 20
379.3507267031
 30
0.0
 11
147.3004681631
 21
379.3507267031
 31
0.0
  0
ARC
  5
1EC
  8
0
  6
CONTINUOUS
 62
     7
 10
143.3004689975
 20
401.5007272604
 30
0.0
 40
22.54999999999998
 50
284.4599758643
 51
0.0
  0
ARC
  5
1ED
  8
0
  6
CONTINUOUS
 62
     7
 10
143.3004689975
 20
401.5007272604
 30
0.0
 40
22.54999999999998
 50
0.0
 51
255.2856468737
  0
ARC
  5
1EE
  8
0
  6
CONTINUOUS
 62
     7
 10
143.3004689975
 20
401.5007272604
 30
0.0
 40
40.00000000000003
 50
180.0
 51
262.8192442185
  0
ARC
  5
1EF
  8
0
  6
CONTINUOUS
 62
     7
 10
143.3004689975
 20
401.5007272604
 30
0.0
 40
40.00000000000003
 50
277.1807557815
 51
180.0
  0
LINE
  5
1F0
  8
0
  6
CONTINUOUS
 62
     8
 10
253.5785896345
 20
506.204712415
 30
0.0
 11
253.4429285316
 21
506.0042470934
 31
0.0
  0
LINE
  5
1F1
  8
0
  6
CONTINUOUS
 62
     8
 10
225.5785906329
 20
421.7412390056
 30
0.0
 11
253.5785896345
 21
421.7412390056
 31
0.0
  0
ARC
  5
1F2
  8
0
  6
CONTINUOUS
 62
     8
 10
238.7526342218
 20
276.5593136626
 30
0.0
 40
140.1982975745912
 50
85.4619930455
 51
89.6624490997
  0
ARC
  5
1F3
  8
0
  6
CONTINUOUS
 62
     8
 10
238.8030691803
 20
299.5253540752
 30
0.0
 40
117.6974406853952
 50
85.0524645792
 51
89.6224692837
  0
ARC
  5
1F4
  8
0
  6
CONTINUOUS
 62
     8
 10
248.1342928316
 20
451.3695618893
 30
0.0
 40
62.92040951311898
 50
271.3700853743
 51
274.823359317
  0
ARC
  5
1F5
  8
0
  6
CONTINUOUS
 62
     8
 10
248.1072118039
 20
451.2323012539
 30
0.0
 40
63.3162920109711
 50
271.3607325443
 51
274.8177205896
  0
ARC
  5
1F6
  8
0
  6
CONTINUOUS
 62
     8
 10
249.863280253
 20
400.3987855883
 30
0.0
 40
13.71673524323497
 50
268.6719633092
 51
280.3510749586
  0
ARC
  5
1F7
  8
0
  6
CONTINUOUS
 62
     7
 10
242.8006129119
 20
401.682473866
 30
0.0
 40
26.50076784600235
 50
130.8071863783
 51
180.392946919
  0
ARC
  5
1F8
  8
0
  6
CONTINUOUS
 62
     7
 10
243.3736232513
 20
401.5322107383
 30
0.0
 40
26.92686485222593
 50
359.9330085091
 51
67.728971103
  0
ARC
  5
1F9
  8
0
  6
CONTINUOUS
 62
     7
 10
243.4836876975
 20
401.4196261163
 30
0.0
 40
26.81690463592103
 50
294.9610324836
 51
0.1732772821
  0
ARC
  5
1FA
  8
0
  6
CONTINUOUS
 62
     7
 10
243.1145635612
 20
401.4179003371
 30
0.0
 40
26.81422318707567
 50
179.8230177825
 51
245.0426328437
  0
ARC
  5
1FB
  8
0
  6
CONTINUOUS
 62
     8
 10
143.3002965599
 20
391.9693575397
 30
0.0
 40
14.46334043111383
 50
249.776111608
 51
290.0232726418
  0
ARC
  5
1FC
  8
0
  6
CONTINUOUS
 62
     7
 10
143.3004689975
 20
401.5007272604
 30
0.0
 40
39.00000000000003
 50
180.0
 51
262.634114171
  0
ARC
  5
1FD
  8
0
  6
CONTINUOUS
 62
     7
 10
143.3004689975
 20
401.5007272604
 30
0.0
 40
39.00000000000003
 50
277.365885829
 51
180.0
  0
LINE
  5
1FE
  8
0
  6
CONTINUOUS
 62
     7
 10
256.5785901262
 20
156.2769494566
 30
0.0
 11
256.5785901262
 21
161.2769484135
 31
0.0
  0
LINE
  5
1FF
  8
0
  6
CONTINUOUS
 62
     7
 10
222.5785901411
 20
161.2769484135
 30
0.0
 11
222.5785901411
 21
156.2769494566
 31
0.0
  0
ARC
  5
200
  8
0
  6
CONTINUOUS
 62
     7
 10
255.5785900826
 20
161.2769485985
 30
0.0
 40
1.0
 50
360.0
 51
90.0
  0
ARC
  5
201
  8
0
  6
CONTINUOUS
 62
     7
 10
223.5785900826
 20
161.2769485985
 30
0.0
 40
1.0
 50
90.0
 51
180.0
  0
LINE
  5
202
  8
0
  6
CONTINUOUS
 62
     7
 10
256.5785901262
 20
116.2769466253
 30
0.0
 11
256.5785901262
 21
151.9769474479
 31
0.0
  0
LINE
  5
203
  8
0
  6
CONTINUOUS
 62
     7
 10
222.5785901411
 20
151.9769474479
 30
0.0
 11
222.5785901411
 21
116.2769466253
 31
0.0
  0
ARC
  5
204
  8
0
  6
CONTINUOUS
 62
     7
 10
256.2785900826
 20
151.9769485985
 30
0.0
 40
0.3000000000000114
 50
0.0
 51
90.0
  0
ARC
  5
205
  8
0
  6
CONTINUOUS
 62
     7
 10
222.8785900826
 20
151.9769485985
 30
0.0
 40
0.3000000000000114
 50
90.0
 51
180.0
  0
ARC
  5
206
  8
0
  6
CONTINUOUS
 62
     7
 10
223.5785900826
 20
116.2769485985
 30
0.0
 40
1.0
 50
180.0
 51
270.0
  0
ARC
  5
207
  8
0
  6
CONTINUOUS
 62
     7
 10
255.5785900826
 20
116.2769485985
 30
0.0
 40
1.0
 50
270.0
 51
0.0
  0
LINE
  5
208
  8
0
  6
CONTINUOUS
 62
     7
 10
254.5785897984
 20
152.2769488009
 30
0.0
 11
254.5785897984
 21
156.2769494566
 31
0.0
  0
LINE
  5
209
  8
0
  6
CONTINUOUS
 62
     7
 10
224.5785904689
 20
156.2769494566
 30
0.0
 11
224.5785904689
 21
152.2769488009
 31
0.0
  0
ARC
  5
20A
  8
0
  6
CONTINUOUS
 62
     7
 10
247.7285900826
 20
114.3769485985
 30
0.0
 40
0.0999999999999943
 50
270.0
 51
0.0
  0
LINE
  5
20B
  8
0
  6
CONTINUOUS
 62
     7
 10
231.3285901784
 20
115.2769520494
 30
0.0
 11
231.3285901784
 21
114.3769517156
 31
0.0
  0
LINE
  5
20C
  8
0
  6
CONTINUOUS
 62
     7
 10
247.828590089
 20
114.3769517156
 30
0.0
 11
247.828590089
 21
115.2769520494
 31
0.0
  0
ARC
  5
20D
  8
0
  6
CONTINUOUS
 62
     7
 10
231.4285900826
 20
114.3769485985
 30
0.0
 40
0.0999999999999943
 50
180.0
 51
270.0
  0
ARC
  5
20E
  8
0
  6
CONTINUOUS
 62
     7
 10
216.3004689975
 20
176.8362332197
 30
0.0
 40
0.5
 50
180.0
 51
270.0
  0
ARC
  5
20F
  8
0
  6
CONTINUOUS
 62
     7
 10
270.3004689975
 20
176.8362332197
 30
0.0
 40
0.5
 50
270.0
 51
0.0
  0
LINE
  5
210
  8
0
  6
CONTINUOUS
 62
     7
 10
215.8004691466
 20
187.3362332197
 30
0.0
 11
215.8004691466
 21
176.8362333613
 31
0.0
  0
LINE
  5
211
  8
0
  6
CONTINUOUS
 62
     7
 10
270.8004688485
 20
176.8362333613
 30
0.0
 11
270.8004688485
 21
187.3362332197
 31
0.0
  0
LINE
  5
212
  8
0
  6
CONTINUOUS
 62
     7
 10
230.3004687293
 20
176.3362332793
 30
0.0
 11
230.3004687293
 21
162.2769485774
 31
0.0
  0
LINE
  5
213
  8
0
  6
CONTINUOUS
 62
     7
 10
256.3004692658
 20
152.2761478635
 30
0.0
 11
256.3004692658
 21
156.2769494566
 31
0.0
  0
LINE
  5
214
  8
0
  6
CONTINUOUS
 62
     7
 10
256.3004692658
 20
161.9689676525
 30
0.0
 11
256.3004692658
 21
176.3362332793
 31
0.0
  0
LINE
  5
215
  8
0
  6
CONTINUOUS
 62
     7
 10
183.3004703386
 20
181.3362331676
 30
0.0
 11
183.3004703386
 21
187.3362332197
 31
0.0
  0
LINE
  5
216
  8
0
  6
CONTINUOUS
 62
     7
 10
103.3004684015
 20
187.3362332197
 30
0.0
 11
103.3004684015
 21
181.3362331676
 31
0.0
  0
ARC
  5
217
  8
0
  6
CONTINUOUS
 62
     7
 10
182.3004689975
 20
181.3362332197
 30
0.0
 40
1.0
 50
270.0
 51
0.0
  0
ARC
  5
218
  8
0
  6
CONTINUOUS
 62
     7
 10
104.3004689975
 20
181.3362332197
 30
0.0
 40
1.0
 50
180.0
 51
270.0
  0
LINE
  5
219
  8
0
  6
CONTINUOUS
 62
     7
 10
120.750465767
 20
180.3362330037
 30
0.0
 11
120.750465767
 21
154.6552411827
 31
0.0
  0
LINE
  5
21A
  8
0
  6
CONTINUOUS
 62
     7
 10
165.8504692479
 20
154.6552411827
 30
0.0
 11
165.8504692479
 21
180.3362330037
 31
0.0
  0
ARC
  5
21B
  8
0
  6
CONTINUOUS
 62
     7
 10
121.4504689975
 20
154.6552415986
 30
0.0
 40
0.7000000000000028
 50
180.0
 51
229.0
  0
ARC
  5
21C
  8
0
  6
CONTINUOUS
 62
     7
 10
165.1504689975
 20
154.6552415986
 30
0.0
 40
0.7000000000000033
 50
311.0
 51
0.0
  0
LINE
  5
21D
  8
0
  6
CONTINUOUS
 62
     7
 10
120.8004666134
 20
151.1215686413
 30
0.0
 11
120.8004666134
 21
122.8762313338
 31
0.0
  0
LINE
  5
21E
  8
0
  6
CONTINUOUS
 62
     7
 10
165.8004684015
 20
122.8762313338
 30
0.0
 11
165.8004684015
 21
151.1219150933
 31
0.0
  0
ARC
  5
21F
  8
0
  6
CONTINUOUS
 62
     7
 10
165.2604689975
 20
122.8762332197
 30
0.0
 40
0.5400000000000205
 50
270.0
 51
0.0
  0
ARC
  5
220
  8
0
  6
CONTINUOUS
 62
     7
 10
121.3404689975
 20
122.8762332197
 30
0.0
 40
0.5400000000000205
 50
180.0
 51
270.0
  0
LINE
  5
221
  8
0
  6
CONTINUOUS
 62
     7
 10
120.991231279
 20
154.1269465896
 30
0.0
 11
121.0727331801
 21
154.0560952934
 31
0.0
  0
LINE
  5
222
  8
0
  6
CONTINUOUS
 62
     7
 10
165.5282018347
 20
154.0560952934
 30
0.0
 11
165.6097111865
 21
154.1269465896
 31
0.0
  0
ARC
  5
223
  8
0
  6
CONTINUOUS
 62
     7
 10
120.6134913164
 20
153.527797006
 30
0.0
 40
0.6999999999999985
 50
2.7443153111
 51
49.0
  0
ARC
  5
224
  8
0
  6
CONTINUOUS
 62
     7
 10
165.9874466787
 20
153.527797006
 30
0.0
 40
0.7000000000000005
 50
131.0
 51
177.2556846889
  0
ARC
  5
225
  8
0
  6
CONTINUOUS
 62
     7
 10
143.287457635
 20
154.6146508963
 30
0.0
 40
22.00000000000002
 50
182.7443153111
 51
189.1754984221
  0
ARC
  5
226
  8
0
  6
CONTINUOUS
 62
     7
 10
143.31348036
 20
154.6146508963
 30
0.0
 40
22.0
 50
350.8382339983
 51
357.2556846889
  0
LINE
  5
227
  8
0
  6
CONTINUOUS
 62
     7
 10
239.5785901337
 20
156.2769494566
 30
0.0
 11
222.5785901411
 21
156.2769494566
 31
0.0
  0
LINE
  5
228
  8
0
  6
CONTINUOUS
 62
     7
 10
256.5785901262
 20
156.2769494566
 30
0.0
 11
239.5785901337
 21
156.2769494566
 31
0.0
  0
LINE
  5
229
  8
0
  6
CONTINUOUS
 62
     7
 10
239.5785901337
 20
162.2769485774
 30
0.0
 11
255.5785899623
 21
162.2769485774
 31
0.0
  0
LINE
  5
22A
  8
0
  6
CONTINUOUS
 62
     7
 10
223.578590305
 20
162.2769485774
 30
0.0
 11
239.5785901337
 21
162.2769485774
 31
0.0
  0
LINE
  5
22B
  8
0
  6
CONTINUOUS
 62
     7
 10
239.5785901337
 20
152.2769488009
 30
0.0
 11
256.2785897045
 21
152.2769488009
 31
0.0
  0
LINE
  5
22C
  8
0
  6
CONTINUOUS
 62
     7
 10
222.8785896315
 20
152.2769488009
 30
0.0
 11
239.5785901337
 21
152.2769488009
 31
0.0
  0
LINE
  5
22D
  8
0
  6
CONTINUOUS
 62
     7
 10
255.5785899623
 20
115.2769520494
 30
0.0
 11
223.578590305
 21
115.2769520494
 31
0.0
  0
LINE
  5
22E
  8
0
  6
CONTINUOUS
 62
     7
 10
231.732412578
 20
114.3769517156
 30
0.0
 11
247.4247676893
 21
114.3769517156
 31
0.0
  0
LINE
  5
22F
  8
0
  6
CONTINUOUS
 62
     7
 10
247.4247676893
 20
114.3769517156
 30
0.0
 11
247.6197037487
 21
114.3769517156
 31
0.0
  0
LINE
  5
230
  8
0
  6
CONTINUOUS
 62
     7
 10
231.5374765186
 20
114.3769517156
 30
0.0
 11
231.732412578
 21
114.3769517156
 31
0.0
  0
LINE
  5
231
  8
0
  6
CONTINUOUS
 62
     7
 10
247.4247676893
 20
114.2769500228
 30
0.0
 11
231.732412578
 21
114.2769500228
 31
0.0
  0
LINE
  5
232
  8
0
  6
CONTINUOUS
 62
     7
 10
231.732412578
 20
114.2769500228
 30
0.0
 11
231.732412578
 21
114.3769517156
 31
0.0
  0
LINE
  5
233
  8
0
  6
CONTINUOUS
 62
     7
 10
247.4247676893
 20
114.2769500228
 30
0.0
 11
247.4247676893
 21
114.3769517156
 31
0.0
  0
LINE
  5
234
  8
0
  6
CONTINUOUS
 62
     7
 10
231.732412578
 20
114.2769500228
 30
0.0
 11
231.634945014
 21
114.2769500228
 31
0.0
  0
ARC
  5
235
  8
0
  6
CONTINUOUS
 62
     7
 10
231.6362196174
 20
114.3756929188
 30
0.0
 40
0.0987511221795495
 50
179.2696215298
 51
269.260449664
  0
LINE
  5
236
  8
0
  6
CONTINUOUS
 62
     7
 10
247.522235719
 20
114.2769500228
 30
0.0
 11
247.4247676893
 21
114.2769500228
 31
0.0
  0
ARC
  5
237
  8
0
  6
CONTINUOUS
 62
     7
 10
247.5209601618
 20
114.3756933886
 30
0.0
 40
0.0987516042531549
 50
270.7401001453
 51
0.7301023052
  0
LINE
  5
238
  8
0
  6
CONTINUOUS
 62
     7
 10
247.7285902588
 20
114.2769500228
 30
0.0
 11
247.522235719
 21
114.2769500228
 31
0.0
  0
LINE
  5
239
  8
0
  6
CONTINUOUS
 62
     7
 10
231.634945014
 20
114.2769500228
 30
0.0
 11
231.4285900085
 21
114.2769500228
 31
0.0
  0
LINE
  5
23A
  8
0
  6
CONTINUOUS
 62
     7
 10
216.3004682972
 20
176.3362332793
 30
0.0
 11
270.3004696979
 21
176.3362332793
 31
0.0
  0
LINE
  5
23B
  8
0
  6
CONTINUOUS
 62
     7
 10
270.8004688485
 20
187.3362332197
 30
0.0
 11
215.8004691466
 21
187.3362332197
 31
0.0
  0
LINE
  5
23C
  8
0
  6
CONTINUOUS
 62
     7
 10
183.3004703386
 20
187.3362332197
 30
0.0
 11
103.3004684015
 21
187.3362332197
 31
0.0
  0
LINE
  5
23D
  8
0
  6
CONTINUOUS
 62
     7
 10
182.3001777394
 20
180.3362330037
 30
0.0
 11
104.3004704281
 21
180.3362330037
 31
0.0
  0
POLYLINE
  5
23E
  8
0
  6
CONTINUOUS
 62
     7
 66
     1
 10
0.0
 20
0.0
 30
0.0
 70
   128
  0
VERTEX
  5
360
  8
0
  6
CONTINUOUS
 62
     7
 10
121.2206421061
 20
150.5766220006
 30
0.0
  0
VERTEX
  5
361
  8
0
  6
CONTINUOUS
 62
     7
 10
120.8198753758
 20
151.0557353111
 30
0.0
  0
VERTEX
  5
362
  8
0
  6
CONTINUOUS
 62
     7
 10
120.9516761466
 20
151.3055868062
 30
0.0
  0
VERTEX
  5
363
  8
0
  6
CONTINUOUS
 62
     7
 10
121.225850062
 20
151.3362347694
 30
0.0
  0
SEQEND
  5
3CD
  8
0
  6
CONTINUOUS
 62
     7
  0
POLYLINE
  5
23F
  8
0
  6
CONTINUOUS
 62
     7
 66
     1
 10
0.0
 20
0.0
 30
0.0
 70
   128
  0
VERTEX
  5
364
  8
0
  6
CONTINUOUS
 62
     7
 10
165.3802929087
 20
150.5766220006
 30
0.0
  0
VERTEX
  5
365
  8
0
  6
CONTINUOUS
 62
     7
 10
164.6669966741
 20
150.0964171799
 30
0.0
  0
VERTEX
  5
366
  8
0
  6
CONTINUOUS
 62
     7
 10
163.619199173
 20
149.6356770011
 30
0.0
  0
VERTEX
  5
367
  8
0
  6
CONTINUOUS
 62
     7
 10
162.2533065839
 20
149.2016173514
 30
0.0
  0
VERTEX
  5
368
  8
0
  6
CONTINUOUS
 62
     7
 10
160.5906946226
 20
148.801029435
 30
0.0
  0
VERTEX
  5
369
  8
0
  6
CONTINUOUS
 62
     7
 10
158.6574030681
 20
148.4401866408
 30
0.0
  0
VERTEX
  5
36A
  8
0
  6
CONTINUOUS
 62
     7
 10
156.4836887284
 20
148.1247402342
 30
0.0
  0
VERTEX
  5
36B
  8
0
  6
CONTINUOUS
 62
     7
 10
154.1035933061
 20
147.8596224996
 30
0.0
  0
VERTEX
  5
36C
  8
0
  6
CONTINUOUS
 62
     7
 10
151.5543622537
 20
147.6489908608
 30
0.0
  0
VERTEX
  5
36D
  8
0
  6
CONTINUOUS
 62
     7
 10
148.875915782
 20
147.4961384746
 30
0.0
  0
VERTEX
  5
36E
  8
0
  6
CONTINUOUS
 62
     7
 10
146.1101857587
 20
147.4034569772
 30
0.0
  0
VERTEX
  5
36F
  8
0
  6
CONTINUOUS
 62
     7
 10
143.3004675074
 20
147.3724029573
 30
0.0
  0
VERTEX
  5
370
  8
0
  6
CONTINUOUS
 62
     7
 10
140.4907492562
 20
147.4034569772
 30
0.0
  0
VERTEX
  5
371
  8
0
  6
CONTINUOUS
 62
     7
 10
137.7250192328
 20
147.4961384746
 30
0.0
  0
VERTEX
  5
372
  8
0
  6
CONTINUOUS
 62
     7
 10
135.0465727611
 20
147.6489908608
 30
0.0
  0
VERTEX
  5
373
  8
0
  6
CONTINUOUS
 62
     7
 10
132.4973491593
 20
147.8596224996
 30
0.0
  0
VERTEX
  5
374
  8
0
  6
CONTINUOUS
 62
     7
 10
130.1172462865
 20
148.1247402342
 30
0.0
  0
VERTEX
  5
375
  8
0
  6
CONTINUOUS
 62
     7
 10
127.9435319467
 20
148.4401866408
 30
0.0
  0
VERTEX
  5
376
  8
0
  6
CONTINUOUS
 62
     7
 10
126.0102403923
 20
148.801029435
 30
0.0
  0
VERTEX
  5
377
  8
0
  6
CONTINUOUS
 62
     7
 10
124.3476358815
 20
149.2016173514
 30
0.0
  0
VERTEX
  5
378
  8
0
  6
CONTINUOUS
 62
     7
 10
122.9817358418
 20
149.6356770011
 30
0.0
  0
VERTEX
  5
379
  8
0
  6
CONTINUOUS
 62
     7
 10
121.9339383407
 20
150.0964171799
 30
0.0
  0
VERTEX
  5
37A
  8
0
  6
CONTINUOUS
 62
     7
 10
121.2206421061
 20
150.5766220006
 30
0.0
  0
SEQEND
  5
3CE
  8
0
  6
CONTINUOUS
 62
     7
  0
POLYLINE
  5
240
  8
0
  6
CONTINUOUS
 62
     7
 66
     1
 10
0.0
 20
0.0
 30
0.0
 70
   128
  0
VERTEX
  5
37B
  8
0
  6
CONTINUOUS
 62
     7
 10
165.3750924035
 20
151.3362347694
 30
0.0
  0
VERTEX
  5
37C
  8
0
  6
CONTINUOUS
 62
     7
 10
165.7811937495
 20
151.2189030262
 30
0.0
  0
VERTEX
  5
37D
  8
0
  6
CONTINUOUS
 62
     7
 10
165.6499443217
 20
150.850475541
 30
0.0
  0
VERTEX
  5
37E
  8
0
  6
CONTINUOUS
 62
     7
 10
165.3802929087
 20
150.5766220006
 30
0.0
  0
SEQEND
  5
3CF
  8
0
  6
CONTINUOUS
 62
     7
  0
LINE
  5
241
  8
0
  6
CONTINUOUS
 62
     7
 10
165.260465221
 20
122.3362356039
 30
0.0
 11
121.3404697939
 21
122.3362356039
 31
0.0
  0
POLYLINE
  5
242
  8
0
  6
CONTINUOUS
 62
     7
 66
     1
 10
0.0
 20
0.0
 30
0.0
 70
   128
  0
VERTEX
  5
37F
  8
0
  6
CONTINUOUS
 62
     7
 10
121.8639028831
 20
150.5766220006
 30
0.0
  0
VERTEX
  5
380
  8
0
  6
CONTINUOUS
 62
     7
 10
122.6749805375
 20
150.1020051154
 30
0.0
  0
VERTEX
  5
381
  8
0
  6
CONTINUOUS
 62
     7
 10
123.8225413128
 20
149.6494866522
 30
0.0
  0
VERTEX
  5
382
  8
0
  6
CONTINUOUS
 62
     7
 10
125.2878544493
 20
149.2264538618
 30
0.0
  0
VERTEX
  5
383
  8
0
  6
CONTINUOUS
 62
     7
 10
127.0470259352
 20
148.8398059817
 30
0.0
  0
VERTEX
  5
384
  8
0
  6
CONTINUOUS
 62
     7
 10
129.0713486834
 20
148.4958462032
 30
0.0
  0
VERTEX
  5
385
  8
0
  6
CONTINUOUS
 62
     7
 10
131.3278017207
 20
148.2001922639
 30
0.0
  0
VERTEX
  5
386
  8
0
  6
CONTINUOUS
 62
     7
 10
133.7795717283
 20
147.9576646896
 30
0.0
  0
VERTEX
  5
387
  8
0
  6
CONTINUOUS
 62
     7
 10
136.3866639896
 20
147.7722197386
 30
0.0
  0
VERTEX
  5
388
  8
0
  6
CONTINUOUS
 62
     7
 10
139.1065505906
 20
147.6468823465
 30
0.0
  0
VERTEX
  5
389
  8
0
  6
CONTINUOUS
 62
     7
 10
141.8948558732
 20
147.583701423
 30
0.0
  0
VERTEX
  5
38A
  8
0
  6
CONTINUOUS
 62
     7
 10
144.7060865923
 20
147.583701423
 30
0.0
  0
VERTEX
  5
38B
  8
0
  6
CONTINUOUS
 62
     7
 10
147.4943844243
 20
147.6468823465
 30
0.0
  0
VERTEX
  5
38C
  8
0
  6
CONTINUOUS
 62
     7
 10
150.2142710252
 20
147.7722197386
 30
0.0
  0
VERTEX
  5
38D
  8
0
  6
CONTINUOUS
 62
     7
 10
152.8213632866
 20
147.9576646896
 30
0.0
  0
VERTEX
  5
38E
  8
0
  6
CONTINUOUS
 62
     7
 10
155.2731332942
 20
148.2001922639
 30
0.0
  0
VERTEX
  5
38F
  8
0
  6
CONTINUOUS
 62
     7
 10
157.5295863314
 20
148.4958462032
 30
0.0
  0
VERTEX
  5
390
  8
0
  6
CONTINUOUS
 62
     7
 10
159.5539090796
 20
148.8398059817
 30
0.0
  0
VERTEX
  5
391
  8
0
  6
CONTINUOUS
 62
     7
 10
161.3130805655
 20
149.2264538618
 30
0.0
  0
VERTEX
  5
392
  8
0
  6
CONTINUOUS
 62
     7
 10
162.7783937021
 20
149.6494866522
 30
0.0
  0
VERTEX
  5
393
  8
0
  6
CONTINUOUS
 62
     7
 10
163.9259544774
 20
150.1020051154
 30
0.0
  0
VERTEX
  5
394
  8
0
  6
CONTINUOUS
 62
     7
 10
164.7370321317
 20
150.5766220006
 30
0.0
  0
SEQEND
  5
3D0
  8
0
  6
CONTINUOUS
 62
     7
  0
POLYLINE
  5
243
  8
0
  6
CONTINUOUS
 62
     7
 66
     1
 10
0.0
 20
0.0
 30
0.0
 70
   128
  0
VERTEX
  5
395
  8
0
  6
CONTINUOUS
 62
     7
 10
121.6235695048
 20
151.1214568826
 30
0.0
  0
VERTEX
  5
396
  8
0
  6
CONTINUOUS
 62
     7
 10
121.6880766316
 20
150.9334414812
 30
0.0
  0
VERTEX
  5
397
  8
0
  6
CONTINUOUS
 62
     7
 10
122.0984471603
 20
150.5766220006
 30
0.0
  0
SEQEND
  5
3D1
  8
0
  6
CONTINUOUS
 62
     7
  0
POLYLINE
  5
244
  8
0
  6
CONTINUOUS
 62
     7
 66
     1
 10
0.0
 20
0.0
 30
0.0
 70
   128
  0
VERTEX
  5
398
  8
0
  6
CONTINUOUS
 62
     7
 10
164.5024953051
 20
150.5766220006
 30
0.0
  0
VERTEX
  5
399
  8
0
  6
CONTINUOUS
 62
     7
 10
164.9816793962
 20
151.0206579777
 30
0.0
  0
VERTEX
  5
39A
  8
0
  6
CONTINUOUS
 62
     7
 10
164.9770972891
 20
151.1214345308
 30
0.0
  0
SEQEND
  5
3D2
  8
0
  6
CONTINUOUS
 62
     7
  0
POLYLINE
  5
245
  8
0
  6
CONTINUOUS
 62
     7
 66
     1
 10
0.0
 20
0.0
 30
0.0
 70
   128
  0
VERTEX
  5
39B
  8
0
  6
CONTINUOUS
 62
     7
 10
164.5024953051
 20
150.5766220006
 30
0.0
  0
VERTEX
  5
39C
  8
0
  6
CONTINUOUS
 62
     7
 10
163.3662370606
 20
149.9709233256
 30
0.0
  0
VERTEX
  5
39D
  8
0
  6
CONTINUOUS
 62
     7
 10
161.6643977924
 20
149.4065977248
 30
0.0
  0
VERTEX
  5
39E
  8
0
  6
CONTINUOUS
 62
     7
 10
159.4375906153
 20
148.9003382238
 30
0.0
  0
VERTEX
  5
39F
  8
0
  6
CONTINUOUS
 62
     7
 10
156.7559031411
 20
148.4656266483
 30
0.0
  0
VERTEX
  5
3A0
  8
0
  6
CONTINUOUS
 62
     7
 10
153.6895794435
 20
148.1158963951
 30
0.0
  0
VERTEX
  5
3A1
  8
0
  6
CONTINUOUS
 62
     7
 10
150.3304106756
 20
147.8598273905
 30
0.0
  0
VERTEX
  5
3A2
  8
0
  6
CONTINUOUS
 62
     7
 10
146.7702550455
 20
147.7060548576
 30
0.0
  0
VERTEX
  5
3A3
  8
0
  6
CONTINUOUS
 62
     7
 10
143.1122956439
 20
147.6574956986
 30
0.0
  0
VERTEX
  5
3A4
  8
0
  6
CONTINUOUS
 62
     7
 10
139.4596857591
 20
147.7170258375
 30
0.0
  0
VERTEX
  5
3A5
  8
0
  6
CONTINUOUS
 62
     7
 10
135.9153477116
 20
147.8814601513
 30
0.0
  0
VERTEX
  5
3A6
  8
0
  6
CONTINUOUS
 62
     7
 10
132.5821218653
 20
148.1475799891
 30
0.0
  0
VERTEX
  5
3A7
  8
0
  6
CONTINUOUS
 62
     7
 10
129.5510245128
 20
148.5064707311
 30
0.0
  0
VERTEX
  5
3A8
  8
0
  6
CONTINUOUS
 62
     7
 10
126.9129899903
 20
148.9491730543
 30
0.0
  0
VERTEX
  5
3A9
  8
0
  6
CONTINUOUS
 62
     7
 10
124.7368914648
 20
149.4620523962
 30
0.0
  0
VERTEX
  5
3AA
  8
0
  6
CONTINUOUS
 62
     7
 10
123.161972837
 20
150.0010870012
 30
0.0
  0
VERTEX
  5
3AB
  8
0
  6
CONTINUOUS
 62
     7
 10
122.0984471603
 20
150.5766220006
 30
0.0
  0
SEQEND
  5
3D3
  8
0
  6
CONTINUOUS
 62
     7
  0
LINE
  5
246
  8
0
  6
CONTINUOUS
 62
     7
 10
121.225850062
 20
151.3362347694
 30
0.0
 11
121.5331045552
 21
151.3362347694
 31
0.0
  0
LINE
  5
247
  8
0
  6
CONTINUOUS
 62
     7
 10
121.3333321376
 20
151.0791264089
 30
0.0
 11
121.3119489713
 21
151.203282884
 31
0.0
  0
LINE
  5
248
  8
0
  6
CONTINUOUS
 62
     7
 10
121.8639028831
 20
150.5766220006
 30
0.0
 11
121.3333321376
 21
151.0791264089
 31
0.0
  0
LINE
  5
249
  8
0
  6
CONTINUOUS
 62
     7
 10
164.8652268215
 20
151.3362347694
 30
0.0
 11
165.2889860435
 21
151.203282884
 31
0.0
  0
LINE
  5
24A
  8
0
  6
CONTINUOUS
 62
     7
 10
165.2889860435
 20
151.203282884
 30
0.0
 11
165.2676028772
 21
151.0791264089
 31
0.0
  0
LINE
  5
24B
  8
0
  6
CONTINUOUS
 62
     7
 10
165.2676028772
 20
151.0791264089
 30
0.0
 11
164.7370321317
 21
150.5766220006
 31
0.0
  0
LINE
  5
24C
  8
0
  6
CONTINUOUS
 62
     7
 10
165.0678379102
 20
151.3362347694
 30
0.0
 11
165.3750924035
 21
151.3362347694
 31
0.0
  0
LINE
  5
24D
  8
0
  6
CONTINUOUS
 62
     8
 10
231.732412578
 20
115.2769520494
 30
0.0
 11
231.732412578
 21
114.3769517156
 31
0.0
  0
LINE
  5
24E
  8
0
  6
CONTINUOUS
 62
     8
 10
247.4247676893
 20
114.3769517156
 30
0.0
 11
247.4247676893
 21
115.2769520494
 31
0.0
  0
LINE
  5
24F
  8
0
  6
CONTINUOUS
 62
     8
 10
247.6197037487
 20
115.2769520494
 30
0.0
 11
247.6197037487
 21
114.3769517156
 31
0.0
  0
LINE
  5
250
  8
0
  6
CONTINUOUS
 62
     8
 10
231.5374765186
 20
114.3769517156
 30
0.0
 11
231.5374765186
 21
115.2769520494
 31
0.0
  0
LINE
  5
251
  8
0
  6
CONTINUOUS
 62
     8
 10
247.6197037487
 20
114.3769517156
 30
0.0
 11
247.828590089
 21
114.3769517156
 31
0.0
  0
LINE
  5
252
  8
0
  6
CONTINUOUS
 62
     8
 10
231.3285901784
 20
114.3769517156
 30
0.0
 11
231.5374765186
 21
114.3769517156
 31
0.0
  0
LINE
  5
253
  8
0
  6
CONTINUOUS
 62
     8
 10
120.991231279
 20
154.1269465896
 30
0.0
 11
165.6097111865
 21
154.1269465896
 31
0.0
  0
LINE
  5
254
  8
0
  6
CONTINUOUS
 62
     8
 10
121.0727331801
 20
154.0560952934
 30
0.0
 11
165.5282018347
 21
154.0560952934
 31
0.0
  0
ENDSEC
  0
EOF
